0
SECTION
2
HEADER
9
$ACADVER
1
AC1015
9
$DWGCODEPAGE
3
ANSI_1252
9
$HANDSEED
5
460
9
$ANGBASE
50
0
9
$ANGDIR
70
0
9
$ATTMODE
70
1
9
$AUNITS
70
0
9
$AUPREC
70
0
9
$CECOLOR
62
256
9
$CELTSCALE
40
1
9
$CELTYPE
6
ByLayer
9
$CELWEIGHT
370
18
9
$CLAYER
8
0
9
$CMLJUST
70
0
9
$CMLSCALE
40
1
9
$CMLSTYLE
2
Standard
9
$DIMSTYLE
2
Standard
9
$TEXTSIZE
40
0.2
9
$TEXTSTYLE
7
Standard
9
$LUNITS
70
2
9
$LUPREC
70
4
9
$EXTNAMES
290
1
9
$INSUNITS
70
4
9
$LTSCALE
40
1
9
$LWDISPLAY
290
1
9
$PDMODE
70
0
9
$PDSIZE
40
0
9
$PLINEGEN
70
0
0
ENDSEC
0
SECTION
2
CLASSES
0
CLASS
1
RASTERVARIABLES
2
AcDbRasterVariables
3
ISM
90
0
280
0
281
0
0
ENDSEC
0
SECTION
2
TABLES
0
TABLE
2
VPORT
5
456
100
AcDbSymbolTable
0
VPORT
5
1
100
AcDbSymbolTableRecord
100
AcDbViewportTableRecord
2
*Active
70
0
10
0
20
0
11
1
21
1
12
-1
22
1
13
0
23
0
14
0.5
24
0.5
15
10
25
10
16
0
26
0
36
1
17
0
27
0
37
0
0
ENDTAB
0
TABLE
2
LTYPE
5
457
100
AcDbSymbolTable
0
LTYPE
5
14
100
AcDbSymbolTableRecord
100
AcDbLinetypeTableRecord
70
0
2
ByBlock
3

72
65
73
0
40
0
0
LTYPE
5
15
100
AcDbSymbolTableRecord
100
AcDbLinetypeTableRecord
70
0
2
ByLayer
3

72
65
73
0
40
0
0
LTYPE
5
16
100
AcDbSymbolTableRecord
100
AcDbLinetypeTableRecord
70
0
2
CONTINUOUS
3
Solid line
72
65
73
0
40
0
0
LTYPE
5
6A
100
AcDbSymbolTableRecord
100
AcDbLinetypeTableRecord
70
0
2
CENTER
3
____ _ ____ _ ____ _ ____
72
65
73
4
40
47.5
49
22
74
0
49
-8.5
74
0
49
8.5
74
0
49
-8.5
74
0
0
LTYPE
5
6B
100
AcDbSymbolTableRecord
100
AcDbLinetypeTableRecord
70
0
2
DASHED
3
__ __ __ __ __ __ __ __ __
72
65
73
2
40
25.72
49
12.86
74
0
49
-12.86
74
0
0
ENDTAB
0
TABLE
2
LAYER
5
458
100
AcDbSymbolTable
0
LAYER
5
10
100
AcDbSymbolTableRecord
100
AcDbLayerTableRecord
2
0
70
0
62
7
6
CONTINUOUS
290
1
370
-3
390
0
0
LAYER
5
6D
100
AcDbSymbolTableRecord
100
AcDbLayerTableRecord
2
80
70
0
62
-6
6
CONTINUOUS
290
1
370
-3
390
0
0
LAYER
5
6F
100
AcDbSymbolTableRecord
100
AcDbLayerTableRecord
2
81
70
0
62
-3
6
CONTINUOUS
290
1
370
-3
390
0
0
LAYER
5
76
100
AcDbSymbolTableRecord
100
AcDbLayerTableRecord
2
1
70
0
62
4
6
CONTINUOUS
290
1
370
-3
390
0
0
LAYER
5
7B
100
AcDbSymbolTableRecord
100
AcDbLayerTableRecord
2
4
70
0
62
-2
6
CENTER
290
1
370
-3
390
0
0
LAYER
5
3AD
100
AcDbSymbolTableRecord
100
AcDbLayerTableRecord
2
2
70
0
62
7
6
CONTINUOUS
290
1
370
-3
390
0
0
LAYER
5
440
100
AcDbSymbolTableRecord
100
AcDbLayerTableRecord
2
SK1
70
0
62
4
6
CONTINUOUS
290
1
370
-3
390
0
0
LAYER
5
441
100
AcDbSymbolTableRecord
100
AcDbLayerTableRecord
2
SK4
70
0
62
2
6
CENTER
290
1
370
-3
390
0
0
LAYER
5
442
100
AcDbSymbolTableRecord
100
AcDbLayerTableRecord
2
SK6
70
0
62
5
6
CONTINUOUS
290
1
370
-3
390
0
0
LAYER
5
443
100
AcDbSymbolTableRecord
100
AcDbLayerTableRecord
2
SK2
70
0
62
7
6
CONTINUOUS
290
1
370
-3
390
0
0
ENDTAB
0
TABLE
2
STYLE
5
459
100
AcDbSymbolTable
0
STYLE
5
11
100
AcDbSymbolTableRecord
100
AcDbTextStyleTableRecord
2
Standard
3
txt
70
0
71
0
40
0
41
1
42
0
50
0
0
STYLE
5
3A9
100
AcDbSymbolTableRecord
100
AcDbTextStyleTableRecord
2
iso_b_vert
3
simplex.shx
70
0
71
0
40
0
41
1
42
0
50
0
0
STYLE
5
3AA
100
AcDbSymbolTableRecord
100
AcDbTextStyleTableRecord
2
DWGDirectTextStyle
3
simplex
70
0
71
0
40
0
41
1
42
0
50
0
0
ENDTAB
0
TABLE
2
DIMSTYLE
5
45a
100
AcDbSymbolTable
100
AcDbDimStyleTable
0
DIMSTYLE
105
27
100
AcDbSymbolTableRecord
100
AcDbDimStyleTableRecord
2
Standard
70
0
3
<>
41
0.18
42
0.0625
44
0.18
140
0.18
147
0.09
73
0
74
0
77
1
271
2
275
0
278
52
280
0
340
11
0
ENDTAB
0
TABLE
2
VIEW
5
45b
100
AcDbSymbolTable
0
ENDTAB
0
TABLE
2
UCS
5
45c
100
AcDbSymbolTable
0
ENDTAB
0
TABLE
2
APPID
5
45d
100
AcDbSymbolTable
0
APPID
5
12
100
AcDbSymbolTableRecord
100
AcDbRegAppTableRecord
2
ACAD
70
0
0
ENDTAB
0
TABLE
2
BLOCK_RECORD
5
45e
100
AcDbSymbolTable
0
BLOCK_RECORD
5
1F
100
AcDbSymbolTableRecord
100
AcDbBlockTableRecord
2
*Model_Space
340
0
70
0
0
BLOCK_RECORD
5
1B
100
AcDbSymbolTableRecord
100
AcDbBlockTableRecord
2
*Paper_Space
340
0
70
0
0
BLOCK_RECORD
5
23
100
AcDbSymbolTableRecord
100
AcDbBlockTableRecord
2
*Paper_Space0
340
0
70
0
0
BLOCK_RECORD
5
3AE
100
AcDbSymbolTableRecord
100
AcDbBlockTableRecord
2
DimnDraft3D1
340
0
70
0
0
BLOCK_RECORD
5
3B9
100
AcDbSymbolTableRecord
100
AcDbBlockTableRecord
2
DimnDraft3D2
340
0
70
0
0
BLOCK_RECORD
5
3C3
100
AcDbSymbolTableRecord
100
AcDbBlockTableRecord
2
DimnDraft3D3
340
0
70
0
0
BLOCK_RECORD
5
3CD
100
AcDbSymbolTableRecord
100
AcDbBlockTableRecord
2
DimnDraft3D4
340
0
70
0
0
BLOCK_RECORD
5
3D7
100
AcDbSymbolTableRecord
100
AcDbBlockTableRecord
2
DimnDraft3D5
340
0
70
0
0
ENDTAB
0
ENDSEC
0
SECTION
2
BLOCKS
0
BLOCK
5
20
100
AcDbEntity
8
0
100
AcDbBlockBegin
2
*Model_Space
70
0
10
0
20
0
30
0
3
*Model_Space
0
ENDBLK
5
21
100
AcDbEntity
8
0
100
AcDbBlockEnd
0
BLOCK
5
1C
100
AcDbEntity
8
0
100
AcDbBlockBegin
2
*Paper_Space
70
0
10
0
20
0
30
0
3
*Paper_Space
0
ENDBLK
5
1D
100
AcDbEntity
8
0
100
AcDbBlockEnd
0
BLOCK
5
24
100
AcDbEntity
8
0
100
AcDbBlockBegin
2
*Paper_Space0
70
0
10
0
20
0
30
0
3
*Paper_Space0
0
ENDBLK
5
25
100
AcDbEntity
8
0
100
AcDbBlockEnd
0
BLOCK
5
3B6
100
AcDbEntity
8
0
100
AcDbBlockBegin
2
DimnDraft3D1
70
0
10
0
20
0
30
0
3
DimnDraft3D1
0
MTEXT
5
3AF
100
AcDbEntity
8
SK2
62
256
6
ByLayer
370
18
48
1
60
0
100
AcDbMText
10
-44.25
20
-3.323684
30
0
210
0
220
0
230
1
1
\W0.8132;%%c 50
40
3
41
0
44
1.084337
50
90
71
7
72
5
7
iso_b_vert
0
LINE
5
3B1
100
AcDbEntity
8
SK2
62
256
6
ByLayer
370
13
48
1
60
0
100
AcDbLine
10
-1.7
20
25
30
0
11
-45.5
21
25
31
0
39
0
210
0
220
0
230
1
0
LINE
5
3B2
100
AcDbEntity
8
SK2
62
256
6
ByLayer
370
13
48
1
60
0
100
AcDbLine
10
-1.7
20
-25
30
0
11
-45.5
21
-25
31
0
39
0
210
0
220
0
230
1
0
LINE
5
3B3
100
AcDbEntity
8
SK2
62
256
6
ByLayer
370
13
48
1
60
0
100
AcDbLine
10
-43.5
20
25
30
0
11
-43.5
21
-25
31
0
39
0
210
0
220
0
230
1
0
SOLID
5
3B4
100
AcDbEntity
8
SK2
62
256
6
ByLayer
370
13
48
1
60
0
100
AcDbTrace
10
-43.5
20
25
30
0
11
-43.082003
21
21.825002
31
0
12
-43.917997
22
21.824998
32
0
13
-43.5
23
25
33
0
39
0
210
0
220
0
230
1
0
SOLID
5
3B5
100
AcDbEntity
8
SK2
62
256
6
ByLayer
370
13
48
1
60
0
100
AcDbTrace
10
-43.5
20
-25
30
0
11
-43.917997
21
-21.825002
31
0
12
-43.082003
22
-21.824998
32
0
13
-43.5
23
-25
33
0
39
0
210
0
220
0
230
1
0
ENDBLK
5
3B7
100
AcDbEntity
8
0
100
AcDbBlockEnd
0
BLOCK
5
3C0
100
AcDbEntity
8
0
100
AcDbBlockBegin
2
DimnDraft3D2
70
0
10
0
20
0
30
0
3
DimnDraft3D2
0
MTEXT
5
3BA
100
AcDbEntity
8
2
62
256
6
ByLayer
370
18
48
1
60
0
100
AcDbMText
10
105.75
20
0.315789
30
0
210
0
220
0
230
1
1
\W0.3160; 
40
3
41
0
44
1.084337
50
90
71
7
72
5
7
iso_b_vert
0
LINE
5
3BB
100
AcDbEntity
8
2
62
256
6
ByLayer
370
13
48
1
60
0
100
AcDbLine
10
70
20
31
30
0
11
108.5
21
31
31
0
39
0
210
0
220
0
230
1
0
LINE
5
3BC
100
AcDbEntity
8
2
62
256
6
ByLayer
370
13
48
1
60
0
100
AcDbLine
10
69.966895
20
-31
30
0
11
108.5
21
-31
31
0
39
0
210
0
220
0
230
1
0
LINE
5
3BD
100
AcDbEntity
8
2
62
256
6
ByLayer
370
13
48
1
60
0
100
AcDbLine
10
106.5
20
31
30
0
11
106.5
21
-31
31
0
39
0
210
0
220
0
230
1
0
SOLID
5
3BE
100
AcDbEntity
8
2
62
256
6
ByLayer
370
13
48
1
60
0
100
AcDbTrace
10
106.5
20
31
30
0
11
106.917997
21
27.825002
31
0
12
106.082003
22
27.824998
32
0
13
106.5
23
31
33
0
39
0
210
0
220
0
230
1
0
SOLID
5
3BF
100
AcDbEntity
8
2
62
256
6
ByLayer
370
13
48
1
60
0
100
AcDbTrace
10
106.5
20
-31
30
0
11
106.082003
21
-27.825002
31
0
12
106.917997
22
-27.824998
32
0
13
106.5
23
-31
33
0
39
0
210
0
220
0
230
1
0
ENDBLK
5
3C1
100
AcDbEntity
8
0
100
AcDbBlockEnd
0
BLOCK
5
3CA
100
AcDbEntity
8
0
100
AcDbBlockBegin
2
DimnDraft3D3
70
0
10
0
20
0
30
0
3
DimnDraft3D3
0
MTEXT
5
3C4
100
AcDbEntity
8
2
62
256
6
ByLayer
370
18
48
1
60
0
100
AcDbMText
10
81.237361
20
16.238194
30
0
210
0
220
0
230
1
1
\W0.6258;84%%d
40
3
41
0
44
1.084337
50
48.0000000000003
71
7
72
5
7
iso_b_vert
0
LINE
5
3C5
100
AcDbEntity
8
2
62
256
6
ByLayer
370
13
48
1
60
0
100
AcDbLine
10
69.405216
20
17.647029
30
0
11
70.349842
21
8.659515
31
0
39
0
210
0
220
0
230
1
0
LINE
5
3C6
100
AcDbEntity
8
2
62
256
6
ByLayer
370
13
48
1
60
0
100
AcDbLine
10
70
20
31
30
0
11
90.465305
21
31
31
0
39
0
210
0
220
0
230
1
0
ARC
5
3C7
100
AcDbEntity
8
2
62
256
6
ByLayer
370
13
48
1
60
0
100
AcDbCircle
39
0
10
68.001762
20
31
30
0
40
20.4635429738802
210
0
220
0
230
1
100
AcDbArc
50
276
51
0
0
SOLID
5
3C8
100
AcDbEntity
8
2
62
256
6
ByLayer
370
13
48
1
60
0
100
AcDbTrace
10
70.140785
20
10.648558
30
0
11
73.223432
21
11.516095
31
0
12
73.342932
22
10.688687
32
0
13
70.140785
23
10.648558
33
0
39
0
210
0
220
0
230
1
0
SOLID
5
3C9
100
AcDbEntity
8
2
62
256
6
ByLayer
370
13
48
1
60
0
100
AcDbTrace
10
88.465305
20
31
30
0
11
88.760112
21
27.811203
31
0
12
87.924745
22
27.843554
32
0
13
88.465305
23
31
33
0
39
0
210
0
220
0
230
1
0
ENDBLK
5
3CB
100
AcDbEntity
8
0
100
AcDbBlockEnd
0
BLOCK
5
3D4
100
AcDbEntity
8
0
100
AcDbBlockBegin
2
DimnDraft3D4
70
0
10
0
20
0
30
0
3
DimnDraft3D4
0
MTEXT
5
3CE
100
AcDbEntity
8
2
62
256
6
ByLayer
370
18
48
1
60
0
100
AcDbMText
10
32.997368
20
59.25
30
0
210
0
220
0
230
1
1
\W0.6170;68
40
3
41
0
44
1.084337
50
0
71
7
72
5
7
iso_b_vert
0
LINE
5
3CF
100
AcDbEntity
8
2
62
256
6
ByLayer
370
13
48
1
60
0
100
AcDbLine
10
0
20
26.69
30
0
11
0
21
60.5
31
0
39
0
210
0
220
0
230
1
0
LINE
5
3D0
100
AcDbEntity
8
2
62
256
6
ByLayer
370
13
48
1
60
0
100
AcDbLine
10
68
20
33
30
0
11
68
21
60.5
31
0
39
0
210
0
220
0
230
1
0
LINE
5
3D1
100
AcDbEntity
8
2
62
256
6
ByLayer
370
13
48
1
60
0
100
AcDbLine
10
0
20
58.5
30
0
11
68
21
58.5
31
0
39
0
210
0
220
0
230
1
0
SOLID
5
3D2
100
AcDbEntity
8
2
62
256
6
ByLayer
370
13
48
1
60
0
100
AcDbTrace
10
0
20
58.5
30
0
11
3.174998
21
58.917997
31
0
12
3.175002
22
58.082003
32
0
13
0
23
58.5
33
0
39
0
210
0
220
0
230
1
0
SOLID
5
3D3
100
AcDbEntity
8
2
62
256
6
ByLayer
370
13
48
1
60
0
100
AcDbTrace
10
68
20
58.5
30
0
11
64.825002
21
58.082003
31
0
12
64.824998
22
58.917997
32
0
13
68
23
58.5
33
0
39
0
210
0
220
0
230
1
0
ENDBLK
5
3D5
100
AcDbEntity
8
0
100
AcDbBlockEnd
0
BLOCK
5
3DE
100
AcDbEntity
8
0
100
AcDbBlockBegin
2
DimnDraft3D5
70
0
10
0
20
0
30
0
3
DimnDraft3D5
0
MTEXT
5
3D8
100
AcDbEntity
8
SK2
62
256
6
ByLayer
370
18
48
1
60
0
100
AcDbMText
10
17.997368
20
74.25
30
0
210
0
220
0
230
1
1
\W0.6170;98
40
3
41
0
44
1.084337
50
0
71
7
72
5
7
iso_b_vert
0
LINE
5
3D9
100
AcDbEntity
8
SK2
62
256
6
ByLayer
370
13
48
1
60
0
100
AcDbLine
10
-30
20
17.991832
30
0
11
-30
21
75.5
31
0
39
0
210
0
220
0
230
1
0
LINE
5
3DA
100
AcDbEntity
8
SK2
62
256
6
ByLayer
370
13
48
1
60
0
100
AcDbLine
10
68
20
33
30
0
11
68
21
75.5
31
0
39
0
210
0
220
0
230
1
0
LINE
5
3DB
100
AcDbEntity
8
SK2
62
256
6
ByLayer
370
13
48
1
60
0
100
AcDbLine
10
-30
20
73.5
30
0
11
68
21
73.5
31
0
39
0
210
0
220
0
230
1
0
SOLID
5
3DC
100
AcDbEntity
8
SK2
62
256
6
ByLayer
370
13
48
1
60
0
100
AcDbTrace
10
-30
20
73.5
30
0
11
-26.825002
21
73.917997
31
0
12
-26.824998
22
73.082003
32
0
13
-30
23
73.5
33
0
39
0
210
0
220
0
230
1
0
SOLID
5
3DD
100
AcDbEntity
8
SK2
62
256
6
ByLayer
370
13
48
1
60
0
100
AcDbTrace
10
68
20
73.5
30
0
11
64.825002
21
73.082003
31
0
12
64.824998
22
73.917997
32
0
13
68
23
73.5
33
0
39
0
210
0
220
0
230
1
0
ENDBLK
5
3DF
100
AcDbEntity
8
0
100
AcDbBlockEnd
0
ENDSEC
0
SECTION
2
ENTITIES
0
ARC
5
1FC
100
AcDbEntity
8
SK1
62
256
6
ByLayer
370
18
48
1
60
0
100
AcDbCircle
39
0
10
-0.215842
20
17.577768
30
0
40
0.217493380654834
210
0
220
0
230
1
100
AcDbArc
50
333.140387
51
339.449636
0
ARC
5
1FD
100
AcDbEntity
8
SK1
62
256
6
ByLayer
370
18
48
1
60
0
100
AcDbCircle
39
0
10
-0.197386
20
17.568422
30
0
40
0.196805999608127
210
0
220
0
230
1
100
AcDbArc
50
326.169496
51
333.140387
0
ARC
5
1FE
100
AcDbEntity
8
SK1
62
256
6
ByLayer
370
18
48
1
60
0
100
AcDbCircle
39
0
10
-0.197394
20
17.568426
30
0
40
0.196814555105465
210
0
220
0
230
1
100
AcDbArc
50
319.25072
51
326.169496
0
ARC
5
1FF
100
AcDbEntity
8
SK1
62
256
6
ByLayer
370
18
48
1
60
0
100
AcDbCircle
39
0
10
-0.201432
20
17.571906
30
0
40
0.202145346142116
210
0
220
0
230
1
100
AcDbArc
50
312.513974
51
319.25072
0
ARC
5
200
100
AcDbEntity
8
SK1
62
256
6
ByLayer
370
18
48
1
60
0
100
AcDbCircle
39
0
10
-0.200114
20
17.570469
30
0
40
0.200195401230114
210
0
220
0
230
1
100
AcDbArc
50
305.656113
51
312.513974
0
ARC
5
201
100
AcDbEntity
8
SK1
62
256
6
ByLayer
370
18
48
1
60
0
100
AcDbCircle
39
0
10
-0.199227
20
17.569232
30
0
40
0.198673587579162
210
0
220
0
230
1
100
AcDbArc
50
298.745849
51
305.656113
0
ARC
5
202
100
AcDbEntity
8
SK1
62
256
6
ByLayer
370
18
48
1
60
0
100
AcDbCircle
39
0
10
-0.199082
20
17.568968
30
0
40
0.198372073475906
210
0
220
0
230
1
100
AcDbArc
50
284.974087
51
298.745849
0
ARC
5
203
100
AcDbEntity
8
SK1
62
256
6
ByLayer
370
18
48
1
60
0
100
AcDbCircle
39
0
10
-0.201216
20
17.576945
30
0
40
0.206629135816168
210
0
220
0
230
1
100
AcDbArc
50
271.74768
51
284.974087
0
ARC
5
204
100
AcDbEntity
8
SK1
62
256
6
ByLayer
370
18
48
1
60
0
100
AcDbCircle
39
0
10
-0.786202
20
4.844786
30
0
40
0.64756926009392
210
0
220
0
230
1
100
AcDbArc
50
24.064172
51
59.197466
0
ARC
5
205
100
AcDbEntity
8
SK1
62
256
6
ByLayer
370
18
48
1
60
0
100
AcDbCircle
39
0
10
-0.591456
20
5.171445
30
0
40
0.267264125072605
210
0
220
0
230
1
100
AcDbArc
50
59.197466
51
134.177836
0
ARC
5
206
100
AcDbEntity
8
SK1
62
256
6
ByLayer
370
18
48
1
60
0
100
AcDbCircle
39
0
10
0.014314
20
4.548036
30
0
40
1.136513827875
210
0
220
0
230
1
100
AcDbArc
50
134.177836
51
163.026872
0
ARC
5
207
100
AcDbEntity
8
SK1
62
256
6
ByLayer
370
18
48
1
60
0
100
AcDbCircle
39
0
10
8.296281
20
2.020231
30
0
40
9.79565829658632
210
0
220
0
230
1
100
AcDbArc
50
163.026872
51
166.44554
0
ARC
5
208
100
AcDbEntity
8
SK1
62
256
6
ByLayer
370
18
48
1
60
0
100
AcDbCircle
39
0
10
4.2655
20
2.991989
30
0
40
5.64939352433773
210
0
220
0
230
1
100
AcDbArc
50
166.44554
51
168.505054
0
ARC
5
209
100
AcDbEntity
8
SK1
62
256
6
ByLayer
370
18
48
1
60
0
100
AcDbCircle
39
0
10
3.767674
20
3.093227
30
0
40
5.1413782232027
210
0
220
0
230
1
100
AcDbArc
50
168.505054
51
170.768015
0
ARC
5
20A
100
AcDbEntity
8
SK1
62
256
6
ByLayer
370
18
48
1
60
0
100
AcDbCircle
39
0
10
-5.501988
20
5.402939
30
0
40
5.50303614639601
210
0
220
0
230
1
100
AcDbArc
50
358.719892
51
1.289816
0
ARC
5
20B
100
AcDbEntity
8
SK1
62
256
6
ByLayer
370
18
48
1
60
0
100
AcDbCircle
39
0
10
-0.493746
20
5.291025
30
0
40
0.493543447074873
210
0
220
0
230
1
100
AcDbArc
50
330.636389
51
358.719892
0
ARC
5
20C
100
AcDbEntity
8
SK1
62
256
6
ByLayer
370
18
48
1
60
0
100
AcDbCircle
39
0
10
-0.104686
20
5.072127
30
0
40
0.0471313442153423
210
0
220
0
230
1
100
AcDbArc
50
235.730176
51
330.636389
0
ARC
5
20D
100
AcDbEntity
8
SK1
62
256
6
ByLayer
370
18
48
1
60
0
100
AcDbCircle
39
0
10
-0.027947
20
5.18475
30
0
40
0.183413189090667
210
0
220
0
230
1
100
AcDbArc
50
204.448751
51
235.730176
0
ARC
5
20E
100
AcDbEntity
8
SK1
62
256
6
ByLayer
370
18
48
1
60
0
100
AcDbCircle
39
0
10
24.469908
20
0.816537
30
0
40
26.2082239294167
210
0
220
0
230
1
100
AcDbArc
50
184.32857
51
190.407825
0
ARC
5
20F
100
AcDbEntity
8
SK1
62
256
6
ByLayer
370
18
48
1
60
0
100
AcDbCircle
39
0
10
14.591925
20
0.068854
30
0
40
16.301984773505
210
0
220
0
230
1
100
AcDbArc
50
174.569613
51
184.32857
0
ARC
5
210
100
AcDbEntity
8
SK1
62
256
6
ByLayer
370
18
48
1
60
0
100
AcDbCircle
39
0
10
21.063546
20
-0.546358
30
0
40
22.8027816590878
210
0
220
0
230
1
100
AcDbArc
50
171.641702
51
174.569613
0
ARC
5
211
100
AcDbEntity
8
SK1
62
256
6
ByLayer
370
18
48
1
60
0
100
AcDbCircle
39
0
10
30.83358
20
-1.981805
30
0
40
32.6777031349856
210
0
220
0
230
1
100
AcDbArc
50
169.598353
51
171.641702
0
ARC
5
212
100
AcDbEntity
8
SK1
62
256
6
ByLayer
370
18
48
1
60
0
100
AcDbCircle
39
0
10
-0.215842
20
-17.577768
30
0
40
0.217493382754576
210
0
220
0
230
1
100
AcDbArc
50
20.550365
51
26.859613
0
ARC
5
213
100
AcDbEntity
8
SK1
62
256
6
ByLayer
370
18
48
1
60
0
100
AcDbCircle
39
0
10
-0.197386
20
-17.568422
30
0
40
0.196805999847621
210
0
220
0
230
1
100
AcDbArc
50
26.859613
51
33.830504
0
ARC
5
214
100
AcDbEntity
8
SK1
62
256
6
ByLayer
370
18
48
1
60
0
100
AcDbCircle
39
0
10
-0.197394
20
-17.568426
30
0
40
0.196814553526538
210
0
220
0
230
1
100
AcDbArc
50
33.830504
51
40.74928
0
ARC
5
215
100
AcDbEntity
8
SK1
62
256
6
ByLayer
370
18
48
1
60
0
100
AcDbCircle
39
0
10
-0.201432
20
-17.571906
30
0
40
0.202145345054584
210
0
220
0
230
1
100
AcDbArc
50
40.74928
51
47.486026
0
ARC
5
216
100
AcDbEntity
8
SK1
62
256
6
ByLayer
370
18
48
1
60
0
100
AcDbCircle
39
0
10
-0.200114
20
-17.570469
30
0
40
0.2001954031735
210
0
220
0
230
1
100
AcDbArc
50
47.486026
51
54.343887
0
ARC
5
217
100
AcDbEntity
8
SK1
62
256
6
ByLayer
370
18
48
1
60
0
100
AcDbCircle
39
0
10
-0.199227
20
-17.569232
30
0
40
0.198673590320262
210
0
220
0
230
1
100
AcDbArc
50
54.343887
51
61.25415
0
ARC
5
218
100
AcDbEntity
8
SK1
62
256
6
ByLayer
370
18
48
1
60
0
100
AcDbCircle
39
0
10
-0.20075
20
-17.572009
30
0
40
0.20184097286954
210
0
220
0
230
1
100
AcDbArc
50
61.25415
51
68.01125
0
ARC
5
219
100
AcDbEntity
8
SK1
62
256
6
ByLayer
370
18
48
1
60
0
100
AcDbCircle
39
0
10
-0.19941
20
-17.568689
30
0
40
0.198260298227841
210
0
220
0
230
1
100
AcDbArc
50
68.01125
51
74.890096
0
ARC
5
21A
100
AcDbEntity
8
SK1
62
256
6
ByLayer
370
18
48
1
60
0
100
AcDbCircle
39
0
10
-0.198956
20
-17.567007
30
0
40
0.1965178356917
210
0
220
0
230
1
100
AcDbArc
50
74.890096
51
81.856262
0
ARC
5
21B
100
AcDbEntity
8
SK1
62
256
6
ByLayer
370
18
48
1
60
0
100
AcDbCircle
39
0
10
-0.201443
20
-17.584388
30
0
40
0.214075806613472
210
0
220
0
230
1
100
AcDbArc
50
81.856262
51
88.252319
0
ARC
5
21C
100
AcDbEntity
8
SK1
62
256
6
ByLayer
370
18
48
1
60
0
100
AcDbCircle
39
0
10
-0.790856
20
-4.839526
30
0
40
0.653969388366706
210
0
220
0
230
1
100
AcDbArc
50
300.885026
51
335.681235
0
ARC
5
21D
100
AcDbEntity
8
SK1
62
256
6
ByLayer
370
18
48
1
60
0
100
AcDbCircle
39
0
10
-0.591935
20
-5.172095
30
0
40
0.266449740006978
210
0
220
0
230
1
100
AcDbArc
50
225.7596
51
300.885026
0
ARC
5
21E
100
AcDbEntity
8
SK1
62
256
6
ByLayer
370
18
48
1
60
0
100
AcDbCircle
39
0
10
0.037611
20
-4.525631
30
0
40
1.16880407420208
210
0
220
0
230
1
100
AcDbArc
50
197.665909
51
225.7596
0
ARC
5
21F
100
AcDbEntity
8
SK1
62
256
6
ByLayer
370
18
48
1
60
0
100
AcDbCircle
39
0
10
5.570406
20
-2.763518
30
0
40
6.97542701288668
210
0
220
0
230
1
100
AcDbArc
50
192.864699
51
197.665909
0
ARC
5
220
100
AcDbEntity
8
SK1
62
256
6
ByLayer
370
18
48
1
60
0
100
AcDbCircle
39
0
10
5.116947
20
-2.86708
30
0
40
6.51029268332325
210
0
220
0
230
1
100
AcDbArc
50
191.078039
51
192.864699
0
ARC
5
221
100
AcDbEntity
8
SK1
62
256
6
ByLayer
370
18
48
1
60
0
100
AcDbCircle
39
0
10
3.784495
20
-3.127966
30
0
40
5.15254075904474
210
0
220
0
230
1
100
AcDbArc
50
188.820684
51
191.078039
0
ARC
5
222
100
AcDbEntity
8
SK1
62
256
6
ByLayer
370
18
48
1
60
0
100
AcDbCircle
39
0
10
-1.79042
20
17.532288
30
0
40
0.209773443832216
210
0
220
0
230
1
100
AcDbArc
50
187.325016
51
195.368017
0
ARC
5
223
100
AcDbEntity
8
SK1
62
256
6
ByLayer
370
18
48
1
60
0
100
AcDbCircle
39
0
10
-1.803281
20
17.528753
30
0
40
0.196435235347128
210
0
220
0
230
1
100
AcDbArc
50
195.368017
51
203.95517
0
ARC
5
224
100
AcDbEntity
8
SK1
62
256
6
ByLayer
370
18
48
1
60
0
100
AcDbCircle
39
0
10
-1.799246
20
17.530546
30
0
40
0.200849823022236
210
0
220
0
230
1
100
AcDbArc
50
203.95517
51
210.775072
0
ARC
5
225
100
AcDbEntity
8
SK1
62
256
6
ByLayer
370
18
48
1
60
0
100
AcDbCircle
39
0
10
-1.800324
20
17.529904
30
0
40
0.199595407220695
210
0
220
0
230
1
100
AcDbArc
50
210.775072
51
217.637733
0
ARC
5
226
100
AcDbEntity
8
SK1
62
256
6
ByLayer
370
18
48
1
60
0
100
AcDbCircle
39
0
10
-1.80001
20
17.530146
30
0
40
0.199992796642455
210
0
220
0
230
1
100
AcDbArc
50
217.637733
51
224.481529
0
ARC
5
227
100
AcDbEntity
8
SK1
62
256
6
ByLayer
370
18
48
1
60
0
100
AcDbCircle
39
0
10
-1.799882
20
17.530272
30
0
40
0.200171375860178
210
0
220
0
230
1
100
AcDbArc
50
224.481529
51
231.319234
0
ARC
5
228
100
AcDbEntity
8
SK1
62
256
6
ByLayer
370
18
48
1
60
0
100
AcDbCircle
39
0
10
-1.800484
20
17.52952
30
0
40
0.199208374866853
210
0
220
0
230
1
100
AcDbArc
50
231.319234
51
238.199535
0
ARC
5
229
100
AcDbEntity
8
SK1
62
256
6
ByLayer
370
18
48
1
60
0
100
AcDbCircle
39
0
10
-1.799573
20
17.530989
30
0
40
0.200937439072489
210
0
220
0
230
1
100
AcDbArc
50
238.199535
51
245.020771
0
ARC
5
22A
100
AcDbEntity
8
SK1
62
256
6
ByLayer
370
18
48
1
60
0
100
AcDbCircle
39
0
10
-1.801775
20
17.526262
30
0
40
0.195722157879267
210
0
220
0
230
1
100
AcDbArc
50
245.020771
51
258.504005
0
ARC
5
22B
100
AcDbEntity
8
SK1
62
256
6
ByLayer
370
18
48
1
60
0
100
AcDbCircle
39
0
10
-1.798263
20
17.543529
30
0
40
0.213342770289282
210
0
220
0
230
1
100
AcDbArc
50
258.504005
51
270.882646
0
ARC
5
22C
100
AcDbEntity
8
SK1
62
256
6
ByLayer
370
18
48
1
60
0
100
AcDbCircle
39
0
10
-2.081968
20
-5.542852
30
0
40
2.08325974699717
210
0
220
0
230
1
100
AcDbArc
50
357.98213
51
0.088682
0
ARC
5
22D
100
AcDbEntity
8
SK1
62
256
6
ByLayer
370
18
48
1
60
0
100
AcDbCircle
39
0
10
-2.582199
20
-5.543626
30
0
40
2.58349157074255
210
0
220
0
230
1
100
AcDbArc
50
0.088682
51
1.787418
0
ARC
5
22E
100
AcDbEntity
8
SK1
62
256
6
ByLayer
370
18
48
1
60
0
100
AcDbCircle
39
0
10
-6.942308
20
-5.679689
30
0
40
6.94572320847273
210
0
220
0
230
1
100
AcDbArc
50
1.787418
51
3.420135
0
ARC
5
22F
100
AcDbEntity
8
SK1
62
256
6
ByLayer
370
18
48
1
60
0
100
AcDbCircle
39
0
10
-0.619882
20
-5.301838
30
0
40
0.61201606025582
210
0
220
0
230
1
100
AcDbArc
50
3.420135
51
21.791928
0
ARC
5
230
100
AcDbEntity
8
SK1
62
256
6
ByLayer
370
18
48
1
60
0
100
AcDbCircle
39
0
10
-0.105346
20
-5.096123
30
0
40
0.0578808369308586
210
0
220
0
230
1
100
AcDbArc
50
21.791928
51
108.236096
0
ARC
5
231
100
AcDbEntity
8
SK1
62
256
6
ByLayer
370
18
48
1
60
0
100
AcDbCircle
39
0
10
-0.087308
20
-5.15087
30
0
40
0.115523397554014
210
0
220
0
230
1
100
AcDbArc
50
108.236096
51
158.664141
0
ARC
5
232
100
AcDbEntity
8
SK1
62
256
6
ByLayer
370
18
48
1
60
0
100
AcDbCircle
39
0
10
-1.79042
20
-17.532288
30
0
40
0.209773443831964
210
0
220
0
230
1
100
AcDbArc
50
164.631983
51
172.674984
0
ARC
5
233
100
AcDbEntity
8
SK1
62
256
6
ByLayer
370
18
48
1
60
0
100
AcDbCircle
39
0
10
-1.803281
20
-17.528753
30
0
40
0.196435235347086
210
0
220
0
230
1
100
AcDbArc
50
156.04483
51
164.631983
0
ARC
5
234
100
AcDbEntity
8
SK1
62
256
6
ByLayer
370
18
48
1
60
0
100
AcDbCircle
39
0
10
-1.799407
20
-17.530474
30
0
40
0.200674367362431
210
0
220
0
230
1
100
AcDbArc
50
147.644219
51
156.04483
0
ARC
5
235
100
AcDbEntity
8
SK1
62
256
6
ByLayer
370
18
48
1
60
0
100
AcDbCircle
39
0
10
-1.800297
20
-17.52991
30
0
40
0.199620801100718
210
0
220
0
230
1
100
AcDbArc
50
139.199432
51
147.644219
0
ARC
5
236
100
AcDbEntity
8
SK1
62
256
6
ByLayer
370
18
48
1
60
0
100
AcDbCircle
39
0
10
-1.801682
20
-17.528715
30
0
40
0.19779063251454
210
0
220
0
230
1
100
AcDbArc
50
113.631293
51
139.199432
0
ARC
5
237
100
AcDbEntity
8
SK1
62
256
6
ByLayer
370
18
48
1
60
0
100
AcDbCircle
39
0
10
-1.798159
20
-17.536766
30
0
40
0.206579412392757
210
0
220
0
230
1
100
AcDbArc
50
89.117354
51
113.631293
0
ARC
5
238
100
AcDbEntity
8
1
62
256
6
ByLayer
370
13
48
0.05
60
0
100
AcDbCircle
39
0
10
67.603
20
-30.603
30
0
40
0.396999999999999
210
0
220
0
230
1
100
AcDbArc
50
264
51
354
0
ARC
5
239
100
AcDbEntity
8
1
62
256
6
ByLayer
370
18
48
1
60
0
100
AcDbCircle
39
0
10
62.9
20
7.845
30
0
40
0.6
210
0
220
0
230
1
100
AcDbArc
50
346.16813
51
0
0
ARC
5
23A
100
AcDbEntity
8
1
62
256
6
ByLayer
370
18
48
1
60
0
100
AcDbCircle
39
0
10
62.9
20
-19.249129
30
0
40
0.6
210
0
220
0
230
1
100
AcDbArc
50
270
51
0
0
ARC
5
23B
100
AcDbEntity
8
1
62
256
6
ByLayer
370
18
48
1
60
0
100
AcDbCircle
39
0
10
62.9
20
7.558137
30
0
40
0.6
210
0
220
0
230
1
100
AcDbArc
50
0
51
90
0
ARC
5
23C
100
AcDbEntity
8
1
62
256
6
ByLayer
370
18
48
1
60
0
100
AcDbCircle
39
0
10
-45.901762
20
24.373655
30
0
40
0.5
210
0
220
0
230
-1
100
AcDbArc
50
187.5
51
172.5
0
ARC
5
23D
100
AcDbEntity
8
1
62
256
6
ByLayer
370
18
48
1
60
0
100
AcDbCircle
39
0
10
45.901762
20
24.373655
30
0
40
0.655662432702594
210
0
220
0
230
1
100
AcDbArc
50
7.5
51
352.5
0
ARC
5
23E
100
AcDbEntity
8
1
62
256
6
ByLayer
370
18
48
1
60
0
100
AcDbCircle
39
0
10
-66.501762
20
8.073655
30
0
40
4.99999999999767
210
0
220
0
230
-1
100
AcDbArc
50
28.086407
51
70
0
CIRCLE
5
23F
100
AcDbEntity
8
1
62
256
6
ByLayer
370
18
48
1
60
0
100
AcDbCircle
10
-45.901762
20
24.373655
30
0
40
0.775
39
0
210
0
220
0
230
-1
0
ELLIPSE
5
240
100
AcDbEntity
8
1
62
256
6
ByLayer
370
18
48
1
60
0
100
AcDbEllipse
10
102.220597
20
0
30
0
11
78.4212366421594
21
21.2186851339263
31
0
210
0
220
0
230
-1
40
0.162467
41
2.37189906806044
42
2.51949230910632
0
ELLIPSE
5
241
100
AcDbEntity
8
1
62
256
6
ByLayer
370
18
48
1
60
0
100
AcDbEllipse
10
68.386383
20
-15.138347
30
0
11
0.950692525027117
21
6.49994272909663
31
0
210
0
220
0
230
-1
40
0.028701
41
-1.94537488445871
42
-1.15284442394862
0
ELLIPSE
5
242
100
AcDbEntity
8
1
62
256
6
ByLayer
370
18
48
1
60
0
100
AcDbEllipse
10
63.505967
20
-25.435121
30
0
11
1.61110100701109
21
2.31300902474015
31
0
210
0
220
0
230
-1
40
0.21989
41
-2.394098754599
42
-1.15989215341292
0
ELLIPSE
5
243
100
AcDbEntity
8
1
62
256
6
ByLayer
370
18
48
1
60
0
100
AcDbEllipse
10
66.501762
20
-13.077745
30
0
11
4.81702077352865
21
6.67883588421661
31
0
210
0
220
0
230
-1
40
0.200673
41
2.73968603760835
42
2.93686603264328
0
ELLIPSE
5
244
100
AcDbEntity
8
1
62
256
6
ByLayer
370
18
48
1
60
0
100
AcDbEllipse
10
66.501762
20
-17.88171
30
0
11
5
21
0
31
0
210
0
220
0
230
1
40
0.551937
41
3.14159265358979
42
-2.46831449142296
0
ELLIPSE
5
245
100
AcDbEntity
8
1
62
256
6
ByLayer
370
18
48
1
60
0
100
AcDbEllipse
10
63.287818
20
-23.331761
30
0
11
1.44226377889343
21
0.149583395107985
31
0
210
0
220
0
230
1
40
0.54224
41
0
42
0.220010062172597
0
ELLIPSE
5
246
100
AcDbEntity
8
1
62
256
6
ByLayer
370
18
48
1
60
0
100
AcDbEllipse
10
63.287818
20
-23.331761
30
0
11
1.44226377889343
21
0.149583395107985
31
0
210
0
220
0
230
1
40
0.54224
41
-1.25084475042678
42
0
0
ELLIPSE
5
247
100
AcDbEntity
8
1
62
256
6
ByLayer
370
18
48
1
60
0
100
AcDbEllipse
10
66.501762
20
-18.548819
30
0
11
-5
21
6.12303176911189E-16
31
0
210
1.24683249835833E-15
220
0
230
1
40
0.551937
41
0
42
0.476098167219019
0
ELLIPSE
5
248
100
AcDbEntity
8
1
62
256
6
ByLayer
370
18
48
1
60
0
100
AcDbEllipse
10
63.703447
20
-27.338957
30
0
11
1.90720399044668
21
-0.00119990975915974
31
0
210
0
220
0
230
-1
40
0.54988
41
-2.73272643527012
42
-2.70102759377848
0
ELLIPSE
5
249
100
AcDbEntity
8
1
62
256
6
ByLayer
370
18
48
1
60
0
100
AcDbEllipse
10
66.970813
20
-15.138347
30
0
11
4.03082762896957
21
6.40758403528924
31
0
210
0
220
0
230
-1
40
0.270958
41
1.77234778748239
42
-2.72573661830785
0
ELLIPSE
5
24A
100
AcDbEntity
8
1
62
256
6
ByLayer
370
18
48
1
60
0
100
AcDbEllipse
10
62.339001
20
25.381575
30
0
11
0.326745207485905
21
0.0343423051572421
31
0
210
0
220
0
230
-1
40
0.510128
41
0.317077564754274
42
1.5707963267949
0
ELLIPSE
5
24B
100
AcDbEntity
8
1
62
256
6
ByLayer
370
18
48
1
60
0
100
AcDbEllipse
10
62.468825
20
24.146378
30
0
11
-0.112305380934756
21
1.06851432438367
31
0
210
0
220
0
230
1
40
0.996195
41
-0.782387088380209
42
-5.31092090407801E-14
0
ELLIPSE
5
24C
100
AcDbEntity
8
1
62
256
6
ByLayer
370
18
48
1
60
0
100
AcDbEllipse
10
62.468825
20
24.146378
30
0
11
-0.112305380934756
21
1.06851432438367
31
0
210
0
220
0
230
1
40
0.996195
41
-1.89899478131321
42
-1.22592464552857
0
ELLIPSE
5
24D
100
AcDbEntity
8
1
62
256
6
ByLayer
370
18
48
1
60
0
100
AcDbEllipse
10
62.35181
20
24.13408
30
0
11
-0.147353774668397
21
1.40197751590066
31
0
210
0
220
0
230
1
40
0.996195
41
0.52359877559833
42
1.5707963267949
0
ELLIPSE
5
24E
100
AcDbEntity
8
1
62
256
6
ByLayer
370
18
48
1
60
0
100
AcDbEllipse
10
62.35181
20
24.13408
30
0
11
-0.147353774668397
21
1.40197751590066
31
0
210
0
220
0
230
1
40
0.996195
41
-2.61799387799154
42
-1.57079632679489
0
ELLIPSE
5
24F
100
AcDbEntity
8
1
62
256
6
ByLayer
370
18
48
1
60
0
100
AcDbEllipse
10
62.468825
20
24.146378
30
0
11
-0.112305380934756
21
1.06851432438367
31
0
210
0
220
0
230
1
40
0.996195
41
0.128314548408038
42
1.04719755119662
0
ELLIPSE
5
250
100
AcDbEntity
8
1
62
256
6
ByLayer
370
18
48
1
60
0
100
AcDbEllipse
10
61.741088
20
25.151505
30
0
11
0.265509374245937
21
0.194045260686871
31
0
210
0
220
0
230
-1
40
0.509152
41
2.93304503394638
42
-0.612689599861909
0
ELLIPSE
5
251
100
AcDbEntity
8
1
62
256
6
ByLayer
370
18
48
1
60
0
100
AcDbEllipse
10
61.965968
20
23.011911
30
0
11
0.300051635635572
21
-0.134602403247228
31
0
210
0
220
0
230
-1
40
0.509152
41
0.706725092708367
42
-2.93304503394674
0
ELLIPSE
5
252
100
AcDbEntity
8
1
62
256
6
ByLayer
370
18
48
1
60
0
100
AcDbEllipse
10
62.468825
20
24.146378
30
0
11
-0.112305380934756
21
1.06851432438367
31
0
210
0
220
0
230
1
40
0.996195
41
2.09439510239318
42
3.14159265358979
0
ELLIPSE
5
253
100
AcDbEntity
8
1
62
256
6
ByLayer
370
18
48
1
60
0
100
AcDbEllipse
10
61.468097
20
23.416777
30
0
11
0.192922535723737
21
-0.267100713770936
31
0
210
0
220
0
230
-1
40
0.507214
41
-1.57305112794564
42
-0.319332365939186
0
ELLIPSE
5
254
100
AcDbEntity
8
1
62
256
6
ByLayer
370
18
48
1
60
0
100
AcDbEllipse
10
62.35181
20
24.13408
30
0
11
-0.147353774668397
21
1.40197751590066
31
0
210
0
220
0
230
1
40
0.996195
41
-0.523598775598292
42
0.52359877559833
0
ELLIPSE
5
255
100
AcDbEntity
8
1
62
256
6
ByLayer
370
18
48
1
60
0
100
AcDbEllipse
10
62.357694
20
24.134698
30
0
11
0.250868311842342
21
-2.38685254888386
31
0
210
0
220
0
230
1
40
0.996195
41
0
42
6.28318530717959
0
ELLIPSE
5
256
100
AcDbEntity
8
1
62
256
6
ByLayer
370
18
48
1
60
0
100
AcDbEllipse
10
61.23823
20
24.017038
30
0
11
0.0344734871856548
21
-0.327993321092466
31
0
210
0
220
0
230
-1
40
0.506253
41
0.21087049072406
42
2.93072648561033
0
ELLIPSE
5
257
100
AcDbEntity
8
1
62
256
6
ByLayer
370
18
48
1
60
0
100
AcDbEllipse
10
62.35181
20
24.13408
30
0
11
0.156792694901463
21
-1.49178284305241
31
0
210
0
220
0
230
1
40
0.996195
41
0
42
6.28318530717959
0
ELLIPSE
5
258
100
AcDbEntity
8
1
62
256
6
ByLayer
370
18
48
1
60
0
100
AcDbEllipse
10
62.468825
20
24.146378
30
0
11
0.112305380934755
21
-1.06851432438367
31
0
210
0
220
0
230
1
40
0.996195
41
0
42
0.781013460241086
0
ELLIPSE
5
259
100
AcDbEntity
8
1
62
256
6
ByLayer
370
18
48
1
60
0
100
AcDbEllipse
10
62.59865
20
22.911182
30
0
11
0.326745207486837
21
0.034342305162753
31
0
210
0
220
0
230
-1
40
0.510128
41
-1.5707963267949
42
-0.317077564751971
0
ELLIPSE
5
25A
100
AcDbEntity
8
1
62
256
6
ByLayer
370
18
48
1
60
0
100
AcDbEllipse
10
61.338272
20
24.651973
30
0
11
0.133173354416926
21
0.30137477291765
31
0
210
0
220
0
230
-1
40
0.507214
41
1.5730511279769
42
2.82676989002583
0
ELLIPSE
5
25B
100
AcDbEntity
8
1
62
256
6
ByLayer
370
18
48
1
60
0
100
AcDbEllipse
10
62.468825
20
24.146378
30
0
11
-0.112305380934756
21
1.06851432438367
31
0
210
0
220
0
230
1
40
0.996195
41
1.04719755119659
42
2.09439510239318
0
ELLIPSE
5
25C
100
AcDbEntity
8
1
62
256
6
ByLayer
370
18
48
1
60
0
100
AcDbEllipse
10
62.35181
20
24.13408
30
0
11
-0.147353774668397
21
1.40197751590066
31
0
210
0
220
0
230
1
40
0.996195
41
2.61799387799147
42
-2.61799387799154
0
ELLIPSE
5
25D
100
AcDbEntity
8
1
62
256
6
ByLayer
370
18
48
1
60
0
100
AcDbEllipse
10
62.971682
20
25.280846
30
0
11
0.300051635635574
21
-0.134602403247198
31
0
210
0
220
0
230
-1
40
0.509152
41
2.9285061720884
42
-2.43486654220567
0
ELLIPSE
5
25E
100
AcDbEntity
8
1
62
256
6
ByLayer
370
18
48
1
60
0
100
AcDbEllipse
10
63.196563
20
23.141251
30
0
11
0.2655093742459
21
0.19404526068687
31
0
210
0
220
0
230
-1
40
0.509152
41
2.52890196913059
42
-2.92850617208866
0
ELLIPSE
5
25F
100
AcDbEntity
8
1
62
256
6
ByLayer
370
18
48
1
60
0
100
AcDbEllipse
10
62.35181
20
24.13408
30
0
11
-0.147353774668397
21
1.40197751590066
31
0
210
0
220
0
230
1
40
0.996195
41
1.5707963267949
42
2.61799387799147
0
ELLIPSE
5
260
100
AcDbEntity
8
1
62
256
6
ByLayer
370
18
48
1
60
0
100
AcDbEllipse
10
62.35181
20
24.13408
30
0
11
-0.147353774668397
21
1.40197751590066
31
0
210
0
220
0
230
1
40
0.996195
41
-1.57079632679489
42
-0.523598775598292
0
ELLIPSE
5
261
100
AcDbEntity
8
1
62
256
6
ByLayer
370
18
48
1
60
0
100
AcDbEllipse
10
61.468097
20
23.416777
30
0
11
0.192922535712858
21
-0.267100713772658
31
0
210
0
220
0
230
-1
40
0.507214
41
-2.82676989003094
42
-1.57305112800979
0
ELLIPSE
5
262
100
AcDbEntity
8
1
62
256
6
ByLayer
370
18
48
1
60
0
100
AcDbEllipse
10
61.338272
20
24.651973
30
0
11
0.133173354416956
21
0.301374772921145
31
0
210
0
220
0
230
-1
40
0.507214
41
0.319332365945386
42
1.57305112798497
0
ELLIPSE
5
263
100
AcDbEntity
8
1
62
256
6
ByLayer
370
18
48
1
60
0
100
AcDbEllipse
10
62.42982
20
24.142279
30
0
11
0.250868311842342
21
-2.38685254888386
31
0
210
0
220
0
230
1
40
0.996195
41
3.55980384410862E-05
42
3.14153014702201
0
ELLIPSE
5
264
100
AcDbEntity
8
1
62
256
6
ByLayer
370
18
48
1
60
0
100
AcDbEllipse
10
56.531574
20
-13.055836
30
0
11
0.995264174726101
21
-0.0972071114002019
31
0
210
0
220
0
230
1
40
0.452653
41
-2.94072840774274
42
-1.89353085654609
0
ELLIPSE
5
265
100
AcDbEntity
8
1
62
256
6
ByLayer
370
18
48
1
60
0
100
AcDbEllipse
10
67.581448
20
-14.503103
30
0
11
0.497632087363052
21
-0.0486035557001011
31
0
210
0
220
0
230
1
40
0.452653
41
-0.322734529751272
42
-0.0958417269920219
0
ELLIPSE
5
266
100
AcDbEntity
8
1
62
256
6
ByLayer
370
18
48
1
60
0
100
AcDbEllipse
10
67.906767
20
-10.367429
30
0
11
9.95264174726103
21
-0.972071114002021
31
0
210
0
220
0
230
1
40
0.452653
41
-1.63173146874699
42
-1.6226308398288
0
ELLIPSE
5
267
100
AcDbEntity
8
1
62
256
6
ByLayer
370
18
48
1
60
0
100
AcDbEllipse
10
65.480486
20
-14.087691
30
0
11
9.95264174726105
21
-0.972071114002023
31
0
210
0
220
0
230
1
40
0.452653
41
3.0995581336427
42
3.11556409667759
0
ELLIPSE
5
268
100
AcDbEntity
8
1
62
256
6
ByLayer
370
18
48
1
60
0
100
AcDbEllipse
10
66.490844
20
-10.822147
30
0
11
-0.781435742101832
21
0.076322561550553
31
0
210
0
220
0
230
1
40
0.452653
41
1.50986118484279
42
3.0806575116377
0
ELLIPSE
5
269
100
AcDbEntity
8
1
62
256
6
ByLayer
370
18
48
1
60
0
100
AcDbEllipse
10
64.247023
20
-9.192969
30
0
11
4.97632087363033
21
-0.486035557000993
31
0
210
0
220
0
230
1
40
0.452653
41
-0.0518345130338985
42
-0.0420345199470912
0
ELLIPSE
5
26A
100
AcDbEntity
8
1
62
256
6
ByLayer
370
18
48
1
60
0
100
AcDbEllipse
10
60.517805
20
-13.507428
30
0
11
4.97632087363033
21
-0.486035557000993
31
0
210
0
220
0
230
1
40
0.452653
41
3.0897581405559
42
3.0995581336427
0
ELLIPSE
5
26B
100
AcDbEntity
8
1
62
256
6
ByLayer
370
18
48
1
60
0
100
AcDbEllipse
10
66.397248
20
-11.091318
30
0
11
0.0498581853543235
21
0.396880537886621
31
0
210
0
220
0
230
1
40
0.054301
41
-2.67110409685534
42
-1.76498686300803
0
ELLIPSE
5
26C
100
AcDbEntity
8
1
62
256
6
ByLayer
370
18
48
1
60
0
100
AcDbEllipse
10
59.288785
20
-8.590879
30
0
11
9.95264174726103
21
-0.972071114002021
31
0
210
0
220
0
230
1
40
0.452653
41
-0.0609351419520895
42
-0.0518345130338981
0
ELLIPSE
5
26D
100
AcDbEntity
8
1
62
256
6
ByLayer
370
18
48
1
60
0
100
AcDbEllipse
10
57.861088
20
-10.018962
30
0
11
0.0498581853543235
21
0.396880537886621
31
0
210
0
220
0
230
1
40
0.054301
41
-2.67110409685305
42
-1.76498686300802
0
ELLIPSE
5
26E
100
AcDbEntity
8
1
62
256
6
ByLayer
370
18
48
1
60
0
100
AcDbEllipse
10
67.60204
20
-10.740097
30
0
11
-0.389344188343521
21
0.0917120657445066
31
0
210
0
220
0
230
1
40
0.890032
41
0.78407117703031
42
1.69018841087401
0
ELLIPSE
5
26F
100
AcDbEntity
8
1
62
256
6
ByLayer
370
18
48
1
60
0
100
AcDbEllipse
10
56.039557
20
-13.053151
30
0
11
0.497632087363052
21
-0.0486035557001011
31
0
210
0
220
0
230
1
40
0.452653
41
3.11556409667757
42
-2.94072840774283
0
ELLIPSE
5
270
100
AcDbEntity
8
1
62
256
6
ByLayer
370
18
48
1
60
0
100
AcDbEllipse
10
67.116486
20
-14.385567
30
0
11
0.995264174726101
21
-0.0972071114002019
31
0
210
0
220
0
230
1
40
0.452653
41
-1.36993208094787
42
-0.322734529751238
0
ELLIPSE
5
271
100
AcDbEntity
8
1
62
256
6
ByLayer
370
18
48
1
60
0
100
AcDbEllipse
10
65.476044
20
-14.109518
30
0
11
9.95264174726103
21
-0.972071114002021
31
0
210
0
220
0
230
1
40
0.452653
41
3.0806575116377
42
3.0897581405559
0
ELLIPSE
5
272
100
AcDbEntity
8
1
62
256
6
ByLayer
370
18
48
1
60
0
100
AcDbEllipse
10
57.229475
20
-10.093358
30
0
11
0.746448131044576
21
-0.0729053335501515
31
0
210
0
220
0
230
1
40
0.452653
41
3.0806575116377
42
-1.6317314687471
0
ELLIPSE
5
273
100
AcDbEntity
8
1
62
256
6
ByLayer
370
18
48
1
60
0
100
AcDbEllipse
10
63.152757
20
-13.838444
30
0
11
4.97632087363033
21
-0.486035557000993
31
0
210
0
220
0
230
1
40
0.452653
41
-0.0798357639570903
42
-0.0700357708702821
0
ELLIPSE
5
274
100
AcDbEntity
8
1
62
256
6
ByLayer
370
18
48
1
60
0
100
AcDbEllipse
10
66.477558
20
-10.958175
30
0
11
-1.09479059219871
21
0.106927822540224
31
0
210
0
220
0
230
1
40
0.452653
41
1.50986118484281
42
3.0806575116377
0
ELLIPSE
5
275
100
AcDbEntity
8
1
62
256
6
ByLayer
370
18
48
1
60
0
100
AcDbEllipse
10
56.886258
20
-9.393925
30
0
11
0.389344188343521
21
-0.0917120657445064
31
0
210
0
220
0
230
1
40
0.890032
41
-1.45140424271585
42
-0.545287008872147
0
ELLIPSE
5
276
100
AcDbEntity
8
1
62
256
6
ByLayer
370
18
48
1
60
0
100
AcDbEllipse
10
58.204031
20
-13.195971
30
0
11
9.95264174726103
21
-0.972071114002021
31
0
210
0
220
0
230
1
40
0.452653
41
-0.0700357708702841
42
-0.0609351419520894
0
ELLIPSE
5
277
100
AcDbEntity
8
1
62
256
6
ByLayer
370
18
48
1
60
0
100
AcDbEllipse
10
57.673769
20
-9.08222
30
0
11
9.95264174726105
21
-0.972071114002023
31
0
210
0
220
0
230
1
40
0.452653
41
-1.66663805378688
42
-1.65063209075199
0
ELLIPSE
5
278
100
AcDbEntity
8
1
62
256
6
ByLayer
370
18
48
1
60
0
100
AcDbEllipse
10
67.378172
20
-7.13481
30
0
11
-1.09479059219871
21
0.106927822540224
31
0
210
0
220
0
230
1
40
0.452653
41
3.08065751163772
42
-2.40942282444094
0
ELLIPSE
5
279
100
AcDbEntity
8
1
62
256
6
ByLayer
370
18
48
1
60
0
100
AcDbEllipse
10
59.284343
20
-8.612706
30
0
11
9.95264174726105
21
-0.972071114002023
31
0
210
0
220
0
230
1
40
0.452653
41
-0.0420345199470916
42
-0.0260285569122048
0
ELLIPSE
5
27A
100
AcDbEntity
8
1
62
256
6
ByLayer
370
18
48
1
60
0
100
AcDbEllipse
10
56.35288
20
-13.254045
30
0
11
0.497632087363052
21
-0.0486035557001011
31
0
210
0
220
0
230
1
40
0.452653
41
-1.89353085654609
42
-1.66663805378691
0
ELLIPSE
5
27B
100
AcDbEntity
8
1
62
256
6
ByLayer
370
18
48
1
60
0
100
AcDbEllipse
10
57.057598
20
-11.28883
30
0
11
4.97632087363033
21
-0.486035557000993
31
0
210
0
220
0
230
1
40
0.452653
41
-1.65063209075197
42
-1.64083209766518
0
ELLIPSE
5
27C
100
AcDbEntity
8
1
62
256
6
ByLayer
370
18
48
1
60
0
100
AcDbEllipse
10
68.090094
20
-6.92727
30
0
11
0.746448131044576
21
-0.0729053335501515
31
0
210
0
220
0
230
1
40
0.452653
41
-0.0609351419521038
42
1.34674398795086
0
ELLIPSE
5
27D
100
AcDbEntity
8
1
62
256
6
ByLayer
370
18
48
1
60
0
100
AcDbEllipse
10
57.954684
20
-9.74979
30
0
11
-0.781435742101832
21
0.076322561550553
31
0
210
0
220
0
230
1
40
0.452653
41
-0.0609351419520875
42
1.50986118484279
0
ELLIPSE
5
27E
100
AcDbEntity
8
1
62
256
6
ByLayer
370
18
48
1
60
0
100
AcDbEllipse
10
68.502654
20
-6.916732
30
0
11
-0.389344188343521
21
0.0917120657445066
31
0
210
0
220
0
230
1
40
0.890032
41
0.784071177030314
42
1.69018841087387
0
ELLIPSE
5
27F
100
AcDbEntity
8
1
62
256
6
ByLayer
370
18
48
1
60
0
100
AcDbEllipse
10
67.194213
20
-14.61599
30
0
11
0.497632087363052
21
-0.0486035557001011
31
0
210
0
220
0
230
1
40
0.452653
41
-1.59682488370704
42
-1.36993208094793
0
ELLIPSE
5
280
100
AcDbEntity
8
1
62
256
6
ByLayer
370
18
48
1
60
0
100
AcDbEllipse
10
67.429228
20
-12.591768
30
0
11
4.97632087363033
21
-0.486035557000993
31
0
210
0
220
0
230
1
40
0.452653
41
-1.62263083982879
42
-1.61283084674198
0
ELLIPSE
5
281
100
AcDbEntity
8
1
62
256
6
ByLayer
370
18
48
1
60
0
100
AcDbEllipse
10
57.941398
20
-9.885818
30
0
11
-1.09479059219871
21
0.106927822540224
31
0
210
0
220
0
230
1
40
0.452653
41
-0.0609351419520716
42
1.50986118484286
0
ELLIPSE
5
282
100
AcDbEntity
8
1
62
256
6
ByLayer
370
18
48
1
60
0
100
AcDbEllipse
10
67.053594
20
-11.327515
30
0
11
0.746448131044576
21
-0.0729053335501515
31
0
210
0
220
0
230
1
40
0.452653
41
-1.63173146874703
42
-0.0609351419520281
0
ELLIPSE
5
283
100
AcDbEntity
8
1
62
256
6
ByLayer
370
18
48
1
60
0
100
AcDbEllipse
10
67.858154
20
-10.361635
30
0
11
9.95264174726105
21
-0.972071114002023
31
0
210
0
220
0
230
1
40
0.452653
41
-1.61283084674199
42
-1.5968248837071
0
ELLIPSE
5
284
100
AcDbEntity
8
1
62
256
6
ByLayer
370
18
48
1
60
0
100
AcDbEllipse
10
58.209832
20
-13.174314
30
0
11
9.95264174726105
21
-0.972071114002023
31
0
210
0
220
0
230
1
40
0.452653
41
-0.0958417269919747
42
-0.0798357639570844
0
ELLIPSE
5
285
100
AcDbEntity
8
1
62
256
6
ByLayer
370
18
48
1
60
0
100
AcDbEllipse
10
57.6253
20
-9.075818
30
0
11
9.95264174726103
21
-0.972071114002021
31
0
210
0
220
0
230
1
40
0.452653
41
-1.64083209766517
42
-1.63173146874698
0
ELLIPSE
5
286
100
AcDbEntity
8
1
62
256
6
ByLayer
370
18
48
1
60
0
100
AcDbEllipse
10
68.725271
20
-9.647246
30
0
11
0.497632087363052
21
-0.0486035557001011
31
0
210
0
220
0
230
1
40
0.452653
41
-0.0260285569121565
42
0.0988316718691439
0
ELLIPSE
5
287
100
AcDbEntity
8
1
62
256
6
ByLayer
370
18
48
1
60
0
100
AcDbEllipse
10
66.970813
20
2.824863
30
0
11
4.15201856643227
21
-6.43489812804755
31
0
210
0
220
0
230
-1
40
0.221014
41
1.03563003064353
42
2.82073093203201
0
ELLIPSE
5
288
100
AcDbEntity
8
1
62
256
6
ByLayer
370
18
48
1
60
0
100
AcDbEllipse
10
56.137882
20
-13.132126
30
0
11
0.778692410408507
21
-0.1834215598632
31
0
210
0
220
0
230
-1
40
0.890028
41
-3.10755950809335
42
-2.36531562975942
0
ELLIPSE
5
289
100
AcDbEntity
8
1
62
256
6
ByLayer
370
18
48
1
60
0
100
AcDbEllipse
10
45.901762
20
-6.579786
30
0
11
0.775
21
0
31
0
210
0
220
0
230
1
40
0.446198
41
2.63805508732311
42
0
0
ELLIPSE
5
28A
100
AcDbEntity
8
1
62
256
6
ByLayer
370
18
48
1
60
0
100
AcDbEllipse
10
45.901762
20
-6.579786
30
0
11
0.775
21
0
31
0
210
0
220
0
230
1
40
0.446198
41
0
42
0.398981325393037
0
ELLIPSE
5
28B
100
AcDbEntity
8
1
62
256
6
ByLayer
370
18
48
1
60
0
100
AcDbEllipse
10
68.327597
20
-6.861987
30
0
11
0.0999283642298476
21
0.794368322940904
31
0
210
0
220
0
230
-1
40
0.054423
41
-0.472039968068096
42
1.09875635870507
0
ELLIPSE
5
28C
100
AcDbEntity
8
1
62
256
6
ByLayer
370
18
48
1
60
0
100
AcDbEllipse
10
44.201762
20
-11.691811
30
0
11
1.56888366150349
21
-0.354597246742343
31
0
210
0
220
0
230
-1
40
0.885548
41
0
42
6.28318530717959
0
ELLIPSE
5
28D
100
AcDbEntity
8
1
62
256
6
ByLayer
370
18
48
1
60
0
100
AcDbEllipse
10
66.501762
20
5.650334
30
0
11
4.87881186099108
21
-6.96393362718389
31
0
210
0
220
0
230
-1
40
0.157119
41
2.24769636824279
42
2.4448763629214
0
ELLIPSE
5
28E
100
AcDbEntity
8
1
62
256
6
ByLayer
370
18
48
1
60
0
100
AcDbEllipse
10
66.501762
20
11.521944
30
0
11
5
21
0
31
0
210
0
220
0
230
1
40
0.446198
41
3.14159265358979
42
-2.66549448637077
0
ELLIPSE
5
28F
100
AcDbEntity
8
1
62
256
6
ByLayer
370
18
48
1
60
0
100
AcDbEllipse
10
48.734498
20
-7.06339
30
0
11
1.32799899206499
21
-0.73212379445154
31
0
210
0
220
0
230
-1
40
0.952622
41
-1.20862590637552
42
0.763305454879368
0
ELLIPSE
5
290
100
AcDbEntity
8
1
62
256
6
ByLayer
370
18
48
1
60
0
100
AcDbEllipse
10
63.610518
20
3.464612
30
0
11
0.35282872722439
21
3.22746557974005
31
0
210
0
220
0
230
-1
40
0.585136
41
-1.52955992504043
42
-1.22466927303056
0
ELLIPSE
5
291
100
AcDbEntity
8
1
62
256
6
ByLayer
370
18
48
1
60
0
100
AcDbEllipse
10
68.386383
20
2.824863
30
0
11
0.31621871766994
21
-6.49984731430116
31
0
210
0
220
0
230
-1
40
0.14089
41
0.108303263961246
42
0.900833724456534
0
ELLIPSE
5
292
100
AcDbEntity
8
1
62
256
6
ByLayer
370
18
48
1
60
0
100
AcDbEllipse
10
63.287818
20
0.16062
30
0
11
-1.44313305335284
21
0.140950311530294
31
0
210
0
220
0
230
1
40
0.452653
41
0
42
6.28318530717959
0
ELLIPSE
5
293
100
AcDbEntity
8
1
62
256
6
ByLayer
370
18
48
1
60
0
100
AcDbEllipse
10
48.734498
20
-7.171971
30
0
11
1.47082843265843
21
-0.332434918819738
31
0
210
0
220
0
230
-1
40
0.885548
41
1.04935253738684
42
1.87264899470518
0
ELLIPSE
5
294
100
AcDbEntity
8
1
62
256
6
ByLayer
370
18
48
1
60
0
100
AcDbEllipse
10
63.703445
20
4.415806
30
0
11
1.90720265374174
21
-0.000843067921979743
31
0
210
0
220
0
230
-1
40
0.444535
41
-2.73257683891495
42
-2.70087798458401
0
ELLIPSE
5
295
100
AcDbEntity
8
1
62
256
6
ByLayer
370
18
48
1
60
0
100
AcDbEllipse
10
65.208006
20
2.824863
30
0
11
17.8293644206524
21
-3.2282717466229
31
0
210
0
220
0
230
-1
40
0.316425
41
1.32320208506028
42
1.33218487820873
0
ELLIPSE
5
296
100
AcDbEntity
8
1
62
256
6
ByLayer
370
18
48
1
60
0
100
AcDbEllipse
10
54.601359
20
-15.614282
30
0
11
3.03971209416301
21
-0.687032165562658
31
0
210
0
220
0
230
-1
40
0.885548
41
2.96018213058931
42
-1.68059188754418
0
ELLIPSE
5
297
100
AcDbEntity
8
1
62
256
6
ByLayer
370
18
48
1
60
0
100
AcDbEllipse
10
63.505967
20
2.394154
30
0
11
1.6373601357159
21
-2.37297739118848
31
0
210
0
220
0
230
-1
40
0.175471
41
-2.94891184666416
42
-1.7147052454718
0
ELLIPSE
5
298
100
AcDbEntity
8
1
62
256
6
ByLayer
370
18
48
1
60
0
100
AcDbEllipse
10
69.141967
20
2.824864
30
0
11
0.505736536873692
21
6.49997063111955
31
0
210
0
220
0
230
-1
40
0.038942
41
-2.97802037688728
42
-2.87247368141236
0
ELLIPSE
5
299
100
AcDbEntity
8
1
62
256
6
ByLayer
370
18
48
1
60
0
100
AcDbEllipse
10
63.287818
20
0.16062
30
0
11
1.89100193197957
21
-0.184693511660383
31
0
210
0
220
0
230
1
40
0.452653
41
1.50986118484284
42
3.08065751163771
0
ELLIPSE
5
29A
100
AcDbEntity
8
1
62
256
6
ByLayer
370
18
48
1
60
0
100
AcDbEllipse
10
48.734497
20
-7.06339
30
0
11
1.32799879041904
21
-0.732123873583471
31
0
210
0
220
0
230
-1
40
0.952622
41
1.58660179826169
42
1.67116725317527
0
ELLIPSE
5
29B
100
AcDbEntity
8
1
62
256
6
ByLayer
370
18
48
1
60
0
100
AcDbEllipse
10
57.057093
20
-10.171193
30
0
11
0.77869241039662
21
-0.183421559837453
31
0
210
0
220
0
230
-1
40
0.890028
41
3.02220488359476
42
-1.69018409678735
0
ELLIPSE
5
29C
100
AcDbEntity
8
1
62
256
6
ByLayer
370
18
48
1
60
0
100
AcDbEllipse
10
46.019246
20
16.733132
30
0
11
1.67535674160941
21
-0.445141750216234
31
0
210
0
220
0
230
-1
40
0.35564
41
0
42
6.28318530717959
0
ELLIPSE
5
29D
100
AcDbEntity
8
1
62
256
6
ByLayer
370
18
48
1
60
0
100
AcDbEllipse
10
-412.717565
20
0
30
0
11
472.257848435871
21
-11.0677221328929
31
0
210
0
220
0
230
-1
40
0.046876
41
-0.286026680590203
42
-0.206477912091015
0
ELLIPSE
5
29E
100
AcDbEntity
8
1
62
256
6
ByLayer
370
18
48
1
60
0
100
AcDbEllipse
10
502.816599
20
105.325979
30
0
11
471.264103413403
21
124.888503305255
31
0
210
0
220
0
230
-1
40
0.085748
41
2.96783666434257
42
3.01044381474759
0
ELLIPSE
5
29F
100
AcDbEntity
8
1
62
256
6
ByLayer
370
18
48
1
60
0
100
AcDbEllipse
10
102.220597
20
0
30
0
11
78.4421175139325
21
-22.5469272761913
31
0
210
0
220
0
230
-1
40
0.130131
41
2.29058138602317
42
2.43817462706545
0
ELLIPSE
5
2A0
100
AcDbEntity
8
1
62
256
6
ByLayer
370
18
48
1
60
0
100
AcDbEllipse
10
21.056258
20
0
30
0
11
11.709272349711
21
24.6771864409171
31
0
210
0
220
0
230
-1
40
0.341999
41
-2.97437958168071
42
-2.0597599530999
0
ELLIPSE
5
2A1
100
AcDbEntity
8
1
62
256
6
ByLayer
370
18
48
1
60
0
100
AcDbEllipse
10
502.816591
20
-113.036861
30
0
11
471.296415174762
21
-133.6669973243
31
0
210
0
220
0
230
-1
40
0.068656
41
2.92564744468679
42
2.96825459542637
0
ELLIPSE
5
2A2
100
AcDbEntity
8
1
62
256
6
ByLayer
370
18
48
1
60
0
100
AcDbEllipse
10
21.056258
20
0
30
0
11
11.7092723497109
21
-24.6771864409169
31
0
210
0
220
0
230
-1
40
0.341999
41
2.05975995309989
42
2.97437958168071
0
ELLIPSE
5
2A3
100
AcDbEntity
8
1
62
256
6
ByLayer
370
18
48
1
60
0
100
AcDbEllipse
10
50.667481
20
0
30
0
11
3.09172597926444
21
-24.7492791347605
31
0
210
0
220
0
230
-1
40
0.061098
41
1.86753720443844
42
1.8730881414668
0
ELLIPSE
5
2A4
100
AcDbEntity
8
1
62
256
6
ByLayer
370
18
48
1
60
0
100
AcDbEllipse
10
50.667481
20
0
30
0
11
2.88665014205936
21
24.7490346229522
31
0
210
0
220
0
230
-1
40
0.075727
41
2.89827008891762
42
2.90382102116489
0
ELLIPSE
5
2A5
100
AcDbEntity
8
1
62
256
6
ByLayer
370
18
48
1
60
0
100
AcDbEllipse
10
102.220597
20
0
30
0
11
71.311015959612
21
-20.4972066220671
31
0
210
0
220
0
230
-1
40
0.130131
41
2.73424750438563
42
-2.86102177692791
0
ELLIPSE
5
2A6
100
AcDbEntity
8
1
62
256
6
ByLayer
370
18
48
1
60
0
100
AcDbEllipse
10
102.220597
20
0
30
0
11
71.2920333517959
21
19.2897137737821
31
0
210
0
220
0
230
-1
40
0.162467
41
2.8155651864417
42
-2.72770323597381
0
ELLIPSE
5
2A7
100
AcDbEntity
8
1
62
256
6
ByLayer
370
18
48
1
60
0
100
AcDbEllipse
10
-1.056258
20
0
30
0
11
11.7092723497417
21
24.677186440955
31
0
210
0
220
0
230
-1
40
0.341999
41
0.167213071908905
42
1.08183270048873
0
ELLIPSE
5
2A8
100
AcDbEntity
8
1
62
256
6
ByLayer
370
18
48
1
60
0
100
AcDbEllipse
10
-1.056258
20
0
30
0
11
11.7092723497319
21
-24.6771864409431
31
0
210
0
220
0
230
-1
40
0.341999
41
-1.0818327004891
42
-0.16721307190895
0
ELLIPSE
5
2A9
100
AcDbEntity
8
1
62
256
6
ByLayer
370
18
48
1
60
0
100
AcDbEllipse
10
45.221244
20
6.7E-05
30
0
11
20.791393217452
21
24.2715508644303
31
0
210
0
220
0
230
-1
40
0.232967
41
1.6243869432611
42
1.63095520426029
0
ELLIPSE
5
2AA
100
AcDbEntity
8
1
62
256
6
ByLayer
370
18
48
1
60
0
100
AcDbEllipse
10
68.411419
20
18.913986
30
0
11
-0.0376441750873262
21
0.358160401359422
31
0
210
0
220
0
230
1
40
0.996195
41
-3.10668606855003
42
-2.87979326579074
0
ELLIPSE
5
2AB
100
AcDbEntity
8
1
62
256
6
ByLayer
370
18
48
1
60
0
100
AcDbEllipse
10
56.857532
20
27.246823
30
0
11
-1.03066457612992
21
9.80611840735787
31
0
210
0
220
0
230
1
40
0.996195
41
3.13249202467161
42
3.14159265358979
0
ELLIPSE
5
2AC
100
AcDbEntity
8
1
62
256
6
ByLayer
370
18
48
1
60
0
100
AcDbEllipse
10
67.906238
20
21.027658
30
0
11
-1.03066457612992
21
9.80611840735787
31
0
210
0
220
0
230
1
40
0.996195
41
-0.00910062891819124
42
5.06361994899101E-15
0
ELLIPSE
5
2AD
100
AcDbEntity
8
1
62
256
6
ByLayer
370
18
48
1
60
0
100
AcDbEllipse
10
62.347743
20
24.133652
30
0
11
-0.321279495150663
21
3.05677020853233
31
0
210
0
220
0
230
1
40
0.996195
41
0.16845824208086
42
1.40233808471402
0
ELLIPSE
5
2AE
100
AcDbEntity
8
1
62
256
6
ByLayer
370
18
48
1
60
0
100
AcDbEllipse
10
66.554996
20
19.407741
30
0
11
1.04528463267643
21
-9.94521895368278
31
0
210
0
220
0
230
1
40
0.996195
41
-1.5518957047899
42
-1.53588974175501
0
ELLIPSE
5
2AF
100
AcDbEntity
8
1
62
256
6
ByLayer
370
18
48
1
60
0
100
AcDbEllipse
10
57.18338
20
18.089373
30
0
11
0.0522642316338214
21
-0.497260947684139
31
0
210
0
220
0
230
1
40
0.996195
41
-1.53588974175497
42
-1.30899693899576
0
ELLIPSE
5
2B0
100
AcDbEntity
8
1
62
256
6
ByLayer
370
18
48
1
60
0
100
AcDbEllipse
10
62.347743
20
24.133652
30
0
11
-0.282116967194818
21
2.68416364461171
31
0
210
0
220
0
230
1
40
0.996195
41
0
42
6.28318530717959
0
ELLIPSE
5
2B1
100
AcDbEntity
8
1
62
256
6
ByLayer
370
18
48
1
60
0
100
AcDbEllipse
10
67.906767
20
21.027714
30
0
11
1.04528463267643
21
-9.94521895368276
31
0
210
0
220
0
230
1
40
0.996195
41
3.13249202467161
42
3.14159265358979
0
ELLIPSE
5
2B2
100
AcDbEntity
8
1
62
256
6
ByLayer
370
18
48
1
60
0
100
AcDbEllipse
10
65.63263
20
23.922573
30
0
11
-0.0104528463267643
21
0.0994521895368272
31
0
210
0
220
0
230
1
40
0.996195
41
-1.57079632679504
42
1.40233808471397
0
ELLIPSE
5
2B3
100
AcDbEntity
8
1
62
256
6
ByLayer
370
18
48
1
60
0
100
AcDbEllipse
10
62.555844
20
27.426731
30
0
11
0.023664433632561
21
-0.225152046182972
31
0
210
0
220
0
230
1
40
0.996195
41
3.14159265358954
42
-0.168458242081204
0
ELLIPSE
5
2B4
100
AcDbEntity
8
1
62
256
6
ByLayer
370
18
48
1
60
0
100
AcDbEllipse
10
65.480486
20
29.631028
30
0
11
1.04528463267643
21
-9.94521895368278
31
0
210
0
220
0
230
1
40
0.996195
41
-1.60570291183478
42
-1.58969694879989
0
ELLIPSE
5
2B5
100
AcDbEntity
8
1
62
256
6
ByLayer
370
18
48
1
60
0
100
AcDbEllipse
10
56.039557
20
28.972118
30
0
11
0.0522642316338214
21
-0.497260947684139
31
0
210
0
220
0
230
1
40
0.996195
41
-1.83259571459399
42
-1.60570291183476
0
ELLIPSE
5
2B6
100
AcDbEntity
8
1
62
256
6
ByLayer
370
18
48
1
60
0
100
AcDbEllipse
10
67.116486
20
30.006228
30
0
11
0.104528463267641
21
-0.994521895368274
31
0
210
0
220
0
230
1
40
0.996195
41
1.83259571459405
42
2.87979326579069
0
ELLIPSE
5
2B7
100
AcDbEntity
8
1
62
256
6
ByLayer
370
18
48
1
60
0
100
AcDbEllipse
10
62.132513
20
20.938951
30
0
11
-0.0128650708014692
21
-0.199585795970738
31
0
210
0
220
0
230
1
40
0.085922
41
1.58546385301625
42
2.26954508481225
0
ELLIPSE
5
2B8
100
AcDbEntity
8
1
62
256
6
ByLayer
370
18
48
1
60
0
100
AcDbEllipse
10
64.246494
20
19.070089
30
0
11
-0.508022259791706
21
4.8335089305165
31
0
210
0
220
0
230
1
40
0.996195
41
-1.58969694879989
42
-1.57989695571309
0
ELLIPSE
5
2B9
100
AcDbEntity
8
1
62
256
6
ByLayer
370
18
48
1
60
0
100
AcDbEllipse
10
65.476044
20
29.679826
30
0
11
1.04528463267643
21
-9.94521895368276
31
0
210
0
220
0
230
1
40
0.996195
41
-1.57989695571309
42
-1.5707963267949
0
ELLIPSE
5
2BA
100
AcDbEntity
8
1
62
256
6
ByLayer
370
18
48
1
60
0
100
AcDbEllipse
10
62.347743
20
24.133652
30
0
11
-0.321279495150663
21
3.05677020853233
31
0
210
0
220
0
230
1
40
0.996195
41
-2.9731344115089
42
-1.73925456887577
0
ELLIPSE
5
2BB
100
AcDbEntity
8
1
62
256
6
ByLayer
370
18
48
1
60
0
100
AcDbEllipse
10
62.351643
20
24.134062
30
0
11
-0.33449108245646
21
3.18247006517848
31
0
210
0
220
0
230
1
40
0.996195
41
-1.40233808471402
42
-0.168458242080874
0
ELLIPSE
5
2BC
100
AcDbEntity
8
1
62
256
6
ByLayer
370
18
48
1
60
0
100
AcDbEllipse
10
62.13666
20
20.739709
30
0
11
-0.0209056926535287
21
0.198904379073655
31
0
210
0
220
0
230
1
40
0.087156
41
-2.25487755859021
42
-1.5707963267949
0
ELLIPSE
5
2BD
100
AcDbEntity
8
1
62
256
6
ByLayer
370
18
48
1
60
0
100
AcDbEllipse
10
62.347743
20
24.133652
30
0
11
-0.321279495150663
21
3.05677020853233
31
0
210
0
220
0
230
1
40
0.996195
41
-1.40233808471403
42
-0.1684582420809
0
ELLIPSE
5
2BE
100
AcDbEntity
8
1
62
256
6
ByLayer
370
18
48
1
60
0
100
AcDbEllipse
10
65.62873
20
23.922164
30
0
11
0.023664433632561
21
-0.225152046182972
31
0
210
0
220
0
230
1
40
0.996195
41
1.5707963267949
42
-1.73925456887577
0
ELLIPSE
5
2BF
100
AcDbEntity
8
1
62
256
6
ByLayer
370
18
48
1
60
0
100
AcDbEllipse
10
67.581448
20
30.18522
30
0
11
0.0522642316338214
21
-0.497260947684139
31
0
210
0
220
0
230
1
40
0.996195
41
1.60570291183482
42
1.83259571459407
0
ELLIPSE
5
2C0
100
AcDbEntity
8
1
62
256
6
ByLayer
370
18
48
1
60
0
100
AcDbEllipse
10
57.647813
20
18.268309
30
0
11
-0.0899084067211502
21
0.85542134904358
31
0
210
0
220
0
230
1
40
0.996195
41
1.83259571459406
42
2.87979326579053
0
ELLIPSE
5
2C1
100
AcDbEntity
8
1
62
256
6
ByLayer
370
18
48
1
60
0
100
AcDbEllipse
10
58.897956
20
26.941721
30
0
11
0.0209056926535285
21
-0.198904379073655
31
0
210
0
220
0
230
1
40
0.996195
41
-3.14159265358951
42
-1.57079632679493
0
ELLIPSE
5
2C2
100
AcDbEntity
8
1
62
256
6
ByLayer
370
18
48
1
60
0
100
AcDbEllipse
10
57.67324
20
19.952817
30
0
11
-1.03066457612994
21
9.80611840735806
31
0
210
0
220
0
230
1
40
0.996195
41
0.0189006220049952
42
0.0349065850398849
0
ELLIPSE
5
2C3
100
AcDbEntity
8
1
62
256
6
ByLayer
370
18
48
1
60
0
100
AcDbEllipse
10
67.193684
20
30.499965
30
0
11
-0.0376441750873262
21
0.358160401359422
31
0
210
0
220
0
230
1
40
0.996195
41
-0.261799387799348
42
-0.034906585039925
0
ELLIPSE
5
2C4
100
AcDbEntity
8
1
62
256
6
ByLayer
370
18
48
1
60
0
100
AcDbEllipse
10
62.351643
20
24.134062
30
0
11
-0.33449108245646
21
3.18247006517848
31
0
210
0
220
0
230
1
40
0.996195
41
0.168458242080874
42
1.40233808471402
0
ELLIPSE
5
2C5
100
AcDbEntity
8
1
62
256
6
ByLayer
370
18
48
1
60
0
100
AcDbEllipse
10
63.195615
20
21.050688
30
0
11
0.0540801584411731
21
-0.192549568846512
31
0
210
0
220
0
230
1
40
0.085922
41
1.55612880057351
42
2.24021003236737
0
ELLIPSE
5
2C6
100
AcDbEntity
8
1
62
256
6
ByLayer
370
18
48
1
60
0
100
AcDbEllipse
10
61.611542
20
18.793145
30
0
11
-0.508022259791707
21
4.83350893051651
31
0
210
0
220
0
230
1
40
0.996195
41
1.57989695571309
42
1.5896969487999
0
ELLIPSE
5
2C7
100
AcDbEntity
8
1
62
256
6
ByLayer
370
18
48
1
60
0
100
AcDbEllipse
10
67.091059
20
28.32172
30
0
11
1.04528463267643
21
-9.94521895368278
31
0
210
0
220
0
230
1
40
0.996195
41
0.0189006220049866
42
0.0349065850398894
0
ELLIPSE
5
2C8
100
AcDbEntity
8
1
62
256
6
ByLayer
370
18
48
1
60
0
100
AcDbEllipse
10
59.066756
20
24.345141
30
0
11
0.0236644336325609
21
-0.225152046182971
31
0
210
0
220
0
230
1
40
0.996195
41
-1.57079632679493
42
1.40233808471406
0
ELLIPSE
5
2C9
100
AcDbEntity
8
1
62
256
6
ByLayer
370
18
48
1
60
0
100
AcDbEllipse
10
65.805331
20
21.326403
30
0
11
-0.0209056926535288
21
0.198904379073655
31
0
210
0
220
0
230
1
40
0.996195
41
3.14159265358979
42
-1.5707963267949
0
ELLIPSE
5
2CA
100
AcDbEntity
8
1
62
256
6
ByLayer
370
18
48
1
60
0
100
AcDbEllipse
10
67.857625
20
21.023239
30
0
11
-1.03066457612994
21
9.80611840735806
31
0
210
0
220
0
230
1
40
0.996195
41
-0.034906585039891
42
-0.0189006220049959
0
ELLIPSE
5
2CB
100
AcDbEntity
8
1
62
256
6
ByLayer
370
18
48
1
60
0
100
AcDbEllipse
10
57.057598
20
24.914753
30
0
11
0.522642316338193
21
-4.97260947684119
31
0
210
0
220
0
230
1
40
0.996195
41
-3.13249202467161
42
-3.12269203158481
0
ELLIPSE
5
2CC
100
AcDbEntity
8
1
62
256
6
ByLayer
370
18
48
1
60
0
100
AcDbEllipse
10
62.418643
20
24.141104
30
0
11
-0.264604505792529
21
2.51754370433981
31
0
210
0
220
0
230
1
40
0.996195
41
0
42
6.28318530717959
0
ELLIPSE
5
2CD
100
AcDbEntity
8
1
62
256
6
ByLayer
370
18
48
1
60
0
100
AcDbEllipse
10
58.203502
20
28.915451
30
0
11
-1.03066457612992
21
9.80611840735787
31
0
210
0
220
0
230
1
40
0.996195
41
-1.5707963267949
42
-1.5616956978767
0
ELLIPSE
5
2CE
100
AcDbEntity
8
1
62
256
6
ByLayer
370
18
48
1
60
0
100
AcDbEllipse
10
60.517805
20
29.204448
30
0
11
0.522642316338193
21
-4.97260947684119
31
0
210
0
220
0
230
1
40
0.996195
41
-1.58969694879989
42
-1.57989695571309
0
ELLIPSE
5
2CF
100
AcDbEntity
8
1
62
256
6
ByLayer
370
18
48
1
60
0
100
AcDbEllipse
10
62.392247
20
24.13833
30
0
11
-0.278364087565371
21
2.64845738006432
31
0
210
0
220
0
230
1
40
0.996195
41
-0.926046936998006
42
0
0
ELLIPSE
5
2D0
100
AcDbEntity
8
1
62
256
6
ByLayer
370
18
48
1
60
0
100
AcDbEllipse
10
62.392247
20
24.13833
30
0
11
-0.278364087565371
21
2.64845738006432
31
0
210
0
220
0
230
1
40
0.996195
41
0
42
-2.2155727204214
0
ELLIPSE
5
2D1
100
AcDbEntity
8
1
62
256
6
ByLayer
370
18
48
1
60
0
100
AcDbEllipse
10
57.335071
20
22.269681
30
0
11
-0.508022259791706
21
4.8335089305165
31
0
210
0
220
0
230
1
40
0.996195
41
3.1226920315848
42
3.1324920246716
0
ELLIPSE
5
2D2
100
AcDbEntity
8
1
62
256
6
ByLayer
370
18
48
1
60
0
100
AcDbEllipse
10
59.288785
20
18.594766
30
0
11
1.04528463267643
21
-9.94521895368276
31
0
210
0
220
0
230
1
40
0.996195
41
1.5616956978767
42
1.5707963267949
0
ELLIPSE
5
2D3
100
AcDbEntity
8
1
62
256
6
ByLayer
370
18
48
1
60
0
100
AcDbEllipse
10
68.411949
20
18.914042
30
0
11
0.0522642316338214
21
-0.497260947684139
31
0
210
0
220
0
230
1
40
0.996195
41
0.0349065850398893
42
0.261799387799
0
ELLIPSE
5
2D4
100
AcDbEntity
8
1
62
256
6
ByLayer
370
18
48
1
60
0
100
AcDbEllipse
10
59.152745
20
24.33732
30
0
11
-0.199601851976567
21
0.0126135121011009
31
0
210
0
220
0
230
1
40
0.014613
41
-2.34091484548801
42
-1.65683361369368
0
ELLIPSE
5
2D5
100
AcDbEntity
8
1
62
256
6
ByLayer
370
18
48
1
60
0
100
AcDbEllipse
10
67.428698
20
26.0048
30
0
11
-0.508022259791706
21
4.8335089305165
31
0
210
0
220
0
230
1
40
0.996195
41
-0.0189006220049996
42
-0.00910062891820919
0
ELLIPSE
5
2D6
100
AcDbEntity
8
1
62
256
6
ByLayer
370
18
48
1
60
0
100
AcDbEllipse
10
59.264908
20
23.270157
30
0
11
-0.192617575984812
21
-0.0538374351333267
31
0
210
0
220
0
230
1
40
0.014613
41
1.656833613694
42
2.34091484548799
0
ELLIPSE
5
2D7
100
AcDbEntity
8
1
62
256
6
ByLayer
370
18
48
1
60
0
100
AcDbEllipse
10
59.070656
20
24.345551
30
0
11
0.0104528463267642
21
-0.0994521895368266
31
0
210
0
220
0
230
1
40
0.996195
41
-1.57079632679497
42
1.40233808471397
0
ELLIPSE
5
2D8
100
AcDbEntity
8
1
62
256
6
ByLayer
370
18
48
1
60
0
100
AcDbEllipse
10
65.516962
20
25.023085
30
0
11
0.0104528463267642
21
-0.0994521895368266
31
0
210
0
220
0
230
1
40
0.996195
41
-1.40233808471383
42
1.5707963267949
0
ELLIPSE
5
2D9
100
AcDbEntity
8
1
62
256
6
ByLayer
370
18
48
1
60
0
100
AcDbEllipse
10
59.288255
20
18.59471
30
0
11
-1.03066457612992
21
9.80611840735787
31
0
210
0
220
0
230
1
40
0.996195
41
-1.57989695571309
42
-1.5707963267949
0
ELLIPSE
5
2DA
100
AcDbEntity
8
1
62
256
6
ByLayer
370
18
48
1
60
0
100
AcDbEllipse
10
62.351643
20
24.134062
30
0
11
0.334491082456456
21
-3.18247006517848
31
0
210
0
220
0
230
1
40
0.996195
41
-1.40233808471402
42
-0.168458242080892
0
ELLIPSE
5
2DB
100
AcDbEntity
8
1
62
256
6
ByLayer
370
18
48
1
60
0
100
AcDbEllipse
10
67.139528
20
28.327504
30
0
11
1.04528463267643
21
-9.94521895368276
31
0
210
0
220
0
230
1
40
0.996195
41
0
42
0.00910062891819054
0
ELLIPSE
5
2DC
100
AcDbEntity
8
1
62
256
6
ByLayer
370
18
48
1
60
0
100
AcDbEllipse
10
57.6253
20
19.947088
30
0
11
1.04528463267643
21
-9.94521895368276
31
0
210
0
220
0
230
1
40
0.996195
41
3.14159265358979
42
-3.13249202467161
0
ELLIPSE
5
2DD
100
AcDbEntity
8
1
62
256
6
ByLayer
370
18
48
1
60
0
100
AcDbEllipse
10
56.531574
20
28.893709
30
0
11
0.104528463267641
21
-0.994521895368274
31
0
210
0
220
0
230
1
40
0.996195
41
-2.87979326579069
42
-1.83259571459404
0
ELLIPSE
5
2DE
100
AcDbEntity
8
1
62
256
6
ByLayer
370
18
48
1
60
0
100
AcDbEllipse
10
59.557172
20
20.669696
30
0
11
-0.0209056926535288
21
0.198904379073655
31
0
210
0
220
0
230
1
40
0.996195
41
1.5707963267949
42
-3.14159265358951
0
ELLIPSE
5
2DF
100
AcDbEntity
8
1
62
256
6
ByLayer
370
18
48
1
60
0
100
AcDbEllipse
10
65.146114
20
27.598429
30
0
11
0.0209056926535285
21
-0.198904379073655
31
0
210
0
220
0
230
1
40
0.996195
41
1.5707963267949
42
3.14159265358979
0
ELLIPSE
5
2E0
100
AcDbEntity
8
1
62
256
6
ByLayer
370
18
48
1
60
0
100
AcDbEllipse
10
58.894056
20
26.941311
30
0
11
0.0341172799593253
21
-0.3246042357198
31
0
210
0
220
0
230
1
40
0.996195
41
3.14159265358979
42
-1.5707963267949
0
ELLIPSE
5
2E1
100
AcDbEntity
8
1
62
256
6
ByLayer
370
18
48
1
60
0
100
AcDbEllipse
10
58.204031
20
28.915507
30
0
11
1.04528463267643
21
-9.94521895368276
31
0
210
0
220
0
230
1
40
0.996195
41
1.5707963267949
42
1.57989695571309
0
ELLIPSE
5
2E2
100
AcDbEntity
8
1
62
256
6
ByLayer
370
18
48
1
60
0
100
AcDbEllipse
10
67.429228
20
26.004856
30
0
11
0.522642316338193
21
-4.97260947684119
31
0
210
0
220
0
230
1
40
0.996195
41
3.12269203158478
42
3.1324920246716
0
ELLIPSE
5
2E3
100
AcDbEntity
8
1
62
256
6
ByLayer
370
18
48
1
60
0
100
AcDbEllipse
10
57.648343
20
18.268364
30
0
11
0.104528463267641
21
-0.994521895368274
31
0
210
0
220
0
230
1
40
0.996195
41
-1.30899693899576
42
-0.261799387799222
0
ELLIPSE
5
2E4
100
AcDbEntity
8
1
62
256
6
ByLayer
370
18
48
1
60
0
100
AcDbEllipse
10
67.858154
20
21.023294
30
0
11
1.04528463267643
21
-9.94521895368278
31
0
210
0
220
0
230
1
40
0.996195
41
3.1066860685499
42
3.1226920315848
0
ELLIPSE
5
2E5
100
AcDbEntity
8
1
62
256
6
ByLayer
370
18
48
1
60
0
100
AcDbEllipse
10
62.531956
20
27.524771
30
0
11
-0.0209056926535287
21
0.198904379073655
31
0
210
0
220
0
230
1
40
0.087156
41
-1.57079632679497
42
-0.886715094999583
0
ELLIPSE
5
2E6
100
AcDbEntity
8
1
62
256
6
ByLayer
370
18
48
1
60
0
100
AcDbEllipse
10
68.232725
20
19.380828
30
0
11
-0.0899084067211502
21
0.85542134904358
31
0
210
0
220
0
230
1
40
0.996195
41
-2.87979326579059
42
-1.83259571459404
0
ELLIPSE
5
2E7
100
AcDbEntity
8
1
62
256
6
ByLayer
370
18
48
1
60
0
100
AcDbEllipse
10
63.152227
20
29.481337
30
0
11
-0.508022259791707
21
4.83350893051651
31
0
210
0
220
0
230
1
40
0.996195
41
-1.5616956978767
42
-1.5518957047899
0
ELLIPSE
5
2E8
100
AcDbEntity
8
1
62
256
6
ByLayer
370
18
48
1
60
0
100
AcDbEllipse
10
68.725271
20
19.302474
30
0
11
0.0522642316338214
21
-0.497260947684139
31
0
210
0
220
0
230
1
40
0.996195
41
1.30899693899578
42
1.535889741755
0
ELLIPSE
5
2E9
100
AcDbEntity
8
1
62
256
6
ByLayer
370
18
48
1
60
0
100
AcDbEllipse
10
58.209832
20
28.866852
30
0
11
1.04528463267643
21
-9.94521895368278
31
0
210
0
220
0
230
1
40
0.996195
41
1.58969694879989
42
1.60570291183478
0
ELLIPSE
5
2EA
100
AcDbEntity
8
1
62
256
6
ByLayer
370
18
48
1
60
0
100
AcDbEllipse
10
65.403708
20
24.994323
30
0
11
-0.192617575984812
21
-0.0538374351333267
31
0
210
0
220
0
230
1
40
0.014613
41
0.972752381901677
42
1.65683361369368
0
ELLIPSE
5
2EB
100
AcDbEntity
8
1
62
256
6
ByLayer
370
18
48
1
60
0
100
AcDbEllipse
10
63.239866
20
20.956211
30
0
11
-0.0104528463267643
21
0.0994521895368266
31
0
210
0
220
0
230
1
40
0.996195
41
0.168458242080642
42
3.14159265358922
0
ELLIPSE
5
2EC
100
AcDbEntity
8
1
62
256
6
ByLayer
370
18
48
1
60
0
100
AcDbEllipse
10
60.517276
20
29.204392
30
0
11
-0.508022259791706
21
4.8335089305165
31
0
210
0
220
0
230
1
40
0.996195
41
1.5518957047899
42
1.56169569787671
0
ELLIPSE
5
2ED
100
AcDbEntity
8
1
62
256
6
ByLayer
370
18
48
1
60
0
100
AcDbEllipse
10
56.858061
20
27.246879
30
0
11
1.04528463267643
21
-9.94521895368276
31
0
210
0
220
0
230
1
40
0.996195
41
-0.00910062891819124
42
4.99279674192371E-15
0
ELLIPSE
5
2EE
100
AcDbEntity
8
1
62
256
6
ByLayer
370
18
48
1
60
0
100
AcDbEllipse
10
67.09053
20
28.321665
30
0
11
-1.03066457612994
21
9.80611840735806
31
0
210
0
220
0
230
1
40
0.996195
41
-3.12269203158479
42
-3.1066860685499
0
ELLIPSE
5
2EF
100
AcDbEntity
8
1
62
256
6
ByLayer
370
18
48
1
60
0
100
AcDbEllipse
10
68.724742
20
19.302419
30
0
11
-0.0376441750873262
21
0.358160401359422
31
0
210
0
220
0
230
1
40
0.996195
41
-1.83259571459402
42
-1.60570291183477
0
ELLIPSE
5
2F0
100
AcDbEntity
8
1
62
256
6
ByLayer
370
18
48
1
60
0
100
AcDbEllipse
10
65.475514
20
29.679771
30
0
11
-1.03066457612992
21
9.80611840735787
31
0
210
0
220
0
230
1
40
0.996195
41
1.56169569787671
42
1.5707963267949
0
ELLIPSE
5
2F1
100
AcDbEntity
8
1
62
256
6
ByLayer
370
18
48
1
60
0
100
AcDbEllipse
10
57.570615
20
17.774572
30
0
11
0.0522642316338214
21
-0.497260947684139
31
0
210
0
220
0
230
1
40
0.996195
41
-0.261799387799108
42
-0.0349065850398898
0
ELLIPSE
5
2F2
100
AcDbEntity
8
1
62
256
6
ByLayer
370
18
48
1
60
0
100
AcDbEllipse
10
56.039028
20
28.972063
30
0
11
-0.0376441750873262
21
0.358160401359422
31
0
210
0
220
0
230
1
40
0.996195
41
1.30899693899579
42
1.53588974175502
0
ELLIPSE
5
2F3
100
AcDbEntity
8
1
62
256
6
ByLayer
370
18
48
1
60
0
100
AcDbEllipse
10
58.209303
20
28.866796
30
0
11
-1.03066457612994
21
9.80611840735806
31
0
210
0
220
0
230
1
40
0.996195
41
-1.5518957047899
42
-1.53588974175501
0
ELLIPSE
5
2F4
100
AcDbEntity
8
1
62
256
6
ByLayer
370
18
48
1
60
0
100
AcDbEllipse
10
65.808901
20
21.125677
30
0
11
0.0209056926535285
21
-0.198904379073655
31
0
210
0
220
0
230
1
40
0.087156
41
0.886715095001779
42
1.5707963267949
0
ELLIPSE
5
2F5
100
AcDbEntity
8
1
62
256
6
ByLayer
370
18
48
1
60
0
100
AcDbEllipse
10
56.906145
20
27.251243
30
0
11
-1.03066457612994
21
9.80611840735806
31
0
210
0
220
0
230
1
40
0.996195
41
3.10668606854991
42
3.1226920315848
0
ELLIPSE
5
2F6
100
AcDbEntity
8
1
62
256
6
ByLayer
370
18
48
1
60
0
100
AcDbEllipse
10
61.612072
20
18.7932
30
0
11
0.522642316338193
21
-4.97260947684119
31
0
210
0
220
0
230
1
40
0.996195
41
-1.56169569787671
42
-1.5518957047899
0
ELLIPSE
5
2F7
100
AcDbEntity
8
1
62
256
6
ByLayer
370
18
48
1
60
0
100
AcDbEllipse
10
58.859715
20
27.138803
30
0
11
-0.0209056926535287
21
0.198904379073655
31
0
210
0
220
0
230
1
40
0.087156
41
-1.57079632679493
42
-0.886715094997599
0
ELLIPSE
5
2F8
100
AcDbEntity
8
1
62
256
6
ByLayer
370
18
48
1
60
0
100
AcDbEllipse
10
57.057069
20
24.914698
30
0
11
-0.508022259791707
21
4.83350893051651
31
0
210
0
220
0
230
1
40
0.996195
41
0.0091006289181967
42
0.0189006220049988
0
ELLIPSE
5
2F9
100
AcDbEntity
8
1
62
256
6
ByLayer
370
18
48
1
60
0
100
AcDbEllipse
10
56.35235
20
29.360495
30
0
11
-0.0376441750873262
21
0.358160401359422
31
0
210
0
220
0
230
1
40
0.996195
41
0.0349065850400834
42
0.261799387799348
0
ELLIPSE
5
2FA
100
AcDbEntity
8
1
62
256
6
ByLayer
370
18
48
1
60
0
100
AcDbEllipse
10
67.70723
20
23.359839
30
0
11
0.522642316338193
21
-4.97260947684119
31
0
210
0
220
0
230
1
40
0.996195
41
0.00910062891819695
42
0.0189006220049817
0
ELLIPSE
5
2FB
100
AcDbEntity
8
1
62
256
6
ByLayer
370
18
48
1
60
0
100
AcDbEllipse
10
61.473001
20
27.213792
30
0
11
-0.0540801584411734
21
0.192549568846512
31
0
210
0
220
0
230
1
40
0.085922
41
-2.26954508481028
42
-1.58546385301629
0
ELLIPSE
5
2FC
100
AcDbEntity
8
1
62
256
6
ByLayer
370
18
48
1
60
0
100
AcDbEllipse
10
59.186325
20
23.245039
30
0
11
-0.0104528463267643
21
0.0994521895368266
31
0
210
0
220
0
230
1
40
0.996195
41
-1.40233808471412
42
1.57079632679483
0
ELLIPSE
5
2FD
100
AcDbEntity
8
1
62
256
6
ByLayer
370
18
48
1
60
0
100
AcDbEllipse
10
67.706701
20
23.359784
30
0
11
-0.508022259791707
21
4.83350893051651
31
0
210
0
220
0
230
1
40
0.996195
41
-3.13249202467161
42
-3.12269203158481
0
ELLIPSE
5
2FE
100
AcDbEntity
8
1
62
256
6
ByLayer
370
18
48
1
60
0
100
AcDbEllipse
10
67.115956
20
30.006172
30
0
11
-0.0899084067211502
21
0.85542134904358
31
0
210
0
220
0
230
1
40
0.996195
41
-1.30899693899573
42
-0.261799387799141
0
ELLIPSE
5
2FF
100
AcDbEntity
8
1
62
256
6
ByLayer
370
18
48
1
60
0
100
AcDbEllipse
10
61.45952
20
27.311503
30
0
11
0.023664433632561
21
-0.225152046182972
31
0
210
0
220
0
230
1
40
0.996195
41
0.168458242080691
42
3.14159265358979
0
ELLIPSE
5
300
100
AcDbEntity
8
1
62
256
6
ByLayer
370
18
48
1
60
0
100
AcDbEllipse
10
57.624771
20
19.947032
30
0
11
-1.03066457612992
21
9.80611840735787
31
0
210
0
220
0
230
1
40
0.996195
41
0
42
0.00910062891819052
0
ELLIPSE
5
301
100
AcDbEntity
8
1
62
256
6
ByLayer
370
18
48
1
60
0
100
AcDbEllipse
10
62.536102
20
27.325529
30
0
11
-0.0128650708014692
21
-0.199585795970738
31
0
210
0
220
0
230
1
40
0.085922
41
0.901382621222447
42
1.58546385301636
0
ELLIPSE
5
302
100
AcDbEntity
8
1
62
256
6
ByLayer
370
18
48
1
60
0
100
AcDbEllipse
10
59.182424
20
23.244629
30
0
11
0.0236644336325609
21
-0.225152046182971
31
0
210
0
220
0
230
1
40
0.996195
41
1.73925456887567
42
-1.5707963267949
0
ELLIPSE
5
303
100
AcDbEntity
8
1
62
256
6
ByLayer
370
18
48
1
60
0
100
AcDbEllipse
10
62.143543
20
20.840983
30
0
11
-0.0104528463267643
21
0.0994521895368272
31
0
210
0
220
0
230
1
40
0.996195
41
-3.14159265358922
42
-0.168458242080678
0
ELLIPSE
5
304
100
AcDbEntity
8
1
62
256
6
ByLayer
370
18
48
1
60
0
100
AcDbEllipse
10
65.513062
20
25.022675
30
0
11
0.0236644336325609
21
-0.225152046182971
31
0
210
0
220
0
230
1
40
0.996195
41
-1.40233808471402
42
1.5707963267949
0
ELLIPSE
5
305
100
AcDbEntity
8
1
62
256
6
ByLayer
370
18
48
1
60
0
100
AcDbEllipse
10
57.182851
20
18.089317
30
0
11
-0.0376441750873262
21
0.358160401359422
31
0
210
0
220
0
230
1
40
0.996195
41
1.60570291183485
42
1.83259571459411
0
ELLIPSE
5
306
100
AcDbEntity
8
1
62
256
6
ByLayer
370
18
48
1
60
0
100
AcDbEllipse
10
57.673769
20
19.952872
30
0
11
1.04528463267643
21
-9.94521895368278
31
0
210
0
220
0
230
1
40
0.996195
41
-3.1226920315848
42
-3.1066860685499
0
ELLIPSE
5
307
100
AcDbEntity
8
1
62
256
6
ByLayer
370
18
48
1
60
0
100
AcDbEllipse
10
59.284343
20
18.643564
30
0
11
1.04528463267643
21
-9.94521895368278
31
0
210
0
220
0
230
1
40
0.996195
41
1.53588974175501
42
1.5518957047899
0
ELLIPSE
5
308
100
AcDbEntity
8
1
62
256
6
ByLayer
370
18
48
1
60
0
100
AcDbEllipse
10
62.559744
20
27.427141
30
0
11
0.0104528463267641
21
-0.0994521895368273
31
0
210
0
220
0
230
1
40
0.996195
41
3.14159265358922
42
-0.168458242081217
0
ELLIPSE
5
309
100
AcDbEntity
8
1
62
256
6
ByLayer
370
18
48
1
60
0
100
AcDbEllipse
10
65.107873
20
27.795511
30
0
11
0.0209056926535285
21
-0.198904379073655
31
0
210
0
220
0
230
1
40
0.087156
41
1.5707963267949
42
2.25487755859018
0
ELLIPSE
5
30A
100
AcDbEntity
8
1
62
256
6
ByLayer
370
18
48
1
60
0
100
AcDbEllipse
10
66.554467
20
19.407685
30
0
11
-1.03066457612994
21
9.80611840735806
31
0
210
0
220
0
230
1
40
0.996195
41
1.58969694879989
42
1.60570291183478
0
ELLIPSE
5
30B
100
AcDbEntity
8
1
62
256
6
ByLayer
370
18
48
1
60
0
100
AcDbEllipse
10
65.142214
20
27.598019
30
0
11
0.0341172799593253
21
-0.3246042357198
31
0
210
0
220
0
230
1
40
0.996195
41
1.5707963267949
42
3.14159265358979
0
ELLIPSE
5
30C
100
AcDbEntity
8
1
62
256
6
ByLayer
370
18
48
1
60
0
100
AcDbEllipse
10
63.235966
20
20.955801
30
0
11
0.0236644336325609
21
-0.225152046182971
31
0
210
0
220
0
230
1
40
0.996195
41
-2.97313441150908
42
0
0
ELLIPSE
5
30D
100
AcDbEntity
8
1
62
256
6
ByLayer
370
18
48
1
60
0
100
AcDbEllipse
10
57.335601
20
22.269737
30
0
11
0.522642316338193
21
-4.97260947684119
31
0
210
0
220
0
230
1
40
0.996195
41
-0.0189006220050059
42
-0.00910062891818554
0
ELLIPSE
5
30E
100
AcDbEntity
8
1
62
256
6
ByLayer
370
18
48
1
60
0
100
AcDbEllipse
10
62.351643
20
24.134062
30
0
11
0.334491082456456
21
-3.18247006517848
31
0
210
0
220
0
230
1
40
0.996195
41
0.168458242080891
42
1.40233808471402
0
ELLIPSE
5
30F
100
AcDbEntity
8
1
62
256
6
ByLayer
370
18
48
1
60
0
100
AcDbEllipse
10
62.347743
20
24.133652
30
0
11
-0.321279495150663
21
3.05677020853233
31
0
210
0
220
0
230
1
40
0.996195
41
1.73925456887578
42
2.97313441150893
0
ELLIPSE
5
310
100
AcDbEntity
8
1
62
256
6
ByLayer
370
18
48
1
60
0
100
AcDbEllipse
10
63.152757
20
29.481392
30
0
11
0.522642316338193
21
-4.97260947684119
31
0
210
0
220
0
230
1
40
0.996195
41
1.57989695571309
42
1.58969694879989
0
ELLIPSE
5
311
100
AcDbEntity
8
1
62
256
6
ByLayer
370
18
48
1
60
0
100
AcDbEllipse
10
61.463421
20
27.311913
30
0
11
0.0104528463267641
21
-0.0994521895368273
31
0
210
0
220
0
230
1
40
0.996195
41
0.168458242081217
42
3.14159265358922
0
ELLIPSE
5
312
100
AcDbEntity
8
1
62
256
6
ByLayer
370
18
48
1
60
0
100
AcDbEllipse
10
61.435632
20
27.409543
30
0
11
0.0209056926535285
21
-0.198904379073655
31
0
210
0
220
0
230
1
40
0.087156
41
1.5707963267949
42
2.25487755858801
0
ELLIPSE
5
313
100
AcDbEntity
8
1
62
256
6
ByLayer
370
18
48
1
60
0
100
AcDbEllipse
10
67.580919
20
30.185164
30
0
11
-0.0376441750873262
21
0.358160401359422
31
0
210
0
220
0
230
1
40
0.996195
41
-1.53588974175498
42
-1.30899693899573
0
ELLIPSE
5
314
100
AcDbEntity
8
1
62
256
6
ByLayer
370
18
48
1
60
0
100
AcDbEllipse
10
59.560743
20
20.468969
30
0
11
0.0209056926535285
21
-0.198904379073655
31
0
210
0
220
0
230
1
40
0.087156
41
0.886715094999556
42
1.57079632679483
0
ELLIPSE
5
315
100
AcDbEntity
8
1
62
256
6
ByLayer
370
18
48
1
60
0
100
AcDbEllipse
10
65.80143
20
21.325994
30
0
11
0.0341172799593253
21
-0.3246042357198
31
0
210
0
220
0
230
1
40
0.996195
41
0
42
1.57079632679485
0
ELLIPSE
5
316
100
AcDbEntity
8
1
62
256
6
ByLayer
370
18
48
1
60
0
100
AcDbEllipse
10
57.570086
20
17.774516
30
0
11
-0.0376441750873262
21
0.358160401359422
31
0
210
0
220
0
230
1
40
0.996195
41
2.8797932657906
42
3.10668606854987
0
ELLIPSE
5
317
100
AcDbEntity
8
1
62
256
6
ByLayer
370
18
48
1
60
0
100
AcDbEllipse
10
65.515871
20
23.92716
30
0
11
0.199601851976567
21
-0.0126135121011011
31
0
210
0
220
0
230
1
40
0.014613
41
1.48475903989618
42
2.16884027169254
0
ELLIPSE
5
318
100
AcDbEntity
8
1
62
256
6
ByLayer
370
18
48
1
60
0
100
AcDbEllipse
10
67.138999
20
28.327449
30
0
11
-1.03066457612992
21
9.80611840735787
31
0
210
0
220
0
230
1
40
0.996195
41
-3.14159265358979
42
-3.1324920246716
0
ELLIPSE
5
319
100
AcDbEntity
8
1
62
256
6
ByLayer
370
18
48
1
60
0
100
AcDbEllipse
10
68.233254
20
19.380884
30
0
11
0.104528463267641
21
-0.994521895368274
31
0
210
0
220
0
230
1
40
0.996195
41
0.261799387799166
42
1.30899693899576
0
ELLIPSE
5
31A
100
AcDbEntity
8
1
62
256
6
ByLayer
370
18
48
1
60
0
100
AcDbEllipse
10
56.35288
20
29.360551
30
0
11
0.0522642316338214
21
-0.497260947684139
31
0
210
0
220
0
230
1
40
0.996195
41
-3.1066860685499
42
-2.87979326579069
0
ELLIPSE
5
31B
100
AcDbEntity
8
1
62
256
6
ByLayer
370
18
48
1
60
0
100
AcDbEllipse
10
56.906674
20
27.251298
30
0
11
1.04528463267643
21
-9.94521895368278
31
0
210
0
220
0
230
1
40
0.996195
41
-0.0349065850398841
42
-0.0189006220049988
0
ELLIPSE
5
31C
100
AcDbEntity
8
1
62
256
6
ByLayer
370
18
48
1
60
0
100
AcDbEllipse
10
66.560797
20
19.359085
30
0
11
1.04528463267643
21
-9.94521895368276
31
0
210
0
220
0
230
1
40
0.996195
41
-1.5707963267949
42
-1.5616956978767
0
ELLIPSE
5
31D
100
AcDbEntity
8
1
62
256
6
ByLayer
370
18
48
1
60
0
100
AcDbEllipse
10
67.194213
20
30.500021
30
0
11
0.0522642316338214
21
-0.497260947684139
31
0
210
0
220
0
230
1
40
0.996195
41
2.8797932657908
42
3.10668606854979
0
ELLIPSE
5
31E
100
AcDbEntity
8
1
62
256
6
ByLayer
370
18
48
1
60
0
100
AcDbEllipse
10
59.283814
20
18.643508
30
0
11
-1.03066457612994
21
9.80611840735806
31
0
210
0
220
0
230
1
40
0.996195
41
-1.60570291183478
42
-1.58969694879989
0
ELLIPSE
5
31F
100
AcDbEntity
8
1
62
256
6
ByLayer
370
18
48
1
60
0
100
AcDbEllipse
10
63.232983
20
20.854937
30
0
11
0.0209056926535285
21
-0.198904379073655
31
0
210
0
220
0
230
1
40
0.087156
41
0.886715095000199
42
1.5707963267949
0
ELLIPSE
5
320
100
AcDbEntity
8
1
62
256
6
ByLayer
370
18
48
1
60
0
100
AcDbEllipse
10
66.560268
20
19.35903
30
0
11
-1.03066457612992
21
9.80611840735787
31
0
210
0
220
0
230
1
40
0.996195
41
1.5707963267949
42
1.57989695571309
0
ELLIPSE
5
321
100
AcDbEntity
8
1
62
256
6
ByLayer
370
18
48
1
60
0
100
AcDbEllipse
10
65.479956
20
29.630973
30
0
11
-1.03066457612994
21
9.80611840735806
31
0
210
0
220
0
230
1
40
0.996195
41
1.53588974175501
42
1.5518957047899
0
ELLIPSE
5
322
100
AcDbEntity
8
1
62
256
6
ByLayer
370
18
48
1
60
0
100
AcDbEllipse
10
64.247023
20
19.070145
30
0
11
0.522642316338193
21
-4.97260947684119
31
0
210
0
220
0
230
1
40
0.996195
41
1.5518957047899
42
1.5616956978767
0
ELLIPSE
5
323
100
AcDbEntity
8
1
62
256
6
ByLayer
370
18
48
1
60
0
100
AcDbEllipse
10
59.553272
20
20.669286
30
0
11
0.0341172799593253
21
-0.3246042357198
31
0
210
0
220
0
230
1
40
0.996195
41
-1.5707963267949
42
0
0
ELLIPSE
5
324
100
AcDbEntity
8
1
62
256
6
ByLayer
370
18
48
1
60
0
100
AcDbEllipse
10
62.139642
20
20.840573
30
0
11
0.023664433632561
21
-0.225152046182972
31
0
210
0
220
0
230
1
40
0.996195
41
0
42
2.9731344115086
0
ELLIPSE
5
325
100
AcDbEntity
8
1
62
256
6
ByLayer
370
18
48
1
60
0
100
AcDbEllipse
10
56.531045
20
28.893653
30
0
11
-0.0899084067211502
21
0.85542134904358
31
0
210
0
220
0
230
1
40
0.996195
41
0.261799387799206
42
1.30899693899576
0
ELLIPSE
5
326
100
AcDbEntity
8
1
62
256
6
ByLayer
370
18
48
1
60
0
100
AcDbEllipse
10
44.201762
20
-9.970813
30
0
11
-1.3095
21
1.6036220203304E-16
31
0
210
1.24683249835833E-15
220
0
230
1
40
0.894934
41
0.56951200337567
42
2.32860768722559
0
ELLIPSE
5
327
100
AcDbEntity
8
1
62
256
6
ByLayer
370
18
48
1
60
0
100
AcDbEllipse
10
44.201762
20
-9.885813
30
0
11
-1.5
21
1.83690953073357E-16
31
0
210
1.24683249835833E-15
220
0
230
1
40
0.894934
41
0.642062986726109
42
2.21433171750593
0
ELLIPSE
5
328
100
AcDbEntity
8
1
62
256
6
ByLayer
370
18
48
1
60
0
100
AcDbEllipse
10
57.494463
20
15.408222
30
0
11
8.80763192867475
21
-86.8874057674629
31
0
210
0
220
0
230
-1
40
0.009125
41
1.62698418513795
42
1.72418351331989
0
ELLIPSE
5
329
100
AcDbEntity
8
1
62
256
6
ByLayer
370
18
48
1
60
0
100
AcDbEllipse
10
68.096683
20
18.909188
30
0
11
0.0839421959960879
21
-0.79865664583666
31
0
210
0
220
0
230
-1
40
0.086824
41
-0.895664793928854
42
-0.0179855101284477
0
ELLIPSE
5
32A
100
AcDbEntity
8
1
62
256
6
ByLayer
370
18
48
1
60
0
100
AcDbEllipse
10
58.008319
20
18.846093
30
0
11
0.0023423998361077
21
-2.10008585590628
31
0
210
0
220
0
230
-1
40
0.996112
41
-0.691374479408198
42
1.4675919074308
0
ELLIPSE
5
32B
100
AcDbEntity
8
1
62
256
6
ByLayer
370
18
48
1
60
0
100
AcDbEllipse
10
67.587832
20
18.900475
30
0
11
0.0487528218923594
21
-0.799276649567956
31
0
210
0
220
0
230
-1
40
0.08699
41
-0.767633816981309
42
-0.0223429964685723
0
ELLIPSE
5
32C
100
AcDbEntity
8
1
62
256
6
ByLayer
370
18
48
1
60
0
100
AcDbEllipse
10
58.276345
20
19.125641
30
0
11
-0.219509772862052
21
2.08849598027338
31
0
210
0
220
0
230
1
40
0.996195
41
0.947386744149113
42
1.5707963267949
0
ELLIPSE
5
32D
100
AcDbEntity
8
1
62
256
6
ByLayer
370
18
48
1
60
0
100
AcDbEllipse
10
69.141967
20
12.923654
30
0
11
0.00260067436288362
21
6.50000048758397
31
0
210
0
220
0
230
-1
40
0.087006
41
-1.38046773909863
42
-1.27492104728438
0
ELLIPSE
5
32E
100
AcDbEntity
8
1
62
256
6
ByLayer
370
18
48
1
60
0
100
AcDbEllipse
10
58.302477
20
18.87701
30
0
11
-0.219509772862052
21
2.08849598027338
31
0
210
0
220
0
230
1
40
0.996195
41
1.57079632679489
42
3.07044042407415
0
ELLIPSE
5
32F
100
AcDbEntity
8
1
62
256
6
ByLayer
370
18
48
1
60
0
100
AcDbEllipse
10
57.982386
20
19.094744
30
0
11
0.0023423971822866
21
-2.10008585586753
31
0
210
0
220
0
230
-1
40
0.996112
41
1.46759190616006
42
2.13030169993338
0
ELLIPSE
5
330
100
AcDbEntity
8
1
62
256
6
ByLayer
370
18
48
1
60
0
100
AcDbEllipse
10
68.725271
20
-9.689796
30
0
11
-0.497332337549462
21
-0.0515804810717205
31
0
210
0
220
0
230
1
40
0.54224
41
3.01520355560188
42
-3.0410889488185
0
ELLIPSE
5
331
100
AcDbEntity
8
1
62
256
6
ByLayer
370
18
48
1
60
0
100
AcDbEllipse
10
68.090094
20
-12.65914
30
0
11
-0.745998506324189
21
-0.0773707216075807
31
0
210
0
220
0
230
1
40
0.54224
41
2.98029697056198
42
-2.39494394161515
0
ELLIPSE
5
332
100
AcDbEntity
8
1
62
256
6
ByLayer
370
18
48
1
60
0
100
AcDbEllipse
10
67.053594
20
-18.102146
30
0
11
-0.745998506324189
21
-0.0773707216075807
31
0
210
0
220
0
230
1
40
0.54224
41
2.6660882926085
42
2.98029697056203
0
POINT
5
6C
100
AcDbEntity
8
80
62
256
6
ByLayer
370
13
48
0.05
60
0
100
AcDbPoint
10
0
20
0
30
0
39
0
210
0
220
0
230
1
50
360
0
POINT
5
6E
100
AcDbEntity
8
81
62
256
6
ByLayer
370
13
48
1
60
0
100
AcDbPoint
10
68
20
31
30
0
39
0
210
0
220
0
230
1
50
360
0
SPLINE
5
333
100
AcDbEntity
8
1
62
256
6
ByLayer
370
18
48
1
60
0
100
AcDbSpline
70
4
71
3
72
13
73
9
40
0
40
0
40
0
40
0
40
0.179269457488222
40
0.411581466051041
40
0.606447984956433
40
0.802118875334615
40
0.978889627151967
40
1
40
1
40
1
40
1
41
1
10
45.6631087713445
20
-11.251066782099
30
0
41
1
10
45.631560379703
20
-11.3101953623286
30
0
41
1
10
45.548137281317
20
-11.4361392546419
30
0
41
1
10
45.3938352790487
20
-11.5728175768335
30
0
41
1
10
45.2348761267475
20
-11.6310508388772
30
0
41
1
10
45.1282149224359
20
-11.6064178712609
30
0
41
1
10
45.1011547881172
20
-11.5460353010366
30
0
41
1
10
45.1017762069125
20
-11.5071508258205
30
0
41
1
10
45.1020023946749
20
-11.5029086093486
30
0
0
SPLINE
5
334
100
AcDbEntity
8
1
62
256
6
ByLayer
370
18
48
1
60
0
100
AcDbSpline
70
4
71
3
72
30
73
26
40
0
40
0
40
0
40
0
40
0.0754486908211924
40
0.0754486908211924
40
0.134142567439234
40
0.134142567439234
40
0.208789318447063
40
0.208789318447063
40
0.300864837338281
40
0.300864837338281
40
0.400373451415948
40
0.400373451415948
40
0.499841523429527
40
0.499841523429527
40
0.64479499723631
40
0.64479499723631
40
0.71184360098512
40
0.71184360098512
40
0.778927202841157
40
0.778927202841157
40
0.846083321820494
40
0.846083321820494
40
0.913400043300338
40
0.913400043300338
40
1
40
1
40
1
40
1
41
1
10
62.7956057112039
20
22.9844271865743
30
0
41
1
10
62.7864560607445
20
22.9968445075359
30
0
41
1
10
62.774696696531
20
23.0075982389852
30
0
41
1
10
62.7515863294565
20
23.0238666988333
30
0
41
1
10
62.7405796211946
20
23.0301130166696
30
0
41
1
10
62.7144463333113
20
23.0425099023403
30
0
41
1
10
62.6989031990974
20
23.0482303722168
30
0
41
1
10
62.6631238033099
20
23.0586799092493
30
0
41
1
10
62.6424850489381
20
23.0629122285001
30
0
41
1
10
62.5987340075026
20
23.0689540646088
30
0
41
1
10
62.5753937286368
20
23.0705594536789
30
0
41
1
10
62.5283973123886
20
23.0709923794063
30
0
41
1
10
62.5045955887325
20
23.0698199406817
30
0
41
1
10
62.446467511923
20
23.0637104336212
30
0
41
1
10
62.4118847648837
20
23.0572738988169
30
0
41
1
10
62.3629215993492
20
23.0437332803397
30
0
41
1
10
62.3475677673635
20
23.0388108104867
30
0
41
1
10
62.3175415102041
20
23.0276713513528
30
0
41
1
10
62.3028178941373
20
23.0214356802375
30
0
41
1
10
62.2743615920006
20
23.0075519454189
30
0
41
1
10
62.2605662212183
20
22.9998733539898
30
0
41
1
10
62.2344450389738
20
22.982919874382
30
0
41
1
10
62.2220344242471
20
22.9735871870812
30
0
41
1
10
62.196437388776
20
22.9502752981609
30
0
41
1
10
62.1837102297935
20
22.9354370223304
30
0
41
1
10
62.1746913597391
20
22.9191664584981
30
0
0
SPLINE
5
335
100
AcDbEntity
8
1
62
256
6
ByLayer
370
18
48
1
60
0
100
AcDbSpline
70
4
71
3
72
26
73
22
40
0
40
0
40
0
40
0
40
0.0286869624047466
40
0.0286869624047466
40
0.141758577073008
40
0.141758577073008
40
0.254859186747307
40
0.254859186747307
40
0.368025661656668
40
0.368025661656668
40
0.481336136143645
40
0.481336136143645
40
0.594988764681352
40
0.594988764681352
40
0.731770501834084
40
0.731770501834084
40
0.814572892185895
40
0.814572892185895
40
0.903908109635028
40
0.903908109635028
40
1
40
1
40
1
40
1
41
1
10
61.5258761474671
20
25.2748311955995
30
0
41
1
10
61.5293766312974
20
25.2773832943861
30
0
41
1
10
61.5329040418672
20
25.2799003628325
30
0
41
1
10
61.5504555169086
20
25.2921562358953
30
0
41
1
10
61.5648691511122
20
25.3013860049803
30
0
41
1
10
61.5944073207213
20
25.3186124285797
30
0
41
1
10
61.6095610730639
20
25.3266263789676
30
0
41
1
10
61.640522949237
20
25.3412330639723
30
0
41
1
10
61.6563696484283
20
25.3478444496662
30
0
41
1
10
61.6886473949161
20
25.3593312717161
30
0
41
1
10
61.7051377558668
20
25.3642280575756
30
0
41
1
10
61.738556973464
20
25.3717517242635
30
0
41
1
10
61.7555945176333
20
25.3743997740163
30
0
41
1
10
61.7929449007777
20
25.3766944707251
30
0
41
1
10
61.8136732695871
20
25.3756466217209
30
0
41
1
10
61.8448066231285
20
25.3682480437512
30
0
41
1
10
61.8562496791291
20
25.3640559946477
30
0
41
1
10
61.8774889468343
20
25.3522728013206
30
0
41
1
10
61.8873274541439
20
25.344245915908
30
0
41
1
10
61.9031446371039
20
25.3249618799836
30
0
41
1
10
61.9090284984553
20
25.3132402047403
30
0
41
1
10
61.9124933656052
20
25.3011179339776
30
0
0
SPLINE
5
336
100
AcDbEntity
8
1
62
256
6
ByLayer
370
18
48
1
60
0
100
AcDbSpline
70
4
71
3
72
26
73
22
40
0
40
0
40
0
40
0
40
0.0286869624045571
40
0.0286869624045571
40
0.141758577072858
40
0.141758577072858
40
0.254859186747111
40
0.254859186747111
40
0.368025661656489
40
0.368025661656489
40
0.481336136143514
40
0.481336136143514
40
0.594988764681215
40
0.594988764681215
40
0.731770501834064
40
0.731770501834064
40
0.814572892185868
40
0.814572892185868
40
0.903908109634997
40
0.903908109634997
40
1
40
1
40
1
40
1
41
1
10
63.177742940064
20
22.9933279560589
30
0
41
1
10
63.1742424562337
20
22.9907758572723
30
0
41
1
10
63.1707174008221
20
22.9882590363632
30
0
41
1
10
63.1531892276131
20
22.9760056124217
30
0
41
1
10
63.1388306135593
20
22.9667816261874
30
0
41
1
10
63.1094806030786
20
22.9495749789091
30
0
41
1
10
63.0944601228098
20
22.9415750359808
30
0
41
1
10
63.0638565059028
20
22.9270060055423
30
0
41
1
10
63.0482351269063
20
22.920418301955
30
0
41
1
10
63.0165249145537
20
22.9089911301466
30
0
41
1
10
63.0003776212308
20
22.9041304021476
30
0
41
1
10
62.9678048213418
20
22.8966956975456
30
0
41
1
10
62.9512732768089
20
22.8941008304977
30
0
41
1
10
62.9152862938101
20
22.8919494329185
30
0
41
1
10
62.8954814531778
20
22.8930943486455
30
0
41
1
10
62.8662208869106
20
22.9006897644895
30
0
41
1
10
62.8555896850052
20
22.9049671428968
30
0
41
1
10
62.8362131731517
20
22.9169461197532
30
0
41
1
10
62.8274666670472
20
22.9250877791175
30
0
41
1
10
62.8139912201352
20
22.9446179414184
30
0
41
1
10
62.8093968888916
20
22.9564751517374
30
0
41
1
10
62.8071728726914
20
22.9687278411902
30
0
0
SPLINE
5
337
100
AcDbEntity
8
1
62
256
6
ByLayer
370
18
48
1
60
0
100
AcDbSpline
70
4
71
3
72
26
73
22
40
0
40
0
40
0
40
0
40
0.0341747429583157
40
0.0341747429583157
40
0.118717554180427
40
0.118717554180427
40
0.203116442115718
40
0.203116442115718
40
0.327045140901049
40
0.327045140901049
40
0.40298023117911
40
0.40298023117911
40
0.505547228462848
40
0.505547228462848
40
0.607904869129083
40
0.607904869129083
40
0.710165947508077
40
0.710165947508077
40
0.91560288621887
40
0.91560288621887
40
1
40
1
40
1
40
1
41
1
10
61.3927940640341
20
24.9222206097061
30
0
41
1
10
61.3887187458623
20
24.9245359463753
30
0
41
1
10
61.3847981633454
20
24.9271089905816
30
0
41
1
10
61.3720369506891
20
24.9368465736956
30
0
41
1
10
61.3641490497383
20
24.9454763999398
30
0
41
1
10
61.3523704916866
20
24.9650256192862
30
0
41
1
10
61.3483315808509
20
24.9761723739058
30
0
41
1
10
61.3431869595274
20
25.0044576119428
30
0
41
1
10
61.3440989559547
20
25.0224912841188
30
0
41
1
10
61.3497374163402
20
25.0506040920621
30
0
41
1
10
61.3528818153589
20
25.0612836777135
30
0
41
1
10
61.3619351290947
20
25.0858124614132
30
0
41
1
10
61.3684579213926
20
25.0995700339943
30
0
41
1
10
61.3832428803274
20
25.1261018904735
30
0
41
1
10
61.3915441562618
20
25.1389497960547
30
0
41
1
10
61.4094330963368
20
25.1637192179983
30
0
41
1
10
61.419050111027
20
25.1756808595322
30
0
41
1
10
61.4494661629657
20
25.2102898398181
30
0
41
1
10
61.4718942988482
20
25.2317479175077
30
0
41
1
10
61.5055184173029
20
25.2595171082213
30
0
41
1
10
61.5155844286009
20
25.2673278090666
30
0
41
1
10
61.5258761474671
20
25.2748311955995
30
0
0
SPLINE
5
338
100
AcDbEntity
8
1
62
256
6
ByLayer
370
18
48
1
60
0
100
AcDbSpline
70
4
71
3
72
26
73
22
40
0
40
0
40
0
40
0
40
0.0369679839399248
40
0.0369679839399248
40
0.140366078223073
40
0.140366078223073
40
0.298318733654473
40
0.298318733654473
40
0.500628765508234
40
0.500628765508234
40
0.645354084681093
40
0.645354084681093
40
0.712297154914724
40
0.712297154914724
40
0.779275168169092
40
0.779275168169092
40
0.846325584405815
40
0.846325584405815
40
0.91353635035721
40
0.91353635035721
40
1
40
1
40
1
40
1
41
1
10
63.3169102642777
20
23.3644948520411
30
0
41
1
10
63.3129982290926
20
23.3711190191594
30
0
41
1
10
63.3096644693097
20
23.3782189403397
30
0
41
1
10
63.299075634394
20
23.4060101135692
30
0
41
1
10
63.2951222957583
20
23.4288376796346
30
0
41
1
10
63.291592642723
20
23.4872479927429
30
0
41
1
10
63.2952437301159
20
23.5243884354123
30
0
41
1
10
63.3116669962563
20
23.6074534461711
30
0
41
1
10
63.3270323702336
20
23.6543722936166
30
0
41
1
10
63.3606490871297
20
23.7302130663881
30
0
41
1
10
63.3771166724077
20
23.7609958125405
30
0
41
1
10
63.4041611869365
20
23.8028701359594
30
0
41
1
10
63.4132122047354
20
23.815740517193
30
0
41
1
10
63.4322006918368
20
23.8403362522264
30
0
41
1
10
63.4421702398822
20
23.8521036336106
30
0
41
1
10
63.4630144567351
20
23.8741634428258
30
0
41
1
10
63.4739349449339
20
23.8845044500514
30
0
41
1
10
63.4967093570539
20
23.9031992959608
30
0
41
1
10
63.5086395685577
20
23.9116127820736
30
0
41
1
10
63.5367998161214
20
23.9274937314743
30
0
41
1
10
63.5536419957487
20
23.9342135821331
30
0
41
1
10
63.5706341041574
20
23.9369068501005
30
0
0
SPLINE
5
339
100
AcDbEntity
8
1
62
256
6
ByLayer
370
18
48
1
60
0
100
AcDbSpline
70
4
71
3
72
26
73
22
40
0
40
0
40
0
40
0
40
0.0341747429583064
40
0.0341747429583064
40
0.118717554180375
40
0.118717554180375
40
0.203116442115667
40
0.203116442115667
40
0.327045140900962
40
0.327045140900962
40
0.402980231178989
40
0.402980231178989
40
0.505547228462763
40
0.505547228462763
40
0.607904869128985
40
0.607904869128985
40
0.710165947508043
40
0.710165947508043
40
0.915602886218719
40
0.915602886218719
40
1
40
1
40
1
40
1
41
1
10
62.1647343964262
20
22.9012048364372
30
0
41
1
10
62.1644208548785
20
22.8966655914153
30
0
41
1
10
62.1638042589366
20
22.8921336196325
30
0
41
1
10
62.1605558361834
20
22.8767315174625
30
0
41
1
10
62.1561693739829
20
22.8659638963733
30
0
41
1
10
62.1435445989104
20
22.8467042093832
30
0
41
1
10
62.1351640838639
20
22.8379788093066
30
0
41
1
10
62.1116307248281
20
22.820145919272
30
0
41
1
10
62.0947628942277
20
22.8123151225097
30
0
41
1
10
62.0665642535827
20
22.8036800769685
30
0
41
1
10
62.0553997605438
20
22.8012489664711
30
0
41
1
10
62.0289223121939
20
22.7972204206058
30
0
41
1
10
62.0134128652522
20
22.7961881276
30
0
41
1
10
61.9824831880405
20
22.7960765219656
30
0
41
1
10
61.9669781736317
20
22.7969951973096
30
0
41
1
10
61.9362053790925
20
22.8003766335883
30
0
41
1
10
61.9208876702104
20
22.8028451470305
30
0
41
1
10
61.8753476218328
20
22.8122053554849
30
0
41
1
10
61.8454289733655
20
22.8210652694495
30
0
41
1
10
61.8045223816857
20
22.8364780308606
30
0
41
1
10
61.7927272337773
20
22.8413352561267
30
0
41
1
10
61.7811003718799
20
22.8465349069904
30
0
0
SPLINE
5
33A
100
AcDbEntity
8
1
62
256
6
ByLayer
370
18
48
1
60
0
100
AcDbSpline
70
4
71
3
72
26
73
22
40
0
40
0
40
0
40
0
40
0.0753632465605439
40
0.0753632465605439
40
0.133990653438513
40
0.133990653438513
40
0.208552868369791
40
0.208552868369791
40
0.300524113423237
40
0.300524113423237
40
0.399920035818932
40
0.399920035818932
40
0.499275462063603
40
0.499275462063603
40
0.577746029348543
40
0.577746029348543
40
0.777160361616573
40
0.777160361616573
40
0.913864695659915
40
0.913864695659915
40
1
40
1
40
1
40
1
41
1
10
63.5030053484389
20
24.5803514795922
30
0
41
1
10
63.4880039493252
20
24.5795670015384
30
0
41
1
10
63.4724735108085
20
24.5818130256401
30
0
41
1
10
63.4454518906071
20
24.5892575286279
30
0
41
1
10
63.4336626625335
20
24.593738447796
30
0
41
1
10
63.4074182936239
20
24.6058847298492
30
0
41
1
10
63.3929953334301
20
24.614132360955
30
0
41
1
10
63.3617384717584
20
24.6347849312966
30
0
41
1
10
63.3449921691142
20
24.6477987906277
30
0
41
1
10
63.3115768575482
20
24.6771584820427
30
0
41
1
10
63.2949013298963
20
24.6937998391975
30
0
41
1
10
63.2633072951501
20
24.7289812062803
30
0
41
1
10
63.2482918659601
20
24.7476310293242
30
0
41
1
10
63.2231939682877
20
24.7822954072886
30
0
41
1
10
63.2126915222024
20
24.7981074999467
30
0
41
1
10
63.1782765991057
20
24.8548880550891
30
0
41
1
10
63.1575801905327
20
24.8984954376004
30
0
41
1
10
63.1347714171998
20
24.9724867890126
30
0
41
1
10
63.1286387515187
20
25.0034947132409
30
0
41
1
10
63.1280372642497
20
25.0520050621911
30
0
41
1
10
63.1301644821805
20
25.0706789055725
30
0
41
1
10
63.1358148368519
20
25.0875027495789
30
0
0
SPLINE
5
33B
100
AcDbEntity
8
1
62
256
6
ByLayer
370
18
48
1
60
0
100
AcDbSpline
70
4
71
3
72
8
73
4
40
0
40
0
40
0
40
0
40
1
40
1
40
1
40
1
41
1
10
61.1302748346127
20
24.3299658309851
30
0
41
1
10
61.137161794165
20
24.3310234918212
30
0
41
1
10
61.1440497617425
20
24.3320813195957
30
0
41
1
10
61.1509387836393
20
24.333139322005
30
0
0
SPLINE
5
33C
100
AcDbEntity
8
1
62
256
6
ByLayer
370
18
48
1
60
0
100
AcDbSpline
70
4
71
3
72
8
73
4
40
0
40
0
40
0
40
0
40
1
40
1
40
1
40
1
41
1
10
61.404662623517
20
24.905551320068
30
0
41
1
10
61.400705950274
20
24.911108823528
30
0
41
1
10
61.396749770926
20
24.9166652372813
30
0
41
1
10
61.3927940640341
20
24.9222206097061
30
0
0
SPLINE
5
33D
100
AcDbEntity
8
1
62
256
6
ByLayer
370
18
48
1
60
0
100
AcDbSpline
70
4
71
3
72
30
73
26
40
0
40
0
40
0
40
0
40
0.075448690821289
40
0.075448690821289
40
0.134142567439342
40
0.134142567439342
40
0.208789318447153
40
0.208789318447153
40
0.300864837338282
40
0.300864837338282
40
0.400373451416022
40
0.400373451416022
40
0.499841523429528
40
0.499841523429528
40
0.644794997236263
40
0.644794997236263
40
0.711843600985123
40
0.711843600985123
40
0.778927202841202
40
0.778927202841202
40
0.846083321820503
40
0.846083321820503
40
0.913400043300364
40
0.913400043300364
40
1
40
1
40
1
40
1
41
1
10
61.9259671765928
20
25.2856189855312
30
0
41
1
10
61.9366236643955
20
25.2733600395562
30
0
41
1
10
61.949823292125
20
25.2627576859023
30
0
41
1
10
61.9752754927109
20
25.2467353626746
30
0
41
1
10
61.9872466199351
20
25.2405904093558
30
0
41
1
10
62.0154065560786
20
25.2284065330008
30
0
41
1
10
62.0319762050186
20
25.2227939541693
30
0
41
1
10
62.0697885215475
20
25.2125580857169
30
0
41
1
10
62.0913818064238
20
25.2084260916647
30
0
41
1
10
62.1367477791746
20
25.202553991677
30
0
41
1
10
62.1607240556946
20
25.2010154486538
30
0
41
1
10
62.2085675329765
20
25.2006715526287
30
0
41
1
10
62.2325828285928
20
25.2018664386709
30
0
41
1
10
62.2907109054023
20
25.2079759457314
30
0
41
1
10
62.3248402727531
20
25.2143648284102
30
0
41
1
10
62.3724984246434
20
25.2277682844264
30
0
41
1
10
62.3873427094894
20
25.2326371987169
30
0
41
1
10
62.4161654690166
20
25.2436501651525
30
0
41
1
10
62.4301930815917
20
25.2498126833531
30
0
41
1
10
62.4570766666362
20
25.2635311189443
30
0
41
1
10
62.4699917967706
20
25.2711171933535
30
0
41
1
10
62.4941745161575
20
25.2878669323048
30
0
41
1
10
62.5055202387804
20
25.2970876949355
30
0
41
1
10
62.528499503316
20
25.3201244450435
30
0
41
1
10
62.5395884036123
20
25.3347905329476
30
0
41
1
10
62.5468815280575
20
25.3508797136074
30
0
0
SPLINE
5
33E
100
AcDbEntity
8
1
62
256
6
ByLayer
370
18
48
1
60
0
100
AcDbSpline
70
4
71
3
72
26
73
22
40
0
40
0
40
0
40
0
40
0.0246840387502232
40
0.0246840387502232
40
0.108402719804378
40
0.108402719804378
40
0.19210305254761
40
0.19210305254761
40
0.309485195483531
40
0.309485195483531
40
0.380199874143333
40
0.380199874143333
40
0.476666438094151
40
0.476666438094151
40
0.587023534816817
40
0.587023534816817
40
0.69722910130018
40
0.69722910130018
40
0.807364565734766
40
0.807364565734766
40
1
40
1
40
1
40
1
41
1
10
63.5893914036838
20
23.9398799441828
30
0
41
1
10
63.5923418847658
20
23.9389165256713
30
0
41
1
10
63.5953347113056
20
23.9381042475989
30
0
41
1
10
63.6084783926538
20
23.9352971371316
30
0
41
1
10
63.6191132603502
20
23.9350527031571
30
0
41
1
10
63.6397316688349
20
23.9389720227101
30
0
41
1
10
63.6499565514841
20
23.9431883232417
30
0
41
1
10
63.6723060216968
20
23.9574082979768
30
0
41
1
10
63.684005300551
20
23.9692252626043
30
0
41
1
10
63.6997627800736
20
23.9905868899513
30
0
41
1
10
63.705139620802
20
23.9993203692462
30
0
41
1
10
63.7165330189268
20
24.020799708807
30
0
41
1
10
63.7221278187394
20
24.0339401071337
30
0
41
1
10
63.7323351297163
20
24.062823916967
30
0
41
1
10
63.7367270980503
20
24.078769748405
30
0
41
1
10
63.743748716037
20
24.1110545033454
30
0
41
1
10
63.7463931699954
20
24.1274617622117
30
0
41
1
10
63.7501868578663
20
24.1604468283765
30
0
41
1
10
63.7513408116826
20
24.1770696513635
30
0
41
1
10
63.7526713235792
20
24.222737707332
30
0
41
1
10
63.75149259444
20
24.2519443663673
30
0
41
1
10
63.7484521119496
20
24.2808726248977
30
0
0
SPLINE
5
33F
100
AcDbEntity
8
1
62
256
6
ByLayer
370
18
48
1
60
0
100
AcDbSpline
70
4
71
3
72
26
73
22
40
0
40
0
40
0
40
0
40
0.0286869624046207
40
0.0286869624046207
40
0.141758577072886
40
0.141758577072886
40
0.254859186747175
40
0.254859186747175
40
0.368025661656546
40
0.368025661656546
40
0.481336136143601
40
0.481336136143601
40
0.594988764681305
40
0.594988764681305
40
0.731770501834084
40
0.731770501834084
40
0.814572892185916
40
0.814572892185916
40
0.90390810963504
40
0.90390810963504
40
1
40
1
40
1
40
1
41
1
10
61.7811003718799
20
22.8465349069904
30
0
41
1
10
61.7771457708461
20
22.8483034447836
30
0
41
1
10
61.7732097861726
20
22.8501120420166
30
0
41
1
10
61.7538661482387
20
22.8592410457032
30
0
41
1
10
61.7387297513537
20
22.8671421337266
30
0
41
1
10
61.7092271107699
20
22.8841501817822
30
0
41
1
10
61.6948314215323
20
22.8932738555442
30
0
41
1
10
61.6670116123795
20
22.9127670193717
30
0
41
1
10
61.6535523510798
20
22.9231606102761
30
0
41
1
10
61.6279320446002
20
22.945280930969
30
0
41
1
10
61.6157235607458
20
22.9570482559523
30
0
41
1
10
61.5931730573193
20
22.9820404328654
30
0
41
1
10
61.5827604629947
20
22.995348249911
30
0
41
1
10
61.5631645995742
20
23.0261845701322
30
0
41
1
10
61.554425109673
20
23.0443975177719
30
0
41
1
10
61.5467107182067
20
23.0744883381068
30
0
41
1
10
61.5452442238027
20
23.0862396019678
30
0
41
1
10
61.546258740678
20
23.1099227434054
30
0
41
1
10
61.5491272357464
20
23.1220943336143
30
0
41
1
10
61.5597093771519
20
23.144639098966
30
0
41
1
10
61.5679029531334
20
23.1551476384946
30
0
41
1
10
61.5776145881559
20
23.1637707845914
30
0
0
SPLINE
5
340
100
AcDbEntity
8
1
62
256
6
ByLayer
370
18
48
1
60
0
100
AcDbSpline
70
4
71
3
72
8
73
4
40
0
40
0
40
0
40
0
40
1
40
1
40
1
40
1
41
1
10
62.1746913597391
20
22.9191664584981
30
0
41
1
10
62.1713720052218
20
22.9131781507356
30
0
41
1
10
62.1680530227965
20
22.9071909598775
30
0
41
1
10
62.1647343964262
20
22.9012048364372
30
0
0
SPLINE
5
341
100
AcDbEntity
8
1
62
256
6
ByLayer
370
18
48
1
60
0
100
AcDbSpline
70
4
71
3
72
8
73
4
40
0
40
0
40
0
40
0
40
1
40
1
40
1
40
1
41
1
10
63.5706341041574
20
23.9369068501005
30
0
41
1
10
63.5768879731527
20
23.9378980952499
30
0
41
1
10
63.5831403846254
20
23.9388891233861
30
0
41
1
10
63.5893914036838
20
23.9398799441828
30
0
0
SPLINE
5
342
100
AcDbEntity
8
1
62
256
6
ByLayer
370
18
48
1
60
0
100
AcDbSpline
70
4
71
3
72
8
73
4
40
0
40
0
40
0
40
0
40
1
40
1
40
1
40
1
41
1
10
61.9124933656051
20
25.3011179339776
30
0
41
1
10
61.9169840570728
20
25.2959526029165
30
0
41
1
10
61.9214753187437
20
25.2907863017914
30
0
41
1
10
61.9259671765928
20
25.2856189855312
30
0
0
SPLINE
5
343
100
AcDbEntity
8
1
62
256
6
ByLayer
370
18
48
1
60
0
100
AcDbSpline
70
4
71
3
72
8
73
4
40
0
40
0
40
0
40
0
40
1
40
1
40
1
40
1
41
1
10
62.5468815280575
20
25.3508797136074
30
0
41
1
10
62.5495657296734
20
25.3568012641099
30
0
41
1
10
62.552249155994
20
25.3627216553297
30
0
41
1
10
62.5549318418704
20
25.3686409387307
30
0
0
SPLINE
5
344
100
AcDbEntity
8
1
62
256
6
ByLayer
370
18
48
1
60
0
100
AcDbSpline
70
4
71
3
72
26
73
22
40
0
40
0
40
0
40
0
40
0.028698839565869
40
0.028698839565869
40
0.141769071600787
40
0.141769071600787
40
0.254868298287115
40
0.254868298287115
40
0.368033389403154
40
0.368033389403154
40
0.481342478336057
40
0.481342478336057
40
0.594993717135819
40
0.594993717135819
40
0.731773781728602
40
0.731773781728602
40
0.814575159577667
40
0.814575159577667
40
0.90390928464105
40
0.90390928464105
40
1
40
1
40
1
40
1
41
1
10
63.7484521119496
20
24.2808726248977
30
0
41
1
10
63.747997994746
20
24.2851932614778
30
0
41
1
10
63.7475018167971
20
24.2895097196223
30
0
41
1
10
63.7448436034962
20
24.3108035708062
30
0
41
1
10
63.742071396837
20
24.3277190226725
30
0
41
1
10
63.7352011360126
20
24.3612276665665
30
0
41
1
10
63.7310964341024
20
24.377854193518
30
0
41
1
10
63.7214706604572
20
24.4106120882209
30
0
41
1
10
63.7159378406673
20
24.4267846121927
30
0
41
1
10
63.7032898650281
20
24.4583626739872
30
0
41
1
10
63.6961514951992
20
24.4738264685102
30
0
41
1
10
63.680029491051
20
24.5035054733029
30
0
41
1
10
63.6709909004655
20
24.5178150356629
30
0
41
1
10
63.6487811340654
20
24.5467456368616
30
0
41
1
10
63.6348707085113
20
24.5611886089077
30
0
41
1
10
63.6100547053786
20
24.5788111521415
30
0
41
1
10
63.5999422876108
20
24.5842589300856
30
0
41
1
10
63.5784947970612
20
24.5915656890935
30
0
41
1
10
63.5668417423982
20
24.5931500487234
30
0
41
1
10
63.5438539669124
20
24.5912199847887
30
0
41
1
10
63.5322706756202
20
24.5873097978156
30
0
41
1
10
63.5219708969845
20
24.5813432166086
30
0
0
SPLINE
5
345
100
AcDbEntity
8
1
62
256
6
ByLayer
370
18
48
1
60
0
100
AcDbSpline
70
4
71
3
72
26
73
22
40
0
40
0
40
0
40
0
40
0.0341747429583101
40
0.0341747429583101
40
0.118717554180376
40
0.118717554180376
40
0.203116442115669
40
0.203116442115669
40
0.327045140900969
40
0.327045140900969
40
0.402980231179041
40
0.402980231179041
40
0.50554722846272
40
0.50554722846272
40
0.607904869128945
40
0.607904869128945
40
0.710165947507917
40
0.710165947507917
40
0.915602886218621
40
0.915602886218621
40
1
40
1
40
1
40
1
41
1
10
63.3268721742624
20
23.3476251654619
30
0
41
1
10
63.3304996759641
20
23.345262761385
30
0
41
1
10
63.3339683829338
20
23.3426422231448
30
0
41
1
10
63.3451759882526
20
23.3327413493198
30
0
41
1
10
63.3519453620519
20
23.3239939611345
30
0
41
1
10
63.3616439106698
20
23.3042261239874
30
0
41
1
10
63.3646958733425
20
23.2929756369358
30
0
41
1
10
63.367698140797
20
23.2644652284337
30
0
41
1
10
63.3657157253668
20
23.246319050687
30
0
41
1
10
63.3586699863401
20
23.2180583317983
30
0
41
1
10
63.3550533323009
20
23.2073291101441
30
0
41
1
10
63.3450183600298
20
23.1826971499748
30
0
41
1
10
63.3380261472744
20
23.1688902393156
30
0
41
1
10
63.3224427476234
20
23.1422744633354
30
0
41
1
10
63.313810337904
20
23.129391754191
30
0
41
1
10
63.2953622123763
20
23.104563559488
30
0
41
1
10
63.2855163753022
20
23.0925778677524
30
0
41
1
10
63.254534216802
20
23.0579093872693
30
0
41
1
10
63.2318860061238
20
23.0364281787867
30
0
41
1
10
63.198120958795
20
23.0086441758515
30
0
41
1
10
63.1880346589303
20
23.0008313425918
30
0
41
1
10
63.177742940064
20
22.9933279560589
30
0
0
SPLINE
5
346
100
AcDbEntity
8
1
62
256
6
ByLayer
370
18
48
1
60
0
100
AcDbSpline
70
4
71
3
72
8
73
4
40
0
40
0
40
0
40
0
40
1
40
1
40
1
40
1
41
1
10
61.5776145881559
20
23.1637707845914
30
0
41
1
10
61.5803288264874
20
23.1700271965082
30
0
41
1
10
61.5830433104464
20
23.176284725227
30
0
41
1
10
61.5857580509448
20
23.1825434225266
30
0
0
SPLINE
5
347
100
AcDbEntity
8
1
62
256
6
ByLayer
370
18
48
1
60
0
100
AcDbSpline
70
4
71
3
72
26
73
22
40
0
40
0
40
0
40
0
40
0.034174742958311
40
0.034174742958311
40
0.118717554180352
40
0.118717554180352
40
0.203116442115647
40
0.203116442115647
40
0.327045140900973
40
0.327045140900973
40
0.402980231179046
40
0.402980231179046
40
0.505547228462778
40
0.505547228462778
40
0.607904869128977
40
0.607904869128977
40
0.710165947508032
40
0.710165947508032
40
0.915602886218634
40
0.915602886218634
40
1
40
1
40
1
40
1
41
1
10
62.5549318418704
20
25.3686409387307
30
0
41
1
10
62.5547975669479
20
25.373133116345
30
0
41
1
10
62.5549622873426
20
25.3776175940939
30
0
41
1
10
62.5566571027583
20
25.3928564055527
30
0
41
1
10
62.5599250378073
20
25.4035064647012
30
0
41
1
10
62.5704698034461
20
25.4225475338903
30
0
41
1
10
62.5778633703295
20
25.431169201535
30
0
41
1
10
62.5992543754961
20
25.4487769211045
30
0
41
1
10
62.6150517870938
20
25.4564952122961
30
0
41
1
10
62.6418431490977
20
25.464982346892
30
0
41
1
10
62.652535387116
20
25.4673638213866
30
0
41
1
10
62.6780311769306
20
25.4712891907823
30
0
41
1
10
62.6930712034147
20
25.4722721457099
30
0
41
1
10
62.7232024399103
20
25.4722998318433
30
0
41
1
10
62.738376320534
20
25.4713463529362
30
0
41
1
10
62.7685899296204
20
25.4679061438981
30
0
41
1
10
62.7836788161188
20
25.4654135802541
30
0
41
1
10
62.8286527579348
20
25.4559938716025
30
0
41
1
10
62.8583513316065
20
25.4471108268448
30
0
41
1
10
62.899116994412
20
25.4316832532122
30
0
41
1
10
62.9108918537538
20
25.4268238955317
30
0
41
1
10
62.9225187156513
20
25.421624244668
30
0
0
SPLINE
5
348
100
AcDbEntity
8
1
62
256
6
ByLayer
370
18
48
1
60
0
100
AcDbSpline
70
4
71
3
72
8
73
4
40
0
40
0
40
0
40
0
40
1
40
1
40
1
40
1
41
1
10
63.5219708969845
20
24.5813432166086
30
0
41
1
10
63.5156504744632
20
24.5810127256519
30
0
41
1
10
63.5093286468469
20
24.5806821480046
30
0
41
1
10
63.5030053484389
20
24.5803514795922
30
0
0
SPLINE
5
349
100
AcDbEntity
8
1
62
256
6
ByLayer
370
18
48
1
60
0
100
AcDbSpline
70
4
71
3
72
8
73
4
40
0
40
0
40
0
40
0
40
1
40
1
40
1
40
1
41
1
10
62.8071728726914
20
22.9687278411903
30
0
41
1
10
62.8033181217176
20
22.9739600122906
30
0
41
1
10
62.7994624161515
20
22.9791931130541
30
0
41
1
10
62.7956057112039
20
22.9844271865743
30
0
0
SPLINE
5
34A
100
AcDbEntity
8
1
62
256
6
ByLayer
370
18
48
1
60
0
100
AcDbSpline
70
4
71
3
72
8
73
4
40
0
40
0
40
0
40
0
40
1
40
1
40
1
40
1
41
1
10
63.3169102642797
20
23.3644948520376
30
0
41
1
10
63.3202317846212
20
23.3588705913174
30
0
41
1
10
63.3235524078644
20
23.3532473779259
30
0
41
1
10
63.3268721742624
20
23.3476251654619
30
0
0
SPLINE
5
34B
100
AcDbEntity
8
1
62
256
6
ByLayer
370
18
48
1
60
0
100
AcDbSpline
70
4
71
3
72
26
73
22
40
0
40
0
40
0
40
0
40
0.0286869624046621
40
0.0286869624046621
40
0.141758577072943
40
0.141758577072943
40
0.254859186747208
40
0.254859186747208
40
0.368025661656601
40
0.368025661656601
40
0.481336136143611
40
0.481336136143611
40
0.594988764681348
40
0.594988764681348
40
0.731770501834078
40
0.731770501834078
40
0.81457289218598
40
0.81457289218598
40
0.903908109635011
40
0.903908109635011
40
1
40
1
40
1
40
1
41
1
10
60.9551669755814
20
23.9872865267607
30
0
41
1
10
60.9547128583779
20
23.9916071633405
30
0
41
1
10
60.9543031066952
20
23.9959327052512
30
0
41
1
10
60.9524992928864
20
24.0173163574401
30
0
41
1
10
60.9517490201301
20
24.034444323123
30
0
41
1
10
60.9516904695912
20
24.0686689066174
30
0
41
1
10
60.9523818966593
20
24.0857995270376
30
0
41
1
10
60.9553448340466
20
24.1198805485866
30
0
41
1
10
60.9576196118408
20
24.1368736841317
30
0
41
1
10
60.9639932847814
20
24.1704510017538
30
0
41
1
10
60.9681036280638
20
24.1870970836662
30
0
41
1
10
60.9785491333804
20
24.2195684462242
30
0
41
1
10
60.9849210834069
20
24.2354977216703
30
0
41
1
10
61.001993903058
20
24.2685570890354
30
0
41
1
10
61.0135210178777
20
24.2856736543097
30
0
41
1
10
61.0360035863157
20
24.3082674777377
30
0
41
1
10
61.0455742208647
20
24.3157840278433
30
0
41
1
10
61.0668966275194
20
24.3275860841891
30
0
41
1
10
61.0790576292948
20
24.3316734020095
30
0
41
1
10
61.1042860856364
20
24.3348110682485
30
0
41
1
10
61.1177187579153
20
24.333530164996
30
0
41
1
10
61.1302748346127
20
24.3299658309851
30
0
0
SPLINE
5
34C
100
AcDbEntity
8
1
62
256
6
ByLayer
370
18
48
1
60
0
100
AcDbSpline
70
4
71
3
72
26
73
22
40
0
40
0
40
0
40
0
40
0.0286869624045607
40
0.0286869624045607
40
0.141758577072922
40
0.141758577072922
40
0.254859186747177
40
0.254859186747177
40
0.368025661656553
40
0.368025661656553
40
0.48133613614359
40
0.48133613614359
40
0.594988764681312
40
0.594988764681312
40
0.73177050183406
40
0.73177050183406
40
0.814572892185903
40
0.814572892185903
40
0.903908109635027
40
0.903908109635027
40
1
40
1
40
1
40
1
41
1
10
62.9225187156513
20
25.421624244668
30
0
41
1
10
62.9264733166851
20
25.4198557068748
30
0
41
1
10
62.9304116565166
20
25.418047357179
30
0
41
1
10
62.9497785962831
20
25.4089208026136
30
0
41
1
10
62.9649700133178
20
25.4010254974411
30
0
41
1
10
62.99466081303
20
25.3840372257068
30
0
41
1
10
63.0091897743413
20
25.3749275594041
30
0
41
1
10
63.0373678427604
20
25.3554720501429
30
0
41
1
10
63.0510524242548
20
25.3451021413451
30
0
41
1
10
63.0772402648698
20
25.3230414708936
30
0
41
1
10
63.0897918163517
20
25.311310203771
30
0
41
1
10
63.1131887374865
20
25.2864069889438
30
0
41
1
10
63.1241073314474
20
25.273152354603
30
0
41
1
10
63.1450665950136
20
25.2424593335114
30
0
41
1
10
63.1547296130919
20
25.2243434525944
30
0
41
1
10
63.1643167918324
20
25.1944494701339
30
0
41
1
10
63.1665951403317
20
25.1827835355767
30
0
41
1
10
63.1674433793079
20
25.1592961776685
30
0
41
1
10
63.1656668854448
20
25.1472393614111
30
0
41
1
10
63.157426480087
20
25.1249407224359
30
0
41
1
10
63.1505224342134
20
25.1145677179833
30
0
41
1
10
63.1420516501407
20
25.1060749905764
30
0
0
SPLINE
5
34D
100
AcDbEntity
8
1
62
256
6
ByLayer
370
18
48
1
60
0
100
AcDbSpline
70
4
71
3
72
30
73
26
40
0
40
0
40
0
40
0
40
0.0754486908211949
40
0.0754486908211949
40
0.134142567439247
40
0.134142567439247
40
0.208789318447072
40
0.208789318447072
40
0.300864837338263
40
0.300864837338263
40
0.400373451415955
40
0.400373451415955
40
0.499841523429541
40
0.499841523429541
40
0.644794997236265
40
0.644794997236265
40
0.711843600985101
40
0.711843600985101
40
0.778927202841172
40
0.778927202841172
40
0.846083321820511
40
0.846083321820511
40
0.913400043300328
40
0.913400043300328
40
1
40
1
40
1
40
1
41
1
10
61.5857580509448
20
23.1825434225266
30
0
41
1
10
61.5921985038665
20
23.1973915619097
30
0
41
1
10
61.595883357916
20
23.2136468850742
30
0
41
1
10
61.598827241362
20
23.2429383467135
30
0
41
1
10
61.5989027122552
20
23.2560694654842
30
0
41
1
10
61.5969282609447
20
23.2859102235752
30
0
41
1
10
61.59429138907
20
23.3027507415936
30
0
41
1
10
61.5858083670844
20
23.3400070420042
30
0
41
1
10
61.5793215002233
20
23.3605007512323
30
0
41
1
10
61.5629588081976
20
23.4022930010442
30
0
41
1
10
61.5527877228195
20
23.423676553861
30
0
41
1
10
61.5298038488574
20
23.4651353334259
30
0
41
1
10
61.5169187009748
20
23.4853382812959
30
0
41
1
10
61.4825434635353
20
23.5328162110719
30
0
41
1
10
61.4595822620166
20
23.5594548247408
30
0
41
1
10
61.4231175599893
20
23.5946540605213
30
0
41
1
10
61.4110788787815
20
23.6053078250687
30
0
41
1
10
61.3861880971919
20
23.6252916631223
30
0
41
1
10
61.3732938280387
20
23.6346559604845
30
0
41
1
10
61.3467458980098
20
23.6517346543441
30
0
41
1
10
61.3330337917332
20
23.6594866715645
30
0
41
1
10
61.3049317152797
20
23.6728341830493
30
0
41
1
10
61.2904480532953
20
23.678471459189
30
0
41
1
10
61.2569835687275
20
23.6878753882457
30
0
41
1
10
61.2374740369353
20
23.6907745200751
30
0
41
1
10
61.2185675393578
20
23.6896946925133
30
0
0
SPLINE
5
34E
100
AcDbEntity
8
1
62
256
6
ByLayer
370
18
48
1
60
0
100
AcDbSpline
70
4
71
3
72
26
73
22
40
0
40
0
40
0
40
0
40
0.0341747429582825
40
0.0341747429582825
40
0.118717554180306
40
0.118717554180306
40
0.203116442115698
40
0.203116442115698
40
0.327045140900948
40
0.327045140900948
40
0.402980231179082
40
0.402980231179082
40
0.505547228462739
40
0.505547228462739
40
0.607904869129002
40
0.607904869129002
40
0.710165947508022
40
0.710165947508022
40
0.915602886218735
40
0.915602886218735
40
1
40
1
40
1
40
1
41
1
10
61.1976953413121
20
23.6885025585593
30
0
41
1
10
61.1935303898277
20
23.6863021839104
30
0
41
1
10
61.1892191491425
20
23.684367003351
30
0
41
1
10
61.1739863174016
20
23.6787841296505
30
0
41
1
10
61.1622712178262
20
23.6767051157759
30
0
41
1
10
61.1389078894188
20
23.6771039570325
30
0
41
1
10
61.1269819376181
20
23.6795771777915
30
0
41
1
10
61.0993751341933
20
23.6901421110266
30
0
41
1
10
61.0839545095216
20
23.7004012392257
30
0
41
1
10
61.0620979685827
20
23.7199529571004
30
0
41
1
10
61.0543140020727
20
23.7282262502558
30
0
41
1
10
61.0373806967263
20
23.7487780763249
30
0
41
1
10
61.0286287523114
20
23.7615280249392
30
0
41
1
10
61.0128832543925
20
23.7879902355347
30
0
41
1
10
61.0058450828105
20
23.8017742182413
30
0
41
1
10
60.9932408210729
20
23.8299544628434
30
0
41
1
10
60.9876545380729
20
23.8443966429204
30
0
41
1
10
60.9728135949147
20
23.8883955817593
30
0
41
1
10
60.9654331197277
20
23.91872513881
30
0
41
1
10
60.9582211109397
20
23.9619144970455
30
0
41
1
10
60.9565021186126
20
23.9745834893641
30
0
41
1
10
60.9551669755814
20
23.9872865267607
30
0
0
SPLINE
5
34F
100
AcDbEntity
8
1
62
256
6
ByLayer
370
18
48
1
60
0
100
AcDbSpline
70
4
71
3
72
30
73
26
40
0
40
0
40
0
40
0
40
0.0754486908211629
40
0.0754486908211629
40
0.134142567439243
40
0.134142567439243
40
0.208789318447058
40
0.208789318447058
40
0.30086483733821
40
0.30086483733821
40
0.400373451415949
40
0.400373451415949
40
0.499841523429521
40
0.499841523429521
40
0.644794997236263
40
0.644794997236263
40
0.711843600985091
40
0.711843600985091
40
0.778927202841184
40
0.778927202841184
40
0.846083321820503
40
0.846083321820503
40
0.913400043300359
40
0.913400043300359
40
1
40
1
40
1
40
1
41
1
10
61.1509387836393
20
24.333139322005
30
0
41
1
10
61.167282305692
20
24.3356493279199
30
0
41
1
10
61.1834466557129
20
24.3412266085328
30
0
41
1
10
61.2106718229891
20
24.3543726786341
30
0
41
1
10
61.2222362116255
20
24.3613081618273
30
0
41
1
10
61.2474083723283
20
24.3788585389054
30
0
41
1
10
61.2608278920305
20
24.3900325325699
30
0
41
1
10
61.2891407262032
20
24.416946130238
30
0
41
1
10
61.3037698789663
20
24.4332576828145
30
0
41
1
10
61.3319656940336
20
24.4690929645783
30
0
41
1
10
61.3454528863484
20
24.4889045513486
30
0
41
1
10
61.3698889591513
20
24.5299749200372
30
0
41
1
10
61.380912320905
20
24.5513615302905
30
0
41
1
10
61.4046651602749
20
24.604948967127
30
0
41
1
10
61.4160600159513
20
24.6380002895374
30
0
41
1
10
61.4279059726364
20
24.6866715625646
30
0
41
1
10
61.4309663498445
20
24.7022210191839
30
0
41
1
10
61.4355000765982
20
24.7332810700223
30
0
41
1
10
61.4369814217659
20
24.7488444620423
30
0
41
1
10
61.4381034353275
20
24.7797242411068
30
0
41
1
10
61.4377465795093
20
24.7951085912463
30
0
41
1
10
61.4347964538716
20
24.8253077120107
30
0
41
1
10
61.432190960562
20
24.8402217131163
30
0
41
1
10
61.4230146259976
20
24.872799961687
30
0
41
1
10
61.4154131238447
20
24.8904512753838
30
0
41
1
10
61.404662623517
20
24.9055513200678
30
0
0
SPLINE
5
350
100
AcDbEntity
8
1
62
256
6
ByLayer
370
18
48
1
60
0
100
AcDbSpline
70
4
71
3
72
8
73
4
40
0
40
0
40
0
40
0
40
1
40
1
40
1
40
1
41
1
10
63.1420516501407
20
25.1060749905764
30
0
41
1
10
63.1399733523031
20
25.099885418699
30
0
41
1
10
63.1378944244488
20
25.0936946896186
30
0
41
1
10
63.1358148368519
20
25.0875027495789
30
0
0
SPLINE
5
351
100
AcDbEntity
8
1
62
256
6
ByLayer
370
18
48
1
60
0
100
AcDbSpline
70
4
71
3
72
8
73
4
40
0
40
0
40
0
40
0
40
1
40
1
40
1
40
1
41
1
10
61.2185675393578
20
23.6896946925133
30
0
41
1
10
61.2116090880482
20
23.6892972668409
30
0
41
1
10
61.2046517043272
20
23.6888998895553
30
0
41
1
10
61.1976953413121
20
23.6885025585593
30
0
0
SPLINE
5
352
100
AcDbEntity
8
1
62
256
6
ByLayer
370
18
48
1
60
0
100
AcDbSpline
70
4
71
3
72
10
73
6
40
0
40
0
40
0
40
0
40
0.295368028639111
40
0.295368028639111
40
1
40
1
40
1
40
1
41
1
10
68.9830242489115
20
-8.0007173059139
30
0
41
1
10
68.9873368066022
20
-8.02618954241757
30
0
41
1
10
68.991638155979
20
-8.05166057310839
30
0
41
1
10
69.006161162305
20
-8.13790912748505
30
0
41
1
10
69.0163289694225
20
-8.19869575976998
30
0
41
1
10
69.0264322740441
20
-8.25949616785931
30
0
0
SPLINE
5
353
100
AcDbEntity
8
1
62
256
6
ByLayer
370
18
48
1
60
0
100
AcDbSpline
70
4
71
3
72
8
73
4
40
0
40
0
40
0
40
0
40
1
40
1
40
1
40
1
41
1
10
67.1291089264429
20
-13.1742249837818
30
0
41
1
10
67.1377145955018
20
-13.2284126794555
30
0
41
1
10
67.1476383211315
20
-13.2824125119061
30
0
41
1
10
67.15791252636
20
-13.3363224813828
30
0
0
SPLINE
5
354
100
AcDbEntity
8
1
62
256
6
ByLayer
370
18
48
1
60
0
100
AcDbSpline
70
4
71
3
72
8
73
4
40
0
40
0
40
0
40
0
40
1
40
1
40
1
40
1
41
1
10
55.9815213002838
20
-11.6082024178627
30
0
41
1
10
55.924391518744
20
-11.7949943169356
30
0
41
1
10
55.8677201743441
20
-11.9808257973416
30
0
41
1
10
55.8113976632915
20
-12.166824628558
30
0
0
SPLINE
5
355
100
AcDbEntity
8
1
62
256
6
ByLayer
370
18
48
1
60
0
100
AcDbSpline
70
4
71
3
72
22
73
18
40
0
40
0
40
0
40
0
40
0.247648061031906
40
0.247648061031906
40
0.49963085309829
40
0.49963085309829
40
0.554937524731983
40
0.554937524731983
40
0.59993912543132
40
0.59993912543132
40
0.645356331404786
40
0.645356331404786
40
0.695796263471302
40
0.695796263471302
40
0.780049574066919
40
0.780049574066919
40
1
40
1
40
1
40
1
41
1
10
69.1198996418814
20
-8.82916466535164
30
0
41
1
10
69.1211378405333
20
-8.83697399993594
30
0
41
1
10
69.1223652472107
20
-8.84459015245363
30
0
41
1
10
69.124720646126
20
-8.85870262494711
30
0
41
1
10
69.1259365993676
20
-8.86575974237826
30
0
41
1
10
69.1268849153748
20
-8.87022593561051
30
0
41
1
10
69.1270326197171
20
-8.87084164477949
30
0
41
1
10
69.1271961010667
20
-8.87124983812259
30
0
41
1
10
69.1272309979126
20
-8.87116619310223
30
0
41
1
10
69.1271871647721
20
-8.87029480444028
30
0
41
1
10
69.1271052763414
20
-8.86948109761681
30
0
41
1
10
69.1268259734393
20
-8.86718372708526
30
0
41
1
10
69.1266152140856
20
-8.86561795692774
30
0
41
1
10
69.1259710869845
20
-8.86108111589817
30
0
41
1
10
69.1254756646499
20
-8.85780664592539
30
0
41
1
10
69.1236050761969
20
-8.84585062710823
30
0
41
1
10
69.1220455068267
20
-8.83656176790953
30
0
41
1
10
69.1204590785942
20
-8.82742525134347
30
0
0
SPLINE
5
356
100
AcDbEntity
8
1
62
256
6
ByLayer
370
18
48
1
60
0
100
AcDbSpline
70
4
71
3
72
22
73
18
40
0
40
0
40
0
40
0
40
0.104611531529233
40
0.104611531529233
40
0.208411675036487
40
0.208411675036487
40
0.40277588600409
40
0.40277588600409
40
0.500031490391555
40
0.500031490391555
40
0.699792640385718
40
0.699792640385718
40
0.846184360106939
40
0.846184360106939
40
0.950335564350924
40
0.950335564350924
40
1
40
1
40
1
40
1
41
1
10
67.3242074844547
20
-13.9419490069389
30
0
41
1
10
67.3429080245845
20
-13.9161079059334
30
0
41
1
10
67.3662628692979
20
-13.8926420750946
30
0
41
1
10
67.4178778467433
20
-13.8543817747483
30
0
41
1
10
67.446407097576
20
-13.8389113449446
30
0
41
1
10
67.5280119215479
20
-13.8019248240266
30
0
41
1
10
67.5823186589623
20
-13.7849812655487
30
0
41
1
10
67.6575300200034
20
-13.7619676004206
30
0
41
1
10
67.6819695299082
20
-13.7547430360904
30
0
41
1
10
67.7529427278851
20
-13.7340529281936
30
0
41
1
10
67.796595627218
20
-13.7212938447792
30
0
41
1
10
67.8616710179599
20
-13.7077728296182
30
0
41
1
10
67.8864358276165
20
-13.7046924055862
30
0
41
1
10
67.9218587457718
20
-13.7129826298286
30
0
41
1
10
67.9347731978451
20
-13.7209404755581
30
0
41
1
10
67.9504725289844
20
-13.7406009750013
30
0
41
1
10
67.9551126445929
20
-13.7482206716054
30
0
41
1
10
67.959318675664
20
-13.7568013815367
30
0
0
SPLINE
5
357
100
AcDbEntity
8
1
62
256
6
ByLayer
370
18
48
1
60
0
100
AcDbSpline
70
4
71
3
72
10
73
6
40
0
40
0
40
0
40
0
40
0.295368028639105
40
0.295368028639105
40
1
40
1
40
1
40
1
41
1
10
67.898270667913
20
-12.6058093308076
30
0
41
1
10
67.9007701383424
20
-12.638978646016
30
0
41
1
10
67.9032578624566
20
-12.672149039381
30
0
41
1
10
67.91164429078
20
-12.7844491384725
30
0
41
1
10
67.9174911675227
20
-12.8635793672736
30
0
41
1
10
67.9232768981644
20
-12.942709123014
30
0
0
SPLINE
5
358
100
AcDbEntity
8
1
62
256
6
ByLayer
370
18
48
1
60
0
100
AcDbSpline
70
4
71
3
72
10
73
6
40
0
40
0
40
0
40
0
40
0.295368028639118
40
0.295368028639118
40
1
40
1
40
1
40
1
41
1
10
56.1306971314077
20
-11.1275058955273
30
0
41
1
10
56.120809065615
20
-11.1591190243821
30
0
41
1
10
56.1109319422193
20
-11.1907360816671
30
0
41
1
10
56.0775294966105
20
-11.2977864463338
30
0
41
1
10
56.0540558139902
20
-11.3732332748573
30
0
41
1
10
56.0306438273478
20
-11.4486950623773
30
0
0
SPLINE
5
359
100
AcDbEntity
8
1
62
256
6
ByLayer
370
18
48
1
60
0
100
AcDbSpline
70
4
71
3
72
10
73
6
40
0
40
0
40
0
40
0
40
0.295368028639105
40
0.295368028639105
40
1
40
1
40
1
40
1
41
1
10
67.0768212409857
20
-12.8452782818964
30
0
41
1
10
67.0819723740509
20
-12.8776745843675
30
0
41
1
10
67.0871271206818
20
-12.9100674872826
30
0
41
1
10
67.1045646508164
20
-13.0197290090181
30
0
41
1
10
67.1168422032338
20
-13.0969845671358
30
0
41
1
10
67.1291089264396
20
-13.1742249838122
30
0
0
SPLINE
5
35A
100
AcDbEntity
8
1
62
256
6
ByLayer
370
18
48
1
60
0
100
AcDbSpline
70
4
71
3
72
22
73
18
40
0
40
0
40
0
40
0
40
0.247648061032017
40
0.247648061032017
40
0.499630853098379
40
0.499630853098379
40
0.554937524732062
40
0.554937524732062
40
0.5999391254315
40
0.5999391254315
40
0.64535633140492
40
0.64535633140492
40
0.695796263471428
40
0.695796263471428
40
0.780049574067045
40
0.780049574067045
40
1
40
1
40
1
40
1
41
1
10
67.9737908313598
20
-13.6947273474634
30
0
41
1
10
67.9744636602378
20
-13.7049368399111
30
0
41
1
10
67.9750583514397
20
-13.7152390522325
30
0
41
1
10
67.9758277522192
20
-13.7360845445516
30
0
41
1
10
67.9761187057935
20
-13.7470685525366
30
0
41
1
10
67.9752198409988
20
-13.759376561393
30
0
41
1
10
67.9749896674389
20
-13.7615964713165
30
0
41
1
10
67.9743945805253
20
-13.7652250058694
30
0
41
1
10
67.9740545040477
20
-13.7667332308296
30
0
41
1
10
67.9732328582973
20
-13.7691638811831
30
0
41
1
10
67.9727378481197
20
-13.7701039954071
30
0
41
1
10
67.9716260875464
20
-13.771340647948
30
0
41
1
10
67.9709880147608
20
-13.7715889466365
30
0
41
1
10
67.9692965470421
20
-13.7714983688043
30
0
41
1
10
67.968216834398
20
-13.770704379829
30
0
41
1
10
67.9644576632256
20
-13.7667659397245
30
0
41
1
10
67.9618437972903
20
-13.7619528737279
30
0
41
1
10
67.959318675664
20
-13.7568013815373
30
0
0
SPLINE
5
35B
100
AcDbEntity
8
1
62
256
6
ByLayer
370
18
48
1
60
0
100
AcDbSpline
70
4
71
3
72
8
73
4
40
0
40
0
40
0
40
0
40
1
40
1
40
1
40
1
41
1
10
56.6732264032995
20
-11.8607029560758
30
0
41
1
10
56.6531229529101
20
-11.9112840637156
30
0
41
1
10
56.631786986987
20
-11.9613568920761
30
0
41
1
10
56.6101394827127
20
-12.0112566913447
30
0
0
SPLINE
5
35C
100
AcDbEntity
8
1
62
256
6
ByLayer
370
18
48
1
60
0
100
AcDbSpline
70
4
71
3
72
8
73
4
40
0
40
0
40
0
40
0
40
1
40
1
40
1
40
1
41
1
10
56.6101394827158
20
-12.0112566913485
30
0
41
1
10
56.5343075912752
20
-12.1860572647974
30
0
41
1
10
56.4636427573734
20
-12.3629164693413
30
0
41
1
10
56.3925466382388
20
-12.5394428321522
30
0
0
SPLINE
5
35D
100
AcDbEntity
8
1
62
256
6
ByLayer
370
18
48
1
60
0
100
AcDbSpline
70
4
71
3
72
22
73
18
40
0
40
0
40
0
40
0
40
0.24764806103187
40
0.24764806103187
40
0.499630853098264
40
0.499630853098264
40
0.554937524731924
40
0.554937524731924
40
0.599939125431335
40
0.599939125431335
40
0.645356331404716
40
0.645356331404716
40
0.695796263471279
40
0.695796263471279
40
0.780049574066903
40
0.780049574066903
40
1
40
1
40
1
40
1
41
1
10
55.8113976632742
20
-12.1668246285356
30
0
41
1
10
55.8084440673405
20
-12.1765785507469
30
0
41
1
10
55.8055098786361
20
-12.1864374469275
30
0
41
1
10
55.7998194083743
20
-12.2064714168437
30
0
41
1
10
55.7968810080082
20
-12.2170497366884
30
0
41
1
10
55.7943148191017
20
-12.2291482876685
30
0
41
1
10
55.7938925181711
20
-12.2313440615583
30
0
41
1
10
55.7933343183926
20
-12.2349772300637
30
0
41
1
10
55.7931582707162
20
-12.2365060611701
30
0
41
1
10
55.793041166737
20
-12.239025219704
30
0
41
1
10
55.7931038660347
20
-12.2400353962761
30
0
41
1
10
55.793468652017
20
-12.2414575402302
30
0
41
1
10
55.7937962399262
20
-12.2418271502083
30
0
41
1
10
55.7948585373859
20
-12.242082514597
30
0
41
1
10
55.7957274159528
20
-12.2415333177254
30
0
41
1
10
55.7990633554127
20
-12.2384862021058
30
0
41
1
10
55.8019329739127
20
-12.2343619997779
30
0
41
1
10
55.8048481558125
20
-12.2298939466469
30
0
0
SPLINE
5
35E
100
AcDbEntity
8
1
62
256
6
ByLayer
370
18
48
1
60
0
100
AcDbSpline
70
4
71
3
72
8
73
4
40
0
40
0
40
0
40
0
40
1
40
1
40
1
40
1
41
1
10
56.0306438273566
20
-11.4486950623503
30
0
41
1
10
56.0142192447109
20
-11.5016349680764
30
0
41
1
10
55.9978299689282
20
-11.5548794905692
30
0
41
1
10
55.9815213002847
20
-11.6082024178613
30
0
0
SPLINE
5
35F
100
AcDbEntity
8
1
62
256
6
ByLayer
370
18
48
1
60
0
100
AcDbSpline
70
4
71
3
72
10
73
6
40
0
40
0
40
0
40
0
40
0.295368028639112
40
0.295368028639112
40
1
40
1
40
1
40
1
41
1
10
56.7953538634334
20
-11.5536671866432
30
0
41
1
10
56.7833202663833
20
-11.5839046544586
30
0
41
1
10
56.771285183639
20
-11.6141380821226
30
0
41
1
10
56.7305592491411
20
-11.7164928086802
30
0
41
1
10
56.7018823346012
20
-11.7886034548918
30
0
41
1
10
56.673226403296
20
-11.8607029561063
30
0
0
SPLINE
5
360
100
AcDbEntity
8
1
62
256
6
ByLayer
370
18
48
1
60
0
100
AcDbSpline
70
4
71
3
72
22
73
18
40
0
40
0
40
0
40
0
40
0.247648061032079
40
0.247648061032079
40
0.499630853098451
40
0.499630853098451
40
0.554937524732013
40
0.554937524732013
40
0.599939125431427
40
0.599939125431427
40
0.645356331404812
40
0.645356331404812
40
0.695796263471333
40
0.695796263471333
40
0.780049574066895
40
0.780049574066895
40
1
40
1
40
1
40
1
41
1
10
67.2555486628596
20
-13.9041093167976
30
0
41
1
10
67.2571789923709
20
-13.9140396786441
30
0
41
1
10
67.2591379319306
20
-13.9239441852609
30
0
41
1
10
67.2646457911858
20
-13.9434083220834
30
0
41
1
10
67.2679978571302
20
-13.9534999545376
30
0
41
1
10
67.2758549016321
20
-13.9632554405649
30
0
41
1
10
67.2774982615695
20
-13.9649291779712
30
0
41
1
10
67.2808977637235
20
-13.9673932098501
30
0
41
1
10
67.2826128697668
20
-13.9683023079665
30
0
41
1
10
67.2862556837588
20
-13.969431478939
30
0
41
1
10
67.2882333268503
20
-13.9696507652394
30
0
41
1
10
67.2922990437032
20
-13.9693780794718
30
0
41
1
10
67.2944334717581
20
-13.9688181386675
30
0
41
1
10
67.2997512565942
20
-13.9666842234097
30
0
41
1
10
67.3028097768181
20
-13.9646838567174
30
0
41
1
10
67.3128668837376
20
-13.9567176949856
30
0
41
1
10
67.3188075732419
20
-13.94941080484
30
0
41
1
10
67.3242074844549
20
-13.9419490069396
30
0
0
SPLINE
5
361
100
AcDbEntity
8
1
62
256
6
ByLayer
370
18
48
1
60
0
100
AcDbSpline
70
4
71
3
72
8
73
4
40
0
40
0
40
0
40
0
40
1
40
1
40
1
40
1
41
1
10
67.9348219005243
20
-13.1098378472445
30
0
41
1
10
67.9476988236011
20
-13.3054243505412
30
0
41
1
10
67.9609605685636
20
-13.500041187242
30
0
41
1
10
67.9737908313268
20
-13.6947273474796
30
0
0
SPLINE
5
362
100
AcDbEntity
8
1
62
256
6
ByLayer
370
18
48
1
60
0
100
AcDbSpline
70
4
71
3
72
22
73
18
40
0
40
0
40
0
40
0
40
0.104611531529244
40
0.104611531529244
40
0.208411675036481
40
0.208411675036481
40
0.40277588600406
40
0.40277588600406
40
0.500031490391549
40
0.500031490391549
40
0.69979264038569
40
0.69979264038569
40
0.846184360106916
40
0.846184360106916
40
0.950335564350916
40
0.950335564350916
40
1
40
1
40
1
40
1
41
1
10
55.8048481558127
20
-12.2298939466463
30
0
41
1
10
55.8149437803427
20
-12.2144205428103
30
0
41
1
10
55.8256306694509
20
-12.2036112083589
30
0
41
1
10
55.8480751429272
20
-12.1939044186024
30
0
41
1
10
55.8601272391366
20
-12.1945379941092
30
0
41
1
10
55.8974330874576
20
-12.2059180013936
30
0
41
1
10
55.9260486271252
20
-12.2240528766447
30
0
41
1
10
55.9757236249074
20
-12.255445712743
30
0
41
1
10
55.9935797294265
20
-12.2669108635162
30
0
41
1
10
56.0510060447692
20
-12.3037311822028
30
0
41
1
10
56.0946300769368
20
-12.3311223326184
30
0
41
1
10
56.1729705992415
20
-12.385626439669
30
0
41
1
10
56.2077124454765
20
-12.4114623655452
30
0
41
1
10
56.2613449175554
20
-12.4645561118283
30
0
41
1
10
56.2820931953197
20
-12.4899930168352
30
0
41
1
10
56.3060617436557
20
-12.5311036724182
30
0
41
1
10
56.3129084758905
20
-12.5450938258214
30
0
41
1
10
56.3187336306631
20
-12.5593844744568
30
0
0
SPLINE
5
363
100
AcDbEntity
8
1
62
256
6
ByLayer
370
18
48
1
60
0
100
AcDbSpline
70
4
71
3
72
8
73
4
40
0
40
0
40
0
40
0
40
1
40
1
40
1
40
1
41
1
10
69.0476722515966
20
-8.38546692430521
30
0
41
1
10
69.0723471147546
20
-8.53096776692223
30
0
41
1
10
69.0962882681993
20
-8.68024743240494
30
0
41
1
10
69.1198996418685
20
-8.82916466528218
30
0
0
SPLINE
5
364
100
AcDbEntity
8
1
62
256
6
ByLayer
370
18
48
1
60
0
100
AcDbSpline
70
4
71
3
72
8
73
4
40
0
40
0
40
0
40
0
40
1
40
1
40
1
40
1
41
1
10
67.1579125263562
20
-13.3363224813858
30
0
41
1
10
67.1939033918939
20
-13.525170807778
30
0
41
1
10
67.2244596941492
20
-13.7147459348389
30
0
41
1
10
67.2555486629601
20
-13.9041093167748
30
0
0
SPLINE
5
365
100
AcDbEntity
8
1
62
256
6
ByLayer
370
18
48
1
60
0
100
AcDbSpline
70
4
71
3
72
22
73
18
40
0
40
0
40
0
40
0
40
0.247648061032143
40
0.247648061032143
40
0.499630853098371
40
0.499630853098371
40
0.554937524732023
40
0.554937524732023
40
0.599939125431412
40
0.599939125431412
40
0.645356331405155
40
0.645356331405155
40
0.695796263471266
40
0.695796263471266
40
0.780049574066987
40
0.780049574066987
40
1
40
1
40
1
40
1
41
1
10
56.3925466383294
20
-12.5394428321989
30
0
41
1
10
56.3888183029888
20
-12.5487000108583
30
0
41
1
10
56.3847802643996
20
-12.5578511460708
30
0
41
1
10
56.375255780476
20
-12.5754268422141
30
0
41
1
10
56.3698405521064
20
-12.5844170818228
30
0
41
1
10
56.3601897224802
20
-12.5919731381726
30
0
41
1
10
56.3582514954186
20
-12.5931969381004
30
0
41
1
10
56.3544611666393
20
-12.5947577462405
30
0
41
1
10
56.3526222157416
20
-12.5952203653466
30
0
41
1
10
56.3488927978143
20
-12.5954233984252
30
0
41
1
10
56.3469548071274
20
-12.5951507825635
30
0
41
1
10
56.343130357457
20
-12.5938868932788
30
0
41
1
10
56.341214640681
20
-12.5928181523384
30
0
41
1
10
56.3366055641712
20
-12.5894371734288
30
0
41
1
10
56.3341260876912
20
-12.5867410949547
30
0
41
1
10
56.3262829065087
20
-12.5765262064729
30
0
41
1
10
56.3222308050877
20
-12.5679639702606
30
0
41
1
10
56.3187336306628
20
-12.5593844744575
30
0
0
SPLINE
5
366
100
AcDbEntity
8
1
62
256
6
ByLayer
370
18
48
1
60
0
100
AcDbSpline
70
4
71
3
72
8
73
4
40
0
40
0
40
0
40
0
40
1
40
1
40
1
40
1
41
1
10
69.0264322740406
20
-8.25949616783089
30
0
41
1
10
69.0335202057179
20
-8.30215044330225
30
0
41
1
10
69.0406283918751
20
-8.34393123195821
30
0
41
1
10
69.0476722515963
20
-8.38546692430066
30
0
0
SPLINE
5
367
100
AcDbEntity
8
1
62
256
6
ByLayer
370
18
48
1
60
0
100
AcDbSpline
70
4
71
3
72
8
73
4
40
0
40
0
40
0
40
0
40
1
40
1
40
1
40
1
41
1
10
67.9232768981609
20
-12.9427091229855
30
0
41
1
10
67.9273358536244
20
-12.9982222766848
30
0
41
1
10
67.9311459636309
20
-13.0540043504673
30
0
41
1
10
67.9348219005233
20
-13.1098378472431
30
0
0
SPLINE
5
368
100
AcDbEntity
8
1
62
256
6
ByLayer
370
18
48
1
60
0
100
AcDbSpline
70
4
71
3
72
16
73
12
40
0
40
0
40
0
40
0
40
0.156281730692283
40
0.156281730692283
40
0.409635632329025
40
0.409635632329025
40
0.619275311273759
40
0.619275311273759
40
0.830253674996028
40
0.830253674996028
40
1
40
1
40
1
40
1
41
1
10
45.6269220617811
20
-11.3017246563568
30
0
41
1
10
45.6000110837387
20
-11.3444180146142
30
0
41
1
10
45.5704898255555
20
-11.384119067317
30
0
41
1
10
45.487751116086
20
-11.477264210994
30
0
41
1
10
45.4301810420951
20
-11.5246941929879
30
0
41
1
10
45.3280219573618
20
-11.5808217700282
30
0
41
1
10
45.2820303842938
20
-11.5952154072452
30
0
41
1
10
45.2045323419404
20
-11.5990045769849
30
0
41
1
10
45.1721873079627
20
-11.588361926114
30
0
41
1
10
45.1358308707115
20
-11.5504622664427
30
0
41
1
10
45.1271030616673
20
-11.5264909696008
30
0
41
1
10
45.1267809575596
20
-11.4975134903629
30
0
0
SPLINE
5
369
100
AcDbEntity
8
1
62
256
6
ByLayer
370
18
48
1
60
0
100
AcDbSpline
70
4
71
3
72
8
73
4
40
0
40
0
40
0
40
0
40
1
40
1
40
1
40
1
41
1
10
40.4999999999998
20
-4.37214259622283
30
0
41
1
10
39.1722971853125
20
-5.26115599461411
30
0
41
1
10
37.9345051831464
20
-6.23158648890239
30
0
41
1
10
37.0000000000001
20
-7.47665282882451
30
0
0
SPLINE
5
36A
100
AcDbEntity
8
1
62
256
6
ByLayer
370
18
48
1
60
0
100
AcDbSpline
70
4
71
3
72
8
73
4
40
0
40
0
40
0
40
0
40
1
40
1
40
1
40
1
41
1
10
36.9457643741149
20
-13.2132607348617
30
0
41
1
10
36.6322135222086
20
-13.0722146566493
30
0
41
1
10
36.3187137904775
20
-12.931145948492
30
0
41
1
10
36.0052718609883
20
-12.7900516788857
30
0
0
SPLINE
5
36B
100
AcDbEntity
8
1
62
256
6
ByLayer
370
18
48
1
60
0
100
AcDbSpline
70
4
71
3
72
16
73
12
40
0
40
0
40
0
40
0
40
0.353937192904735
40
0.353937192904735
40
0.513950813527112
40
0.513950813527112
40
0.67411007525361
40
0.67411007525361
40
0.834813009521318
40
0.834813009521318
40
1
40
1
40
1
40
1
41
1
10
35.4255246234578
20
22.2970799657767
30
0
41
1
10
35.3036315218287
20
22.2970799657768
30
0
41
1
10
35.1814913868598
20
22.2962795923552
30
0
41
1
10
35.005560581271
20
22.2935769151763
30
0
41
1
10
34.9508860228558
20
22.292512603526
30
0
41
1
10
34.8423079519209
20
22.2898102326485
30
0
41
1
10
34.7882974010155
20
22.2881733821732
30
0
41
1
10
34.6818697163354
20
22.2840638452675
30
0
41
1
10
34.6291520220451
20
22.281594796361
30
0
41
1
10
34.5273341761508
20
22.2751382521094
30
0
41
1
10
34.4763531532299
20
22.2711020139208
30
0
41
1
10
34.4366132013479
20
22.2653284832452
30
0
0
SPLINE
5
36C
100
AcDbEntity
8
1
62
256
6
ByLayer
370
18
48
1
60
0
100
AcDbSpline
70
4
71
3
72
8
73
4
40
0
40
0
40
0
40
0
40
1
40
1
40
1
40
1
41
1
10
35.6878221735089
20
-13.0027396424644
30
0
41
1
10
35.7107184771222
20
-12.9514947896135
30
0
41
1
10
35.7339111073834
20
-12.9002219278046
30
0
41
1
10
35.7573952101194
20
-12.8489235894546
30
0
0
SPLINE
5
36D
100
AcDbEntity
8
1
62
256
6
ByLayer
370
18
48
1
60
0
100
AcDbSpline
70
4
71
3
72
16
73
12
40
0
40
0
40
0
40
0
40
0.461208588217087
40
0.461208588217087
40
0.643534962278533
40
0.643534962278533
40
0.828408472975299
40
0.828408472975299
40
0.943003644160021
40
0.943003644160021
40
1
40
1
40
1
40
1
41
1
10
11.8943375672975
20
23.6665017920809
30
0
41
1
10
11.8660503915152
20
23.7022583261633
30
0
41
1
10
11.8273339192908
20
23.7370095736338
30
0
41
1
10
11.7473160248315
20
23.7800170858175
30
0
41
1
10
11.7212784637478
20
23.7917125768794
30
0
41
1
10
11.6606543989164
20
23.8127037684951
30
0
41
1
10
11.6251722226875
20
23.8222104320954
30
0
41
1
10
11.5599225851959
20
23.8331586856493
30
0
41
1
10
11.5324782774944
20
23.836332378473
30
0
41
1
10
11.49016847477
20
23.8387183279987
30
0
41
1
10
11.4757173930755
20
23.8391299750505
30
0
41
1
10
11.4613248654054
20
23.8391299750505
30
0
0
SPLINE
5
36E
100
AcDbEntity
8
1
62
256
6
ByLayer
370
18
48
1
60
0
100
AcDbSpline
70
4
71
3
72
16
73
12
40
0
40
0
40
0
40
0
40
0.289857337235304
40
0.289857337235304
40
0.431494396156329
40
0.431494396156329
40
0.573084510713197
40
0.573084510713197
40
0.714635692392557
40
0.714635692392557
40
1
40
1
40
1
40
1
41
1
10
41.5000000000001
20
19.7767914479567
30
0
41
1
10
41.5000000000001
20
19.7966950123401
30
0
41
1
10
41.5000000000004
20
19.8240739885446
30
0
41
1
10
41.5000000000004
20
19.8721325485839
30
0
41
1
10
41.5000000000001
20
19.8893316174811
30
0
41
1
10
41.5000000000001
20
19.9256013557068
30
0
41
1
10
41.5000000000001
20
19.9447842759749
30
0
41
1
10
41.5000000000001
20
19.9844999965384
30
0
41
1
10
41.5000000000001
20
20.0051494625857
30
0
41
1
10
41.5000000000001
20
20.068355933731
30
0
41
1
10
41.5000000000002
20
20.1128959948445
30
0
41
1
10
41.5000000000002
20
20.1569512463078
30
0
0
SPLINE
5
36F
100
AcDbEntity
8
1
62
256
6
ByLayer
370
18
48
1
60
0
100
AcDbSpline
70
4
71
3
72
8
73
4
40
0
40
0
40
0
40
0
40
1
40
1
40
1
40
1
41
1
10
37.0000000000001
20
-7.47665282882451
30
0
41
1
10
36.6786539201287
20
-9.38074295378283
30
0
41
1
10
36.659521867258
20
-11.2929174073513
30
0
41
1
10
36.9457643741149
20
-13.2132607348617
30
0
0
SPLINE
5
370
100
AcDbEntity
8
1
62
256
6
ByLayer
370
18
48
1
60
0
100
AcDbSpline
70
4
71
3
72
16
73
12
40
0
40
0
40
0
40
0
40
0.142119450076465
40
0.142119450076465
40
0.281678471960953
40
0.281678471960953
40
0.569099939712081
40
0.569099939712081
40
0.71045973604405
40
0.71045973604405
40
1
40
1
40
1
40
1
41
1
10
36.0052718609882
20
-12.7900516788853
30
0
41
1
10
35.9903445347535
20
-12.7833322198912
30
0
41
1
10
35.9754760852395
20
-12.7777997299836
30
0
41
1
10
35.9465237510072
20
-12.7693999773776
30
0
41
1
10
35.9323667594767
20
-12.7664683981577
30
0
41
1
10
35.8904901593046
20
-12.7615577959631
30
0
41
1
10
35.8635832052885
20
-12.7637955150682
30
0
41
1
10
35.8280781617909
20
-12.7760364248949
30
0
41
1
10
35.8169849936371
20
-12.781571941897
30
0
41
1
10
35.7862449420157
20
-12.8027003964819
30
0
41
1
10
35.7691405916196
20
-12.8232671459864
30
0
41
1
10
35.7573952101194
20
-12.8489235894546
30
0
0
SPLINE
5
371
100
AcDbEntity
8
1
62
256
6
ByLayer
370
18
48
1
60
0
100
AcDbSpline
70
4
71
3
72
16
73
12
40
0
40
0
40
0
40
0
40
0.111430279628079
40
0.111430279628079
40
0.248747543515478
40
0.248747543515478
40
0.465535329195272
40
0.465535329195272
40
0.883855351867606
40
0.883855351867606
40
1
40
1
40
1
40
1
41
1
10
11.4613248654052
20
-23.8391299750504
30
0
41
1
10
11.4891847159943
20
-23.8391299750504
30
0
41
1
10
11.5173911427756
20
-23.8375361275706
30
0
41
1
10
11.5758492032394
20
-23.831150658589
30
0
41
1
10
11.6060413892307
20
-23.825666877018
30
0
41
1
10
11.6751537543577
20
-23.8089605749788
30
0
41
1
10
11.7107854085705
20
-23.796037970776
30
0
41
1
10
11.7989938907462
20
-23.7556824246832
30
0
41
1
10
11.839732006851
20
-23.7250165399981
30
0
41
1
10
11.8792917015269
20
-23.6845451449633
30
0
41
1
10
11.8871615985732
20
-23.6755726082077
30
0
41
1
10
11.8943375672976
20
-23.6665017920809
30
0
0
SPLINE
5
372
100
AcDbEntity
8
1
62
256
6
ByLayer
370
18
48
1
60
0
100
AcDbSpline
70
4
71
3
72
16
73
12
40
0
40
0
40
0
40
0
40
0.461208588217107
40
0.461208588217107
40
0.643534962278549
40
0.643534962278549
40
0.828408472975277
40
0.828408472975277
40
0.943003644159987
40
0.943003644159987
40
1
40
1
40
1
40
1
41
1
10
8.10566243270267
20
-23.6665017920809
30
0
41
1
10
8.13394960848495
20
-23.7022583261633
30
0
41
1
10
8.17266608070929
20
-23.7370095736338
30
0
41
1
10
8.25268397516857
20
-23.7800170858175
30
0
41
1
10
8.27872153625242
20
-23.7917125768793
30
0
41
1
10
8.33934560108366
20
-23.8127037684951
30
0
41
1
10
8.3748277773127
20
-23.8222104320954
30
0
41
1
10
8.44007741480425
20
-23.8331586856492
30
0
41
1
10
8.46752172250569
20
-23.836332378473
30
0
41
1
10
8.50983152523008
20
-23.8387183279985
30
0
41
1
10
8.52428260692466
20
-23.8391299750505
30
0
41
1
10
8.53867513459483
20
-23.8391299750505
30
0
0
SPLINE
5
373
100
AcDbEntity
8
1
62
256
6
ByLayer
370
18
48
1
60
0
100
AcDbSpline
70
4
71
3
72
8
73
4
40
0
40
0
40
0
40
0
40
1
40
1
40
1
40
1
41
1
10
37.0000000000001
20
-23.7745329354914
30
0
41
1
10
36.4989194047917
20
-23.2083908048352
30
0
41
1
10
36.0549988410929
20
-22.6119889958582
30
0
41
1
10
35.6878221735089
20
-21.9832792224837
30
0
0
SPLINE
5
374
100
AcDbEntity
8
1
62
256
6
ByLayer
370
18
48
1
60
0
100
AcDbSpline
70
4
71
3
72
16
73
12
40
0
40
0
40
0
40
0
40
0.461208588217077
40
0.461208588217077
40
0.643534962278527
40
0.643534962278527
40
0.828408472975265
40
0.828408472975265
40
0.943003644159984
40
0.943003644159984
40
1
40
1
40
1
40
1
41
1
10
11.8943375672975
20
-8.05584836782771
30
0
41
1
10
11.8660503915152
20
-7.95080268681443
30
0
41
1
10
11.8273339192908
20
-7.84628670970801
30
0
41
1
10
11.7473160248315
20
-7.7144246914512
30
0
41
1
10
11.7212784637478
20
-7.67825379650731
30
0
41
1
10
11.6606543989164
20
-7.61290523367222
30
0
41
1
10
11.6251722226875
20
-7.5830592305141
30
0
41
1
10
11.5599225851959
20
-7.54855881865592
30
0
41
1
10
11.5324782774944
20
-7.53852018102293
30
0
41
1
10
11.49016847477
20
-7.53097042135255
30
0
41
1
10
11.4757173930755
20
-7.5296667942647
30
0
41
1
10
11.4613248654054
20
-7.5296667942647
30
0
0
SPLINE
5
375
100
AcDbEntity
8
1
62
256
6
ByLayer
370
18
48
1
60
0
100
AcDbSpline
70
4
71
3
72
8
73
4
40
0
40
0
40
0
40
0
40
1
40
1
40
1
40
1
41
1
10
36.7442059819675
20
23.5552932728815
30
0
41
1
10
36.7442580159006
20
23.5552959998644
30
0
41
1
10
36.8113323749709
20
23.55881121807
30
0
41
1
10
36.945764374115
20
23.5658565006098
30
0
0
SPLINE
5
376
100
AcDbEntity
8
1
62
256
6
ByLayer
370
18
48
1
60
0
100
AcDbSpline
70
4
71
3
72
16
73
12
40
0
40
0
40
0
40
0
40
0.461208588217079
40
0.461208588217079
40
0.643534962278545
40
0.643534962278545
40
0.828408472975276
40
0.828408472975276
40
0.943003644159988
40
0.943003644159988
40
1
40
1
40
1
40
1
41
1
10
8.10566243270267
20
8.05584836782771
30
0
41
1
10
8.13394960848495
20
7.95080268681443
30
0
41
1
10
8.17266608070929
20
7.84628670970801
30
0
41
1
10
8.25268397516857
20
7.7144246914512
30
0
41
1
10
8.27872153625242
20
7.67825379650731
30
0
41
1
10
8.33934560108366
20
7.61290523367234
30
0
41
1
10
8.3748277773127
20
7.5830592305141
30
0
41
1
10
8.44007741480425
20
7.54855881865592
30
0
41
1
10
8.46752172250569
20
7.53852018102293
30
0
41
1
10
8.50983152523008
20
7.53097042135255
30
0
41
1
10
8.52428260692466
20
7.5296667942647
30
0
41
1
10
8.53867513459483
20
7.5296667942647
30
0
0
SPLINE
5
377
100
AcDbEntity
8
1
62
256
6
ByLayer
370
18
48
1
60
0
100
AcDbSpline
70
4
71
3
72
8
73
4
40
0
40
0
40
0
40
0
40
1
40
1
40
1
40
1
41
1
10
37.0000000000001
20
13.0463813907587
30
0
41
1
10
36.4989194047917
20
13.7519598087211
30
0
41
1
10
36.054998841093
20
14.4537223367835
30
0
41
1
10
35.6878221735089
20
15.1436362357274
30
0
0
SPLINE
5
378
100
AcDbEntity
8
1
62
256
6
ByLayer
370
18
48
1
60
0
100
AcDbSpline
70
4
71
3
72
10
73
6
40
0
40
0
40
0
40
0
40
0.687712102594614
40
0.687712102594614
40
1
40
1
40
1
40
1
41
1
10
36.945764374115
20
23.5658565006098
30
0
41
1
10
36.6573304367157
20
23.2750715332462
30
0
41
1
10
36.3689397699479
20
22.984243637132
30
0
41
1
10
35.9496622409133
20
22.5612818977321
30
0
41
1
10
35.8187369384722
20
22.429186152599
30
0
41
1
10
35.687822173509
20
22.2970799657713
30
0
0
SPLINE
5
379
100
AcDbEntity
8
1
62
256
6
ByLayer
370
18
48
1
60
0
100
AcDbSpline
70
4
71
3
72
16
73
12
40
0
40
0
40
0
40
0
40
0.111430279628075
40
0.111430279628075
40
0.248747543515479
40
0.248747543515479
40
0.465535329195273
40
0.465535329195273
40
0.883855351867613
40
0.883855351867613
40
1
40
1
40
1
40
1
41
1
10
11.4613248654052
20
7.52966679426504
30
0
41
1
10
11.4891847159943
20
7.52966679426504
30
0
41
1
10
11.5173911427756
20
7.53471706780851
30
0
41
1
10
11.5758492032394
20
7.55489210221026
30
0
41
1
10
11.6060413892307
20
7.57218953888446
30
0
41
1
10
11.6751537543577
20
7.62460019394086
30
0
41
1
10
11.7107854085705
20
7.66489294253904
30
0
41
1
10
11.7989938907462
20
7.78941367630352
30
0
41
1
10
11.839732006851
20
7.88247511004147
30
0
41
1
10
11.8792917015269
20
8.00269269538012
30
0
41
1
10
11.8871615985732
20
8.02920008991578
30
0
41
1
10
11.8943375672976
20
8.05584836782771
30
0
0
SPLINE
5
37A
100
AcDbEntity
8
1
62
256
6
ByLayer
370
18
48
1
60
0
100
AcDbSpline
70
4
71
3
72
16
73
12
40
0
40
0
40
0
40
0
40
0.111430279628038
40
0.111430279628038
40
0.248747543515444
40
0.248747543515444
40
0.465535329195235
40
0.465535329195235
40
0.883855351867555
40
0.883855351867555
40
1
40
1
40
1
40
1
41
1
10
8.53867513459488
20
23.8391299750504
30
0
41
1
10
8.51081528400584
20
23.8391299750504
30
0
41
1
10
8.48260885722453
20
23.8375361275706
30
0
41
1
10
8.42415079676078
20
23.8311506585891
30
0
41
1
10
8.39395861076952
20
23.825666877018
30
0
41
1
10
8.3248462456425
20
23.8089605749788
30
0
41
1
10
8.28921459142964
20
23.796037970776
30
0
41
1
10
8.20100610925408
20
23.7556824246832
30
0
41
1
10
8.1602679931492
20
23.7250165399981
30
0
41
1
10
8.12070829847323
20
23.6845451449633
30
0
41
1
10
8.11283840142698
20
23.6755726082077
30
0
41
1
10
8.1056624327025
20
23.6665017920809
30
0
0
SPLINE
5
37B
100
AcDbEntity
8
1
62
256
6
ByLayer
370
18
48
1
60
0
100
AcDbSpline
70
4
71
3
72
16
73
12
40
0
40
0
40
0
40
0
40
0.111430279628038
40
0.111430279628038
40
0.248747543515442
40
0.248747543515442
40
0.465535329195232
40
0.465535329195232
40
0.88385535186756
40
0.88385535186756
40
1
40
1
40
1
40
1
41
1
10
8.53867513459488
20
-7.52966679426504
30
0
41
1
10
8.51081528400584
20
-7.52966679426504
30
0
41
1
10
8.48260885722453
20
-7.53471706780851
30
0
41
1
10
8.42415079676078
20
-7.55489210221026
30
0
41
1
10
8.39395861076952
20
-7.57218953888446
30
0
41
1
10
8.3248462456425
20
-7.62460019394086
30
0
41
1
10
8.28921459142964
20
-7.66489294253904
30
0
41
1
10
8.20100610925408
20
-7.78941367630352
30
0
41
1
10
8.1602679931492
20
-7.88247511004147
30
0
41
1
10
8.12070829847323
20
-8.00269269538012
30
0
41
1
10
8.11283840142698
20
-8.02920008991578
30
0
41
1
10
8.1056624327025
20
-8.05584836782771
30
0
0
SPLINE
5
37C
100
AcDbEntity
8
1
62
256
6
ByLayer
370
18
48
1
60
0
100
AcDbSpline
70
4
71
3
72
46
73
42
40
0
40
0
40
0
40
0
40
0.0002356819181271
40
0.0012435088516774
40
0.0022513357852276
40
0.0026922600686559
40
0.0093061243200796
40
0.0163609128549315
40
0.0324861437917359
40
0.0486113747285403
40
0.0647366056653447
40
0.0687679133995458
40
0.0707835672666463
40
0.0727992211337469
40
0.076830528867948
40
0.0788461827350486
40
0.0808618366021491
40
0.0848931443363502
40
0.0889244520705513
40
0.0969870675389535
40
0.129237529412562
40
0.161487991286171
40
0.19373845315978
40
0.209863684096584
40
0.217926299564986
40
0.219941953432087
40
0.221957607299188
40
0.222965434232738
40
0.223973261166288
40
0.225988915033389
40
0.226492828500164
40
0.226996741966939
40
0.22723295140449
40
0.234555443968566
40
0.242114145970193
40
0.258239376906998
40
0.290489838780606
40
0.354990762527824
40
0.483992610022259
40
0.74199630501113
40
1
40
1
40
1
40
1
41
1
10
66.3940009472867
20
20.7078319249459
30
0
41
1
10
66.3937215475766
20
20.707798973897
30
0
41
1
10
66.3922434274611
20
20.7076268578979
30
0
41
1
10
66.3895287620362
20
20.7073307113898
30
0
41
1
10
66.3865331759844
20
20.7070209728829
30
0
41
1
10
66.376704685384
20
20.706003121743
30
0
41
1
10
66.3595310497383
20
20.7042113691441
30
0
41
1
10
66.3233224505132
20
20.7004056920125
30
0
41
1
10
66.275554657878
20
20.6953850946973
30
0
41
1
10
66.2167635284809
20
20.6892058980016
30
0
41
1
10
66.172670181433
20
20.6845715004797
30
0
41
1
10
66.145724247126
20
20.6817393686609
30
0
41
1
10
66.1359257255598
20
20.6807095025449
30
0
41
1
10
66.1261272039936
20
20.679679636429
30
0
41
1
10
66.1163286824274
20
20.6786497703131
30
0
41
1
10
66.1065301608612
20
20.6776199041971
30
0
41
1
10
66.0967316392951
20
20.6765900380811
30
0
41
1
10
66.0844834873373
20
20.6753027054362
30
0
41
1
10
66.0648864442049
20
20.6732429732043
30
0
41
1
10
66.0109945755909
20
20.6675787095666
30
0
41
1
10
65.9228078814952
20
20.6583099145231
30
0
41
1
10
65.8052256227008
20
20.6459515211317
30
0
41
1
10
65.707240407039
20
20.6356528599722
30
0
41
1
10
65.6386507560757
20
20.6284437971606
30
0
41
1
10
65.6068055609855
20
20.6250967322837
30
0
41
1
10
65.5921077786363
20
20.6235519331097
30
0
41
1
10
65.5859837026574
20
20.6229082667874
30
0
41
1
10
65.5810844418743
20
20.6223933337294
30
0
41
1
10
65.5761851810912
20
20.6218784006713
30
0
41
1
10
65.571898327906
20
20.6214278342457
30
0
41
1
10
65.5682238823186
20
20.6210416344521
30
0
41
1
10
65.5667120010614
20
20.6208827293289
30
0
41
1
10
65.5569134794952
20
20.6198528632128
30
0
41
1
10
65.5385412515586
20
20.6179218642454
30
0
41
1
10
65.5008590465511
20
20.6139613049051
30
0
41
1
10
65.4328818031857
20
20.6068166087256
30
0
41
1
10
65.295702501259
20
20.5923984831023
30
0
41
1
10
65.0213438974056
20
20.5635622318558
30
0
41
1
10
64.472626689699
20
20.5058897293627
30
0
41
1
10
63.6887449644038
20
20.4235004400867
30
0
41
1
10
63.0616395841677
20
20.3575890086661
30
0
41
1
10
62.7480868940496
20
20.3246332929557
30
0
0
SPLINE
5
37D
100
AcDbEntity
8
1
62
256
6
ByLayer
370
18
48
1
60
0
100
AcDbSpline
70
4
71
3
72
42
73
38
40
0
40
0
40
0
40
0
40
0.258003694988867
40
0.516007389977733
40
0.645009237472167
40
0.709510161219383
40
0.741760623092992
40
0.749823238561393
40
0.757885854029796
40
0.765444556031423
40
0.769223907032236
40
0.77300325803305
40
0.773507171499825
40
0.7740110849666
40
0.7760267388337
40
0.778042392700801
40
0.782073700435002
40
0.790136315903404
40
0.806261546840208
40
0.838512008713816
40
0.870762470587425
40
0.903012932461033
40
0.911075547929435
40
0.915106855663637
40
0.919138163397837
40
0.923169471132038
40
0.927200778866239
40
0.93123208660044
40
0.935263394334641
40
0.951388625271446
40
0.96751385620825
40
0.983639087145054
40
0.990693875679906
40
0.997748664214758
40
0.998756491148308
40
0.999764318081858
40
1
40
1
40
1
40
1
41
1
10
62.7480868940496
20
20.3246332929557
30
0
41
1
10
62.4345342039315
20
20.2916775772453
30
0
41
1
10
61.8074288236953
20
20.2257661458247
30
0
41
1
10
61.0235470984002
20
20.1433768565487
30
0
41
1
10
60.4748298906935
20
20.0857043540556
30
0
41
1
10
60.2004712868401
20
20.0568681028091
30
0
41
1
10
60.0730905064797
20
20.0434798433017
30
0
41
1
10
60.0142993770825
20
20.037300646606
30
0
41
1
10
59.9855162199818
20
20.0342754148904
30
0
41
1
10
59.9619385274633
20
20.0317972995489
30
0
41
1
10
59.9435662995266
20
20.0298663005815
30
0
41
1
10
59.9337677779604
20
20.0288364344656
30
0
41
1
10
59.9279499057805
20
20.0282249514593
30
0
41
1
10
59.9242754601932
20
20.0278387516657
30
0
41
1
10
59.9187637918122
20
20.0272594519755
30
0
41
1
10
59.908965270246
20
20.0262295858596
30
0
41
1
10
59.8918178575052
20
20.0244273201566
30
0
41
1
10
59.8575230320236
20
20.0208227887508
30
0
41
1
10
59.7889333810602
20
20.0136137259392
30
0
41
1
10
59.6909481653983
20
20.0033150647797
30
0
41
1
10
59.573365906604
20
19.9909566713883
30
0
41
1
10
59.4851792125083
20
19.9816878763448
30
0
41
1
10
59.4312873438943
20
19.9760236127071
30
0
41
1
10
59.4116903007618
20
19.9739638804751
30
0
41
1
10
59.3969925184126
20
19.9724190813013
30
0
41
1
10
59.3822947360633
20
19.9708742821273
30
0
41
1
10
59.367596953714
20
19.9693294829534
30
0
41
1
10
59.3528991713647
20
19.9677846837795
30
0
41
1
10
59.3235036066662
20
19.9646950854317
30
0
41
1
10
59.2794102596183
20
19.9600606879098
30
0
41
1
10
59.2206191302212
20
19.9538814912141
30
0
41
1
10
59.172851337586
20
19.9488608938989
30
0
41
1
10
59.1361068817128
20
19.9449988959641
30
0
41
1
10
59.1177087027262
20
19.9430504937717
30
0
41
1
10
59.1066520003287
20
19.9418695188163
30
0
41
1
10
59.1039350845352
20
19.9415947831343
30
0
41
1
10
59.1024534799623
20
19.9414558195333
30
0
41
1
10
59.1021733348979
20
19.9414299600567
30
0
0
SPLINE
5
37E
100
AcDbEntity
8
1
62
256
6
ByLayer
370
18
48
1
60
0
100
AcDbSpline
70
4
71
3
72
21
73
17
40
0
40
0
40
0
40
0
40
0.0001096836879333
40
0.00270680139264
40
0.0033560808188169
40
0.0040053602449933
40
0.0088749559413179
40
0.0137445516376433
40
0.0234837430302933
40
0.0338722138491201
40
0.0442606846679466
40
0.0858145679432533
40
0.168922334493867
40
0.335137867595093
40
0.667568933797547
40
1
40
1
40
1
40
1
41
1
10
68.9862478698233
20
20.2942463337771
30
0
41
1
10
68.9862327191336
20
20.29441061068
30
0
41
1
10
68.9858581404272
20
20.2984646100374
30
0
41
1
10
68.9853716510504
20
20.3034888851731
30
0
41
1
10
68.984769674754
20
20.3093173022311
30
0
41
1
10
68.9838046177988
20
20.3185444545549
30
0
41
1
10
68.9821774527536
20
20.334084736143
30
0
41
1
10
68.9791211714416
20
20.3632222162491
30
0
41
1
10
68.9751898614287
20
20.400614387845
30
0
41
1
10
68.9703793952835
20
20.4462608397784
30
0
41
1
10
68.9605505282699
20
20.5394958189005
30
0
41
1
10
68.9393475786949
20
20.7415143513795
30
0
41
1
10
68.8935953046343
20
21.1766226450119
30
0
41
1
10
68.8021449783082
20
22.0468447233952
30
0
41
1
10
68.6714768678789
20
23.2900166108601
30
0
41
1
10
68.5669467172793
20
24.2845545601215
30
0
41
1
10
68.5146816419792
20
24.7818235347522
30
0
0
SPLINE
5
37F
100
AcDbEntity
8
1
62
256
6
ByLayer
370
18
48
1
60
0
100
AcDbSpline
70
4
71
3
72
41
73
37
40
0
40
0
40
0
40
0
40
0.0625
40
0.078125
40
0.09375
40
0.125
40
0.1875
40
0.21875
40
0.25
40
0.2578125
40
0.265625
40
0.28125
40
0.3125
40
0.375
40
0.4375
40
0.5
40
0.515625
40
0.5234375
40
0.53125
40
0.5625
40
0.625
40
0.6875
40
0.75
40
0.8125
40
0.84375
40
0.859375
40
0.8671875
40
0.875
40
0.90625
40
0.9375
40
0.96875
40
0.984375
40
0.986328125
40
0.98828125
40
0.9921875
40
1
40
1
40
1
40
1
41
1
10
56.2490881139166
20
23.4926577069056
30
0
41
1
10
56.2997986415878
20
23.4979875981363
30
0
41
1
10
56.3632764636196
20
23.5046593860773
30
0
41
1
10
56.4391629302407
20
23.5126353751185
30
0
41
1
10
56.4900450547524
20
23.517983301904
30
0
41
1
10
56.5797128654008
20
23.5274077685701
30
0
41
1
10
56.6830627971324
20
23.5382702841096
30
0
41
1
10
56.7860413326354
20
23.5490937643324
30
0
41
1
10
56.8435482837921
20
23.5551379884562
30
0
41
1
10
56.8817564943566
20
23.5591538332085
30
0
41
1
10
56.9073066793845
20
23.5618392658668
30
0
41
1
10
56.9519621362387
20
23.5665327435098
30
0
41
1
10
57.0413133585728
20
23.5759239354032
30
0
41
1
10
57.1689394611038
20
23.5893379793097
30
0
41
1
10
57.3220962110432
20
23.6054354023879
30
0
41
1
10
57.4368972494391
20
23.6175014777363
30
0
41
1
10
57.5072122800457
20
23.6248918852558
30
0
41
1
10
57.5325864743302
20
23.6275588205416
30
0
41
1
10
57.5703204782246
20
23.6315248241643
30
0
41
1
10
57.6521713154256
20
23.6401276938142
30
0
41
1
10
57.7770761807052
20
23.6532557241604
30
0
41
1
10
57.9229546929397
20
23.6685881736305
30
0
41
1
10
58.0624811442018
20
23.6832529945898
30
0
41
1
10
58.1714516419112
20
23.6947062554181
30
0
41
1
10
58.2432706322882
20
23.7022547354792
30
0
41
1
10
58.2777302417297
20
23.705876586377
30
0
41
1
10
58.2974049339685
20
23.7079444798588
30
0
41
1
10
58.3269626217748
20
23.711051118032
30
0
41
1
10
58.3713491626887
20
23.7157163314708
30
0
41
1
10
58.4305183015871
20
23.7219352585661
30
0
41
1
10
58.4798426655816
20
23.7271194581236
30
0
41
1
10
58.5106291124586
20
23.7303552440792
30
0
41
1
10
58.5229802014336
20
23.7316533958407
30
0
41
1
10
58.5278322369526
20
23.7321633653233
30
0
41
1
10
58.5372976138662
20
23.7331582165253
30
0
41
1
10
58.5469056106449
20
23.7341680576792
30
0
41
1
10
58.5532184872077
20
23.7348315677427
30
0
0
SPLINE
5
380
100
AcDbEntity
8
1
62
256
6
ByLayer
370
18
48
1
60
0
100
AcDbSpline
70
4
71
3
72
42
73
38
40
0
40
0
40
0
40
0
40
0.258003694988868
40
0.516007389977736
40
0.64500923747217
40
0.709510161219387
40
0.741760623092996
40
0.749823238561398
40
0.7578858540298
40
0.765444556031427
40
0.769223907032241
40
0.773003258033054
40
0.773507171499829
40
0.774011084966604
40
0.776026738833705
40
0.778042392700806
40
0.782073700435007
40
0.790136315903409
40
0.806261546840213
40
0.838512008713821
40
0.87076247058743
40
0.903012932461039
40
0.911075547929441
40
0.915106855663642
40
0.919138163397843
40
0.923169471132044
40
0.927200778866245
40
0.931232086600446
40
0.935263394334647
40
0.951388625271451
40
0.967513856208256
40
0.98363908714506
40
0.990693875679912
40
0.997748664214764
40
0.998756491148314
40
0.999764318081864
40
1
40
1
40
1
40
1
41
1
10
58.5532184872077
20
23.7348315677427
30
0
41
1
10
58.5201368860172
20
24.0495819781983
30
0
41
1
10
58.4539736836362
20
24.6790827991096
30
0
41
1
10
58.37126968066
20
25.4659588252485
30
0
41
1
10
58.3133768785767
20
26.0167720435459
30
0
41
1
10
58.2844304775349
20
26.2921786526946
30
0
41
1
10
58.2709910770513
20
26.4200460069421
30
0
41
1
10
58.2647882768281
20
26.4790617089026
30
0
41
1
10
58.2617514892188
20
26.5079548129874
30
0
41
1
10
58.2592639078793
20
26.5316225684611
30
0
41
1
10
58.2573255328095
20
26.5500649753237
30
0
41
1
10
58.2562917327723
20
26.5599009256505
30
0
41
1
10
58.2556779140002
20
26.565741021157
30
0
41
1
10
58.2552902389862
20
26.5694295025295
30
0
41
1
10
58.2547087264653
20
26.5749622245883
30
0
41
1
10
58.2536749264281
20
26.584798174915
30
0
41
1
10
58.251865776363
20
26.6020110879868
30
0
41
1
10
58.2482474762328
20
26.6364369141304
30
0
41
1
10
58.2410108759724
20
26.7052885664176
30
0
41
1
10
58.2306728756004
20
26.803648069685
30
0
41
1
10
58.2182672751539
20
26.9216794736058
30
0
41
1
10
58.2089630748191
20
27.0102030265464
30
0
41
1
10
58.2032771746145
20
27.0643007533434
30
0
41
1
10
58.2012095745401
20
27.083972653997
30
0
41
1
10
58.1996588744843
20
27.0987265794871
30
0
41
1
10
58.1981081744285
20
27.1134805049771
30
0
41
1
10
58.1965574743727
20
27.1282344304673
30
0
41
1
10
58.1950067743169
20
27.1429883559574
30
0
41
1
10
58.1919053742053
20
27.1724962069376
30
0
41
1
10
58.1872532740379
20
27.2167579834079
30
0
41
1
10
58.1810504738147
20
27.2757736853683
30
0
41
1
10
58.1760106986333
20
27.3237239432112
30
0
41
1
10
58.1721339484938
20
27.3606087569365
30
0
41
1
10
58.1701782144028
20
27.3790772256109
30
0
41
1
10
58.1689928706193
20
27.3901761777722
30
0
41
1
10
58.1687170038614
20
27.3929034631628
30
0
41
1
10
58.1685773830462
20
27.3943907139399
30
0
41
1
10
58.1685513977534
20
27.3946719262711
30
0
0
SPLINE
5
381
100
AcDbEntity
8
1
62
256
6
ByLayer
370
18
48
1
60
0
100
AcDbSpline
70
4
71
3
72
45
73
41
40
0
40
0
40
0
40
0
40
0.0011565097570587
40
0.0196321945810335
40
0.0288700369930209
40
0.0381078794050083
40
0.0565835642289831
40
0.130486303524882
40
0.204389042820781
40
0.278291782116681
40
0.310624230558637
40
0.34093590097297
40
0.342956679000593
40
0.347575600206586
40
0.35219452141258
40
0.370670206236555
40
0.379908048648542
40
0.389145891060529
40
0.407621575884504
40
0.426097260708479
40
0.463048630356429
40
0.500000000004378
40
0.536951369652328
40
0.555427054476303
40
0.573902739300278
40
0.592378424124252
40
0.610854108948227
40
0.629329793772202
40
0.647805478596177
40
0.65242439980217
40
0.657043321008164
40
0.68937576945012
40
0.721708217892076
40
0.795610957187975
40
0.869513696483874
40
0.943416435779774
40
0.961892120603749
40
0.980367805427723
40
0.998843490251699
40
1
40
1
40
1
40
1
41
1
10
56.4211963333884
20
29.7217126617329
30
0
41
1
10
56.4207371455169
20
29.7216552421709
30
0
41
1
10
56.4129480447226
20
29.7206780586722
30
0
41
1
10
56.4016368656457
20
29.719173635041
30
0
41
1
10
56.3873759770763
20
29.716955704776
30
0
41
1
10
56.3731963693563
20
29.7145429911494
30
0
41
1
10
56.3342775624384
20
29.7071051293926
30
0
41
1
10
56.2696696985439
20
29.6903499899521
30
0
41
1
10
56.1838288948403
20
29.657683404443
30
0
41
1
10
56.1156777389565
20
29.6223538549013
30
0
41
1
10
56.0657582040916
20
29.5909426119247
30
0
41
1
10
56.0427099781299
20
29.5747930420226
30
0
41
1
10
56.0297436849075
20
29.5651942574372
30
0
41
1
10
56.0258059120411
20
29.5622464703397
30
0
41
1
10
56.0161580544158
20
29.5549112437101
30
0
41
1
10
56.0050366284157
20
29.5461231726751
30
0
41
1
10
55.992523948798
20
29.5357738402885
30
0
41
1
10
55.9801473470957
20
29.5252239683019
30
0
41
1
10
55.9649399852445
20
29.5116668831096
30
0
41
1
10
55.9412052807287
20
29.4892134942623
30
0
41
1
10
55.9127223681512
20
29.4597680420173
30
0
41
1
10
55.8806506731033
20
29.4223879768668
30
0
41
1
10
55.855856636549
20
29.3896670067287
30
0
41
1
10
55.8372370463975
20
29.3626679808418
30
0
41
1
10
55.8238942267051
20
29.3420376614715
30
0
41
1
10
55.8111873333089
20
29.3210563670787
30
0
41
1
10
55.7991304195842
20
29.2997541725962
30
0
41
1
10
55.7877375389062
20
29.2781611529571
30
0
41
1
10
55.7797014432139
20
29.2617708255597
30
0
41
1
10
55.7745603397723
20
29.2507718545996
30
0
41
1
10
55.7669784140228
20
29.234231615968
30
0
41
1
10
55.7552064218656
20
29.206395799808
30
0
41
1
10
55.7346807213613
20
29.1500235424426
30
0
41
1
10
55.7144271774872
20
29.0757558575413
30
0
41
1
10
55.7004461830058
20
28.9846711826742
30
0
41
1
10
55.6975537724362
20
28.9177447596451
30
0
41
1
10
55.69847527602
20
28.8743664782612
30
0
41
1
10
55.6995163302582
20
28.8527451001613
30
0
41
1
10
55.7006857273408
20
28.8376709290009
30
0
41
1
10
55.7013530731651
20
28.8298191175379
30
0
41
1
10
55.7013925980866
20
28.8293562717914
30
0
0
SPLINE
5
382
100
AcDbEntity
8
1
62
256
6
ByLayer
370
18
48
1
60
0
100
AcDbSpline
70
4
71
3
72
41
73
37
40
0
40
0
40
0
40
0
40
0.0078125
40
0.01171875
40
0.013671875
40
0.015625
40
0.03125
40
0.0625
40
0.09375
40
0.125
40
0.1328125
40
0.140625
40
0.15625
40
0.1875
40
0.25
40
0.3125
40
0.375
40
0.4375
40
0.46875
40
0.4765625
40
0.484375
40
0.5
40
0.5625
40
0.625
40
0.6875
40
0.71875
40
0.734375
40
0.7421875
40
0.75
40
0.78125
40
0.8125
40
0.875
40
0.90625
40
0.921875
40
0.9375
40
1
40
1
40
1
40
1
41
1
10
61.9473988654194
20
27.9426710114767
30
0
41
1
10
61.9467328208552
20
27.9490080022023
30
0
41
1
10
61.9458672103212
20
27.9588362879522
30
0
41
1
10
61.9452828502572
20
27.9688514270381
30
0
41
1
10
61.9450631972681
20
27.9740843232125
30
0
41
1
10
61.9444772464831
20
27.9873716698692
30
0
41
1
10
61.9430309890516
20
28.0205095566942
30
0
41
1
10
61.9407035036613
20
28.0735884125689
30
0
41
1
10
61.9379146210132
20
28.1372653188301
30
0
41
1
10
61.9358201701392
20
28.1850305318268
30
0
41
1
10
61.9344328381997
20
28.2168472982321
30
0
41
1
10
61.9335039156013
20
28.2380189442284
30
0
41
1
10
61.9318072515951
20
28.2750140313639
30
0
41
1
10
61.9279160749862
20
28.3516771435725
30
0
41
1
10
61.9210502616774
20
28.4668052869525
30
0
41
1
10
61.9107605414343
20
28.612358060159
30
0
41
1
10
61.8986064599605
20
28.7628067041035
30
0
41
1
10
61.8870830028764
20
28.8902400784056
30
0
41
1
10
61.8790170385743
20
28.9731099249754
30
0
41
1
10
61.8752037364879
20
29.0111961552124
30
0
41
1
10
61.872611694505
20
29.0367727510256
30
0
41
1
10
61.8654357432841
20
29.1076572373171
30
0
41
1
10
61.8537165755525
20
29.2233840053013
30
0
41
1
10
61.8380829647489
20
29.3777770172621
30
0
41
1
10
61.8250548934455
20
29.5064326521119
30
0
41
1
10
61.8159354219386
20
29.5965065116158
30
0
41
1
10
61.8113754085417
20
29.6415202297294
30
0
41
1
10
61.8087701381894
20
29.6672801082352
30
0
41
1
10
61.8048718786071
20
29.7057990580337
30
0
41
1
10
61.7988727172734
20
29.7636101643656
30
0
41
1
10
61.7877075070375
20
29.8666096659736
30
0
41
1
10
61.7758813796241
20
29.96921120683
30
0
41
1
10
61.7650712790976
20
30.0575483633302
30
0
41
1
10
61.758785899378
20
30.1074879937419
30
0
41
1
10
61.7492291413103
20
30.1817423910803
30
0
41
1
10
61.7412290147882
20
30.2438475122605
30
0
41
1
10
61.7348397620101
20
30.2934636721851
30
0
0
SPLINE
5
383
100
AcDbEntity
8
1
62
256
6
ByLayer
370
18
48
1
60
0
100
AcDbSpline
70
4
71
3
72
20
73
16
40
0
40
0
40
0
40
0
40
0.332431012821213
40
0.664862025642425
40
0.831077532053032
40
0.914185285258335
40
0.955739161860986
40
0.976516100162312
40
0.986255289991058
40
0.995690130137657
40
0.995994479819805
40
0.996643759141721
40
0.997293038463638
40
0.999890155751304
40
1
40
1
40
1
40
1
41
1
10
68.5146816419792
20
24.7818235347522
30
0
41
1
10
68.4624165666794
20
25.2790925093828
30
0
41
1
10
68.3578864160795
20
26.2736304586443
30
0
41
1
10
68.2272291456884
20
27.5168034854431
30
0
41
1
10
68.1357517192671
20
28.3870227154916
30
0
41
1
10
68.0900400953494
20
28.8221352816263
30
0
41
1
10
68.0671421256784
20
29.039686972028
30
0
41
1
10
68.0558548267716
20
29.1474980822144
30
0
41
1
10
68.0495756535469
20
29.2072591952125
30
0
41
1
10
68.0465049147709
20
29.236395149272
30
0
41
1
10
68.044864022977
20
29.2519339845381
30
0
41
1
10
68.0446107903751
20
29.2543315730871
30
0
41
1
10
68.0439878159999
20
29.2601577831581
30
0
41
1
10
68.0434190416652
20
29.2651736526392
30
0
41
1
10
68.0429425317463
20
29.2692171814219
30
0
41
1
10
68.0429231678797
20
29.2693812583363
30
0
0
SPLINE
5
384
100
AcDbEntity
8
1
62
256
6
ByLayer
370
18
48
1
60
0
100
AcDbSpline
70
4
71
1
72
4
73
2
40
0
40
0
40
1
40
1
41
1
10
68.3425739425111
20
18.552764416454
30
0
41
1
10
67.4994114369704
20
18.4509789789961
30
0
0
SPLINE
5
385
100
AcDbEntity
8
1
62
256
6
ByLayer
370
18
48
1
60
0
100
AcDbSpline
70
4
71
3
72
20
73
16
40
0
40
0
40
0
40
0
40
0.332431012821213
40
0.664862025642426
40
0.831077532053032
40
0.914185285258335
40
0.955739161860987
40
0.976516100162313
40
0.986255289991059
40
0.995690130137657
40
0.995994479819806
40
0.996643759141722
40
0.997293038463639
40
0.999890155751304
40
1
40
1
40
1
40
1
41
1
10
56.2490881139166
20
23.4926577069055
30
0
41
1
10
56.3013531892166
20
22.9953887322748
30
0
41
1
10
56.4058833398163
20
22.0008507830135
30
0
41
1
10
56.5365406102075
20
20.7576777562147
30
0
41
1
10
56.6280180366288
20
19.8874585261661
30
0
41
1
10
56.6737296605465
20
19.4523459600315
30
0
41
1
10
56.6966276302176
20
19.2347942696297
30
0
41
1
10
56.7079149291243
20
19.1269831594433
30
0
41
1
10
56.714194102349
20
19.0672220464452
30
0
41
1
10
56.717264841125
20
19.0380860923857
30
0
41
1
10
56.7189057329189
20
19.0225472571196
30
0
41
1
10
56.7191589655207
20
19.0201496685705
30
0
41
1
10
56.7197819398961
20
19.0143234584996
30
0
41
1
10
56.7203507142307
20
19.0093075890185
30
0
41
1
10
56.7208272241495
20
19.0052640602357
30
0
41
1
10
56.7208465880161
20
19.0050999833213
30
0
0
SPLINE
5
386
100
AcDbEntity
8
1
62
256
6
ByLayer
370
18
48
1
60
0
100
AcDbSpline
70
4
71
3
72
46
73
42
40
0
40
0
40
0
40
0
40
0.000235681918147
40
0.0012435088516973
40
0.0022513357852475
40
0.0026922600686758
40
0.0093061243200993
40
0.0163609128549511
40
0.0324861437917552
40
0.0486113747285593
40
0.0647366056653633
40
0.0687679133995644
40
0.0707835672666649
40
0.0727992211337654
40
0.0768305288679664
40
0.0788461827350669
40
0.0808618366021674
40
0.0848931443363684
40
0.0889244520705695
40
0.0969870675389715
40
0.12923752941258
40
0.161487991286188
40
0.193738453159796
40
0.2098636840966
40
0.217926299565002
40
0.219941953432103
40
0.221957607299203
40
0.222965434232753
40
0.223973261166304
40
0.225988915033404
40
0.226492828500179
40
0.226996741966954
40
0.227232951404505
40
0.234555443968581
40
0.242114145970208
40
0.258239376907012
40
0.290489838780621
40
0.354990762527837
40
0.483992610022269
40
0.741996305011135
40
1
40
1
40
1
40
1
41
1
10
58.3014848121822
20
27.5594723794865
30
0
41
1
10
58.3017642118922
20
27.5595053305354
30
0
41
1
10
58.3032423320079
20
27.5596774465344
30
0
41
1
10
58.3059569974328
20
27.5599735930426
30
0
41
1
10
58.3089525834846
20
27.5602833315494
30
0
41
1
10
58.3187810740849
20
27.5613011826894
30
0
41
1
10
58.3359547097307
20
27.5630929352883
30
0
41
1
10
58.3721633089557
20
27.5668986124199
30
0
41
1
10
58.419931101591
20
27.5719192097351
30
0
41
1
10
58.4787222309881
20
27.5780984064309
30
0
41
1
10
58.5228155780359
20
27.5827328039526
30
0
41
1
10
58.5497615123429
20
27.5855649357715
30
0
41
1
10
58.5595600339091
20
27.5865948018874
30
0
41
1
10
58.5693585554753
20
27.5876246680034
30
0
41
1
10
58.5791570770415
20
27.5886545341193
30
0
41
1
10
58.5889555986077
20
27.5896844002352
30
0
41
1
10
58.5987541201739
20
27.5907142663513
30
0
41
1
10
58.6110022721317
20
27.5920015989961
30
0
41
1
10
58.630599315264
20
27.5940613312281
30
0
41
1
10
58.684491183878
20
27.5997255948657
30
0
41
1
10
58.7726778779738
20
27.6089943899093
30
0
41
1
10
58.890260136768
20
27.6213527833007
30
0
41
1
10
58.9882453524299
20
27.6316514444602
30
0
41
1
10
59.0568350033933
20
27.6388605072718
30
0
41
1
10
59.0886801984834
20
27.6422075721487
30
0
41
1
10
59.1033779808326
20
27.6437523713225
30
0
41
1
10
59.1095020568116
20
27.644396037645
30
0
41
1
10
59.1144013175947
20
27.644910970703
30
0
41
1
10
59.1193005783778
20
27.645425903761
30
0
41
1
10
59.123587431563
20
27.6458764701867
30
0
41
1
10
59.1272618771503
20
27.6462626699802
30
0
41
1
10
59.1287737584075
20
27.6464215751035
30
0
41
1
10
59.1385722799737
20
27.6474514412195
30
0
41
1
10
59.1569445079103
20
27.6493824401869
30
0
41
1
10
59.1946267129178
20
27.6533429995274
30
0
41
1
10
59.2626039562833
20
27.6604876957067
30
0
41
1
10
59.3997832582099
20
27.67490582133
30
0
41
1
10
59.6741418620633
20
27.7037420725766
30
0
41
1
10
60.2228590697699
20
27.7614145750697
30
0
41
1
10
61.0067407950651
20
27.8438038643455
30
0
41
1
10
61.6338461753013
20
27.9097152957663
30
0
41
1
10
61.9473988654194
20
27.9426710114767
30
0
0
SPLINE
5
387
100
AcDbEntity
8
1
62
256
6
ByLayer
370
18
48
1
60
0
100
AcDbSpline
70
4
71
1
72
4
73
2
40
0
40
0
40
1
40
1
41
1
10
68.9862504825848
20
20.2942465744858
30
0
41
1
10
69.0623813225691
20
19.4451253248908
30
0
0
SPLINE
5
388
100
AcDbEntity
8
1
62
256
6
ByLayer
370
18
48
1
60
0
100
AcDbSpline
70
4
71
3
72
41
73
37
40
0
40
0
40
0
40
0
40
0.0078125
40
0.01171875
40
0.013671875
40
0.015625
40
0.03125
40
0.0625
40
0.09375
40
0.125
40
0.1328125
40
0.140625
40
0.15625
40
0.1875
40
0.25
40
0.3125
40
0.375
40
0.4375
40
0.46875
40
0.4765625
40
0.484375
40
0.5
40
0.5625
40
0.625
40
0.6875
40
0.71875
40
0.734375
40
0.7421875
40
0.75
40
0.78125
40
0.8125
40
0.875
40
0.90625
40
0.921875
40
0.9375
40
1
40
1
40
1
40
1
41
1
10
62.7480868940496
20
20.3246332929557
30
0
41
1
10
62.7487529386137
20
20.31829630223
30
0
41
1
10
62.7499496592548
20
20.3085028175548
30
0
41
1
10
62.7514603333613
20
20.2985850379979
30
0
41
1
10
62.7523334606086
20
20.2934208247357
30
0
41
1
10
62.7545229089639
20
20.2803020124649
30
0
41
1
10
62.7599980098071
20
20.2475875741458
30
0
41
1
10
62.7687571002285
20
20.1951847071993
30
0
41
1
10
62.7792683346043
20
20.1323194528108
30
0
41
1
10
62.7871505987034
20
20.0851625634971
30
0
41
1
10
62.7924086609951
20
20.0537526272453
30
0
41
1
10
62.7959018703007
20
20.0328504986424
30
0
41
1
10
62.8019339935921
20
19.9963110866397
30
0
41
1
10
62.8140670058107
20
19.92051422626
30
0
41
1
10
62.8312877139464
20
19.8064744261819
30
0
41
1
10
62.851484971959
20
19.6619629771561
30
0
41
1
10
62.8708765182701
20
19.5122750214186
30
0
41
1
10
62.8860997646888
20
19.3852305106452
30
0
41
1
10
62.8954396709773
20
19.3024945607736
30
0
41
1
10
62.8996282712161
20
19.264447775962
30
0
41
1
10
62.9024105448503
20
19.238891174301
30
0
41
1
10
62.9101291187783
20
19.1680637199542
30
0
41
1
10
62.9227269909834
20
19.0524293075315
30
0
41
1
10
62.9395351242523
20
18.8981597428564
30
0
41
1
10
62.9535407581396
20
18.7696068539743
30
0
41
1
10
62.9633479773931
20
18.6796052796715
30
0
41
1
10
62.9682464894726
20
18.634627139203
30
0
41
1
10
62.9710539304236
20
18.6088885096833
30
0
41
1
10
62.9752493971473
20
18.5704007976142
30
0
41
1
10
62.9814009367478
20
18.5126057068835
30
0
41
1
10
62.9918945136766
20
18.4095356137703
30
0
41
1
10
63.0016588753612
20
18.3067173726038
30
0
41
1
10
63.0094513290375
20
18.2180630486391
30
0
41
1
10
63.0136863329427
20
18.1679079150454
30
0
41
1
10
63.0197767702694
20
18.0932891927163
30
0
41
1
10
63.0248638464592
20
18.0308778976087
30
0
41
1
10
63.0289299938857
20
17.9810175694726
30
0
0
SPLINE
5
389
100
AcDbEntity
8
1
62
256
6
ByLayer
370
18
48
1
60
0
100
AcDbSpline
70
4
71
1
72
4
73
2
40
0
40
0
40
1
40
1
41
1
10
66.2053402120175
20
30.7632373382489
30
0
41
1
10
67.0512406951875
20
30.8389795633455
30
0
0
SPLINE
5
38A
100
AcDbEntity
8
1
62
256
6
ByLayer
370
18
48
1
60
0
100
AcDbSpline
70
4
71
1
72
4
73
2
40
0
40
0
40
1
40
1
41
1
10
56.8229189336215
20
18.1587059904374
30
0
41
1
10
56.7208439841366
20
19.0050996757616
30
0
0
SPLINE
5
38B
100
AcDbEntity
8
1
62
256
6
ByLayer
370
18
48
1
60
0
100
AcDbSpline
70
4
71
3
72
20
73
16
40
0
40
0
40
0
40
0
40
0.332431012821212
40
0.664862025642423
40
0.831077532053029
40
0.914185285258332
40
0.955739161860983
40
0.976516100162309
40
0.986255289991056
40
0.995690130137654
40
0.995994479819802
40
0.996643759141718
40
0.997293038463635
40
0.999890155751301
40
1
40
1
40
1
40
1
41
1
10
63.0289299938857
20
17.9810175694726
30
0
41
1
10
63.5243067099383
20
18.0330837603817
30
0
41
1
10
64.5150601420436
20
18.1372161421999
30
0
41
1
10
65.753502524495
20
18.2673761809024
30
0
41
1
10
66.6204102967873
20
18.3585056114194
30
0
41
1
10
67.0538671445329
20
18.4040431338258
30
0
41
1
10
67.2705909594165
20
18.4268542139051
30
0
41
1
10
67.377991850741
20
18.4380982285966
30
0
41
1
10
67.4375255562256
20
18.4443534927925
30
0
41
1
10
67.4665506325039
20
18.4474126100323
30
0
41
1
10
67.4820303317115
20
18.4490473157674
30
0
41
1
10
67.4844187957324
20
18.4492995940636
30
0
41
1
10
67.4902228269009
20
18.44992027789
30
0
41
1
10
67.4952195765206
20
18.450487201495
30
0
41
1
10
67.4992476776184
20
18.4509622866889
30
0
41
1
10
67.4994111284911
20
18.450981592849
30
0
0
SPLINE
5
38C
100
AcDbEntity
8
1
62
256
6
ByLayer
370
18
48
1
60
0
100
AcDbSpline
70
4
71
3
72
21
73
17
40
0
40
0
40
0
40
0
40
0.0001096836879125
40
0.0027068013926192
40
0.0033560808187962
40
0.0040053602449726
40
0.0088749559412972
40
0.0137445516376228
40
0.023483743030273
40
0.0338722138491
40
0.0442606846679267
40
0.0858145679432343
40
0.168922334493849
40
0.33513786759508
40
0.66756893379754
40
1
40
1
40
1
40
1
41
1
10
58.5584293019946
20
17.5112465261236
30
0
41
1
10
58.5585929554512
20
17.5112616032055
30
0
41
1
10
58.5626315689509
20
17.5116343680188
30
0
41
1
10
58.5676367581649
20
17.5121186925433
30
0
41
1
10
58.5734430047507
20
17.5127182980815
30
0
41
1
10
58.5826350487439
20
17.5136796468361
30
0
41
1
10
58.5981161997712
20
17.5153005733855
30
0
41
1
10
58.6271428078763
20
17.5183451779311
30
0
41
1
10
58.6643926899917
20
17.5222615374322
30
0
41
1
10
58.7098654332238
20
17.5270537950684
30
0
41
1
10
58.8027456017372
20
17.5368454825773
30
0
41
1
10
59.0039954165319
20
17.5579675218675
30
0
41
1
10
59.4374479754551
20
17.6035458496936
30
0
41
1
10
60.3043586069625
20
17.6946480765974
30
0
41
1
10
61.5427998457279
20
17.8248189967452
30
0
41
1
10
62.5335532778331
20
17.9289513785634
30
0
41
1
10
63.0289299938856
20
17.9810175694726
30
0
0
SPLINE
5
38D
100
AcDbEntity
8
1
62
256
6
ByLayer
370
18
48
1
60
0
100
AcDbSpline
70
4
71
3
72
46
73
42
40
0
40
0
40
0
40
0
40
0.0002356819181351
40
0.0012435088516854
40
0.0022513357852356
40
0.0026922600686639
40
0.0093061243200875
40
0.0163609128549394
40
0.0324861437917437
40
0.0486113747285479
40
0.0647366056653522
40
0.0687679133995533
40
0.0707835672666538
40
0.0727992211337543
40
0.0768305288679554
40
0.0788461827350559
40
0.0808618366021565
40
0.0848931443363575
40
0.0889244520705586
40
0.0969870675389607
40
0.129237529412569
40
0.161487991286178
40
0.193738453159786
40
0.209863684096591
40
0.217926299564993
40
0.219941953432093
40
0.221957607299194
40
0.222965434232744
40
0.223973261166294
40
0.225988915033395
40
0.22649282850017
40
0.226996741966945
40
0.227232951404496
40
0.234555443968572
40
0.242114145970199
40
0.258239376907003
40
0.290489838780612
40
0.354990762527829
40
0.483992610022263
40
0.741996305011132
40
1
40
1
40
1
40
1
41
1
10
58.9378808936415
20
20.074990717009
30
0
41
1
10
58.937847843762
20
20.0752711868222
30
0
41
1
10
58.9376751967037
20
20.0767549664013
30
0
41
1
10
58.9373780005942
20
20.0794800099867
30
0
41
1
10
58.9370670403959
20
20.0824870346398
30
0
41
1
10
58.9360451868592
20
20.0923530564568
30
0
41
1
10
58.9342464899822
20
20.1095922820824
30
0
41
1
10
58.9304262757822
20
20.1459391922742
30
0
41
1
10
58.9253865006008
20
20.193889450117
30
0
41
1
10
58.9191837003775
20
20.2529051520775
30
0
41
1
10
58.9145316002102
20
20.2971669285478
30
0
41
1
10
58.9116886501078
20
20.3242157919464
30
0
41
1
10
58.9106548500707
20
20.334051742273
30
0
41
1
10
58.9096210500335
20
20.3438876925998
30
0
41
1
10
58.9085872499962
20
20.3537236429265
30
0
41
1
10
58.907553449959
20
20.3635595932533
30
0
41
1
10
58.9065196499218
20
20.37339554358
30
0
41
1
10
58.9052273998753
20
20.3856904814884
30
0
41
1
10
58.9031597998009
20
20.4053623821419
30
0
41
1
10
58.8974738995963
20
20.459460108939
30
0
41
1
10
58.8881696992615
20
20.5479836618796
30
0
41
1
10
58.875764098815
20
20.6660150658005
30
0
41
1
10
58.865426098443
20
20.7643745690679
30
0
41
1
10
58.8581894981826
20
20.8332262213551
30
0
41
1
10
58.8548296480617
20
20.8651930599169
30
0
41
1
10
58.8532789480059
20
20.8799469854071
30
0
41
1
10
58.8526328229826
20
20.8860944543612
30
0
41
1
10
58.8521159229641
20
20.8910124295246
30
0
41
1
10
58.8515990229454
20
20.895930404688
30
0
41
1
10
58.8511467354291
20
20.9002336329559
30
0
41
1
10
58.8507590604152
20
20.9039221143284
30
0
41
1
10
58.8505995483001
20
20.9054397707265
30
0
41
1
10
58.8495657482628
20
20.9152757210533
30
0
41
1
10
58.8476273731931
20
20.9337181279159
30
0
41
1
10
58.8436516851594
20
20.9715442728248
30
0
41
1
10
58.8364796974013
20
21.0397811782165
30
0
41
1
10
58.8220064968805
20
21.1774844827909
30
0
41
1
10
58.7930600958388
20
21.4528910919395
30
0
41
1
10
58.7351672937555
20
22.0037043102368
30
0
41
1
10
58.6524632907792
20
22.7905803363759
30
0
41
1
10
58.5863000883982
20
23.4200811572871
30
0
41
1
10
58.5532184872077
20
23.7348315677427
30
0
0
SPLINE
5
38E
100
AcDbEntity
8
1
62
256
6
ByLayer
370
18
48
1
60
0
100
AcDbSpline
70
4
71
3
72
21
73
17
40
0
40
0
40
0
40
0
40
0.059279273843807
40
0.122239377580398
40
0.185199481316987
40
0.248159585053579
40
0.311119688790172
40
0.374079792526761
40
0.499999999999943
40
0.625920207473124
40
0.751840414946306
40
0.814800518682897
40
0.877760622419488
40
0.909240674287783
40
0.940720726156079
40
1
40
1
40
1
40
1
41
1
10
59.1021733348979
20
19.9414299600567
30
0
41
1
10
59.09766163605
20
19.9410134966392
30
0
41
1
10
59.0887127315349
20
19.9404105018467
30
0
41
1
10
59.0756777858962
20
19.9408077858199
30
0
41
1
10
59.0613950392401
20
19.9425670808814
30
0
41
1
10
59.0467489379679
20
19.9457799793805
30
0
41
1
10
59.0323648596262
20
19.9505459696644
30
0
41
1
10
59.0137277655859
20
19.958944759553
30
0
41
1
10
58.9918076297682
20
19.9732260281145
30
0
41
1
10
58.9696408368933
20
19.9954927383474
30
0
41
1
10
58.9557012913433
20
20.0168988697837
30
0
41
1
10
58.9474671843969
20
20.0351841873925
30
0
41
1
10
58.9435640786434
20
20.046567028399
30
0
41
1
10
58.9412040649731
20
20.0553286190905
30
0
41
1
10
58.9393583780762
20
20.06385620718
30
0
41
1
10
58.9384131575375
20
20.070473788123
30
0
41
1
10
58.9378808936415
20
20.074990717009
30
0
0
SPLINE
5
38F
100
AcDbEntity
8
1
62
256
6
ByLayer
370
18
48
1
60
0
100
AcDbSpline
70
4
71
3
72
46
73
42
40
0
40
0
40
0
40
0
40
0.0002356819181369
40
0.0012435088516872
40
0.0022513357852375
40
0.0026922600686657
40
0.0093061243200893
40
0.0163609128549412
40
0.0324861437917454
40
0.0486113747285497
40
0.0647366056653539
40
0.068767913399555
40
0.0707835672666555
40
0.072799221133756
40
0.0768305288679571
40
0.0788461827350576
40
0.0808618366021582
40
0.0848931443363592
40
0.0889244520705603
40
0.0969870675389624
40
0.129237529412571
40
0.161487991286179
40
0.193738453159788
40
0.209863684096592
40
0.217926299564994
40
0.219941953432095
40
0.221957607299195
40
0.222965434232746
40
0.223973261166296
40
0.225988915033396
40
0.226492828500171
40
0.226996741966947
40
0.227232951404498
40
0.234555443968574
40
0.242114145970201
40
0.258239376907005
40
0.290489838780613
40
0.35499076252783
40
0.483992610022264
40
0.741996305011132
40
1
40
1
40
1
40
1
41
1
10
65.7576048658274
20
28.1923135874234
30
0
41
1
10
65.7576379157069
20
28.1920331176101
30
0
41
1
10
65.7578105627653
20
28.1905493380311
30
0
41
1
10
65.7581077588748
20
28.1878242944456
30
0
41
1
10
65.7584187190731
20
28.1848172697926
30
0
41
1
10
65.7594405726098
20
28.1749512479756
30
0
41
1
10
65.7612392694868
20
28.15771202235
30
0
41
1
10
65.7650594836868
20
28.1213651121582
30
0
41
1
10
65.7700992588681
20
28.0734148543153
30
0
41
1
10
65.7763020590914
20
28.0143991523549
30
0
41
1
10
65.7809541592588
20
27.9701373758845
30
0
41
1
10
65.7837971093611
20
27.943088512486
30
0
41
1
10
65.7848309093983
20
27.9332525621593
30
0
41
1
10
65.7858647094355
20
27.9234166118325
30
0
41
1
10
65.7868985094727
20
27.9135806615059
30
0
41
1
10
65.7879323095099
20
27.9037447111791
30
0
41
1
10
65.7889661095471
20
27.8939087608524
30
0
41
1
10
65.7902583595936
20
27.8816138229439
30
0
41
1
10
65.792325959668
20
27.8619419222905
30
0
41
1
10
65.7980118598726
20
27.8078441954934
30
0
41
1
10
65.8073160602075
20
27.7193206425527
30
0
41
1
10
65.8197216606539
20
27.6012892386319
30
0
41
1
10
65.8300596610259
20
27.5029297353646
30
0
41
1
10
65.8372962612863
20
27.4340780830773
30
0
41
1
10
65.8406561114073
20
27.4021112445155
30
0
41
1
10
65.8422068114631
20
27.3873573190253
30
0
41
1
10
65.8428529364863
20
27.3812098500712
30
0
41
1
10
65.8433698365049
20
27.3762918749078
30
0
41
1
10
65.8438867365235
20
27.3713738997444
30
0
41
1
10
65.8443390240398
20
27.3670706714764
30
0
41
1
10
65.8447266990538
20
27.3633821901039
30
0
41
1
10
65.8448862111688
20
27.3618645337059
30
0
41
1
10
65.845920011206
20
27.3520285833791
30
0
41
1
10
65.8478583862758
20
27.3335861765165
30
0
41
1
10
65.8518340743095
20
27.2957600316076
30
0
41
1
10
65.8590060620676
20
27.2275231262158
30
0
41
1
10
65.8734792625885
20
27.0898198216415
30
0
41
1
10
65.9024256636301
20
26.8144132124928
30
0
41
1
10
65.9603184657135
20
26.2635999941955
30
0
41
1
10
66.0430224686898
20
25.4767239680565
30
0
41
1
10
66.1091856710707
20
24.8472231471453
30
0
41
1
10
66.1422672722613
20
24.5324727366897
30
0
0
SPLINE
5
390
100
AcDbEntity
8
1
62
256
6
ByLayer
370
18
48
1
60
0
100
AcDbSpline
70
4
71
3
72
21
73
17
40
0
40
0
40
0
40
0
40
0.0001096836879367
40
0.0027068013926434
40
0.0033560808188203
40
0.0040053602449967
40
0.0088749559413212
40
0.0137445516376467
40
0.0234837430302966
40
0.0338722138491234
40
0.0442606846679499
40
0.0858145679432564
40
0.16892233449387
40
0.335137867595096
40
0.667568933797548
40
1
40
1
40
1
40
1
41
1
10
66.2053404539014
20
30.7632347155341
30
0
41
1
10
66.2051768004448
20
30.7632196384521
30
0
41
1
10
66.201138186945
20
30.7628468736389
30
0
41
1
10
66.196132997731
20
30.7623625491144
30
0
41
1
10
66.1903267511452
20
30.7617629435762
30
0
41
1
10
66.181134707152
20
30.7608015948217
30
0
41
1
10
66.1656535561247
20
30.7591806682722
30
0
41
1
10
66.1366269480196
20
30.7561360637266
30
0
41
1
10
66.0993770659042
20
30.7522197042255
30
0
41
1
10
66.0539043226721
20
30.7474274465893
30
0
41
1
10
65.9610241541588
20
30.7376357590804
30
0
41
1
10
65.759774339364
20
30.7165137197902
30
0
41
1
10
65.3263217804408
20
30.6709353919641
30
0
41
1
10
64.4594111489335
20
30.5798331650602
30
0
41
1
10
63.220969910168
20
30.4496622449126
30
0
41
1
10
62.2302164780628
20
30.3455298630943
30
0
41
1
10
61.7348397620102
20
30.2934636721851
30
0
0
SPLINE
5
391
100
AcDbEntity
8
1
62
256
6
ByLayer
370
18
48
1
60
0
100
AcDbSpline
70
4
71
3
72
20
73
16
40
0
40
0
40
0
40
0
40
0.332431012821212
40
0.664862025642423
40
0.831077532053029
40
0.914185285258332
40
0.955739161860983
40
0.976516100162309
40
0.986255289991055
40
0.995690130137654
40
0.995994479819802
40
0.996643759141718
40
0.997293038463635
40
0.9998901557513
40
1
40
1
40
1
40
1
41
1
10
61.7348397620101
20
30.2934636721851
30
0
41
1
10
61.2394630459576
20
30.2413974812761
30
0
41
1
10
60.2487096138524
20
30.1372650994578
30
0
41
1
10
59.0102672314009
20
30.0071050607553
30
0
41
1
10
58.1433594591086
20
29.9159756302383
30
0
41
1
10
57.709902611363
20
29.8704381078319
30
0
41
1
10
57.4931787964793
20
29.8476270277527
30
0
41
1
10
57.3857779051549
20
29.8363830130611
30
0
41
1
10
57.3262441996703
20
29.8301277488651
30
0
41
1
10
57.297219123392
20
29.8270686316254
30
0
41
1
10
57.2817394241845
20
29.8254339258902
30
0
41
1
10
57.2793509601635
20
29.825181647594
30
0
41
1
10
57.2735469289951
20
29.8245609637678
30
0
41
1
10
57.2685501793753
20
29.8239940401627
30
0
41
1
10
57.2645220782775
20
29.8235189549688
30
0
41
1
10
57.2643586274047
20
29.8234996488087
30
0
0
SPLINE
5
392
100
AcDbEntity
8
1
62
256
6
ByLayer
370
18
48
1
60
0
100
AcDbSpline
70
4
71
3
72
45
73
41
40
0
40
0
40
0
40
0
40
0.0011565097570397
40
0.019632194581014
40
0.0288700369930012
40
0.0381078794049883
40
0.0565835642289626
40
0.13048630352486
40
0.204389042820757
40
0.278291782116654
40
0.310624230558609
40
0.340935900972942
40
0.342956679000564
40
0.347575600206558
40
0.352194521412551
40
0.370670206236526
40
0.379908048648513
40
0.3891458910605
40
0.407621575884474
40
0.426097260708449
40
0.463048630356397
40
0.500000000004346
40
0.536951369652295
40
0.555427054476269
40
0.573902739300243
40
0.592378424124217
40
0.610854108948192
40
0.629329793772166
40
0.64780547859614
40
0.652424399802134
40
0.657043321008127
40
0.689375769450083
40
0.721708217892037
40
0.795610957187935
40
0.869513696483832
40
0.943416435779729
40
0.961892120603703
40
0.980367805427678
40
0.998843490251653
40
1
40
1
40
1
40
1
41
1
10
56.8229230811837
20
18.1587065090837
30
0
41
1
10
56.8229806510188
20
18.1582455599305
30
0
41
1
10
56.8239603716995
20
18.1504265803844
30
0
41
1
10
56.8254681620046
20
18.1390719442951
30
0
41
1
10
56.8276891414495
20
18.1247560114728
30
0
41
1
10
56.8301041148451
20
18.1105215088072
30
0
41
1
10
56.8375451430439
20
18.071451385015
30
0
41
1
10
56.8542891332752
20
18.0065888308754
30
0
41
1
10
56.8869021782423
20
17.9204013868925
30
0
41
1
10
56.9221542535301
20
17.8519675776462
30
0
41
1
10
56.9534881543418
20
17.8018366182582
30
0
41
1
10
56.969595885554
20
17.778689470647
30
0
41
1
10
56.9791692216705
20
17.7656671198185
30
0
41
1
10
56.9821091585246
20
17.7617122967248
30
0
41
1
10
56.9894247311707
20
17.7520225751789
30
0
41
1
10
56.9981889088174
20
17.7408526275975
30
0
41
1
10
57.0085096396355
20
17.7282849903691
30
0
41
1
10
57.0190300557815
20
17.7158537805511
30
0
41
1
10
57.0325487362023
20
17.7005788496305
30
0
41
1
10
57.054937367777
20
17.6767376615243
30
0
41
1
10
57.0842958021718
20
17.6481249811108
30
0
41
1
10
57.1215621616855
20
17.6159038190642
30
0
41
1
10
57.1541809984446
20
17.5909912018163
30
0
41
1
10
57.181094293614
20
17.5722806375951
30
0
41
1
10
57.2016584037382
20
17.5588716089435
30
0
41
1
10
57.2225716784752
20
17.5461006045318
30
0
41
1
10
57.2438041436911
20
17.5339817540856
30
0
41
1
10
57.2653258252516
20
17.5225291873306
30
0
41
1
10
57.2816615180801
20
17.514450072327
30
0
41
1
10
57.2926236262396
20
17.5092810403901
30
0
41
1
10
57.309108312324
20
17.5016576735146
30
0
41
1
10
57.3368498553043
20
17.4898196301951
30
0
41
1
10
57.3930285660654
20
17.4691725498856
30
0
41
1
10
57.4670358820614
20
17.4487844578174
30
0
41
1
10
57.5577926232755
20
17.4346790222168
30
0
41
1
10
57.6244722397035
20
17.4317227529954
30
0
41
1
10
57.6676883371843
20
17.4326133147978
30
0
41
1
10
57.6892284155512
20
17.433641120173
30
0
41
1
10
57.7042455538707
20
17.4348029377744
30
0
41
1
10
57.7120676119945
20
17.4354665531955
30
0
41
1
10
57.7125287037042
20
17.4355058589152
30
0
0
SPLINE
5
393
100
AcDbEntity
8
1
62
256
6
ByLayer
370
18
48
1
60
0
100
AcDbSpline
70
4
71
3
72
41
73
37
40
0
40
0
40
0
40
0
40
0.0078125
40
0.01171875
40
0.013671875
40
0.015625
40
0.03125
40
0.0625
40
0.09375
40
0.125
40
0.1328125
40
0.140625
40
0.15625
40
0.1875
40
0.25
40
0.3125
40
0.375
40
0.4375
40
0.46875
40
0.4765625
40
0.484375
40
0.5
40
0.5625
40
0.625
40
0.6875
40
0.71875
40
0.734375
40
0.7421875
40
0.75
40
0.78125
40
0.8125
40
0.875
40
0.90625
40
0.921875
40
0.9375
40
1
40
1
40
1
40
1
41
1
10
66.1422672722613
20
24.5324727366897
30
0
41
1
10
66.148580148824
20
24.5331362467531
30
0
41
1
10
66.1585192557098
20
24.5341808889816
30
0
41
1
10
66.1689109466659
20
24.5352730997126
30
0
41
1
10
66.1744164564431
20
24.5358517521075
30
0
41
1
10
66.1883710429885
20
24.5373184382548
30
0
41
1
10
66.2231863332771
20
24.5409776727162
30
0
41
1
10
66.2789423023027
20
24.5468378612021
30
0
41
1
10
66.3458337929287
20
24.5538684401702
30
0
41
1
10
66.3960081470679
20
24.5591419772919
30
0
41
1
10
66.4294365652264
20
24.5626554456186
30
0
41
1
10
66.4516755441723
20
24.5649928564937
30
0
41
1
10
66.4904706128989
20
24.5690703825244
30
0
41
1
10
66.5705314388857
20
24.5774851144145
30
0
41
1
10
66.6898568314219
20
24.5900267185447
30
0
41
1
10
66.8392908204536
20
24.6057328636846
30
0
41
1
10
66.9924067975255
20
24.6218260013617
30
0
41
1
10
67.1210114521397
20
24.6353428952365
30
0
41
1
10
67.204136231327
20
24.6440796615847
30
0
41
1
10
67.2422455333738
20
24.6480851106328
30
0
41
1
10
67.2678099593096
20
24.6507720400708
30
0
41
1
10
67.3386676126232
20
24.658219479535
30
0
41
1
10
67.4543473554928
20
24.670377910445
30
0
41
1
10
67.6086786278975
20
24.6865987808087
30
0
41
1
10
67.7372822930122
20
24.700115570683
30
0
41
1
10
67.8273212630929
20
24.7095790477774
30
0
41
1
10
67.8723152186296
20
24.7143081030657
30
0
41
1
10
67.8980675742564
20
24.7170147847102
30
0
41
1
10
67.9365729919622
20
24.7210618671917
30
0
41
1
10
67.9942323213859
20
24.7271221069167
30
0
41
1
10
68.0965392235817
20
24.7378749956343
30
0
41
1
10
68.1978273895845
20
24.7485208108636
30
0
41
1
10
68.2844775533827
20
24.7576281100652
30
0
41
1
10
68.33330930208
20
24.7627605336687
30
0
41
1
10
68.4057294479601
20
24.7703721977193
30
0
41
1
10
68.4662942196596
20
24.7767378117328
30
0
41
1
10
68.5146816419792
20
24.7818235347522
30
0
0
SPLINE
5
394
100
AcDbEntity
8
1
62
256
6
ByLayer
370
18
48
1
60
0
100
AcDbSpline
70
4
71
3
72
45
73
41
40
0
40
0
40
0
40
0
40
0.0011565097570702
40
0.0196321945810447
40
0.028870036993032
40
0.0381078794050192
40
0.0565835642289938
40
0.130486303524892
40
0.20438904282079
40
0.278291782116688
40
0.310624230558644
40
0.340935900972977
40
0.342956679000599
40
0.347575600206593
40
0.352194521412586
40
0.370670206236561
40
0.379908048648548
40
0.389145891060535
40
0.40762157588451
40
0.426097260708484
40
0.463048630356433
40
0.500000000004383
40
0.536951369652332
40
0.555427054476305
40
0.573902739300281
40
0.592378424124255
40
0.61085410894823
40
0.629329793772205
40
0.647805478596179
40
0.652424399802172
40
0.657043321008166
40
0.689375769450122
40
0.721708217892077
40
0.795610957187975
40
0.869513696483873
40
0.943416435779771
40
0.961892120603746
40
0.980367805427721
40
0.998843490251695
40
1
40
1
40
1
40
1
41
1
10
68.3425734225075
20
18.5527685799248
30
0
41
1
10
68.3430326103789
20
18.5528259994868
30
0
41
1
10
68.3508217111732
20
18.5538031829855
30
0
41
1
10
68.3621328902502
20
18.5553076066167
30
0
41
1
10
68.3763937788196
20
18.5575255368817
30
0
41
1
10
68.3905733865397
20
18.5599382505083
30
0
41
1
10
68.4294921934575
20
18.567376112265
30
0
41
1
10
68.4941000573519
20
18.5841312517057
30
0
41
1
10
68.5799408610555
20
18.6167978372147
30
0
41
1
10
68.6480920169394
20
18.6521273867563
30
0
41
1
10
68.6980115518043
20
18.683538629733
30
0
41
1
10
68.721059777766
20
18.699688199635
30
0
41
1
10
68.7340260709884
20
18.7092869842205
30
0
41
1
10
68.7379638438549
20
18.712234771318
30
0
41
1
10
68.7476117014801
20
18.7195699979477
30
0
41
1
10
68.7587331274801
20
18.7283580689826
30
0
41
1
10
68.7712458070979
20
18.7387074013692
30
0
41
1
10
68.7836224088002
20
18.7492572733557
30
0
41
1
10
68.7988297706514
20
18.7628143585481
30
0
41
1
10
68.8225644751672
20
18.7852677473953
30
0
41
1
10
68.8510473877448
20
18.8147131996403
30
0
41
1
10
68.8831190827926
20
18.8520932647909
30
0
41
1
10
68.9079131193469
20
18.8848142349291
30
0
41
1
10
68.9265327094984
20
18.9118132608159
30
0
41
1
10
68.9398755291908
20
18.9324435801863
30
0
41
1
10
68.9525824225869
20
18.953424874579
30
0
41
1
10
68.9646393363116
20
18.9747270690615
30
0
41
1
10
68.9760322169898
20
18.9963200887007
30
0
41
1
10
68.984068312682
20
19.012710416098
30
0
41
1
10
68.9892094161236
20
19.023709387058
30
0
41
1
10
68.9967913418732
20
19.0402496256896
30
0
41
1
10
69.0085633340303
20
19.0680854418497
30
0
41
1
10
69.0290890345345
20
19.1244576992151
30
0
41
1
10
69.0493425784086
20
19.1987253841165
30
0
41
1
10
69.0633235728901
20
19.2898100589836
30
0
41
1
10
69.0662159834596
20
19.3567364820127
30
0
41
1
10
69.0652944798759
20
19.4001147633965
30
0
41
1
10
69.0642534256376
20
19.4217361414964
30
0
41
1
10
69.0630840285551
20
19.4368103126568
30
0
41
1
10
69.0624166827308
20
19.4446621241198
30
0
41
1
10
69.0623771578094
20
19.4451249698662
30
0
0
SPLINE
5
395
100
AcDbEntity
8
1
62
256
6
ByLayer
370
18
48
1
60
0
100
AcDbSpline
70
4
71
1
72
4
73
2
40
0
40
0
40
1
40
1
41
1
10
67.9408508222745
20
30.1157752512203
30
0
41
1
10
68.0429257717594
20
29.2693815658962
30
0
0
SPLINE
5
396
100
AcDbEntity
8
1
62
256
6
ByLayer
370
18
48
1
60
0
100
AcDbSpline
70
4
71
3
72
42
73
38
40
0
40
0
40
0
40
0
40
0.258003694988868
40
0.516007389977736
40
0.645009237472171
40
0.709510161219388
40
0.741760623092996
40
0.749823238561398
40
0.7578858540298
40
0.765444556031427
40
0.769223907032241
40
0.773003258033054
40
0.773507171499829
40
0.774011084966605
40
0.776026738833705
40
0.778042392700806
40
0.782073700435007
40
0.790136315903409
40
0.806261546840213
40
0.838512008713822
40
0.87076247058743
40
0.903012932461039
40
0.911075547929441
40
0.915106855663642
40
0.919138163397843
40
0.923169471132044
40
0.927200778866245
40
0.931232086600446
40
0.935263394334647
40
0.951388625271452
40
0.967513856208256
40
0.98363908714506
40
0.990693875679912
40
0.997748664214764
40
0.998756491148314
40
0.999764318081864
40
1
40
1
40
1
40
1
41
1
10
66.1422672722613
20
24.5324727366897
30
0
41
1
10
66.1753488734518
20
24.217722326234
30
0
41
1
10
66.2415120758328
20
23.5882215053228
30
0
41
1
10
66.3242160788089
20
22.8013454791837
30
0
41
1
10
66.3821088808923
20
22.2505322608864
30
0
41
1
10
66.411055281934
20
21.9751256517378
30
0
41
1
10
66.4244946824176
20
21.8472582974902
30
0
41
1
10
66.4306974826409
20
21.7882425955298
30
0
41
1
10
66.4337342702501
20
21.7593494914451
30
0
41
1
10
66.4362218515897
20
21.7356817359713
30
0
41
1
10
66.4381602266594
20
21.7172393291087
30
0
41
1
10
66.4391940266966
20
21.7074033787819
30
0
41
1
10
66.4398078454687
20
21.7015632832754
30
0
41
1
10
66.4401955204826
20
21.6978748019029
30
0
41
1
10
66.4407770330035
20
21.6923420798441
30
0
41
1
10
66.4418108330408
20
21.6825061295174
30
0
41
1
10
66.4436199831059
20
21.6652932164456
30
0
41
1
10
66.4472382832361
20
21.630867390302
30
0
41
1
10
66.4544748834966
20
21.5620157380148
30
0
41
1
10
66.4648128838686
20
21.4636562347474
30
0
41
1
10
66.477218484315
20
21.3456248308265
30
0
41
1
10
66.4865226846499
20
21.2571012778859
30
0
41
1
10
66.4922085848544
20
21.2030035510888
30
0
41
1
10
66.4942761849288
20
21.1833316504354
30
0
41
1
10
66.4958268849846
20
21.1685777249453
30
0
41
1
10
66.4973775850405
20
21.1538237994552
30
0
41
1
10
66.4989282850963
20
21.1390698739651
30
0
41
1
10
66.5004789851521
20
21.124315948475
30
0
41
1
10
66.5035803852637
20
21.0948080974948
30
0
41
1
10
66.5082324854311
20
21.0505463210244
30
0
41
1
10
66.5144352856543
20
20.9915306190641
30
0
41
1
10
66.5194750608357
20
20.9435803612212
30
0
41
1
10
66.5233518109752
20
20.9066955474959
30
0
41
1
10
66.5253075450661
20
20.8882270788215
30
0
41
1
10
66.5264928888496
20
20.8771281266602
30
0
41
1
10
66.5267687556075
20
20.8744008412696
30
0
41
1
10
66.5269083764227
20
20.8729135904924
30
0
41
1
10
66.5269343617154
20
20.8726323781611
30
0
0
SPLINE
5
397
100
AcDbEntity
8
1
62
256
6
ByLayer
370
18
48
1
60
0
100
AcDbSpline
70
4
71
1
72
4
73
2
40
0
40
0
40
1
40
1
41
1
10
58.5584295438785
20
17.5112439034089
30
0
41
1
10
57.7125290607085
20
17.4355016783123
30
0
0
SPLINE
5
398
100
AcDbEntity
8
1
62
256
6
ByLayer
370
18
48
1
60
0
100
AcDbSpline
70
4
71
1
72
4
73
2
40
0
40
0
40
1
40
1
41
1
10
55.7775192733112
20
27.9802346671719
30
0
41
1
10
55.7013884333268
20
28.8293559167669
30
0
0
SPLINE
5
399
100
AcDbEntity
8
1
62
256
6
ByLayer
370
18
48
1
60
0
100
AcDbSpline
70
4
71
3
72
21
73
17
40
0
40
0
40
0
40
0
40
0.0592792738437517
40
0.122239377580352
40
0.185199481316951
40
0.248159585053553
40
0.311119688790156
40
0.374079792526754
40
0.499999999999955
40
0.625920207473156
40
0.751840414946357
40
0.814800518682958
40
0.877760622419558
40
0.909240674287859
40
0.940720726156159
40
1
40
1
40
1
40
1
41
1
10
65.5933124245711
20
28.3258743443757
30
0
41
1
10
65.5978241234191
20
28.3262908077932
30
0
41
1
10
65.606773027934
20
28.3268938025856
30
0
41
1
10
65.6198079735728
20
28.3264965186124
30
0
41
1
10
65.6340907202289
20
28.324737223551
30
0
41
1
10
65.648736821501
20
28.3215243250518
30
0
41
1
10
65.6631208998428
20
28.3167583347679
30
0
41
1
10
65.681757993883
20
28.3083595448794
30
0
41
1
10
65.7036781297007
20
28.2940782763179
30
0
41
1
10
65.7258449225756
20
28.271811566085
30
0
41
1
10
65.7397844681256
20
28.2504054346487
30
0
41
1
10
65.7480185750721
20
28.2321201170398
30
0
41
1
10
65.7519216808254
20
28.2207372760333
30
0
41
1
10
65.7542816944958
20
28.2119756853419
30
0
41
1
10
65.7561273813927
20
28.2034480972524
30
0
41
1
10
65.7570726019314
20
28.1968305163094
30
0
41
1
10
65.7576048658274
20
28.1923135874234
30
0
0
SPLINE
5
39A
100
AcDbEntity
8
1
62
256
6
ByLayer
370
18
48
1
60
0
100
AcDbSpline
70
4
71
3
72
21
73
17
40
0
40
0
40
0
40
0
40
0.0001096836879336
40
0.0027068013926403
40
0.0033560808188172
40
0.0040053602449936
40
0.0088749559413182
40
0.0137445516376436
40
0.0234837430302936
40
0.0338722138491204
40
0.0442606846679469
40
0.0858145679432536
40
0.168922334493867
40
0.335137867595094
40
0.667568933797547
40
1
40
1
40
1
40
1
41
1
10
55.7775218860726
20
27.9802349078806
30
0
41
1
10
55.7775370367623
20
27.9800706309777
30
0
41
1
10
55.7779116154686
20
27.9760166316203
30
0
41
1
10
55.7783981048455
20
27.9709923564847
30
0
41
1
10
55.7790000811418
20
27.9651639394266
30
0
41
1
10
55.779965138097
20
27.9559367871029
30
0
41
1
10
55.7815923031422
20
27.9403965055146
30
0
41
1
10
55.7846485844543
20
27.9112590254085
30
0
41
1
10
55.7885798944671
20
27.8738668538127
30
0
41
1
10
55.7933903606123
20
27.8282204018793
30
0
41
1
10
55.803219227626
20
27.7349854227572
30
0
41
1
10
55.8244221772011
20
27.5329668902782
30
0
41
1
10
55.8701744512615
20
27.0978585966458
30
0
41
1
10
55.9616247775876
20
26.2276365182624
30
0
41
1
10
56.0922928880169
20
24.9844646307976
30
0
41
1
10
56.1968230386167
20
23.9899266815362
30
0
41
1
10
56.2490881139166
20
23.4926577069056
30
0
0
SPLINE
5
39B
100
AcDbEntity
8
1
62
256
6
ByLayer
370
18
48
1
60
0
100
AcDbSpline
70
4
71
3
72
42
73
38
40
0
40
0
40
0
40
0
40
0.258003694988866
40
0.516007389977731
40
0.645009237472164
40
0.70951016121938
40
0.741760623092988
40
0.74982323856139
40
0.757885854029793
40
0.76544455603142
40
0.769223907032233
40
0.773003258033046
40
0.773507171499821
40
0.774011084966597
40
0.776026738833697
40
0.778042392700798
40
0.782073700434999
40
0.790136315903401
40
0.806261546840205
40
0.838512008713813
40
0.870762470587421
40
0.903012932461029
40
0.911075547929431
40
0.915106855663633
40
0.919138163397834
40
0.923169471132034
40
0.927200778866236
40
0.931232086600437
40
0.935263394334638
40
0.951388625271442
40
0.967513856208246
40
0.98363908714505
40
0.990693875679902
40
0.997748664214754
40
0.998756491148304
40
0.999764318081854
40
1
40
1
40
1
40
1
41
1
10
61.9473988654194
20
27.9426710114767
30
0
41
1
10
62.2609515555374
20
27.975626727187
30
0
41
1
10
62.8880569357736
20
28.0415381586078
30
0
41
1
10
63.6719386610688
20
28.1239274478836
30
0
41
1
10
64.2206558687755
20
28.1815999503767
30
0
41
1
10
64.4950144726288
20
28.2104362016233
30
0
41
1
10
64.6223952529892
20
28.2238244611307
30
0
41
1
10
64.6811863823864
20
28.2300036578264
30
0
41
1
10
64.7099695394871
20
28.233028889542
30
0
41
1
10
64.7335472320057
20
28.2355070048834
30
0
41
1
10
64.7519194599423
20
28.2374380038508
30
0
41
1
10
64.7617179815085
20
28.2384678699668
30
0
41
1
10
64.7675358536885
20
28.2390793529731
30
0
41
1
10
64.7712102992758
20
28.2394655527667
30
0
41
1
10
64.7767219676567
20
28.2400448524569
30
0
41
1
10
64.7865204892229
20
28.2410747185728
30
0
41
1
10
64.8036679019638
20
28.2428769842757
30
0
41
1
10
64.8379627274454
20
28.2464815156815
30
0
41
1
10
64.9065523784088
20
28.2536905784932
30
0
41
1
10
65.0045375940707
20
28.2639892396527
30
0
41
1
10
65.122119852865
20
28.276347633044
30
0
41
1
10
65.2103065469606
20
28.2856164280876
30
0
41
1
10
65.2641984155747
20
28.2912806917253
30
0
41
1
10
65.2837954587071
20
28.2933404239572
30
0
41
1
10
65.2984932410563
20
28.2948852231311
30
0
41
1
10
65.3131910234057
20
28.296430022305
30
0
41
1
10
65.3278888057549
20
28.297974821479
30
0
41
1
10
65.3425865881042
20
28.2995196206529
30
0
41
1
10
65.3719821528028
20
28.3026092190007
30
0
41
1
10
65.4160754998506
20
28.3072436165224
30
0
41
1
10
65.4748666292478
20
28.3134228132182
30
0
41
1
10
65.522634421883
20
28.3184434105334
30
0
41
1
10
65.5593788777562
20
28.3223054084682
30
0
41
1
10
65.5777770567427
20
28.3242538106606
30
0
41
1
10
65.5888337591403
20
28.325434785616
30
0
41
1
10
65.5915506749337
20
28.3257095212981
30
0
41
1
10
65.5930322795068
20
28.3258484848991
30
0
41
1
10
65.5933124245711
20
28.3258743443757
30
0
0
SPLINE
5
39C
100
AcDbEntity
8
1
62
256
6
ByLayer
370
18
48
1
60
0
100
AcDbSpline
70
4
71
3
72
21
73
17
40
0
40
0
40
0
40
0
40
0.0592792738438917
40
0.122239377580468
40
0.185199481317043
40
0.248159585053621
40
0.311119688790199
40
0.374079792526773
40
0.499999999999926
40
0.625920207473078
40
0.751840414946231
40
0.814800518682807
40
0.877760622419384
40
0.909240674287672
40
0.94072072615596
40
1
40
1
40
1
40
1
41
1
10
66.5269343617154
20
20.8726323781611
30
0
41
1
10
66.5273528513847
20
20.868103491122
30
0
41
1
10
66.5279606954357
20
20.8591206708322
30
0
41
1
10
66.5275752226611
20
20.8460373347277
30
0
41
1
10
66.5258337972913
20
20.8317026148037
30
0
41
1
10
66.5226444668018
20
20.8170043348198
30
0
41
1
10
66.5179076174169
20
20.8025702879224
30
0
41
1
10
66.5095548609355
20
20.7838702134723
30
0
41
1
10
66.4953441226913
20
20.7618794929913
30
0
41
1
10
66.4731778600142
20
20.7396475236957
30
0
41
1
10
66.4518624515131
20
20.7256728608683
30
0
41
1
10
66.433651718633
20
20.7174224813513
30
0
41
1
10
66.4223143383309
20
20.7135138144761
30
0
41
1
10
66.4135872289063
20
20.7111519276772
30
0
41
1
10
66.4050928434332
20
20.7093061039574
30
0
41
1
10
66.3985006423033
20
20.7083625971893
30
0
41
1
10
66.3940009472867
20
20.7078319249459
30
0
0
SPLINE
5
39D
100
AcDbEntity
8
1
62
256
6
ByLayer
370
18
48
1
60
0
100
AcDbSpline
70
4
71
3
72
21
73
17
40
0
40
0
40
0
40
0
40
0.059279273843897
40
0.122239377580483
40
0.185199481317067
40
0.248159585053654
40
0.311119688790242
40
0.374079792526826
40
0.499999999999997
40
0.625920207473169
40
0.75184041494634
40
0.814800518682926
40
0.877760622419512
40
0.909240674287805
40
0.940720726156098
40
1
40
1
40
1
40
1
41
1
10
58.1685513977534
20
27.3946719262711
30
0
41
1
10
58.1681329080843
20
27.3992008133104
30
0
41
1
10
58.1675250640332
20
27.4081836336002
30
0
41
1
10
58.1679105368078
20
27.4212669697047
30
0
41
1
10
58.1696519621776
20
27.4356016896286
30
0
41
1
10
58.1728412926671
20
27.4502999696126
30
0
41
1
10
58.177578142052
20
27.46473401651
30
0
41
1
10
58.1859308985334
20
27.4834340909601
30
0
41
1
10
58.2001416367776
20
27.5054248114411
30
0
41
1
10
58.2223078994547
20
27.5276567807367
30
0
41
1
10
58.2436233079558
20
27.5416314435641
30
0
41
1
10
58.2618340408359
20
27.549881823081
30
0
41
1
10
58.2731714211381
20
27.5537904899562
30
0
41
1
10
58.2818985305627
20
27.5561523767551
30
0
41
1
10
58.2903929160357
20
27.557998200475
30
0
41
1
10
58.2969851171657
20
27.5589417072431
30
0
41
1
10
58.3014848121823
20
27.5594723794865
30
0
0
SPLINE
5
39E
100
AcDbEntity
8
1
62
256
6
ByLayer
370
18
48
1
60
0
100
AcDbSpline
70
4
71
3
72
45
73
41
40
0
40
0
40
0
40
0
40
0.0011565097570586
40
0.0196321945810322
40
0.028870036993019
40
0.0381078794050058
40
0.0565835642289795
40
0.130486303524874
40
0.204389042820768
40
0.278291782116663
40
0.310624230558617
40
0.340935900972949
40
0.342956679000571
40
0.347575600206564
40
0.352194521412557
40
0.370670206236531
40
0.379908048648518
40
0.389145891060505
40
0.407621575884478
40
0.426097260708452
40
0.463048630356399
40
0.500000000004346
40
0.536951369652294
40
0.555427054476266
40
0.573902739300241
40
0.592378424124215
40
0.610854108948188
40
0.629329793772162
40
0.647805478596135
40
0.652424399802128
40
0.657043321008122
40
0.689375769450077
40
0.72170821789203
40
0.795610957187924
40
0.869513696483819
40
0.943416435779713
40
0.961892120603687
40
0.980367805427661
40
0.998843490251635
40
1
40
1
40
1
40
1
41
1
10
67.9408466747122
20
30.115774732574
30
0
41
1
10
67.9407891048771
20
30.1162356817272
30
0
41
1
10
67.9398093841965
20
30.1240546612732
30
0
41
1
10
67.9383015938913
20
30.1354092973626
30
0
41
1
10
67.9360806144464
20
30.1497252301849
30
0
41
1
10
67.9336656410508
20
30.1639597328506
30
0
41
1
10
67.926224612852
20
30.2030298566426
30
0
41
1
10
67.9094806226207
20
30.2678924107822
30
0
41
1
10
67.8768675776537
20
30.3540798547651
30
0
41
1
10
67.8416155023658
20
30.4225136640115
30
0
41
1
10
67.8102816015542
20
30.4726446233995
30
0
41
1
10
67.7941738703419
20
30.4957917710107
30
0
41
1
10
67.7846005342254
20
30.5088141218391
30
0
41
1
10
67.7816605973712
20
30.5127689449329
30
0
41
1
10
67.7743450247251
20
30.5224586664788
30
0
41
1
10
67.7655808470786
20
30.5336286140601
30
0
41
1
10
67.7552601162604
20
30.5461962512886
30
0
41
1
10
67.7447397001145
20
30.5586274611065
30
0
41
1
10
67.7312210196935
20
30.5739023920272
30
0
41
1
10
67.7088323881189
20
30.5977435801334
30
0
41
1
10
67.679473953724
20
30.626356260547
30
0
41
1
10
67.6422075942105
20
30.6585774225936
30
0
41
1
10
67.6095887574513
20
30.6834900398414
30
0
41
1
10
67.5826754622819
20
30.7022006040626
30
0
41
1
10
67.5621113521577
20
30.7156096327142
30
0
41
1
10
67.5411980774207
20
30.728380637126
30
0
41
1
10
67.5199656122049
20
30.7404994875722
30
0
41
1
10
67.4984439306443
20
30.751952054327
30
0
41
1
10
67.4821082378157
20
30.7600311693307
30
0
41
1
10
67.4711461296563
20
30.7652002012677
30
0
41
1
10
67.4546614435719
20
30.7728235681432
30
0
41
1
10
67.4269199005917
20
30.7846616114625
30
0
41
1
10
67.3707411898305
20
30.8053086917722
30
0
41
1
10
67.2967338738345
20
30.8256967838404
30
0
41
1
10
67.2059771326203
20
30.839802219441
30
0
41
1
10
67.1392975161924
20
30.8427584886623
30
0
41
1
10
67.0960814187117
20
30.8418679268599
30
0
41
1
10
67.0745413403447
20
30.8408401214847
30
0
41
1
10
67.0595242020252
20
30.8396783038833
30
0
41
1
10
67.0517021439014
20
30.8390146884622
30
0
41
1
10
67.0512410521919
20
30.8389753827424
30
0
0
SPLINE
5
39F
100
AcDbEntity
8
1
62
256
6
ByLayer
370
18
48
1
60
0
100
AcDbSpline
70
4
71
1
72
4
73
2
40
0
40
0
40
1
40
1
41
1
10
56.4211958133848
20
29.7217168252038
30
0
41
1
10
57.2643583189256
20
29.8235022626617
30
0
0
SPLINE
5
3A0
100
AcDbEntity
8
1
62
256
6
ByLayer
370
18
48
1
60
0
100
AcDbSpline
70
4
71
3
72
14
73
10
40
0
40
0
40
0
40
0
40
0.123716125021416
40
0.123716125021416
40
0.6145215304253
40
0.6145215304253
40
0.930668043503642
40
0.930668043503642
40
1
40
1
40
1
40
1
41
1
10
56.3960048504799
20
20.4211126830769
30
0
41
1
10
56.3844862487969
20
20.408274148056
30
0
41
1
10
56.3733418263184
20
20.395643874552
30
0
41
1
10
56.3204388982097
20
20.3348961737054
30
0
41
1
10
56.283788253042
20
20.2900296518173
30
0
41
1
10
56.2380170966978
20
20.2362241619605
30
0
41
1
10
56.2234938494928
20
20.2200334660089
30
0
41
1
10
56.2117501432713
20
20.2099413757228
30
0
41
1
10
56.2098567024721
20
20.2084885350416
30
0
41
1
10
56.208202339907
20
20.2074232819344
30
0
0
SPLINE
5
3A1
100
AcDbEntity
8
1
62
256
6
ByLayer
370
18
48
1
60
0
100
AcDbSpline
70
4
71
2
72
6
73
3
40
0
40
0
40
0
40
1
40
1
40
1
41
0.499320020008479
10
67.638126250199
20
18.1014924656155
30
0
41
0.500679979991521
10
67.9099903246465
20
18.1061419795859
30
0
41
0.499320020008479
10
68.1818584368564
20
18.1107916814801
30
0
0
SPLINE
5
3A2
100
AcDbEntity
8
1
62
256
6
ByLayer
370
18
48
1
60
0
100
AcDbSpline
70
4
71
3
72
12
73
8
40
0
40
0
40
0
40
0
40
0.198037621888094
40
0.198037621888094
40
0.443598583190911
40
0.443598583190911
40
1
40
1
40
1
40
1
41
1
10
59.3439253233725
20
17.2297368200615
30
0
41
1
10
59.3493763842219
20
17.2312145024022
30
0
41
1
10
59.3612281456457
20
17.237972877423
30
0
41
1
10
59.3978753081304
20
17.2626457730528
30
0
41
1
10
59.4253219352129
20
17.2830380882946
30
0
41
1
10
59.5230408829054
20
17.3625291498743
30
0
41
1
10
59.6055723938832
20
17.4397842988407
30
0
41
1
10
59.683379713572
20
17.5290453975249
30
0
0
SPLINE
5
3A3
100
AcDbEntity
8
1
62
256
6
ByLayer
370
18
48
1
60
0
100
AcDbSpline
70
4
71
3
72
22
73
18
40
0
40
0
40
0
40
0
40
0.247648061031947
40
0.247648061031947
40
0.4996308530983
40
0.4996308530983
40
0.55493752473199
40
0.55493752473199
40
0.599939125431354
40
0.599939125431354
40
0.64535633140479
40
0.64535633140479
40
0.69579626347131
40
0.69579626347131
40
0.780049574066925
40
0.780049574066925
40
1
40
1
40
1
40
1
41
1
10
69.1198996418814
20
-10.4815680881853
30
0
41
1
10
69.1211378405333
20
-10.4717859706609
30
0
41
1
10
69.1223652472107
20
-10.46186930797
30
0
41
1
10
69.124720646126
20
-10.4415772766358
30
0
41
1
10
69.1259365993676
20
-10.4308199515408
30
0
41
1
10
69.1268849153748
20
-10.4181574193186
30
0
41
1
10
69.1270326197171
20
-10.4158399519425
30
0
41
1
10
69.1271961010667
20
-10.4119455769272
30
0
41
1
10
69.1272309979126
20
-10.4102818022582
30
0
41
1
10
69.1271871647721
20
-10.4074690657176
30
0
41
1
10
69.1271052763414
20
-10.4062961163545
30
0
41
1
10
69.1268259734393
20
-10.4045337998576
30
0
41
1
10
69.1266152140856
20
-10.4039824506926
30
0
41
1
10
69.1259710869845
20
-10.4032695879096
30
0
41
1
10
69.1254756646499
20
-10.4035507978122
30
0
41
1
10
69.1236050761969
20
-10.4057108177615
30
0
41
1
10
69.1220455068267
20
-10.4093003267802
30
0
41
1
10
69.1204590785942
20
-10.4132832130082
30
0
0
SPLINE
5
3A4
100
AcDbEntity
8
1
62
256
6
ByLayer
370
18
48
1
60
0
100
AcDbSpline
70
4
71
3
72
8
73
4
40
0
40
0
40
0
40
0
40
1
40
1
40
1
40
1
41
1
10
69.0476722515966
20
-11.0424495591258
30
0
41
1
10
69.0723471147546
20
-10.8544718780073
30
0
41
1
10
69.0962882681993
20
-10.6681045795205
30
0
41
1
10
69.1198996418685
20
-10.481568088155
30
0
0
SPLINE
5
3A5
100
AcDbEntity
8
1
62
256
6
ByLayer
370
18
48
1
60
0
100
AcDbSpline
70
4
71
3
72
12
73
8
40
0
40
0
40
0
40
0
40
0.428408370807953
40
0.428408370807953
40
0.853493920359811
40
0.853493920359811
40
1
40
1
40
1
40
1
41
1
10
69.1204590785942
20
-10.4132832130089
30
0
41
1
10
69.1149650873685
20
-10.4270764256747
30
0
41
1
10
69.1084165066774
20
-10.436026622161
30
0
41
1
10
69.0924678234902
20
-10.4423184548813
30
0
41
1
10
69.0828873058236
20
-10.4401116128569
30
0
41
1
10
69.0678886835428
20
-10.4331293027518
30
0
41
1
10
69.0638508184151
20
-10.4310221025883
30
0
41
1
10
69.0596098917565
20
-10.4286410980545
30
0
0
SPLINE
5
3A6
100
AcDbEntity
8
1
62
256
6
ByLayer
370
18
48
1
60
0
100
AcDbSpline
70
4
71
3
72
8
73
4
40
0
40
0
40
0
40
0
40
1
40
1
40
1
40
1
41
1
10
69.0264322740406
20
-11.2027908024276
30
0
41
1
10
69.0335202057179
20
-11.1496691593671
30
0
41
1
10
69.0406283918751
20
-11.0961109880887
30
0
41
1
10
69.0476722515963
20
-11.0424495591266
30
0
0
SPLINE
5
3A7
100
AcDbEntity
8
1
62
256
6
ByLayer
370
18
48
1
60
0
100
AcDbSpline
70
4
71
3
72
8
73
4
40
0
40
0
40
0
40
0
40
1
40
1
40
1
40
1
41
1
10
69.0249894535777
20
-11.213600941394
30
0
41
1
10
69.025470539882
20
-11.2099975703296
30
0
41
1
10
69.0259514799992
20
-11.2063941906396
30
0
41
1
10
69.0264322740441
20
-11.2027908024014
30
0
0
LINE
5
70
100
AcDbEntity
8
SK1
62
256
6
ByLayer
370
18
48
1
60
0
100
AcDbLine
10
-0.194914
20
17.365174
30
0
11
-0.194914
21
5.108839
31
0
39
0
210
0
220
0
230
1
0
LINE
5
72
100
AcDbEntity
8
SK1
62
256
6
ByLayer
370
18
48
1
60
0
100
AcDbLine
10
-1.794977
20
17.324989
30
0
11
-1.794977
21
-17.324989
31
0
39
0
210
0
220
0
230
1
0
LINE
5
73
100
AcDbEntity
8
SK1
62
256
6
ByLayer
370
18
48
1
60
0
100
AcDbLine
10
-1.307107
20
-3.91807
30
0
11
-1.307107
21
3.91807
31
0
39
0
210
0
220
0
230
1
0
LINE
5
74
100
AcDbEntity
8
SK1
62
256
6
ByLayer
370
18
48
1
60
0
100
AcDbLine
10
-1.999937
20
17.519835
30
0
11
-1.999937
21
-17.519835
31
0
39
0
210
0
220
0
230
1
0
LINE
5
75
100
AcDbEntity
8
1
62
256
6
ByLayer
370
18
48
1
60
0
100
AcDbLine
10
0
20
-24.69
30
0
11
0
21
24.69
31
0
39
0
210
0
220
0
230
1
0
LINE
5
77
100
AcDbEntity
8
SK1
62
256
6
ByLayer
370
18
48
1
60
0
100
AcDbLine
10
-30
20
15.991832
30
0
11
-30
21
-15.991828
31
0
39
0
210
0
220
0
230
1
0
LINE
5
78
100
AcDbEntity
8
SK1
62
256
6
ByLayer
370
18
48
1
60
0
100
AcDbLine
10
-0.194914
20
-5.108839
30
0
11
-0.194914
21
-17.365174
31
0
39
0
210
0
220
0
230
1
0
LINE
5
79
100
AcDbEntity
8
SK1
62
256
6
ByLayer
370
18
48
1
60
0
100
AcDbLine
10
-28.5
20
-16.854292
30
0
11
-28.5
21
16.854292
31
0
39
0
210
0
220
0
230
1
0
LINE
5
7A
100
AcDbEntity
8
4
62
256
6
ByLayer
370
13
48
0.05
60
0
100
AcDbLine
10
0
20
0
30
0
11
68
21
0
31
0
39
0
210
0
220
0
230
1
0
LINE
5
7C
100
AcDbEntity
8
SK4
62
256
6
ByLayer
370
13
48
0.05
60
0
100
AcDbLine
10
-35.250231
20
2E-06
30
0
11
70.482904
21
2E-06
31
0
39
0
210
0
220
0
230
1
0
LINE
5
7E
100
AcDbEntity
8
SK1
62
256
6
ByLayer
370
18
48
1
60
0
100
AcDbLine
10
-30
20
-15.991828
30
0
11
-29.850912
21
-16.077895
31
0
39
0
210
0
220
0
230
1
0
LINE
5
7F
100
AcDbEntity
8
SK1
62
256
6
ByLayer
370
18
48
1
60
0
100
AcDbLine
10
-29.850912
20
-16.077895
30
0
11
-29.701824
21
-16.163962
31
0
39
0
210
0
220
0
230
1
0
LINE
5
80
100
AcDbEntity
8
SK1
62
256
6
ByLayer
370
18
48
1
60
0
100
AcDbLine
10
-29.701824
20
-16.163962
30
0
11
-29.552735
21
-16.250029
31
0
39
0
210
0
220
0
230
1
0
LINE
5
81
100
AcDbEntity
8
SK1
62
256
6
ByLayer
370
18
48
1
60
0
100
AcDbLine
10
-29.552735
20
-16.250029
30
0
11
-29.403647
21
-16.336095
31
0
39
0
210
0
220
0
230
1
0
LINE
5
82
100
AcDbEntity
8
SK1
62
256
6
ByLayer
370
18
48
1
60
0
100
AcDbLine
10
-29.403647
20
-16.336095
30
0
11
-29.254559
21
-16.422162
31
0
39
0
210
0
220
0
230
1
0
LINE
5
83
100
AcDbEntity
8
SK1
62
256
6
ByLayer
370
18
48
1
60
0
100
AcDbLine
10
-29.254559
20
-16.422162
30
0
11
-29.105471
21
-16.508229
31
0
39
0
210
0
220
0
230
1
0
LINE
5
84
100
AcDbEntity
8
SK1
62
256
6
ByLayer
370
18
48
1
60
0
100
AcDbLine
10
-29.105471
20
-16.508229
30
0
11
-28.956382
21
-16.594296
31
0
39
0
210
0
220
0
230
1
0
LINE
5
85
100
AcDbEntity
8
SK1
62
256
6
ByLayer
370
18
48
1
60
0
100
AcDbLine
10
-28.956382
20
-16.594296
30
0
11
-28.807294
21
-16.680363
31
0
39
0
210
0
220
0
230
1
0
LINE
5
86
100
AcDbEntity
8
SK1
62
256
6
ByLayer
370
18
48
1
60
0
100
AcDbLine
10
-28.807294
20
-16.680363
30
0
11
-28.658206
21
-16.76643
31
0
39
0
210
0
220
0
230
1
0
LINE
5
87
100
AcDbEntity
8
SK1
62
256
6
ByLayer
370
18
48
1
60
0
100
AcDbLine
10
-28.658206
20
-16.76643
30
0
11
-28.509118
21
-16.852497
31
0
39
0
210
0
220
0
230
1
0
LINE
5
88
100
AcDbEntity
8
SK1
62
256
6
ByLayer
370
18
48
1
60
0
100
AcDbLine
10
-30
20
15.991828
30
0
11
-29.85
21
16.078421
31
0
39
0
210
0
220
0
230
1
0
LINE
5
89
100
AcDbEntity
8
SK1
62
256
6
ByLayer
370
18
48
1
60
0
100
AcDbLine
10
-29.85
20
16.078421
30
0
11
-29.7
21
16.165015
31
0
39
0
210
0
220
0
230
1
0
LINE
5
8A
100
AcDbEntity
8
SK1
62
256
6
ByLayer
370
18
48
1
60
0
100
AcDbLine
10
-29.7
20
16.165015
30
0
11
-29.55
21
16.251608
31
0
39
0
210
0
220
0
230
1
0
LINE
5
8B
100
AcDbEntity
8
SK1
62
256
6
ByLayer
370
18
48
1
60
0
100
AcDbLine
10
-29.55
20
16.251608
30
0
11
-29.4
21
16.338201
31
0
39
0
210
0
220
0
230
1
0
LINE
5
8C
100
AcDbEntity
8
SK1
62
256
6
ByLayer
370
18
48
1
60
0
100
AcDbLine
10
-29.4
20
16.338201
30
0
11
-29.25
21
16.424794
31
0
39
0
210
0
220
0
230
1
0
LINE
5
8D
100
AcDbEntity
8
SK1
62
256
6
ByLayer
370
18
48
1
60
0
100
AcDbLine
10
-29.25
20
16.424794
30
0
11
-29.1
21
16.511387
31
0
39
0
210
0
220
0
230
1
0
LINE
5
8E
100
AcDbEntity
8
SK1
62
256
6
ByLayer
370
18
48
1
60
0
100
AcDbLine
10
-29.1
20
16.511387
30
0
11
-28.95
21
16.597981
31
0
39
0
210
0
220
0
230
1
0
LINE
5
8F
100
AcDbEntity
8
SK1
62
256
6
ByLayer
370
18
48
1
60
0
100
AcDbLine
10
-28.95
20
16.597981
30
0
11
-28.8
21
16.684574
31
0
39
0
210
0
220
0
230
1
0
LINE
5
90
100
AcDbEntity
8
SK1
62
256
6
ByLayer
370
18
48
1
60
0
100
AcDbLine
10
-28.8
20
16.684574
30
0
11
-28.65
21
16.771167
31
0
39
0
210
0
220
0
230
1
0
LINE
5
91
100
AcDbEntity
8
SK1
62
256
6
ByLayer
370
18
48
1
60
0
100
AcDbLine
10
-28.65
20
16.771167
30
0
11
-28.5
21
16.85776
31
0
39
0
210
0
220
0
230
1
0
LINE
5
92
100
AcDbEntity
8
SK1
62
256
6
ByLayer
370
18
48
1
60
0
100
AcDbLine
10
-28.5
20
16.854266
30
0
11
-25.849994
21
16.920823
31
0
39
0
210
0
220
0
230
1
0
LINE
5
93
100
AcDbEntity
8
SK1
62
256
6
ByLayer
370
18
48
1
60
0
100
AcDbLine
10
-25.849994
20
16.920823
30
0
11
-23.199987
21
16.98738
31
0
39
0
210
0
220
0
230
1
0
LINE
5
94
100
AcDbEntity
8
SK1
62
256
6
ByLayer
370
18
48
1
60
0
100
AcDbLine
10
-23.199987
20
16.98738
30
0
11
-20.549981
21
17.053937
31
0
39
0
210
0
220
0
230
1
0
LINE
5
95
100
AcDbEntity
8
SK1
62
256
6
ByLayer
370
18
48
1
60
0
100
AcDbLine
10
-20.549981
20
17.053937
30
0
11
-17.899975
21
17.120494
31
0
39
0
210
0
220
0
230
1
0
LINE
5
96
100
AcDbEntity
8
SK1
62
256
6
ByLayer
370
18
48
1
60
0
100
AcDbLine
10
-17.899975
20
17.120494
30
0
11
-15.249969
21
17.187051
31
0
39
0
210
0
220
0
230
1
0
LINE
5
97
100
AcDbEntity
8
SK1
62
256
6
ByLayer
370
18
48
1
60
0
100
AcDbLine
10
-15.249969
20
17.187051
30
0
11
-12.599962
21
17.253608
31
0
39
0
210
0
220
0
230
1
0
LINE
5
98
100
AcDbEntity
8
SK1
62
256
6
ByLayer
370
18
48
1
60
0
100
AcDbLine
10
-12.599962
20
17.253608
30
0
11
-9.949956
21
17.320165
31
0
39
0
210
0
220
0
230
1
0
LINE
5
99
100
AcDbEntity
8
SK1
62
256
6
ByLayer
370
18
48
1
60
0
100
AcDbLine
10
-9.949956
20
17.320165
30
0
11
-7.29995
21
17.386722
31
0
39
0
210
0
220
0
230
1
0
LINE
5
9A
100
AcDbEntity
8
SK1
62
256
6
ByLayer
370
18
48
1
60
0
100
AcDbLine
10
-7.29995
20
17.386722
30
0
11
-4.649943
21
17.453279
31
0
39
0
210
0
220
0
230
1
0
LINE
5
9B
100
AcDbEntity
8
SK1
62
256
6
ByLayer
370
18
48
1
60
0
100
AcDbLine
10
-4.649943
20
17.453279
30
0
11
-1.999937
21
17.519836
31
0
39
0
210
0
220
0
230
1
0
LINE
5
9C
100
AcDbEntity
8
SK1
62
256
6
ByLayer
370
18
48
1
60
0
100
AcDbLine
10
-1.998481
20
17.505542
30
0
11
-1.999937
21
17.525123
31
0
39
0
210
0
220
0
230
1
0
LINE
5
9D
100
AcDbEntity
8
SK1
62
256
6
ByLayer
370
18
48
1
60
0
100
AcDbLine
10
-1.794977
20
17.324982
30
0
11
-1.218954
21
17.339449
31
0
39
0
210
0
220
0
230
1
0
LINE
5
9E
100
AcDbEntity
8
SK1
62
256
6
ByLayer
370
18
48
1
60
0
100
AcDbLine
10
-1.218954
20
17.339449
30
0
11
-0.194914
21
17.365169
31
0
39
0
210
0
220
0
230
1
0
LINE
5
9F
100
AcDbEntity
8
SK1
62
256
6
ByLayer
370
18
48
1
60
0
100
AcDbLine
10
-1.999937
20
-17.525123
30
0
11
-1.998481
21
-17.505542
31
0
39
0
210
0
220
0
230
1
0
LINE
5
A0
100
AcDbEntity
8
SK1
62
256
6
ByLayer
370
18
48
1
60
0
100
AcDbLine
10
-28.509118
20
-16.852497
30
0
11
-28.5
21
-16.85776
31
0
39
0
210
0
220
0
230
1
0
LINE
5
A1
100
AcDbEntity
8
SK1
62
256
6
ByLayer
370
18
48
1
60
0
100
AcDbLine
10
-1.794977
20
-17.324982
30
0
11
-1.218954
21
-17.339449
31
0
39
0
210
0
220
0
230
1
0
LINE
5
A2
100
AcDbEntity
8
SK1
62
256
6
ByLayer
370
18
48
1
60
0
100
AcDbLine
10
-1.218954
20
-17.339449
30
0
11
-0.194914
21
-17.365169
31
0
39
0
210
0
220
0
230
1
0
LINE
5
A3
100
AcDbEntity
8
SK1
62
256
6
ByLayer
370
18
48
1
60
0
100
AcDbLine
10
-28.5
20
-16.854266
30
0
11
-25.849994
21
-16.920823
31
0
39
0
210
0
220
0
230
1
0
LINE
5
A4
100
AcDbEntity
8
SK1
62
256
6
ByLayer
370
18
48
1
60
0
100
AcDbLine
10
-25.849994
20
-16.920823
30
0
11
-23.199987
21
-16.98738
31
0
39
0
210
0
220
0
230
1
0
LINE
5
A5
100
AcDbEntity
8
SK1
62
256
6
ByLayer
370
18
48
1
60
0
100
AcDbLine
10
-23.199987
20
-16.98738
30
0
11
-20.549981
21
-17.053937
31
0
39
0
210
0
220
0
230
1
0
LINE
5
A6
100
AcDbEntity
8
SK1
62
256
6
ByLayer
370
18
48
1
60
0
100
AcDbLine
10
-20.549981
20
-17.053937
30
0
11
-17.899975
21
-17.120494
31
0
39
0
210
0
220
0
230
1
0
LINE
5
A7
100
AcDbEntity
8
SK1
62
256
6
ByLayer
370
18
48
1
60
0
100
AcDbLine
10
-17.899975
20
-17.120494
30
0
11
-15.249969
21
-17.187051
31
0
39
0
210
0
220
0
230
1
0
LINE
5
A8
100
AcDbEntity
8
SK1
62
256
6
ByLayer
370
18
48
1
60
0
100
AcDbLine
10
-15.249969
20
-17.187051
30
0
11
-12.599962
21
-17.253608
31
0
39
0
210
0
220
0
230
1
0
LINE
5
A9
100
AcDbEntity
8
SK1
62
256
6
ByLayer
370
18
48
1
60
0
100
AcDbLine
10
-12.599962
20
-17.253608
30
0
11
-9.949956
21
-17.320165
31
0
39
0
210
0
220
0
230
1
0
LINE
5
AA
100
AcDbEntity
8
SK1
62
256
6
ByLayer
370
18
48
1
60
0
100
AcDbLine
10
-9.949956
20
-17.320165
30
0
11
-7.29995
21
-17.386722
31
0
39
0
210
0
220
0
230
1
0
LINE
5
AB
100
AcDbEntity
8
SK1
62
256
6
ByLayer
370
18
48
1
60
0
100
AcDbLine
10
-7.29995
20
-17.386722
30
0
11
-4.649943
21
-17.453279
31
0
39
0
210
0
220
0
230
1
0
LINE
5
AC
100
AcDbEntity
8
SK1
62
256
6
ByLayer
370
18
48
1
60
0
100
AcDbLine
10
-4.649943
20
-17.453279
30
0
11
-1.999937
21
-17.519836
31
0
39
0
210
0
220
0
230
1
0
LINE
5
AD
100
AcDbEntity
8
80
62
256
6
ByLayer
370
13
48
1
60
0
100
AcDbLine
10
0
20
0
30
0
11
-20
21
0
31
0
39
0
210
0
220
0
230
1
0
LINE
5
AE
100
AcDbEntity
8
1
62
256
6
ByLayer
370
13
48
0.05
60
0
100
AcDbLine
10
68.924542
20
-21.827375
30
0
11
67.997825
21
-30.644498
31
0
39
0
210
0
220
0
230
1
0
LINE
5
AF
100
AcDbEntity
8
1
62
256
6
ByLayer
370
13
48
0.05
60
0
100
AcDbLine
10
67.561502
20
-30.997825
30
0
11
58.74438
21
-30.071108
31
0
39
0
210
0
220
0
230
1
0
LINE
5
B0
100
AcDbEntity
8
81
62
256
6
ByLayer
370
13
48
0.05
60
0
100
AcDbLine
10
68
20
31
30
0
11
72.434276
21
31
31
0
39
0
210
0
220
0
230
1
0
LINE
5
B1
100
AcDbEntity
8
SK4
62
256
6
ByLayer
370
13
48
0.05
60
0
100
AcDbLine
10
40
20
0
30
0
11
68.758091
21
0
31
0
39
0
210
0
220
0
230
1
0
LINE
5
B2
100
AcDbEntity
8
1
62
256
6
ByLayer
370
18
48
1
60
1
100
AcDbLine
10
0
20
0
30
0
11
0
21
841
31
0
39
0
210
0
220
0
230
1
0
LINE
5
B3
100
AcDbEntity
8
1
62
256
6
ByLayer
370
18
48
1
60
1
100
AcDbLine
10
1189
20
841
30
0
11
0
21
841
31
0
39
0
210
0
220
0
230
1
0
LINE
5
B4
100
AcDbEntity
8
1
62
256
6
ByLayer
370
18
48
1
60
1
100
AcDbLine
10
1189
20
841
30
0
11
1189
21
0
31
0
39
0
210
0
220
0
230
1
0
LINE
5
B5
100
AcDbEntity
8
1
62
256
6
ByLayer
370
18
48
1
60
1
100
AcDbLine
10
0
20
0
30
0
11
1189
21
0
31
0
39
0
210
0
220
0
230
1
0
LINE
5
B6
100
AcDbEntity
8
1
62
256
6
ByLayer
370
18
48
1
60
0
100
AcDbLine
10
48.317391
20
7.056319
30
0
11
48.283275
21
7.056319
31
0
39
0
210
0
220
0
230
1
0
LINE
5
B7
100
AcDbEntity
8
1
62
256
6
ByLayer
370
18
48
1
60
0
100
AcDbLine
10
48.317391
20
7.056319
30
0
11
48.317391
21
13.689224
31
0
39
0
210
0
220
0
230
1
0
LINE
5
B8
100
AcDbEntity
8
1
62
256
6
ByLayer
370
18
48
1
60
0
100
AcDbLine
10
45.222981
20
-6.412905
30
0
11
42.001762
21
-6.337579
31
0
39
0
210
0
220
0
230
1
0
LINE
5
B9
100
AcDbEntity
8
1
62
256
6
ByLayer
370
18
48
1
60
0
100
AcDbLine
10
47.678354
20
-6.470322
30
0
11
46.615919
21
-6.445478
31
0
39
0
210
0
220
0
230
1
0
LINE
5
BA
100
AcDbEntity
8
1
62
256
6
ByLayer
370
18
48
1
60
0
100
AcDbLine
10
45.222981
20
-6.412905
30
0
11
42.001762
21
-6.337579
31
0
39
0
210
0
220
0
230
1
0
LINE
5
BB
100
AcDbEntity
8
1
62
256
6
ByLayer
370
18
48
1
60
0
100
AcDbLine
10
47.678354
20
-6.470322
30
0
11
46.615919
21
-6.445478
31
0
39
0
210
0
220
0
230
1
0
LINE
5
BC
100
AcDbEntity
8
1
62
256
6
ByLayer
370
18
48
1
60
0
100
AcDbLine
10
48.388552
20
-15.278145
30
0
11
48.317391
21
-15.86794
31
0
39
0
210
0
220
0
230
1
0
LINE
5
BD
100
AcDbEntity
8
1
62
256
6
ByLayer
370
18
48
1
60
0
100
AcDbLine
10
48.317391
20
-24.0727
30
0
11
48.317391
21
-15.86794
31
0
39
0
210
0
220
0
230
1
0
LINE
5
BE
100
AcDbEntity
8
1
62
256
6
ByLayer
370
18
48
1
60
0
100
AcDbLine
10
55.677611
20
-12.526557
30
0
11
56.030443
21
-11.435847
31
0
39
0
210
0
220
0
230
1
0
LINE
5
BF
100
AcDbEntity
8
1
62
256
6
ByLayer
370
18
48
1
60
0
100
AcDbLine
10
36.746753
20
23.558931
30
0
11
35.687822
21
22.5
31
0
39
0
210
0
220
0
230
1
0
LINE
5
C0
100
AcDbEntity
8
1
62
256
6
ByLayer
370
18
48
1
60
0
100
AcDbLine
10
62.590091
20
-19.849129
30
0
11
62.9
21
-19.849129
31
0
39
0
210
0
220
0
230
1
0
LINE
5
C1
100
AcDbEntity
8
1
62
256
6
ByLayer
370
18
48
1
60
0
100
AcDbLine
10
62.9
20
8.158137
30
0
11
62.622997
21
8.158137
31
0
39
0
210
0
220
0
230
1
0
LINE
5
C2
100
AcDbEntity
8
1
62
256
6
ByLayer
370
18
48
1
60
0
100
AcDbLine
10
45.101762
20
-10.550093
30
0
11
45.101762
21
-11.511602
31
0
39
0
210
0
220
0
230
1
0
LINE
5
C3
100
AcDbEntity
8
1
62
256
6
ByLayer
370
18
48
1
60
0
100
AcDbLine
10
62.608562
20
21.747845
30
0
11
62.680688
21
21.755426
31
0
39
0
210
0
220
0
230
1
0
LINE
5
C4
100
AcDbEntity
8
1
62
256
6
ByLayer
370
18
48
1
60
0
100
AcDbLine
10
62.178952
20
26.529131
30
0
11
62.106825
21
26.521551
31
0
39
0
210
0
220
0
230
1
0
LINE
5
C5
100
AcDbEntity
8
1
62
256
6
ByLayer
370
18
48
1
60
0
100
AcDbLine
10
62.581131
20
23.077864
30
0
11
62.480895
21
23.067329
31
0
39
0
210
0
220
0
230
1
0
LINE
5
C6
100
AcDbEntity
8
1
62
256
6
ByLayer
370
18
48
1
60
0
100
AcDbLine
10
62.256284
20
25.204358
30
0
11
62.35652
21
25.214893
31
0
39
0
210
0
220
0
230
1
0
LINE
5
C7
100
AcDbEntity
8
1
62
256
6
ByLayer
370
18
48
1
60
0
100
AcDbLine
10
68.835145
20
-12.63555
30
0
11
69.02499
21
-11.213599
31
0
39
0
210
0
220
0
230
1
0
LINE
5
C8
100
AcDbEntity
8
1
62
256
6
ByLayer
370
18
48
1
60
0
100
AcDbLine
10
69.12286
20
-8.840742
30
0
11
68.835072
21
-6.958787
31
0
39
0
210
0
220
0
230
1
0
LINE
5
C9
100
AcDbEntity
8
1
62
256
6
ByLayer
370
18
48
1
60
0
100
AcDbLine
10
69.222645
20
-9.673385
30
0
11
69.126998
21
-8.868599
31
0
39
0
210
0
220
0
230
1
0
LINE
5
CA
100
AcDbEntity
8
1
62
256
6
ByLayer
370
18
48
1
60
0
100
AcDbLine
10
0.3
20
25
30
0
11
0
21
24.7
31
0
39
0
210
0
220
0
230
1
0
LINE
5
CB
100
AcDbEntity
8
1
62
256
6
ByLayer
370
18
48
1
60
0
100
AcDbLine
10
0
20
-24.7
30
0
11
0.3
21
-25
31
0
39
0
210
0
220
0
230
1
0
LINE
5
CC
100
AcDbEntity
8
1
62
256
6
ByLayer
370
18
48
1
60
0
100
AcDbLine
10
0.3
20
-25
30
0
11
20
21
-25
31
0
39
0
210
0
220
0
230
1
0
LINE
5
CD
100
AcDbEntity
8
1
62
256
6
ByLayer
370
18
48
1
60
0
100
AcDbLine
10
20
20
25
30
0
11
0.3
21
25
31
0
39
0
210
0
220
0
230
1
0
LINE
5
CE
100
AcDbEntity
8
1
62
256
6
ByLayer
370
18
48
1
60
0
100
AcDbLine
10
20
20
-25
30
0
11
21.443376
21
-22.5
31
0
39
0
210
0
220
0
230
1
0
LINE
5
CF
100
AcDbEntity
8
1
62
256
6
ByLayer
370
18
48
1
60
0
100
AcDbLine
10
21.443376
20
22.5
30
0
11
20
21
25
31
0
39
0
210
0
220
0
230
1
0
LINE
5
D0
100
AcDbEntity
8
1
62
256
6
ByLayer
370
18
48
1
60
0
100
AcDbLine
10
21.443376
20
-22.5
30
0
11
35.687822
21
-22.5
31
0
39
0
210
0
220
0
230
1
0
LINE
5
D1
100
AcDbEntity
8
1
62
256
6
ByLayer
370
18
48
1
60
0
100
AcDbLine
10
35.687822
20
22.5
30
0
11
21.443376
21
22.5
31
0
39
0
210
0
220
0
230
1
0
LINE
5
D2
100
AcDbEntity
8
1
62
256
6
ByLayer
370
18
48
1
60
0
100
AcDbLine
10
35.687822
20
-22.5
30
0
11
37
21
-23.812178
31
0
39
0
210
0
220
0
230
1
0
LINE
5
D3
100
AcDbEntity
8
1
62
256
6
ByLayer
370
18
48
1
60
0
100
AcDbLine
10
37
20
-23.812178
30
0
11
38.312954
21
-24.163983
31
0
39
0
210
0
220
0
230
1
0
LINE
5
D4
100
AcDbEntity
8
1
62
256
6
ByLayer
370
18
48
1
60
0
100
AcDbLine
10
61.953712
20
-26.920913
30
0
11
48.283275
21
-26.920913
31
0
39
0
210
0
220
0
230
1
0
LINE
5
D5
100
AcDbEntity
8
1
62
256
6
ByLayer
370
18
48
1
60
0
100
AcDbLine
10
48.283275
20
-26.920913
30
0
11
48.283275
21
-24.106031
31
0
39
0
210
0
220
0
230
1
0
LINE
5
D6
100
AcDbEntity
8
1
62
256
6
ByLayer
370
18
48
1
60
0
100
AcDbLine
10
62.592853
20
-19.602518
30
0
11
62.582158
21
-20.558605
31
0
39
0
210
0
220
0
230
1
0
LINE
5
D7
100
AcDbEntity
8
1
62
256
6
ByLayer
370
18
48
1
60
0
100
AcDbLine
10
68.601762
20
-12.475151
30
0
11
68.601762
21
-12.358857
31
0
39
0
210
0
220
0
230
1
0
LINE
5
D8
100
AcDbEntity
8
1
62
256
6
ByLayer
370
18
48
1
60
0
100
AcDbLine
10
66.818128
20
-23.399017
30
0
11
66.424724
21
-23.955445
31
0
39
0
210
0
220
0
230
1
0
LINE
5
D9
100
AcDbEntity
8
1
62
256
6
ByLayer
370
18
48
1
60
0
100
AcDbLine
10
61.978642
20
-26.890639
30
0
11
62.057812
21
-19.813623
31
0
39
0
210
0
220
0
230
1
0
LINE
5
DA
100
AcDbEntity
8
1
62
256
6
ByLayer
370
18
48
1
60
0
100
AcDbLine
10
61.501762
20
-15.86794
30
0
11
48.317561
21
-15.86794
31
0
39
0
210
0
220
0
230
1
0
LINE
5
DB
100
AcDbEntity
8
1
62
256
6
ByLayer
370
18
48
1
60
0
100
AcDbLine
10
63.216615
20
-24.775775
30
0
11
65.318181
21
-24.693436
31
0
39
0
210
0
220
0
230
1
0
LINE
5
DC
100
AcDbEntity
8
1
62
256
6
ByLayer
370
18
48
1
60
0
100
AcDbLine
10
61.501762
20
-18.548819
30
0
11
61.501762
21
-15.86794
31
0
39
0
210
0
220
0
230
1
0
LINE
5
DD
100
AcDbEntity
8
1
62
256
6
ByLayer
370
18
48
1
60
0
100
AcDbLine
10
65.318181
20
-22.260714
30
0
11
63.683232
21
-24.186441
31
0
39
0
210
0
220
0
230
1
0
LINE
5
DE
100
AcDbEntity
8
1
62
256
6
ByLayer
370
18
48
1
60
0
100
AcDbLine
10
66.424724
20
-23.955445
30
0
11
65.318181
21
-24.693436
31
0
39
0
210
0
220
0
230
1
0
LINE
5
DF
100
AcDbEntity
8
1
62
256
6
ByLayer
370
18
48
1
60
0
100
AcDbLine
10
61.501762
20
-14.131564
30
0
11
61.501762
21
-15.86794
31
0
39
0
210
0
220
0
230
1
0
LINE
5
E0
100
AcDbEntity
8
1
62
256
6
ByLayer
370
18
48
1
60
0
100
AcDbLine
10
67.864923
20
-17.491154
30
0
11
66.818128
21
-23.399017
31
0
39
0
210
0
220
0
230
1
0
LINE
5
E1
100
AcDbEntity
8
1
62
256
6
ByLayer
370
18
48
1
60
0
100
AcDbLine
10
65.318181
20
-24.693436
30
0
11
65.318181
21
-22.260714
31
0
39
0
210
0
220
0
230
1
0
LINE
5
E2
100
AcDbEntity
8
1
62
256
6
ByLayer
370
18
48
1
60
0
100
AcDbLine
10
61.258978
20
24.344495
30
0
11
61.239267
21
24.341421
31
0
39
0
210
0
220
0
230
1
0
LINE
5
E3
100
AcDbEntity
8
1
62
256
6
ByLayer
370
18
48
1
60
0
100
AcDbLine
10
62.807173
20
22.968728
30
0
11
62.916165
21
22.980183
31
0
39
0
210
0
220
0
230
1
0
LINE
5
E4
100
AcDbEntity
8
1
62
256
6
ByLayer
370
18
48
1
60
0
100
AcDbLine
10
61.392794
20
24.922221
30
0
11
61.501786
21
24.933676
31
0
39
0
210
0
220
0
230
1
0
LINE
5
E5
100
AcDbEntity
8
1
62
256
6
ByLayer
370
18
48
1
60
0
100
AcDbLine
10
61.150939
20
24.333139
30
0
11
61.258978
21
24.344495
31
0
39
0
210
0
220
0
230
1
0
LINE
5
E6
100
AcDbEntity
8
1
62
256
6
ByLayer
370
18
48
1
60
0
100
AcDbLine
10
63.521971
20
24.581343
30
0
11
63.586768
21
24.588154
31
0
39
0
210
0
220
0
230
1
0
LINE
5
E7
100
AcDbEntity
8
1
62
256
6
ByLayer
370
18
48
1
60
0
100
AcDbLine
10
61.693797
20
23.193899
30
0
11
61.686607
21
23.175226
31
0
39
0
210
0
220
0
230
1
0
LINE
5
E8
100
AcDbEntity
8
1
62
256
6
ByLayer
370
18
48
1
60
0
100
AcDbLine
10
61.585758
20
23.182543
30
0
11
61.693797
21
23.193899
31
0
39
0
210
0
220
0
230
1
0
LINE
5
E9
100
AcDbEntity
8
1
62
256
6
ByLayer
370
18
48
1
60
0
100
AcDbLine
10
61.577615
20
23.163771
30
0
11
61.686607
21
23.175226
31
0
39
0
210
0
220
0
230
1
0
LINE
5
EA
100
AcDbEntity
8
1
62
256
6
ByLayer
370
18
48
1
60
0
100
AcDbLine
10
62.663924
20
25.380096
30
0
11
62.65492
21
25.362235
31
0
39
0
210
0
220
0
230
1
0
LINE
5
EB
100
AcDbEntity
8
1
62
256
6
ByLayer
370
18
48
1
60
0
100
AcDbLine
10
61.306687
20
23.699958
30
0
11
61.326606
21
23.70105
31
0
39
0
210
0
220
0
230
1
0
LINE
5
EC
100
AcDbEntity
8
1
62
256
6
ByLayer
370
18
48
1
60
0
100
AcDbLine
10
61.501786
20
24.933676
30
0
11
61.512701
21
24.916907
31
0
39
0
210
0
220
0
230
1
0
LINE
5
ED
100
AcDbEntity
8
1
62
256
6
ByLayer
370
18
48
1
60
0
100
AcDbLine
10
63.589391
20
23.93988
30
0
11
63.652966
21
23.946562
31
0
39
0
210
0
220
0
230
1
0
LINE
5
EE
100
AcDbEntity
8
1
62
256
6
ByLayer
370
18
48
1
60
0
100
AcDbLine
10
62.795606
20
22.984427
30
0
11
62.903645
21
22.995783
31
0
39
0
210
0
220
0
230
1
0
LINE
5
EF
100
AcDbEntity
8
1
62
256
6
ByLayer
370
18
48
1
60
0
100
AcDbLine
10
62.546882
20
25.35088
30
0
11
62.65492
21
25.362235
31
0
39
0
210
0
220
0
230
1
0
LINE
5
F0
100
AcDbEntity
8
1
62
256
6
ByLayer
370
18
48
1
60
0
100
AcDbLine
10
62.903645
20
22.995783
30
0
11
62.916165
21
22.980183
31
0
39
0
210
0
220
0
230
1
0
LINE
5
F1
100
AcDbEntity
8
1
62
256
6
ByLayer
370
18
48
1
60
0
100
AcDbLine
10
61.218568
20
23.689695
30
0
11
61.326606
21
23.70105
31
0
39
0
210
0
220
0
230
1
0
LINE
5
F2
100
AcDbEntity
8
1
62
256
6
ByLayer
370
18
48
1
60
0
100
AcDbLine
10
61.404663
20
24.905551
30
0
11
61.512701
21
24.916907
31
0
39
0
210
0
220
0
230
1
0
LINE
5
F3
100
AcDbEntity
8
1
62
256
6
ByLayer
370
18
48
1
60
0
100
AcDbLine
10
62.554932
20
25.368641
30
0
11
62.663924
21
25.380096
31
0
39
0
210
0
220
0
230
1
0
LINE
5
F4
100
AcDbEntity
8
1
62
256
6
ByLayer
370
18
48
1
60
0
100
AcDbLine
10
68.467983
20
-7.271718
30
0
11
67.567369
21
-11.095083
31
0
39
0
210
0
220
0
230
1
0
LINE
5
F5
100
AcDbEntity
8
1
62
256
6
ByLayer
370
18
48
1
60
0
100
AcDbLine
10
56.51561
20
-9.621184
30
0
11
56.249451
21
-10.751108
31
0
39
0
210
0
220
0
230
1
0
LINE
5
F6
100
AcDbEntity
8
1
62
256
6
ByLayer
370
18
48
1
60
0
100
AcDbLine
10
66.975197
20
-11.66033
30
0
11
67.042896
21
-12.4497
31
0
39
0
210
0
220
0
230
1
0
LINE
5
F7
100
AcDbEntity
8
1
62
256
6
ByLayer
370
18
48
1
60
0
100
AcDbLine
10
67.796647
20
-11.420861
30
0
11
68.833148
21
-7.020616
31
0
39
0
210
0
220
0
230
1
0
LINE
5
F8
100
AcDbEntity
8
1
62
256
6
ByLayer
370
18
48
1
60
0
100
AcDbLine
10
67.271941
20
-14.846413
30
0
11
67.324207
21
-13.941949
31
0
39
0
210
0
220
0
230
1
0
LINE
5
F9
100
AcDbEntity
8
1
62
256
6
ByLayer
370
18
48
1
60
0
100
AcDbLine
10
67.923277
20
-12.942709
30
0
11
68.101483
21
-14.480918
31
0
39
0
210
0
220
0
230
1
0
LINE
5
FA
100
AcDbEntity
8
1
62
256
6
ByLayer
370
18
48
1
60
0
100
AcDbLine
10
56.486422
20
-10.000012
30
0
11
56.249451
21
-10.751108
31
0
39
0
210
0
220
0
230
1
0
LINE
5
FB
100
AcDbEntity
8
1
62
256
6
ByLayer
370
18
48
1
60
0
100
AcDbLine
10
56.392547
20
-12.539443
30
0
11
56.283359
21
-13.473615
31
0
39
0
210
0
220
0
230
1
0
LINE
5
FC
100
AcDbEntity
8
1
62
256
6
ByLayer
370
18
48
1
60
0
100
AcDbLine
10
67.898271
20
-12.605809
30
0
11
68.111405
21
-14.440586
31
0
39
0
210
0
220
0
230
1
0
LINE
5
FD
100
AcDbEntity
8
1
62
256
6
ByLayer
370
18
48
1
60
0
100
AcDbLine
10
57.219018
20
-9.472848
30
0
11
57.176802
21
-9.652069
31
0
39
0
210
0
220
0
230
1
0
LINE
5
FE
100
AcDbEntity
8
1
62
256
6
ByLayer
370
18
48
1
60
0
100
AcDbLine
10
66.951688
20
-14.816107
30
0
11
67.129109
21
-13.174225
31
0
39
0
210
0
220
0
230
1
0
LINE
5
FF
100
AcDbEntity
8
1
62
256
6
ByLayer
370
18
48
1
60
0
100
AcDbLine
10
67.973791
20
-13.694727
30
0
11
68.074691
21
-14.573039
31
0
39
0
210
0
220
0
230
1
0
LINE
5
100
100
AcDbEntity
8
1
62
256
6
ByLayer
370
18
48
1
60
0
100
AcDbLine
10
69.205261
20
-9.795059
30
0
11
69.026432
21
-8.259496
31
0
39
0
210
0
220
0
230
1
0
LINE
5
101
100
AcDbEntity
8
1
62
256
6
ByLayer
370
18
48
1
60
0
100
AcDbLine
10
69.209703
20
-9.773232
30
0
11
69.047672
21
-8.385467
31
0
39
0
210
0
220
0
230
1
0
LINE
5
102
100
AcDbEntity
8
1
62
256
6
ByLayer
370
18
48
1
60
0
100
AcDbLine
10
67.796647
20
-11.420861
30
0
11
67.864345
21
-12.210231
31
0
39
0
210
0
220
0
230
1
0
LINE
5
103
100
AcDbEntity
8
1
62
256
6
ByLayer
370
18
48
1
60
0
100
AcDbLine
10
55.555125
20
-12.927165
30
0
11
55.981521
21
-11.608202
31
0
39
0
210
0
220
0
230
1
0
LINE
5
104
100
AcDbEntity
8
1
62
256
6
ByLayer
370
18
48
1
60
0
100
AcDbLine
10
69.196159
20
-9.835494
30
0
11
68.983024
21
-8.000717
31
0
39
0
210
0
220
0
230
1
0
LINE
5
105
100
AcDbEntity
8
1
62
256
6
ByLayer
370
18
48
1
60
0
100
AcDbLine
10
56.174185
20
-13.452255
30
0
11
56.318734
21
-12.559384
31
0
39
0
210
0
220
0
230
1
0
LINE
5
106
100
AcDbEntity
8
1
62
256
6
ByLayer
370
18
48
1
60
0
100
AcDbLine
10
67.268725
20
-10.919868
30
0
11
67.085493
21
-10.658183
31
0
39
0
210
0
220
0
230
1
0
LINE
5
107
100
AcDbEntity
8
1
62
256
6
ByLayer
370
18
48
1
60
0
100
AcDbLine
10
57.151079
20
-10.426173
30
0
11
56.914108
21
-11.177269
31
0
39
0
210
0
220
0
230
1
0
LINE
5
108
100
AcDbEntity
8
1
62
256
6
ByLayer
370
18
48
1
60
0
100
AcDbLine
10
67.864345
20
-12.210231
30
0
11
67.898271
21
-12.605809
31
0
39
0
210
0
220
0
230
1
0
LINE
5
109
100
AcDbEntity
8
1
62
256
6
ByLayer
370
18
48
1
60
0
100
AcDbLine
10
56.249451
20
-10.751108
30
0
11
56.130697
21
-11.127506
31
0
39
0
210
0
220
0
230
1
0
LINE
5
10A
100
AcDbEntity
8
1
62
256
6
ByLayer
370
18
48
1
60
0
100
AcDbLine
10
56.486422
20
-10.000012
30
0
11
56.587416
21
-9.571263
31
0
39
0
210
0
220
0
230
1
0
LINE
5
10B
100
AcDbEntity
8
1
62
256
6
ByLayer
370
18
48
1
60
0
100
AcDbLine
10
67.159269
20
-14.839903
30
0
11
67.255549
21
-13.904109
31
0
39
0
210
0
220
0
230
1
0
LINE
5
10C
100
AcDbEntity
8
1
62
256
6
ByLayer
370
18
48
1
60
0
100
AcDbLine
10
57.872613
20
-10.098205
30
0
11
57.945508
21
-9.564123
31
0
39
0
210
0
220
0
230
1
0
LINE
5
10D
100
AcDbEntity
8
1
62
256
6
ByLayer
370
18
48
1
60
0
100
AcDbLine
10
66.861483
20
-14.804964
30
0
11
67.076821
21
-12.845278
31
0
39
0
210
0
220
0
230
1
0
LINE
5
10E
100
AcDbEntity
8
1
62
256
6
ByLayer
370
18
48
1
60
0
100
AcDbLine
10
56.610139
20
-12.011257
30
0
11
56.441427
21
-13.49544
31
0
39
0
210
0
220
0
230
1
0
LINE
5
10F
100
AcDbEntity
8
1
62
256
6
ByLayer
370
18
48
1
60
0
100
AcDbLine
10
67.042896
20
-12.4497
30
0
11
67.076821
21
-12.845278
31
0
39
0
210
0
220
0
230
1
0
LINE
5
110
100
AcDbEntity
8
1
62
256
6
ByLayer
370
18
48
1
60
0
100
AcDbLine
10
67.349204
20
-10.578215
30
0
11
67.268725
21
-10.919868
31
0
39
0
210
0
220
0
230
1
0
LINE
5
111
100
AcDbEntity
8
1
62
256
6
ByLayer
370
18
48
1
60
0
100
AcDbLine
10
69.196159
20
-9.835494
30
0
11
68.111405
21
-14.440586
31
0
39
0
210
0
220
0
230
1
0
LINE
5
112
100
AcDbEntity
8
1
62
256
6
ByLayer
370
18
48
1
60
0
100
AcDbLine
10
56.919752
20
-9.45953
30
0
11
56.851587
21
-9.748911
31
0
39
0
210
0
220
0
230
1
0
LINE
5
113
100
AcDbEntity
8
1
62
256
6
ByLayer
370
18
48
1
60
0
100
AcDbLine
10
67.864345
20
-12.210231
30
0
11
68.93299
21
-7.673524
31
0
39
0
210
0
220
0
230
1
0
LINE
5
114
100
AcDbEntity
8
1
62
256
6
ByLayer
370
18
48
1
60
0
100
AcDbLine
10
66.408773
20
-11.170562
30
0
11
57.872613
21
-10.098205
31
0
39
0
210
0
220
0
230
1
0
LINE
5
115
100
AcDbEntity
8
1
62
256
6
ByLayer
370
18
48
1
60
0
100
AcDbLine
10
67.000301
20
-14.8219
30
0
11
67.157913
21
-13.336322
31
0
39
0
210
0
220
0
230
1
0
LINE
5
116
100
AcDbEntity
8
1
62
256
6
ByLayer
370
18
48
1
60
0
100
AcDbLine
10
57.176802
20
-9.652069
30
0
11
57.354077
21
-9.489812
31
0
39
0
210
0
220
0
230
1
0
LINE
5
117
100
AcDbEntity
8
1
62
256
6
ByLayer
370
18
48
1
60
0
100
AcDbLine
10
55.568669
20
-12.864903
30
0
11
55.643297
21
-12.548087
31
0
39
0
210
0
220
0
230
1
0
LINE
5
118
100
AcDbEntity
8
1
62
256
6
ByLayer
370
18
48
1
60
0
100
AcDbLine
10
68.833148
20
-7.020616
30
0
11
68.93299
21
-7.673524
31
0
39
0
210
0
220
0
230
1
0
LINE
5
119
100
AcDbEntity
8
1
62
256
6
ByLayer
370
18
48
1
60
0
100
AcDbLine
10
66.861483
20
-14.804964
30
0
11
56.580015
21
-13.513353
31
0
39
0
210
0
220
0
230
1
0
LINE
5
11A
100
AcDbEntity
8
1
62
256
6
ByLayer
370
18
48
1
60
0
100
AcDbLine
10
55.542667
20
-12.998702
30
0
11
55.811398
21
-12.166825
31
0
39
0
210
0
220
0
230
1
0
LINE
5
11B
100
AcDbEntity
8
1
62
256
6
ByLayer
370
18
48
1
60
0
100
AcDbLine
10
55.547541
20
-13.050467
30
0
11
55.804848
21
-12.229894
31
0
39
0
210
0
220
0
230
1
0
LINE
5
11C
100
AcDbEntity
8
1
62
256
6
ByLayer
370
18
48
1
60
0
100
AcDbLine
10
68.93299
20
-7.673524
30
0
11
68.983024
21
-8.000717
31
0
39
0
210
0
220
0
230
1
0
LINE
5
11D
100
AcDbEntity
8
1
62
256
6
ByLayer
370
18
48
1
60
0
100
AcDbLine
10
67.934822
20
-13.109838
30
0
11
68.095681
21
-14.502575
31
0
39
0
210
0
220
0
230
1
0
LINE
5
11E
100
AcDbEntity
8
1
62
256
6
ByLayer
370
18
48
1
60
0
100
AcDbLine
10
69.222162
20
-9.701695
30
0
11
69.1199
21
-8.829165
31
0
39
0
210
0
220
0
230
1
0
LINE
5
11F
100
AcDbEntity
8
1
62
256
6
ByLayer
370
18
48
1
60
0
100
AcDbLine
10
56.914108
20
-11.177269
30
0
11
56.795354
21
-11.553667
31
0
39
0
210
0
220
0
230
1
0
LINE
5
120
100
AcDbEntity
8
1
62
256
6
ByLayer
370
18
48
1
60
0
100
AcDbLine
10
66.362577
20
-11.446304
30
0
11
57.826417
21
-10.373947
31
0
39
0
210
0
220
0
230
1
0
LINE
5
121
100
AcDbEntity
8
1
62
256
6
ByLayer
370
18
48
1
60
0
100
AcDbLine
10
55.568669
20
-12.864903
30
0
11
56.130697
21
-11.127506
31
0
39
0
210
0
220
0
230
1
0
LINE
5
122
100
AcDbEntity
8
1
62
256
6
ByLayer
370
18
48
1
60
0
100
AcDbLine
10
56.673226
20
-11.860703
30
0
11
56.489897
21
-13.501842
31
0
39
0
210
0
220
0
230
1
0
LINE
5
123
100
AcDbEntity
8
1
62
256
6
ByLayer
370
18
48
1
60
0
100
AcDbLine
10
66.408773
20
-11.170562
30
0
11
66.481669
21
-10.636479
31
0
39
0
210
0
220
0
230
1
0
LINE
5
124
100
AcDbEntity
8
1
62
256
6
ByLayer
370
18
48
1
60
0
100
AcDbLine
10
56.795354
20
-11.553667
30
0
11
56.580015
21
-13.513353
31
0
39
0
210
0
220
0
230
1
0
LINE
5
125
100
AcDbEntity
8
1
62
256
6
ByLayer
370
18
48
1
60
0
100
AcDbLine
10
56.914108
20
-11.177269
30
0
11
67.042896
21
-12.4497
31
0
39
0
210
0
220
0
230
1
0
LINE
5
126
100
AcDbEntity
8
1
62
256
6
ByLayer
370
18
48
1
60
0
100
AcDbLine
10
55.559567
20
-12.905338
30
0
11
56.030644
21
-11.448695
31
0
39
0
210
0
220
0
230
1
0
LINE
5
127
100
AcDbEntity
8
1
62
256
6
ByLayer
370
18
48
1
60
0
100
AcDbLine
10
68.046411
20
-14.620639
30
0
11
67.959319
21
-13.756801
31
0
39
0
210
0
220
0
230
1
0
LINE
5
128
100
AcDbEntity
8
1
62
256
6
ByLayer
370
18
48
1
60
0
100
AcDbLine
10
57.151079
20
-10.426173
30
0
11
66.975197
21
-11.66033
31
0
39
0
210
0
220
0
230
1
0
LINE
5
129
100
AcDbEntity
8
1
62
256
6
ByLayer
370
18
48
1
60
0
100
AcDbLine
10
67.059606
20
-9.774431
30
0
11
67.251198
21
-9.716337
31
0
39
0
210
0
220
0
230
1
0
LINE
5
12A
100
AcDbEntity
8
1
62
256
6
ByLayer
370
18
48
1
60
0
100
AcDbLine
10
42.001762
20
-7.840652
30
0
11
45.551582
21
-8.007129
31
0
39
0
210
0
220
0
230
1
0
LINE
5
12B
100
AcDbEntity
8
1
62
256
6
ByLayer
370
18
48
1
60
0
100
AcDbLine
10
61.501762
20
13.689224
30
0
11
48.317561
21
13.689224
31
0
39
0
210
0
220
0
230
1
0
LINE
5
12C
100
AcDbEntity
8
1
62
256
6
ByLayer
370
18
48
1
60
0
100
AcDbLine
10
65.318181
20
-1.25716
30
0
11
65.318181
21
0.773637
31
0
39
0
210
0
220
0
230
1
0
LINE
5
12D
100
AcDbEntity
8
1
62
256
6
ByLayer
370
18
48
1
60
0
100
AcDbLine
10
67.864923
20
-1.246182
30
0
11
66.818128
21
-3.711208
31
0
39
0
210
0
220
0
230
1
0
LINE
5
12E
100
AcDbEntity
8
1
62
256
6
ByLayer
370
18
48
1
60
0
100
AcDbLine
10
68.411539
20
-6.505628
30
0
11
68.315579
21
-6.497409
31
0
39
0
210
0
220
0
230
1
0
LINE
5
12F
100
AcDbEntity
8
1
62
256
6
ByLayer
370
18
48
1
60
0
100
AcDbLine
10
61.405417
20
0.397097
30
0
11
61.738163
21
3.803941
31
0
39
0
210
0
220
0
230
1
0
LINE
5
130
100
AcDbEntity
8
1
62
256
6
ByLayer
370
18
48
1
60
0
100
AcDbLine
10
57.126436
20
-9.461222
30
0
11
66.95925
21
-10.696471
31
0
39
0
210
0
220
0
230
1
0
LINE
5
131
100
AcDbEntity
8
1
62
256
6
ByLayer
370
18
48
1
60
0
100
AcDbLine
10
47.907502
20
-8.248743
30
0
11
47.907502
21
-6.475579
31
0
39
0
210
0
220
0
230
1
0
LINE
5
132
100
AcDbEntity
8
1
62
256
6
ByLayer
370
18
48
1
60
0
100
AcDbLine
10
61.978642
20
4.778235
30
0
11
62.057812
21
10.499449
31
0
39
0
210
0
220
0
230
1
0
LINE
5
133
100
AcDbEntity
8
1
62
256
6
ByLayer
370
18
48
1
60
0
100
AcDbLine
10
68.601762
20
-4.62876
30
0
11
68.601762
21
-3.641716
31
0
39
0
210
0
220
0
230
1
0
LINE
5
134
100
AcDbEntity
8
1
62
256
6
ByLayer
370
18
48
1
60
0
100
AcDbLine
10
61.120297
20
-0.813321
30
0
11
65.318181
21
-1.25716
31
0
39
0
210
0
220
0
230
1
0
LINE
5
135
100
AcDbEntity
8
1
62
256
6
ByLayer
370
18
48
1
60
0
100
AcDbLine
10
68.398343
20
-6.640744
30
0
11
68.411539
21
-6.505628
31
0
39
0
210
0
220
0
230
1
0
LINE
5
136
100
AcDbEntity
8
1
62
256
6
ByLayer
370
18
48
1
60
0
100
AcDbLine
10
68.601762
20
-3.641717
30
0
11
68.601762
21
-3.585137
31
0
39
0
210
0
220
0
230
1
0
LINE
5
137
100
AcDbEntity
8
1
62
256
6
ByLayer
370
18
48
1
60
0
100
AcDbLine
10
68.39694
20
-6.152016
30
0
11
68.559782
21
-5.460703
31
0
39
0
210
0
220
0
230
1
0
LINE
5
138
100
AcDbEntity
8
1
62
256
6
ByLayer
370
18
48
1
60
0
100
AcDbLine
10
66.818128
20
-3.711208
30
0
11
67.251198
21
-9.716337
31
0
39
0
210
0
220
0
230
1
0
LINE
5
139
100
AcDbEntity
8
1
62
256
6
ByLayer
370
18
48
1
60
0
100
AcDbLine
10
61.501762
20
11.521944
30
0
11
61.501762
21
13.689224
31
0
39
0
210
0
220
0
230
1
0
LINE
5
13A
100
AcDbEntity
8
1
62
256
6
ByLayer
370
18
48
1
60
0
100
AcDbLine
10
66.95925
20
-10.696471
30
0
11
67.354716
21
-10.576559
31
0
39
0
210
0
220
0
230
1
0
LINE
5
13B
100
AcDbEntity
8
1
62
256
6
ByLayer
370
18
48
1
60
0
100
AcDbLine
10
67.354716
20
-10.576559
30
0
11
68.39694
21
-6.152016
31
0
39
0
210
0
220
0
230
1
0
LINE
5
13C
100
AcDbEntity
8
1
62
256
6
ByLayer
370
18
48
1
60
0
100
AcDbLine
10
67.251198
20
-9.716337
30
0
11
67.354716
21
-10.576559
31
0
39
0
210
0
220
0
230
1
0
LINE
5
13D
100
AcDbEntity
8
1
62
256
6
ByLayer
370
18
48
1
60
0
100
AcDbLine
10
42.001762
20
-14.978648
30
0
11
42.001762
21
-7.840652
31
0
39
0
210
0
220
0
230
1
0
LINE
5
13E
100
AcDbEntity
8
1
62
256
6
ByLayer
370
18
48
1
60
0
100
AcDbLine
10
65.318181
20
0.773637
30
0
11
63.683232
21
3.018808
31
0
39
0
210
0
220
0
230
1
0
LINE
5
13F
100
AcDbEntity
8
1
62
256
6
ByLayer
370
18
48
1
60
0
100
AcDbLine
10
48.96162
20
-1.012954
30
0
11
66.012356
21
-4.533635
31
0
39
0
210
0
220
0
230
1
0
LINE
5
140
100
AcDbEntity
8
1
62
256
6
ByLayer
370
18
48
1
60
0
100
AcDbLine
10
47.907502
20
-8.248743
30
0
11
47.678354
21
-8.092148
31
0
39
0
210
0
220
0
230
1
0
LINE
5
141
100
AcDbEntity
8
1
62
256
6
ByLayer
370
18
48
1
60
0
100
AcDbLine
10
66.012356
20
-4.533635
30
0
11
66.424724
21
-3.248653
31
0
39
0
210
0
220
0
230
1
0
LINE
5
142
100
AcDbEntity
8
1
62
256
6
ByLayer
370
18
48
1
60
0
100
AcDbLine
10
62.592853
20
9.414858
30
0
11
62.582158
21
8.641937
31
0
39
0
210
0
220
0
230
1
0
LINE
5
143
100
AcDbEntity
8
1
62
256
6
ByLayer
370
18
48
1
60
0
100
AcDbLine
10
56.2645
20
-10.071623
30
0
11
56.177821
21
-10.959087
31
0
39
0
210
0
220
0
230
1
0
LINE
5
144
100
AcDbEntity
8
1
62
256
6
ByLayer
370
18
48
1
60
0
100
AcDbLine
10
65.318181
20
0.773637
30
0
11
63.486422
21
1.003752
31
0
39
0
210
0
220
0
230
1
0
LINE
5
145
100
AcDbEntity
8
1
62
256
6
ByLayer
370
18
48
1
60
0
100
AcDbLine
10
56.476407
20
-9.654503
30
0
11
56.177821
21
-10.959087
31
0
39
0
210
0
220
0
230
1
0
LINE
5
146
100
AcDbEntity
8
1
62
256
6
ByLayer
370
18
48
1
60
0
100
AcDbLine
10
48.016158
20
-8.316741
30
0
11
45.551582
21
-8.007129
31
0
39
0
210
0
220
0
230
1
0
LINE
5
147
100
AcDbEntity
8
1
62
256
6
ByLayer
370
18
48
1
60
0
100
AcDbLine
10
47.678354
20
-8.092148
30
0
11
47.678354
21
-6.47026
31
0
39
0
210
0
220
0
230
1
0
LINE
5
148
100
AcDbEntity
8
1
62
256
6
ByLayer
370
18
48
1
60
0
100
AcDbLine
10
66.012356
20
-4.533635
30
0
11
67.059606
21
-9.774431
31
0
39
0
210
0
220
0
230
1
0
LINE
5
149
100
AcDbEntity
8
1
62
256
6
ByLayer
370
18
48
1
60
0
100
AcDbLine
10
61.738163
20
3.803941
30
0
11
61.120297
21
-0.813321
31
0
39
0
210
0
220
0
230
1
0
LINE
5
14A
100
AcDbEntity
8
1
62
256
6
ByLayer
370
18
48
1
60
0
100
AcDbLine
10
45.551582
20
-8.007129
30
0
11
47.678354
21
-8.092148
31
0
39
0
210
0
220
0
230
1
0
LINE
5
14B
100
AcDbEntity
8
1
62
256
6
ByLayer
370
18
48
1
60
0
100
AcDbLine
10
67.059606
20
-9.774431
30
0
11
66.95925
21
-10.696471
31
0
39
0
210
0
220
0
230
1
0
LINE
5
14C
100
AcDbEntity
8
1
62
256
6
ByLayer
370
18
48
1
60
0
100
AcDbLine
10
48.283275
20
4.753762
30
0
11
48.283275
21
7.056319
31
0
39
0
210
0
220
0
230
1
0
LINE
5
14D
100
AcDbEntity
8
1
62
256
6
ByLayer
370
18
48
1
60
0
100
AcDbLine
10
66.424724
20
-3.248653
30
0
11
65.318181
21
-1.25716
31
0
39
0
210
0
220
0
230
1
0
LINE
5
14E
100
AcDbEntity
8
1
62
256
6
ByLayer
370
18
48
1
60
0
100
AcDbLine
10
51.501762
20
-15.424172
30
0
11
42.001762
21
-14.978648
31
0
39
0
210
0
220
0
230
1
0
LINE
5
14F
100
AcDbEntity
8
1
62
256
6
ByLayer
370
18
48
1
60
0
100
AcDbLine
10
57.126436
20
-9.461222
30
0
11
49.211902
21
-8.466957
31
0
39
0
210
0
220
0
230
1
0
LINE
5
150
100
AcDbEntity
8
1
62
256
6
ByLayer
370
18
48
1
60
0
100
AcDbLine
10
54.873019
20
-12.863398
30
0
11
55.365195
21
-12.925228
31
0
39
0
210
0
220
0
230
1
0
LINE
5
151
100
AcDbEntity
8
1
62
256
6
ByLayer
370
18
48
1
60
0
100
AcDbLine
10
68.559782
20
-5.460703
30
0
11
68.443197
21
-6.654372
31
0
39
0
210
0
220
0
230
1
0
LINE
5
152
100
AcDbEntity
8
1
62
256
6
ByLayer
370
18
48
1
60
0
100
AcDbLine
10
68.559782
20
-5.460703
30
0
11
68.601762
21
-4.62876
31
0
39
0
210
0
220
0
230
1
0
LINE
5
153
100
AcDbEntity
8
1
62
256
6
ByLayer
370
18
48
1
60
0
100
AcDbLine
10
56.030438
20
-11.435865
30
0
11
56.177821
21
-10.959087
31
0
39
0
210
0
220
0
230
1
0
LINE
5
154
100
AcDbEntity
8
1
62
256
6
ByLayer
370
18
48
1
60
0
100
AcDbLine
10
63.683232
20
3.018808
30
0
11
63.486422
21
1.003752
31
0
39
0
210
0
220
0
230
1
0
LINE
5
155
100
AcDbEntity
8
1
62
256
6
ByLayer
370
18
48
1
60
0
100
AcDbLine
10
66.818128
20
-3.711208
30
0
11
66.424724
21
-3.248653
31
0
39
0
210
0
220
0
230
1
0
LINE
5
156
100
AcDbEntity
8
1
62
256
6
ByLayer
370
18
48
1
60
0
100
AcDbLine
10
61.953712
20
4.753762
30
0
11
48.283275
21
4.753762
31
0
39
0
210
0
220
0
230
1
0
LINE
5
157
100
AcDbEntity
8
1
62
256
6
ByLayer
370
18
48
1
60
0
100
AcDbLine
10
56.300566
20
-9.914042
30
0
11
56.2645
21
-10.071623
31
0
39
0
210
0
220
0
230
1
0
LINE
5
158
100
AcDbEntity
8
1
62
256
6
ByLayer
370
18
48
1
60
0
100
AcDbLine
10
49.675061
20
-5.932334
30
0
11
49.857208
21
-6.139769
31
0
39
0
210
0
220
0
230
1
0
LINE
5
159
100
AcDbEntity
8
1
62
256
6
ByLayer
370
18
48
1
60
0
100
AcDbLine
10
42.001762
20
-7.840652
30
0
11
42.001762
21
-6.337552
31
0
39
0
210
0
220
0
230
1
0
LINE
5
15A
100
AcDbEntity
8
1
62
256
6
ByLayer
370
18
48
1
60
0
100
AcDbLine
10
61.120297
20
-0.813321
30
0
11
61.405417
21
0.397097
31
0
39
0
210
0
220
0
230
1
0
LINE
5
15B
100
AcDbEntity
8
1
62
256
6
ByLayer
370
18
48
1
60
0
100
AcDbLine
10
49.675061
20
-5.932334
30
0
11
48.96162
21
-1.012954
31
0
39
0
210
0
220
0
230
1
0
LINE
5
15C
100
AcDbEntity
8
1
62
256
6
ByLayer
370
18
48
1
60
0
100
AcDbLine
10
48.283275
20
4.753762
30
0
11
48.96162
21
-1.012954
31
0
39
0
210
0
220
0
230
1
0
LINE
5
15D
100
AcDbEntity
8
1
62
256
6
ByLayer
370
18
48
1
60
0
100
AcDbLine
10
63.5
20
7.845
30
0
11
63.5
21
12.07223
31
0
39
0
210
0
220
0
230
1
0
LINE
5
15E
100
AcDbEntity
8
1
62
256
6
ByLayer
370
18
48
1
60
0
100
AcDbLine
10
62.9
20
11.542082
30
0
11
62.9
21
8.158269
31
0
39
0
210
0
220
0
230
1
0
LINE
5
15F
100
AcDbEntity
8
1
62
256
6
ByLayer
370
18
48
1
60
0
100
AcDbLine
10
46.67013
20
24.474812
30
0
11
46.551815
21
24.459236
31
0
39
0
210
0
220
0
230
1
0
LINE
5
160
100
AcDbEntity
8
1
62
256
6
ByLayer
370
18
48
1
60
0
100
AcDbLine
10
46.397485
20
24.308391
30
0
11
46.551815
21
24.288073
31
0
39
0
210
0
220
0
230
1
0
LINE
5
161
100
AcDbEntity
8
1
62
256
6
ByLayer
370
18
48
1
60
0
100
AcDbLine
10
46.551815
20
24.288073
30
0
11
46.67013
21
24.272497
31
0
39
0
210
0
220
0
230
1
0
LINE
5
162
100
AcDbEntity
8
1
62
256
6
ByLayer
370
18
48
1
60
0
100
AcDbLine
10
46.551815
20
24.459236
30
0
11
46.397485
21
24.438918
31
0
39
0
210
0
220
0
230
1
0
LINE
5
163
100
AcDbEntity
8
1
62
256
6
ByLayer
370
18
48
1
60
0
100
AcDbLine
10
11.461325
20
-7.529667
30
0
11
11.461325
21
-23.83913
31
0
39
0
210
0
220
0
230
1
0
LINE
5
164
100
AcDbEntity
8
1
62
256
6
ByLayer
370
18
48
1
60
0
100
AcDbLine
10
34.436613
20
22.265328
30
0
11
41.5
21
19.776791
31
0
39
0
210
0
220
0
230
1
0
LINE
5
165
100
AcDbEntity
8
1
62
256
6
ByLayer
370
18
48
1
60
0
100
AcDbLine
10
8.538675
20
7.529667
30
0
11
11.461325
21
7.529667
31
0
39
0
210
0
220
0
230
1
0
LINE
5
166
100
AcDbEntity
8
1
62
256
6
ByLayer
370
18
48
1
60
0
100
AcDbLine
10
42.001863
20
-12.162452
30
0
11
41.5
21
-12.24398
31
0
39
0
210
0
220
0
230
1
0
LINE
5
167
100
AcDbEntity
8
1
62
256
6
ByLayer
370
18
48
1
60
0
100
AcDbLine
10
20
20
-25
30
0
11
20
21
25
31
0
39
0
210
0
220
0
230
1
0
LINE
5
168
100
AcDbEntity
8
1
62
256
6
ByLayer
370
18
48
1
60
0
100
AcDbLine
10
41.5
20
19.776791
30
0
11
41.5
21
19.565062
31
0
39
0
210
0
220
0
230
1
0
LINE
5
169
100
AcDbEntity
8
1
62
256
6
ByLayer
370
18
48
1
60
0
100
AcDbLine
10
36.945764
20
-13.213261
30
0
11
41.5
21
-13.319758
31
0
39
0
210
0
220
0
230
1
0
LINE
5
16A
100
AcDbEntity
8
1
62
256
6
ByLayer
370
18
48
1
60
0
100
AcDbLine
10
8.105662
20
23.666502
30
0
11
8.105662
21
8.055848
31
0
39
0
210
0
220
0
230
1
0
LINE
5
16B
100
AcDbEntity
8
1
62
256
6
ByLayer
370
18
48
1
60
0
100
AcDbLine
10
48.303486
20
17.168092
30
0
11
48.369052
21
16.866012
31
0
39
0
210
0
220
0
230
1
0
LINE
5
16C
100
AcDbEntity
8
1
62
256
6
ByLayer
370
18
48
1
60
0
100
AcDbLine
10
41.5
20
-6.325846
30
0
11
49.4
21
-6.510581
31
0
39
0
210
0
220
0
230
1
0
LINE
5
16D
100
AcDbEntity
8
1
62
256
6
ByLayer
370
18
48
1
60
0
100
AcDbLine
10
37
20
-7.476653
30
0
11
37
21
13.046381
31
0
39
0
210
0
220
0
230
1
0
LINE
5
16E
100
AcDbEntity
8
1
62
256
6
ByLayer
370
18
48
1
60
0
100
AcDbLine
10
48.303486
20
17.168092
30
0
11
41.5
21
19.565062
31
0
39
0
210
0
220
0
230
1
0
LINE
5
16F
100
AcDbEntity
8
1
62
256
6
ByLayer
370
18
48
1
60
0
100
AcDbLine
10
36.945764
20
23.565857
30
0
11
41.5
21
23.804534
31
0
39
0
210
0
220
0
230
1
0
LINE
5
170
100
AcDbEntity
8
1
62
256
6
ByLayer
370
18
48
1
60
0
100
AcDbLine
10
21.443376
20
-22.5
30
0
11
21.443376
21
22.5
31
0
39
0
210
0
220
0
230
1
0
LINE
5
171
100
AcDbEntity
8
1
62
256
6
ByLayer
370
18
48
1
60
0
100
AcDbLine
10
42.001845
20
-11.563971
30
0
11
41.5
21
-11.645496
31
0
39
0
210
0
220
0
230
1
0
LINE
5
172
100
AcDbEntity
8
1
62
256
6
ByLayer
370
18
48
1
60
0
100
AcDbLine
10
11.894338
20
-8.055848
30
0
11
11.894338
21
-23.666502
31
0
39
0
210
0
220
0
230
1
0
LINE
5
173
100
AcDbEntity
8
1
62
256
6
ByLayer
370
18
48
1
60
0
100
AcDbLine
10
41.5
20
-13.319758
30
0
11
41.5
21
-6.325846
31
0
39
0
210
0
220
0
230
1
0
LINE
5
174
100
AcDbEntity
8
1
62
256
6
ByLayer
370
18
48
1
60
0
100
AcDbLine
10
11.461325
20
23.83913
30
0
11
8.538675
21
23.83913
31
0
39
0
210
0
220
0
230
1
0
LINE
5
175
100
AcDbEntity
8
1
62
256
6
ByLayer
370
18
48
1
60
0
100
AcDbLine
10
40.5
20
-4.372143
30
0
11
40.5
21
10.59242
31
0
39
0
210
0
220
0
230
1
0
LINE
5
176
100
AcDbEntity
8
1
62
256
6
ByLayer
370
18
48
1
60
0
100
AcDbLine
10
35.687822
20
22.5
30
0
11
35.687822
21
22.29708
31
0
39
0
210
0
220
0
230
1
0
LINE
5
177
100
AcDbEntity
8
1
62
256
6
ByLayer
370
18
48
1
60
0
100
AcDbLine
10
49.4
20
-6.510581
30
0
11
49.615446
21
-6.294142
31
0
39
0
210
0
220
0
230
1
0
LINE
5
178
100
AcDbEntity
8
1
62
256
6
ByLayer
370
18
48
1
60
0
100
AcDbLine
10
35.757395
20
-12.848924
30
0
11
36.035732
21
-12.803708
31
0
39
0
210
0
220
0
230
1
0
LINE
5
179
100
AcDbEntity
8
1
62
256
6
ByLayer
370
18
48
1
60
0
100
AcDbLine
10
35.687822
20
-13.00274
30
0
11
35.687822
21
15.143636
31
0
39
0
210
0
220
0
230
1
0
LINE
5
17A
100
AcDbEntity
8
1
62
256
6
ByLayer
370
18
48
1
60
0
100
AcDbLine
10
41.5
20
20.156951
30
0
11
35.425525
21
22.29708
31
0
39
0
210
0
220
0
230
1
0
LINE
5
17B
100
AcDbEntity
8
1
62
256
6
ByLayer
370
18
48
1
60
0
100
AcDbLine
10
8.538675
20
-23.83913
30
0
11
11.461325
21
-23.83913
31
0
39
0
210
0
220
0
230
1
0
LINE
5
17C
100
AcDbEntity
8
1
62
256
6
ByLayer
370
18
48
1
60
0
100
AcDbLine
10
11.894338
20
23.666502
30
0
11
11.894338
21
8.055848
31
0
39
0
210
0
220
0
230
1
0
LINE
5
17D
100
AcDbEntity
8
1
62
256
6
ByLayer
370
18
48
1
60
0
100
AcDbLine
10
48.369052
20
16.866012
30
0
11
48.764403
21
13.689183
31
0
39
0
210
0
220
0
230
1
0
LINE
5
17E
100
AcDbEntity
8
1
62
256
6
ByLayer
370
18
48
1
60
0
100
AcDbLine
10
8.538675
20
-7.529667
30
0
11
8.538675
21
-23.83913
31
0
39
0
210
0
220
0
230
1
0
LINE
5
17F
100
AcDbEntity
8
1
62
256
6
ByLayer
370
18
48
1
60
0
100
AcDbLine
10
8.538675
20
23.83913
30
0
11
8.538675
21
7.529667
31
0
39
0
210
0
220
0
230
1
0
LINE
5
180
100
AcDbEntity
8
1
62
256
6
ByLayer
370
18
48
1
60
0
100
AcDbLine
10
41.5
20
23.804534
30
0
11
42.001773
21
23.830831
31
0
39
0
210
0
220
0
230
1
0
LINE
5
181
100
AcDbEntity
8
1
62
256
6
ByLayer
370
18
48
1
60
0
100
AcDbLine
10
45.551466
20
24.016862
30
0
11
46.2874
21
24.055431
31
0
39
0
210
0
220
0
230
1
0
LINE
5
182
100
AcDbEntity
8
1
62
256
6
ByLayer
370
18
48
1
60
0
100
AcDbLine
10
41.5
20
20.156951
30
0
11
41.5
21
23.804534
31
0
39
0
210
0
220
0
230
1
0
LINE
5
183
100
AcDbEntity
8
1
62
256
6
ByLayer
370
18
48
1
60
0
100
AcDbLine
10
0.3
20
-25
30
0
11
0.3
21
25
31
0
39
0
210
0
220
0
230
1
0
LINE
5
184
100
AcDbEntity
8
1
62
256
6
ByLayer
370
18
48
1
60
0
100
AcDbLine
10
35.687822
20
22.29708
30
0
11
35.425525
21
22.29708
31
0
39
0
210
0
220
0
230
1
0
LINE
5
185
100
AcDbEntity
8
1
62
256
6
ByLayer
370
18
48
1
60
0
100
AcDbLine
10
11.461325
20
23.83913
30
0
11
11.461325
21
7.529667
31
0
39
0
210
0
220
0
230
1
0
LINE
5
186
100
AcDbEntity
8
1
62
256
6
ByLayer
370
18
48
1
60
0
100
AcDbLine
10
8.105662
20
-8.055848
30
0
11
8.105662
21
-23.666502
31
0
39
0
210
0
220
0
230
1
0
LINE
5
187
100
AcDbEntity
8
1
62
256
6
ByLayer
370
18
48
1
60
0
100
AcDbLine
10
11.461325
20
-7.529667
30
0
11
8.538675
21
-7.529667
31
0
39
0
210
0
220
0
230
1
0
LINE
5
188
100
AcDbEntity
8
1
62
256
6
ByLayer
370
18
48
1
60
0
100
AcDbLine
10
48.303486
20
7.187748
30
0
11
48.303486
21
17.168092
31
0
39
0
210
0
220
0
230
1
0
LINE
5
189
100
AcDbEntity
8
1
62
256
6
ByLayer
370
18
48
1
60
0
100
AcDbLine
10
35.687822
20
-22.5
30
0
11
35.687822
21
-21.983279
31
0
39
0
210
0
220
0
230
1
0
LINE
5
18A
100
AcDbEntity
8
1
62
256
6
ByLayer
370
18
48
1
60
0
100
AcDbLine
10
37
20
-23.812178
30
0
11
37
21
-23.774533
31
0
39
0
210
0
220
0
230
1
0
LINE
5
18B
100
AcDbEntity
8
1
62
256
6
ByLayer
370
18
48
1
60
0
100
AcDbLine
10
48.303486
20
-24.104215
30
0
11
48.303486
21
-15.274332
31
0
39
0
210
0
220
0
230
1
0
LINE
5
18C
100
AcDbEntity
8
1
62
256
6
ByLayer
370
18
48
1
60
0
100
AcDbLine
10
62.9
20
7.091889
30
0
11
62.9
21
8.158137
31
0
39
0
210
0
220
0
230
1
0
LINE
5
18D
100
AcDbEntity
8
1
62
256
6
ByLayer
370
18
48
1
60
0
100
AcDbLine
10
63.5
20
7.558137
30
0
11
63.5
21
5.596355
31
0
39
0
210
0
220
0
230
1
0
LINE
5
18E
100
AcDbEntity
8
1
62
256
6
ByLayer
370
18
48
1
60
0
100
AcDbLine
10
66.861483
20
30.972933
30
0
11
56.580015
21
29.892307
31
0
39
0
210
0
220
0
230
1
0
LINE
5
18F
100
AcDbEntity
8
1
62
256
6
ByLayer
370
18
48
1
60
0
100
AcDbLine
10
58.958129
20
23.221055
30
0
11
59.229903
21
20.635298
31
0
39
0
210
0
220
0
230
1
0
LINE
5
190
100
AcDbEntity
8
1
62
256
6
ByLayer
370
18
48
1
60
0
100
AcDbLine
10
65.737357
20
25.046249
30
0
11
65.616036
21
25.033498
31
0
39
0
210
0
220
0
230
1
0
LINE
5
191
100
AcDbEntity
8
1
62
256
6
ByLayer
370
18
48
1
60
0
100
AcDbLine
10
65.108097
20
27.922623
30
0
11
62.532179
21
27.651883
31
0
39
0
210
0
220
0
230
1
0
LINE
5
192
100
AcDbEntity
8
1
62
256
6
ByLayer
370
18
48
1
60
0
100
AcDbLine
10
55.542667
20
28.937439
30
0
11
55.681134
21
28.947084
31
0
39
0
210
0
220
0
230
1
0
LINE
5
193
100
AcDbEntity
8
1
62
256
6
ByLayer
370
18
48
1
60
0
100
AcDbLine
10
55.559567
20
28.729069
30
0
11
55.697736
21
28.742311
31
0
39
0
210
0
220
0
230
1
0
LINE
5
194
100
AcDbEntity
8
1
62
256
6
ByLayer
370
18
48
1
60
0
100
AcDbLine
10
56.594106
20
29.753151
30
0
11
57.264348
21
29.823596
31
0
39
0
210
0
220
0
230
1
0
LINE
5
195
100
AcDbEntity
8
1
62
256
6
ByLayer
370
18
48
1
60
0
100
AcDbLine
10
56.669147
20
18.17866
30
0
11
56.806888
21
18.195795
31
0
39
0
210
0
220
0
230
1
0
LINE
5
196
100
AcDbEntity
8
1
62
256
6
ByLayer
370
18
48
1
60
0
100
AcDbLine
10
57.81314
20
17.292595
30
0
11
57.799253
21
17.431767
31
0
39
0
210
0
220
0
230
1
0
LINE
5
197
100
AcDbEntity
8
1
62
256
6
ByLayer
370
18
48
1
60
0
100
AcDbLine
10
55.568669
20
28.638519
30
0
11
56.653423
21
18.317778
31
0
39
0
210
0
220
0
230
1
0
LINE
5
198
100
AcDbEntity
8
1
62
256
6
ByLayer
370
18
48
1
60
0
100
AcDbLine
10
56.791465
20
18.332287
30
0
11
56.720751
21
19.00509
31
0
39
0
210
0
220
0
230
1
0
LINE
5
199
100
AcDbEntity
8
1
62
256
6
ByLayer
370
18
48
1
60
0
100
AcDbLine
10
57.903346
20
17.30166
30
0
11
57.888196
21
17.440705
31
0
39
0
210
0
220
0
230
1
0
LINE
5
19A
100
AcDbEntity
8
1
62
256
6
ByLayer
370
18
48
1
60
0
100
AcDbLine
10
56.283359
20
29.855692
30
0
11
56.302277
21
29.717128
31
0
39
0
210
0
220
0
230
1
0
LINE
5
19B
100
AcDbEntity
8
1
62
256
6
ByLayer
370
18
48
1
60
0
100
AcDbLine
10
65.737357
20
25.046249
30
0
11
65.465583
21
27.632006
31
0
39
0
210
0
220
0
230
1
0
LINE
5
19C
100
AcDbEntity
8
1
62
256
6
ByLayer
370
18
48
1
60
0
100
AcDbLine
10
57.605559
20
17.275797
30
0
11
57.595255
21
17.415265
31
0
39
0
210
0
220
0
230
1
0
LINE
5
19D
100
AcDbEntity
8
1
62
256
6
ByLayer
370
18
48
1
60
0
100
AcDbLine
10
56.580015
20
29.892307
30
0
11
56.594106
21
29.753151
31
0
39
0
210
0
220
0
230
1
0
LINE
5
19E
100
AcDbEntity
8
1
62
256
6
ByLayer
370
18
48
1
60
0
100
AcDbLine
10
57.492888
20
17.280779
30
0
11
57.514101
21
17.418854
31
0
39
0
210
0
220
0
230
1
0
LINE
5
19F
100
AcDbEntity
8
1
62
256
6
ByLayer
370
18
48
1
60
0
100
AcDbLine
10
56.663346
20
18.227315
30
0
11
56.801249
21
18.243089
31
0
39
0
210
0
220
0
230
1
0
LINE
5
1A0
100
AcDbEntity
8
1
62
256
6
ByLayer
370
18
48
1
60
0
100
AcDbLine
10
59.087251
20
23.234626
30
0
11
58.958129
21
23.221055
31
0
39
0
210
0
220
0
230
1
0
LINE
5
1A1
100
AcDbEntity
8
1
62
256
6
ByLayer
370
18
48
1
60
0
100
AcDbLine
10
68.169664
20
18.52133
30
0
11
67.499421
21
18.450885
31
0
39
0
210
0
220
0
230
1
0
LINE
5
1A2
100
AcDbEntity
8
1
62
256
6
ByLayer
370
18
48
1
60
0
100
AcDbLine
10
68.101483
20
30.047277
30
0
11
67.962521
21
30.031392
31
0
39
0
210
0
220
0
230
1
0
LINE
5
1A3
100
AcDbEntity
8
1
62
256
6
ByLayer
370
18
48
1
60
0
100
AcDbLine
10
56.489897
20
29.882419
30
0
11
56.505248
21
29.743401
31
0
39
0
210
0
220
0
230
1
0
LINE
5
1A4
100
AcDbEntity
8
1
62
256
6
ByLayer
370
18
48
1
60
0
100
AcDbLine
10
68.111405
20
29.956814
30
0
11
67.972305
21
29.942194
31
0
39
0
210
0
220
0
230
1
0
LINE
5
1A5
100
AcDbEntity
8
1
62
256
6
ByLayer
370
18
48
1
60
0
100
AcDbLine
10
68.323401
20
18.397958
30
0
11
68.305636
21
18.536703
31
0
39
0
210
0
220
0
230
1
0
LINE
5
1A6
100
AcDbEntity
8
1
62
256
6
ByLayer
370
18
48
1
60
0
100
AcDbLine
10
58.971583
20
24.335138
30
0
11
58.842461
21
24.321566
31
0
39
0
210
0
220
0
230
1
0
LINE
5
1A7
100
AcDbEntity
8
1
62
256
6
ByLayer
370
18
48
1
60
0
100
AcDbLine
10
65.826236
20
21.127499
30
0
11
63.250319
21
20.856759
31
0
39
0
210
0
220
0
230
1
0
LINE
5
1A8
100
AcDbEntity
8
1
62
256
6
ByLayer
370
18
48
1
60
0
100
AcDbLine
10
56.174185
20
29.827392
30
0
11
56.223643
21
29.696745
31
0
39
0
210
0
220
0
230
1
0
LINE
5
1A9
100
AcDbEntity
8
1
62
256
6
ByLayer
370
18
48
1
60
0
100
AcDbLine
10
57.764527
20
17.288176
30
0
11
57.752
21
17.427471
31
0
39
0
210
0
220
0
230
1
0
LINE
5
1AA
100
AcDbEntity
8
1
62
256
6
ByLayer
370
18
48
1
60
0
100
AcDbLine
10
67.000301
20
30.986417
30
0
11
67.01177
21
30.84701
31
0
39
0
210
0
220
0
230
1
0
LINE
5
1AB
100
AcDbEntity
8
1
62
256
6
ByLayer
370
18
48
1
60
0
100
AcDbLine
10
66.861483
20
30.972933
30
0
11
66.875573
21
30.833777
31
0
39
0
210
0
220
0
230
1
0
LINE
5
1AC
100
AcDbEntity
8
1
62
256
6
ByLayer
370
18
48
1
60
0
100
AcDbLine
10
55.777426
20
27.980226
30
0
11
55.706711
21
28.653028
31
0
39
0
210
0
220
0
230
1
0
LINE
5
1AD
100
AcDbEntity
8
1
62
256
6
ByLayer
370
18
48
1
60
0
100
AcDbLine
10
56.690137
20
18.019985
30
0
11
56.827584
21
18.039339
31
0
39
0
210
0
220
0
230
1
0
LINE
5
1AE
100
AcDbEntity
8
1
62
256
6
ByLayer
370
18
48
1
60
0
100
AcDbLine
10
62.153996
20
20.741531
30
0
11
59.578078
21
20.470791
31
0
39
0
210
0
220
0
230
1
0
LINE
5
1AF
100
AcDbEntity
8
1
62
256
6
ByLayer
370
18
48
1
60
0
100
AcDbLine
10
69.217287
20
19.224065
30
0
11
69.079125
21
19.245943
31
0
39
0
210
0
220
0
230
1
0
LINE
5
1B0
100
AcDbEntity
8
1
62
256
6
ByLayer
370
18
48
1
60
0
100
AcDbLine
10
59.359025
20
20.648869
30
0
11
59.087251
21
23.234626
31
0
39
0
210
0
220
0
230
1
0
LINE
5
1B1
100
AcDbEntity
8
1
62
256
6
ByLayer
370
18
48
1
60
0
100
AcDbLine
10
69.196159
20
19.636073
30
0
11
68.111405
21
29.956814
31
0
39
0
210
0
220
0
230
1
0
LINE
5
1B2
100
AcDbEntity
8
1
62
256
6
ByLayer
370
18
48
1
60
0
100
AcDbLine
10
68.590643
20
18.4472
30
0
11
68.540127
21
18.577736
31
0
39
0
210
0
220
0
230
1
0
LINE
5
1B3
100
AcDbEntity
8
1
62
256
6
ByLayer
370
18
48
1
60
0
100
AcDbLine
10
68.481469
20
18.418901
30
0
11
68.461493
21
18.557353
31
0
39
0
210
0
220
0
230
1
0
LINE
5
1B4
100
AcDbEntity
8
1
62
256
6
ByLayer
370
18
48
1
60
0
100
AcDbLine
10
55.547541
20
29.050528
30
0
11
55.684645
21
29.028538
31
0
39
0
210
0
220
0
230
1
0
LINE
5
1B5
100
AcDbEntity
8
1
62
256
6
ByLayer
370
18
48
1
60
0
100
AcDbLine
10
67.972305
20
29.942194
30
0
11
68.043019
21
29.269391
31
0
39
0
210
0
220
0
230
1
0
LINE
5
1B6
100
AcDbEntity
8
1
62
256
6
ByLayer
370
18
48
1
60
0
100
AcDbLine
10
69.209703
20
19.496726
30
0
11
69.070351
21
19.484737
31
0
39
0
210
0
220
0
230
1
0
LINE
5
1B7
100
AcDbEntity
8
1
62
256
6
ByLayer
370
18
48
1
60
0
100
AcDbLine
10
65.128022
20
27.596527
30
0
11
65.465583
21
27.632006
31
0
39
0
210
0
220
0
230
1
0
LINE
5
1B8
100
AcDbEntity
8
1
62
256
6
ByLayer
370
18
48
1
60
0
100
AcDbLine
10
58.570687
20
26.907323
30
0
11
58.842461
21
24.321566
31
0
39
0
210
0
220
0
230
1
0
LINE
5
1B9
100
AcDbEntity
8
1
62
256
6
ByLayer
370
18
48
1
60
0
100
AcDbLine
10
66.205331
20
30.763331
30
0
11
66.875573
21
30.833777
31
0
39
0
210
0
220
0
230
1
0
LINE
5
1BA
100
AcDbEntity
8
1
62
256
6
ByLayer
370
18
48
1
60
0
100
AcDbLine
10
59.587389
20
20.344681
30
0
11
62.163307
21
20.615421
31
0
39
0
210
0
220
0
230
1
0
LINE
5
1BB
100
AcDbEntity
8
1
62
256
6
ByLayer
370
18
48
1
60
0
100
AcDbLine
10
67.271941
20
30.993813
30
0
11
67.249668
21
30.855627
31
0
39
0
210
0
220
0
230
1
0
LINE
5
1BC
100
AcDbEntity
8
1
62
256
6
ByLayer
370
18
48
1
60
0
100
AcDbLine
10
65.616036
20
25.033498
30
0
11
65.344262
21
27.619255
31
0
39
0
210
0
220
0
230
1
0
LINE
5
1BD
100
AcDbEntity
8
1
62
256
6
ByLayer
370
18
48
1
60
0
100
AcDbLine
10
66.003478
20
21.34723
30
0
11
66.124799
21
21.359981
31
0
39
0
210
0
220
0
230
1
0
LINE
5
1BE
100
AcDbEntity
8
1
62
256
6
ByLayer
370
18
48
1
60
0
100
AcDbLine
10
56.718418
20
17.910381
30
0
11
56.847954
21
17.960395
31
0
39
0
210
0
220
0
230
1
0
LINE
5
1BF
100
AcDbEntity
8
1
62
256
6
ByLayer
370
18
48
1
60
0
100
AcDbLine
10
68.046411
20
30.364212
30
0
11
67.915816
21
30.314086
31
0
39
0
210
0
220
0
230
1
0
LINE
5
1C0
100
AcDbEntity
8
1
62
256
6
ByLayer
370
18
48
1
60
0
100
AcDbLine
10
61.435856
20
27.536655
30
0
11
58.859938
21
27.265915
31
0
39
0
210
0
220
0
230
1
0
LINE
5
1C1
100
AcDbEntity
8
1
62
256
6
ByLayer
370
18
48
1
60
0
100
AcDbLine
10
56.441427
20
29.876635
30
0
11
56.458134
21
29.737779
31
0
39
0
210
0
220
0
230
1
0
LINE
5
1C2
100
AcDbEntity
8
1
62
256
6
ByLayer
370
18
48
1
60
0
100
AcDbLine
10
58.699809
20
26.920895
30
0
11
58.570687
21
26.907323
31
0
39
0
210
0
220
0
230
1
0
LINE
5
1C3
100
AcDbEntity
8
1
62
256
6
ByLayer
370
18
48
1
60
0
100
AcDbLine
10
61.452968
20
27.411365
30
0
11
58.87705
21
27.140625
31
0
39
0
210
0
220
0
230
1
0
LINE
5
1C4
100
AcDbEntity
8
1
62
256
6
ByLayer
370
18
48
1
60
0
100
AcDbLine
10
59.359025
20
20.648869
30
0
11
59.229903
21
20.635298
31
0
39
0
210
0
220
0
230
1
0
LINE
5
1C5
100
AcDbEntity
8
1
62
256
6
ByLayer
370
18
48
1
60
0
100
AcDbLine
10
68.074691
20
30.254608
30
0
11
67.936185
21
30.235142
31
0
39
0
210
0
220
0
230
1
0
LINE
5
1C6
100
AcDbEntity
8
1
62
256
6
ByLayer
370
18
48
1
60
0
100
AcDbLine
10
65.853025
20
23.945738
30
0
11
65.731704
21
23.932987
31
0
39
0
210
0
220
0
230
1
0
LINE
5
1C7
100
AcDbEntity
8
1
62
256
6
ByLayer
370
18
48
1
60
0
100
AcDbLine
10
58.558439
20
17.51115
30
0
11
57.888196
21
17.440705
31
0
39
0
210
0
220
0
230
1
0
LINE
5
1C8
100
AcDbEntity
8
1
62
256
6
ByLayer
370
18
48
1
60
0
100
AcDbLine
10
68.274932
20
18.392174
30
0
11
68.258522
21
18.53108
31
0
39
0
210
0
220
0
230
1
0
LINE
5
1C9
100
AcDbEntity
8
1
62
256
6
ByLayer
370
18
48
1
60
0
100
AcDbLine
10
67.159269
20
30.998796
30
0
11
67.168515
21
30.859216
31
0
39
0
210
0
220
0
230
1
0
LINE
5
1CA
100
AcDbEntity
8
1
62
256
6
ByLayer
370
18
48
1
60
0
100
AcDbLine
10
66.951688
20
30.981997
30
0
11
66.964517
21
30.842714
31
0
39
0
210
0
220
0
230
1
0
LINE
5
1CB
100
AcDbEntity
8
1
62
256
6
ByLayer
370
18
48
1
60
0
100
AcDbLine
10
69.196159
20
19.636073
30
0
11
69.057058
21
19.621453
31
0
39
0
210
0
220
0
230
1
0
LINE
5
1CC
100
AcDbEntity
8
1
62
256
6
ByLayer
370
18
48
1
60
0
100
AcDbLine
10
68.095681
20
30.095933
30
0
11
67.956882
21
30.078686
31
0
39
0
210
0
220
0
230
1
0
LINE
5
1CD
100
AcDbEntity
8
1
62
256
6
ByLayer
370
18
48
1
60
0
100
AcDbLine
10
69.222162
20
19.337154
30
0
11
69.082635
21
19.327397
31
0
39
0
210
0
220
0
230
1
0
LINE
5
1CE
100
AcDbEntity
8
1
62
256
6
ByLayer
370
18
48
1
60
0
100
AcDbLine
10
56.653423
20
18.317778
30
0
11
56.791465
21
18.332287
31
0
39
0
210
0
220
0
230
1
0
LINE
5
1CF
100
AcDbEntity
8
1
62
256
6
ByLayer
370
18
48
1
60
0
100
AcDbLine
10
55.555125
20
28.777867
30
0
11
55.693419
21
28.789744
31
0
39
0
210
0
220
0
230
1
0
LINE
5
1D0
100
AcDbEntity
8
1
62
256
6
ByLayer
370
18
48
1
60
0
100
AcDbLine
10
68.184813
20
18.382286
30
0
11
68.169664
21
18.52133
31
0
39
0
210
0
220
0
230
1
0
LINE
5
1D1
100
AcDbEntity
8
1
62
256
6
ByLayer
370
18
48
1
60
0
100
AcDbLine
10
65.125209
20
27.797333
30
0
11
62.549291
21
27.526593
31
0
39
0
210
0
220
0
230
1
0
LINE
5
1D2
100
AcDbEntity
8
1
62
256
6
ByLayer
370
18
48
1
60
0
100
AcDbLine
10
68.986344
20
20.294256
30
0
11
69.057058
21
19.621453
31
0
39
0
210
0
220
0
230
1
0
LINE
5
1D3
100
AcDbEntity
8
1
62
256
6
ByLayer
370
18
48
1
60
0
100
AcDbLine
10
57.903346
20
17.30166
30
0
11
68.184813
21
18.382286
31
0
39
0
210
0
220
0
230
1
0
LINE
5
1D4
100
AcDbEntity
8
1
62
256
6
ByLayer
370
18
48
1
60
0
100
AcDbLine
10
63.25963
20
20.730649
30
0
11
65.835547
21
21.001389
31
0
39
0
210
0
220
0
230
1
0
LINE
5
1D5
100
AcDbEntity
8
1
62
256
6
ByLayer
370
18
48
1
60
0
100
AcDbLine
10
65.731704
20
23.932987
30
0
11
66.003478
21
21.34723
31
0
39
0
210
0
220
0
230
1
0
LINE
5
1D6
100
AcDbEntity
8
1
62
256
6
ByLayer
370
18
48
1
60
0
100
AcDbLine
10
69.205261
20
19.545524
30
0
11
69.066033
21
19.53217
31
0
39
0
210
0
220
0
230
1
0
LINE
5
1D7
100
AcDbEntity
8
1
62
256
6
ByLayer
370
18
48
1
60
0
100
AcDbLine
10
55.568669
20
28.638519
30
0
11
55.706711
21
28.653028
31
0
39
0
210
0
220
0
230
1
0
LINE
5
1D8
100
AcDbEntity
8
1
62
256
6
ByLayer
370
18
48
1
60
0
100
AcDbLine
10
66.124799
20
21.359981
30
0
11
65.853025
21
23.945738
31
0
39
0
210
0
220
0
230
1
0
LINE
5
1D9
100
AcDbEntity
8
1
62
256
6
ByLayer
370
18
48
1
60
0
100
AcDbLine
10
58.699809
20
26.920895
30
0
11
58.971583
21
24.335138
31
0
39
0
210
0
220
0
230
1
0
LINE
5
1DA
100
AcDbEntity
8
1
62
256
6
ByLayer
370
18
48
1
60
0
100
AcDbLine
10
44.087948
20
-10.739127
30
0
11
44.087948
21
-10.258212
31
0
39
0
210
0
220
0
230
1
0
LINE
5
1DB
100
AcDbEntity
8
1
62
256
6
ByLayer
370
18
48
1
60
0
100
AcDbLine
10
44.087948
20
-10.739127
30
0
11
44.88835
21
-10.44318
31
0
39
0
210
0
220
0
230
1
0
LINE
5
1DC
100
AcDbEntity
8
1
62
256
6
ByLayer
370
18
48
1
60
0
100
AcDbLine
10
44.88835
20
-10.44318
30
0
11
44.890085
21
-10.431463
31
0
39
0
210
0
220
0
230
1
0
LINE
5
1DD
100
AcDbEntity
8
1
62
256
6
ByLayer
370
18
48
1
60
0
100
AcDbLine
10
44.88835
20
-10.44318
30
0
11
44.88835
21
-10.430647
31
0
39
0
210
0
220
0
230
1
0
LINE
5
1DE
100
AcDbEntity
8
1
62
256
6
ByLayer
370
18
48
1
60
0
100
AcDbLine
10
43.535191
20
-10.358835
30
0
11
44.087948
21
-10.739127
31
0
39
0
210
0
220
0
230
1
0
LINE
5
1DF
100
AcDbEntity
8
1
62
256
6
ByLayer
370
18
48
1
60
0
100
AcDbLine
10
63.5
20
-14.382715
30
0
11
63.5
21
-19.249129
31
0
39
0
210
0
220
0
230
1
0
LINE
5
1E0
100
AcDbEntity
8
1
62
256
6
ByLayer
370
18
48
1
60
0
100
AcDbLine
10
62.9
20
-19.849129
30
0
11
62.9
21
-14.307049
31
0
39
0
210
0
220
0
230
1
0
LINE
5
1E1
100
AcDbEntity
8
1
62
256
6
ByLayer
370
18
48
1
60
0
100
AcDbLine
10
59.343925
20
17.229737
30
0
11
67.638126
21
18.101492
31
0
39
0
210
0
220
0
230
1
0
LINE
5
1E2
100
AcDbEntity
8
1
62
256
6
ByLayer
370
18
48
1
60
0
100
AcDbLine
10
68.559782
20
18.025475
30
0
11
68.601762
21
17.136831
31
0
39
0
210
0
220
0
230
1
0
LINE
5
1E3
100
AcDbEntity
8
1
62
256
6
ByLayer
370
18
48
1
60
0
100
AcDbLine
10
68.517749
20
18.425399
30
0
11
68.559782
21
18.025475
31
0
39
0
210
0
220
0
230
1
0
LINE
5
1E4
100
AcDbEntity
8
1
62
256
6
ByLayer
370
18
48
1
60
0
100
AcDbLine
10
68.559782
20
18.025475
30
0
11
68.194758
21
17.98711
31
0
39
0
210
0
220
0
230
1
0
LINE
5
1E5
100
AcDbEntity
8
1
62
256
6
ByLayer
370
18
48
1
60
0
100
AcDbLine
10
56.396005
20
20.421113
30
0
11
56.431959
21
20.424892
31
0
39
0
210
0
220
0
230
1
0
LINE
5
1E6
100
AcDbEntity
8
1
62
256
6
ByLayer
370
18
48
1
60
0
100
AcDbLine
10
55.927771
20
18.627419
30
0
11
55.901837
21
18.87607
31
0
39
0
210
0
220
0
230
1
0
LINE
5
1E7
100
AcDbEntity
8
1
62
256
6
ByLayer
370
18
48
1
60
0
100
AcDbLine
10
54.873019
20
28.552277
30
0
11
55.365195
21
28.604007
31
0
39
0
210
0
220
0
230
1
0
LINE
5
1E8
100
AcDbEntity
8
1
62
256
6
ByLayer
370
18
48
1
60
0
100
AcDbLine
10
42.001762
20
27.199454
30
0
11
42.001762
21
19.388109
31
0
39
0
210
0
220
0
230
1
0
LINE
5
1E9
100
AcDbEntity
8
1
62
256
6
ByLayer
370
18
48
1
60
0
100
AcDbLine
10
51.501762
20
28.197944
30
0
11
42.001762
21
27.199454
31
0
39
0
210
0
220
0
230
1
0
LINE
5
1EA
100
AcDbEntity
8
1
62
256
6
ByLayer
370
18
48
1
60
0
100
AcDbLine
10
56.587164
20
18.948101
30
0
11
56.195796
21
18.906966
31
0
39
0
210
0
220
0
230
1
0
LINE
5
1EB
100
AcDbEntity
8
1
62
256
6
ByLayer
370
18
48
1
60
0
100
AcDbLine
10
51.501762
20
13.689473
30
0
11
51.501762
21
28.197944
31
0
39
0
210
0
220
0
230
1
0
LINE
5
1EC
100
AcDbEntity
8
1
62
256
6
ByLayer
370
18
48
1
60
0
100
AcDbLine
10
68.601762
20
14.819123
30
0
11
68.601762
21
17.136831
31
0
39
0
210
0
220
0
230
1
0
LINE
5
1ED
100
AcDbEntity
8
1
62
256
6
ByLayer
370
18
48
1
60
0
100
AcDbLine
10
55.570028
20
28.625536
30
0
11
55.365195
21
28.604007
31
0
39
0
210
0
220
0
230
1
0
LINE
5
1EE
100
AcDbEntity
8
1
62
256
6
ByLayer
370
18
48
1
60
0
100
AcDbLine
10
68.181858
20
18.110792
30
0
11
68.194758
21
17.98711
31
0
39
0
210
0
220
0
230
1
0
LINE
5
1EF
100
AcDbEntity
8
1
62
256
6
ByLayer
370
18
48
1
60
0
100
AcDbLine
10
56.221928
20
18.658336
30
0
11
56.195796
21
18.906966
31
0
39
0
210
0
220
0
230
1
0
LINE
5
1F0
100
AcDbEntity
8
1
62
256
6
ByLayer
370
18
48
1
60
0
100
AcDbLine
10
55.901837
20
18.87607
30
0
11
56.195796
21
18.906966
31
0
39
0
210
0
220
0
230
1
0
LINE
5
1F1
100
AcDbEntity
8
1
62
256
6
ByLayer
370
18
48
1
60
0
100
AcDbLine
10
56.613296
20
18.69947
30
0
11
56.221928
21
18.658336
31
0
39
0
210
0
220
0
230
1
0
LINE
5
1F2
100
AcDbEntity
8
1
62
256
6
ByLayer
370
18
48
1
60
0
100
AcDbLine
10
64.791661
20
12.772118
30
0
11
68.193191
21
14.010173
31
0
39
0
210
0
220
0
230
1
0
LINE
5
1F3
100
AcDbEntity
8
1
62
256
6
ByLayer
370
18
48
1
60
0
100
AcDbLine
10
55.927771
20
18.627419
30
0
11
56.221928
21
18.658336
31
0
39
0
210
0
220
0
230
1
0
LINE
5
1F4
100
AcDbEntity
8
1
62
256
6
ByLayer
370
18
48
1
60
0
100
AcDbLine
10
51.501762
20
28.197944
30
0
11
54.873019
21
28.552277
31
0
39
0
210
0
220
0
230
1
0
LINE
5
1F5
100
AcDbEntity
8
1
62
256
6
ByLayer
370
18
48
1
60
0
100
AcDbLine
10
68.587134
20
14.153557
30
0
11
68.193191
21
14.010173
31
0
39
0
210
0
220
0
230
1
0
LINE
5
1F6
100
AcDbEntity
8
1
62
256
6
ByLayer
370
18
48
1
60
0
100
AcDbLine
10
68.194758
20
17.98711
30
0
11
68.193191
21
14.010173
31
0
39
0
210
0
220
0
230
1
0
LINE
5
1F7
100
AcDbEntity
8
1
62
256
6
ByLayer
370
18
48
1
60
0
100
AcDbLine
10
54.873019
20
13.689345
30
0
11
54.873019
21
28.552277
31
0
39
0
210
0
220
0
230
1
0
LINE
5
1F8
100
AcDbEntity
8
1
62
256
6
ByLayer
370
18
48
1
60
0
100
AcDbLine
10
69.217287
20
-9.611418
30
0
11
69.216275
21
-9.6198
31
0
39
0
210
0
220
0
230
1
0
LINE
5
1F9
100
AcDbEntity
8
1
62
256
6
ByLayer
370
18
48
1
60
0
100
AcDbLine
10
69.183992
20
-9.887147
30
0
11
69.120459
21
-10.413283
31
0
39
0
210
0
220
0
230
1
0
LINE
5
1FA
100
AcDbEntity
8
1
62
256
6
ByLayer
370
18
48
1
60
0
100
AcDbLine
10
69.208959
20
-9.777063
30
0
11
69.1199
21
-10.481568
31
0
39
0
210
0
220
0
230
1
0
LINE
5
1FB
100
AcDbEntity
8
1
62
256
6
ByLayer
370
18
48
1
60
0
100
AcDbLine
10
67.796647
20
-18.090743
30
0
11
68.833148
21
-12.647736
31
0
39
0
210
0
220
0
230
1
0
MTEXT
5
3A8
100
AcDbEntity
8
SK6
62
256
6
ByLayer
370
18
48
1
60
0
100
AcDbMText
10
75.75
20
44.25
30
0
210
0
220
0
230
1
1
\W0.7398;BR30-70SP12Y-C5
40
3
41
0
44
1.084337
50
0
71
7
72
5
7
iso_b_vert
0
MTEXT
5
3AC
100
AcDbEntity
8
2
62
256
6
ByLayer
370
18
48
1
60
0
100
AcDbMText
10
105.75
20
-14.1
30
0
210
0
220
0
230
1
1
\W0.7889;Dc = 62.0 - 70.0
40
3
41
0
44
1.084337
50
89.9999999999995
71
7
72
5
7
iso_b_vert
0
DIMENSION
5
3B8
100
AcDbEntity
8
SK2
62
256
6
ByLayer
370
13
48
1
60
0
100
AcDbDimension
2
DimnDraft3D1
10
-43.5
20
-25
30
0
11
-43.5
21
-4.073684
31
0
70
32
71
5
72
1
41
1
210
0
220
0
230
1
3
Standard
100
AcDbAlignedDimension
13
-1.7
23
25
33
0
14
-1.7
24
-25
34
0
50
90
100
AcDbRotatedDimension
1001
ACAD
1000
DSTYLE
1002
{
1070
    74
1070
     0
1070
   279
1070
     0
1070
   172
1070
     1
1070
   173
1070
     1
1070
   340
1005
3A9
1070
   271
1070
     0
1070
   272
1070
     3
1070
    77
1070
     1
1070
    73
1070
     0
1070
   171
1070
     4
1070
   274
1070
     4
1070
   177
1070
     7
1070
   176
1070
     7
1070
   178
1070
     7
1070
    78
1070
     8
1070
    41
1041
3.175
1070
   147
1041
1.5
1070
    42
1041
2.0
1070
    44
1041
2.0
1070
   140
1041
3.0
1070
   343
1005
0
1070
   344
1005
0
1002
}
0
DIMENSION
5
3C2
100
AcDbEntity
8
2
62
256
6
ByLayer
370
13
48
1
60
0
100
AcDbDimension
2
DimnDraft3D2
10
106.5
20
-31
30
0
11
106.5
21
-0.434211
31
0
70
32
71
5
72
1
41
1
210
0
220
0
230
1
3
Standard
100
AcDbAlignedDimension
13
70
23
31
33
0
14
69.966895
24
-31
34
0
50
90
100
AcDbRotatedDimension
1001
ACAD
1000
DSTYLE
1002
{
1070
    74
1070
     0
1070
   279
1070
     0
1070
   172
1070
     1
1070
   173
1070
     1
1070
   340
1005
3A9
1070
    77
1070
     1
1070
    73
1070
     0
1070
   171
1070
     4
1070
   274
1070
     4
1070
   177
1070
     7
1070
   176
1070
     7
1070
   178
1070
     7
1070
    78
1070
     8
1070
    41
1041
3.175
1070
   147
1041
1.5
1070
    42
1041
2.0
1070
    44
1041
2.0
1070
   140
1041
3.0
1070
   343
1005
0
1070
   344
1005
0
1002
}
0
DIMENSION
5
3CC
100
AcDbEntity
8
2
62
256
6
ByLayer
370
13
48
1
60
0
100
AcDbDimension
2
DimnDraft3D3
10
69
20
31
30
0
11
80.979704
21
19.314609
31
0
70
34
71
5
72
1
41
1
210
0
220
0
230
1
3
Standard
100
AcDb2LineAngularDimension
13
69.196159
23
19.636073
33
0
14
68.111405
24
29.956814
34
0
15
68
25
31
35
0
16
83.209138
26
17.307217
36
0
40
0
0
DIMENSION
5
3D6
100
AcDbEntity
8
2
62
256
6
ByLayer
370
13
48
1
60
0
100
AcDbDimension
2
DimnDraft3D4
10
68
20
58.5
30
0
11
32.247368
21
58.5
31
0
70
32
71
5
72
1
41
1
210
0
220
0
230
1
3
Standard
100
AcDbAlignedDimension
13
0
23
26.69
33
0
14
68
24
33
34
0
50
0
100
AcDbRotatedDimension
1001
ACAD
1000
DSTYLE
1002
{
1070
   279
1070
     0
1070
   172
1070
     1
1070
   173
1070
     1
1070
   340
1005
3A9
1070
   271
1070
     0
1070
   272
1070
     3
1070
    77
1070
     1
1070
    73
1070
     0
1070
   171
1070
     4
1070
   274
1070
     4
1070
   177
1070
     7
1070
   176
1070
     7
1070
   178
1070
     7
1070
    78
1070
     8
1070
    41
1041
3.175
1070
   147
1041
1.5
1070
    42
1041
2.0
1070
    44
1041
2.0
1070
   140
1041
3.0
1070
   343
1005
0
1070
   344
1005
0
1002
}
0
DIMENSION
5
3E0
100
AcDbEntity
8
SK2
62
256
6
ByLayer
370
13
48
1
60
0
100
AcDbDimension
2
DimnDraft3D5
10
68
20
73.5
30
0
11
17.247368
21
73.5
31
0
70
32
71
5
72
1
41
1
210
0
220
0
230
1
3
Standard
100
AcDbAlignedDimension
13
-30
23
17.991832
33
0
14
68
24
33
34
0
50
0
100
AcDbRotatedDimension
1001
ACAD
1000
DSTYLE
1002
{
1070
   279
1070
     0
1070
   172
1070
     1
1070
   173
1070
     1
1070
   340
1005
3A9
1070
   271
1070
     0
1070
   272
1070
     3
1070
    77
1070
     1
1070
    73
1070
     0
1070
   171
1070
     4
1070
   274
1070
     4
1070
   177
1070
     7
1070
   176
1070
     7
1070
   178
1070
     7
1070
    78
1070
     8
1070
    41
1041
3.175
1070
   147
1041
1.5
1070
    42
1041
2.0
1070
    44
1041
2.0
1070
   140
1041
3.0
1070
   343
1005
0
1070
   344
1005
0
1002
}
0
ENDSEC
0
SECTION
2
OBJECTS
0
DICTIONARY
5
452
330
0
100
AcDbDictionary
280
0
281
1
3
ACAD_GROUP
350
453
3
ACAD_GROUP
350
454
3
ACAD_MLINESTYLE
350
455
0
DICTIONARY
5
453
330
0
100
AcDbDictionary
280
0
281
1
0
DICTIONARY
5
454
330
0
100
AcDbDictionary
280
0
281
1
3
_DC
350
3ED
3
_DC_3
350
3EB
3
_DC_55
350
3EC
3
<200933438NDI000_00>
350
3EE
3
<200936511MOD000_00>
350
3E9
3
R820C_BR18SSYC12A_A1
350
3EA
0
DICTIONARY
5
455
330
0
100
AcDbDictionary
280
0
281
1
3
Standard
350
18
0
GROUP
5
3ED
330
454
100
AcDbGroup
300

70
0
71
1
340
3AC
0
GROUP
5
3EB
330
454
100
AcDbGroup
300

70
0
71
1
340
3AC
340
3AC
340
3AC
340
3AC
0
GROUP
5
3EC
330
454
100
AcDbGroup
300

70
0
71
1
340
3AC
340
3AC
0
GROUP
5
3EE
330
454
100
AcDbGroup
300

70
0
71
1
340
B2
340
B3
340
B4
340
B5
340
B6
340
B7
340
B8
340
B9
340
BA
340
BB
340
BC
340
BD
340
BE
340
BF
340
C0
340
C1
340
C2
340
C3
340
C4
340
C5
340
C6
340
C7
340
C8
340
C9
340
CA
340
CB
340
CC
340
CD
340
CE
340
CF
340
D0
340
D1
340
D2
340
D3
340
D4
340
D5
340
D6
340
D7
340
D8
340
D9
340
DA
340
DB
340
DC
340
DD
340
DE
340
DF
340
E0
340
E1
340
E2
340
E3
340
E4
340
E5
340
E6
340
E7
340
E8
340
E9
340
EA
340
EB
340
EC
340
ED
340
EE
340
EF
340
F0
340
F1
340
F2
340
F3
340
F4
340
F5
340
F6
340
F7
340
F8
340
F9
340
FA
340
FB
340
FC
340
FD
340
FE
340
FF
340
100
340
101
340
102
340
103
340
104
340
105
340
106
340
107
340
108
340
109
340
10A
340
10B
340
10C
340
10D
340
10E
340
10F
340
110
340
111
340
112
340
113
340
114
340
115
340
116
340
117
340
118
340
119
340
11A
340
11B
340
11C
340
11D
340
11E
340
11F
340
120
340
121
340
122
340
123
340
124
340
125
340
126
340
127
340
128
340
129
340
12A
340
12B
340
12C
340
12D
340
12E
340
12F
340
130
340
131
340
132
340
133
340
134
340
135
340
136
340
137
340
138
340
139
340
13A
340
13B
340
13C
340
13D
340
13E
340
13F
340
140
340
141
340
142
340
143
340
144
340
145
340
146
340
147
340
148
340
149
340
14A
340
14B
340
14C
340
14D
340
14E
340
14F
340
150
340
151
340
152
340
153
340
154
340
155
340
156
340
157
340
158
340
159
340
15A
340
15B
340
15C
340
15D
340
15E
340
15F
340
160
340
161
340
162
340
163
340
164
340
165
340
166
340
167
340
168
340
169
340
16A
340
16B
340
16C
340
16D
340
16E
340
16F
340
170
340
171
340
172
340
173
340
174
340
175
340
176
340
177
340
178
340
179
340
17A
340
17B
340
17C
340
17D
340
17E
340
17F
340
180
340
181
340
182
340
183
340
184
340
185
340
186
340
187
340
188
340
189
340
18A
340
18B
340
18C
340
18D
340
18E
340
18F
340
190
340
191
340
192
340
193
340
194
340
195
340
196
340
197
340
198
340
199
340
19A
340
19B
340
19C
340
19D
340
19E
340
19F
340
1A0
340
1A1
340
1A2
340
1A3
340
1A4
340
1A5
340
1A6
340
1A7
340
1A8
340
1A9
340
1AA
340
1AB
340
1AC
340
1AD
340
1AE
340
1AF
340
1B0
340
1B1
340
1B2
340
1B3
340
1B4
340
1B5
340
1B6
340
1B7
340
1B8
340
1B9
340
1BA
340
1BB
340
1BC
340
1BD
340
1BE
340
1BF
340
1C0
340
1C1
340
1C2
340
1C3
340
1C4
340
1C5
340
1C6
340
1C7
340
1C8
340
1C9
340
1CA
340
1CB
340
1CC
340
1CD
340
1CE
340
1CF
340
1D0
340
1D1
340
1D2
340
1D3
340
1D4
340
1D5
340
1D6
340
1D7
340
1D8
340
1D9
340
1DA
340
1DB
340
1DC
340
1DD
340
1DE
340
1DF
340
1E0
340
1E1
340
1E2
340
1E3
340
1E4
340
1E5
340
1E6
340
1E7
340
1E8
340
1E9
340
1EA
340
1EB
340
1EC
340
1ED
340
1EE
340
1EF
340
1F0
340
1F1
340
1F2
340
1F3
340
1F4
340
1F5
340
1F6
340
1F7
340
1F8
340
1F9
340
1FA
340
1FB
340
239
340
23A
340
23B
340
23C
340
23D
340
23E
340
23F
340
240
340
241
340
242
340
243
340
244
340
245
340
246
340
247
340
248
340
249
340
24A
340
24B
340
24C
340
24D
340
24E
340
24F
340
250
340
251
340
252
340
253
340
254
340
255
340
256
340
257
340
258
340
259
340
25A
340
25B
340
25C
340
25D
340
25E
340
25F
340
260
340
261
340
262
340
263
340
264
340
265
340
266
340
267
340
268
340
269
340
26A
340
26B
340
26C
340
26D
340
26E
340
26F
340
270
340
271
340
272
340
273
340
274
340
275
340
276
340
277
340
278
340
279
340
27A
340
27B
340
27C
340
27D
340
27E
340
27F
340
280
340
281
340
282
340
283
340
284
340
285
340
286
340
287
340
288
340
289
340
28A
340
28B
340
28C
340
28D
340
28E
340
28F
340
290
340
291
340
292
340
293
340
294
340
295
340
296
340
297
340
298
340
299
340
29A
340
29B
340
29C
340
29D
340
29E
340
29F
340
2A0
340
2A1
340
2A2
340
2A3
340
2A4
340
2A5
340
2A6
340
2A7
340
2A8
340
2A9
340
2AA
340
2AB
340
2AC
340
2AD
340
2AE
340
2AF
340
2B0
340
2B1
340
2B2
340
2B3
340
2B4
340
2B5
340
2B6
340
2B7
340
2B8
340
2B9
340
2BA
340
2BB
340
2BC
340
2BD
340
2BE
340
2BF
340
2C0
340
2C1
340
2C2
340
2C3
340
2C4
340
2C5
340
2C6
340
2C7
340
2C8
340
2C9
340
2CA
340
2CB
340
2CC
340
2CD
340
2CE
340
2CF
340
2D0
340
2D1
340
2D2
340
2D3
340
2D4
340
2D5
340
2D6
340
2D7
340
2D8
340
2D9
340
2DA
340
2DB
340
2DC
340
2DD
340
2DE
340
2DF
340
2E0
340
2E1
340
2E2
340
2E3
340
2E4
340
2E5
340
2E6
340
2E7
340
2E8
340
2E9
340
2EA
340
2EB
340
2EC
340
2ED
340
2EE
340
2EF
340
2F0
340
2F1
340
2F2
340
2F3
340
2F4
340
2F5
340
2F6
340
2F7
340
2F8
340
2F9
340
2FA
340
2FB
340
2FC
340
2FD
340
2FE
340
2FF
340
300
340
301
340
302
340
303
340
304
340
305
340
306
340
307
340
308
340
309
340
30A
340
30B
340
30C
340
30D
340
30E
340
30F
340
310
340
311
340
312
340
313
340
314
340
315
340
316
340
317
340
318
340
319
340
31A
340
31B
340
31C
340
31D
340
31E
340
31F
340
320
340
321
340
322
340
323
340
324
340
325
340
326
340
327
340
328
340
329
340
32A
340
32B
340
32C
340
32D
340
32E
340
32F
340
330
340
331
340
332
340
333
340
334
340
335
340
336
340
337
340
338
340
339
340
33A
340
33B
340
33C
340
33D
340
33E
340
33F
340
340
340
341
340
342
340
343
340
344
340
345
340
346
340
347
340
348
340
349
340
34A
340
34B
340
34C
340
34D
340
34E
340
34F
340
350
340
351
340
352
340
353
340
354
340
355
340
356
340
357
340
358
340
359
340
35A
340
35B
340
35C
340
35D
340
35E
340
35F
340
360
340
361
340
362
340
363
340
364
340
365
340
366
340
367
340
368
340
369
340
36A
340
36B
340
36C
340
36D
340
36E
340
36F
340
370
340
371
340
372
340
373
340
374
340
375
340
376
340
377
340
378
340
379
340
37A
340
37B
340
37C
340
37D
340
37E
340
37F
340
380
340
381
340
382
340
383
340
384
340
385
340
386
340
387
340
388
340
389
340
38A
340
38B
340
38C
340
38D
340
38E
340
38F
340
390
340
391
340
392
340
393
340
394
340
395
340
396
340
397
340
398
340
399
340
39A
340
39B
340
39C
340
39D
340
39E
340
39F
340
3A0
340
3A1
340
3A2
340
3A3
340
3A4
340
3A5
340
3A6
340
3A7
0
GROUP
5
3E9
330
454
100
AcDbGroup
300

70
0
71
1
340
6C
340
6E
340
70
340
72
340
73
340
74
340
75
340
77
340
78
340
79
340
7A
340
7C
340
7E
340
7F
340
80
340
81
340
82
340
83
340
84
340
85
340
86
340
87
340
88
340
89
340
8A
340
8B
340
8C
340
8D
340
8E
340
8F
340
90
340
91
340
92
340
93
340
94
340
95
340
96
340
97
340
98
340
99
340
9A
340
9B
340
9C
340
9D
340
9E
340
9F
340
A0
340
A1
340
A2
340
A3
340
A4
340
A5
340
A6
340
A7
340
A8
340
A9
340
AA
340
AB
340
AC
340
AD
340
AE
340
AF
340
B0
340
B1
340
B2
340
B3
340
B4
340
B5
340
B6
340
B7
340
B8
340
B9
340
BA
340
BB
340
BC
340
BD
340
BE
340
BF
340
C0
340
C1
340
C2
340
C3
340
C4
340
C5
340
C6
340
C7
340
C8
340
C9
340
CA
340
CB
340
CC
340
CD
340
CE
340
CF
340
D0
340
D1
340
D2
340
D3
340
D4
340
D5
340
D6
340
D7
340
D8
340
D9
340
DA
340
DB
340
DC
340
DD
340
DE
340
DF
340
E0
340
E1
340
E2
340
E3
340
E4
340
E5
340
E6
340
E7
340
E8
340
E9
340
EA
340
EB
340
EC
340
ED
340
EE
340
EF
340
F0
340
F1
340
F2
340
F3
340
F4
340
F5
340
F6
340
F7
340
F8
340
F9
340
FA
340
FB
340
FC
340
FD
340
FE
340
FF
340
100
340
101
340
102
340
103
340
104
340
105
340
106
340
107
340
108
340
109
340
10A
340
10B
340
10C
340
10D
340
10E
340
10F
340
110
340
111
340
112
340
113
340
114
340
115
340
116
340
117
340
118
340
119
340
11A
340
11B
340
11C
340
11D
340
11E
340
11F
340
120
340
121
340
122
340
123
340
124
340
125
340
126
340
127
340
128
340
129
340
12A
340
12B
340
12C
340
12D
340
12E
340
12F
340
130
340
131
340
132
340
133
340
134
340
135
340
136
340
137
340
138
340
139
340
13A
340
13B
340
13C
340
13D
340
13E
340
13F
340
140
340
141
340
142
340
143
340
144
340
145
340
146
340
147
340
148
340
149
340
14A
340
14B
340
14C
340
14D
340
14E
340
14F
340
150
340
151
340
152
340
153
340
154
340
155
340
156
340
157
340
158
340
159
340
15A
340
15B
340
15C
340
15D
340
15E
340
15F
340
160
340
161
340
162
340
163
340
164
340
165
340
166
340
167
340
168
340
169
340
16A
340
16B
340
16C
340
16D
340
16E
340
16F
340
170
340
171
340
172
340
173
340
174
340
175
340
176
340
177
340
178
340
179
340
17A
340
17B
340
17C
340
17D
340
17E
340
17F
340
180
340
181
340
182
340
183
340
184
340
185
340
186
340
187
340
188
340
189
340
18A
340
18B
340
18C
340
18D
340
18E
340
18F
340
190
340
191
340
192
340
193
340
194
340
195
340
196
340
197
340
198
340
199
340
19A
340
19B
340
19C
340
19D
340
19E
340
19F
340
1A0
340
1A1
340
1A2
340
1A3
340
1A4
340
1A5
340
1A6
340
1A7
340
1A8
340
1A9
340
1AA
340
1AB
340
1AC
340
1AD
340
1AE
340
1AF
340
1B0
340
1B1
340
1B2
340
1B3
340
1B4
340
1B5
340
1B6
340
1B7
340
1B8
340
1B9
340
1BA
340
1BB
340
1BC
340
1BD
340
1BE
340
1BF
340
1C0
340
1C1
340
1C2
340
1C3
340
1C4
340
1C5
340
1C6
340
1C7
340
1C8
340
1C9
340
1CA
340
1CB
340
1CC
340
1CD
340
1CE
340
1CF
340
1D0
340
1D1
340
1D2
340
1D3
340
1D4
340
1D5
340
1D6
340
1D7
340
1D8
340
1D9
340
1DA
340
1DB
340
1DC
340
1DD
340
1DE
340
1DF
340
1E0
340
1E1
340
1E2
340
1E3
340
1E4
340
1E5
340
1E6
340
1E7
340
1E8
340
1E9
340
1EA
340
1EB
340
1EC
340
1ED
340
1EE
340
1EF
340
1F0
340
1F1
340
1F2
340
1F3
340
1F4
340
1F5
340
1F6
340
1F7
340
1F8
340
1F9
340
1FA
340
1FB
340
1FC
340
1FD
340
1FE
340
1FF
340
200
340
201
340
202
340
203
340
204
340
205
340
206
340
207
340
208
340
209
340
20A
340
20B
340
20C
340
20D
340
20E
340
20F
340
210
340
211
340
212
340
213
340
214
340
215
340
216
340
217
340
218
340
219
340
21A
340
21B
340
21C
340
21D
340
21E
340
21F
340
220
340
221
340
222
340
223
340
224
340
225
340
226
340
227
340
228
340
229
340
22A
340
22B
340
22C
340
22D
340
22E
340
22F
340
230
340
231
340
232
340
233
340
234
340
235
340
236
340
237
340
238
340
239
340
23A
340
23B
340
23C
340
23D
340
23E
340
23F
340
240
340
241
340
242
340
243
340
244
340
245
340
246
340
247
340
248
340
249
340
24A
340
24B
340
24C
340
24D
340
24E
340
24F
340
250
340
251
340
252
340
253
340
254
340
255
340
256
340
257
340
258
340
259
340
25A
340
25B
340
25C
340
25D
340
25E
340
25F
340
260
340
261
340
262
340
263
340
264
340
265
340
266
340
267
340
268
340
269
340
26A
340
26B
340
26C
340
26D
340
26E
340
26F
340
270
340
271
340
272
340
273
340
274
340
275
340
276
340
277
340
278
340
279
340
27A
340
27B
340
27C
340
27D
340
27E
340
27F
340
280
340
281
340
282
340
283
340
284
340
285
340
286
340
287
340
288
340
289
340
28A
340
28B
340
28C
340
28D
340
28E
340
28F
340
290
340
291
340
292
340
293
340
294
340
295
340
296
340
297
340
298
340
299
340
29A
340
29B
340
29C
340
29D
340
29E
340
29F
340
2A0
340
2A1
340
2A2
340
2A3
340
2A4
340
2A5
340
2A6
340
2A7
340
2A8
340
2A9
340
2AA
340
2AB
340
2AC
340
2AD
340
2AE
340
2AF
340
2B0
340
2B1
340
2B2
340
2B3
340
2B4
340
2B5
340
2B6
340
2B7
340
2B8
340
2B9
340
2BA
340
2BB
340
2BC
340
2BD
340
2BE
340
2BF
340
2C0
340
2C1
340
2C2
340
2C3
340
2C4
340
2C5
340
2C6
340
2C7
340
2C8
340
2C9
340
2CA
340
2CB
340
2CC
340
2CD
340
2CE
340
2CF
340
2D0
340
2D1
340
2D2
340
2D3
340
2D4
340
2D5
340
2D6
340
2D7
340
2D8
340
2D9
340
2DA
340
2DB
340
2DC
340
2DD
340
2DE
340
2DF
340
2E0
340
2E1
340
2E2
340
2E3
340
2E4
340
2E5
340
2E6
340
2E7
340
2E8
340
2E9
340
2EA
340
2EB
340
2EC
340
2ED
340
2EE
340
2EF
340
2F0
340
2F1
340
2F2
340
2F3
340
2F4
340
2F5
340
2F6
340
2F7
340
2F8
340
2F9
340
2FA
340
2FB
340
2FC
340
2FD
340
2FE
340
2FF
340
300
340
301
340
302
340
303
340
304
340
305
340
306
340
307
340
308
340
309
340
30A
340
30B
340
30C
340
30D
340
30E
340
30F
340
310
340
311
340
312
340
313
340
314
340
315
340
316
340
317
340
318
340
319
340
31A
340
31B
340
31C
340
31D
340
31E
340
31F
340
320
340
321
340
322
340
323
340
324
340
325
340
326
340
327
340
328
340
329
340
32A
340
32B
340
32C
340
32D
340
32E
340
32F
340
330
340
331
340
332
340
333
340
334
340
335
340
336
340
337
340
338
340
339
340
33A
340
33B
340
33C
340
33D
340
33E
340
33F
340
340
340
341
340
342
340
343
340
344
340
345
340
346
340
347
340
348
340
349
340
34A
340
34B
340
34C
340
34D
340
34E
340
34F
340
350
340
351
340
352
340
353
340
354
340
355
340
356
340
357
340
358
340
359
340
35A
340
35B
340
35C
340
35D
340
35E
340
35F
340
360
340
361
340
362
340
363
340
364
340
365
340
366
340
367
340
368
340
369
340
36A
340
36B
340
36C
340
36D
340
36E
340
36F
340
370
340
371
340
372
340
373
340
374
340
375
340
376
340
377
340
378
340
379
340
37A
340
37B
340
37C
340
37D
340
37E
340
37F
340
380
340
381
340
382
340
383
340
384
340
385
340
386
340
387
340
388
340
389
340
38A
340
38B
340
38C
340
38D
340
38E
340
38F
340
390
340
391
340
392
340
393
340
394
340
395
340
396
340
397
340
398
340
399
340
39A
340
39B
340
39C
340
39D
340
39E
340
39F
340
3A0
340
3A1
340
3A2
340
3A3
340
3A4
340
3A5
340
3A6
340
3A7
340
6E
340
AE
340
AF
340
B0
340
B1
340
238
340
3AC
340
3AC
340
3AC
340
3AC
340
3AC
340
3AC
340
3AC
340
3A8
340
3AC
340
3C2
340
3CC
340
3AC
340
3AC
340
3AC
340
3AC
340
3AC
340
3AC
340
3AC
340
B2
340
B3
340
B4
340
B5
340
B6
340
B7
340
B8
340
B9
340
BA
340
BB
340
BC
340
BD
340
BE
340
BF
340
C0
340
C1
340
C2
340
C3
340
C4
340
C5
340
C6
340
C7
340
C8
340
C9
340
CA
340
CB
340
CC
340
CD
340
CE
340
CF
340
D0
340
D1
340
D2
340
D3
340
D4
340
D5
340
D6
340
D7
340
D8
340
D9
340
DA
340
DB
340
DC
340
DD
340
DE
340
DF
340
E0
340
E1
340
E2
340
E3
340
E4
340
E5
340
E6
340
E7
340
E8
340
E9
340
EA
340
EB
340
EC
340
ED
340
EE
340
EF
340
F0
340
F1
340
F2
340
F3
340
F4
340
F5
340
F6
340
F7
340
F8
340
F9
340
FA
340
FB
340
FC
340
FD
340
FE
340
FF
340
100
340
101
340
102
340
103
340
104
340
105
340
106
340
107
340
108
340
109
340
10A
340
10B
340
10C
340
10D
340
10E
340
10F
340
110
340
111
340
112
340
113
340
114
340
115
340
116
340
117
340
118
340
119
340
11A
340
11B
340
11C
340
11D
340
11E
340
11F
340
120
340
121
340
122
340
123
340
124
340
125
340
126
340
127
340
128
340
129
340
12A
340
12B
340
12C
340
12D
340
12E
340
12F
340
130
340
131
340
132
340
133
340
134
340
135
340
136
340
137
340
138
340
139
340
13A
340
13B
340
13C
340
13D
340
13E
340
13F
340
140
340
141
340
142
340
143
340
144
340
145
340
146
340
147
340
148
340
149
340
14A
340
14B
340
14C
340
14D
340
14E
340
14F
340
150
340
151
340
152
340
153
340
154
340
155
340
156
340
157
340
158
340
159
340
15A
340
15B
340
15C
340
15D
340
15E
340
15F
340
160
340
161
340
162
340
163
340
164
340
165
340
166
340
167
340
168
340
169
340
16A
340
16B
340
16C
340
16D
340
16E
340
16F
340
170
340
171
340
172
340
173
340
174
340
175
340
176
340
177
340
178
340
179
340
17A
340
17B
340
17C
340
17D
340
17E
340
17F
340
180
340
181
340
182
340
183
340
184
340
185
340
186
340
187
340
188
340
189
340
18A
340
18B
340
18C
340
18D
340
18E
340
18F
340
190
340
191
340
192
340
193
340
194
340
195
340
196
340
197
340
198
340
199
340
19A
340
19B
340
19C
340
19D
340
19E
340
19F
340
1A0
340
1A1
340
1A2
340
1A3
340
1A4
340
1A5
340
1A6
340
1A7
340
1A8
340
1A9
340
1AA
340
1AB
340
1AC
340
1AD
340
1AE
340
1AF
340
1B0
340
1B1
340
1B2
340
1B3
340
1B4
340
1B5
340
1B6
340
1B7
340
1B8
340
1B9
340
1BA
340
1BB
340
1BC
340
1BD
340
1BE
340
1BF
340
1C0
340
1C1
340
1C2
340
1C3
340
1C4
340
1C5
340
1C6
340
1C7
340
1C8
340
1C9
340
1CA
340
1CB
340
1CC
340
1CD
340
1CE
340
1CF
340
1D0
340
1D1
340
1D2
340
1D3
340
1D4
340
1D5
340
1D6
340
1D7
340
1D8
340
1D9
340
1DA
340
1DB
340
1DC
340
1DD
340
1DE
340
1DF
340
1E0
340
1E1
340
1E2
340
1E3
340
1E4
340
1E5
340
1E6
340
1E7
340
1E8
340
1E9
340
1EA
340
1EB
340
1EC
340
1ED
340
1EE
340
1EF
340
1F0
340
1F1
340
1F2
340
1F3
340
1F4
340
1F5
340
1F6
340
1F7
340
1F8
340
1F9
340
1FA
340
1FB
340
239
340
23A
340
23B
340
23C
340
23D
340
23E
340
23F
340
240
340
241
340
242
340
243
340
244
340
245
340
246
340
247
340
248
340
249
340
24A
340
24B
340
24C
340
24D
340
24E
340
24F
340
250
340
251
340
252
340
253
340
254
340
255
340
256
340
257
340
258
340
259
340
25A
340
25B
340
25C
340
25D
340
25E
340
25F
340
260
340
261
340
262
340
263
340
264
340
265
340
266
340
267
340
268
340
269
340
26A
340
26B
340
26C
340
26D
340
26E
340
26F
340
270
340
271
340
272
340
273
340
274
340
275
340
276
340
277
340
278
340
279
340
27A
340
27B
340
27C
340
27D
340
27E
340
27F
340
280
340
281
340
282
340
283
340
284
340
285
340
286
340
287
340
288
340
289
340
28A
340
28B
340
28C
340
28D
340
28E
340
28F
340
290
340
291
340
292
340
293
340
294
340
295
340
296
340
297
340
298
340
299
340
29A
340
29B
340
29C
340
29D
340
29E
340
29F
340
2A0
340
2A1
340
2A2
340
2A3
340
2A4
340
2A5
340
2A6
340
2A7
340
2A8
340
2A9
340
2AA
340
2AB
340
2AC
340
2AD
340
2AE
340
2AF
340
2B0
340
2B1
340
2B2
340
2B3
340
2B4
340
2B5
340
2B6
340
2B7
340
2B8
340
2B9
340
2BA
340
2BB
340
2BC
340
2BD
340
2BE
340
2BF
340
2C0
340
2C1
340
2C2
340
2C3
340
2C4
340
2C5
340
2C6
340
2C7
340
2C8
340
2C9
340
2CA
340
2CB
340
2CC
340
2CD
340
2CE
340
2CF
340
2D0
340
2D1
340
2D2
340
2D3
340
2D4
340
2D5
340
2D6
340
2D7
340
2D8
340
2D9
340
2DA
340
2DB
340
2DC
340
2DD
340
2DE
340
2DF
340
2E0
340
2E1
340
2E2
340
2E3
340
2E4
340
2E5
340
2E6
340
2E7
340
2E8
340
2E9
340
2EA
340
2EB
340
2EC
340
2ED
340
2EE
340
2EF
340
2F0
340
2F1
340
2F2
340
2F3
340
2F4
340
2F5
340
2F6
340
2F7
340
2F8
340
2F9
340
2FA
340
2FB
340
2FC
340
2FD
340
2FE
340
2FF
340
300
340
301
340
302
340
303
340
304
340
305
340
306
340
307
340
308
340
309
340
30A
340
30B
340
30C
340
30D
340
30E
340
30F
340
310
340
311
340
312
340
313
340
314
340
315
340
316
340
317
340
318
340
319
340
31A
340
31B
340
31C
340
31D
340
31E
340
31F
340
320
340
321
340
322
340
323
340
324
340
325
340
326
340
327
340
328
340
329
340
32A
340
32B
340
32C
340
32D
340
32E
340
32F
340
330
340
331
340
332
340
333
340
334
340
335
340
336
340
337
340
338
340
339
340
33A
340
33B
340
33C
340
33D
340
33E
340
33F
340
340
340
341
340
342
340
343
340
344
340
345
340
346
340
347
340
348
340
349
340
34A
340
34B
340
34C
340
34D
340
34E
340
34F
340
350
340
351
340
352
340
353
340
354
340
355
340
356
340
357
340
358
340
359
340
35A
340
35B
340
35C
340
35D
340
35E
340
35F
340
360
340
361
340
362
340
363
340
364
340
365
340
366
340
367
340
368
340
369
340
36A
340
36B
340
36C
340
36D
340
36E
340
36F
340
370
340
371
340
372
340
373
340
374
340
375
340
376
340
377
340
378
340
379
340
37A
340
37B
340
37C
340
37D
340
37E
340
37F
340
380
340
381
340
382
340
383
340
384
340
385
340
386
340
387
340
388
340
389
340
38A
340
38B
340
38C
340
38D
340
38E
340
38F
340
390
340
391
340
392
340
393
340
394
340
395
340
396
340
397
340
398
340
399
340
39A
340
39B
340
39C
340
39D
340
39E
340
39F
340
3A0
340
3A1
340
3A2
340
3A3
340
3A4
340
3A5
340
3A6
340
3A7
340
3A8
340
3AC
340
3B8
340
3C2
340
3CC
340
3D6
340
3E0
0
GROUP
5
3EA
330
454
100
AcDbGroup
300

70
0
71
1
340
6E
340
AE
340
AF
340
B0
340
B1
340
238
340
3AC
340
3AC
340
3AC
340
3AC
340
3AC
340
3AC
340
3AC
340
3A8
340
3AC
340
3C2
340
3CC
0
MLINESTYLE
5
18
330
455
100
AcDbMlineStyle
2
Standard
70
0
3

62
256
51
90
52
90
71
2
49
-0.5
62
256
6
ByLayer
49
0.5
62
256
6
ByLayer
0
RASTERVARIABLES
5
43f
330

100
AcDbRasterVariables
90
0
70
1
71
1
72
1
0
ENDSEC
0
EOF
