0
SECTION
2
HEADER
9
$ACADVER
1
AC1015
9
$DWGCODEPAGE
3
ANSI_1252
9
$HANDSEED
5
420
9
$ANGBASE
50
0
9
$ANGDIR
70
0
9
$ATTMODE
70
1
9
$AUNITS
70
0
9
$AUPREC
70
0
9
$CECOLOR
62
256
9
$CELTSCALE
40
1
9
$CELTYPE
6
ByLayer
9
$CELWEIGHT
370
18
9
$CLAYER
8
0
9
$CMLJUST
70
0
9
$CMLSCALE
40
1
9
$CMLSTYLE
2
Standard
9
$DIMSTYLE
2
Standard
9
$TEXTSIZE
40
0.2
9
$TEXTSTYLE
7
Standard
9
$LUNITS
70
2
9
$LUPREC
70
4
9
$EXTNAMES
290
1
9
$INSUNITS
70
4
9
$LTSCALE
40
1
9
$LWDISPLAY
290
1
9
$PDMODE
70
0
9
$PDSIZE
40
0
9
$PLINEGEN
70
0
0
ENDSEC
0
SECTION
2
CLASSES
0
CLASS
1
RASTERVARIABLES
2
AcDbRasterVariables
3
ISM
90
0
280
0
281
0
0
ENDSEC
0
SECTION
2
TABLES
0
TABLE
2
VPORT
5
416
100
AcDbSymbolTable
0
VPORT
5
1
100
AcDbSymbolTableRecord
100
AcDbViewportTableRecord
2
*Active
70
0
10
0
20
0
11
1
21
1
12
-1
22
1
13
0
23
0
14
0.5
24
0.5
15
10
25
10
16
0
26
0
36
1
17
0
27
0
37
0
0
ENDTAB
0
TABLE
2
LTYPE
5
417
100
AcDbSymbolTable
0
LTYPE
5
14
100
AcDbSymbolTableRecord
100
AcDbLinetypeTableRecord
70
0
2
ByBlock
3

72
65
73
0
40
0
0
LTYPE
5
15
100
AcDbSymbolTableRecord
100
AcDbLinetypeTableRecord
70
0
2
ByLayer
3

72
65
73
0
40
0
0
LTYPE
5
16
100
AcDbSymbolTableRecord
100
AcDbLinetypeTableRecord
70
0
2
CONTINUOUS
3
Solid line
72
65
73
0
40
0
0
LTYPE
5
6A
100
AcDbSymbolTableRecord
100
AcDbLinetypeTableRecord
70
0
2
CENTER
3
____ _ ____ _ ____ _ ____
72
65
73
4
40
47.5
49
22
74
0
49
-8.5
74
0
49
8.5
74
0
49
-8.5
74
0
0
LTYPE
5
6B
100
AcDbSymbolTableRecord
100
AcDbLinetypeTableRecord
70
0
2
DASHED
3
__ __ __ __ __ __ __ __ __
72
65
73
2
40
25.72
49
12.86
74
0
49
-12.86
74
0
0
ENDTAB
0
TABLE
2
LAYER
5
418
100
AcDbSymbolTable
0
LAYER
5
10
100
AcDbSymbolTableRecord
100
AcDbLayerTableRecord
2
0
70
0
62
7
6
CONTINUOUS
290
1
370
-3
390
0
0
LAYER
5
6D
100
AcDbSymbolTableRecord
100
AcDbLayerTableRecord
2
80
70
0
62
-6
6
CONTINUOUS
290
1
370
-3
390
0
0
LAYER
5
6F
100
AcDbSymbolTableRecord
100
AcDbLayerTableRecord
2
81
70
0
62
-3
6
CONTINUOUS
290
1
370
-3
390
0
0
LAYER
5
71
100
AcDbSymbolTableRecord
100
AcDbLayerTableRecord
2
1
70
0
62
4
6
CONTINUOUS
290
1
370
-3
390
0
0
LAYER
5
CA
100
AcDbSymbolTableRecord
100
AcDbLayerTableRecord
2
4
70
0
62
-2
6
CENTER
290
1
370
-3
390
0
0
LAYER
5
1A3
100
AcDbSymbolTableRecord
100
AcDbLayerTableRecord
2
2
70
0
62
7
6
CONTINUOUS
290
1
370
-3
390
0
0
LAYER
5
400
100
AcDbSymbolTableRecord
100
AcDbLayerTableRecord
2
SK1
70
0
62
4
6
CONTINUOUS
290
1
370
-3
390
0
0
LAYER
5
401
100
AcDbSymbolTableRecord
100
AcDbLayerTableRecord
2
SK4
70
0
62
2
6
CENTER
290
1
370
-3
390
0
0
LAYER
5
402
100
AcDbSymbolTableRecord
100
AcDbLayerTableRecord
2
SK6
70
0
62
5
6
CONTINUOUS
290
1
370
-3
390
0
0
LAYER
5
403
100
AcDbSymbolTableRecord
100
AcDbLayerTableRecord
2
SK2
70
0
62
7
6
CONTINUOUS
290
1
370
-3
390
0
0
ENDTAB
0
TABLE
2
STYLE
5
419
100
AcDbSymbolTable
0
STYLE
5
11
100
AcDbSymbolTableRecord
100
AcDbTextStyleTableRecord
2
Standard
3
txt
70
0
71
0
40
0
41
1
42
0
50
0
0
STYLE
5
35D
100
AcDbSymbolTableRecord
100
AcDbTextStyleTableRecord
2
iso_b_vert
3
simplex.shx
70
0
71
0
40
0
41
1
42
0
50
0
0
STYLE
5
35E
100
AcDbSymbolTableRecord
100
AcDbTextStyleTableRecord
2
DWGDirectTextStyle
3
simplex
70
0
71
0
40
0
41
1
42
0
50
0
0
ENDTAB
0
TABLE
2
DIMSTYLE
5
41a
100
AcDbSymbolTable
100
AcDbDimStyleTable
0
DIMSTYLE
105
27
100
AcDbSymbolTableRecord
100
AcDbDimStyleTableRecord
2
Standard
70
0
3
<>
41
0.18
42
0.0625
44
0.18
140
0.18
147
0.09
73
0
74
0
77
1
271
2
275
0
278
52
280
0
340
11
0
ENDTAB
0
TABLE
2
VIEW
5
41b
100
AcDbSymbolTable
0
ENDTAB
0
TABLE
2
UCS
5
41c
100
AcDbSymbolTable
0
ENDTAB
0
TABLE
2
APPID
5
41d
100
AcDbSymbolTable
0
APPID
5
12
100
AcDbSymbolTableRecord
100
AcDbRegAppTableRecord
2
ACAD
70
0
0
ENDTAB
0
TABLE
2
BLOCK_RECORD
5
41e
100
AcDbSymbolTable
0
BLOCK_RECORD
5
1F
100
AcDbSymbolTableRecord
100
AcDbBlockTableRecord
2
*Model_Space
340
0
70
0
0
BLOCK_RECORD
5
1B
100
AcDbSymbolTableRecord
100
AcDbBlockTableRecord
2
*Paper_Space
340
0
70
0
0
BLOCK_RECORD
5
23
100
AcDbSymbolTableRecord
100
AcDbBlockTableRecord
2
*Paper_Space0
340
0
70
0
0
BLOCK_RECORD
5
361
100
AcDbSymbolTableRecord
100
AcDbBlockTableRecord
2
DimnDraft3D1
340
0
70
0
0
BLOCK_RECORD
5
36D
100
AcDbSymbolTableRecord
100
AcDbBlockTableRecord
2
DimnDraft3D2
340
0
70
0
0
BLOCK_RECORD
5
378
100
AcDbSymbolTableRecord
100
AcDbBlockTableRecord
2
DimnDraft3D3
340
0
70
0
0
BLOCK_RECORD
5
382
100
AcDbSymbolTableRecord
100
AcDbBlockTableRecord
2
DimnDraft3D4
340
0
70
0
0
BLOCK_RECORD
5
38C
100
AcDbSymbolTableRecord
100
AcDbBlockTableRecord
2
DimnDraft3D5
340
0
70
0
0
BLOCK_RECORD
5
396
100
AcDbSymbolTableRecord
100
AcDbBlockTableRecord
2
DimnDraft3D6
340
0
70
0
0
ENDTAB
0
ENDSEC
0
SECTION
2
BLOCKS
0
BLOCK
5
20
100
AcDbEntity
8
0
100
AcDbBlockBegin
2
*Model_Space
70
0
10
0
20
0
30
0
3
*Model_Space
0
ENDBLK
5
21
100
AcDbEntity
8
0
100
AcDbBlockEnd
0
BLOCK
5
1C
100
AcDbEntity
8
0
100
AcDbBlockBegin
2
*Paper_Space
70
0
10
0
20
0
30
0
3
*Paper_Space
0
ENDBLK
5
1D
100
AcDbEntity
8
0
100
AcDbBlockEnd
0
BLOCK
5
24
100
AcDbEntity
8
0
100
AcDbBlockBegin
2
*Paper_Space0
70
0
10
0
20
0
30
0
3
*Paper_Space0
0
ENDBLK
5
25
100
AcDbEntity
8
0
100
AcDbBlockEnd
0
BLOCK
5
36A
100
AcDbEntity
8
0
100
AcDbBlockBegin
2
DimnDraft3D1
70
0
10
0
20
0
30
0
3
DimnDraft3D1
0
MTEXT
5
362
100
AcDbEntity
8
SK2
62
256
6
ByLayer
370
18
48
1
60
0
100
AcDbMText
10
-46.853922
20
-2.139474
30
0
210
0
220
0
230
1
1
\W0.8132;%%c 50
40
3
41
0
44
1.084337
50
90
71
7
72
5
7
iso_b_vert
0
MTEXT
5
364
100
AcDbEntity
8
SK2
62
256
6
ByLayer
370
18
48
1
60
0
100
AcDbMText
10
-46.853922
20
-4.507895
30
0
210
0
220
0
230
1
1
\W0.3160; 
40
3
41
0
44
1.084337
50
90
71
7
72
5
7
iso_b_vert
0
LINE
5
365
100
AcDbEntity
8
SK2
62
256
6
ByLayer
370
13
48
1
60
0
100
AcDbLine
10
-1.7
20
24.99
30
0
11
-48.103922
21
24.99
31
0
39
0
210
0
220
0
230
1
0
LINE
5
366
100
AcDbEntity
8
SK2
62
256
6
ByLayer
370
13
48
1
60
0
100
AcDbLine
10
-1.7
20
-24.99
30
0
11
-48.103922
21
-24.99
31
0
39
0
210
0
220
0
230
1
0
LINE
5
367
100
AcDbEntity
8
SK2
62
256
6
ByLayer
370
13
48
1
60
0
100
AcDbLine
10
-46.103922
20
24.99
30
0
11
-46.103922
21
-24.99
31
0
39
0
210
0
220
0
230
1
0
SOLID
5
368
100
AcDbEntity
8
SK2
62
256
6
ByLayer
370
13
48
1
60
0
100
AcDbTrace
10
-46.103922
20
24.99
30
0
11
-45.685925
21
21.815002
31
0
12
-46.521919
22
21.814998
32
0
13
-46.103922
23
24.99
33
0
39
0
210
0
220
0
230
1
0
SOLID
5
369
100
AcDbEntity
8
SK2
62
256
6
ByLayer
370
13
48
1
60
0
100
AcDbTrace
10
-46.103922
20
-24.99
30
0
11
-46.521919
21
-21.815002
31
0
12
-45.685925
22
-21.814998
32
0
13
-46.103922
23
-24.99
33
0
39
0
210
0
220
0
230
1
0
ENDBLK
5
36B
100
AcDbEntity
8
0
100
AcDbBlockEnd
0
BLOCK
5
375
100
AcDbEntity
8
0
100
AcDbBlockBegin
2
DimnDraft3D2
70
0
10
0
20
0
30
0
3
DimnDraft3D2
0
MTEXT
5
36E
100
AcDbEntity
8
2
62
256
6
ByLayer
370
18
48
1
60
0
100
AcDbMText
10
130.759485
20
-22.399663
30
0
210
0
220
0
230
1
1
\W0.3160; 
40
3.5
41
0
44
1.084337
50
90
71
7
72
5
7
iso_b_vert
0
MTEXT
5
36F
100
AcDbEntity
8
2
62
256
6
ByLayer
370
18
48
1
60
0
100
AcDbMText
10
130.759485
20
-17.886505
30
0
210
0
220
0
230
1
1
\W0.3160; 
40
3.5
41
0
44
1.084337
50
90
71
7
72
5
7
iso_b_vert
0
LINE
5
370
100
AcDbEntity
8
2
62
256
6
ByLayer
370
13
48
1
60
0
100
AcDbLine
10
102
20
24.75
30
0
11
133.634485
21
24.75
31
0
39
0
210
0
220
0
230
1
0
LINE
5
371
100
AcDbEntity
8
2
62
256
6
ByLayer
370
13
48
1
60
0
100
AcDbLine
10
101.966895
20
-24.75
30
0
11
133.634485
21
-24.75
31
0
39
0
210
0
220
0
230
1
0
LINE
5
372
100
AcDbEntity
8
2
62
256
6
ByLayer
370
13
48
1
60
0
100
AcDbLine
10
131.634485
20
24.75
30
0
11
131.634485
21
-24.75
31
0
39
0
210
0
220
0
230
1
0
SOLID
5
373
100
AcDbEntity
8
2
62
256
6
ByLayer
370
13
48
1
60
0
100
AcDbTrace
10
131.634485
20
24.75
30
0
11
132.052482
21
21.575002
31
0
12
131.216489
22
21.574998
32
0
13
131.634485
23
24.75
33
0
39
0
210
0
220
0
230
1
0
SOLID
5
374
100
AcDbEntity
8
2
62
256
6
ByLayer
370
13
48
1
60
0
100
AcDbTrace
10
131.634485
20
-24.75
30
0
11
131.216489
21
-21.575002
31
0
12
132.052482
22
-21.574998
32
0
13
131.634485
23
-24.75
33
0
39
0
210
0
220
0
230
1
0
ENDBLK
5
376
100
AcDbEntity
8
0
100
AcDbBlockEnd
0
BLOCK
5
37F
100
AcDbEntity
8
0
100
AcDbBlockBegin
2
DimnDraft3D3
70
0
10
0
20
0
30
0
3
DimnDraft3D3
0
MTEXT
5
379
100
AcDbEntity
8
2
62
256
6
ByLayer
370
18
48
1
60
0
100
AcDbMText
10
114.259265
20
7.724645
30
0
210
0
220
0
230
1
1
\W0.5899;90%%d
40
3
41
0
44
1.084337
50
45
71
7
72
5
7
iso_b_vert
0
LINE
5
37A
100
AcDbEntity
8
2
62
256
6
ByLayer
370
13
48
1
60
0
100
AcDbLine
10
102
20
24.75
30
0
11
124.871566
21
24.75
31
0
39
0
210
0
220
0
230
1
0
LINE
5
37B
100
AcDbEntity
8
2
62
256
6
ByLayer
370
13
48
1
60
0
100
AcDbLine
10
100
20
13.48731
30
0
11
100
21
-0.121566
31
0
39
0
210
0
220
0
230
1
0
ARC
5
37C
100
AcDbEntity
8
2
62
256
6
ByLayer
370
13
48
1
60
0
100
AcDbCircle
39
0
10
100
20
24.75
30
0
40
22.8715663954192
210
0
220
0
230
1
100
AcDbArc
50
270
51
0
0
SOLID
5
37D
100
AcDbEntity
8
2
62
256
6
ByLayer
370
13
48
1
60
0
100
AcDbTrace
10
122.871566
20
24.75
30
0
11
123.179323
21
21.562427
31
0
12
122.343832
22
21.591384
32
0
13
122.871566
23
24.75
33
0
39
0
210
0
220
0
230
1
0
SOLID
5
37E
100
AcDbEntity
8
2
62
256
6
ByLayer
370
13
48
1
60
0
100
AcDbTrace
10
100
20
1.878434
30
0
11
103.158612
21
2.406168
31
0
12
103.187576
22
1.570677
32
0
13
100
23
1.878434
33
0
39
0
210
0
220
0
230
1
0
ENDBLK
5
380
100
AcDbEntity
8
0
100
AcDbBlockEnd
0
BLOCK
5
389
100
AcDbEntity
8
0
100
AcDbBlockBegin
2
DimnDraft3D4
70
0
10
0
20
0
30
0
3
DimnDraft3D4
0
MTEXT
5
383
100
AcDbEntity
8
2
62
256
6
ByLayer
370
18
48
1
60
0
100
AcDbMText
10
48.271053
20
59.25
30
0
210
0
220
0
230
1
1
\W0.6255;100
40
3
41
0
44
1.084337
50
0
71
7
72
5
7
iso_b_vert
0
LINE
5
384
100
AcDbEntity
8
2
62
256
6
ByLayer
370
13
48
1
60
0
100
AcDbLine
10
0
20
26.69
30
0
11
0
21
60.5
31
0
39
0
210
0
220
0
230
1
0
LINE
5
385
100
AcDbEntity
8
2
62
256
6
ByLayer
370
13
48
1
60
0
100
AcDbLine
10
100
20
26.75
30
0
11
100
21
60.5
31
0
39
0
210
0
220
0
230
1
0
LINE
5
386
100
AcDbEntity
8
2
62
256
6
ByLayer
370
13
48
1
60
0
100
AcDbLine
10
0
20
58.5
30
0
11
100
21
58.5
31
0
39
0
210
0
220
0
230
1
0
SOLID
5
387
100
AcDbEntity
8
2
62
256
6
ByLayer
370
13
48
1
60
0
100
AcDbTrace
10
0
20
58.5
30
0
11
3.174998
21
58.917997
31
0
12
3.175002
22
58.082003
32
0
13
0
23
58.5
33
0
39
0
210
0
220
0
230
1
0
SOLID
5
388
100
AcDbEntity
8
2
62
256
6
ByLayer
370
13
48
1
60
0
100
AcDbTrace
10
100
20
58.5
30
0
11
96.825002
21
58.082003
31
0
12
96.824998
22
58.917997
32
0
13
100
23
58.5
33
0
39
0
210
0
220
0
230
1
0
ENDBLK
5
38A
100
AcDbEntity
8
0
100
AcDbBlockEnd
0
BLOCK
5
393
100
AcDbEntity
8
0
100
AcDbBlockBegin
2
DimnDraft3D5
70
0
10
0
20
0
30
0
3
DimnDraft3D5
0
MTEXT
5
38D
100
AcDbEntity
8
SK2
62
256
6
ByLayer
370
18
48
1
60
0
100
AcDbMText
10
33.271053
20
74.25
30
0
210
0
220
0
230
1
1
\W0.6255;130
40
3
41
0
44
1.084337
50
0
71
7
72
5
7
iso_b_vert
0
LINE
5
38E
100
AcDbEntity
8
SK2
62
256
6
ByLayer
370
13
48
1
60
0
100
AcDbLine
10
-30
20
17.991832
30
0
11
-30
21
75.5
31
0
39
0
210
0
220
0
230
1
0
LINE
5
38F
100
AcDbEntity
8
SK2
62
256
6
ByLayer
370
13
48
1
60
0
100
AcDbLine
10
100
20
26.75
30
0
11
100
21
75.5
31
0
39
0
210
0
220
0
230
1
0
LINE
5
390
100
AcDbEntity
8
SK2
62
256
6
ByLayer
370
13
48
1
60
0
100
AcDbLine
10
-30
20
73.5
30
0
11
100
21
73.5
31
0
39
0
210
0
220
0
230
1
0
SOLID
5
391
100
AcDbEntity
8
SK2
62
256
6
ByLayer
370
13
48
1
60
0
100
AcDbTrace
10
-30
20
73.5
30
0
11
-26.825002
21
73.917997
31
0
12
-26.824998
22
73.082003
32
0
13
-30
23
73.5
33
0
39
0
210
0
220
0
230
1
0
SOLID
5
392
100
AcDbEntity
8
SK2
62
256
6
ByLayer
370
13
48
1
60
0
100
AcDbTrace
10
100
20
73.5
30
0
11
96.825002
21
73.082003
31
0
12
96.824998
22
73.917997
32
0
13
100
23
73.5
33
0
39
0
210
0
220
0
230
1
0
ENDBLK
5
394
100
AcDbEntity
8
0
100
AcDbBlockEnd
0
BLOCK
5
39D
100
AcDbEntity
8
0
100
AcDbBlockBegin
2
DimnDraft3D6
70
0
10
0
20
0
30
0
3
DimnDraft3D6
0
MTEXT
5
397
100
AcDbEntity
8
2
62
256
6
ByLayer
370
18
48
1
60
0
100
AcDbMText
10
51.524342
20
44.25
30
0
210
0
220
0
230
1
1
\W0.4694;LU = 1.5 x D{\H.70x;\S ^  C;}
40
3
41
0
44
1.084337
50
0
71
7
72
5
7
iso_b_vert
0
LINE
5
398
100
AcDbEntity
8
2
62
256
6
ByLayer
370
13
48
1
60
0
100
AcDbLine
10
25.75
20
26.75
30
0
11
25.75
21
45.5
31
0
39
0
210
0
220
0
230
1
0
LINE
5
399
100
AcDbEntity
8
2
62
256
6
ByLayer
370
13
48
1
60
0
100
AcDbLine
10
100
20
26.75
30
0
11
100
21
45.5
31
0
39
0
210
0
220
0
230
1
0
LINE
5
39A
100
AcDbEntity
8
2
62
256
6
ByLayer
370
13
48
1
60
0
100
AcDbLine
10
25.75
20
43.5
30
0
11
100
21
43.5
31
0
39
0
210
0
220
0
230
1
0
SOLID
5
39B
100
AcDbEntity
8
2
62
256
6
ByLayer
370
13
48
1
60
0
100
AcDbTrace
10
25.75
20
43.5
30
0
11
28.924998
21
43.917997
31
0
12
28.925002
22
43.082003
32
0
13
25.75
23
43.5
33
0
39
0
210
0
220
0
230
1
0
SOLID
5
39C
100
AcDbEntity
8
2
62
256
6
ByLayer
370
13
48
1
60
0
100
AcDbTrace
10
100
20
43.5
30
0
11
96.825002
21
43.082003
31
0
12
96.824998
22
43.917997
32
0
13
100
23
43.5
33
0
39
0
210
0
220
0
230
1
0
ENDBLK
5
39E
100
AcDbEntity
8
0
100
AcDbBlockEnd
0
ENDSEC
0
SECTION
2
ENTITIES
0
ARC
5
1A4
100
AcDbEntity
8
1
62
256
6
ByLayer
370
18
48
1
60
0
100
AcDbCircle
39
0
10
95.9
20
6.9
30
0
40
0.50000000000015
210
0
220
0
230
1
100
AcDbArc
50
270
51
0
0
ARC
5
1A6
100
AcDbEntity
8
1
62
256
6
ByLayer
370
18
48
1
60
0
100
AcDbCircle
39
0
10
82.59551
20
13.655585
30
0
40
1.07670778632207
210
0
220
0
230
1
100
AcDbArc
50
272.386894
51
306
0
ARC
5
1A7
100
AcDbEntity
8
1
62
256
6
ByLayer
370
18
48
1
60
0
100
AcDbCircle
39
0
10
82.427715
20
17.681069
30
0
40
5.10568679161945
210
0
220
0
230
1
100
AcDbArc
50
265.097722
51
272.386894
0
ARC
5
1A8
100
AcDbEntity
8
1
62
256
6
ByLayer
370
18
48
1
60
0
100
AcDbCircle
39
0
10
82.407111
20
17.440849
30
0
40
4.8645850436431
210
0
220
0
230
1
100
AcDbArc
50
255.349721
51
265.097722
0
ARC
5
1A9
100
AcDbEntity
8
1
62
256
6
ByLayer
370
18
48
1
60
0
100
AcDbCircle
39
0
10
81.670781
20
14.62417
30
0
40
1.95325183808477
210
0
220
0
230
1
100
AcDbArc
50
231.369817
51
255.349721
0
ARC
5
1AA
100
AcDbEntity
8
1
62
256
6
ByLayer
370
18
48
1
60
0
100
AcDbCircle
39
0
10
81.061015
20
13.861155
30
0
40
0.976519083076083
210
0
220
0
230
1
100
AcDbArc
50
219.862456
51
231.369817
0
ARC
5
1AB
100
AcDbEntity
8
1
62
256
6
ByLayer
370
18
48
1
60
0
100
AcDbCircle
39
0
10
80.571498
20
13.452399
30
0
40
0.338782686063052
210
0
220
0
230
1
100
AcDbArc
50
187.472375
51
219.862456
0
ARC
5
1AC
100
AcDbEntity
8
1
62
256
6
ByLayer
370
18
48
1
60
0
100
AcDbCircle
39
0
10
80.468898
20
13.438942
30
0
40
0.235303581284204
210
0
220
0
230
1
100
AcDbArc
50
149.093389
51
187.472375
0
ARC
5
1AD
100
AcDbEntity
8
1
62
256
6
ByLayer
370
18
48
1
60
0
100
AcDbCircle
39
0
10
80.610933
20
13.353914
30
0
40
0.400844530020131
210
0
220
0
230
1
100
AcDbArc
50
126
51
149.093389
0
ARC
5
1AE
100
AcDbEntity
8
1
62
256
6
ByLayer
370
18
48
1
60
0
100
AcDbCircle
39
0
10
7.558679
20
-20.234352
30
0
40
5.51976622652187
210
0
220
0
230
1
100
AcDbArc
50
321.764968
51
345.242611
0
ARC
5
1AF
100
AcDbEntity
8
1
62
256
6
ByLayer
370
18
48
1
60
0
100
AcDbCircle
39
0
10
-0.598951
20
-18.085503
30
0
40
13.9556702236175
210
0
220
0
230
1
100
AcDbArc
50
345.242611
51
354.63955
0
ARC
5
1B0
100
AcDbEntity
8
1
62
256
6
ByLayer
370
18
48
1
60
0
100
AcDbCircle
39
0
10
-5.276706
20
-17.646582
30
0
40
18.6539725460018
210
0
220
0
230
1
100
AcDbArc
50
354.63955
51
2.492811
0
ARC
5
1B1
100
AcDbEntity
8
1
62
256
6
ByLayer
370
18
48
1
60
0
100
AcDbCircle
39
0
10
-18.728599
20
-18.232214
30
0
40
32.1186075094102
210
0
220
0
230
1
100
AcDbArc
50
2.492811
51
7.058595
0
ARC
5
1B2
100
AcDbEntity
8
1
62
256
6
ByLayer
370
18
48
1
60
0
100
AcDbCircle
39
0
10
-25.428699
20
-19.061839
30
0
40
38.8698752274757
210
0
220
0
230
1
100
AcDbArc
50
7.058595
51
11.733295
0
ARC
5
1B3
100
AcDbEntity
8
1
62
256
6
ByLayer
370
18
48
1
60
0
100
AcDbCircle
39
0
10
-41.000832
20
-22.296111
30
0
40
54.7743349541988
210
0
220
0
230
1
100
AcDbArc
50
11.733295
51
15.051546
0
ARC
5
1B4
100
AcDbEntity
8
1
62
256
6
ByLayer
370
18
48
1
60
0
100
AcDbCircle
39
0
10
74.067683
20
74.730796
30
0
40
92.732380551278
210
0
220
0
230
1
100
AcDbArc
50
270.810766
51
271.483198
0
ARC
5
1B5
100
AcDbEntity
8
1
62
256
6
ByLayer
370
18
48
1
60
0
100
AcDbCircle
39
0
10
74.291575
20
58.909752
30
0
40
76.9097516998619
210
0
220
0
230
1
100
AcDbArc
50
270
51
270.810766
0
ARC
5
1B6
100
AcDbEntity
8
1
62
256
6
ByLayer
370
18
48
1
60
0
100
AcDbCircle
39
0
10
82.59551
20
13.655585
30
0
40
1.07670778632206
210
0
220
0
230
1
100
AcDbArc
50
272.386894
51
306
0
ARC
5
1B7
100
AcDbEntity
8
1
62
256
6
ByLayer
370
18
48
1
60
0
100
AcDbCircle
39
0
10
82.427715
20
17.681069
30
0
40
5.10568679161945
210
0
220
0
230
1
100
AcDbArc
50
265.097722
51
272.386894
0
ARC
5
1B8
100
AcDbEntity
8
1
62
256
6
ByLayer
370
18
48
1
60
0
100
AcDbCircle
39
0
10
82.407111
20
17.440849
30
0
40
4.86458504364347
210
0
220
0
230
1
100
AcDbArc
50
255.349721
51
265.097722
0
ARC
5
1B9
100
AcDbEntity
8
1
62
256
6
ByLayer
370
18
48
1
60
0
100
AcDbCircle
39
0
10
81.670781
20
14.62417
30
0
40
1.95325183808472
210
0
220
0
230
1
100
AcDbArc
50
231.369817
51
255.349721
0
ARC
5
1BA
100
AcDbEntity
8
1
62
256
6
ByLayer
370
18
48
1
60
0
100
AcDbCircle
39
0
10
81.061015
20
13.861155
30
0
40
0.976519083076358
210
0
220
0
230
1
100
AcDbArc
50
219.862456
51
231.369817
0
ARC
5
1BB
100
AcDbEntity
8
1
62
256
6
ByLayer
370
18
48
1
60
0
100
AcDbCircle
39
0
10
80.571498
20
13.452399
30
0
40
0.338782686063054
210
0
220
0
230
1
100
AcDbArc
50
187.472375
51
219.862456
0
ARC
5
1BC
100
AcDbEntity
8
1
62
256
6
ByLayer
370
18
48
1
60
0
100
AcDbCircle
39
0
10
80.468898
20
13.438942
30
0
40
0.235303581284324
210
0
220
0
230
1
100
AcDbArc
50
149.093389
51
187.472375
0
ARC
5
1BD
100
AcDbEntity
8
1
62
256
6
ByLayer
370
18
48
1
60
0
100
AcDbCircle
39
0
10
80.610933
20
13.353914
30
0
40
0.400844530020095
210
0
220
0
230
1
100
AcDbArc
50
126
51
149.093389
0
ARC
5
1BE
100
AcDbEntity
8
1
62
256
6
ByLayer
370
18
48
1
60
0
100
AcDbCircle
39
0
10
59.805254
20
-122.702064
30
0
40
119.78058735164
210
0
220
0
230
1
100
AcDbArc
50
77.425762
51
79.103036
0
ARC
5
1BF
100
AcDbEntity
8
1
62
256
6
ByLayer
370
18
48
1
60
0
100
AcDbCircle
39
0
10
44.407557
20
-202.683991
30
0
40
201.231171643371
210
0
220
0
230
1
100
AcDbArc
50
79.103036
51
80.10146
0
ARC
5
1C0
100
AcDbEntity
8
1
62
256
6
ByLayer
370
18
48
1
60
0
100
AcDbCircle
39
0
10
82.951503
20
12.959631
30
0
40
0.431077024978904
210
0
220
0
230
1
100
AcDbArc
50
27.518508
51
30.803503
0
ARC
5
1C1
100
AcDbEntity
8
1
62
256
6
ByLayer
370
18
48
1
60
0
100
AcDbCircle
39
0
10
83.002477
20
12.986187
30
0
40
0.373601015111054
210
0
220
0
230
1
100
AcDbArc
50
23.728482
51
27.518508
0
ARC
5
1C2
100
AcDbEntity
8
1
62
256
6
ByLayer
370
18
48
1
60
0
100
AcDbCircle
39
0
10
83.025211
20
12.99618
30
0
40
0.348767349856669
210
0
220
0
230
1
100
AcDbArc
50
19.934086
51
23.728482
0
ARC
5
1C3
100
AcDbEntity
8
1
62
256
6
ByLayer
370
18
48
1
60
0
100
AcDbCircle
39
0
10
83.064105
20
13.010285
30
0
40
0.307394684542031
210
0
220
0
230
1
100
AcDbArc
50
15.629448
51
19.934086
0
ARC
5
1C4
100
AcDbEntity
8
1
62
256
6
ByLayer
370
18
48
1
60
0
100
AcDbCircle
39
0
10
83.088506
20
13.017112
30
0
40
0.282056807675593
210
0
220
0
230
1
100
AcDbArc
50
6.923201
51
15.629448
0
ARC
5
1C5
100
AcDbEntity
8
1
62
256
6
ByLayer
370
18
48
1
60
0
100
AcDbCircle
39
0
10
83.128011
20
13.021909
30
0
40
0.242261322195137
210
0
220
0
230
1
100
AcDbArc
50
356.793724
51
6.923201
0
ARC
5
1C6
100
AcDbEntity
8
1
62
256
6
ByLayer
370
18
48
1
60
0
100
AcDbCircle
39
0
10
83.135817
20
13.021471
30
0
40
0.23444326076074
210
0
220
0
230
1
100
AcDbArc
50
346.6182
51
356.793724
0
ARC
5
1C7
100
AcDbEntity
8
1
62
256
6
ByLayer
370
18
48
1
60
0
100
AcDbCircle
39
0
10
83.125512
20
13.023923
30
0
40
0.245035281886071
210
0
220
0
230
1
100
AcDbArc
50
336.880366
51
346.6182
0
ARC
5
1C8
100
AcDbEntity
8
1
62
256
6
ByLayer
370
18
48
1
60
0
100
AcDbCircle
39
0
10
83.107374
20
13.031667
30
0
40
0.264758113468402
210
0
220
0
230
1
100
AcDbArc
50
327.236538
51
336.880366
0
ARC
5
1C9
100
AcDbEntity
8
1
62
256
6
ByLayer
370
18
48
1
60
0
100
AcDbCircle
39
0
10
83.053761
20
13.06617
30
0
40
0.328513732626944
210
0
220
0
230
1
100
AcDbArc
50
319.457885
51
327.236538
0
ARC
5
1CA
100
AcDbEntity
8
1
62
256
6
ByLayer
370
18
48
1
60
0
100
AcDbCircle
39
0
10
83.016475
20
13.098063
30
0
40
0.37757908018735
210
0
220
0
230
1
100
AcDbArc
50
311.753844
51
319.457885
0
ARC
5
1CB
100
AcDbEntity
8
1
62
256
6
ByLayer
370
18
48
1
60
0
100
AcDbCircle
39
0
10
82.931027
20
13.193786
30
0
40
0.505892469318562
210
0
220
0
230
1
100
AcDbArc
50
306
51
311.753844
0
ARC
5
1CC
100
AcDbEntity
8
1
62
256
6
ByLayer
370
18
48
1
60
0
100
AcDbCircle
39
0
10
179.417142
20
296.86195
30
0
40
307.991956751265
210
0
220
0
230
1
100
AcDbArc
50
251.529633
51
252.087934
0
ARC
5
1CD
100
AcDbEntity
8
1
62
256
6
ByLayer
370
18
48
1
60
0
100
AcDbCircle
39
0
10
163.58085
20
249.450786
30
0
40
258.005892947046
210
0
220
0
230
1
100
AcDbArc
50
250.863169
51
251.529633
0
ARC
5
1CE
100
AcDbEntity
8
1
62
256
6
ByLayer
370
18
48
1
60
0
100
AcDbCircle
39
0
10
121.03062
20
118.334674
30
0
40
118.907420174797
210
0
220
0
230
1
100
AcDbArc
50
245.687996
51
247.990039
0
ARC
5
1CF
100
AcDbEntity
8
1
62
256
6
ByLayer
370
18
48
1
60
0
100
AcDbCircle
39
0
10
87.667925
20
44.485755
30
0
40
37.8720439367129
210
0
220
0
230
1
100
AcDbArc
50
238.46883
51
245.687996
0
ARC
5
1D0
100
AcDbEntity
8
1
62
256
6
ByLayer
370
18
48
1
60
0
100
AcDbCircle
39
0
10
81.14241
20
33.850074
30
0
40
25.3940604245994
210
0
220
0
230
1
100
AcDbArc
50
234.374388
51
238.46883
0
ARC
5
1D1
100
AcDbEntity
8
1
62
256
6
ByLayer
370
18
48
1
60
0
100
AcDbCircle
39
0
10
69.96561
20
18.253219
30
0
40
6.20597146431243
210
0
220
0
230
1
100
AcDbArc
50
217.731331
51
234.374388
0
ARC
5
1D2
100
AcDbEntity
8
1
62
256
6
ByLayer
370
18
48
1
60
0
100
AcDbCircle
39
0
10
66.914576
20
15.892446
30
0
40
2.34824476119942
210
0
220
0
230
1
100
AcDbArc
50
192.947541
51
217.731331
0
ARC
5
1D3
100
AcDbEntity
8
1
62
256
6
ByLayer
370
18
48
1
60
0
100
AcDbCircle
39
0
10
65.685411
20
15.609856
30
0
40
1.08701343315489
210
0
220
0
230
1
100
AcDbArc
50
142.165182
51
192.947541
0
ARC
5
1D4
100
AcDbEntity
8
1
62
256
6
ByLayer
370
18
48
1
60
0
100
AcDbCircle
39
0
10
66.466874
20
15.00293
30
0
40
2.07648005976814
210
0
220
0
230
1
100
AcDbArc
50
114.177737
51
142.165182
0
ARC
5
1D5
100
AcDbEntity
8
1
62
256
6
ByLayer
370
18
48
1
60
0
100
AcDbCircle
39
0
10
68.907457
20
9.566739
30
0
40
8.03539038991784
210
0
220
0
230
1
100
AcDbArc
50
106.808162
51
114.177737
0
ARC
5
1D6
100
AcDbEntity
8
1
62
256
6
ByLayer
370
18
48
1
60
0
100
AcDbCircle
39
0
10
69.968381
20
6.054597
30
0
40
11.7042731964976
210
0
220
0
230
1
100
AcDbArc
50
98.338546
51
106.808162
0
ARC
5
1D7
100
AcDbEntity
8
1
62
256
6
ByLayer
370
18
48
1
60
0
100
AcDbCircle
39
0
10
72.621994
20
-12.049987
30
0
40
30.0022961005504
210
0
220
0
230
1
100
AcDbArc
50
95.029332
51
98.338546
0
ARC
5
1D8
100
AcDbEntity
8
1
62
256
6
ByLayer
370
18
48
1
60
0
100
AcDbCircle
39
0
10
12.441321
20
20.234352
30
0
40
5.51976622652153
210
0
220
0
230
1
100
AcDbArc
50
141.764968
51
165.242611
0
ARC
5
1D9
100
AcDbEntity
8
1
62
256
6
ByLayer
370
18
48
1
60
0
100
AcDbCircle
39
0
10
20.598951
20
18.085503
30
0
40
13.9556702236171
210
0
220
0
230
1
100
AcDbArc
50
165.242611
51
174.63955
0
ARC
5
1DA
100
AcDbEntity
8
1
62
256
6
ByLayer
370
18
48
1
60
0
100
AcDbCircle
39
0
10
25.276706
20
17.646582
30
0
40
18.6539725460015
210
0
220
0
230
1
100
AcDbArc
50
174.63955
51
182.492811
0
ARC
5
1DB
100
AcDbEntity
8
1
62
256
6
ByLayer
370
18
48
1
60
0
100
AcDbCircle
39
0
10
38.728599
20
18.232214
30
0
40
32.1186075094093
210
0
220
0
230
1
100
AcDbArc
50
182.492811
51
187.058595
0
ARC
5
1DC
100
AcDbEntity
8
1
62
256
6
ByLayer
370
18
48
1
60
0
100
AcDbCircle
39
0
10
45.428699
20
19.061839
30
0
40
38.8698752274751
210
0
220
0
230
1
100
AcDbArc
50
187.058595
51
191.733295
0
ARC
5
1DD
100
AcDbEntity
8
1
62
256
6
ByLayer
370
18
48
1
60
0
100
AcDbCircle
39
0
10
61.000832
20
22.296111
30
0
40
54.7743349542001
210
0
220
0
230
1
100
AcDbArc
50
191.733295
51
195.051546
0
ARC
5
1DE
100
AcDbEntity
8
1
62
256
6
ByLayer
370
18
48
1
60
0
100
AcDbCircle
39
0
10
56.105511
20
248.697887
30
0
40
268.949469876607
210
0
220
0
230
1
100
AcDbArc
50
275.492391
51
276.101474
0
ARC
5
1DF
100
AcDbEntity
8
1
62
256
6
ByLayer
370
18
48
1
60
0
100
AcDbCircle
39
0
10
60.687687
20
201.043843
30
0
40
221.07563397111
210
0
220
0
230
1
100
AcDbArc
50
274.751414
51
275.492391
0
ARC
5
1E0
100
AcDbEntity
8
1
62
256
6
ByLayer
370
18
48
1
60
0
100
AcDbCircle
39
0
10
82.551051
20
12.72088
30
0
40
0.89729961852526
210
0
220
0
230
1
100
AcDbArc
50
30.803503
51
67.902737
0
ARC
5
1E1
100
AcDbEntity
8
1
62
256
6
ByLayer
370
18
48
1
60
0
100
AcDbCircle
39
0
10
81.020502
20
8.951074
30
0
40
4.96596320428271
210
0
220
0
230
1
100
AcDbArc
50
67.902737
51
74.842163
0
ARC
5
1E2
100
AcDbEntity
8
1
62
256
6
ByLayer
370
18
48
1
60
0
100
AcDbCircle
39
0
10
81.251001
20
9.801926
30
0
40
4.08444240154289
210
0
220
0
230
1
100
AcDbArc
50
74.842163
51
82.873433
0
ARC
5
1E3
100
AcDbEntity
8
1
62
256
6
ByLayer
370
18
48
1
60
0
100
AcDbCircle
39
0
10
81.309396
20
10.268986
30
0
40
3.61374628466766
210
0
220
0
230
1
100
AcDbArc
50
82.873433
51
91.946671
0
ARC
5
1E4
100
AcDbEntity
8
1
62
256
6
ByLayer
370
18
48
1
60
0
100
AcDbCircle
39
0
10
81.300565
20
10.528807
30
0
40
3.3537744713369
210
0
220
0
230
1
100
AcDbArc
50
91.946671
51
99.265766
0
ARC
5
1E5
100
AcDbEntity
8
1
62
256
6
ByLayer
370
18
48
1
60
0
100
AcDbCircle
39
0
10
80.905904
20
12.947921
30
0
40
0.902679461464313
210
0
220
0
230
1
100
AcDbArc
50
99.265766
51
126
0
ARC
5
1E6
100
AcDbEntity
8
1
62
256
6
ByLayer
370
18
48
1
60
0
100
AcDbCircle
39
0
10
74.291575
20
55.299417
30
0
40
73.2994167465171
210
0
220
0
230
1
100
AcDbArc
50
267.278425
51
270
0
ARC
5
1E7
100
AcDbEntity
8
1
62
256
6
ByLayer
370
18
48
1
60
0
100
AcDbCircle
39
0
10
71.790346
20
2.682075
30
0
40
20.6226587658891
210
0
220
0
230
1
100
AcDbArc
50
257.626164
51
267.278425
0
ARC
5
1E8
100
AcDbEntity
8
1
62
256
6
ByLayer
370
18
48
1
60
0
100
AcDbCircle
39
0
10
70.18929
20
-4.615836
30
0
40
13.15118746113
210
0
220
0
230
1
100
AcDbArc
50
251.960828
51
257.626164
0
ARC
5
1E9
100
AcDbEntity
8
1
62
256
6
ByLayer
370
18
48
1
60
0
100
AcDbCircle
39
0
10
67.052581
20
-14.247223
30
0
40
3.02189551570997
210
0
220
0
230
1
100
AcDbArc
50
227.656488
51
251.960828
0
ARC
5
1EA
100
AcDbEntity
8
1
62
256
6
ByLayer
370
18
48
1
60
0
100
AcDbCircle
39
0
10
65.885036
20
-15.528383
30
0
40
1.28853705263662
210
0
220
0
230
1
100
AcDbArc
50
193.683594
51
227.656488
0
ARC
5
1EB
100
AcDbEntity
8
1
62
256
6
ByLayer
370
18
48
1
60
0
100
AcDbCircle
39
0
10
65.837498
20
-15.539957
30
0
40
1.23961049126357
210
0
220
0
230
1
100
AcDbArc
50
158.451308
51
193.683594
0
ARC
5
1EC
100
AcDbEntity
8
1
62
256
6
ByLayer
370
18
48
1
60
0
100
AcDbCircle
39
0
10
67.347531
20
-16.136258
30
0
40
2.86311789286623
210
0
220
0
230
1
100
AcDbArc
50
133.217475
51
158.451308
0
ARC
5
1ED
100
AcDbEntity
8
1
62
256
6
ByLayer
370
18
48
1
60
0
100
AcDbCircle
39
0
10
74.023998
20
-23.241628
30
0
40
12.6130662687662
210
0
220
0
230
1
100
AcDbArc
50
127.400076
51
133.217475
0
ARC
5
1EE
100
AcDbEntity
8
1
62
256
6
ByLayer
370
18
48
1
60
0
100
AcDbCircle
39
0
10
76.735811
20
-26.788522
30
0
40
17.07786065265
210
0
220
0
230
1
100
AcDbArc
50
120.268289
51
127.400076
0
ARC
5
1EF
100
AcDbEntity
8
1
62
256
6
ByLayer
370
18
48
1
60
0
100
AcDbCircle
39
0
10
89.474498
20
-48.615897
30
0
40
42.3505425760306
210
0
220
0
230
1
100
AcDbArc
50
117.389283
51
120.268289
0
ARC
5
1F0
100
AcDbEntity
8
1
62
256
6
ByLayer
370
18
48
1
60
0
100
AcDbCircle
39
0
10
56.105511
20
248.697887
30
0
40
268.949469876819
210
0
220
0
230
1
100
AcDbArc
50
275.492391
51
276.101474
0
ARC
5
1F1
100
AcDbEntity
8
1
62
256
6
ByLayer
370
18
48
1
60
0
100
AcDbCircle
39
0
10
60.687687
20
201.043843
30
0
40
221.07563397094
210
0
220
0
230
1
100
AcDbArc
50
274.751414
51
275.492391
0
ARC
5
1F2
100
AcDbEntity
8
1
62
256
6
ByLayer
370
18
48
1
60
0
100
AcDbCircle
39
0
10
59.805254
20
-122.702064
30
0
40
119.78058735165
210
0
220
0
230
1
100
AcDbArc
50
77.425762
51
79.103036
0
ARC
5
1F3
100
AcDbEntity
8
1
62
256
6
ByLayer
370
18
48
1
60
0
100
AcDbCircle
39
0
10
44.407557
20
-202.683991
30
0
40
201.231171643359
210
0
220
0
230
1
100
AcDbArc
50
79.103036
51
80.10146
0
ARC
5
1F4
100
AcDbEntity
8
1
62
256
6
ByLayer
370
18
48
1
60
0
100
AcDbCircle
39
0
10
82.951503
20
12.959631
30
0
40
0.431077024969199
210
0
220
0
230
1
100
AcDbArc
50
27.518508
51
30.803503
0
ARC
5
1F5
100
AcDbEntity
8
1
62
256
6
ByLayer
370
18
48
1
60
0
100
AcDbCircle
39
0
10
83.002477
20
12.986187
30
0
40
0.373601015111516
210
0
220
0
230
1
100
AcDbArc
50
23.728482
51
27.518508
0
ARC
5
1F6
100
AcDbEntity
8
1
62
256
6
ByLayer
370
18
48
1
60
0
100
AcDbCircle
39
0
10
83.025211
20
12.99618
30
0
40
0.348767349850476
210
0
220
0
230
1
100
AcDbArc
50
19.934086
51
23.728482
0
ARC
5
1F7
100
AcDbEntity
8
1
62
256
6
ByLayer
370
18
48
1
60
0
100
AcDbCircle
39
0
10
83.064105
20
13.010285
30
0
40
0.307394684537075
210
0
220
0
230
1
100
AcDbArc
50
15.629448
51
19.934086
0
ARC
5
1F8
100
AcDbEntity
8
1
62
256
6
ByLayer
370
18
48
1
60
0
100
AcDbCircle
39
0
10
83.088506
20
13.017112
30
0
40
0.28205680767446
210
0
220
0
230
1
100
AcDbArc
50
6.923201
51
15.629448
0
ARC
5
1F9
100
AcDbEntity
8
1
62
256
6
ByLayer
370
18
48
1
60
0
100
AcDbCircle
39
0
10
83.128011
20
13.021909
30
0
40
0.242261322194331
210
0
220
0
230
1
100
AcDbArc
50
356.793724
51
6.923201
0
ARC
5
1FA
100
AcDbEntity
8
1
62
256
6
ByLayer
370
18
48
1
60
0
100
AcDbCircle
39
0
10
83.135817
20
13.021471
30
0
40
0.234443260760873
210
0
220
0
230
1
100
AcDbArc
50
346.6182
51
356.793724
0
ARC
5
1FB
100
AcDbEntity
8
1
62
256
6
ByLayer
370
18
48
1
60
0
100
AcDbCircle
39
0
10
83.125512
20
13.023923
30
0
40
0.245035281887222
210
0
220
0
230
1
100
AcDbArc
50
336.880366
51
346.6182
0
ARC
5
1FC
100
AcDbEntity
8
1
62
256
6
ByLayer
370
18
48
1
60
0
100
AcDbCircle
39
0
10
83.107374
20
13.031667
30
0
40
0.264758113468478
210
0
220
0
230
1
100
AcDbArc
50
327.236538
51
336.880366
0
ARC
5
1FD
100
AcDbEntity
8
1
62
256
6
ByLayer
370
18
48
1
60
0
100
AcDbCircle
39
0
10
83.053761
20
13.06617
30
0
40
0.328513732626947
210
0
220
0
230
1
100
AcDbArc
50
319.457885
51
327.236538
0
ARC
5
1FE
100
AcDbEntity
8
1
62
256
6
ByLayer
370
18
48
1
60
0
100
AcDbCircle
39
0
10
83.016475
20
13.098063
30
0
40
0.377579080188282
210
0
220
0
230
1
100
AcDbArc
50
311.753844
51
319.457885
0
ARC
5
1FF
100
AcDbEntity
8
1
62
256
6
ByLayer
370
18
48
1
60
0
100
AcDbCircle
39
0
10
82.931027
20
13.193786
30
0
40
0.505892469319512
210
0
220
0
230
1
100
AcDbArc
50
306
51
311.753844
0
ARC
5
200
100
AcDbEntity
8
1
62
256
6
ByLayer
370
18
48
1
60
0
100
AcDbCircle
39
0
10
358.69495
20
32.865196
30
0
40
275.538498822859
210
0
220
0
230
1
100
AcDbArc
50
187.060467
51
188.06554
0
ARC
5
201
100
AcDbEntity
8
1
62
256
6
ByLayer
370
18
48
1
60
0
100
AcDbCircle
39
0
10
370.856122
20
34.37143
30
0
40
287.792593705964
210
0
220
0
230
1
100
AcDbArc
50
186.098188
51
187.060467
0
ARC
5
202
100
AcDbEntity
8
1
62
256
6
ByLayer
370
18
48
1
60
0
100
AcDbCircle
39
0
10
82.551051
20
12.72088
30
0
40
0.897299618525244
210
0
220
0
230
1
100
AcDbArc
50
30.803503
51
67.902737
0
ARC
5
203
100
AcDbEntity
8
1
62
256
6
ByLayer
370
18
48
1
60
0
100
AcDbCircle
39
0
10
81.020502
20
8.951074
30
0
40
4.96596320428286
210
0
220
0
230
1
100
AcDbArc
50
67.902737
51
74.842163
0
ARC
5
204
100
AcDbEntity
8
1
62
256
6
ByLayer
370
18
48
1
60
0
100
AcDbCircle
39
0
10
81.251001
20
9.801926
30
0
40
4.08444240154289
210
0
220
0
230
1
100
AcDbArc
50
74.842163
51
82.873433
0
ARC
5
205
100
AcDbEntity
8
1
62
256
6
ByLayer
370
18
48
1
60
0
100
AcDbCircle
39
0
10
81.309396
20
10.268986
30
0
40
3.61374628466766
210
0
220
0
230
1
100
AcDbArc
50
82.873433
51
91.946671
0
ARC
5
206
100
AcDbEntity
8
1
62
256
6
ByLayer
370
18
48
1
60
0
100
AcDbCircle
39
0
10
81.300565
20
10.528807
30
0
40
3.3537744713369
210
0
220
0
230
1
100
AcDbArc
50
91.946671
51
99.265766
0
ARC
5
207
100
AcDbEntity
8
1
62
256
6
ByLayer
370
18
48
1
60
0
100
AcDbCircle
39
0
10
80.905904
20
12.947921
30
0
40
0.902679461464275
210
0
220
0
230
1
100
AcDbArc
50
99.265766
51
126
0
ARC
5
208
100
AcDbEntity
8
1
62
256
6
ByLayer
370
18
48
1
60
0
100
AcDbCircle
39
0
10
7.558679
20
20.234352
30
0
40
5.51976622652161
210
0
220
0
230
1
100
AcDbArc
50
14.757389
51
38.235032
0
ARC
5
209
100
AcDbEntity
8
1
62
256
6
ByLayer
370
18
48
1
60
0
100
AcDbCircle
39
0
10
-0.598951
20
18.085503
30
0
40
13.955670223617
210
0
220
0
230
1
100
AcDbArc
50
5.36045
51
14.757389
0
ARC
5
20A
100
AcDbEntity
8
1
62
256
6
ByLayer
370
18
48
1
60
0
100
AcDbCircle
39
0
10
-5.276706
20
17.646582
30
0
40
18.6539725460017
210
0
220
0
230
1
100
AcDbArc
50
357.507189
51
5.36045
0
ARC
5
20B
100
AcDbEntity
8
1
62
256
6
ByLayer
370
18
48
1
60
0
100
AcDbCircle
39
0
10
-18.728599
20
18.232214
30
0
40
32.1186075094097
210
0
220
0
230
1
100
AcDbArc
50
352.941405
51
357.507189
0
ARC
5
20C
100
AcDbEntity
8
1
62
256
6
ByLayer
370
18
48
1
60
0
100
AcDbCircle
39
0
10
-25.428699
20
19.061839
30
0
40
38.8698752274754
210
0
220
0
230
1
100
AcDbArc
50
348.266705
51
352.941405
0
ARC
5
20D
100
AcDbEntity
8
1
62
256
6
ByLayer
370
18
48
1
60
0
100
AcDbCircle
39
0
10
-41.000832
20
22.296111
30
0
40
54.7743349542009
210
0
220
0
230
1
100
AcDbArc
50
344.948454
51
348.266705
0
ARC
5
20E
100
AcDbEntity
8
1
62
256
6
ByLayer
370
18
48
1
60
0
100
AcDbCircle
39
0
10
179.417142
20
296.86195
30
0
40
307.991956751735
210
0
220
0
230
1
100
AcDbArc
50
251.529633
51
252.087934
0
ARC
5
20F
100
AcDbEntity
8
1
62
256
6
ByLayer
370
18
48
1
60
0
100
AcDbCircle
39
0
10
163.58085
20
249.450786
30
0
40
258.005892947152
210
0
220
0
230
1
100
AcDbArc
50
250.863169
51
251.529633
0
ARC
5
210
100
AcDbEntity
8
1
62
256
6
ByLayer
370
18
48
1
60
0
100
AcDbCircle
39
0
10
12.441321
20
-20.234352
30
0
40
5.51976622652164
210
0
220
0
230
1
100
AcDbArc
50
194.757389
51
218.235032
0
ARC
5
211
100
AcDbEntity
8
1
62
256
6
ByLayer
370
18
48
1
60
0
100
AcDbCircle
39
0
10
20.598951
20
-18.085503
30
0
40
13.9556702236175
210
0
220
0
230
1
100
AcDbArc
50
185.36045
51
194.757389
0
ARC
5
212
100
AcDbEntity
8
1
62
256
6
ByLayer
370
18
48
1
60
0
100
AcDbCircle
39
0
10
27.114986
20
-17.474094
30
0
40
20.5003275830556
210
0
220
0
230
1
100
AcDbArc
50
173.97782
51
185.36045
0
ARC
5
213
100
AcDbEntity
8
1
62
256
6
ByLayer
370
18
48
1
60
0
100
AcDbCircle
39
0
10
50.033362
20
-19.891883
30
0
40
43.5458842040752
210
0
220
0
230
1
100
AcDbArc
50
168.605404
51
173.97782
0
ARC
5
214
100
AcDbEntity
8
1
62
256
6
ByLayer
370
18
48
1
60
0
100
AcDbCircle
39
0
10
54.622434
20
-20.816751
30
0
40
48.2272259349128
210
0
220
0
230
1
100
AcDbArc
50
166.641624
51
168.605404
0
ARC
5
215
100
AcDbEntity
8
1
62
256
6
ByLayer
370
18
48
1
60
0
100
AcDbCircle
39
0
10
62.123122
20
-22.59791
30
0
40
55.9364961389101
210
0
220
0
230
1
100
AcDbArc
50
164.948454
51
166.641624
0
ARC
5
216
100
AcDbEntity
8
1
62
256
6
ByLayer
370
18
48
1
60
0
100
AcDbCircle
39
0
10
74.291575
20
55.299417
30
0
40
73.2994167465171
210
0
220
0
230
1
100
AcDbArc
50
267.278425
51
270
0
ARC
5
217
100
AcDbEntity
8
1
62
256
6
ByLayer
370
18
48
1
60
0
100
AcDbCircle
39
0
10
71.790346
20
2.682075
30
0
40
20.6226587658891
210
0
220
0
230
1
100
AcDbArc
50
257.626164
51
267.278425
0
ARC
5
218
100
AcDbEntity
8
1
62
256
6
ByLayer
370
18
48
1
60
0
100
AcDbCircle
39
0
10
70.18929
20
-4.615836
30
0
40
13.15118746113
210
0
220
0
230
1
100
AcDbArc
50
251.960828
51
257.626164
0
ARC
5
219
100
AcDbEntity
8
1
62
256
6
ByLayer
370
18
48
1
60
0
100
AcDbCircle
39
0
10
67.052581
20
-14.247223
30
0
40
3.02189551571002
210
0
220
0
230
1
100
AcDbArc
50
227.656488
51
251.960828
0
ARC
5
21A
100
AcDbEntity
8
1
62
256
6
ByLayer
370
18
48
1
60
0
100
AcDbCircle
39
0
10
65.885036
20
-15.528383
30
0
40
1.28853705263668
210
0
220
0
230
1
100
AcDbArc
50
193.683594
51
227.656488
0
ARC
5
21B
100
AcDbEntity
8
1
62
256
6
ByLayer
370
18
48
1
60
0
100
AcDbCircle
39
0
10
65.837498
20
-15.539957
30
0
40
1.23961049126349
210
0
220
0
230
1
100
AcDbArc
50
158.451308
51
193.683594
0
ARC
5
21C
100
AcDbEntity
8
1
62
256
6
ByLayer
370
18
48
1
60
0
100
AcDbCircle
39
0
10
67.347531
20
-16.136258
30
0
40
2.86311789286613
210
0
220
0
230
1
100
AcDbArc
50
133.217475
51
158.451308
0
ARC
5
21D
100
AcDbEntity
8
1
62
256
6
ByLayer
370
18
48
1
60
0
100
AcDbCircle
39
0
10
74.023998
20
-23.241628
30
0
40
12.6130662687646
210
0
220
0
230
1
100
AcDbArc
50
127.400076
51
133.217475
0
ARC
5
21E
100
AcDbEntity
8
1
62
256
6
ByLayer
370
18
48
1
60
0
100
AcDbCircle
39
0
10
76.735811
20
-26.788522
30
0
40
17.0778606526489
210
0
220
0
230
1
100
AcDbArc
50
120.268289
51
127.400076
0
ARC
5
21F
100
AcDbEntity
8
1
62
256
6
ByLayer
370
18
48
1
60
0
100
AcDbCircle
39
0
10
89.474498
20
-48.615897
30
0
40
42.3505425760194
210
0
220
0
230
1
100
AcDbArc
50
117.389283
51
120.268289
0
ARC
5
220
100
AcDbEntity
8
1
62
256
6
ByLayer
370
18
48
1
60
0
100
AcDbCircle
39
0
10
74.067683
20
74.730796
30
0
40
92.732380550666
210
0
220
0
230
1
100
AcDbArc
50
270.810766
51
271.483198
0
ARC
5
221
100
AcDbEntity
8
1
62
256
6
ByLayer
370
18
48
1
60
0
100
AcDbCircle
39
0
10
74.291575
20
58.909752
30
0
40
76.909751699728
210
0
220
0
230
1
100
AcDbArc
50
270
51
270.810766
0
ARC
5
222
100
AcDbEntity
8
1
62
256
6
ByLayer
370
18
48
1
60
0
100
AcDbCircle
39
0
10
358.69495
20
32.865196
30
0
40
275.538498822861
210
0
220
0
230
1
100
AcDbArc
50
187.060467
51
188.06554
0
ARC
5
223
100
AcDbEntity
8
1
62
256
6
ByLayer
370
18
48
1
60
0
100
AcDbCircle
39
0
10
370.856122
20
34.37143
30
0
40
287.792593705964
210
0
220
0
230
1
100
AcDbArc
50
186.098188
51
187.060467
0
ARC
5
224
100
AcDbEntity
8
1
62
256
6
ByLayer
370
18
48
1
60
0
100
AcDbCircle
39
0
10
121.03062
20
118.334674
30
0
40
118.90742017479
210
0
220
0
230
1
100
AcDbArc
50
245.687996
51
247.990039
0
ARC
5
225
100
AcDbEntity
8
1
62
256
6
ByLayer
370
18
48
1
60
0
100
AcDbCircle
39
0
10
87.667925
20
44.485755
30
0
40
37.872043936713
210
0
220
0
230
1
100
AcDbArc
50
238.46883
51
245.687996
0
ARC
5
226
100
AcDbEntity
8
1
62
256
6
ByLayer
370
18
48
1
60
0
100
AcDbCircle
39
0
10
81.14241
20
33.850074
30
0
40
25.3940604246028
210
0
220
0
230
1
100
AcDbArc
50
234.374388
51
238.46883
0
ARC
5
227
100
AcDbEntity
8
1
62
256
6
ByLayer
370
18
48
1
60
0
100
AcDbCircle
39
0
10
69.96561
20
18.253219
30
0
40
6.2059714643123
210
0
220
0
230
1
100
AcDbArc
50
217.731331
51
234.374388
0
ARC
5
228
100
AcDbEntity
8
1
62
256
6
ByLayer
370
18
48
1
60
0
100
AcDbCircle
39
0
10
66.914576
20
15.892446
30
0
40
2.34824476119928
210
0
220
0
230
1
100
AcDbArc
50
192.947541
51
217.731331
0
ARC
5
229
100
AcDbEntity
8
1
62
256
6
ByLayer
370
18
48
1
60
0
100
AcDbCircle
39
0
10
65.685411
20
15.609856
30
0
40
1.08701343315492
210
0
220
0
230
1
100
AcDbArc
50
142.165182
51
192.947541
0
ARC
5
22A
100
AcDbEntity
8
1
62
256
6
ByLayer
370
18
48
1
60
0
100
AcDbCircle
39
0
10
66.466874
20
15.00293
30
0
40
2.07648005976831
210
0
220
0
230
1
100
AcDbArc
50
114.177737
51
142.165182
0
ARC
5
22B
100
AcDbEntity
8
1
62
256
6
ByLayer
370
18
48
1
60
0
100
AcDbCircle
39
0
10
68.907457
20
9.566739
30
0
40
8.03539038991821
210
0
220
0
230
1
100
AcDbArc
50
106.808162
51
114.177737
0
ARC
5
22C
100
AcDbEntity
8
1
62
256
6
ByLayer
370
18
48
1
60
0
100
AcDbCircle
39
0
10
69.968381
20
6.054597
30
0
40
11.7042731964978
210
0
220
0
230
1
100
AcDbArc
50
98.338546
51
106.808162
0
ARC
5
22D
100
AcDbEntity
8
1
62
256
6
ByLayer
370
18
48
1
60
0
100
AcDbCircle
39
0
10
72.621994
20
-12.049987
30
0
40
30.002296100549
210
0
220
0
230
1
100
AcDbArc
50
95.029332
51
98.338546
0
ARC
5
22E
100
AcDbEntity
8
SK1
62
256
6
ByLayer
370
18
48
1
60
0
100
AcDbCircle
39
0
10
-2.081968
20
-5.542852
30
0
40
2.08325974699717
210
0
220
0
230
1
100
AcDbArc
50
357.98213
51
0.088682
0
ARC
5
22F
100
AcDbEntity
8
SK1
62
256
6
ByLayer
370
18
48
1
60
0
100
AcDbCircle
39
0
10
-2.582199
20
-5.543626
30
0
40
2.58349157074255
210
0
220
0
230
1
100
AcDbArc
50
0.088682
51
1.787418
0
ARC
5
230
100
AcDbEntity
8
SK1
62
256
6
ByLayer
370
18
48
1
60
0
100
AcDbCircle
39
0
10
-6.942308
20
-5.679689
30
0
40
6.94572320847273
210
0
220
0
230
1
100
AcDbArc
50
1.787418
51
3.420135
0
ARC
5
231
100
AcDbEntity
8
SK1
62
256
6
ByLayer
370
18
48
1
60
0
100
AcDbCircle
39
0
10
-0.619882
20
-5.301838
30
0
40
0.61201606025582
210
0
220
0
230
1
100
AcDbArc
50
3.420135
51
21.791928
0
ARC
5
232
100
AcDbEntity
8
SK1
62
256
6
ByLayer
370
18
48
1
60
0
100
AcDbCircle
39
0
10
-0.105346
20
-5.096123
30
0
40
0.0578808369308586
210
0
220
0
230
1
100
AcDbArc
50
21.791928
51
108.236096
0
ARC
5
233
100
AcDbEntity
8
SK1
62
256
6
ByLayer
370
18
48
1
60
0
100
AcDbCircle
39
0
10
-0.087308
20
-5.15087
30
0
40
0.115523397554014
210
0
220
0
230
1
100
AcDbArc
50
108.236096
51
158.664141
0
ARC
5
234
100
AcDbEntity
8
SK1
62
256
6
ByLayer
370
18
48
1
60
0
100
AcDbCircle
39
0
10
-1.79042
20
-17.532288
30
0
40
0.209773443831964
210
0
220
0
230
1
100
AcDbArc
50
164.631983
51
172.674984
0
ARC
5
235
100
AcDbEntity
8
SK1
62
256
6
ByLayer
370
18
48
1
60
0
100
AcDbCircle
39
0
10
-1.803281
20
-17.528753
30
0
40
0.196435235347086
210
0
220
0
230
1
100
AcDbArc
50
156.04483
51
164.631983
0
ARC
5
236
100
AcDbEntity
8
SK1
62
256
6
ByLayer
370
18
48
1
60
0
100
AcDbCircle
39
0
10
-1.799407
20
-17.530474
30
0
40
0.200674367362431
210
0
220
0
230
1
100
AcDbArc
50
147.644219
51
156.04483
0
ARC
5
237
100
AcDbEntity
8
SK1
62
256
6
ByLayer
370
18
48
1
60
0
100
AcDbCircle
39
0
10
-1.800297
20
-17.52991
30
0
40
0.199620801100718
210
0
220
0
230
1
100
AcDbArc
50
139.199432
51
147.644219
0
ARC
5
238
100
AcDbEntity
8
SK1
62
256
6
ByLayer
370
18
48
1
60
0
100
AcDbCircle
39
0
10
-1.801682
20
-17.528715
30
0
40
0.19779063251454
210
0
220
0
230
1
100
AcDbArc
50
113.631293
51
139.199432
0
ARC
5
239
100
AcDbEntity
8
SK1
62
256
6
ByLayer
370
18
48
1
60
0
100
AcDbCircle
39
0
10
-1.798159
20
-17.536766
30
0
40
0.206579412392757
210
0
220
0
230
1
100
AcDbArc
50
89.117354
51
113.631293
0
ARC
5
23A
100
AcDbEntity
8
SK1
62
256
6
ByLayer
370
18
48
1
60
0
100
AcDbCircle
39
0
10
-5.501988
20
5.402939
30
0
40
5.50303614639601
210
0
220
0
230
1
100
AcDbArc
50
358.719892
51
1.289816
0
ARC
5
23B
100
AcDbEntity
8
SK1
62
256
6
ByLayer
370
18
48
1
60
0
100
AcDbCircle
39
0
10
-0.493746
20
5.291025
30
0
40
0.493543447074873
210
0
220
0
230
1
100
AcDbArc
50
330.636389
51
358.719892
0
ARC
5
23C
100
AcDbEntity
8
SK1
62
256
6
ByLayer
370
18
48
1
60
0
100
AcDbCircle
39
0
10
-0.104686
20
5.072127
30
0
40
0.0471313442153423
210
0
220
0
230
1
100
AcDbArc
50
235.730176
51
330.636389
0
ARC
5
23D
100
AcDbEntity
8
SK1
62
256
6
ByLayer
370
18
48
1
60
0
100
AcDbCircle
39
0
10
-0.027947
20
5.18475
30
0
40
0.183413189090667
210
0
220
0
230
1
100
AcDbArc
50
204.448751
51
235.730176
0
ARC
5
23E
100
AcDbEntity
8
1
62
256
6
ByLayer
370
18
48
1
60
0
100
AcDbCircle
39
0
10
71.078058
20
-21.850684
30
0
40
39.7142903570819
210
0
220
0
230
1
100
AcDbArc
50
89.870897
51
90.719514
0
ARC
5
23F
100
AcDbEntity
8
1
62
256
6
ByLayer
370
18
48
1
60
0
100
AcDbCircle
39
0
10
70.712547
20
7.253904
30
0
40
10.6074074938908
210
0
220
0
230
1
100
AcDbArc
50
90.719514
51
93.895991
0
ARC
5
240
100
AcDbEntity
8
1
62
256
6
ByLayer
370
18
48
1
60
0
100
AcDbCircle
39
0
10
11.746966
20
-23.560417
30
0
40
0.172709774738368
210
0
220
0
230
1
100
AcDbArc
50
318.223309
51
328.571576
0
ARC
5
241
100
AcDbEntity
8
1
62
256
6
ByLayer
370
18
48
1
60
0
100
AcDbCircle
39
0
10
11.686742
20
-23.506615
30
0
40
0.253466151498574
210
0
220
0
230
1
100
AcDbArc
50
311.161805
51
318.223309
0
ARC
5
242
100
AcDbEntity
8
1
62
256
6
ByLayer
370
18
48
1
60
0
100
AcDbCircle
39
0
10
11.609112
20
-23.41782
30
0
40
0.371411169656614
210
0
220
0
230
1
100
AcDbArc
50
298.479087
51
311.161805
0
ARC
5
243
100
AcDbEntity
8
1
62
256
6
ByLayer
370
18
48
1
60
0
100
AcDbCircle
39
0
10
11.465473
20
-23.15304
30
0
40
0.672642474695955
210
0
220
0
230
1
100
AcDbArc
50
291.456176
51
298.479087
0
ARC
5
244
100
AcDbEntity
8
1
62
256
6
ByLayer
370
18
48
1
60
0
100
AcDbCircle
39
0
10
11.487409
20
-23.208852
30
0
40
0.612674420516519
210
0
220
0
230
1
100
AcDbArc
50
279.510761
51
291.456176
0
ARC
5
245
100
AcDbEntity
8
1
62
256
6
ByLayer
370
18
48
1
60
0
100
AcDbCircle
39
0
10
11.460189
20
-23.046378
30
0
40
0.777412790318622
210
0
220
0
230
1
100
AcDbArc
50
270.083726
51
279.510761
0
ARC
5
246
100
AcDbEntity
8
1
62
256
6
ByLayer
370
18
48
1
60
0
100
AcDbCircle
39
0
10
8.994678
20
-8.256266
30
0
40
0.907936259360826
210
0
220
0
230
1
100
AcDbArc
50
163.699944
51
168.282485
0
ARC
5
247
100
AcDbEntity
8
1
62
256
6
ByLayer
370
18
48
1
60
0
100
AcDbCircle
39
0
10
8.979421
20
-8.251804
30
0
40
0.892040027737466
210
0
220
0
230
1
100
AcDbArc
50
159.03583
51
163.699944
0
ARC
5
248
100
AcDbEntity
8
1
62
256
6
ByLayer
370
18
48
1
60
0
100
AcDbCircle
39
0
10
8.987757
20
-8.254998
30
0
40
0.900967008638044
210
0
220
0
230
1
100
AcDbArc
50
154.500127
51
159.03583
0
ARC
5
249
100
AcDbEntity
8
1
62
256
6
ByLayer
370
18
48
1
60
0
100
AcDbCircle
39
0
10
9.033738
20
-8.27693
30
0
40
0.951910361942525
210
0
220
0
230
1
100
AcDbArc
50
150.206927
51
154.500127
0
ARC
5
24A
100
AcDbEntity
8
1
62
256
6
ByLayer
370
18
48
1
60
0
100
AcDbCircle
39
0
10
9.124706
20
-8.329014
30
0
40
1.05673394150308
210
0
220
0
230
1
100
AcDbArc
50
146.298052
51
150.206927
0
ARC
5
24B
100
AcDbEntity
8
1
62
256
6
ByLayer
370
18
48
1
60
0
100
AcDbCircle
39
0
10
8.845925
20
-8.143076
30
0
40
0.721634129089076
210
0
220
0
230
1
100
AcDbArc
50
140.57658
51
146.298052
0
ARC
5
24C
100
AcDbEntity
8
1
62
256
6
ByLayer
370
18
48
1
60
0
100
AcDbCircle
39
0
10
8.656669
20
-7.98749
30
0
40
0.47663493803811
210
0
220
0
230
1
100
AcDbArc
50
122.606544
51
140.57658
0
ARC
5
24D
100
AcDbEntity
8
1
62
256
6
ByLayer
370
18
48
1
60
0
100
AcDbCircle
39
0
10
8.539915
20
-7.804972
30
0
40
0.259968194684028
210
0
220
0
230
1
100
AcDbArc
50
90.273194
51
122.606544
0
ARC
5
24E
100
AcDbEntity
8
1
62
256
6
ByLayer
370
18
48
1
60
0
100
AcDbCircle
39
0
10
9.280305
20
8.377442
30
0
40
1.21373581608535
210
0
220
0
230
1
100
AcDbArc
50
194.581446
51
197.946275
0
ARC
5
24F
100
AcDbEntity
8
1
62
256
6
ByLayer
370
18
48
1
60
0
100
AcDbCircle
39
0
10
9.555325
20
8.466516
30
0
40
1.50282121079626
210
0
220
0
230
1
100
AcDbArc
50
197.946275
51
200.664111
0
ARC
5
250
100
AcDbEntity
8
1
62
256
6
ByLayer
370
18
48
1
60
0
100
AcDbCircle
39
0
10
9.296856
20
8.369034
30
0
40
1.22658029920346
210
0
220
0
230
1
100
AcDbArc
50
200.664111
51
204.022979
0
ARC
5
251
100
AcDbEntity
8
1
62
256
6
ByLayer
370
18
48
1
60
0
100
AcDbCircle
39
0
10
9.038393
20
8.253835
30
0
40
0.943607393026278
210
0
220
0
230
1
100
AcDbArc
50
204.022979
51
208.388257
0
ARC
5
252
100
AcDbEntity
8
1
62
256
6
ByLayer
370
18
48
1
60
0
100
AcDbCircle
39
0
10
8.964211
20
8.213744
30
0
40
0.859284760524359
210
0
220
0
230
1
100
AcDbArc
50
208.388257
51
213.217394
0
ARC
5
253
100
AcDbEntity
8
1
62
256
6
ByLayer
370
18
48
1
60
0
100
AcDbCircle
39
0
10
8.796342
20
8.103821
30
0
40
0.658627996423333
210
0
220
0
230
1
100
AcDbArc
50
213.217394
51
219.515153
0
ARC
5
254
100
AcDbEntity
8
1
62
256
6
ByLayer
370
18
48
1
60
0
100
AcDbCircle
39
0
10
8.697797
20
8.022543
30
0
40
0.53088970808045
210
0
220
0
230
1
100
AcDbArc
50
219.515153
51
227.457925
0
ARC
5
255
100
AcDbEntity
8
1
62
256
6
ByLayer
370
18
48
1
60
0
100
AcDbCircle
39
0
10
8.597539
20
7.913291
30
0
40
0.382607075401837
210
0
220
0
230
1
100
AcDbArc
50
227.457925
51
238.462712
0
ARC
5
256
100
AcDbEntity
8
1
62
256
6
ByLayer
370
18
48
1
60
0
100
AcDbCircle
39
0
10
8.547098
20
7.8311
30
0
40
0.286172525312773
210
0
220
0
230
1
100
AcDbArc
50
238.462712
51
253.388138
0
ARC
5
257
100
AcDbEntity
8
1
62
256
6
ByLayer
370
18
48
1
60
0
100
AcDbCircle
39
0
10
8.54748
20
7.832379
30
0
40
0.287507541559696
210
0
220
0
230
1
100
AcDbArc
50
253.388138
51
268.245035
0
ARC
5
258
100
AcDbEntity
8
1
62
256
6
ByLayer
370
18
48
1
60
0
100
AcDbCircle
39
0
10
101.284776
20
27.248488
30
0
40
31.3524734179494
210
0
220
0
230
1
100
AcDbArc
50
219.851545
51
222.040002
0
ARC
5
259
100
AcDbEntity
8
1
62
256
6
ByLayer
370
18
48
1
60
0
100
AcDbCircle
39
0
10
98.539953
20
24.9574
30
0
40
27.7771220955381
210
0
220
0
230
1
100
AcDbArc
50
217.381483
51
219.851545
0
ARC
5
25A
100
AcDbEntity
8
SK1
62
256
6
ByLayer
370
18
48
1
60
0
100
AcDbCircle
39
0
10
-1.79042
20
17.532288
30
0
40
0.209773443832216
210
0
220
0
230
1
100
AcDbArc
50
187.325016
51
195.368017
0
ARC
5
25B
100
AcDbEntity
8
SK1
62
256
6
ByLayer
370
18
48
1
60
0
100
AcDbCircle
39
0
10
-1.803281
20
17.528753
30
0
40
0.196435235347128
210
0
220
0
230
1
100
AcDbArc
50
195.368017
51
203.95517
0
ARC
5
25C
100
AcDbEntity
8
SK1
62
256
6
ByLayer
370
18
48
1
60
0
100
AcDbCircle
39
0
10
-1.799246
20
17.530546
30
0
40
0.200849823022236
210
0
220
0
230
1
100
AcDbArc
50
203.95517
51
210.775072
0
ARC
5
25D
100
AcDbEntity
8
SK1
62
256
6
ByLayer
370
18
48
1
60
0
100
AcDbCircle
39
0
10
-1.800324
20
17.529904
30
0
40
0.199595407220695
210
0
220
0
230
1
100
AcDbArc
50
210.775072
51
217.637733
0
ARC
5
25E
100
AcDbEntity
8
SK1
62
256
6
ByLayer
370
18
48
1
60
0
100
AcDbCircle
39
0
10
-1.80001
20
17.530146
30
0
40
0.199992796642455
210
0
220
0
230
1
100
AcDbArc
50
217.637733
51
224.481529
0
ARC
5
25F
100
AcDbEntity
8
SK1
62
256
6
ByLayer
370
18
48
1
60
0
100
AcDbCircle
39
0
10
-1.799882
20
17.530272
30
0
40
0.200171375860178
210
0
220
0
230
1
100
AcDbArc
50
224.481529
51
231.319234
0
ARC
5
260
100
AcDbEntity
8
SK1
62
256
6
ByLayer
370
18
48
1
60
0
100
AcDbCircle
39
0
10
-1.800484
20
17.52952
30
0
40
0.199208374866853
210
0
220
0
230
1
100
AcDbArc
50
231.319234
51
238.199535
0
ARC
5
261
100
AcDbEntity
8
SK1
62
256
6
ByLayer
370
18
48
1
60
0
100
AcDbCircle
39
0
10
-1.799573
20
17.530989
30
0
40
0.200937439072489
210
0
220
0
230
1
100
AcDbArc
50
238.199535
51
245.020771
0
ARC
5
262
100
AcDbEntity
8
SK1
62
256
6
ByLayer
370
18
48
1
60
0
100
AcDbCircle
39
0
10
-1.801775
20
17.526262
30
0
40
0.195722157879267
210
0
220
0
230
1
100
AcDbArc
50
245.020771
51
258.504005
0
ARC
5
263
100
AcDbEntity
8
SK1
62
256
6
ByLayer
370
18
48
1
60
0
100
AcDbCircle
39
0
10
-1.798263
20
17.543529
30
0
40
0.213342770289282
210
0
220
0
230
1
100
AcDbArc
50
258.504005
51
270.882646
0
ARC
5
264
100
AcDbEntity
8
1
62
256
6
ByLayer
370
18
48
1
60
0
100
AcDbCircle
39
0
10
8.540051
20
22.882052
30
0
40
0.941738867366542
210
0
220
0
230
1
100
AcDbArc
50
90.083726
51
105.262655
0
ARC
5
265
100
AcDbEntity
8
1
62
256
6
ByLayer
370
18
48
1
60
0
100
AcDbCircle
39
0
10
8.375341
20
23.485678
30
0
40
0.316044623116973
210
0
220
0
230
1
100
AcDbArc
50
105.262655
51
148.571576
0
ARC
5
266
100
AcDbEntity
8
1
62
256
6
ByLayer
370
18
48
1
60
0
100
AcDbCircle
39
0
10
71.129948
20
-16.039992
30
0
40
5.19229442145088
210
0
220
0
230
1
100
AcDbArc
50
89.585121
51
90.368987
0
ARC
5
267
100
AcDbEntity
8
1
62
256
6
ByLayer
370
18
48
1
60
0
100
AcDbCircle
39
0
10
71.129747
20
-16.008879
30
0
40
5.16118012512148
210
0
220
0
230
1
100
AcDbArc
50
90.368987
51
91.157578
0
ARC
5
268
100
AcDbEntity
8
1
62
256
6
ByLayer
370
18
48
1
60
0
100
AcDbCircle
39
0
10
71.129473
20
-15.995304
30
0
40
5.14760301932515
210
0
220
0
230
1
100
AcDbArc
50
91.157578
51
91.946172
0
ARC
5
269
100
AcDbEntity
8
1
62
256
6
ByLayer
370
18
48
1
60
0
100
AcDbCircle
39
0
10
71.128686
20
-15.972156
30
0
40
5.12444146438441
210
0
220
0
230
1
100
AcDbArc
50
91.946172
51
92.73833
0
ARC
5
26A
100
AcDbEntity
8
1
62
256
6
ByLayer
370
18
48
1
60
0
100
AcDbCircle
39
0
10
71.128227
20
-15.962555
30
0
40
5.11482969285033
210
0
220
0
230
1
100
AcDbArc
50
92.73833
51
93.53049
0
ARC
5
26B
100
AcDbEntity
8
1
62
256
6
ByLayer
370
18
48
1
60
0
100
AcDbCircle
39
0
10
71.127287
20
-15.947322
30
0
40
5.09956769479905
210
0
220
0
230
1
100
AcDbArc
50
93.53049
51
94.325021
0
ARC
5
26C
100
AcDbEntity
8
1
62
256
6
ByLayer
370
18
48
1
60
0
100
AcDbCircle
39
0
10
71.12686
20
-15.94167
30
0
40
5.09389926323871
210
0
220
0
230
1
100
AcDbArc
50
94.325021
51
95.119552
0
ARC
5
26D
100
AcDbEntity
8
1
62
256
6
ByLayer
370
18
48
1
60
0
100
AcDbCircle
39
0
10
71.1262
20
-15.934302
30
0
40
5.08650160045989
210
0
220
0
230
1
100
AcDbArc
50
95.119552
51
95.915239
0
ARC
5
26E
100
AcDbEntity
8
1
62
256
6
ByLayer
370
18
48
1
60
0
100
AcDbCircle
39
0
10
71.126021
20
-15.932573
30
0
40
5.0847634869305
210
0
220
0
230
1
100
AcDbArc
50
95.915239
51
96.710927
0
ARC
5
26F
100
AcDbEntity
8
1
62
256
6
ByLayer
370
18
48
1
60
0
100
AcDbCircle
39
0
10
71.126073
20
-15.93302
30
0
40
5.0852130364066
210
0
220
0
230
1
100
AcDbArc
50
96.710927
51
97.506544
0
ARC
5
270
100
AcDbEntity
8
1
62
256
6
ByLayer
370
18
48
1
60
0
100
AcDbCircle
39
0
10
70.663839
20
-12.698082
30
0
40
1.81796233107179
210
0
220
0
230
1
100
AcDbArc
50
96.382519
51
97.167012
0
ARC
5
271
100
AcDbEntity
8
1
62
256
6
ByLayer
370
18
48
1
60
0
100
AcDbCircle
39
0
10
70.66054
20
-12.671845
30
0
40
1.79151896021333
210
0
220
0
230
1
100
AcDbArc
50
97.167012
51
97.963084
0
ARC
5
272
100
AcDbEntity
8
1
62
256
6
ByLayer
370
18
48
1
60
0
100
AcDbCircle
39
0
10
70.658815
20
-12.659513
30
0
40
1.77906665133597
210
0
220
0
230
1
100
AcDbArc
50
97.963084
51
98.759163
0
ARC
5
273
100
AcDbEntity
8
1
62
256
6
ByLayer
370
18
48
1
60
0
100
AcDbCircle
39
0
10
70.655261
20
-12.636445
30
0
40
1.75572710976761
210
0
220
0
230
1
100
AcDbArc
50
98.759163
51
99.565824
0
ARC
5
274
100
AcDbEntity
8
1
62
256
6
ByLayer
370
18
48
1
60
0
100
AcDbCircle
39
0
10
70.653447
20
-12.625683
30
0
40
1.74481291412836
210
0
220
0
230
1
100
AcDbArc
50
99.565824
51
100.372491
0
ARC
5
275
100
AcDbEntity
8
1
62
256
6
ByLayer
370
18
48
1
60
0
100
AcDbCircle
39
0
10
70.649793
20
-12.605722
30
0
40
1.72452032158444
210
0
220
0
230
1
100
AcDbArc
50
100.372491
51
101.18865
0
ARC
5
276
100
AcDbEntity
8
1
62
256
6
ByLayer
370
18
48
1
60
0
100
AcDbCircle
39
0
10
70.647969
20
-12.596498
30
0
40
1.715117573259
210
0
220
0
230
1
100
AcDbArc
50
101.18865
51
102.004815
0
ARC
5
277
100
AcDbEntity
8
1
62
256
6
ByLayer
370
18
48
1
60
0
100
AcDbCircle
39
0
10
70.644371
20
-12.57958
30
0
40
1.69782165017336
210
0
220
0
230
1
100
AcDbArc
50
102.004815
51
102.829293
0
ARC
5
278
100
AcDbEntity
8
1
62
256
6
ByLayer
370
18
48
1
60
0
100
AcDbCircle
39
0
10
70.642614
20
-12.571863
30
0
40
1.68990702245403
210
0
220
0
230
1
100
AcDbArc
50
102.829293
51
103.653777
0
ARC
5
279
100
AcDbEntity
8
1
62
256
6
ByLayer
370
18
48
1
60
0
100
AcDbCircle
39
0
10
70.639228
20
-12.557926
30
0
40
1.67556428685456
210
0
220
0
230
1
100
AcDbArc
50
103.653777
51
104.485318
0
ARC
5
27A
100
AcDbEntity
8
1
62
256
6
ByLayer
370
18
48
1
60
0
100
AcDbCircle
39
0
10
70.637616
20
-12.551684
30
0
40
1.66911788293428
210
0
220
0
230
1
100
AcDbArc
50
104.485318
51
105.316863
0
ARC
5
27B
100
AcDbEntity
8
1
62
256
6
ByLayer
370
18
48
1
60
0
100
AcDbCircle
39
0
10
70.634597
20
-12.540664
30
0
40
1.65769182583544
210
0
220
0
230
1
100
AcDbArc
50
105.316863
51
106.15414
0
ARC
5
27C
100
AcDbEntity
8
1
62
256
6
ByLayer
370
18
48
1
60
0
100
AcDbCircle
39
0
10
70.631128
20
-12.528686
30
0
40
1.64522196302487
210
0
220
0
230
1
100
AcDbArc
50
106.15414
51
109.510496
0
ARC
5
27D
100
AcDbEntity
8
1
62
256
6
ByLayer
370
18
48
1
60
0
100
AcDbCircle
39
0
10
70.625459
20
-12.512686
30
0
40
1.62824728423364
210
0
220
0
230
1
100
AcDbArc
50
109.510496
51
112.901822
0
ARC
5
27E
100
AcDbEntity
8
1
62
256
6
ByLayer
370
18
48
1
60
0
100
AcDbCircle
39
0
10
10.719695
20
-8.377442
30
0
40
1.21373581608635
210
0
220
0
230
1
100
AcDbArc
50
14.581446
51
17.946275
0
ARC
5
27F
100
AcDbEntity
8
1
62
256
6
ByLayer
370
18
48
1
60
0
100
AcDbCircle
39
0
10
10.444675
20
-8.466516
30
0
40
1.50282121078977
210
0
220
0
230
1
100
AcDbArc
50
17.946275
51
20.664111
0
ARC
5
280
100
AcDbEntity
8
1
62
256
6
ByLayer
370
18
48
1
60
0
100
AcDbCircle
39
0
10
10.703144
20
-8.369034
30
0
40
1.22658029920138
210
0
220
0
230
1
100
AcDbArc
50
20.664111
51
24.022979
0
ARC
5
281
100
AcDbEntity
8
1
62
256
6
ByLayer
370
18
48
1
60
0
100
AcDbCircle
39
0
10
10.961607
20
-8.253835
30
0
40
0.943607393026442
210
0
220
0
230
1
100
AcDbArc
50
24.022979
51
28.388257
0
ARC
5
282
100
AcDbEntity
8
1
62
256
6
ByLayer
370
18
48
1
60
0
100
AcDbCircle
39
0
10
11.035789
20
-8.213744
30
0
40
0.859284760525072
210
0
220
0
230
1
100
AcDbArc
50
28.388257
51
33.217394
0
ARC
5
283
100
AcDbEntity
8
1
62
256
6
ByLayer
370
18
48
1
60
0
100
AcDbCircle
39
0
10
11.203658
20
-8.103821
30
0
40
0.658627996423477
210
0
220
0
230
1
100
AcDbArc
50
33.217394
51
39.515153
0
ARC
5
284
100
AcDbEntity
8
1
62
256
6
ByLayer
370
18
48
1
60
0
100
AcDbCircle
39
0
10
11.302203
20
-8.022543
30
0
40
0.530889708080204
210
0
220
0
230
1
100
AcDbArc
50
39.515153
51
47.457925
0
ARC
5
285
100
AcDbEntity
8
1
62
256
6
ByLayer
370
18
48
1
60
0
100
AcDbCircle
39
0
10
11.402461
20
-7.913291
30
0
40
0.382607075401567
210
0
220
0
230
1
100
AcDbArc
50
47.457925
51
58.462712
0
ARC
5
286
100
AcDbEntity
8
1
62
256
6
ByLayer
370
18
48
1
60
0
100
AcDbCircle
39
0
10
11.452902
20
-7.8311
30
0
40
0.286172525312787
210
0
220
0
230
1
100
AcDbArc
50
58.462712
51
73.388138
0
ARC
5
287
100
AcDbEntity
8
1
62
256
6
ByLayer
370
18
48
1
60
0
100
AcDbCircle
39
0
10
11.45252
20
-7.832379
30
0
40
0.287507541559843
210
0
220
0
230
1
100
AcDbArc
50
73.388138
51
88.245035
0
ARC
5
288
100
AcDbEntity
8
1
62
256
6
ByLayer
370
18
48
1
60
0
100
AcDbCircle
39
0
10
87.312116
20
-5.435424
30
0
40
16.578546729519
210
0
220
0
230
1
100
AcDbArc
50
232.481746
51
235.82678
0
ARC
5
289
100
AcDbEntity
8
1
62
256
6
ByLayer
370
18
48
1
60
0
100
AcDbCircle
39
0
10
86.133436
20
-6.970497
30
0
40
14.6431564464211
210
0
220
0
230
1
100
AcDbArc
50
228.694902
51
232.481746
0
ARC
5
28A
100
AcDbEntity
8
1
62
256
6
ByLayer
370
18
48
1
60
0
100
AcDbCircle
39
0
10
11.005322
20
8.256266
30
0
40
0.907936259361421
210
0
220
0
230
1
100
AcDbArc
50
343.699944
51
348.282485
0
ARC
5
28B
100
AcDbEntity
8
1
62
256
6
ByLayer
370
18
48
1
60
0
100
AcDbCircle
39
0
10
11.020579
20
8.251804
30
0
40
0.89204002773799
210
0
220
0
230
1
100
AcDbArc
50
339.03583
51
343.699944
0
ARC
5
28C
100
AcDbEntity
8
1
62
256
6
ByLayer
370
18
48
1
60
0
100
AcDbCircle
39
0
10
11.012243
20
8.254998
30
0
40
0.900967008638712
210
0
220
0
230
1
100
AcDbArc
50
334.500127
51
339.03583
0
ARC
5
28D
100
AcDbEntity
8
1
62
256
6
ByLayer
370
18
48
1
60
0
100
AcDbCircle
39
0
10
10.966262
20
8.27693
30
0
40
0.951910361943274
210
0
220
0
230
1
100
AcDbArc
50
330.206927
51
334.500127
0
ARC
5
28E
100
AcDbEntity
8
1
62
256
6
ByLayer
370
18
48
1
60
0
100
AcDbCircle
39
0
10
10.875294
20
8.329014
30
0
40
1.05673394150442
210
0
220
0
230
1
100
AcDbArc
50
326.298052
51
330.206927
0
ARC
5
28F
100
AcDbEntity
8
1
62
256
6
ByLayer
370
18
48
1
60
0
100
AcDbCircle
39
0
10
11.154075
20
8.143076
30
0
40
0.721634129088333
210
0
220
0
230
1
100
AcDbArc
50
320.57658
51
326.298052
0
ARC
5
290
100
AcDbEntity
8
1
62
256
6
ByLayer
370
18
48
1
60
0
100
AcDbCircle
39
0
10
11.343331
20
7.98749
30
0
40
0.476634938038142
210
0
220
0
230
1
100
AcDbArc
50
302.606544
51
320.57658
0
ARC
5
291
100
AcDbEntity
8
1
62
256
6
ByLayer
370
18
48
1
60
0
100
AcDbCircle
39
0
10
11.460085
20
7.804972
30
0
40
0.25996819468392
210
0
220
0
230
1
100
AcDbArc
50
270.273194
51
302.606544
0
ARC
5
292
100
AcDbEntity
8
1
62
256
6
ByLayer
370
18
48
1
60
0
100
AcDbCircle
39
0
10
71.078058
20
-21.850684
30
0
40
39.7142903568914
210
0
220
0
230
1
100
AcDbArc
50
89.870897
51
90.719514
0
ARC
5
293
100
AcDbEntity
8
1
62
256
6
ByLayer
370
18
48
1
60
0
100
AcDbCircle
39
0
10
70.712547
20
7.253904
30
0
40
10.6074074939103
210
0
220
0
230
1
100
AcDbArc
50
90.719514
51
93.895991
0
ARC
5
294
100
AcDbEntity
8
1
62
256
6
ByLayer
370
18
48
1
60
0
100
AcDbCircle
39
0
10
71.129948
20
-16.039992
30
0
40
5.19229442146986
210
0
220
0
230
1
100
AcDbArc
50
89.585121
51
90.368987
0
ARC
5
295
100
AcDbEntity
8
1
62
256
6
ByLayer
370
18
48
1
60
0
100
AcDbCircle
39
0
10
71.129747
20
-16.008879
30
0
40
5.16118012512148
210
0
220
0
230
1
100
AcDbArc
50
90.368987
51
91.157578
0
ARC
5
296
100
AcDbEntity
8
1
62
256
6
ByLayer
370
18
48
1
60
0
100
AcDbCircle
39
0
10
71.129473
20
-15.995304
30
0
40
5.14760301933025
210
0
220
0
230
1
100
AcDbArc
50
91.157578
51
91.946172
0
ARC
5
297
100
AcDbEntity
8
1
62
256
6
ByLayer
370
18
48
1
60
0
100
AcDbCircle
39
0
10
71.128686
20
-15.972156
30
0
40
5.12444146438441
210
0
220
0
230
1
100
AcDbArc
50
91.946172
51
92.73833
0
ARC
5
298
100
AcDbEntity
8
1
62
256
6
ByLayer
370
18
48
1
60
0
100
AcDbCircle
39
0
10
71.128227
20
-15.962555
30
0
40
5.11482969287804
210
0
220
0
230
1
100
AcDbArc
50
92.73833
51
93.53049
0
ARC
5
299
100
AcDbEntity
8
1
62
256
6
ByLayer
370
18
48
1
60
0
100
AcDbCircle
39
0
10
71.127287
20
-15.947322
30
0
40
5.0995676948061
210
0
220
0
230
1
100
AcDbArc
50
93.53049
51
94.325021
0
ARC
5
29A
100
AcDbEntity
8
1
62
256
6
ByLayer
370
18
48
1
60
0
100
AcDbCircle
39
0
10
71.12686
20
-15.94167
30
0
40
5.09389926323871
210
0
220
0
230
1
100
AcDbArc
50
94.325021
51
95.119552
0
ARC
5
29B
100
AcDbEntity
8
1
62
256
6
ByLayer
370
18
48
1
60
0
100
AcDbCircle
39
0
10
71.1262
20
-15.934302
30
0
40
5.0865016004304
210
0
220
0
230
1
100
AcDbArc
50
95.119552
51
95.915239
0
ARC
5
29C
100
AcDbEntity
8
1
62
256
6
ByLayer
370
18
48
1
60
0
100
AcDbCircle
39
0
10
71.126021
20
-15.932573
30
0
40
5.0847634869305
210
0
220
0
230
1
100
AcDbArc
50
95.915239
51
96.710927
0
ARC
5
29D
100
AcDbEntity
8
1
62
256
6
ByLayer
370
18
48
1
60
0
100
AcDbCircle
39
0
10
71.126073
20
-15.93302
30
0
40
5.08521303644319
210
0
220
0
230
1
100
AcDbArc
50
96.710927
51
97.506544
0
ARC
5
29E
100
AcDbEntity
8
1
62
256
6
ByLayer
370
18
48
1
60
0
100
AcDbCircle
39
0
10
70.663839
20
-12.698082
30
0
40
1.81796233107185
210
0
220
0
230
1
100
AcDbArc
50
96.382519
51
97.167012
0
ARC
5
29F
100
AcDbEntity
8
1
62
256
6
ByLayer
370
18
48
1
60
0
100
AcDbCircle
39
0
10
70.66054
20
-12.671845
30
0
40
1.7915189601951
210
0
220
0
230
1
100
AcDbArc
50
97.167012
51
97.963084
0
ARC
5
2A0
100
AcDbEntity
8
1
62
256
6
ByLayer
370
18
48
1
60
0
100
AcDbCircle
39
0
10
70.658815
20
-12.659513
30
0
40
1.77906665129536
210
0
220
0
230
1
100
AcDbArc
50
97.963084
51
98.759163
0
ARC
5
2A1
100
AcDbEntity
8
1
62
256
6
ByLayer
370
18
48
1
60
0
100
AcDbCircle
39
0
10
70.655261
20
-12.636445
30
0
40
1.75572710978536
210
0
220
0
230
1
100
AcDbArc
50
98.759163
51
99.565824
0
ARC
5
2A2
100
AcDbEntity
8
1
62
256
6
ByLayer
370
18
48
1
60
0
100
AcDbCircle
39
0
10
70.653447
20
-12.625683
30
0
40
1.74481291414608
210
0
220
0
230
1
100
AcDbArc
50
99.565824
51
100.372491
0
ARC
5
2A3
100
AcDbEntity
8
1
62
256
6
ByLayer
370
18
48
1
60
0
100
AcDbCircle
39
0
10
70.649793
20
-12.605722
30
0
40
1.72452032158444
210
0
220
0
230
1
100
AcDbArc
50
100.372491
51
101.18865
0
ARC
5
2A4
100
AcDbEntity
8
1
62
256
6
ByLayer
370
18
48
1
60
0
100
AcDbCircle
39
0
10
70.647969
20
-12.596498
30
0
40
1.71511757327623
210
0
220
0
230
1
100
AcDbArc
50
101.18865
51
102.004815
0
ARC
5
2A5
100
AcDbEntity
8
1
62
256
6
ByLayer
370
18
48
1
60
0
100
AcDbCircle
39
0
10
70.644371
20
-12.57958
30
0
40
1.69782165017336
210
0
220
0
230
1
100
AcDbArc
50
102.004815
51
102.829293
0
ARC
5
2A6
100
AcDbEntity
8
1
62
256
6
ByLayer
370
18
48
1
60
0
100
AcDbCircle
39
0
10
70.642614
20
-12.571863
30
0
40
1.6899070224707
210
0
220
0
230
1
100
AcDbArc
50
102.829293
51
103.653777
0
ARC
5
2A7
100
AcDbEntity
8
1
62
256
6
ByLayer
370
18
48
1
60
0
100
AcDbCircle
39
0
10
70.639228
20
-12.557926
30
0
40
1.67556428687101
210
0
220
0
230
1
100
AcDbArc
50
103.653777
51
104.485318
0
ARC
5
2A8
100
AcDbEntity
8
1
62
256
6
ByLayer
370
18
48
1
60
0
100
AcDbCircle
39
0
10
70.637616
20
-12.551684
30
0
40
1.66911788289864
210
0
220
0
230
1
100
AcDbArc
50
104.485318
51
105.316863
0
ARC
5
2A9
100
AcDbEntity
8
1
62
256
6
ByLayer
370
18
48
1
60
0
100
AcDbCircle
39
0
10
70.634597
20
-12.540664
30
0
40
1.65769182580216
210
0
220
0
230
1
100
AcDbArc
50
105.316863
51
106.15414
0
ARC
5
2AA
100
AcDbEntity
8
1
62
256
6
ByLayer
370
18
48
1
60
0
100
AcDbCircle
39
0
10
70.633208
20
-12.535867
30
0
40
1.65269725798957
210
0
220
0
230
1
100
AcDbArc
50
106.15414
51
106.99142
0
ARC
5
2AB
100
AcDbEntity
8
1
62
256
6
ByLayer
370
18
48
1
60
0
100
AcDbCircle
39
0
10
70.630713
20
-12.527701
30
0
40
1.64415849423057
210
0
220
0
230
1
100
AcDbArc
50
106.99142
51
107.833049
0
ARC
5
2AC
100
AcDbEntity
8
1
62
256
6
ByLayer
370
18
48
1
60
0
100
AcDbCircle
39
0
10
70.629624
20
-12.524316
30
0
40
1.64060295075465
210
0
220
0
230
1
100
AcDbArc
50
107.833049
51
108.67468
0
ARC
5
2AD
100
AcDbEntity
8
1
62
256
6
ByLayer
370
18
48
1
60
0
100
AcDbCircle
39
0
10
70.627807
20
-12.518941
30
0
40
1.63492934293554
210
0
220
0
230
1
100
AcDbArc
50
108.67468
51
109.519231
0
ARC
5
2AE
100
AcDbEntity
8
1
62
256
6
ByLayer
370
18
48
1
60
0
100
AcDbCircle
39
0
10
70.627097
20
-12.516937
30
0
40
1.63280364130813
210
0
220
0
230
1
100
AcDbArc
50
109.519231
51
110.363784
0
ARC
5
2AF
100
AcDbEntity
8
1
62
256
6
ByLayer
370
18
48
1
60
0
100
AcDbCircle
39
0
10
70.626114
20
-12.514291
30
0
40
1.6299803948506
210
0
220
0
230
1
100
AcDbArc
50
110.363784
51
111.2098
0
ARC
5
2B0
100
AcDbEntity
8
1
62
256
6
ByLayer
370
18
48
1
60
0
100
AcDbCircle
39
0
10
70.625861
20
-12.513637
30
0
40
1.62927902023642
210
0
220
0
230
1
100
AcDbArc
50
111.2098
51
112.055816
0
ARC
5
2B1
100
AcDbEntity
8
1
62
256
6
ByLayer
370
18
48
1
60
0
100
AcDbCircle
39
0
10
70.625868
20
-12.513655
30
0
40
1.62929874739503
210
0
220
0
230
1
100
AcDbArc
50
112.055816
51
112.901822
0
ARC
5
2B2
100
AcDbEntity
8
SK1
62
256
6
ByLayer
370
18
48
1
60
0
100
AcDbCircle
39
0
10
-0.790856
20
-4.839526
30
0
40
0.653969388366706
210
0
220
0
230
1
100
AcDbArc
50
300.885026
51
335.681235
0
ARC
5
2B3
100
AcDbEntity
8
SK1
62
256
6
ByLayer
370
18
48
1
60
0
100
AcDbCircle
39
0
10
-0.591935
20
-5.172095
30
0
40
0.266449740006978
210
0
220
0
230
1
100
AcDbArc
50
225.7596
51
300.885026
0
ARC
5
2B4
100
AcDbEntity
8
SK1
62
256
6
ByLayer
370
18
48
1
60
0
100
AcDbCircle
39
0
10
0.037611
20
-4.525631
30
0
40
1.16880407420208
210
0
220
0
230
1
100
AcDbArc
50
197.665909
51
225.7596
0
ARC
5
2B5
100
AcDbEntity
8
SK1
62
256
6
ByLayer
370
18
48
1
60
0
100
AcDbCircle
39
0
10
5.570406
20
-2.763518
30
0
40
6.97542701288668
210
0
220
0
230
1
100
AcDbArc
50
192.864699
51
197.665909
0
ARC
5
2B6
100
AcDbEntity
8
SK1
62
256
6
ByLayer
370
18
48
1
60
0
100
AcDbCircle
39
0
10
5.116947
20
-2.86708
30
0
40
6.51029268332325
210
0
220
0
230
1
100
AcDbArc
50
191.078039
51
192.864699
0
ARC
5
2B7
100
AcDbEntity
8
SK1
62
256
6
ByLayer
370
18
48
1
60
0
100
AcDbCircle
39
0
10
3.784495
20
-3.127966
30
0
40
5.15254075904474
210
0
220
0
230
1
100
AcDbArc
50
188.820684
51
191.078039
0
ARC
5
2B8
100
AcDbEntity
8
1
62
256
6
ByLayer
370
18
48
1
60
0
100
AcDbCircle
39
0
10
90.744329
20
-9.450748
30
0
40
13.4289650474503
210
0
220
0
230
1
100
AcDbArc
50
174.64001
51
188.096171
0
ARC
5
2B9
100
AcDbEntity
8
1
62
256
6
ByLayer
370
18
48
1
60
0
100
AcDbCircle
39
0
10
92.134645
20
-9.581192
30
0
40
14.8253875358212
210
0
220
0
230
1
100
AcDbArc
50
162.441258
51
174.64001
0
ARC
5
2BA
100
AcDbEntity
8
1
62
256
6
ByLayer
370
18
48
1
60
0
100
AcDbCircle
39
0
10
11.6819
20
23.488459
30
0
40
0.267167572142947
210
0
220
0
230
1
100
AcDbArc
50
37.330714
51
44.119791
0
ARC
5
2BB
100
AcDbEntity
8
1
62
256
6
ByLayer
370
18
48
1
60
0
100
AcDbCircle
39
0
10
11.569349
20
23.379315
30
0
40
0.423948633569322
210
0
220
0
230
1
100
AcDbArc
50
44.119791
51
48.401209
0
ARC
5
2BC
100
AcDbEntity
8
1
62
256
6
ByLayer
370
18
48
1
60
0
100
AcDbCircle
39
0
10
11.549081
20
23.356486
30
0
40
0.454476206292926
210
0
220
0
230
1
100
AcDbArc
50
48.401209
51
74.645093
0
ARC
5
2BD
100
AcDbEntity
8
1
62
256
6
ByLayer
370
18
48
1
60
0
100
AcDbCircle
39
0
10
11.453652
20
23.008966
30
0
40
0.814860554951168
210
0
220
0
230
1
100
AcDbArc
50
74.645093
51
89.460513
0
ARC
5
2BE
100
AcDbEntity
8
1
62
256
6
ByLayer
370
18
48
1
60
0
100
AcDbCircle
39
0
10
87.312116
20
-5.435424
30
0
40
16.578546729519
210
0
220
0
230
1
100
AcDbArc
50
232.481746
51
235.82678
0
ARC
5
2BF
100
AcDbEntity
8
1
62
256
6
ByLayer
370
18
48
1
60
0
100
AcDbCircle
39
0
10
86.133436
20
-6.970497
30
0
40
14.6431564464211
210
0
220
0
230
1
100
AcDbArc
50
228.694902
51
232.481746
0
ARC
5
2C0
100
AcDbEntity
8
SK1
62
256
6
ByLayer
370
18
48
1
60
0
100
AcDbCircle
39
0
10
24.469908
20
0.816537
30
0
40
26.2082239294167
210
0
220
0
230
1
100
AcDbArc
50
184.32857
51
190.407825
0
ARC
5
2C1
100
AcDbEntity
8
SK1
62
256
6
ByLayer
370
18
48
1
60
0
100
AcDbCircle
39
0
10
14.591925
20
0.068854
30
0
40
16.301984773505
210
0
220
0
230
1
100
AcDbArc
50
174.569613
51
184.32857
0
ARC
5
2C2
100
AcDbEntity
8
SK1
62
256
6
ByLayer
370
18
48
1
60
0
100
AcDbCircle
39
0
10
21.063546
20
-0.546358
30
0
40
22.8027816590878
210
0
220
0
230
1
100
AcDbArc
50
171.641702
51
174.569613
0
ARC
5
2C3
100
AcDbEntity
8
SK1
62
256
6
ByLayer
370
18
48
1
60
0
100
AcDbCircle
39
0
10
30.83358
20
-1.981805
30
0
40
32.6777031349856
210
0
220
0
230
1
100
AcDbArc
50
169.598353
51
171.641702
0
ARC
5
2C4
100
AcDbEntity
8
1
62
256
6
ByLayer
370
18
48
1
60
0
100
AcDbCircle
39
0
10
90.744329
20
-9.450748
30
0
40
13.4289650474543
210
0
220
0
230
1
100
AcDbArc
50
174.64001
51
188.096171
0
ARC
5
2C5
100
AcDbEntity
8
1
62
256
6
ByLayer
370
18
48
1
60
0
100
AcDbCircle
39
0
10
92.134645
20
-9.581192
30
0
40
14.8253875358256
210
0
220
0
230
1
100
AcDbArc
50
162.441258
51
174.64001
0
ARC
5
2C6
100
AcDbEntity
8
SK1
62
256
6
ByLayer
370
18
48
1
60
0
100
AcDbCircle
39
0
10
-0.786202
20
4.844786
30
0
40
0.64756926009392
210
0
220
0
230
1
100
AcDbArc
50
24.064172
51
59.197466
0
ARC
5
2C7
100
AcDbEntity
8
SK1
62
256
6
ByLayer
370
18
48
1
60
0
100
AcDbCircle
39
0
10
-0.591456
20
5.171445
30
0
40
0.267264125072605
210
0
220
0
230
1
100
AcDbArc
50
59.197466
51
134.177836
0
ARC
5
2C8
100
AcDbEntity
8
SK1
62
256
6
ByLayer
370
18
48
1
60
0
100
AcDbCircle
39
0
10
0.014314
20
4.548036
30
0
40
1.136513827875
210
0
220
0
230
1
100
AcDbArc
50
134.177836
51
163.026872
0
ARC
5
2C9
100
AcDbEntity
8
SK1
62
256
6
ByLayer
370
18
48
1
60
0
100
AcDbCircle
39
0
10
8.296281
20
2.020231
30
0
40
9.79565829658632
210
0
220
0
230
1
100
AcDbArc
50
163.026872
51
166.44554
0
ARC
5
2CA
100
AcDbEntity
8
SK1
62
256
6
ByLayer
370
18
48
1
60
0
100
AcDbCircle
39
0
10
4.2655
20
2.991989
30
0
40
5.64939352433773
210
0
220
0
230
1
100
AcDbArc
50
166.44554
51
168.505054
0
ARC
5
2CB
100
AcDbEntity
8
SK1
62
256
6
ByLayer
370
18
48
1
60
0
100
AcDbCircle
39
0
10
3.767674
20
3.093227
30
0
40
5.1413782232027
210
0
220
0
230
1
100
AcDbArc
50
168.505054
51
170.768015
0
ARC
5
2CC
100
AcDbEntity
8
SK1
62
256
6
ByLayer
370
18
48
1
60
0
100
AcDbCircle
39
0
10
-0.215842
20
17.577768
30
0
40
0.217493380654834
210
0
220
0
230
1
100
AcDbArc
50
333.140387
51
339.449636
0
ARC
5
2CD
100
AcDbEntity
8
SK1
62
256
6
ByLayer
370
18
48
1
60
0
100
AcDbCircle
39
0
10
-0.197386
20
17.568422
30
0
40
0.196805999608127
210
0
220
0
230
1
100
AcDbArc
50
326.169496
51
333.140387
0
ARC
5
2CE
100
AcDbEntity
8
SK1
62
256
6
ByLayer
370
18
48
1
60
0
100
AcDbCircle
39
0
10
-0.197394
20
17.568426
30
0
40
0.196814555105465
210
0
220
0
230
1
100
AcDbArc
50
319.25072
51
326.169496
0
ARC
5
2CF
100
AcDbEntity
8
SK1
62
256
6
ByLayer
370
18
48
1
60
0
100
AcDbCircle
39
0
10
-0.201432
20
17.571906
30
0
40
0.202145346142116
210
0
220
0
230
1
100
AcDbArc
50
312.513974
51
319.25072
0
ARC
5
2D0
100
AcDbEntity
8
SK1
62
256
6
ByLayer
370
18
48
1
60
0
100
AcDbCircle
39
0
10
-0.200114
20
17.570469
30
0
40
0.200195401230114
210
0
220
0
230
1
100
AcDbArc
50
305.656113
51
312.513974
0
ARC
5
2D1
100
AcDbEntity
8
SK1
62
256
6
ByLayer
370
18
48
1
60
0
100
AcDbCircle
39
0
10
-0.199227
20
17.569232
30
0
40
0.198673587579162
210
0
220
0
230
1
100
AcDbArc
50
298.745849
51
305.656113
0
ARC
5
2D2
100
AcDbEntity
8
SK1
62
256
6
ByLayer
370
18
48
1
60
0
100
AcDbCircle
39
0
10
-0.199082
20
17.568968
30
0
40
0.198372073475906
210
0
220
0
230
1
100
AcDbArc
50
284.974087
51
298.745849
0
ARC
5
2D3
100
AcDbEntity
8
SK1
62
256
6
ByLayer
370
18
48
1
60
0
100
AcDbCircle
39
0
10
-0.201216
20
17.576945
30
0
40
0.206629135816168
210
0
220
0
230
1
100
AcDbArc
50
271.74768
51
284.974087
0
ARC
5
2D4
100
AcDbEntity
8
SK1
62
256
6
ByLayer
370
18
48
1
60
0
100
AcDbCircle
39
0
10
-0.215842
20
-17.577768
30
0
40
0.217493382754576
210
0
220
0
230
1
100
AcDbArc
50
20.550365
51
26.859613
0
ARC
5
2D5
100
AcDbEntity
8
SK1
62
256
6
ByLayer
370
18
48
1
60
0
100
AcDbCircle
39
0
10
-0.197386
20
-17.568422
30
0
40
0.196805999847621
210
0
220
0
230
1
100
AcDbArc
50
26.859613
51
33.830504
0
ARC
5
2D6
100
AcDbEntity
8
SK1
62
256
6
ByLayer
370
18
48
1
60
0
100
AcDbCircle
39
0
10
-0.197394
20
-17.568426
30
0
40
0.196814553526538
210
0
220
0
230
1
100
AcDbArc
50
33.830504
51
40.74928
0
ARC
5
2D7
100
AcDbEntity
8
SK1
62
256
6
ByLayer
370
18
48
1
60
0
100
AcDbCircle
39
0
10
-0.201432
20
-17.571906
30
0
40
0.202145345054584
210
0
220
0
230
1
100
AcDbArc
50
40.74928
51
47.486026
0
ARC
5
2D8
100
AcDbEntity
8
SK1
62
256
6
ByLayer
370
18
48
1
60
0
100
AcDbCircle
39
0
10
-0.200114
20
-17.570469
30
0
40
0.2001954031735
210
0
220
0
230
1
100
AcDbArc
50
47.486026
51
54.343887
0
ARC
5
2D9
100
AcDbEntity
8
SK1
62
256
6
ByLayer
370
18
48
1
60
0
100
AcDbCircle
39
0
10
-0.199227
20
-17.569232
30
0
40
0.198673590320262
210
0
220
0
230
1
100
AcDbArc
50
54.343887
51
61.25415
0
ARC
5
2DA
100
AcDbEntity
8
SK1
62
256
6
ByLayer
370
18
48
1
60
0
100
AcDbCircle
39
0
10
-0.20075
20
-17.572009
30
0
40
0.20184097286954
210
0
220
0
230
1
100
AcDbArc
50
61.25415
51
68.01125
0
ARC
5
2DB
100
AcDbEntity
8
SK1
62
256
6
ByLayer
370
18
48
1
60
0
100
AcDbCircle
39
0
10
-0.19941
20
-17.568689
30
0
40
0.198260298227841
210
0
220
0
230
1
100
AcDbArc
50
68.01125
51
74.890096
0
ARC
5
2DC
100
AcDbEntity
8
SK1
62
256
6
ByLayer
370
18
48
1
60
0
100
AcDbCircle
39
0
10
-0.198956
20
-17.567007
30
0
40
0.1965178356917
210
0
220
0
230
1
100
AcDbArc
50
74.890096
51
81.856262
0
ARC
5
2DD
100
AcDbEntity
8
SK1
62
256
6
ByLayer
370
18
48
1
60
0
100
AcDbCircle
39
0
10
-0.201443
20
-17.584388
30
0
40
0.214075806613472
210
0
220
0
230
1
100
AcDbArc
50
81.856262
51
88.252319
0
ARC
5
2DE
100
AcDbEntity
8
1
62
256
6
ByLayer
370
18
48
1
60
0
100
AcDbCircle
39
0
10
101.284776
20
27.248488
30
0
40
31.3524734179494
210
0
220
0
230
1
100
AcDbArc
50
219.851545
51
222.040002
0
ARC
5
2DF
100
AcDbEntity
8
1
62
256
6
ByLayer
370
18
48
1
60
0
100
AcDbCircle
39
0
10
98.539953
20
24.9574
30
0
40
27.7771220955381
210
0
220
0
230
1
100
AcDbArc
50
217.381483
51
219.851545
0
ARC
5
2E0
100
AcDbEntity
8
1
62
256
6
ByLayer
370
18
48
1
60
0
100
AcDbCircle
39
0
10
8.546452
20
-22.997876
30
0
40
0.825950838969547
210
0
220
0
230
1
100
AcDbArc
50
252.488049
51
269.460513
0
ARC
5
2E1
100
AcDbEntity
8
1
62
256
6
ByLayer
370
18
48
1
60
0
100
AcDbCircle
39
0
10
8.414969
20
-23.414583
30
0
40
0.388992421630821
210
0
220
0
230
1
100
AcDbArc
50
217.330714
51
252.488049
0
ARC
5
2E3
100
AcDbEntity
8
1
62
256
6
ByLayer
370
18
48
1
60
0
100
AcDbCircle
39
0
10
-83.9
20
20.2955
30
0
40
0.450000000000001
210
0
220
0
230
-1
100
AcDbArc
50
187.5
51
172.5
0
ARC
5
2E4
100
AcDbEntity
8
1
62
256
6
ByLayer
370
18
48
1
60
0
100
AcDbCircle
39
0
10
-83.9
20
20.2955
30
0
40
0.605662432702594
210
0
220
0
230
-1
100
AcDbArc
50
187.5
51
172.5
0
ARC
5
2E5
100
AcDbEntity
8
1
62
256
6
ByLayer
370
18
48
1
60
0
100
AcDbCircle
39
0
10
-83.9
20
20.2955
30
0
40
0.750000000000002
210
0
220
0
230
-1
100
AcDbArc
50
187.5
51
172.5
0
ARC
5
2E6
100
AcDbEntity
8
1
62
256
6
ByLayer
370
13
48
0.05
60
0
100
AcDbCircle
39
0
10
99.603
20
-24.353
30
0
40
0.397000000000024
210
0
220
0
230
1
100
AcDbArc
50
260
51
360
0
ARC
5
2EC
100
AcDbEntity
8
1
62
256
6
ByLayer
370
18
48
1
60
0
100
AcDbCircle
39
0
10
91.059381
20
14.171111
30
0
40
1.5
210
0
220
0
230
1
100
AcDbArc
50
200.653641
51
347.071195
0
ARC
5
2ED
100
AcDbEntity
8
1
62
256
6
ByLayer
370
18
48
1
60
0
100
AcDbCircle
39
0
10
91.261746
20
15.586106
30
0
40
1.64983640960441
210
0
220
0
230
1
100
AcDbArc
50
118.480739
51
166.756662
0
ARC
5
2EE
100
AcDbEntity
8
1
62
256
6
ByLayer
370
18
48
1
60
0
100
AcDbCircle
39
0
10
91.26068
20
15.341808
30
0
40
1.64983640960441
210
0
220
0
230
1
100
AcDbArc
50
193.403974
51
198.955558
0
ARC
5
2EF
100
AcDbEntity
8
1
62
256
6
ByLayer
370
18
48
1
60
0
100
AcDbCircle
39
0
10
91.059381
20
14.171111
30
0
40
1.5
210
0
220
0
230
1
100
AcDbArc
50
154.964368
51
159.346359
0
ARC
5
2F0
100
AcDbEntity
8
1
62
256
6
ByLayer
370
18
48
1
60
0
100
AcDbCircle
39
0
10
91.261746
20
15.586106
30
0
40
1.5
210
0
220
0
230
1
100
AcDbArc
50
121.63443
51
179.75
0
ARC
5
2F1
100
AcDbEntity
8
1
62
256
6
ByLayer
370
18
48
1
60
0
100
AcDbCircle
39
0
10
-95.2375
20
19.1504
30
0
40
1.6765
210
0
220
0
230
-1
100
AcDbArc
50
310
51
9.840113
0
ARC
5
2F2
100
AcDbEntity
8
1
62
256
6
ByLayer
370
18
48
1
60
0
100
AcDbCircle
39
0
10
-95.2375
20
19.1504
30
0
40
1.6765
210
0
220
0
230
-1
100
AcDbArc
50
9.840113
51
70.159887
0
ARC
5
2F3
100
AcDbEntity
8
1
62
256
6
ByLayer
370
18
48
1
60
0
100
AcDbCircle
39
0
10
-95.2375
20
19.1504
30
0
40
1.6765
210
0
220
0
230
-1
100
AcDbArc
50
250.159887
51
310
0
ARC
5
2F4
100
AcDbEntity
8
1
62
256
6
ByLayer
370
18
48
1
60
0
100
AcDbCircle
39
0
10
-95.2375
20
19.1504
30
0
40
1.6765
210
0
220
0
230
-1
100
AcDbArc
50
70.159887
51
130
0
ARC
5
2F5
100
AcDbEntity
8
1
62
256
6
ByLayer
370
18
48
1
60
0
100
AcDbCircle
39
0
10
-95.2375
20
19.1504
30
0
40
1.6765
210
0
220
0
230
-1
100
AcDbArc
50
189.840113
51
250.159887
0
ARC
5
2F6
100
AcDbEntity
8
1
62
256
6
ByLayer
370
18
48
1
60
0
100
AcDbCircle
39
0
10
-95.2375
20
19.1504
30
0
40
1.6765
210
0
220
0
230
-1
100
AcDbArc
50
130
51
189.840113
0
ARC
5
2F7
100
AcDbEntity
8
1
62
256
6
ByLayer
370
18
48
1
60
0
100
AcDbCircle
39
0
10
-95.2375
20
19.1504
30
0
40
1.2065
210
0
220
0
230
-1
100
AcDbArc
50
339.920057
51
36.044721
0
ARC
5
2F8
100
AcDbEntity
8
1
62
256
6
ByLayer
370
18
48
1
60
0
100
AcDbCircle
39
0
10
-95.2375
20
19.1504
30
0
40
1.2065
210
0
220
0
230
-1
100
AcDbArc
50
280.079943
51
339.920057
0
ARC
5
2F9
100
AcDbEntity
8
1
62
256
6
ByLayer
370
18
48
1
60
0
100
AcDbCircle
39
0
10
-95.2375
20
19.1504
30
0
40
1.2065
210
0
220
0
230
-1
100
AcDbArc
50
223.955279
51
280.079943
0
ARC
5
2FA
100
AcDbEntity
8
1
62
256
6
ByLayer
370
18
48
1
60
0
100
AcDbCircle
39
0
10
-95.2375
20
19.1504
30
0
40
1.2065
210
0
220
0
230
-1
100
AcDbArc
50
216.044721
51
223.955279
0
ARC
5
2FB
100
AcDbEntity
8
1
62
256
6
ByLayer
370
18
48
1
60
0
100
AcDbCircle
39
0
10
-90.872
20
13.947799
30
0
40
0.397000000000009
210
0
220
0
230
-1
100
AcDbArc
50
260
51
0
0
ARC
5
2FC
100
AcDbEntity
8
1
62
256
6
ByLayer
370
18
48
1
60
0
100
AcDbCircle
39
0
10
-99.603
20
15.48731
30
0
40
0.397
210
0
220
0
230
-1
100
AcDbArc
50
180
51
260
0
ARC
5
2FD
100
AcDbEntity
8
1
62
256
6
ByLayer
370
18
48
1
60
0
100
AcDbCircle
39
0
10
-99.603
20
24.353
30
0
40
0.397
210
0
220
0
230
-1
100
AcDbArc
50
80
51
180
0
ARC
5
2FE
100
AcDbEntity
8
1
62
256
6
ByLayer
370
18
48
1
60
0
100
AcDbCircle
39
0
10
-90.872
20
22.813489
30
0
40
0.397000000000009
210
0
220
0
230
-1
100
AcDbArc
50
0
51
80
0
ARC
5
2FF
100
AcDbEntity
8
1
62
256
6
ByLayer
370
18
48
1
60
0
100
AcDbCircle
39
0
10
95.2375
20
19.1504
30
0
40
1.2065
210
0
220
0
230
1
100
AcDbArc
50
136.044721
51
143.955279
0
ARC
5
300
100
AcDbEntity
8
1
62
256
6
ByLayer
370
18
48
1
60
0
100
AcDbCircle
39
0
10
-97.5
20
7.7096
30
0
40
3
210
0
220
0
230
-1
100
AcDbArc
50
0
51
76
0
ARC
5
301
100
AcDbEntity
8
1
62
256
6
ByLayer
370
18
48
1
60
0
100
AcDbCircle
39
0
10
-95.2375
20
19.1504
30
0
40
1.2065
210
0
220
0
230
-1
100
AcDbArc
50
159.920057
51
216.044721
0
ARC
5
302
100
AcDbEntity
8
1
62
256
6
ByLayer
370
18
48
1
60
0
100
AcDbCircle
39
0
10
-95.2375
20
19.1504
30
0
40
1.2065
210
0
220
0
230
-1
100
AcDbArc
50
100.079943
51
159.920057
0
ARC
5
303
100
AcDbEntity
8
1
62
256
6
ByLayer
370
18
48
1
60
0
100
AcDbCircle
39
0
10
-95.2375
20
19.1504
30
0
40
1.2065
210
0
220
0
230
-1
100
AcDbArc
50
43.955279
51
100.079943
0
ARC
5
304
100
AcDbEntity
8
1
62
256
6
ByLayer
370
18
48
1
60
0
100
AcDbCircle
39
0
10
91.059381
20
14.171111
30
0
40
1.5
210
0
220
0
230
1
100
AcDbArc
50
112.928805
51
146.917661
0
ARC
5
305
100
AcDbEntity
8
1
62
256
6
ByLayer
370
18
48
1
60
0
100
AcDbCircle
39
0
10
-91.26068
20
15.341808
30
0
40
1.5
210
0
220
0
230
-1
100
AcDbArc
50
346.430729
51
0.25
0
CIRCLE
5
1A5
100
AcDbEntity
8
1
62
256
6
ByLayer
370
18
48
1
60
0
100
AcDbCircle
10
10
20
0
30
0
40
0.0009999999999994
39
0
210
0
220
0
230
1
0
CIRCLE
5
2E2
100
AcDbEntity
8
1
62
256
6
ByLayer
370
18
48
1
60
0
100
AcDbCircle
10
-83.9
20
20.2955
30
0
40
0.775000000000001
39
0
210
0
220
0
230
-1
0
CIRCLE
5
2E7
100
AcDbEntity
8
1
62
256
6
ByLayer
370
18
48
1
60
0
100
AcDbCircle
10
-95.2375
20
19.1504
30
0
40
2.625
39
0
210
0
220
0
230
-1
0
CIRCLE
5
2E8
100
AcDbEntity
8
1
62
256
6
ByLayer
370
18
48
1
60
0
100
AcDbCircle
10
-95.2375
20
19.1504
30
0
40
3
39
0
210
0
220
0
230
-1
0
CIRCLE
5
2E9
100
AcDbEntity
8
1
62
256
6
ByLayer
370
18
48
1
60
0
100
AcDbCircle
10
-95.2375
20
19.1504
30
0
40
1.8
39
0
210
0
220
0
230
-1
0
CIRCLE
5
2EA
100
AcDbEntity
8
1
62
256
6
ByLayer
370
18
48
1
60
0
100
AcDbCircle
10
-95.2375
20
19.1504
30
0
40
2.93439086623231
39
0
210
0
220
0
230
-1
0
CIRCLE
5
2EB
100
AcDbEntity
8
1
62
256
6
ByLayer
370
18
48
1
60
0
100
AcDbCircle
10
95.2375
20
19.1504
30
0
40
2.88383409409708
39
0
210
0
220
0
230
1
0
ELLIPSE
5
306
100
AcDbEntity
8
1
62
256
6
ByLayer
370
18
48
1
60
0
100
AcDbEllipse
10
85.193559
20
2.992462
30
0
11
3.7726991119681E-08
21
-1.15470051755798
31
0
210
0
220
0
230
-1
40
0.866025
41
0.54028388169658
42
0.583958403060423
0
ELLIPSE
5
307
100
AcDbEntity
8
1
62
256
6
ByLayer
370
18
48
1
60
0
100
AcDbEllipse
10
83.9
20
-7.454844
30
0
11
0.605662432702595
21
6.12106108685436E-16
31
0
210
0
220
0
230
-1
40
0.5
41
-2.64757007874334
42
-0.494022574846638
0
ELLIPSE
5
308
100
AcDbEntity
8
1
62
256
6
ByLayer
370
18
48
1
60
0
100
AcDbEllipse
10
83.9
20
-7.454844
30
0
11
0.449999999999995
21
4.54787574787058E-16
31
0
210
0
220
0
230
-1
40
0.5
41
-2.7045300565897
42
-0.437062597000283
0
ELLIPSE
5
309
100
AcDbEntity
8
1
62
256
6
ByLayer
370
18
48
1
60
0
100
AcDbEllipse
10
85.193559
20
-7.54944
30
0
11
0.93166899202059
21
-0.387542292466526
31
0
210
0
220
0
230
-1
40
0.937467
41
-1.09685490771644
42
-0.371816338505348
0
ELLIPSE
5
30A
100
AcDbEntity
8
1
62
256
6
ByLayer
370
18
48
1
60
0
100
AcDbEllipse
10
85.193559
20
-7.54944
30
0
11
0.931668992020507
21
-0.387542292466643
31
0
210
0
220
0
230
-1
40
0.937467
41
-0.371816338505494
42
1.78293835807405
0
ELLIPSE
5
30B
100
AcDbEntity
8
1
62
256
6
ByLayer
370
18
48
1
60
0
100
AcDbEllipse
10
83.9
20
-6.721574
30
0
11
0.752021876927942
21
-0.524044821798105
31
0
210
0
220
0
230
-1
40
0.357447
41
0.0477295616574374
42
0.557545109273047
0
ELLIPSE
5
30C
100
AcDbEntity
8
1
62
256
6
ByLayer
370
18
48
1
60
0
100
AcDbEllipse
10
83.9
20
-7.030059
30
0
11
0.77500000000001
21
7.83245267688841E-16
31
0
210
0
220
0
230
-1
40
0.5
41
0.801663412696918
42
3.14159265358979
0
ELLIPSE
5
30D
100
AcDbEntity
8
1
62
256
6
ByLayer
370
18
48
1
60
0
100
AcDbEllipse
10
83.9
20
-7.030059
30
0
11
0.775000000000006
21
7.83245267688837E-16
31
0
210
0
220
0
230
-1
40
0.5
41
3.14159265358979
42
-0.801663412696911
0
ELLIPSE
5
30E
100
AcDbEntity
8
1
62
256
6
ByLayer
370
18
48
1
60
0
100
AcDbEllipse
10
83.9
20
-6.721574
30
0
11
0.752021876921978
21
-0.524044821795952
31
0
210
0
220
0
230
-1
40
0.357447
41
-1.04578171612466
42
-0.535966168506764
0
ELLIPSE
5
30F
100
AcDbEntity
8
1
62
256
6
ByLayer
370
18
48
1
60
0
100
AcDbEllipse
10
89.655786
20
104.500268
30
3.98
11
-3.08108017697133
21
-714.82586001738
31
-0.341972137862572
210
-0.993887485231926
220
0.00433667977437302
230
-0.110312555531512
40
0.004337
41
-1.44609771025427
42
-1.44575326944113
0
ELLIPSE
5
310
100
AcDbEntity
8
1
62
256
6
ByLayer
370
18
48
1
60
0
100
AcDbEllipse
10
82.2
20
-8.686765
30
0
11
0.749999650292623
21
0
31
0
210
0
220
0
230
1
40
0.866025
41
-1.17899991460254
42
-0.967501216962781
0
ELLIPSE
5
311
100
AcDbEntity
8
1
62
256
6
ByLayer
370
18
48
1
60
0
100
AcDbEllipse
10
82.2
20
-8.686765
30
0
11
0.749999650312274
21
0
31
0
210
0
220
0
230
1
40
0.866025
41
-2.22473261372703
42
-1.17899991460529
0
ELLIPSE
5
312
100
AcDbEntity
8
1
62
256
6
ByLayer
370
18
48
1
60
0
100
AcDbEllipse
10
89.655786
20
-14.487175
30
0
11
-3.0832454644895
21
0.373033392757695
31
0
210
0
220
0
230
1
40
0.862833
41
-1.0664620793281
42
-0.437933682990726
0
ELLIPSE
5
313
100
AcDbEntity
8
1
62
256
6
ByLayer
370
18
48
1
60
0
100
AcDbEllipse
10
90.872
20
-12.532578
30
0
11
0.396999999999867
21
0
31
0
210
0
220
0
230
1
40
0.5
41
3.14159265358979
42
-1.74532925199409
0
ELLIPSE
5
314
100
AcDbEntity
8
1
62
256
6
ByLayer
370
18
48
1
60
0
100
AcDbEllipse
10
91.112455
20
-8.993574
30
0
11
0.150000000000061
21
0
31
0
210
0
220
0
230
1
40
0.5
41
3.14159265358979
42
-1.74532925199462
0
ELLIPSE
5
315
100
AcDbEntity
8
1
62
256
6
ByLayer
370
18
48
1
60
0
100
AcDbEllipse
10
97.5
20
-15.026528
30
0
11
3.00000000000001
21
0
31
0
210
0
220
0
230
1
40
0.5
41
3.14159265358979
42
-1.81514242207411
0
ELLIPSE
5
316
100
AcDbEntity
8
1
62
256
6
ByLayer
370
18
48
1
60
0
100
AcDbEllipse
10
94.974222
20
1.607577
30
0
11
1.30149283708248E-09
21
3.47362495613623
31
0
210
0
220
0
230
1
40
0.575767
41
-1.57079632614415
42
-1.5275513146355
0
ELLIPSE
5
317
100
AcDbEntity
8
1
62
256
6
ByLayer
370
18
48
1
60
0
100
AcDbEllipse
10
94.974222
20
1.714516
30
0
11
2
21
0
31
0
210
0
220
0
230
1
40
0.5
41
0.0432450121028312
42
3.09834764148697
0
ELLIPSE
5
318
100
AcDbEntity
8
1
62
256
6
ByLayer
370
18
48
1
60
0
100
AcDbEllipse
10
98.573754
20
-12.241497
30
0
11
0.480285314417829
21
4.49990555351157
31
0
210
0
220
0
230
1
40
0.060703
41
-3.13511373674498
42
-2.08791618554827
0
ELLIPSE
5
319
100
AcDbEntity
8
1
62
256
6
ByLayer
370
18
48
1
60
0
100
AcDbEllipse
10
98.6975
20
-6.831025
30
0
11
0.0816597072833948
21
2.74012717769856
31
0
210
0
220
0
230
1
40
0.180023
41
3.13111404128848
42
-2.19884077262523
0
ELLIPSE
5
31A
100
AcDbEntity
8
1
62
256
6
ByLayer
370
18
48
1
60
0
100
AcDbEllipse
10
98.6975
20
-9.324646
30
0
11
0.500000000000005
21
0
31
0
210
0
220
0
230
1
40
0.5
41
-1.74532925199433
42
0
0
ELLIPSE
5
31B
100
AcDbEntity
8
1
62
256
6
ByLayer
370
18
48
1
60
0
100
AcDbEllipse
10
98.665843
20
0.532378
30
0
11
-0.480285314417606
21
4.49990555351007
31
0
210
0
220
0
230
1
40
0.060703
41
3.13511373674498
42
-2.90021928556149
0
ELLIPSE
5
31C
100
AcDbEntity
8
1
62
256
6
ByLayer
370
18
48
1
60
0
100
AcDbEllipse
10
99.362545
20
-9.720931
30
0
11
0.149999999999972
21
0
31
0
210
0
220
0
230
1
40
0.5
41
-1.74532925199462
42
0
0
ELLIPSE
5
31D
100
AcDbEntity
8
1
62
256
6
ByLayer
370
18
48
1
60
0
100
AcDbEllipse
10
99.362545
20
-14.345506
30
0
11
0.149999999999972
21
0
31
0
210
0
220
0
230
1
40
0.5
41
-1.74532925199462
42
-0.0772771398374843
0
ELLIPSE
5
31E
100
AcDbEntity
8
1
62
256
6
ByLayer
370
18
48
1
60
0
100
AcDbEllipse
10
99.362545
20
-14.345506
30
0
11
-0.150000015066532
21
3.8126860672988E-10
31
0
210
0
220
0
230
1
40
0.5
41
3.06431551890591
42
-3.1415926523201
0
ELLIPSE
5
31F
100
AcDbEntity
8
1
62
256
6
ByLayer
370
18
48
1
60
0
100
AcDbEllipse
10
99.362545
20
-5.53225
30
0
11
-0.149999982624165
21
3.97282112866852E-10
31
0
210
0
220
0
230
1
40
0.5
41
-3.14159265226625
42
-3.06636173761206
0
ELLIPSE
5
320
100
AcDbEntity
8
1
62
256
6
ByLayer
370
18
48
1
60
0
100
AcDbEllipse
10
99.362545
20
-5.53225
30
0
11
0.150000000000053
21
0
31
0
210
0
220
0
230
1
40
0.5
41
0.0752309102941496
42
1.39626340159517
0
ELLIPSE
5
321
100
AcDbEntity
8
1
62
256
6
ByLayer
370
18
48
1
60
0
100
AcDbEllipse
10
99.603
20
-13.302333
30
0
11
0.396999999999977
21
0
31
0
210
0
220
0
230
1
40
0.5
41
-1.74532925199437
42
0
0
ELLIPSE
5
322
100
AcDbEntity
8
1
62
256
6
ByLayer
370
18
48
1
60
0
100
AcDbEllipse
10
99.603
20
-6.617822
30
0
11
0.396999999999963
21
0
31
0
210
0
220
0
230
1
40
0.5
41
0
42
1.39626340159556
0
ELLIPSE
5
323
100
AcDbEntity
8
1
62
256
6
ByLayer
370
18
48
1
60
0
100
AcDbEllipse
10
99.603
20
-8.869488
30
0
11
-0.396999983807846
21
3.8475138592405E-10
31
0
210
0
220
0
230
1
40
0.5
41
-3.14159265310556
42
-3.07064344344368
0
ELLIPSE
5
324
100
AcDbEntity
8
1
62
256
6
ByLayer
370
18
48
1
60
0
100
AcDbEllipse
10
97.5
20
-14.463611
30
0
11
3.00000000000004
21
0
31
0
210
0
220
0
230
1
40
0.5
41
3.14159265358979
42
-1.81514242207411
0
ELLIPSE
5
325
100
AcDbEntity
8
1
62
256
6
ByLayer
370
18
48
1
60
0
100
AcDbEllipse
10
82.2
20
-10.544351
30
0
11
-1.59135249780038
21
0.192533364001753
31
0
210
0
220
0
230
1
40
0.862833
41
0.104015040712964
42
-3.03757761287683
0
ELLIPSE
5
326
100
AcDbEntity
8
1
62
256
6
ByLayer
370
18
48
1
60
0
100
AcDbEllipse
10
82.2
20
-10.544351
30
0
11
-1.59135249780038
21
0.192533364001751
31
0
210
0
220
0
230
1
40
0.862833
41
-3.03757761287683
42
0.104015040712959
0
ELLIPSE
5
327
100
AcDbEntity
8
1
62
256
6
ByLayer
370
18
48
1
60
0
100
AcDbEllipse
10
94.974222
20
-0.649733
30
0
11
1.75
21
0
31
0
210
0
220
0
230
1
40
0.5
41
3.14159265358979
42
-5.07530525542929E-16
0
ELLIPSE
5
328
100
AcDbEntity
8
1
62
256
6
ByLayer
370
18
48
1
60
0
100
AcDbEllipse
10
94.974222
20
-0.649733
30
0
11
1.75
21
0
31
0
210
0
220
0
230
1
40
0.5
41
0
42
3.14159265358979
0
ELLIPSE
5
329
100
AcDbEntity
8
1
62
256
6
ByLayer
370
18
48
1
60
0
100
AcDbEllipse
10
98.573754
20
1.181897
30
0
11
-0.480285314417908
21
4.49990555351261
31
0
210
0
220
0
230
1
40
0.060703
41
0.51711985875349
42
2.08791618554836
0
ELLIPSE
5
32A
100
AcDbEntity
8
1
62
256
6
ByLayer
370
18
48
1
60
0
100
AcDbEllipse
10
98.665843
20
0.532378
30
0
11
-0.48028531441794
21
4.49990555351318
31
0
210
0
220
0
230
1
40
0.060703
41
2.08791618554847
42
3.13511373674497
0
ELLIPSE
5
32B
100
AcDbEntity
8
1
62
256
6
ByLayer
370
18
48
1
60
0
100
AcDbEllipse
10
97.5
20
7.316928
30
0
11
3.00000000000004
21
0
31
0
210
0
220
0
230
1
40
0.5
41
3.14159265358979
42
-1.81514242207411
0
ELLIPSE
5
32C
100
AcDbEntity
8
1
62
256
6
ByLayer
370
18
48
1
60
0
100
AcDbEllipse
10
94.974222
20
1.607577
30
0
11
1.15080707865903E-09
21
3.47362488086636
31
0
210
0
220
0
230
1
40
0.575767
41
1.52755131492482
42
1.57079632737036
0
ELLIPSE
5
32D
100
AcDbEntity
8
1
62
256
6
ByLayer
370
18
48
1
60
0
100
AcDbEllipse
10
94.974222
20
-20.628939
30
0
11
2
21
0
31
0
210
0
220
0
230
1
40
0.5
41
0.0432450121028392
42
3.09834764148695
0
ELLIPSE
5
32E
100
AcDbEntity
8
1
62
256
6
ByLayer
370
18
48
1
60
0
100
AcDbEllipse
10
89.655786
20
-14.540422
30
0
11
-2.98982553641083
21
0.972964617698778
31
0
210
0
220
0
230
1
40
0.841872
41
-1.30339144712247
42
-1.09375940477692
0
ELLIPSE
5
32F
100
AcDbEntity
8
1
62
256
6
ByLayer
370
18
48
1
60
0
100
AcDbEllipse
10
82.2
20
-9.286765
30
0
11
1.30950000000519
21
0
31
0
210
0
220
0
230
1
40
0.866025
41
-1.17899991460522
42
-0.759082580226694
0
ELLIPSE
5
330
100
AcDbEntity
8
1
62
256
6
ByLayer
370
18
48
1
60
0
100
AcDbEllipse
10
82.2
20
-9.286765
30
0
11
1.30949999999998
21
0
31
0
210
0
220
0
230
1
40
0.866025
41
-2.82799282239821
42
-1.17899991460538
0
ELLIPSE
5
331
100
AcDbEntity
8
1
62
256
6
ByLayer
370
18
48
1
60
0
100
AcDbEllipse
10
98.6975
20
-17.475827
30
0
11
0.498796811443686
21
3.53545217655809
31
0
210
0
220
0
230
1
40
0.009805
41
-0.861486694628714
42
-0.0693879358923293
0
ELLIPSE
5
332
100
AcDbEntity
8
1
62
256
6
ByLayer
370
18
48
1
60
0
100
AcDbEllipse
10
98.665843
20
-11.591978
30
0
11
0.480285312235066
21
4.49990552020552
31
0
210
0
220
0
230
1
40
0.060703
41
-2.08791618333906
42
-1.98417546628615
0
ELLIPSE
5
333
100
AcDbEntity
8
1
62
256
6
ByLayer
370
18
48
1
60
0
100
AcDbEllipse
10
82.2
20
-9.191515
30
0
11
1.49999999999704
21
0
31
0
210
0
220
0
230
1
40
0.866025
41
-1.17899991460518
42
-0.884943362175267
0
ELLIPSE
5
334
100
AcDbEntity
8
1
62
256
6
ByLayer
370
18
48
1
60
0
100
AcDbEllipse
10
82.2
20
-9.191515
30
0
11
1.5
21
0
31
0
210
0
220
0
230
1
40
0.866025
41
-2.68978605119019
42
-1.17899991460539
0
ELLIPSE
5
335
100
AcDbEntity
8
1
62
256
6
ByLayer
370
18
48
1
60
0
100
AcDbEllipse
10
94.974222
20
-0.649733
30
0
11
2
21
0
31
0
210
0
220
0
230
1
40
0.5
41
0
42
3.14159265358979
0
ELLIPSE
5
336
100
AcDbEntity
8
1
62
256
6
ByLayer
370
18
48
1
60
0
100
AcDbEllipse
10
98.6975
20
-5.79804
30
0
11
-0.498796811454323
21
3.53545217663202
31
0
210
0
220
0
230
1
40
0.009805
41
2.4188818307543
42
-3.07220471769808
0
ELLIPSE
5
337
100
AcDbEntity
8
1
62
256
6
ByLayer
370
18
48
1
60
0
100
AcDbEllipse
10
98.573754
20
-12.241497
30
0
11
0.480285314422279
21
4.4999055535481
31
0
210
0
220
0
230
1
40
0.060703
41
2.6244727948384
42
-3.13511373674504
0
POINT
5
6C
100
AcDbEntity
8
80
62
256
6
ByLayer
370
13
48
1
60
0
100
AcDbPoint
10
0
20
0
30
0
39
0
210
0
220
0
230
1
50
360
0
POINT
5
6E
100
AcDbEntity
8
81
62
256
6
ByLayer
370
13
48
1
60
0
100
AcDbPoint
10
100
20
24.75
30
0
39
0
210
0
220
0
230
1
50
360
0
SPLINE
5
338
100
AcDbEntity
8
1
62
256
6
ByLayer
370
18
48
1
60
0
100
AcDbSpline
70
4
71
3
72
18
73
14
40
0
40
0
40
0
40
0
40
0.0968070948449029
40
0.193614320228244
40
0.290865896679593
40
0.38811758329459
40
0.482615552145296
40
0.577188665667955
40
0.671787376439362
40
0.766361324333582
40
0.860859993536788
40
0.95797703636584
40
1
40
1
40
1
40
1
41
1
10
84.6422282249691
20
-7.25784679080491
30
0
41
1
10
84.6443043499316
20
-7.25557896327296
30
0
41
1
10
84.6482665983902
20
-7.2508838306083
30
0
41
1
10
84.6536544044787
20
-7.24334213753721
30
0
41
1
10
84.6584648795734
20
-7.23532611803072
30
0
41
1
10
84.6626478536592
20
-7.226930707182
30
0
41
1
10
84.6662031687173
20
-7.21819879711077
30
0
41
1
10
84.6691454169804
20
-7.20915942008511
30
0
41
1
10
84.6715052634104
20
-7.19974459824699
30
0
41
1
10
84.673276319305
20
-7.18997397964793
30
0
41
1
10
84.6744655030459
20
-7.17976951176759
30
0
41
1
10
84.6749317936085
20
-7.17116246128071
30
0
41
1
10
84.6749991405224
20
-7.16592216769306
30
0
41
1
10
84.675
20
-7.16432886637731
30
0
0
SPLINE
5
339
100
AcDbEntity
8
1
62
256
6
ByLayer
370
18
48
1
60
0
100
AcDbSpline
70
4
71
3
72
19
73
15
40
0
40
0
40
0
40
0
40
0.0551782280219898
40
0.152402585353964
40
0.249599638736839
40
0.346715553005072
40
0.427835772140879
40
0.508987819532046
40
0.590139650354944
40
0.671259574054375
40
0.753428041358024
40
0.835630201356061
40
0.917832010851212
40
1
40
1
40
1
40
1
41
1
10
84.675
20
-7.16432886637731
30
0
41
1
10
84.6749981616573
20
-7.16223693447502
30
0
41
1
10
84.6749007086909
20
-7.15641122894649
30
0
41
1
10
84.6743259546547
20
-7.1466498584349
30
0
41
1
10
84.6730256571434
20
-7.13493595212351
30
0
41
1
10
84.6712058024962
20
-7.12358288797063
30
0
41
1
10
84.6689807181168
20
-7.11265254945346
30
0
41
1
10
84.6664623490882
20
-7.10219523746947
30
0
41
1
10
84.6635175796404
20
-7.09154285143628
30
0
41
1
10
84.6601362551559
20
-7.0806543516964
30
0
41
1
10
84.6563145707114
20
-7.06952937141991
30
0
41
1
10
84.6520538459158
20
-7.05816710413313
30
0
41
1
10
84.6473777194971
20
-7.04661949706362
30
0
41
1
10
84.6439899200835
20
-7.03880083842212
30
0
41
1
10
84.6422282249691
20
-7.03486189880739
30
0
0
SPLINE
5
33A
100
AcDbEntity
8
1
62
256
6
ByLayer
370
18
48
1
60
0
100
AcDbSpline
70
4
71
3
72
22
73
18
40
0
40
0
40
0
40
0
40
0.0661770990068506
40
0.132364724894913
40
0.198555777833515
40
0.264743241953296
40
0.330920205261966
40
0.397098223688162
40
0.463286943543372
40
0.52947918945845
40
0.595667824988873
40
0.661845772679621
40
0.729468966132197
40
0.797103630669456
40
0.864742126922187
40
0.932376799664557
40
1
40
1
40
1
40
1
41
1
10
88.4476777205061
20
-11.9778104505637
30
0
41
1
10
88.4597509972869
20
-11.9737550535482
30
0
41
1
10
88.4839564068055
20
-11.9658253957789
30
0
41
1
10
88.5204408128969
20
-11.9544742135839
30
0
41
1
10
88.5570902268909
20
-11.9436711088489
30
0
41
1
10
88.593893332039
20
-11.9334205980637
30
0
41
1
10
88.6308411108817
20
-11.9237267296096
30
0
41
1
10
88.6679279394826
20
-11.9145929588566
30
0
41
1
10
88.7051475862227
20
-11.9060207279019
30
0
41
1
10
88.7424904113298
20
-11.8980125580084
30
0
41
1
10
88.7799436225252
20
-11.8905717625981
30
0
41
1
10
88.817771136595
20
-11.8836510117415
30
0
41
1
10
88.8559694688282
20
-11.8772673676834
30
0
41
1
10
88.8945341691776
20
-11.8714358789662
30
0
41
1
10
88.9331805747315
20
-11.8662034562518
30
0
41
1
10
88.9718957287519
20
-11.8615716225226
30
0
41
1
10
88.997743021569
20
-11.8588853306901
30
0
41
1
10
89.0106759111665
20
-11.8576425346128
30
0
0
SPLINE
5
33B
100
AcDbEntity
8
1
62
256
6
ByLayer
370
18
48
1
60
0
100
AcDbSpline
70
4
71
3
72
22
73
18
40
0
40
0
40
0
40
0
40
0.0660273746167979
40
0.13206945192352
40
0.198116857130729
40
0.264159732638169
40
0.330187776863355
40
0.396208835595397
40
0.46224324604444
40
0.528282647368774
40
0.594318072089131
40
0.660339981673425
40
0.728262855226163
40
0.796198545588717
40
0.864139164947984
40
0.932076090383033
40
1
40
1
40
1
40
1
41
1
10
88.4476777205061
20
-1.43441710088585
30
0
41
1
10
88.460436947757
20
-1.43622940188987
30
0
41
1
10
88.4859220245913
20
-1.44007547972049
30
0
41
1
10
88.5240483360875
20
-1.44651190571417
30
0
41
1
10
88.5620590786536
20
-1.45360510623059
30
0
41
1
10
88.599939372298
20
-1.46134760580716
30
0
41
1
10
88.6376764255255
20
-1.46973173004687
30
0
41
1
10
88.6752637774859
20
-1.47875148422319
30
0
41
1
10
88.7126964162014
20
-1.4883972374812
30
0
41
1
10
88.7499663728491
20
-1.49865946546568
30
0
41
1
10
88.7870603696737
20
-1.50952726032545
30
0
41
1
10
88.8243237079807
20
-1.52110119603934
30
0
41
1
10
88.8617454121829
20
-1.53339320629422
30
0
41
1
10
88.8993153518642
20
-1.54641198967653
30
0
41
1
10
88.9366735125421
20
-1.56002937027996
30
0
41
1
10
88.9738093578017
20
-1.57423307714753
30
0
41
1
10
88.9984129289557
20
-1.58408274854702
30
0
41
1
10
89.0106759111665
20
-1.58910320708925
30
0
0
SPLINE
5
33C
100
AcDbEntity
8
1
62
256
6
ByLayer
370
18
48
1
60
0
100
AcDbSpline
70
4
71
3
72
17
73
13
40
0
40
0
40
0
40
0
40
0.0998325924964168
40
0.199674790521621
40
0.299520192032052
40
0.399362390057258
40
0.499194982553674
40
0.599349519864199
40
0.69951375594215
40
0.799681226611525
40
0.899845462689478
40
1
40
1
40
1
40
1
41
1
10
88.4476777205061
20
-8.69116055017675
30
0
41
1
10
88.4665193945948
20
-8.69173678072935
30
0
41
1
10
88.5041887139993
20
-8.6929958980249
30
0
41
1
10
88.5606500259358
20
-8.69520464726275
30
0
41
1
10
88.6170589133045
20
-8.69773293100328
30
0
41
1
10
88.6734052856337
20
-8.70058031224052
30
0
41
1
10
88.7297415913053
20
-8.7037498639201
30
0
41
1
10
88.7860627395299
20
-8.70724273649206
30
0
41
1
10
88.8423636589962
20
-8.71105961341483
30
0
41
1
10
88.8985758887454
20
-8.7151961244842
30
0
41
1
10
88.9546893151277
20
-8.71965151006687
30
0
41
1
10
88.9920258411727
20
-8.72283393664262
30
0
41
1
10
89.0106759111665
20
-8.7244781637009
30
0
0
SPLINE
5
33D
100
AcDbEntity
8
1
62
256
6
ByLayer
370
18
48
1
60
0
100
AcDbSpline
70
4
71
3
72
19
73
15
40
0
40
0
40
0
40
0
40
0.0826233974301185
40
0.165262868745714
40
0.247902348141793
40
0.33052575659291
40
0.413148996162835
40
0.495788276834081
40
0.578427581463073
40
0.661050853708995
40
0.74577950267943
40
0.830525383644053
40
0.915271301167075
40
1
40
1
40
1
40
1
41
1
10
89.6108235917437
20
15.3490064721463
30
0
41
1
10
89.6107763950482
20
15.3381767716147
30
0
41
1
10
89.6108954582207
20
15.3165191945048
30
0
41
1
10
89.6117149457231
20
15.2840377141377
30
0
41
1
10
89.6131741626632
20
15.2515797361397
30
0
41
1
10
89.6152727587251
20
15.2191586685361
30
0
41
1
10
89.618010952146
20
15.1867854550881
30
0
41
1
10
89.62138659689
20
15.1544703916437
30
0
41
1
10
89.6253976520421
20
15.1222280292354
30
0
41
1
10
89.630081755994
20
15.0897998701632
30
0
41
1
10
89.6354571906897
20
15.0571990490853
30
0
41
1
10
89.6415396550748
20
15.0244400357533
30
0
41
1
10
89.6482808848643
20
14.9918090521304
30
0
41
1
10
89.653211530501
20
14.9701534472325
30
0
41
1
10
89.6557859476999
20
14.9593501273286
30
0
0
SPLINE
5
33E
100
AcDbEntity
8
1
62
256
6
ByLayer
370
18
48
1
60
0
100
AcDbSpline
70
4
71
3
72
43
73
39
40
0
40
0
40
0
40
0
40
0.030660282861103
40
0.0613318214147222
40
0.092007133507714
40
0.12267869801898
40
0.153339002659011
40
0.183999196979916
40
0.214670633572921
40
0.245345824470352
40
0.276017259711815
40
0.306677452898757
40
0.333540452064465
40
0.360413536925168
40
0.387291673801171
40
0.41416980800897
40
0.441042886711128
40
0.4679058817696
40
0.498566126396647
40
0.529237622481574
40
0.559912877707707
40
0.5905843762969
40
0.621244623025075
40
0.651904833999849
40
0.682576289064738
40
0.713251502614512
40
0.7439229633429
40
0.774583179069452
40
0.801446383931697
40
0.828319672666751
40
0.855198010963583
40
0.882076344024861
40
0.908949620675596
40
0.935812817478608
40
0.951855307451533
40
0.967897797261481
40
0.983948898737001
40
1
40
1
40
1
40
1
41
1
10
89.6557859476999
20
14.7001875814725
30
0
41
1
10
89.6518871883968
20
14.6898438339151
30
0
41
1
10
89.6443189975085
20
14.6690722449429
30
0
41
1
10
89.6336561448205
20
14.6376634012924
30
0
41
1
10
89.6236884768975
20
14.6060242972187
30
0
41
1
10
89.6144228971331
20
14.574176420882
30
0
41
1
10
89.6058650741995
20
14.5421368990976
30
0
41
1
10
89.5980196014104
20
14.5099156012346
30
0
41
1
10
89.5908872050174
20
14.4775235426122
30
0
41
1
10
89.5844709669757
20
14.4449779194976
30
0
41
1
10
89.5787755936432
20
14.4123025554952
30
0
41
1
10
89.574009901718
20
14.3808679039464
30
0
41
1
10
89.5700761550799
20
14.350699365286
30
0
41
1
10
89.5668778301834
20
14.3218152789158
30
0
41
1
10
89.5642385371728
20
14.2928692575298
30
0
41
1
10
89.5621596126478
20
14.2638775696031
30
0
41
1
10
89.5606423737786
20
14.2348564852438
30
0
41
1
10
89.5596430442106
20
14.2044487937798
30
0
41
1
10
89.5592598531645
20
14.1726569718812
30
0
41
1
10
89.559593363347
20
14.1394902935221
30
0
41
1
10
89.5606592442635
20
14.1063350053211
30
0
41
1
10
89.5624567040216
20
14.0732154159695
30
0
41
1
10
89.5649854791741
20
14.0401490879188
30
0
41
1
10
89.5682466253462
20
14.0071470082982
30
0
41
1
10
89.5722371833344
20
13.9742197981009
30
0
41
1
10
89.5769543610942
20
13.9413847528913
30
0
41
1
10
89.5823947097959
20
13.9086659205822
30
0
41
1
10
89.5883017013224
20
13.8774255690303
30
0
41
1
10
89.5945747010709
20
13.8476553124598
30
0
41
1
10
89.6011165639679
20
13.8193404850704
30
0
41
1
10
89.6082064472039
20
13.7911522590544
30
0
41
1
10
89.6158402512915
20
13.7631063970617
30
0
41
1
10
89.6240137653566
20
13.7352187269666
30
0
41
1
10
89.631555295556
20
13.7112210765497
30
0
41
1
10
89.6382393810991
20
13.6910503298441
30
0
41
1
10
89.643887507634
20
13.6746434011567
30
0
41
1
10
89.6497262161579
20
13.6582998252722
30
0
41
1
10
89.6537450500718
20
13.6474483775109
30
0
41
1
10
89.6557859476999
20
13.6420340410407
30
0
0
SPLINE
5
33F
100
AcDbEntity
8
1
62
256
6
ByLayer
370
18
48
1
60
0
100
AcDbSpline
70
4
71
3
72
19
73
15
40
0
40
0
40
0
40
0
40
0.0826917272364514
40
0.165397947960604
40
0.248104140181691
40
0.330795828543489
40
0.413487825790757
40
0.496194373276781
40
0.578900899422864
40
0.661592867565096
40
0.746186848125837
40
0.830796444737544
40
0.915406032080633
40
1
40
1
40
1
40
1
41
1
10
89.6557859476999
20
15.96406210487
30
0
41
1
10
89.6534231577122
20
15.954022195439
30
0
41
1
10
89.6488858660207
20
15.9339004901552
30
0
41
1
10
89.6426449021996
20
15.9035917340612
30
0
41
1
10
89.6369721652889
20
15.873172429671
30
0
41
1
10
89.631870334032
20
15.8426537383841
30
0
41
1
10
89.627342139167
20
15.8120446981551
30
0
41
1
10
89.6233883015925
20
15.7813543045497
30
0
41
1
10
89.6200104570873
20
15.7505951855095
30
0
41
1
10
89.6171889649343
20
15.7195436877472
30
0
41
1
10
89.6149413693475
20
15.6882072354388
30
0
41
1
10
89.6132834308669
20
15.6565948295226
30
0
41
1
10
89.6122325496592
20
15.6249554473451
30
0
41
1
10
89.6119374827361
20
15.6038560151482
30
0
41
1
10
89.6118912485939
20
15.5933045813443
30
0
0
SPLINE
5
340
100
AcDbEntity
8
1
62
256
6
ByLayer
370
18
48
1
60
0
100
AcDbSpline
70
4
71
3
72
15
73
11
40
0
40
0
40
0
40
0
40
0.124991515804994
40
0.249983570323384
40
0.374975652648815
40
0.499967206372665
40
0.624975149883934
40
0.749983576861636
40
0.874992026114032
40
1
40
1
40
1
40
1
41
1
10
89.7003133537085
20
14.8058835195533
30
0
41
1
10
89.7041158006811
20
14.8140224348544
30
0
41
1
10
89.7118395449004
20
14.8301814047945
30
0
41
1
10
89.7237857658989
20
14.8540626218788
30
0
41
1
10
89.7360803060947
20
14.8775882897827
30
0
41
1
10
89.7487157916219
20
14.9007604928287
30
0
41
1
10
89.7616833294389
20
14.9235804592701
30
0
41
1
10
89.7749751561894
20
14.9460492691871
30
0
41
1
10
89.7885837627112
20
14.9681668715388
30
0
41
1
10
89.7978602067642
20
14.9826788013733
30
0
41
1
10
89.8025500260367
20
14.9898763861421
30
0
0
SPLINE
5
341
100
AcDbEntity
8
1
62
256
6
ByLayer
370
18
48
1
60
0
100
AcDbSpline
70
4
71
3
72
39
73
35
40
0
40
0
40
0
40
0
40
0.0376768517219601
40
0.0673444569692709
40
0.0970120622165475
40
0.126885743993872
40
0.156759425771191
40
0.186427031004109
40
0.216094636237037
40
0.245968318000272
40
0.275841999763524
40
0.305509604995149
40
0.335177210226761
40
0.365050891988705
40
0.394924573750646
40
0.424592178982056
40
0.454259784213449
40
0.484133465975177
40
0.514007147736893
40
0.543674752968314
40
0.573342358199714
40
0.603216039961432
40
0.633089721723155
40
0.662757326954568
40
0.692424932185971
40
0.722298613947686
40
0.752172295709395
40
0.804000324278515
40
0.856102231924936
40
0.882584358542678
40
0.909066485160423
40
0.935694816719317
40
0.962323148278256
40
1
40
1
40
1
40
1
41
1
10
90.7219999999998
20
-10.7904344973881
30
0
41
1
10
90.7220000724915
20
-10.7917508180732
30
0
41
1
10
90.7221236480568
20
-10.7941001798737
30
0
41
1
10
90.7226200474565
20
-10.7974785495365
30
0
41
1
10
90.7233330700351
20
-10.8005725573572
30
0
41
1
10
90.724305202149
20
-10.8036563134593
30
0
41
1
10
90.7255333333018
20
-10.8067171143336
30
0
41
1
10
90.7270116916652
20
-10.8097427213133
30
0
41
1
10
90.7287390498916
20
-10.812735166055
30
0
41
1
10
90.7307185067591
20
-10.815695920369
30
0
41
1
10
90.7329428458706
20
-10.8186128890367
30
0
41
1
10
90.7354023088237
20
-10.8214744325216
30
0
41
1
10
90.7380963617268
20
-10.8242826686726
30
0
41
1
10
90.7410285467229
20
-10.8270387892
30
0
41
1
10
90.7441877436382
20
-10.8297314637591
30
0
41
1
10
90.7475604758159
20
-10.8323500206084
30
0
41
1
10
90.7511469177674
20
-10.8348965926353
30
0
41
1
10
90.7549509572461
20
-10.837372061982
30
0
41
1
10
90.7589578770197
20
-10.8397661747684
30
0
41
1
10
90.763150853905
20
-10.8420695216452
30
0
41
1
10
90.7675307659007
20
-10.8442841916058
30
0
41
1
10
90.7721017395287
20
-10.8464107330571
30
0
41
1
10
90.7768458649695
20
-10.8484402508479
30
0
41
1
10
90.7817434419083
20
-10.8503648595797
30
0
41
1
10
90.7867960075398
20
-10.8521865391523
30
0
41
1
10
90.7920078885741
20
-10.8539055175282
30
0
41
1
10
90.7986842044101
20
-10.8559131388871
30
0
41
1
10
90.8069576655873
20
-10.8580899239069
30
0
41
1
10
90.8153080703447
20
-10.8599136660224
30
0
41
1
10
90.8221814218222
20
-10.8611952648575
30
0
41
1
10
90.8274567723197
20
-10.8620693750426
30
0
41
1
10
90.8328028950303
20
-10.8628464069777
30
0
41
1
10
90.8389621160044
20
-10.8636188066104
30
0
41
1
10
90.8433602126323
20
-10.8640664732181
30
0
41
1
10
90.8459527733499
20
-10.8642950788631
30
0
0
SPLINE
5
342
100
AcDbEntity
8
1
62
256
6
ByLayer
370
18
48
1
60
0
100
AcDbSpline
70
4
71
3
72
36
73
32
40
0
40
0
40
0
40
0
40
0.0347956634946133
40
0.0696184338143929
40
0.104439972397006
40
0.139233954930667
40
0.174980893752302
40
0.210760551741534
40
0.24653844631178
40
0.282282978248449
40
0.317207219631041
40
0.352165838815505
40
0.387122551041673
40
0.422044189440873
40
0.458199290040248
40
0.494397454045954
40
0.530593251797741
40
0.566745121805218
40
0.598371827140246
40
0.630030600458243
40
0.661688058793255
40
0.693312969137835
40
0.726069039036866
40
0.758863745292667
40
0.791657264856273
40
0.824411714619199
40
0.859479733751484
40
0.89462340577628
40
0.929791631573723
40
0.964933498272479
40
1
40
1
40
1
40
1
41
1
10
93.8496245655597
20
19.6780429102927
30
0
41
1
10
93.8454765468739
20
19.6777048797404
30
0
41
1
10
93.8371829749782
20
19.6768483738519
30
0
41
1
10
93.8247487115971
20
19.6750239135002
30
0
41
1
10
93.8123508272635
20
19.6726559340534
30
0
41
1
10
93.7998992153239
20
19.6697145126164
30
0
41
1
10
93.7874156249105
20
19.6661744925406
30
0
41
1
10
93.7749242866533
20
19.6620181374396
30
0
41
1
10
93.7625666050417
20
19.6572782267682
30
0
41
1
10
93.7504664293875
20
19.6519957182435
30
0
41
1
10
93.7386438408128
20
19.6461813076686
30
0
41
1
10
93.7271157118358
20
19.6398549945589
30
0
41
1
10
93.7158207831043
20
19.6329785295238
30
0
41
1
10
93.7046611041872
20
19.6254710776817
30
0
41
1
10
93.6936752411446
20
19.6173086945324
30
0
41
1
10
93.6829018989365
20
19.6084808642089
30
0
41
1
10
93.6725028145402
20
19.5990986665096
30
0
41
1
10
93.6629319953086
20
19.5895920560273
30
0
41
1
10
93.6541610380054
20
19.5800452825098
30
0
41
1
10
93.6461449644895
20
19.570541303224
30
0
41
1
10
93.6385077528071
20
19.5606643710803
30
0
41
1
10
93.6311872300904
20
19.5503111953927
30
0
41
1
10
93.624222881164
20
19.5394772909898
30
0
41
1
10
93.6176478068587
20
19.528170070712
30
0
41
1
10
93.6115645193023
20
19.5165443112558
30
0
41
1
10
93.6058639523355
20
19.5043487210787
30
0
41
1
10
93.6006143619649
20
19.4915729732445
30
0
41
1
10
93.595871883878
20
19.4782248319284
30
0
41
1
10
93.5917675042743
20
19.464634176961
30
0
41
1
10
93.5883193201568
20
19.4508538871124
30
0
41
1
10
93.5864741169612
20
19.4415745170912
30
0
41
1
10
93.5856638440349
20
19.4369124553752
30
0
0
SPLINE
5
343
100
AcDbEntity
8
1
62
256
6
ByLayer
370
18
48
1
60
0
100
AcDbSpline
70
4
71
3
72
41
73
37
40
0
40
0
40
0
40
0
40
0.0285489142322734
40
0.0570978449592011
40
0.0845575062608965
40
0.112040831621637
40
0.13952445170793
40
0.166984515253657
40
0.195225317528992
40
0.223490897066697
40
0.251757076411999
40
0.2799986973212
40
0.307808022103152
40
0.335639587789796
40
0.363471884500452
40
0.391282206925777
40
0.419809088037904
40
0.448358142701172
40
0.476908086591498
40
0.505436181221594
40
0.535011633624763
40
0.56460958942133
40
0.594208560867239
40
0.623785399291905
40
0.654077655783887
40
0.684391754999603
40
0.714706874309729
40
0.745000522834001
40
0.776511334830231
40
0.808044328302149
40
0.839578340387473
40
0.871090542371559
40
0.903306632960013
40
0.935544222427915
40
0.967782698967372
40
1
40
1
40
1
40
1
41
1
10
93.5856638440349
20
19.4369124553752
30
0
41
1
10
93.5850120182475
20
19.4331533497089
30
0
41
1
10
93.5838566287244
20
19.4256178335915
30
0
41
1
10
93.5825828569294
20
19.4143972679186
30
0
41
1
10
93.5817540643175
20
19.4032874496417
30
0
41
1
10
93.5813492539965
20
19.392306764905
30
0
41
1
10
93.5813556977246
20
19.3813328732884
30
0
41
1
10
93.5817766162804
20
19.370283730118
30
0
41
1
10
93.582626398064
20
19.3591764193048
30
0
41
1
10
93.5839114027139
20
19.3480287317541
30
0
41
1
10
93.5856171035341
20
19.336966003398
30
0
41
1
10
93.5877269411448
20
19.3260660123407
30
0
41
1
10
93.5902299843141
20
19.3153427429899
30
0
41
1
10
93.5931088375277
20
19.3048063412147
30
0
41
1
10
93.5963664889386
20
19.2944196672103
30
0
41
1
10
93.6000248586181
20
19.2841129338656
30
0
41
1
10
93.6040886255629
20
19.2739043768579
30
0
41
1
10
93.6085561885963
20
19.2638100444678
30
0
41
1
10
93.6133799580644
20
19.2539317434584
30
0
41
1
10
93.6186106132425
20
19.2441670172574
30
0
41
1
10
93.6242537606381
20
19.2345371782867
30
0
41
1
10
93.6303091518213
20
19.2250609905447
30
0
41
1
10
93.6366931887314
20
19.2158664043329
30
0
41
1
10
93.6434444467027
20
19.2068946463035
30
0
41
1
10
93.6505603272418
20
19.1981632479581
30
0
41
1
10
93.6580338253449
20
19.1896859238217
30
0
41
1
10
93.6657908982187
20
19.1815415068851
30
0
41
1
10
93.6739221235674
20
19.1736351971852
30
0
41
1
10
93.6824274707361
20
19.1659899265357
30
0
41
1
10
93.6913027020877
20
19.1586251609868
30
0
41
1
10
93.7004179090195
20
19.1516472785106
30
0
41
1
10
93.7098242868993
20
19.1450142057691
30
0
41
1
10
93.7195141873573
20
19.1387408868462
30
0
41
1
10
93.7294769731629
20
19.132838226228
30
0
41
1
10
93.739624339685
20
19.1273556985248
30
0
41
1
10
93.7464968876697
20
19.1239841978725
30
0
41
1
10
93.7499603103405
20
19.1223694819628
30
0
0
SPLINE
5
344
100
AcDbEntity
8
1
62
256
6
ByLayer
370
18
48
1
60
0
100
AcDbSpline
70
4
71
3
72
41
73
37
40
0
40
0
40
0
40
0
40
0.0315855627467097
40
0.0631711528143792
40
0.0906191266077659
40
0.118090700568753
40
0.145562583568336
40
0.173010979139448
40
0.201237411658153
40
0.229488515474366
40
0.257740229932288
40
0.285967495868753
40
0.31380708835587
40
0.3416689084381
40
0.36953146897315
40
0.397372071969905
40
0.425928446215695
40
0.454506958063665
40
0.483086364405052
40
0.511643959353224
40
0.541283718857625
40
0.570946009149291
40
0.600609320841928
40
0.630250474215822
40
0.660607773960998
40
0.690986934722845
40
0.721367117244591
40
0.75172581129351
40
0.782425144963855
40
0.813144898465736
40
0.843865562558072
40
0.874566138761881
40
0.905914247589704
40
0.937282132456791
40
0.968650809819532
40
1
40
1
40
1
40
1
41
1
10
94.1598665723605
20
17.866126182641
30
0
41
1
10
94.1631007457959
20
17.8634127647931
30
0
41
1
10
94.169677673891
20
17.8581328203526
30
0
41
1
10
94.1794339825555
20
17.8509716495636
30
0
41
1
10
94.1890070939469
20
17.8445267427158
30
0
41
1
10
94.1983398534095
20
17.8387410808414
30
0
41
1
10
94.207869433039
20
17.8333159515696
30
0
41
1
10
94.2176684110321
20
17.8282135625753
30
0
41
1
10
94.2277290150225
20
17.8234547250281
30
0
41
1
10
94.2380389507696
20
17.8190536367282
30
0
41
1
10
94.2484825873114
20
17.8150594875861
30
0
41
1
10
94.2589898328935
20
17.8114944179879
30
0
41
1
10
94.2695433879124
20
17.8083565255619
30
0
41
1
10
94.2801259961399
20
17.8056364399012
30
0
41
1
10
94.2907657666526
20
17.8033199706881
30
0
41
1
10
94.301534023314
20
17.8013915550087
30
0
41
1
10
94.3124172405178
20
17.7998642050683
30
0
41
1
10
94.3234007047338
20
17.7987444193765
30
0
41
1
10
94.334372628206
20
17.7980412238504
30
0
41
1
10
94.3454514823992
20
17.7977477292139
30
0
41
1
10
94.3566215034111
20
17.7978798994358
30
0
41
1
10
94.367866174366
20
17.7984473716144
30
0
41
1
10
94.3790286347748
20
17.7994408110793
30
0
41
1
10
94.3901790431588
20
17.8008645865714
30
0
41
1
10
94.4013008740659
20
17.8027250981206
30
0
41
1
10
94.4123787405904
20
17.8050230458403
30
0
41
1
10
94.4233074875235
20
17.8077331167766
30
0
41
1
10
94.4341106280305
20
17.8108570921745
30
0
41
1
10
94.4447740396787
20
17.8143926427604
30
0
41
1
10
94.4552860390255
20
17.8183330609533
30
0
41
1
10
94.4655929909696
20
17.8226531327223
30
0
41
1
10
94.4757518891871
20
17.8273743500962
30
0
41
1
10
94.4857474799479
20
17.8324971638056
30
0
41
1
10
94.4955663247713
20
17.8380179177041
30
0
41
1
10
94.5051284382864
20
17.8438889870721
30
0
41
1
10
94.5113221936745
20
17.8480258659082
30
0
41
1
10
94.5143738099088
20
17.8501502792383
30
0
0
SPLINE
5
345
100
AcDbEntity
8
1
62
256
6
ByLayer
370
18
48
1
60
0
100
AcDbSpline
70
4
71
3
72
36
73
32
40
0
40
0
40
0
40
0
40
0.0350163753311967
40
0.0700600385354619
40
0.105102450140309
40
0.140117117403827
40
0.176091460625329
40
0.212098765482668
40
0.248104288978207
40
0.284076200822263
40
0.319196063779025
40
0.354350480940658
40
0.389502988091837
40
0.424620243900356
40
0.460976862274807
40
0.497376730791583
40
0.533774244883549
40
0.570127648821233
40
0.601945371610641
40
0.633795306071537
40
0.665643940648499
40
0.697459889061121
40
0.730411088254248
40
0.763401025671767
40
0.796389805499466
40
0.829339424295101
40
0.863426724966437
40
0.897582249236342
40
0.931759958422544
40
0.965913970311489
40
1
40
1
40
1
40
1
41
1
10
94.0825738430579
20
18.2124734721651
30
0
41
1
10
94.0808286632823
20
18.208704287326
30
0
41
1
10
94.077495857226
20
18.2010792721442
30
0
41
1
10
94.0729672233029
20
18.1893815030252
30
0
41
1
10
94.0689274501833
20
18.1774478730467
30
0
41
1
10
94.0653582360386
20
18.1651852987448
30
0
41
1
10
94.0622921633183
20
18.152600263189
30
0
41
1
10
94.0597565605999
20
18.1397050779413
30
0
41
1
10
94.0577925557306
20
18.1266387806298
30
0
41
1
10
94.0564258827468
20
18.1135323580937
30
0
41
1
10
94.0556566594219
20
18.100408642063
30
0
41
1
10
94.0554752953781
20
18.0872921828591
30
0
41
1
10
94.0558846107343
20
18.0741076183449
30
0
41
1
10
94.0569064687771
20
18.0607302776682
30
0
41
1
10
94.0585804657594
20
18.0471818282813
30
0
41
1
10
94.0609345879978
20
18.0334906305048
30
0
41
1
10
94.0639519857407
20
18.0198514746295
30
0
41
1
10
94.0674837386611
20
18.0068679190809
30
0
41
1
10
94.0714432429962
20
17.9945567420623
30
0
41
1
10
94.0757368482617
20
17.9829197506659
30
0
41
1
10
94.0805391853264
20
17.9714278616158
30
0
41
1
10
94.0859089341129
20
17.9599764799755
30
0
41
1
10
94.0918691966053
20
17.9485975387706
30
0
41
1
10
94.0984296679937
20
17.9373232434794
30
0
41
1
10
94.1055067321262
20
17.9263182719326
30
0
41
1
10
94.1131732882382
20
17.915492799769
30
0
41
1
10
94.1214486625707
20
17.9048868725666
30
0
41
1
10
94.1303336726161
20
17.8945347918703
30
0
41
1
10
94.1397079218532
20
17.8845850586451
30
0
41
1
10
94.1495384170227
20
17.8750752230527
30
0
41
1
10
94.1563770480444
20
17.869056049886
30
0
41
1
10
94.1598665723605
20
17.866126182641
30
0
0
SPLINE
5
346
100
AcDbEntity
8
1
62
256
6
ByLayer
370
18
48
1
60
0
100
AcDbSpline
70
4
71
3
72
36
73
32
40
0
40
0
40
0
40
0
40
0.0350164104035037
40
0.0700601087633588
40
0.105102555518599
40
0.140117257847338
40
0.176091639212426
40
0.212098982323864
40
0.248104544065411
40
0.284076494041987
40
0.319196352427225
40
0.35435076501224
40
0.389503267587343
40
0.424620518825046
40
0.460977132431138
40
0.497376996171987
40
0.5337745054892
40
0.570127904660144
40
0.601945623804496
40
0.633795554614913
40
0.665644185542341
40
0.697460130311198
40
0.730411325635482
40
0.763401259175165
40
0.796390035126413
40
0.829339650055088
40
0.863426905749398
40
0.897582384773284
40
0.931760048627415
40
0.96591401528021
40
1
40
1
40
1
40
1
41
1
10
95.0067958113839
20
20.6202077056312
30
0
41
1
10
95.0044136749556
20
20.6236103321815
30
0
41
1
10
94.9994953285727
20
20.6303228921016
30
0
41
1
10
94.9916563682256
20
20.6401156111374
30
0
41
1
10
94.9833678645133
20
20.6496041473612
30
0
41
1
10
94.9745585298477
20
20.6588510917214
30
0
41
1
10
94.9652175997116
20
20.6678250152559
30
0
41
1
10
94.9553419887156
20
20.6764961033256
30
0
41
1
10
94.9450312496245
20
20.6847589408182
30
0
41
1
10
94.9343857123323
20
20.6925254645232
30
0
41
1
10
94.9234250592187
20
20.6997841021683
30
0
41
1
10
94.9121753360465
20
20.706530812064
30
0
41
1
10
94.9005699614018
20
20.7128010218056
30
0
41
1
10
94.8884901570909
20
20.7186384642384
30
0
41
1
10
94.8759347636508
20
20.7239980173435
30
0
41
1
10
94.8629142414505
20
20.728841234773
30
0
41
1
10
94.8496054769608
20
20.7330848198373
30
0
41
1
10
94.8366051426522
20
20.7365542966319
30
0
41
1
10
94.8239712563764
20
20.7393161154725
30
0
41
1
10
94.8117524319361
20
20.7414503411604
30
0
41
1
10
94.7994034727306
20
20.7430718022018
30
0
41
1
10
94.7868044615421
20
20.7441823123665
30
0
41
1
10
94.7739714017536
20
20.7447458534559
30
0
41
1
10
94.7609272680819
20
20.7447378622602
30
0
41
1
10
94.747856455344
20
20.7441478990409
30
0
41
1
10
94.7346446787668
20
20.7429580627047
30
0
41
1
10
94.7213168530324
20
20.7411315247113
30
0
41
1
10
94.7079022252696
20
20.7386503455336
30
0
41
1
10
94.694589676802
20
20.7355440134208
30
0
41
1
10
94.6814282506103
20
20.7318221894464
30
0
41
1
10
94.6727880949308
20
20.7289334508993
30
0
41
1
10
94.6685016705405
20
20.7273883253103
30
0
0
SPLINE
5
347
100
AcDbEntity
8
1
62
256
6
ByLayer
370
18
48
1
60
0
100
AcDbSpline
70
4
71
3
72
41
73
37
40
0
40
0
40
0
40
0
40
0.0312912309161371
40
0.0625824888989971
40
0.0897745970740236
40
0.11699008541786
40
0.144205879919965
40
0.171398405941646
40
0.199361716094759
40
0.227349467560247
40
0.25533782397552
40
0.283301959777906
40
0.310882037469681
40
0.338484135554365
40
0.366086967189813
40
0.393668045971878
40
0.421958223681739
40
0.450270332629695
40
0.478583327732954
40
0.506874714766258
40
0.536238179786278
40
0.565623965566442
40
0.595010763226444
40
0.624375609122818
40
0.65444992562391
40
0.684545899357717
40
0.714642885326807
40
0.744718583134256
40
0.776258721861884
40
0.807821392844913
40
0.839385103451035
40
0.870926660850795
40
0.903183535630769
40
0.935462265717654
40
0.967741896361724
40
1
40
1
40
1
40
1
41
1
10
94.6685016705405
20
20.7273883253103
30
0
41
1
10
94.6645306673381
20
20.7259552287803
30
0
41
1
10
94.6566611147487
20
20.7229213520663
30
0
41
1
10
94.6455676371648
20
20.7180836507509
30
0
41
1
10
94.6351855151061
20
20.7130444896762
30
0
41
1
10
94.6254941628445
20
20.7078819352398
30
0
41
1
10
94.6160156514798
20
20.7023680680182
30
0
41
1
10
94.6066808404196
20
20.6964591223697
30
0
41
1
10
94.5975116285072
20
20.6901513626624
30
0
41
1
10
94.5885264683429
20
20.683448285649
30
0
41
1
10
94.579825985502
20
20.6764251552375
30
0
41
1
10
94.5714645381142
20
20.6691314508596
30
0
41
1
10
94.5634491729246
20
20.661583085978
30
0
41
1
10
94.5557804578245
20
20.6537996886025
30
0
41
1
10
94.5484320012209
20
20.6457640844297
30
0
41
1
10
94.5413545128584
20
20.6374224239672
30
0
41
1
10
94.5345660388982
20
20.6287798642993
30
0
41
1
10
94.528079590415
20
20.6198458621948
30
0
41
1
10
94.5219591352428
20
20.6107125375975
30
0
41
1
10
94.516139194867
20
20.6012809180387
30
0
41
1
10
94.5106414921954
20
20.591556612872
30
0
41
1
10
94.5054826580523
20
20.5815490612177
30
0
41
1
10
94.500733430507
20
20.5713985788399
30
0
41
1
10
94.4963623381491
20
20.5610423100137
30
0
41
1
10
94.4923832175562
20
20.5504913270981
30
0
41
1
10
94.4888044034856
20
20.5397585842592
30
0
41
1
10
94.4856568456061
20
20.5289477117034
30
0
41
1
10
94.482896332639
20
20.5179017785362
30
0
41
1
10
94.4805470934879
20
20.506631784744
30
0
41
1
10
94.4786283044569
20
20.4951511659548
30
0
41
1
10
94.4771730106445
20
20.4836573063287
30
0
41
1
10
94.476170413784
20
20.4720831763441
30
0
41
1
10
94.4756299421785
20
20.4604432540006
30
0
41
1
10
94.4755558891828
20
20.4487525950538
30
0
41
1
10
94.4759464699912
20
20.437114910145
30
0
41
1
10
94.4765117263305
20
20.4294071985309
30
0
41
1
10
94.4768708273192
20
20.4255658961855
30
0
0
SPLINE
5
348
100
AcDbEntity
8
1
62
256
6
ByLayer
370
18
48
1
60
0
100
AcDbSpline
70
4
71
3
72
41
73
37
40
0
40
0
40
0
40
0
40
0.0312912309161365
40
0.0625824888989998
40
0.0897745970740256
40
0.116990085417857
40
0.144205879919961
40
0.171398405941647
40
0.199361716094754
40
0.227349467560243
40
0.255337823975514
40
0.283301959777905
40
0.31088203746968
40
0.338484135554362
40
0.36608696718981
40
0.393668045971868
40
0.421958223681736
40
0.450270332629691
40
0.478583327732947
40
0.50687471476625
40
0.53623817978628
40
0.565623965566435
40
0.595010763226437
40
0.62437560912281
40
0.654449925623902
40
0.684545899357707
40
0.714642885326795
40
0.744718583134244
40
0.776258721861892
40
0.80782139284494
40
0.839385103451097
40
0.870926660850878
40
0.903183535630839
40
0.935462265717714
40
0.967741896361757
40
1
40
1
40
1
40
1
41
1
10
95.8064983294595
20
17.5734110577496
30
0
41
1
10
95.8104693326619
20
17.5748441542797
30
0
41
1
10
95.8183388852513
20
17.5778780309937
30
0
41
1
10
95.8294323628353
20
17.5827157323091
30
0
41
1
10
95.8398144848939
20
17.5877548933837
30
0
41
1
10
95.8495058371555
20
17.5929174478202
30
0
41
1
10
95.8589843485202
20
17.5984313150418
30
0
41
1
10
95.8683191595804
20
17.6043402606903
30
0
41
1
10
95.8774883714928
20
17.6106480203975
30
0
41
1
10
95.8864735316571
20
17.6173510974109
30
0
41
1
10
95.895174014498
20
17.6243742278225
30
0
41
1
10
95.9035354618858
20
17.6316679322003
30
0
41
1
10
95.9115508270754
20
17.639216297082
30
0
41
1
10
95.9192195421755
20
17.6469996944574
30
0
41
1
10
95.9265679987791
20
17.6550352986302
30
0
41
1
10
95.9336454871416
20
17.6633769590927
30
0
41
1
10
95.9404339611018
20
17.6720195187607
30
0
41
1
10
95.946920409585
20
17.6809535208652
30
0
41
1
10
95.9530408647572
20
17.6900868454624
30
0
41
1
10
95.958860805133
20
17.6995184650213
30
0
41
1
10
95.9643585078047
20
17.7092427701879
30
0
41
1
10
95.9695173419477
20
17.7192503218422
30
0
41
1
10
95.974266569493
20
17.7294008042201
30
0
41
1
10
95.9786376618509
20
17.7397570730462
30
0
41
1
10
95.9826167824438
20
17.7503080559618
30
0
41
1
10
95.9861955965144
20
17.7610407988008
30
0
41
1
10
95.9893431543939
20
17.7718516713565
30
0
41
1
10
95.9921036673611
20
17.7828976045237
30
0
41
1
10
95.9944529065122
20
17.794167598316
30
0
41
1
10
95.9963716955431
20
17.8056482171052
30
0
41
1
10
95.9978269893556
20
17.8171420767313
30
0
41
1
10
95.998829586216
20
17.8287162067159
30
0
41
1
10
95.9993700578216
20
17.8403561290594
30
0
41
1
10
95.9994441108173
20
17.8520467880061
30
0
41
1
10
95.9990535300091
20
17.8636844729151
30
0
41
1
10
95.9984882736698
20
17.871392184529
30
0
41
1
10
95.9981291726811
20
17.8752334868745
30
0
0
SPLINE
5
349
100
AcDbEntity
8
1
62
256
6
ByLayer
370
18
48
1
60
0
100
AcDbSpline
70
4
71
3
72
36
73
32
40
0
40
0
40
0
40
0
40
0.0350164104035029
40
0.0700601087633591
40
0.1051025555186
40
0.140117257847338
40
0.176091639212426
40
0.212098982323868
40
0.248104544065411
40
0.284076494041988
40
0.319196352427221
40
0.354350765012244
40
0.389503267587344
40
0.424620518825044
40
0.460977132431135
40
0.497376996171987
40
0.533774505489201
40
0.570127904660145
40
0.601945623804503
40
0.633795554614916
40
0.665644185542349
40
0.6974601303112
40
0.730411325635488
40
0.763401259175167
40
0.796390035126416
40
0.829339650055086
40
0.863426905749399
40
0.897582384773285
40
0.931760048627419
40
0.965914015280207
40
1
40
1
40
1
40
1
41
1
10
95.4682041886161
20
17.6805916774288
30
0
41
1
10
95.4705863250444
20
17.6771890508784
30
0
41
1
10
95.4755046714274
20
17.6704764909584
30
0
41
1
10
95.4833436317744
20
17.6606837719226
30
0
41
1
10
95.4916321354867
20
17.6511952356987
30
0
41
1
10
95.5004414701523
20
17.6419482913385
30
0
41
1
10
95.5097824002884
20
17.6329743678041
30
0
41
1
10
95.5196580112844
20
17.6243032797343
30
0
41
1
10
95.5299687503755
20
17.6160404422417
30
0
41
1
10
95.5406142876677
20
17.6082739185367
30
0
41
1
10
95.5515749407813
20
17.6010152808916
30
0
41
1
10
95.5628246639535
20
17.594268570996
30
0
41
1
10
95.5744300385982
20
17.5879983612543
30
0
41
1
10
95.5865098429091
20
17.5821609188216
30
0
41
1
10
95.5990652363492
20
17.5768013657164
30
0
41
1
10
95.6120857585495
20
17.5719581482869
30
0
41
1
10
95.6253945230393
20
17.5677145632227
30
0
41
1
10
95.6383948573479
20
17.564245086428
30
0
41
1
10
95.6510287436236
20
17.5614832675874
30
0
41
1
10
95.6632475680639
20
17.5593490418995
30
0
41
1
10
95.6755965272694
20
17.5577275808581
30
0
41
1
10
95.6881955384579
20
17.5566170706935
30
0
41
1
10
95.7010285982465
20
17.556053529604
30
0
41
1
10
95.7140727319181
20
17.5560615207998
30
0
41
1
10
95.727143544656
20
17.556651484019
30
0
41
1
10
95.7403553212333
20
17.5578413203553
30
0
41
1
10
95.7536831469676
20
17.5596678583486
30
0
41
1
10
95.7670977747304
20
17.5621490375264
30
0
41
1
10
95.780410323198
20
17.5652553696391
30
0
41
1
10
95.7935717493898
20
17.5689771936135
30
0
41
1
10
95.8022119050693
20
17.5718659321605
30
0
41
1
10
95.8064983294595
20
17.5734110577496
30
0
0
SPLINE
5
34A
100
AcDbEntity
8
1
62
256
6
ByLayer
370
18
48
1
60
0
100
AcDbSpline
70
4
71
3
72
36
73
32
40
0
40
0
40
0
40
0
40
0.0350163753311969
40
0.070060038535461
40
0.105102450140309
40
0.140117117403827
40
0.17609146062532
40
0.212098765482667
40
0.248104288978214
40
0.284076200822254
40
0.319196063779024
40
0.354350480940656
40
0.389502988091844
40
0.424620243900354
40
0.460976862274805
40
0.497376730791579
40
0.533774244883548
40
0.570127648821231
40
0.601945371610631
40
0.633795306071535
40
0.665643940648499
40
0.697459889061121
40
0.730411088254253
40
0.763401025671765
40
0.796389805499463
40
0.829339424295101
40
0.863426724966435
40
0.89758224923634
40
0.931759958422535
40
0.965913970311489
40
1
40
1
40
1
40
1
41
1
10
96.3924261569422
20
20.0883259108948
30
0
41
1
10
96.3941713367178
20
20.0920950957339
30
0
41
1
10
96.397504142774
20
20.0997201109158
30
0
41
1
10
96.4020327766972
20
20.1114178800348
30
0
41
1
10
96.4060725498167
20
20.1233515100133
30
0
41
1
10
96.4096417639614
20
20.1356140843152
30
0
41
1
10
96.4127078366817
20
20.148199119871
30
0
41
1
10
96.4152434394001
20
20.1610943051186
30
0
41
1
10
96.4172074442694
20
20.1741606024301
30
0
41
1
10
96.4185741172532
20
20.1872670249662
30
0
41
1
10
96.4193433405781
20
20.2003907409969
30
0
41
1
10
96.4195247046219
20
20.2135072002009
30
0
41
1
10
96.4191153892657
20
20.226691764715
30
0
41
1
10
96.4180935312229
20
20.2400691053917
30
0
41
1
10
96.4164195342406
20
20.2536175547787
30
0
41
1
10
96.4140654120022
20
20.2673087525551
30
0
41
1
10
96.4110480142594
20
20.2809479084304
30
0
41
1
10
96.407516261339
20
20.293931463979
30
0
41
1
10
96.4035567570039
20
20.3062426409976
30
0
41
1
10
96.3992631517383
20
20.317879632394
30
0
41
1
10
96.3944608146736
20
20.3293715214442
30
0
41
1
10
96.3890910658871
20
20.3408229030844
30
0
41
1
10
96.3831308033947
20
20.3522018442894
30
0
41
1
10
96.3765703320063
20
20.3634761395806
30
0
41
1
10
96.3694932678738
20
20.3744811111273
30
0
41
1
10
96.3618267117618
20
20.3853065832909
30
0
41
1
10
96.3535513374293
20
20.3959125104934
30
0
41
1
10
96.3446663273839
20
20.4062645911897
30
0
41
1
10
96.3352920781468
20
20.4162143244148
30
0
41
1
10
96.3254615829773
20
20.4257241600072
30
0
41
1
10
96.3186229519556
20
20.4317433331739
30
0
41
1
10
96.3151334276395
20
20.4346732004189
30
0
0
SPLINE
5
34B
100
AcDbEntity
8
1
62
256
6
ByLayer
370
18
48
1
60
0
100
AcDbSpline
70
4
71
3
72
41
73
37
40
0
40
0
40
0
40
0
40
0.0315855627467132
40
0.0631711528143865
40
0.090619126607756
40
0.118090700568747
40
0.145562583568333
40
0.173010979139446
40
0.201237411658154
40
0.229488515474364
40
0.257740229932286
40
0.285967495868756
40
0.313807088355868
40
0.3416689084381
40
0.369531468973149
40
0.397372071969903
40
0.425928446215693
40
0.454506958063658
40
0.483086364405054
40
0.511643959353222
40
0.541283718857627
40
0.570946009149289
40
0.600609320841925
40
0.630250474215819
40
0.660607773960996
40
0.690986934722844
40
0.72136711724459
40
0.751725811293509
40
0.782425144963854
40
0.813144898465735
40
0.843865562558076
40
0.874566138761884
40
0.905914247589708
40
0.937282132456794
40
0.968650809819536
40
1
40
1
40
1
40
1
41
1
10
96.3151334276395
20
20.4346732004189
30
0
41
1
10
96.3118992542041
20
20.4373866182668
30
0
41
1
10
96.305322326109
20
20.4426665627073
30
0
41
1
10
96.2955660174445
20
20.4498277334964
30
0
41
1
10
96.2859929060531
20
20.4562726403442
30
0
41
1
10
96.2766601465905
20
20.4620583022185
30
0
41
1
10
96.2671305669611
20
20.4674834314903
30
0
41
1
10
96.2573315889679
20
20.4725858204847
30
0
41
1
10
96.2472709849775
20
20.4773446580318
30
0
41
1
10
96.2369610492304
20
20.4817457463317
30
0
41
1
10
96.2265174126887
20
20.4857398954738
30
0
41
1
10
96.2160101671065
20
20.489304965072
30
0
41
1
10
96.2054566120876
20
20.492442857498
30
0
41
1
10
96.1948740038602
20
20.4951629431588
30
0
41
1
10
96.1842342333475
20
20.4974794123719
30
0
41
1
10
96.173465976686
20
20.4994078280513
30
0
41
1
10
96.1625827594822
20
20.5009351779917
30
0
41
1
10
96.1515992952663
20
20.5020549636835
30
0
41
1
10
96.140627371794
20
20.5027581592095
30
0
41
1
10
96.1295485176009
20
20.503051653846
30
0
41
1
10
96.1183784965889
20
20.5029194836241
30
0
41
1
10
96.1071338256341
20
20.5023520114456
30
0
41
1
10
96.0959713652252
20
20.5013585719806
30
0
41
1
10
96.0848209568412
20
20.4999347964885
30
0
41
1
10
96.0736991259341
20
20.4980742849393
30
0
41
1
10
96.0626212594096
20
20.4957763372196
30
0
41
1
10
96.0516925124765
20
20.4930662662834
30
0
41
1
10
96.0408893719695
20
20.4899422908854
30
0
41
1
10
96.0302259603213
20
20.4864067402995
30
0
41
1
10
96.0197139609745
20
20.4824663221067
30
0
41
1
10
96.0094070090304
20
20.4781462503377
30
0
41
1
10
95.9992481108129
20
20.4734250329637
30
0
41
1
10
95.9892525200521
20
20.4683022192543
30
0
41
1
10
95.9794336752287
20
20.4627814653559
30
0
41
1
10
95.9698715617136
20
20.4569103959878
30
0
41
1
10
95.9636778063256
20
20.4527735171517
30
0
41
1
10
95.9606261900912
20
20.4506491038217
30
0
0
SPLINE
5
34C
100
AcDbEntity
8
1
62
256
6
ByLayer
370
18
48
1
60
0
100
AcDbSpline
70
4
71
2
72
6
73
3
40
0
40
0
40
0
40
1
40
1
40
1
41
1
10
99.7530000000001
20
-7.12734505748284
30
0
41
1
10
99.7529998695052
20
-7.12468255820379
30
0
41
1
10
99.7526226293759
20
-7.12202836730965
30
0
0
SPLINE
5
34D
100
AcDbEntity
8
1
62
256
6
ByLayer
370
18
48
1
60
0
100
AcDbSpline
70
4
71
1
72
4
73
2
40
0
40
0
40
1
40
1
41
1
10
99.7526226293759
20
-7.12202836730965
30
0
41
1
10
99.7525757476604
20
-7.12170822080375
30
0
0
SPLINE
5
34E
100
AcDbEntity
8
1
62
256
6
ByLayer
370
18
48
1
60
0
100
AcDbSpline
70
4
71
3
72
49
73
45
40
0
40
0
40
0
40
0
40
0.0255614688817027
40
0.0492951506224813
40
0.073028832363225
40
0.0969273725325418
40
0.120825912701847
40
0.144559594433533
40
0.168293276165222
40
0.192191816325642
40
0.216090356486066
40
0.239824038217088
40
0.263557719948121
40
0.287456260107873
40
0.311354800267637
40
0.335088481998545
40
0.358822163729454
40
0.382720703889096
40
0.406619244048728
40
0.430352925779608
40
0.45408660751048
40
0.477985147670075
40
0.501883687829679
40
0.525617369560543
40
0.549351051291413
40
0.573249591451027
40
0.597148131610626
40
0.620881813341499
40
0.644615495072355
40
0.668514035231968
40
0.692412575391574
40
0.716146257122437
40
0.739879938853304
40
0.763778479012901
40
0.78767701917251
40
0.81063561670209
40
0.833594214231647
40
0.856701923127528
40
0.879809632023396
40
0.903386068187539
40
0.92696250435168
40
0.95070051773506
40
0.974438531118481
40
1
40
1
40
1
40
1
41
1
10
99.5769527733499
20
-11.6340505131465
30
0
41
1
10
99.5791509917499
20
-11.6342442967298
30
0
41
1
10
99.5834021463899
20
-11.6345704069603
30
0
41
1
10
99.5897392601696
20
-11.6349177665493
30
0
41
1
10
99.5959539299185
20
-11.6351287904027
30
0
41
1
10
99.6021954383993
20
-11.6352105481802
30
0
41
1
10
99.6084382752231
20
-11.6351622667314
30
0
41
1
10
99.6146573114554
20
-11.6349845616264
30
0
41
1
10
99.6208563229469
20
-11.6346784053614
30
0
41
1
10
99.6270387661429
20
-11.6342425413783
30
0
41
1
10
99.6331795427696
20
-11.6336783224826
30
0
41
1
10
99.6392539891077
20
-11.6329884340602
30
0
41
1
10
99.6452661735968
20
-11.6321735230462
30
0
41
1
10
99.6512190830147
20
-11.631232064104
30
0
41
1
10
99.6570884146258
20
-11.630167468322
30
0
41
1
10
99.6628507332794
20
-11.6289844250042
30
0
41
1
10
99.6685102655652
20
-11.6276832354967
30
0
41
1
10
99.6740694521448
20
-11.6262621483377
30
0
41
1
10
99.6795054545317
20
-11.6247265386599
30
0
41
1
10
99.6847967129455
20
-11.6230829703901
30
0
41
1
10
99.6899474954359
20
-11.6213313909623
30
0
41
1
10
99.6949596292626
20
-11.6194698711004
30
0
41
1
10
99.6998123700963
20
-11.6175056017273
30
0
41
1
10
99.7044866281769
20
-11.6154468403504
30
0
41
1
10
99.7089865952955
20
-11.6132931819419
30
0
41
1
10
99.7133134349111
20
-11.6110425726233
30
0
41
1
10
99.7174490690087
20
-11.6087038207716
30
0
41
1
10
99.72137740437
20
-11.6062866497232
30
0
41
1
10
99.7251024409124
20
-11.6037903131558
30
0
41
1
10
99.7286246462022
20
-11.6012126892495
30
0
41
1
10
99.7319291071651
20
-11.5985639608442
30
0
41
1
10
99.7350031709578
20
-11.595855049087
30
0
41
1
10
99.7378505354494
20
-11.5930848863309
30
0
41
1
10
99.7404709588612
20
-11.5902513436431
30
0
41
1
10
99.7428272942797
20
-11.5873969568707
30
0
41
1
10
99.7449197665146
20
-11.5845353416059
30
0
41
1
10
99.7467604888737
20
-11.5816670145306
30
0
41
1
10
99.7483723675341
20
-11.5787576949071
30
0
41
1
10
99.7497609118932
20
-11.5757920283086
30
0
41
1
10
99.7509141374885
20
-11.5727803945326
30
0
41
1
10
99.7518270362675
20
-11.5697203786563
30
0
41
1
10
99.7524877240465
20
-11.566637209741
30
0
41
1
10
99.7529040604867
20
-11.5634560956148
30
0
41
1
10
99.7529999625215
20
-11.561305993149
30
0
41
1
10
99.753
20
-11.5601899316699
30
0
0
SPLINE
5
34F
100
AcDbEntity
8
1
62
256
6
ByLayer
370
18
48
1
60
0
100
AcDbSpline
70
4
71
3
72
33
73
29
40
0
40
0
40
0
40
0
40
0.0343891243264883
40
0.0687954543886828
40
0.10320264300299
40
0.137592938662777
40
0.171972232653341
40
0.206366661348642
40
0.240762102839609
40
0.27514277851573
40
0.311644254722446
40
0.348161168002407
40
0.384679287971379
40
0.421182410349097
40
0.462839216931372
40
0.504523277567832
40
0.546218812782545
40
0.587907324195626
40
0.629567866161524
40
0.672106947970695
40
0.714669481051555
40
0.757241507596418
40
0.799807163441482
40
0.842348865802482
40
0.88171793088669
40
0.921087099820998
40
0.960543507103218
40
1
40
1
40
1
40
1
41
1
10
96.1060373766055
20
18.3129720376761
30
0
41
1
10
96.1029962723981
20
18.3082937579777
30
0
41
1
10
96.0970359626866
20
18.298877613612
30
0
41
1
10
96.0884630890917
20
18.2845729418999
30
0
41
1
10
96.0802645603052
20
18.2701110065376
30
0
41
1
10
96.0724468116062
20
18.2555088210893
30
0
41
1
10
96.0650135354206
20
18.2407790297704
30
0
41
1
10
96.0579633764371
20
18.225933708431
30
0
41
1
10
96.0512972615697
20
18.210986999405
30
0
41
1
10
96.0448878038517
20
18.1956448261506
30
0
41
1
10
96.038763251248
20
18.1799113700982
30
0
41
1
10
96.0329488079326
20
18.1637928728569
30
0
41
1
10
96.0275638666085
20
18.1476151880942
30
0
41
1
10
96.022373620777
20
18.1306294842248
30
0
41
1
10
96.017448195458
20
18.1128365933917
30
0
41
1
10
96.0128572216703
20
18.0942425567918
30
0
41
1
10
96.0088065175012
20
18.0756282281237
30
0
41
1
10
96.0052917975326
20
18.0570153504556
30
0
41
1
10
96.0022867566163
20
18.0382873789917
30
0
41
1
10
95.9997983531406
20
18.0194516963706
30
0
41
1
10
95.9978306190272
20
18.0005152811702
30
0
41
1
10
95.9963940448979
20
17.9816207338228
30
0
41
1
10
95.9954823218251
20
17.9627853777426
30
0
41
1
10
95.9950990626533
20
17.9444865195344
30
0
41
1
10
95.995194410621
20
17.9267261080392
30
0
41
1
10
95.9957205179242
20
17.9094890164311
30
0
41
1
10
95.9966769707248
20
17.8923169537129
30
0
41
1
10
95.9975977437358
20
17.8809186309385
30
0
41
1
10
95.9981291726811
20
17.8752334868745
30
0
0
SPLINE
5
350
100
AcDbEntity
8
1
62
256
6
ByLayer
370
18
48
1
60
0
100
AcDbSpline
70
4
71
3
72
33
73
29
40
0
40
0
40
0
40
0
40
0.0406570894635291
40
0.081326001208833
40
0.121994320414536
40
0.162650601632421
40
0.203315073462882
40
0.243992922540621
40
0.284669889354815
40
0.32533315769809
40
0.367735305678985
40
0.410155245160822
40
0.45257368621382
40
0.494973790012117
40
0.534860802864449
40
0.574776030722071
40
0.614698327173826
40
0.654609030263613
40
0.694492245499392
40
0.735435466988463
40
0.776417142024088
40
0.817408709820754
40
0.858384686519777
40
0.899323124323274
40
0.924465380760885
40
0.949607591559813
40
0.974803815632579
40
1
40
1
40
1
40
1
41
1
10
96.6253754344403
20
18.6227564727673
30
0
41
1
10
96.619511179458
20
18.6222784791444
30
0
41
1
10
96.6077779169661
20
18.6211685687386
30
0
41
1
10
96.5901644105217
20
18.6190438434825
30
0
41
1
10
96.5725492791635
20
18.6164543267104
30
0
41
1
10
96.5549406918276
20
18.6133963972284
30
0
41
1
10
96.5373458143554
20
18.6098649239469
30
0
41
1
10
96.5197717389213
20
18.6058558501293
30
0
41
1
10
96.5022309523927
20
18.601365739749
30
0
41
1
10
96.4844860082249
20
18.5963199112732
30
0
41
1
10
96.4665476022647
20
18.5906877645643
30
0
41
1
10
96.4484289819926
20
18.5844396857251
30
0
41
1
10
96.4303944703979
20
18.5776503166261
30
0
41
1
10
96.4128150376511
20
18.5704612459683
30
0
41
1
10
96.3956947239359
20
18.5629024295265
30
0
41
1
10
96.3790353945028
20
18.5550070568452
30
0
41
1
10
96.3625006741296
20
18.5466192478384
30
0
41
1
10
96.3461135322874
20
18.5377412738254
30
0
41
1
10
96.3297476923207
20
18.5282898445776
30
0
41
1
10
96.3134203305935
20
18.5182425806711
30
0
41
1
10
96.297151118288
20
18.5075853283149
30
0
41
1
10
96.281104283074
20
18.4964120999644
30
0
41
1
10
96.2653115153609
20
18.4847350375416
30
0
41
1
10
96.2517921018557
20
18.4741252838135
30
0
41
1
10
96.2404507594423
20
18.464788211873
30
0
41
1
10
96.2311833544557
20
18.4568793073952
30
0
41
1
10
96.2220317483238
20
18.4487834219804
30
0
41
1
10
96.2160131740445
20
18.4432643922835
30
0
41
1
10
96.2130251787853
20
18.4404751352876
30
0
0
SPLINE
5
351
100
AcDbEntity
8
1
62
256
6
ByLayer
370
18
48
1
60
0
100
AcDbSpline
70
4
71
3
72
36
73
32
40
0
40
0
40
0
40
0
40
0.0350665017275209
40
0.0702083684262774
40
0.105376594223721
40
0.140520266248518
40
0.175588285380802
40
0.208342735143727
40
0.241136254707333
40
0.273930960963136
40
0.306687030862158
40
0.33831194120674
40
0.369969399541757
40
0.401628172859755
40
0.433254878194778
40
0.469406748202267
40
0.505602545954045
40
0.541800709959757
40
0.577955810559127
40
0.612877448958324
40
0.647834161184497
40
0.682792780368963
40
0.717717021751556
40
0.753461553688223
40
0.789239448258469
40
0.825019106247699
40
0.860766045069339
40
0.895560027602998
40
0.93038156618561
40
0.965204336505393
40
1
40
1
40
1
40
1
41
1
10
96.8893361559652
20
18.8638869276847
30
0
41
1
10
96.8885258830388
20
18.8592248659687
30
0
41
1
10
96.8866806798432
20
18.8499454959475
30
0
41
1
10
96.8832324957257
20
18.8361652060989
30
0
41
1
10
96.879128116122
20
18.8225745511316
30
0
41
1
10
96.8743856380351
20
18.8092264098155
30
0
41
1
10
96.8691360476645
20
18.7964506619812
30
0
41
1
10
96.8634354806977
20
18.7842550718042
30
0
41
1
10
96.8573521931413
20
18.7726293123479
30
0
41
1
10
96.850777118836
20
18.7613220920701
30
0
41
1
10
96.8438127699096
20
18.7504881876673
30
0
41
1
10
96.836492247193
20
18.7401350119796
30
0
41
1
10
96.8288550355105
20
18.7302580798359
30
0
41
1
10
96.8208389619946
20
18.7207541005501
30
0
41
1
10
96.8120680046914
20
18.7112073270327
30
0
41
1
10
96.8024971854598
20
18.7017007165503
30
0
41
1
10
96.7920981010636
20
18.692318518851
30
0
41
1
10
96.7813247588554
20
18.6834906885276
30
0
41
1
10
96.7703388958128
20
18.6753283053783
30
0
41
1
10
96.7591792168957
20
18.6678208535361
30
0
41
1
10
96.7478842881642
20
18.6609443885011
30
0
41
1
10
96.7363561591872
20
18.6546180753914
30
0
41
1
10
96.7245335706125
20
18.6488036648164
30
0
41
1
10
96.7124333949583
20
18.6435211562917
30
0
41
1
10
96.7000757133467
20
18.6387812456203
30
0
41
1
10
96.6875843750895
20
18.6346248905194
30
0
41
1
10
96.6751007846761
20
18.6310848704435
30
0
41
1
10
96.6626491727365
20
18.6281434490065
30
0
41
1
10
96.6502512884029
20
18.6257754695597
30
0
41
1
10
96.6378170250218
20
18.6239510092081
30
0
41
1
10
96.6295234531262
20
18.6230945033195
30
0
41
1
10
96.6253754344403
20
18.6227564727673
30
0
0
SPLINE
5
352
100
AcDbEntity
8
1
62
256
6
ByLayer
370
18
48
1
60
0
100
AcDbSpline
70
4
71
3
72
41
73
37
40
0
40
0
40
0
40
0
40
0.0322173010326305
40
0.0644557775720896
40
0.0966933670399912
40
0.128909457628443
40
0.160421659612527
40
0.191955671697855
40
0.223488665169767
40
0.254999477166005
40
0.285293125690274
40
0.315608245000401
40
0.345922344216116
40
0.3762146007081
40
0.405791439132756
40
0.435390410578667
40
0.464988366375233
40
0.494563818778416
40
0.523091913408504
40
0.55164185729883
40
0.580190911962099
40
0.608717793074224
40
0.636528115499557
40
0.664360412210205
40
0.692191977896849
40
0.720001302678801
40
0.748242923588002
40
0.776509102933304
40
0.804774682471018
40
0.833015484746335
40
0.860475548292071
40
0.887959168378364
40
0.915442493739095
40
0.942902155040809
40
0.971451085767736
40
1
40
1
40
1
40
1
41
1
10
96.7250396896596
20
19.1784299010971
30
0
41
1
10
96.7285031123303
20
19.1768151851874
30
0
41
1
10
96.7353756603151
20
19.1734436845351
30
0
41
1
10
96.7455230268371
20
19.167961156832
30
0
41
1
10
96.7554858126427
20
19.1620584962137
30
0
41
1
10
96.7651757131007
20
19.1557851772909
30
0
41
1
10
96.7745820909805
20
19.1491521045493
30
0
41
1
10
96.7836972979123
20
19.1421742220731
30
0
41
1
10
96.7925725292639
20
19.1348094565242
30
0
41
1
10
96.8010778764326
20
19.1271641858747
30
0
41
1
10
96.8092091017814
20
19.1192578761748
30
0
41
1
10
96.8169661746552
20
19.1111134592382
30
0
41
1
10
96.8244396727582
20
19.1026361351018
30
0
41
1
10
96.8315555532973
20
19.0939047367565
30
0
41
1
10
96.8383068112686
20
19.0849329787271
30
0
41
1
10
96.8446908481787
20
19.0757383925152
30
0
41
1
10
96.850746239362
20
19.0662622047733
30
0
41
1
10
96.8563893867575
20
19.0566323658025
30
0
41
1
10
96.8616200419357
20
19.0468676396015
30
0
41
1
10
96.8664438114037
20
19.0369893385921
30
0
41
1
10
96.8709113744371
20
19.0268950062021
30
0
41
1
10
96.8749751413819
20
19.0166864491943
30
0
41
1
10
96.8786335110614
20
19.0063797158496
30
0
41
1
10
96.8818911624723
20
18.9959930418453
30
0
41
1
10
96.884770015686
20
18.9854566400701
30
0
41
1
10
96.8872730588552
20
18.9747333707192
30
0
41
1
10
96.8893828964659
20
18.9638333796619
30
0
41
1
10
96.8910885972861
20
18.9527706513059
30
0
41
1
10
96.892373601936
20
18.9416229637551
30
0
41
1
10
96.8932233837196
20
18.9305156529419
30
0
41
1
10
96.8936443022754
20
18.9194665097715
30
0
41
1
10
96.8936507460035
20
18.9084926181549
30
0
41
1
10
96.8932459356825
20
18.8975119334183
30
0
41
1
10
96.8924171430706
20
18.8864021151414
30
0
41
1
10
96.8911433712757
20
18.8751815494684
30
0
41
1
10
96.8899879817525
20
18.867646033351
30
0
41
1
10
96.8893361559652
20
18.8638869276847
30
0
0
SPLINE
5
353
100
AcDbEntity
8
1
62
256
6
ByLayer
370
18
48
1
60
0
100
AcDbSpline
70
4
71
3
72
67
73
63
40
0
40
0
40
0
40
0
40
0.0174334664526154
40
0.0348719851024054
40
0.0523102463552699
40
0.0697433617094164
40
0.0871800252711417
40
0.104622414458965
40
0.12206442287478
40
0.139500567029378
40
0.157680526484078
40
0.175868104254513
40
0.194055040260611
40
0.212234124209761
40
0.22941064723054
40
0.246599405136025
40
0.263791233018736
40
0.280978037929332
40
0.298152921802555
40
0.315787232553393
40
0.333438181037023
40
0.351093433127497
40
0.368741960517407
40
0.386374238779937
40
0.40067238353232
40
0.414977261181099
40
0.42928185983899
40
0.443579623968743
40
0.457879957075395
40
0.472187487755537
40
0.486494914578029
40
0.500795105989144
40
0.51605204516165
40
0.5313177564359
40
0.546583618406898
40
0.561840763192754
40
0.576965354128387
40
0.592101597346904
40
0.607242316448845
40
0.622379649352121
40
0.637505154926278
40
0.653015187570546
40
0.668535786946842
40
0.684060695128344
40
0.699582756579927
40
0.715094016325569
40
0.731694296755552
40
0.748301882134678
40
0.764910066985861
40
0.781511165232076
40
0.798105786069486
40
0.814706513302637
40
0.831307705494383
40
0.847902960596309
40
0.865364917245867
40
0.882832925127022
40
0.900301342280418
40
0.917763857219505
40
0.938318315277495
40
0.958881318294021
40
0.979444837609086
40
1
40
1
40
1
40
1
41
1
10
96.3924261569422
20
20.0883259108948
30
0
41
1
10
96.3899662358137
20
20.0830127935399
30
0
41
1
10
96.3851765818026
20
20.0723070053015
30
0
41
1
10
96.3783813106442
20
20.0560111771822
30
0
41
1
10
96.371985425408
20
20.0394860699476
30
0
41
1
10
96.3659960769461
20
20.0227369131879
30
0
41
1
10
96.3604212431778
20
20.0057673384788
30
0
41
1
10
96.3552679332792
20
19.988581477801
30
0
41
1
10
96.3505452607235
20
19.9711884500088
30
0
41
1
10
96.346201450777
20
19.9533465799773
30
0
41
1
10
96.3422680895745
20
19.9350501300668
30
0
41
1
10
96.3387771282518
20
19.9162961054465
30
0
41
1
10
96.3357935898179
20
19.8973494483421
30
0
41
1
10
96.3333737907032
20
19.8785746053231
30
0
41
1
10
96.331496397653
20
19.8599889258161
30
0
41
1
10
96.3301361302393
20
19.8416097590896
30
0
41
1
10
96.3292652593927
20
19.8230961220897
30
0
41
1
10
96.3288931265152
20
19.8044693543794
30
0
41
1
10
96.3290297763366
20
19.7855777120511
30
0
41
1
10
96.3297032270114
20
19.7664252534923
30
0
41
1
10
96.3309354362523
20
19.747022322216
30
0
41
1
10
96.3327255280323
20
19.7275594077918
30
0
41
1
10
96.3350785106735
20
19.7080702693123
30
0
41
1
10
96.3378169130743
20
19.6898076118803
30
0
41
1
10
96.3408273318092
20
19.6727893392873
30
0
41
1
10
96.3439986401863
20
19.6570200712716
30
0
41
1
10
96.3475472596022
20
19.6412898152157
30
0
41
1
10
96.3514726703311
20
19.6256151526185
30
0
41
1
10
96.3557762506037
20
19.6100092859407
30
0
41
1
10
96.3604540657446
20
19.5944852622764
30
0
41
1
10
96.3655009550696
20
19.5790622387271
30
0
41
1
10
96.3710329721346
20
19.5634175241293
30
0
41
1
10
96.3770772152537
20
19.547574980046
30
0
41
1
10
96.3836540765973
20
19.5315608388163
30
0
41
1
10
96.3906240273593
20
19.5157337573549
30
0
41
1
10
96.397955713716
20
19.5001594372876
30
0
41
1
10
96.405639893263
20
19.4848499757312
30
0
41
1
10
96.4136620726344
20
19.4698122316933
30
0
41
1
10
96.4220318157058
20
19.4550155685352
30
0
41
1
10
96.4307333671287
20
19.4404800642443
30
0
41
1
10
96.4398316484834
20
19.4260986109951
30
0
41
1
10
96.449328671311
20
19.4118871731828
30
0
41
1
10
96.4592221032048
20
19.3978569448572
30
0
41
1
10
96.4694190652654
20
19.3841350162307
30
0
41
1
10
96.479902319111
20
19.3707347383862
30
0
41
1
10
96.4909110245042
20
19.3573585368906
30
0
41
1
10
96.5024586793878
20
19.3440373167791
30
0
41
1
10
96.5145549681828
20
19.3307997961841
30
0
41
1
10
96.526926362913
20
19.3179494747113
30
0
41
1
10
96.5395565263324
20
19.3054931923957
30
0
41
1
10
96.5524348704739
20
19.2934325056532
30
0
41
1
10
96.565550519425
20
19.2817660590766
30
0
41
1
10
96.5788920512335
20
19.2704946036363
30
0
41
1
10
96.5926829770283
20
19.2594309476996
30
0
41
1
10
96.6069276421676
20
19.2485990360092
30
0
41
1
10
96.6216284931856
20
19.2380219422329
30
0
41
1
10
96.6365331290182
20
19.227882575303
30
0
41
1
10
96.6525201055761
20
19.2176091272092
30
0
41
1
10
96.6696224027823
20
19.2072945075178
30
0
41
1
10
96.6878672059961
20
19.1970376134066
30
0
41
1
10
96.7063354504094
20
19.1873827588849
30
0
41
1
10
96.7187824652797
20
19.1813470150026
30
0
41
1
10
96.7250396896596
20
19.1784299010971
30
0
0
SPLINE
5
354
100
AcDbEntity
8
1
62
256
6
ByLayer
370
18
48
1
60
0
100
AcDbSpline
70
4
71
3
72
22
73
18
40
0
40
0
40
0
40
0
40
0.0676232003354434
40
0.135257873077811
40
0.202896369330545
40
0.270531033867803
40
0.338154227320378
40
0.404332175011127
40
0.470520810541548
40
0.536713056456626
40
0.602901776311837
40
0.669079794738034
40
0.735256758046702
40
0.801444222166483
40
0.867635275105086
40
0.933822900993149
40
1
40
1
40
1
40
1
41
1
10
89.0106759111665
20
22.0735319836108
30
0
41
1
10
88.997743021569
20
22.0712519412945
30
0
41
1
10
88.9718957287519
20
22.0667991333158
30
0
41
1
10
88.9331805747315
20
22.0604433877472
30
0
41
1
10
88.8945341691776
20
22.054408874553
30
0
41
1
10
88.8559694688282
20
22.0486950145154
30
0
41
1
10
88.817771136595
20
22.0433389375494
30
0
41
1
10
88.7799436225252
20
22.0383311618507
30
0
41
1
10
88.7424904113298
20
22.0336608603954
30
0
41
1
10
88.7051475862227
20
22.0292894925172
30
0
41
1
10
88.6679279394826
20
22.0252151292396
30
0
41
1
10
88.6308411108817
20
22.0214355390299
30
0
41
1
10
88.593893332039
20
22.0179482218181
30
0
41
1
10
88.5570902268909
20
22.014749367762
30
0
41
1
10
88.5204408128969
20
22.0118355277048
30
0
41
1
10
88.4839564068055
20
22.0092039840569
30
0
41
1
10
88.4597509972869
20
22.0076347825806
30
0
41
1
10
88.4476777205061
20
22.0068967565625
30
0
0
SPLINE
5
355
100
AcDbEntity
8
1
62
256
6
ByLayer
370
18
48
1
60
0
100
AcDbSpline
70
4
71
3
72
33
73
29
40
0
40
0
40
0
40
0
40
0.0251961843674238
40
0.0503924084401894
40
0.0755346192391216
40
0.100676875676733
40
0.141615313480234
40
0.182591290179253
40
0.223582857975922
40
0.264564533011543
40
0.305507754500612
40
0.34539096973639
40
0.385301672826177
40
0.425223969277935
40
0.465139197135557
40
0.505026209987889
40
0.547426313786183
40
0.589844754839176
40
0.63226469432102
40
0.674666842301908
40
0.715330110645184
40
0.756007077459379
40
0.796684926537114
40
0.83734939836758
40
0.878005679585466
40
0.91867399879117
40
0.959342910536472
40
1
40
1
40
1
40
1
41
1
10
94.2619748212147
20
19.8603242477723
30
0
41
1
10
94.2589868259555
20
19.8575349907764
30
0
41
1
10
94.2529682516762
20
19.8520159610796
30
0
41
1
10
94.2438166455443
20
19.8439200756647
30
0
41
1
10
94.2345492405577
20
19.8360111711869
30
0
41
1
10
94.2232078981444
20
19.8266740992464
30
0
41
1
10
94.2096884846391
20
19.8160643455183
30
0
41
1
10
94.193895716926
20
19.8043872830955
30
0
41
1
10
94.177848881712
20
19.7932140547451
30
0
41
1
10
94.1615796694065
20
19.7825568023888
30
0
41
1
10
94.1452523076794
20
19.7725095384824
30
0
41
1
10
94.1288864677126
20
19.7630581092345
30
0
41
1
10
94.1124993258704
20
19.7541801352215
30
0
41
1
10
94.0959646054972
20
19.7457923262148
30
0
41
1
10
94.0793052760641
20
19.7378969535334
30
0
41
1
10
94.062184962349
20
19.7303381370916
30
0
41
1
10
94.0446055296021
20
19.7231490664338
30
0
41
1
10
94.0265710180074
20
19.7163596973348
30
0
41
1
10
94.0084523977354
20
19.7101116184956
30
0
41
1
10
93.9905139917751
20
19.7044794717868
30
0
41
1
10
93.9727690476073
20
19.6994336433109
30
0
41
1
10
93.9552282610788
20
19.6949435329306
30
0
41
1
10
93.9376541856446
20
19.690934459113
30
0
41
1
10
93.9200593081724
20
19.6874029858316
30
0
41
1
10
93.9024507208365
20
19.6843450563495
30
0
41
1
10
93.8848355894784
20
19.6817555395775
30
0
41
1
10
93.8672220830339
20
19.6796308143213
30
0
41
1
10
93.855488820542
20
19.6785209039155
30
0
41
1
10
93.8496245655598
20
19.6780429102927
30
0
0
SPLINE
5
356
100
AcDbEntity
8
1
62
256
6
ByLayer
370
18
48
1
60
0
100
AcDbSpline
70
4
71
3
72
33
73
29
40
0
40
0
40
0
40
0
40
0.039456492896747
40
0.0789129001789305
40
0.118282069113231
40
0.157651134197417
40
0.200192836558432
40
0.242758492403497
40
0.285330518948355
40
0.327893052029221
40
0.37043213383838
40
0.4120926758043
40
0.453781187217375
40
0.49547672243208
40
0.537160783068543
40
0.578817589650831
40
0.615320712028544
40
0.651838831997524
40
0.688355745277494
40
0.724857221484217
40
0.759237897160348
40
0.793633338651315
40
0.828027767346631
40
0.86240706133719
40
0.896797356996998
40
0.9312045456113
40
0.965610875673497
40
1
40
1
40
1
40
1
41
1
10
94.4768708273192
20
20.4255658961855
30
0
41
1
10
94.4774022562644
20
20.4198807521214
30
0
41
1
10
94.4783230292754
20
20.4084824293471
30
0
41
1
10
94.4792794820758
20
20.3913103666288
30
0
41
1
10
94.479805589379
20
20.3740732750208
30
0
41
1
10
94.4799009373467
20
20.3563128635256
30
0
41
1
10
94.4795176781749
20
20.3380140053174
30
0
41
1
10
94.4786059551021
20
20.3191786492371
30
0
41
1
10
94.4771693809728
20
20.3002841018898
30
0
41
1
10
94.4752016468594
20
20.2813476866893
30
0
41
1
10
94.4727132433837
20
20.2625120040683
30
0
41
1
10
94.4697082024674
20
20.2437840326043
30
0
41
1
10
94.4661934824988
20
20.2251711549363
30
0
41
1
10
94.4621427783297
20
20.2065568262681
30
0
41
1
10
94.457551804542
20
20.1879627896682
30
0
41
1
10
94.452626379223
20
20.1701698988352
30
0
41
1
10
94.4474361333915
20
20.1531841949658
30
0
41
1
10
94.4420511920674
20
20.1370065102031
30
0
41
1
10
94.436236748752
20
20.1208880129618
30
0
41
1
10
94.4301121961483
20
20.1051545569094
30
0
41
1
10
94.4237027384303
20
20.089812383655
30
0
41
1
10
94.4170366235629
20
20.074865674629
30
0
41
1
10
94.4099864645794
20
20.0600203532896
30
0
41
1
10
94.4025531883938
20
20.0452905619707
30
0
41
1
10
94.3947354396948
20
20.0306883765224
30
0
41
1
10
94.3865369109083
20
20.01622644116
30
0
41
1
10
94.3779640373134
20
20.0019217694479
30
0
41
1
10
94.372003727602
20
19.9925056250822
30
0
41
1
10
94.3689626233945
20
19.9878273453839
30
0
0
SPLINE
5
357
100
AcDbEntity
8
1
62
256
6
ByLayer
370
18
48
1
60
0
100
AcDbSpline
70
4
71
3
72
67
73
63
40
0
40
0
40
0
40
0
40
0.0205551420457138
40
0.0411186409902556
40
0.0616816236384282
40
0.0822360613541778
40
0.0996985778395076
40
0.117166996539737
40
0.134635005967748
40
0.15209696416358
40
0.16869222073801
40
0.185293414402755
40
0.201894143108888
40
0.218488765418778
40
0.23508986513818
40
0.251698051463139
40
0.268305638315951
40
0.284905920218997
40
0.300417179552279
40
0.315939240588876
40
0.331464148354603
40
0.346984747316089
40
0.362494779548144
40
0.377620284791019
40
0.392757617360895
40
0.40789833612853
40
0.423034579013294
40
0.438159169617343
40
0.453416312636891
40
0.468682172838123
40
0.483947882342346
40
0.499204819748195
40
0.513505009637907
40
0.527812434936943
40
0.542119964093304
40
0.556420295678113
40
0.570718058289866
40
0.585022655428421
40
0.599327531557555
40
0.613625674791504
40
0.6312579512104
40
0.648906476755223
40
0.666561726999482
40
0.684212673636819
40
0.70184698254301
40
0.719021864598867
40
0.736208667691585
40
0.75340049375611
40
0.770589249843466
40
0.787765771046665
40
0.805944864496331
40
0.824131810017052
40
0.842319397303703
40
0.860499366261092
40
0.877935518752968
40
0.895377535515132
40
0.912819933050138
40
0.930256604950271
40
0.947689728635413
40
0.965127998226827
40
0.982566525215683
40
1
40
1
40
1
40
1
41
1
10
95.9606261900912
20
20.4506491038217
30
0
41
1
10
95.9549602592267
20
20.4467045450984
30
0
41
1
10
95.9434880413675
20
20.4389749771213
30
0
41
1
10
95.9258614957301
20
20.4278575902625
30
0
41
1
10
95.9078266714991
20
20.4172358691961
30
0
41
1
10
95.8903159421981
20
20.4076309870273
30
0
41
1
10
95.8734011581097
20
20.3989697518136
30
0
41
1
10
95.857146081292
20
20.3911769697154
30
0
41
1
10
95.8406149185515
20
20.3837803058656
30
0
41
1
10
95.8240926278635
20
20.3769060968767
30
0
41
1
10
95.8075979301672
20
20.3705406348584
30
0
41
1
10
95.7911493455587
20
20.3646681325059
30
0
41
1
10
95.774472727852
20
20.3591893839131
30
0
41
1
10
95.7575744649118
20
20.3541138875085
30
0
41
1
10
95.7404588490343
20
20.3494517278752
30
0
41
1
10
95.7231325454871
20
20.3452112776885
30
0
41
1
10
95.705609676419
20
20.3414032260372
30
0
41
1
10
95.6882900808499
20
20.3381115900233
30
0
41
1
10
95.6711937236765
20
20.3353135677686
30
0
41
1
10
95.6543405446743
20
20.3329819613905
30
0
41
1
10
95.6373530949684
20
20.3310594925912
30
0
41
1
10
95.6202515790716
20
20.3295543583572
30
0
41
1
10
95.6031925462708
20
20.3284830122892
30
0
41
1
10
95.5861868470727
20
20.3278418469971
30
0
41
1
10
95.5692472740903
20
20.3276211025076
30
0
41
1
10
95.5522486015004
20
20.3278184584248
30
0
41
1
10
95.5352161049811
20
20.3284374497725
30
0
41
1
10
95.5181184907764
20
20.3294851996316
30
0
41
1
10
95.5009689710453
20
20.3309707932426
30
0
41
1
10
95.4837826487908
20
20.3328961440236
30
0
41
1
10
95.4666320834713
20
20.3352553519235
30
0
41
1
10
95.4498974806877
20
20.3379888628277
30
0
41
1
10
95.433591276297
20
20.3410658656216
30
0
41
1
10
95.4177204870601
20
20.3444509419929
30
0
41
1
10
95.4019477986241
20
20.3482058736723
30
0
41
1
10
95.3862923675312
20
20.352325497922
30
0
41
1
10
95.370767451485
20
20.3568066617206
30
0
41
1
10
95.3553837732443
20
20.3616415403075
30
0
41
1
10
95.3401559307361
20
20.3668222522679
30
0
41
1
10
95.3239289986987
20
20.3727695917986
30
0
41
1
10
95.3067628031398
20
20.3795773209857
30
0
41
1
10
95.2887297996808
20
20.387334496338
30
0
41
1
10
95.2710022747539
20
20.3955651868223
30
0
41
1
10
95.253606901125
20
20.4042481010515
30
0
41
1
10
95.2367088213155
20
20.4132882917263
30
0
41
1
10
95.2203059467347
20
20.4226615768905
30
0
41
1
10
95.2043877096482
20
20.432341692305
30
0
41
1
10
95.1888178615888
20
20.4423961913804
30
0
41
1
10
95.1736101600612
20
20.4528062759829
30
0
41
1
10
95.1584837101892
20
20.4637672386416
30
0
41
1
10
95.1434662141628
20
20.475292221236
30
0
41
1
10
95.1285833912173
20
20.4873909527106
30
0
41
1
10
95.1141220606336
20
20.4998316346181
30
0
41
1
10
95.100278630367
20
20.5124249351648
30
0
41
1
10
95.0870344582482
20
20.5251447331378
30
0
41
1
10
95.0743687139786
20
20.5379666009464
30
0
41
1
10
95.0620984508613
20
20.551056725801
30
0
41
1
10
95.0502269745645
20
20.5644026464824
30
0
41
1
10
95.0387543361963
20
20.5779962266891
30
0
41
1
10
95.0276796674886
20
20.5918287439283
30
0
41
1
10
95.0170038973922
20
20.6058913879461
30
0
41
1
10
95.0101537758096
20
20.615411401254
30
0
41
1
10
95.0067958113839
20
20.6202077056312
30
0
0
SPLINE
5
358
100
AcDbEntity
8
1
62
256
6
ByLayer
370
18
48
1
60
0
100
AcDbSpline
70
4
71
3
72
67
73
63
40
0
40
0
40
0
40
0
40
0.0205551623909158
40
0.0411186817059792
40
0.0616816847225045
40
0.0822361427804964
40
0.0996986577195832
40
0.11716707487298
40
0.134635082754134
40
0.152097039403691
40
0.168692294505617
40
0.185293486697363
40
0.201894213930515
40
0.218488834767924
40
0.235089933014141
40
0.251698117865322
40
0.268305703244449
40
0.284905983674431
40
0.300417243420072
40
0.315939304871657
40
0.331464213053158
40
0.346984812429456
40
0.36249484507372
40
0.377620350647877
40
0.392757683551155
40
0.407898402653093
40
0.423034645871617
40
0.438159236807243
40
0.453416381593102
40
0.468682243564104
40
0.483947954838351
40
0.49920489401086
40
0.513505085421972
40
0.527812512244463
40
0.542120042924606
40
0.556420376031258
40
0.57071814016101
40
0.585022738818901
40
0.59932761646768
40
0.613625761220061
40
0.631258039482594
40
0.648906566872503
40
0.666561818962977
40
0.684212767446608
40
0.701847078197445
40
0.719021962070665
40
0.736208766981264
40
0.753400594863975
40
0.770589352769463
40
0.787765875790239
40
0.80594495973939
40
0.824131895745487
40
0.842319473515922
40
0.860499432970621
40
0.877935577125223
40
0.895377585541038
40
0.912819974728856
40
0.930256638290584
40
0.94768975364473
40
0.965128014897595
40
0.982566533547382
40
1
40
1
40
1
40
1
41
1
10
93.7499603103405
20
19.1223694819628
30
0
41
1
10
93.7562175347203
20
19.1194523680573
30
0
41
1
10
93.7686645495906
20
19.113416624175
30
0
41
1
10
93.7871327940039
20
19.1037617696533
30
0
41
1
10
93.8053775972177
20
19.0935048755421
30
0
41
1
10
93.8224798944239
20
19.0831902558507
30
0
41
1
10
93.8384668709818
20
19.072916807757
30
0
41
1
10
93.8533715068144
20
19.062777440827
30
0
41
1
10
93.8680723578324
20
19.0522003470507
30
0
41
1
10
93.8823170229718
20
19.0413684353603
30
0
41
1
10
93.8961079487665
20
19.0303047794236
30
0
41
1
10
93.909449480575
20
19.0190333239833
30
0
41
1
10
93.9225651295261
20
19.0073668774068
30
0
41
1
10
93.9354434736676
20
18.9953061906642
30
0
41
1
10
93.948073637087
20
18.9828499083486
30
0
41
1
10
93.9604450318172
20
18.9699995868759
30
0
41
1
10
93.9725413206122
20
18.9567620662808
30
0
41
1
10
93.9840889754958
20
18.9434408461693
30
0
41
1
10
93.995097680889
20
18.9300646446737
30
0
41
1
10
94.0055809347347
20
18.9166643668292
30
0
41
1
10
94.0157778967952
20
18.9029424382027
30
0
41
1
10
94.025671328689
20
18.8889122098771
30
0
41
1
10
94.0351683515166
20
18.8747007720649
30
0
41
1
10
94.0442666328713
20
18.8603193188156
30
0
41
1
10
94.0529681842942
20
18.8457838145247
30
0
41
1
10
94.0613379273656
20
18.8309871513666
30
0
41
1
10
94.069360106737
20
18.8159494073288
30
0
41
1
10
94.077044286284
20
18.8006399457724
30
0
41
1
10
94.0843759726407
20
18.785065625705
30
0
41
1
10
94.0913459234027
20
18.7692385442436
30
0
41
1
10
94.0979227847464
20
18.7532244030139
30
0
41
1
10
94.1039670278654
20
18.7373818589307
30
0
41
1
10
94.1094990449304
20
18.7217371443328
30
0
41
1
10
94.1145459342554
20
18.7063141207835
30
0
41
1
10
94.1192237493963
20
18.6907900971192
30
0
41
1
10
94.1235273296689
20
18.6751842304415
30
0
41
1
10
94.1274527403978
20
18.6595095678442
30
0
41
1
10
94.1310013598138
20
18.6437793117884
30
0
41
1
10
94.1341726681908
20
18.6280100437727
30
0
41
1
10
94.1371830869257
20
18.6109917711796
30
0
41
1
10
94.1399214893265
20
18.5927291137477
30
0
41
1
10
94.1422744719677
20
18.5732399752682
30
0
41
1
10
94.1440645637477
20
18.5537770608439
30
0
41
1
10
94.1452967729886
20
18.5343741295676
30
0
41
1
10
94.1459702236634
20
18.5152216710088
30
0
41
1
10
94.1461068734848
20
18.4963300286805
30
0
41
1
10
94.1457347406073
20
18.4777032609703
30
0
41
1
10
94.1448638697607
20
18.4591896239703
30
0
41
1
10
94.143503602347
20
18.4408104572438
30
0
41
1
10
94.1416262092968
20
18.4222247777368
30
0
41
1
10
94.1392064101821
20
18.4034499347178
30
0
41
1
10
94.1362228717483
20
18.3845032776135
30
0
41
1
10
94.1327319104255
20
18.3657492529931
30
0
41
1
10
94.128798549223
20
18.3474528030827
30
0
41
1
10
94.1244547392765
20
18.3296109330511
30
0
41
1
10
94.1197320667208
20
18.3122179052589
30
0
41
1
10
94.1145787568222
20
18.2950320445811
30
0
41
1
10
94.1090039230539
20
18.2780624698721
30
0
41
1
10
94.1030145745921
20
18.2613133131124
30
0
41
1
10
94.0966186893558
20
18.2447882058777
30
0
41
1
10
94.0898234181974
20
18.2284923777585
30
0
41
1
10
94.0850337641863
20
18.21778658952
30
0
41
1
10
94.0825738430579
20
18.2124734721651
30
0
0
SPLINE
5
359
100
AcDbEntity
8
1
62
256
6
ByLayer
370
18
48
1
60
0
100
AcDbSpline
70
4
71
3
72
80
73
76
40
0
40
0
40
0
40
0
40
0.0092278267672393
40
0.0200594106227644
40
0.030891005653471
40
0.0417178556260657
40
0.052535246155565
40
0.0651262949716835
40
0.0777284241001085
40
0.0903343268793934
40
0.102936574282476
40
0.115527722384066
40
0.127752211330956
40
0.139983343551884
40
0.152214551839955
40
0.164439144571019
40
0.175950305145364
40
0.187466844276971
40
0.198983478913319
40
0.210494769782055
40
0.222004636817041
40
0.233519635416045
40
0.245034770021032
40
0.25654482260102
40
0.268603250172572
40
0.280667185407571
40
0.292731333772767
40
0.304790052108215
40
0.316296022436654
40
0.327806348331006
40
0.339316882745187
40
0.350823137525539
40
0.362326807804503
40
0.373834358360521
40
0.385342133198304
40
0.396846109418113
40
0.411352220863371
40
0.425865023821389
40
0.440378387517803
40
0.454885263953654
40
0.468796924247908
40
0.482713460969042
40
0.496630424376383
40
0.510542666716168
40
0.524450400378236
40
0.538362135938815
40
0.552274227154467
40
0.566182445938022
40
0.582292801403045
40
0.598410310342048
40
0.614530922299827
40
0.630649765595777
40
0.646761240703257
40
0.662217785739969
40
0.677679307565205
40
0.693142881890652
40
0.708605134904749
40
0.724062293396427
40
0.739515191877024
40
0.754972245430001
40
0.770430920884887
40
0.785888413589962
40
0.801341680491549
40
0.817495300431616
40
0.833653120102076
40
0.849812493558427
40
0.865970596782987
40
0.882124454604786
40
0.900954972216041
40
0.919789661360565
40
0.938624439918891
40
0.957455079484959
40
0.976285077268879
40
0.99511910216171
40
1
40
1
40
1
40
1
41
1
10
83.1250000000001
20
-11.0173760131986
30
0
41
1
10
83.1250019416539
20
-11.0200346523799
30
0
41
1
10
83.1251239826724
20
-11.0257389578854
30
0
41
1
10
83.1257057196333
20
-11.0342759654709
30
0
41
1
10
83.1267668647151
20
-11.0429618000745
30
0
41
1
10
83.1282744337335
20
-11.0513434074561
30
0
41
1
10
83.1303344992191
20
-11.0598526283437
30
0
41
1
10
83.133037263937
20
-11.0684201144315
30
0
41
1
10
83.1364668030754
20
-11.0769684566987
30
0
41
1
10
83.1404794780958
20
-11.0850620332607
30
0
41
1
10
83.14506317014
20
-11.092682755933
30
0
41
1
10
83.1501589029152
20
-11.0997467019267
30
0
41
1
10
83.1557402823585
20
-11.1062578008167
30
0
41
1
10
83.161773016543
20
-11.112225428671
30
0
41
1
10
83.1682967847475
20
-11.1177021908142
30
0
41
1
10
83.1751601396209
20
-11.1225792190649
30
0
41
1
10
83.1823195558345
20
-11.1268792922945
30
0
41
1
10
83.1897291298445
20
-11.1306308286502
30
0
41
1
10
83.197516774681
20
-11.1339135017775
30
0
41
1
10
83.2056656033735
20
-11.136719495559
30
0
41
1
10
83.2141619286515
20
-11.1390410647564
30
0
41
1
10
83.2229875964479
20
-11.1408755991503
30
0
41
1
10
83.2321232389463
20
-11.1422192257161
30
0
41
1
10
83.2416992246924
20
-11.1430810554006
30
0
41
1
10
83.25171506517
20
-11.1434277644242
30
0
41
1
10
83.262164055572
20
-11.1432314109094
30
0
41
1
10
83.2728676762611
20
-11.1424867827838
30
0
41
1
10
83.2836350700658
20
-11.1412130990567
30
0
41
1
10
83.2944343560802
20
-11.139437897013
30
0
41
1
10
83.3052357170694
20
-11.1371941394647
30
0
41
1
10
83.3161882465329
20
-11.134457856746
30
0
41
1
10
83.3272704244285
20
-11.1312328746281
30
0
41
1
10
83.3384643148264
20
-11.1275215676137
30
0
41
1
10
83.3497521375445
20
-11.1233314366032
30
0
41
1
10
83.3611150769375
20
-11.1186695146203
30
0
41
1
10
83.3735269689652
20
-11.1130969871015
30
0
41
1
10
83.3869851929605
20
-11.1064674497317
30
0
41
1
10
83.4014713638868
20
-11.0986344993556
30
0
41
1
10
83.4159545478047
20
-11.0901095945776
30
0
41
1
10
83.4302038918829
20
-11.0810373598621
30
0
41
1
10
83.4441933714891
20
-11.0714648253119
30
0
41
1
10
83.4579053345389
20
-11.0614420749777
30
0
41
1
10
83.4715126477901
20
-11.0508546148235
30
0
41
1
10
83.4849905929292
20
-11.0397229493223
30
0
41
1
10
83.4983191270038
20
-11.028063609477
30
0
41
1
10
83.5114828374809
20
-11.0158962359527
30
0
41
1
10
83.5244652266815
20
-11.0032398766476
30
0
41
1
10
83.5379235644642
20
-10.9894216393259
30
0
41
1
10
83.5518020862346
20
-10.9743690242745
30
0
41
1
10
83.5660397770409
20
-10.9580167671111
30
0
41
1
10
83.5799563477233
20
-10.9411122369894
30
0
41
1
10
83.593530562251
20
-10.9236878126631
30
0
41
1
10
83.6065657739772
20
-10.9060132931552
30
0
41
1
10
83.6190652160251
20
-10.8881336676692
30
0
41
1
10
83.6310399781953
20
-10.8700898980986
30
0
41
1
10
83.6426544088206
20
-10.8516546665977
30
0
41
1
10
83.6538970713459
20
-10.8328526707332
30
0
41
1
10
83.6647575193854
20
-10.8137064202071
30
0
41
1
10
83.6752284424559
20
-10.7942332069037
30
0
41
1
10
83.6853065167427
20
-10.7744488658432
30
0
41
1
10
83.6949869619314
20
-10.7543696979358
30
0
41
1
10
83.7042627184277
20
-10.7340165644968
30
0
41
1
10
83.7132619830216
20
-10.7130956319335
30
0
41
1
10
83.7219581300424
20
-10.6916079080782
30
0
41
1
10
83.7303263745536
20
-10.6695547438851
30
0
41
1
10
83.7382353860589
20
-10.6472682247236
30
0
41
1
10
83.7456802025958
20
-10.624768408451
30
0
41
1
10
83.7530421027251
20
-10.6008184946956
30
0
41
1
10
83.7602227373244
20
-10.575394050534
30
0
41
1
10
83.7671182376195
20
-10.5484752732082
30
0
41
1
10
83.7733677192813
20
-10.521349701323
30
0
41
1
10
83.7789669970434
20
-10.4940405886194
30
0
41
1
10
83.7839129507351
20
-10.4665664493998
30
0
41
1
10
83.7871435705641
20
-10.4457654645225
30
0
41
1
10
83.7887722942593
20
-10.4341357767158
30
0
41
1
10
83.7891001972853
20
-10.4317406509009
30
0
0
SPLINE
5
35A
100
AcDbEntity
8
1
62
256
6
ByLayer
370
18
48
1
60
0
100
AcDbSpline
70
4
71
3
72
18
73
14
40
0
40
0
40
0
40
0
40
0.0314526682518599
40
0.140976697598011
40
0.250468192404294
40
0.359864701430409
40
0.466179990000135
40
0.572583758257372
40
0.679016933254696
40
0.785420287574678
40
0.891735228682331
40
0.986056247370412
40
1
40
1
40
1
40
1
41
1
10
83.1499405760287
20
-10.9042443432487
30
0
41
1
10
83.1494279246267
20
-10.9055615329201
30
0
41
1
10
83.147163429208
20
-10.9114487426934
30
0
41
1
10
83.1433941062473
20
-10.9217799144279
30
0
41
1
10
83.1390216058344
20
-10.9350439823082
30
0
41
1
10
83.1352580579959
20
-10.9478905984855
30
0
41
1
10
83.1320998160667
20
-10.9603217500886
30
0
41
1
10
83.1295283477784
20
-10.9723425324215
30
0
41
1
10
83.1275175148773
20
-10.9840601062404
30
0
41
1
10
83.1260740320821
20
-10.99545689506
30
0
41
1
10
83.1252315965261
20
-11.0061055582177
30
0
41
1
10
83.1250178793348
20
-11.0133293069447
30
0
41
1
10
83.1250006300666
20
-11.0169151605957
30
0
41
1
10
83.1250000000001
20
-11.0173760131986
30
0
0
SPLINE
5
35B
100
AcDbEntity
8
1
62
256
6
ByLayer
370
18
48
1
60
0
100
AcDbSpline
70
4
71
3
72
67
73
63
40
0
40
0
40
0
40
0
40
0.0205551420457138
40
0.0411186409902556
40
0.0616816236384287
40
0.0822360613541782
40
0.0996985778395093
40
0.117166996539737
40
0.134635005967748
40
0.152096964163579
40
0.168692220738011
40
0.185293414402753
40
0.201894143108888
40
0.218488765418777
40
0.235089865138182
40
0.251698051463138
40
0.268305638315951
40
0.284905920218997
40
0.300417179552279
40
0.315939240588877
40
0.331464148354603
40
0.346984747316088
40
0.362494779548144
40
0.377620284791019
40
0.392757617360893
40
0.40789833612853
40
0.423034579013293
40
0.438159169617343
40
0.453416312636892
40
0.468682172838123
40
0.483947882342347
40
0.499204819748193
40
0.513505009637908
40
0.527812434936941
40
0.542119964093304
40
0.556420295678112
40
0.570718058289866
40
0.585022655428421
40
0.599327531557553
40
0.613625674791505
40
0.6312579512104
40
0.648906476755223
40
0.666561726999482
40
0.68421267363682
40
0.701846982543012
40
0.719021864598868
40
0.736208667691586
40
0.75340049375611
40
0.770589249843466
40
0.787765771046665
40
0.805944864496331
40
0.824131810017052
40
0.842319397303703
40
0.860499366261092
40
0.877935518752967
40
0.895377535515134
40
0.91281993305014
40
0.930256604950271
40
0.947689728635415
40
0.965127998226826
40
0.982566525215681
40
1
40
1
40
1
40
1
41
1
10
94.5143738099088
20
17.8501502792383
30
0
41
1
10
94.5200397407733
20
17.8540948379616
30
0
41
1
10
94.5315119586325
20
17.8618244059386
30
0
41
1
10
94.5491385042699
20
17.8729417927975
30
0
41
1
10
94.5671733285009
20
17.8835635138638
30
0
41
1
10
94.5846840578019
20
17.8931683960327
30
0
41
1
10
94.6015988418904
20
17.9018296312463
30
0
41
1
10
94.6178539187081
20
17.9096224133446
30
0
41
1
10
94.6343850814485
20
17.9170190771944
30
0
41
1
10
94.6509073721365
20
17.9238932861833
30
0
41
1
10
94.6674020698328
20
17.9302587482015
30
0
41
1
10
94.6838506544413
20
17.936131250554
30
0
41
1
10
94.700527272148
20
17.9416099991469
30
0
41
1
10
94.7174255350882
20
17.9466854955514
30
0
41
1
10
94.7345411509658
20
17.9513476551848
30
0
41
1
10
94.751867454513
20
17.9555881053715
30
0
41
1
10
94.7693903235811
20
17.9593961570228
30
0
41
1
10
94.7867099191501
20
17.9626877930366
30
0
41
1
10
94.8038062763235
20
17.9654858152914
30
0
41
1
10
94.8206594553257
20
17.9678174216694
30
0
41
1
10
94.8376469050316
20
17.9697398904688
30
0
41
1
10
94.8547484209284
20
17.9712450247027
30
0
41
1
10
94.8718074537292
20
17.9723163707707
30
0
41
1
10
94.8888131529273
20
17.9729575360629
30
0
41
1
10
94.9057527259098
20
17.9731782805524
30
0
41
1
10
94.9227513984997
20
17.9729809246351
30
0
41
1
10
94.9397838950189
20
17.9723619332875
30
0
41
1
10
94.9568815092236
20
17.9713141834283
30
0
41
1
10
94.9740310289547
20
17.9698285898173
30
0
41
1
10
94.9912173512093
20
17.9679032390363
30
0
41
1
10
95.0083679165287
20
17.9655440311364
30
0
41
1
10
95.0251025193124
20
17.9628105202323
30
0
41
1
10
95.0414087237031
20
17.9597335174383
30
0
41
1
10
95.05727951294
20
17.956348441067
30
0
41
1
10
95.0730522013759
20
17.9525935093876
30
0
41
1
10
95.0887076324688
20
17.948473885138
30
0
41
1
10
95.104232548515
20
17.9439927213394
30
0
41
1
10
95.1196162267557
20
17.9391578427524
30
0
41
1
10
95.1348440692639
20
17.9339771307921
30
0
41
1
10
95.1510710013014
20
17.9280297912613
30
0
41
1
10
95.1682371968602
20
17.9212220620743
30
0
41
1
10
95.1862702003192
20
17.9134648867219
30
0
41
1
10
95.2039977252461
20
17.9052341962377
30
0
41
1
10
95.221393098875
20
17.8965512820084
30
0
41
1
10
95.2382911786845
20
17.8875110913337
30
0
41
1
10
95.2546940532653
20
17.8781378061694
30
0
41
1
10
95.2706122903518
20
17.8684576907549
30
0
41
1
10
95.2861821384112
20
17.8584031916795
30
0
41
1
10
95.3013898399388
20
17.847993107077
30
0
41
1
10
95.3165162898108
20
17.8370321444183
30
0
41
1
10
95.3315337858372
20
17.8255071618239
30
0
41
1
10
95.3464166087827
20
17.8134084303494
30
0
41
1
10
95.3608779393664
20
17.8009677484418
30
0
41
1
10
95.3747213696331
20
17.7883744478952
30
0
41
1
10
95.3879655417518
20
17.7756546499221
30
0
41
1
10
95.4006312860214
20
17.7628327821135
30
0
41
1
10
95.4129015491388
20
17.7497426572589
30
0
41
1
10
95.4247730254356
20
17.7363967365776
30
0
41
1
10
95.4362456638037
20
17.7228031563709
30
0
41
1
10
95.4473203325115
20
17.7089706391317
30
0
41
1
10
95.4579961026078
20
17.6949079951138
30
0
41
1
10
95.4648462241905
20
17.6853879818059
30
0
41
1
10
95.4682041886161
20
17.6805916774288
30
0
0
LINE
5
70
100
AcDbEntity
8
1
62
256
6
ByLayer
370
18
48
1
60
0
100
AcDbLine
10
20
20
-24.99
30
0
11
20
21
24.99
31
0
39
0
210
0
220
0
230
1
0
LINE
5
72
100
AcDbEntity
8
1
62
256
6
ByLayer
370
18
48
1
60
0
100
AcDbLine
10
20
20
-24.99
30
0
11
32
21
-21
31
0
39
0
210
0
220
0
230
1
0
LINE
5
73
100
AcDbEntity
8
1
62
256
6
ByLayer
370
18
48
1
60
0
100
AcDbLine
10
85.91736
20
-6.01548
30
0
11
85.882017
21
-5.794445
31
0
39
0
210
0
220
0
230
1
0
LINE
5
74
100
AcDbEntity
8
1
62
256
6
ByLayer
370
18
48
1
60
0
100
AcDbLine
10
11.894338
20
23.650474
30
0
11
11.894338
21
8.071876
31
0
39
0
210
0
220
0
230
1
0
LINE
5
75
100
AcDbEntity
8
1
62
256
6
ByLayer
370
18
48
1
60
0
100
AcDbLine
10
8.105662
20
-8.071876
30
0
11
8.105662
21
-23.650474
31
0
39
0
210
0
220
0
230
1
0
LINE
5
76
100
AcDbEntity
8
1
62
256
6
ByLayer
370
18
48
1
60
0
100
AcDbLine
10
76.467949
20
18
30
0
11
64
21
18
31
0
39
0
210
0
220
0
230
1
0
LINE
5
77
100
AcDbEntity
8
1
62
256
6
ByLayer
370
18
48
1
60
0
100
AcDbLine
10
71.167545
20
17.863506
30
0
11
79.5
21
15.474213
31
0
39
0
210
0
220
0
230
1
0
LINE
5
78
100
AcDbEntity
8
1
62
256
6
ByLayer
370
18
48
1
60
0
100
AcDbLine
10
79.5
20
-9.391109
30
0
11
80
21
-9.319423
31
0
39
0
210
0
220
0
230
1
0
LINE
5
79
100
AcDbEntity
8
1
62
256
6
ByLayer
370
18
48
1
60
0
100
AcDbLine
10
84.75567
20
13.096607
30
0
11
85.186203
21
9.521587
31
0
39
0
210
0
220
0
230
1
0
LINE
5
7A
100
AcDbEntity
8
1
62
256
6
ByLayer
370
18
48
1
60
0
100
AcDbLine
10
64
20
-18
30
0
11
64
21
18
31
0
39
0
210
0
220
0
230
1
0
LINE
5
7B
100
AcDbEntity
8
1
62
256
6
ByLayer
370
18
48
1
60
0
100
AcDbLine
10
64
20
-18
30
0
11
64
21
18
31
0
39
0
210
0
220
0
230
1
0
LINE
5
7C
100
AcDbEntity
8
1
62
256
6
ByLayer
370
18
48
1
60
0
100
AcDbLine
10
32
20
21
30
0
11
20
21
24.99
31
0
39
0
210
0
220
0
230
1
0
LINE
5
7D
100
AcDbEntity
8
1
62
256
6
ByLayer
370
18
48
1
60
0
100
AcDbLine
10
77.449209
20
-11.342017
30
0
11
79.5
21
-11.395756
31
0
39
0
210
0
220
0
230
1
0
LINE
5
7E
100
AcDbEntity
8
1
62
256
6
ByLayer
370
18
48
1
60
0
100
AcDbLine
10
8.538675
20
7.545007
30
0
11
11.461325
21
7.545007
31
0
39
0
210
0
220
0
230
1
0
LINE
5
7F
100
AcDbEntity
8
1
62
256
6
ByLayer
370
18
48
1
60
0
100
AcDbLine
10
32
20
-21
30
0
11
32
21
21
31
0
39
0
210
0
220
0
230
1
0
LINE
5
80
100
AcDbEntity
8
1
62
256
6
ByLayer
370
18
48
1
60
0
100
AcDbLine
10
84.692039
20
13.377432
30
0
11
84.692059
21
3.798469
31
0
39
0
210
0
220
0
230
1
0
LINE
5
81
100
AcDbEntity
8
1
62
256
6
ByLayer
370
18
48
1
60
0
100
AcDbLine
10
78
20
-5.108618
30
0
11
78
21
6.253327
31
0
39
0
210
0
220
0
230
1
0
LINE
5
82
100
AcDbEntity
8
SK1
62
256
6
ByLayer
370
18
48
1
60
0
100
AcDbLine
10
-30
20
15.991832
30
0
11
-30
21
-15.991828
31
0
39
0
210
0
220
0
230
1
0
LINE
5
84
100
AcDbEntity
8
1
62
256
6
ByLayer
370
18
48
1
60
0
100
AcDbLine
10
71.132963
20
-10.84918
30
0
11
69.991821
21
-11.012789
31
0
39
0
210
0
220
0
230
1
0
LINE
5
85
100
AcDbEntity
8
1
62
256
6
ByLayer
370
18
48
1
60
0
100
AcDbLine
10
0.3
20
-24.99
30
0
11
0.3
21
24.99
31
0
39
0
210
0
220
0
230
1
0
LINE
5
86
100
AcDbEntity
8
1
62
256
6
ByLayer
370
18
48
1
60
0
100
AcDbLine
10
71.167545
20
-10.847834
30
0
11
76.467949
21
-10.847834
31
0
39
0
210
0
220
0
230
1
0
LINE
5
87
100
AcDbEntity
8
1
62
256
6
ByLayer
370
18
48
1
60
0
100
AcDbLine
10
85.91736
20
-6.01548
30
0
11
85.882017
21
-5.794445
31
0
39
0
210
0
220
0
230
1
0
LINE
5
88
100
AcDbEntity
8
1
62
256
6
ByLayer
370
18
48
1
60
0
100
AcDbLine
10
79.5
20
15.474213
30
0
11
79.5
21
15.110372
31
0
39
0
210
0
220
0
230
1
0
LINE
5
89
100
AcDbEntity
8
1
62
256
6
ByLayer
370
18
48
1
60
0
100
AcDbLine
10
71.132963
20
-10.84918
30
0
11
69.991821
21
-11.012789
31
0
39
0
210
0
220
0
230
1
0
LINE
5
8A
100
AcDbEntity
8
1
62
256
6
ByLayer
370
18
48
1
60
0
100
AcDbLine
10
84.75567
20
13.096607
30
0
11
84.692039
21
13.377432
31
0
39
0
210
0
220
0
230
1
0
LINE
5
8B
100
AcDbEntity
8
1
62
256
6
ByLayer
370
18
48
1
60
0
100
AcDbLine
10
8.538675
20
23.82379
30
0
11
8.538675
21
7.545007
31
0
39
0
210
0
220
0
230
1
0
LINE
5
8C
100
AcDbEntity
8
1
62
256
6
ByLayer
370
18
48
1
60
0
100
AcDbLine
10
32
20
-21
30
0
11
64
21
-18
31
0
39
0
210
0
220
0
230
1
0
LINE
5
8D
100
AcDbEntity
8
SK1
62
256
6
ByLayer
370
18
48
1
60
0
100
AcDbLine
10
-28.5
20
-16.854292
30
0
11
-28.5
21
16.854292
31
0
39
0
210
0
220
0
230
1
0
LINE
5
8E
100
AcDbEntity
8
1
62
256
6
ByLayer
370
18
48
1
60
0
100
AcDbLine
10
79.5
20
15.110372
30
0
11
69.991821
21
17.836798
31
0
39
0
210
0
220
0
230
1
0
LINE
5
8F
100
AcDbEntity
8
SK1
62
256
6
ByLayer
370
18
48
1
60
0
100
AcDbLine
10
-1.307107
20
-3.91807
30
0
11
-1.307107
21
3.91807
31
0
39
0
210
0
220
0
230
1
0
LINE
5
90
100
AcDbEntity
8
1
62
256
6
ByLayer
370
18
48
1
60
0
100
AcDbLine
10
11.461325
20
-7.545007
30
0
11
8.538675
21
-7.545007
31
0
39
0
210
0
220
0
230
1
0
LINE
5
91
100
AcDbEntity
8
1
62
256
6
ByLayer
370
18
48
1
60
0
100
AcDbLine
10
84.692039
20
13.377432
30
0
11
79.5
21
14.866226
31
0
39
0
210
0
220
0
230
1
0
LINE
5
92
100
AcDbEntity
8
1
62
256
6
ByLayer
370
18
48
1
60
0
100
AcDbLine
10
71.167545
20
17.863506
30
0
11
76.467949
21
17.863506
31
0
39
0
210
0
220
0
230
1
0
LINE
5
93
100
AcDbEntity
8
SK1
62
256
6
ByLayer
370
18
48
1
60
0
100
AcDbLine
10
-1.794977
20
17.324989
30
0
11
-1.794977
21
-17.324989
31
0
39
0
210
0
220
0
230
1
0
LINE
5
94
100
AcDbEntity
8
1
62
256
6
ByLayer
370
18
48
1
60
0
100
AcDbLine
10
79.5
20
-9.391109
30
0
11
80
21
-9.319423
31
0
39
0
210
0
220
0
230
1
0
LINE
5
95
100
AcDbEntity
8
1
62
256
6
ByLayer
370
18
48
1
60
0
100
AcDbLine
10
71.167545
20
17.863506
30
0
11
76.467949
21
17.863506
31
0
39
0
210
0
220
0
230
1
0
LINE
5
96
100
AcDbEntity
8
1
62
256
6
ByLayer
370
18
48
1
60
0
100
AcDbLine
10
76.467949
20
-10.847834
30
0
11
76.467949
21
8.09338
31
0
39
0
210
0
220
0
230
1
0
LINE
5
97
100
AcDbEntity
8
1
62
256
6
ByLayer
370
18
48
1
60
0
100
AcDbLine
10
8.538675
20
-23.82379
30
0
11
11.461325
21
-23.82379
31
0
39
0
210
0
220
0
230
1
0
LINE
5
98
100
AcDbEntity
8
1
62
256
6
ByLayer
370
18
48
1
60
0
100
AcDbLine
10
79.5
20
15.474213
30
0
11
79.5
21
18.959349
31
0
39
0
210
0
220
0
230
1
0
LINE
5
99
100
AcDbEntity
8
1
62
256
6
ByLayer
370
18
48
1
60
0
100
AcDbLine
10
20
20
24.99
30
0
11
0.3
21
24.99
31
0
39
0
210
0
220
0
230
1
0
LINE
5
9A
100
AcDbEntity
8
1
62
256
6
ByLayer
370
18
48
1
60
0
100
AcDbLine
10
85.91736
20
-6.01548
30
0
11
85.4
21
-6.516586
31
0
39
0
210
0
220
0
230
1
0
LINE
5
9B
100
AcDbEntity
8
1
62
256
6
ByLayer
370
18
48
1
60
0
100
AcDbLine
10
79.5
20
-6.361983
30
0
11
79.5
21
-11.395756
31
0
39
0
210
0
220
0
230
1
0
LINE
5
9C
100
AcDbEntity
8
1
62
256
6
ByLayer
370
18
48
1
60
0
100
AcDbLine
10
85.4
20
-6.516586
30
0
11
79.5
21
-6.361983
31
0
39
0
210
0
220
0
230
1
0
LINE
5
9D
100
AcDbEntity
8
1
62
256
6
ByLayer
370
18
48
1
60
0
100
AcDbLine
10
11.894338
20
-8.071876
30
0
11
11.894338
21
-23.650474
31
0
39
0
210
0
220
0
230
1
0
LINE
5
9E
100
AcDbEntity
8
1
62
256
6
ByLayer
370
18
48
1
60
0
100
AcDbLine
10
0.3
20
-24.99
30
0
11
20
21
-24.99
31
0
39
0
210
0
220
0
230
1
0
LINE
5
9F
100
AcDbEntity
8
1
62
256
6
ByLayer
370
18
48
1
60
0
100
AcDbLine
10
79.5
20
14.866226
30
0
11
79.5
21
15.110372
31
0
39
0
210
0
220
0
230
1
0
LINE
5
A0
100
AcDbEntity
8
SK1
62
256
6
ByLayer
370
18
48
1
60
0
100
AcDbLine
10
-0.194914
20
-5.108839
30
0
11
-0.194914
21
-17.365174
31
0
39
0
210
0
220
0
230
1
0
LINE
5
A1
100
AcDbEntity
8
1
62
256
6
ByLayer
370
18
48
1
60
0
100
AcDbLine
10
76.467949
20
18
30
0
11
64
21
18
31
0
39
0
210
0
220
0
230
1
0
LINE
5
A2
100
AcDbEntity
8
1
62
256
6
ByLayer
370
18
48
1
60
0
100
AcDbLine
10
77.449209
20
18.851872
30
0
11
79.5
21
18.959349
31
0
39
0
210
0
220
0
230
1
0
LINE
5
A3
100
AcDbEntity
8
1
62
256
6
ByLayer
370
18
48
1
60
0
100
AcDbLine
10
77.449209
20
-11.342017
30
0
11
79.5
21
-11.395756
31
0
39
0
210
0
220
0
230
1
0
LINE
5
A4
100
AcDbEntity
8
1
62
256
6
ByLayer
370
18
48
1
60
0
100
AcDbLine
10
79.5
20
14.866226
30
0
11
79.5
21
15.110372
31
0
39
0
210
0
220
0
230
1
0
LINE
5
A5
100
AcDbEntity
8
1
62
256
6
ByLayer
370
18
48
1
60
0
100
AcDbLine
10
77.312665
20
18.844716
30
0
11
77.449209
21
18.851872
31
0
39
0
210
0
220
0
230
1
0
LINE
5
A6
100
AcDbEntity
8
1
62
256
6
ByLayer
370
18
48
1
60
0
100
AcDbLine
10
79
20
-4.448406
30
0
11
79
21
5.702719
31
0
39
0
210
0
220
0
230
1
0
LINE
5
A7
100
AcDbEntity
8
1
62
256
6
ByLayer
370
18
48
1
60
0
100
AcDbLine
10
76.467949
20
-10.847834
30
0
11
76.467949
21
8.09338
31
0
39
0
210
0
220
0
230
1
0
LINE
5
A8
100
AcDbEntity
8
1
62
256
6
ByLayer
370
18
48
1
60
0
100
AcDbLine
10
8.105662
20
23.650474
30
0
11
8.105662
21
8.071876
31
0
39
0
210
0
220
0
230
1
0
LINE
5
A9
100
AcDbEntity
8
1
62
256
6
ByLayer
370
18
48
1
60
0
100
AcDbLine
10
0.3
20
24.99
30
0
11
0
21
24.69
31
0
39
0
210
0
220
0
230
1
0
LINE
5
AA
100
AcDbEntity
8
1
62
256
6
ByLayer
370
18
48
1
60
0
100
AcDbLine
10
77.320649
20
18.8527
30
0
11
76.467949
21
18
31
0
39
0
210
0
220
0
230
1
0
LINE
5
AB
100
AcDbEntity
8
1
62
256
6
ByLayer
370
18
48
1
60
0
100
AcDbLine
10
64
20
-18
30
0
11
74.291575
21
-18
31
0
39
0
210
0
220
0
230
1
0
LINE
5
AC
100
AcDbEntity
8
1
62
256
6
ByLayer
370
18
48
1
60
0
100
AcDbLine
10
71.167545
20
-10.847834
30
0
11
76.467949
21
-10.847834
31
0
39
0
210
0
220
0
230
1
0
LINE
5
AD
100
AcDbEntity
8
1
62
256
6
ByLayer
370
18
48
1
60
0
100
AcDbLine
10
79
20
-4.448406
30
0
11
79
21
5.702719
31
0
39
0
210
0
220
0
230
1
0
LINE
5
AE
100
AcDbEntity
8
1
62
256
6
ByLayer
370
18
48
1
60
0
100
AcDbLine
10
84.692039
20
13.377432
30
0
11
84.692059
21
3.798469
31
0
39
0
210
0
220
0
230
1
0
LINE
5
AF
100
AcDbEntity
8
1
62
256
6
ByLayer
370
18
48
1
60
0
100
AcDbLine
10
85.91736
20
-6.01548
30
0
11
85.4
21
-6.516586
31
0
39
0
210
0
220
0
230
1
0
LINE
5
B0
100
AcDbEntity
8
1
62
256
6
ByLayer
370
18
48
1
60
0
100
AcDbLine
10
11.461325
20
23.82379
30
0
11
11.461325
21
7.545007
31
0
39
0
210
0
220
0
230
1
0
LINE
5
B1
100
AcDbEntity
8
1
62
256
6
ByLayer
370
18
48
1
60
0
100
AcDbLine
10
77.449209
20
18.851872
30
0
11
79.5
21
18.959349
31
0
39
0
210
0
220
0
230
1
0
LINE
5
B2
100
AcDbEntity
8
1
62
256
6
ByLayer
370
18
48
1
60
0
100
AcDbLine
10
76.467949
20
17.863506
30
0
11
76.467949
21
18
31
0
39
0
210
0
220
0
230
1
0
LINE
5
B3
100
AcDbEntity
8
1
62
256
6
ByLayer
370
18
48
1
60
0
100
AcDbLine
10
64
20
-18
30
0
11
74.291575
21
-18
31
0
39
0
210
0
220
0
230
1
0
LINE
5
B4
100
AcDbEntity
8
SK1
62
256
6
ByLayer
370
18
48
1
60
0
100
AcDbLine
10
-0.194914
20
17.365174
30
0
11
-0.194914
21
5.108839
31
0
39
0
210
0
220
0
230
1
0
LINE
5
B5
100
AcDbEntity
8
1
62
256
6
ByLayer
370
18
48
1
60
0
100
AcDbLine
10
77.312665
20
18.844716
30
0
11
77.449209
21
18.851872
31
0
39
0
210
0
220
0
230
1
0
LINE
5
B6
100
AcDbEntity
8
1
62
256
6
ByLayer
370
18
48
1
60
0
100
AcDbLine
10
79.5
20
-6.361983
30
0
11
79.5
21
-11.395756
31
0
39
0
210
0
220
0
230
1
0
LINE
5
B7
100
AcDbEntity
8
1
62
256
6
ByLayer
370
18
48
1
60
0
100
AcDbLine
10
77.320649
20
18.8527
30
0
11
76.467949
21
18
31
0
39
0
210
0
220
0
230
1
0
LINE
5
B8
100
AcDbEntity
8
1
62
256
6
ByLayer
370
18
48
1
60
0
100
AcDbLine
10
0
20
-24.69
30
0
11
0
21
24.69
31
0
39
0
210
0
220
0
230
1
0
LINE
5
B9
100
AcDbEntity
8
1
62
256
6
ByLayer
370
18
48
1
60
0
100
AcDbLine
10
85.4
20
-6.516586
30
0
11
79.5
21
-6.361983
31
0
39
0
210
0
220
0
230
1
0
LINE
5
BA
100
AcDbEntity
8
1
62
256
6
ByLayer
370
18
48
1
60
0
100
AcDbLine
10
79.5
20
15.110372
30
0
11
69.991821
21
17.836798
31
0
39
0
210
0
220
0
230
1
0
LINE
5
BB
100
AcDbEntity
8
1
62
256
6
ByLayer
370
18
48
1
60
0
100
AcDbLine
10
84.75567
20
13.096607
30
0
11
85.186203
21
9.521587
31
0
39
0
210
0
220
0
230
1
0
LINE
5
BC
100
AcDbEntity
8
1
62
256
6
ByLayer
370
18
48
1
60
0
100
AcDbLine
10
84.692039
20
13.377432
30
0
11
79.5
21
14.866226
31
0
39
0
210
0
220
0
230
1
0
LINE
5
BD
100
AcDbEntity
8
1
62
256
6
ByLayer
370
18
48
1
60
0
100
AcDbLine
10
64
20
18
30
0
11
32
21
21
31
0
39
0
210
0
220
0
230
1
0
LINE
5
BE
100
AcDbEntity
8
1
62
256
6
ByLayer
370
18
48
1
60
0
100
AcDbLine
10
8.538675
20
-7.545007
30
0
11
8.538675
21
-23.82379
31
0
39
0
210
0
220
0
230
1
0
LINE
5
BF
100
AcDbEntity
8
1
62
256
6
ByLayer
370
18
48
1
60
0
100
AcDbLine
10
11.461325
20
-7.545007
30
0
11
11.461325
21
-23.82379
31
0
39
0
210
0
220
0
230
1
0
LINE
5
C0
100
AcDbEntity
8
1
62
256
6
ByLayer
370
18
48
1
60
0
100
AcDbLine
10
84.75567
20
13.096607
30
0
11
84.692039
21
13.377432
31
0
39
0
210
0
220
0
230
1
0
LINE
5
C1
100
AcDbEntity
8
SK1
62
256
6
ByLayer
370
18
48
1
60
0
100
AcDbLine
10
-1.999937
20
17.519835
30
0
11
-1.999937
21
-17.519835
31
0
39
0
210
0
220
0
230
1
0
LINE
5
C2
100
AcDbEntity
8
1
62
256
6
ByLayer
370
18
48
1
60
0
100
AcDbLine
10
0
20
-24.69
30
0
11
0.3
21
-24.99
31
0
39
0
210
0
220
0
230
1
0
LINE
5
C3
100
AcDbEntity
8
1
62
256
6
ByLayer
370
18
48
1
60
0
100
AcDbLine
10
76.467949
20
17.863506
30
0
11
76.467949
21
18
31
0
39
0
210
0
220
0
230
1
0
LINE
5
C4
100
AcDbEntity
8
1
62
256
6
ByLayer
370
18
48
1
60
0
100
AcDbLine
10
79.5
20
15.474213
30
0
11
79.5
21
15.110372
31
0
39
0
210
0
220
0
230
1
0
LINE
5
C5
100
AcDbEntity
8
1
62
256
6
ByLayer
370
18
48
1
60
0
100
AcDbLine
10
79.5
20
15.474213
30
0
11
79.5
21
18.959349
31
0
39
0
210
0
220
0
230
1
0
LINE
5
C6
100
AcDbEntity
8
1
62
256
6
ByLayer
370
18
48
1
60
0
100
AcDbLine
10
11.461325
20
23.82379
30
0
11
8.538675
21
23.82379
31
0
39
0
210
0
220
0
230
1
0
LINE
5
C7
100
AcDbEntity
8
1
62
256
6
ByLayer
370
18
48
1
60
0
100
AcDbLine
10
71.167545
20
17.863506
30
0
11
79.5
21
15.474213
31
0
39
0
210
0
220
0
230
1
0
LINE
5
C8
100
AcDbEntity
8
1
62
256
6
ByLayer
370
18
48
1
60
0
100
AcDbLine
10
78
20
-5.108618
30
0
11
78
21
6.253327
31
0
39
0
210
0
220
0
230
1
0
LINE
5
C9
100
AcDbEntity
8
4
62
256
6
ByLayer
370
13
48
0.05
60
0
100
AcDbLine
10
0
20
0
30
0
11
100
21
0
31
0
39
0
210
0
220
0
230
1
0
LINE
5
CB
100
AcDbEntity
8
SK4
62
256
6
ByLayer
370
13
48
0.05
60
0
100
AcDbLine
10
-36.444524
20
2E-06
30
0
11
102.72527
21
2E-06
31
0
39
0
210
0
220
0
230
1
0
LINE
5
CD
100
AcDbEntity
8
1
62
256
6
ByLayer
370
18
48
1
60
0
100
AcDbLine
10
80
20
18.985553
30
0
11
79.5
21
18.959349
31
0
39
0
210
0
220
0
230
1
0
LINE
5
CE
100
AcDbEntity
8
1
62
256
6
ByLayer
370
18
48
1
60
0
100
AcDbLine
10
80
20
18.985553
30
0
11
79.5
21
18.959349
31
0
39
0
210
0
220
0
230
1
0
LINE
5
CF
100
AcDbEntity
8
1
62
256
6
ByLayer
370
18
48
1
60
0
100
AcDbLine
10
80
20
-9.82203
30
0
11
79.5
21
-9.893716
31
0
39
0
210
0
220
0
230
1
0
LINE
5
D0
100
AcDbEntity
8
1
62
256
6
ByLayer
370
18
48
1
60
0
100
AcDbLine
10
80
20
-9.82203
30
0
11
79.5
21
-9.893716
31
0
39
0
210
0
220
0
230
1
0
LINE
5
D1
100
AcDbEntity
8
1
62
256
6
ByLayer
370
18
48
1
60
0
100
AcDbLine
10
84.692045
20
-12.030604
30
0
11
84.692059
21
-18.728041
31
0
39
0
210
0
220
0
230
1
0
LINE
5
D2
100
AcDbEntity
8
1
62
256
6
ByLayer
370
18
48
1
60
0
100
AcDbLine
10
84.692045
20
-12.030604
30
0
11
84.692059
21
-18.728041
31
0
39
0
210
0
220
0
230
1
0
LINE
5
D3
100
AcDbEntity
8
1
62
256
6
ByLayer
370
18
48
1
60
0
100
AcDbLine
10
76.467949
20
-10.847834
30
0
11
77.449209
21
-11.342017
31
0
39
0
210
0
220
0
230
1
0
LINE
5
D4
100
AcDbEntity
8
SK1
62
256
6
ByLayer
370
18
48
1
60
0
100
AcDbLine
10
-28.5
20
16.854266
30
0
11
-25.849994
21
16.920823
31
0
39
0
210
0
220
0
230
1
0
LINE
5
D5
100
AcDbEntity
8
SK1
62
256
6
ByLayer
370
18
48
1
60
0
100
AcDbLine
10
-25.849994
20
16.920823
30
0
11
-23.199987
21
16.98738
31
0
39
0
210
0
220
0
230
1
0
LINE
5
D6
100
AcDbEntity
8
SK1
62
256
6
ByLayer
370
18
48
1
60
0
100
AcDbLine
10
-23.199987
20
16.98738
30
0
11
-20.549981
21
17.053937
31
0
39
0
210
0
220
0
230
1
0
LINE
5
D7
100
AcDbEntity
8
SK1
62
256
6
ByLayer
370
18
48
1
60
0
100
AcDbLine
10
-20.549981
20
17.053937
30
0
11
-17.899975
21
17.120494
31
0
39
0
210
0
220
0
230
1
0
LINE
5
D8
100
AcDbEntity
8
SK1
62
256
6
ByLayer
370
18
48
1
60
0
100
AcDbLine
10
-17.899975
20
17.120494
30
0
11
-15.249969
21
17.187051
31
0
39
0
210
0
220
0
230
1
0
LINE
5
D9
100
AcDbEntity
8
SK1
62
256
6
ByLayer
370
18
48
1
60
0
100
AcDbLine
10
-15.249969
20
17.187051
30
0
11
-12.599962
21
17.253608
31
0
39
0
210
0
220
0
230
1
0
LINE
5
DA
100
AcDbEntity
8
SK1
62
256
6
ByLayer
370
18
48
1
60
0
100
AcDbLine
10
-12.599962
20
17.253608
30
0
11
-9.949956
21
17.320165
31
0
39
0
210
0
220
0
230
1
0
LINE
5
DB
100
AcDbEntity
8
SK1
62
256
6
ByLayer
370
18
48
1
60
0
100
AcDbLine
10
-9.949956
20
17.320165
30
0
11
-7.29995
21
17.386722
31
0
39
0
210
0
220
0
230
1
0
LINE
5
DC
100
AcDbEntity
8
SK1
62
256
6
ByLayer
370
18
48
1
60
0
100
AcDbLine
10
-7.29995
20
17.386722
30
0
11
-4.649943
21
17.453279
31
0
39
0
210
0
220
0
230
1
0
LINE
5
DD
100
AcDbEntity
8
SK1
62
256
6
ByLayer
370
18
48
1
60
0
100
AcDbLine
10
-4.649943
20
17.453279
30
0
11
-1.999937
21
17.519836
31
0
39
0
210
0
220
0
230
1
0
LINE
5
DE
100
AcDbEntity
8
SK1
62
256
6
ByLayer
370
18
48
1
60
0
100
AcDbLine
10
-30
20
-15.991828
30
0
11
-29.850912
21
-16.077895
31
0
39
0
210
0
220
0
230
1
0
LINE
5
DF
100
AcDbEntity
8
SK1
62
256
6
ByLayer
370
18
48
1
60
0
100
AcDbLine
10
-29.850912
20
-16.077895
30
0
11
-29.701824
21
-16.163962
31
0
39
0
210
0
220
0
230
1
0
LINE
5
E0
100
AcDbEntity
8
SK1
62
256
6
ByLayer
370
18
48
1
60
0
100
AcDbLine
10
-29.701824
20
-16.163962
30
0
11
-29.552735
21
-16.250029
31
0
39
0
210
0
220
0
230
1
0
LINE
5
E1
100
AcDbEntity
8
SK1
62
256
6
ByLayer
370
18
48
1
60
0
100
AcDbLine
10
-29.552735
20
-16.250029
30
0
11
-29.403647
21
-16.336095
31
0
39
0
210
0
220
0
230
1
0
LINE
5
E2
100
AcDbEntity
8
SK1
62
256
6
ByLayer
370
18
48
1
60
0
100
AcDbLine
10
-29.403647
20
-16.336095
30
0
11
-29.254559
21
-16.422162
31
0
39
0
210
0
220
0
230
1
0
LINE
5
E3
100
AcDbEntity
8
SK1
62
256
6
ByLayer
370
18
48
1
60
0
100
AcDbLine
10
-29.254559
20
-16.422162
30
0
11
-29.105471
21
-16.508229
31
0
39
0
210
0
220
0
230
1
0
LINE
5
E4
100
AcDbEntity
8
SK1
62
256
6
ByLayer
370
18
48
1
60
0
100
AcDbLine
10
-29.105471
20
-16.508229
30
0
11
-28.956382
21
-16.594296
31
0
39
0
210
0
220
0
230
1
0
LINE
5
E5
100
AcDbEntity
8
SK1
62
256
6
ByLayer
370
18
48
1
60
0
100
AcDbLine
10
-28.956382
20
-16.594296
30
0
11
-28.807294
21
-16.680363
31
0
39
0
210
0
220
0
230
1
0
LINE
5
E6
100
AcDbEntity
8
SK1
62
256
6
ByLayer
370
18
48
1
60
0
100
AcDbLine
10
-28.807294
20
-16.680363
30
0
11
-28.658206
21
-16.76643
31
0
39
0
210
0
220
0
230
1
0
LINE
5
E7
100
AcDbEntity
8
SK1
62
256
6
ByLayer
370
18
48
1
60
0
100
AcDbLine
10
-28.658206
20
-16.76643
30
0
11
-28.509118
21
-16.852497
31
0
39
0
210
0
220
0
230
1
0
LINE
5
E8
100
AcDbEntity
8
1
62
256
6
ByLayer
370
18
48
1
60
0
100
AcDbLine
10
79
20
5.702719
30
0
11
78
21
6.253327
31
0
39
0
210
0
220
0
230
1
0
LINE
5
E9
100
AcDbEntity
8
1
62
256
6
ByLayer
370
18
48
1
60
0
100
AcDbLine
10
79
20
5.702719
30
0
11
78
21
6.253327
31
0
39
0
210
0
220
0
230
1
0
LINE
5
EA
100
AcDbEntity
8
SK1
62
256
6
ByLayer
370
18
48
1
60
0
100
AcDbLine
10
-1.794977
20
-17.324982
30
0
11
-1.218954
21
-17.339449
31
0
39
0
210
0
220
0
230
1
0
LINE
5
EB
100
AcDbEntity
8
SK1
62
256
6
ByLayer
370
18
48
1
60
0
100
AcDbLine
10
-1.218954
20
-17.339449
30
0
11
-0.194914
21
-17.365169
31
0
39
0
210
0
220
0
230
1
0
LINE
5
EC
100
AcDbEntity
8
1
62
256
6
ByLayer
370
18
48
1
60
0
100
AcDbLine
10
76.467949
20
-10.847834
30
0
11
77.449209
21
-11.342017
31
0
39
0
210
0
220
0
230
1
0
LINE
5
ED
100
AcDbEntity
8
SK1
62
256
6
ByLayer
370
18
48
1
60
0
100
AcDbLine
10
-28.509118
20
-16.852497
30
0
11
-28.5
21
-16.85776
31
0
39
0
210
0
220
0
230
1
0
LINE
5
EE
100
AcDbEntity
8
1
62
256
6
ByLayer
370
18
48
1
60
0
100
AcDbLine
10
79
20
-19.272055
30
0
11
78
21
-19.151572
31
0
39
0
210
0
220
0
230
1
0
LINE
5
EF
100
AcDbEntity
8
SK1
62
256
6
ByLayer
370
18
48
1
60
0
100
AcDbLine
10
-1.998481
20
17.505542
30
0
11
-1.999937
21
17.525123
31
0
39
0
210
0
220
0
230
1
0
LINE
5
F0
100
AcDbEntity
8
SK1
62
256
6
ByLayer
370
18
48
1
60
0
100
AcDbLine
10
-28.5
20
-16.854266
30
0
11
-25.849994
21
-16.920823
31
0
39
0
210
0
220
0
230
1
0
LINE
5
F1
100
AcDbEntity
8
SK1
62
256
6
ByLayer
370
18
48
1
60
0
100
AcDbLine
10
-25.849994
20
-16.920823
30
0
11
-23.199987
21
-16.98738
31
0
39
0
210
0
220
0
230
1
0
LINE
5
F2
100
AcDbEntity
8
SK1
62
256
6
ByLayer
370
18
48
1
60
0
100
AcDbLine
10
-23.199987
20
-16.98738
30
0
11
-20.549981
21
-17.053937
31
0
39
0
210
0
220
0
230
1
0
LINE
5
F3
100
AcDbEntity
8
SK1
62
256
6
ByLayer
370
18
48
1
60
0
100
AcDbLine
10
-20.549981
20
-17.053937
30
0
11
-17.899975
21
-17.120494
31
0
39
0
210
0
220
0
230
1
0
LINE
5
F4
100
AcDbEntity
8
SK1
62
256
6
ByLayer
370
18
48
1
60
0
100
AcDbLine
10
-17.899975
20
-17.120494
30
0
11
-15.249969
21
-17.187051
31
0
39
0
210
0
220
0
230
1
0
LINE
5
F5
100
AcDbEntity
8
SK1
62
256
6
ByLayer
370
18
48
1
60
0
100
AcDbLine
10
-15.249969
20
-17.187051
30
0
11
-12.599962
21
-17.253608
31
0
39
0
210
0
220
0
230
1
0
LINE
5
F6
100
AcDbEntity
8
SK1
62
256
6
ByLayer
370
18
48
1
60
0
100
AcDbLine
10
-12.599962
20
-17.253608
30
0
11
-9.949956
21
-17.320165
31
0
39
0
210
0
220
0
230
1
0
LINE
5
F7
100
AcDbEntity
8
SK1
62
256
6
ByLayer
370
18
48
1
60
0
100
AcDbLine
10
-9.949956
20
-17.320165
30
0
11
-7.29995
21
-17.386722
31
0
39
0
210
0
220
0
230
1
0
LINE
5
F8
100
AcDbEntity
8
SK1
62
256
6
ByLayer
370
18
48
1
60
0
100
AcDbLine
10
-7.29995
20
-17.386722
30
0
11
-4.649943
21
-17.453279
31
0
39
0
210
0
220
0
230
1
0
LINE
5
F9
100
AcDbEntity
8
SK1
62
256
6
ByLayer
370
18
48
1
60
0
100
AcDbLine
10
-4.649943
20
-17.453279
30
0
11
-1.999937
21
-17.519836
31
0
39
0
210
0
220
0
230
1
0
LINE
5
FA
100
AcDbEntity
8
SK1
62
256
6
ByLayer
370
18
48
1
60
0
100
AcDbLine
10
-1.999937
20
-17.525123
30
0
11
-1.998481
21
-17.505542
31
0
39
0
210
0
220
0
230
1
0
LINE
5
FB
100
AcDbEntity
8
1
62
256
6
ByLayer
370
18
48
1
60
0
100
AcDbLine
10
77.449209
20
18.851872
30
0
11
77.351066
21
18.753052
31
0
39
0
210
0
220
0
230
1
0
LINE
5
FC
100
AcDbEntity
8
1
62
256
6
ByLayer
370
18
48
1
60
0
100
AcDbLine
10
77.351066
20
18.753052
30
0
11
77.252927
21
18.654229
31
0
39
0
210
0
220
0
230
1
0
LINE
5
FD
100
AcDbEntity
8
1
62
256
6
ByLayer
370
18
48
1
60
0
100
AcDbLine
10
77.252927
20
18.654229
30
0
11
77.154791
21
18.555402
31
0
39
0
210
0
220
0
230
1
0
LINE
5
FE
100
AcDbEntity
8
1
62
256
6
ByLayer
370
18
48
1
60
0
100
AcDbLine
10
77.154791
20
18.555402
30
0
11
77.05666
21
18.456571
31
0
39
0
210
0
220
0
230
1
0
LINE
5
FF
100
AcDbEntity
8
1
62
256
6
ByLayer
370
18
48
1
60
0
100
AcDbLine
10
77.05666
20
18.456571
30
0
11
76.958532
21
18.357736
31
0
39
0
210
0
220
0
230
1
0
LINE
5
100
100
AcDbEntity
8
1
62
256
6
ByLayer
370
18
48
1
60
0
100
AcDbLine
10
76.958532
20
18.357736
30
0
11
76.860408
21
18.258898
31
0
39
0
210
0
220
0
230
1
0
LINE
5
101
100
AcDbEntity
8
1
62
256
6
ByLayer
370
18
48
1
60
0
100
AcDbLine
10
76.860408
20
18.258898
30
0
11
76.762287
21
18.160055
31
0
39
0
210
0
220
0
230
1
0
LINE
5
102
100
AcDbEntity
8
1
62
256
6
ByLayer
370
18
48
1
60
0
100
AcDbLine
10
76.762287
20
18.160055
30
0
11
76.664171
21
18.061209
31
0
39
0
210
0
220
0
230
1
0
LINE
5
103
100
AcDbEntity
8
1
62
256
6
ByLayer
370
18
48
1
60
0
100
AcDbLine
10
76.664171
20
18.061209
30
0
11
76.566058
21
17.962359
31
0
39
0
210
0
220
0
230
1
0
LINE
5
104
100
AcDbEntity
8
1
62
256
6
ByLayer
370
18
48
1
60
0
100
AcDbLine
10
76.566058
20
17.962359
30
0
11
76.467949
21
17.863506
31
0
39
0
210
0
220
0
230
1
0
LINE
5
105
100
AcDbEntity
8
1
62
256
6
ByLayer
370
18
48
1
60
0
100
AcDbLine
10
79
20
-19.272055
30
0
11
78
21
-19.151572
31
0
39
0
210
0
220
0
230
1
0
LINE
5
106
100
AcDbEntity
8
1
62
256
6
ByLayer
370
18
48
1
60
0
100
AcDbLine
10
79
20
-4.448406
30
0
11
78
21
-5.108618
31
0
39
0
210
0
220
0
230
1
0
LINE
5
107
100
AcDbEntity
8
1
62
256
6
ByLayer
370
18
48
1
60
0
100
AcDbLine
10
79
20
-4.448406
30
0
11
78
21
-5.108618
31
0
39
0
210
0
220
0
230
1
0
LINE
5
108
100
AcDbEntity
8
SK1
62
256
6
ByLayer
370
18
48
1
60
0
100
AcDbLine
10
-1.794977
20
17.324982
30
0
11
-1.218954
21
17.339449
31
0
39
0
210
0
220
0
230
1
0
LINE
5
109
100
AcDbEntity
8
SK1
62
256
6
ByLayer
370
18
48
1
60
0
100
AcDbLine
10
-1.218954
20
17.339449
30
0
11
-0.194914
21
17.365169
31
0
39
0
210
0
220
0
230
1
0
LINE
5
10A
100
AcDbEntity
8
1
62
256
6
ByLayer
370
18
48
1
60
0
100
AcDbLine
10
77.449209
20
18.851872
30
0
11
77.351066
21
18.753052
31
0
39
0
210
0
220
0
230
1
0
LINE
5
10B
100
AcDbEntity
8
1
62
256
6
ByLayer
370
18
48
1
60
0
100
AcDbLine
10
77.351066
20
18.753052
30
0
11
77.252927
21
18.654229
31
0
39
0
210
0
220
0
230
1
0
LINE
5
10C
100
AcDbEntity
8
1
62
256
6
ByLayer
370
18
48
1
60
0
100
AcDbLine
10
77.252927
20
18.654229
30
0
11
77.154791
21
18.555402
31
0
39
0
210
0
220
0
230
1
0
LINE
5
10D
100
AcDbEntity
8
1
62
256
6
ByLayer
370
18
48
1
60
0
100
AcDbLine
10
77.154791
20
18.555402
30
0
11
77.05666
21
18.456571
31
0
39
0
210
0
220
0
230
1
0
LINE
5
10E
100
AcDbEntity
8
1
62
256
6
ByLayer
370
18
48
1
60
0
100
AcDbLine
10
77.05666
20
18.456571
30
0
11
76.958532
21
18.357736
31
0
39
0
210
0
220
0
230
1
0
LINE
5
10F
100
AcDbEntity
8
1
62
256
6
ByLayer
370
18
48
1
60
0
100
AcDbLine
10
76.958532
20
18.357736
30
0
11
76.860408
21
18.258898
31
0
39
0
210
0
220
0
230
1
0
LINE
5
110
100
AcDbEntity
8
1
62
256
6
ByLayer
370
18
48
1
60
0
100
AcDbLine
10
76.860408
20
18.258898
30
0
11
76.762287
21
18.160055
31
0
39
0
210
0
220
0
230
1
0
LINE
5
111
100
AcDbEntity
8
1
62
256
6
ByLayer
370
18
48
1
60
0
100
AcDbLine
10
76.762287
20
18.160055
30
0
11
76.664171
21
18.061209
31
0
39
0
210
0
220
0
230
1
0
LINE
5
112
100
AcDbEntity
8
1
62
256
6
ByLayer
370
18
48
1
60
0
100
AcDbLine
10
76.664171
20
18.061209
30
0
11
76.566058
21
17.962359
31
0
39
0
210
0
220
0
230
1
0
LINE
5
113
100
AcDbEntity
8
1
62
256
6
ByLayer
370
18
48
1
60
0
100
AcDbLine
10
76.566058
20
17.962359
30
0
11
76.467949
21
17.863506
31
0
39
0
210
0
220
0
230
1
0
LINE
5
114
100
AcDbEntity
8
SK1
62
256
6
ByLayer
370
18
48
1
60
0
100
AcDbLine
10
-30
20
15.991828
30
0
11
-29.85
21
16.078421
31
0
39
0
210
0
220
0
230
1
0
LINE
5
115
100
AcDbEntity
8
SK1
62
256
6
ByLayer
370
18
48
1
60
0
100
AcDbLine
10
-29.85
20
16.078421
30
0
11
-29.7
21
16.165015
31
0
39
0
210
0
220
0
230
1
0
LINE
5
116
100
AcDbEntity
8
SK1
62
256
6
ByLayer
370
18
48
1
60
0
100
AcDbLine
10
-29.7
20
16.165015
30
0
11
-29.55
21
16.251608
31
0
39
0
210
0
220
0
230
1
0
LINE
5
117
100
AcDbEntity
8
SK1
62
256
6
ByLayer
370
18
48
1
60
0
100
AcDbLine
10
-29.55
20
16.251608
30
0
11
-29.4
21
16.338201
31
0
39
0
210
0
220
0
230
1
0
LINE
5
118
100
AcDbEntity
8
SK1
62
256
6
ByLayer
370
18
48
1
60
0
100
AcDbLine
10
-29.4
20
16.338201
30
0
11
-29.25
21
16.424794
31
0
39
0
210
0
220
0
230
1
0
LINE
5
119
100
AcDbEntity
8
SK1
62
256
6
ByLayer
370
18
48
1
60
0
100
AcDbLine
10
-29.25
20
16.424794
30
0
11
-29.1
21
16.511387
31
0
39
0
210
0
220
0
230
1
0
LINE
5
11A
100
AcDbEntity
8
SK1
62
256
6
ByLayer
370
18
48
1
60
0
100
AcDbLine
10
-29.1
20
16.511387
30
0
11
-28.95
21
16.597981
31
0
39
0
210
0
220
0
230
1
0
LINE
5
11B
100
AcDbEntity
8
SK1
62
256
6
ByLayer
370
18
48
1
60
0
100
AcDbLine
10
-28.95
20
16.597981
30
0
11
-28.8
21
16.684574
31
0
39
0
210
0
220
0
230
1
0
LINE
5
11C
100
AcDbEntity
8
SK1
62
256
6
ByLayer
370
18
48
1
60
0
100
AcDbLine
10
-28.8
20
16.684574
30
0
11
-28.65
21
16.771167
31
0
39
0
210
0
220
0
230
1
0
LINE
5
11D
100
AcDbEntity
8
SK1
62
256
6
ByLayer
370
18
48
1
60
0
100
AcDbLine
10
-28.65
20
16.771167
30
0
11
-28.5
21
16.85776
31
0
39
0
210
0
220
0
230
1
0
LINE
5
11E
100
AcDbEntity
8
80
62
256
6
ByLayer
370
13
48
1
60
0
100
AcDbLine
10
0
20
0
30
0
11
-35
21
0
31
0
39
0
210
0
220
0
230
1
0
LINE
5
11F
100
AcDbEntity
8
1
62
256
6
ByLayer
370
18
48
1
60
0
100
AcDbLine
10
80
20
21.490215
30
0
11
80
21
14.722853
31
0
39
0
210
0
220
0
230
1
0
LINE
5
120
100
AcDbEntity
8
1
62
256
6
ByLayer
370
18
48
1
60
0
100
AcDbLine
10
84.34615
20
20.236763
30
0
11
84.500481
21
20.216445
31
0
39
0
210
0
220
0
230
1
0
LINE
5
121
100
AcDbEntity
8
1
62
256
6
ByLayer
370
18
48
1
60
0
100
AcDbLine
10
84.500481
20
20.374555
30
0
11
84.34615
21
20.354237
31
0
39
0
210
0
220
0
230
1
0
LINE
5
122
100
AcDbEntity
8
1
62
256
6
ByLayer
370
18
48
1
60
0
100
AcDbLine
10
84.643584
20
20.393395
30
0
11
84.500481
21
20.374555
31
0
39
0
210
0
220
0
230
1
0
LINE
5
123
100
AcDbEntity
8
1
62
256
6
ByLayer
370
18
48
1
60
0
100
AcDbLine
10
84.500481
20
20.216445
30
0
11
84.643584
21
20.197605
31
0
39
0
210
0
220
0
230
1
0
LINE
5
124
100
AcDbEntity
8
1
62
256
6
ByLayer
370
18
48
1
60
0
100
AcDbLine
10
84.679179
20
1.764797
30
0
11
84.679179
21
9.522887
31
0
39
0
210
0
220
0
230
1
0
LINE
5
125
100
AcDbEntity
8
1
62
256
6
ByLayer
370
18
48
1
60
0
100
AcDbLine
10
80
20
-7.990419
30
0
11
84.439022
21
-8.184601
31
0
39
0
210
0
220
0
230
1
0
LINE
5
126
100
AcDbEntity
8
1
62
256
6
ByLayer
370
18
48
1
60
0
100
AcDbLine
10
84.642228
20
-8.32167
30
0
11
84.439022
21
-8.184601
31
0
39
0
210
0
220
0
230
1
0
LINE
5
127
100
AcDbEntity
8
1
62
256
6
ByLayer
370
18
48
1
60
0
100
AcDbLine
10
85.780507
20
-6.768093
30
0
11
85.942033
21
-6.949174
31
0
39
0
210
0
220
0
230
1
0
LINE
5
128
100
AcDbEntity
8
1
62
256
6
ByLayer
370
18
48
1
60
0
100
AcDbLine
10
85.780507
20
-6.768093
30
0
11
85.281337
21
-3.391392
31
0
39
0
210
0
220
0
230
1
0
LINE
5
129
100
AcDbEntity
8
1
62
256
6
ByLayer
370
18
48
1
60
0
100
AcDbLine
10
84.642228
20
-8.32167
30
0
11
84.642228
21
-7.257847
31
0
39
0
210
0
220
0
230
1
0
LINE
5
12A
100
AcDbEntity
8
1
62
256
6
ByLayer
370
18
48
1
60
0
100
AcDbLine
10
84.439022
20
-8.184601
30
0
11
84.439022
21
-7.308483
31
0
39
0
210
0
220
0
230
1
0
LINE
5
12B
100
AcDbEntity
8
1
62
256
6
ByLayer
370
18
48
1
60
0
100
AcDbLine
10
84.679179
20
1.764797
30
0
11
85.281337
21
-3.391392
31
0
39
0
210
0
220
0
230
1
0
LINE
5
12C
100
AcDbEntity
8
1
62
256
6
ByLayer
370
18
48
1
60
0
100
AcDbLine
10
84.642228
20
-7.034862
30
0
11
84.642228
21
-6.49673
31
0
39
0
210
0
220
0
230
1
0
LINE
5
12D
100
AcDbEntity
8
1
62
256
6
ByLayer
370
18
48
1
60
0
100
AcDbLine
10
84.439022
20
-6.751634
30
0
11
84.439022
21
-6.491405
31
0
39
0
210
0
220
0
230
1
0
LINE
5
12E
100
AcDbEntity
8
1
62
256
6
ByLayer
370
18
48
1
60
0
100
AcDbLine
10
80
20
-7.990419
30
0
11
80
21
-6.375085
31
0
39
0
210
0
220
0
230
1
0
LINE
5
12F
100
AcDbEntity
8
1
62
256
6
ByLayer
370
13
48
0.05
60
0
100
AcDbLine
10
93.978062
20
-23.764296
30
0
11
99.534062
21
-24.743969
31
0
39
0
210
0
220
0
230
1
0
LINE
5
130
100
AcDbEntity
8
1
62
256
6
ByLayer
370
13
48
0.05
60
0
100
AcDbLine
10
100
20
-24.353
30
0
11
100
21
-18.71129
31
0
39
0
210
0
220
0
230
1
0
LINE
5
131
100
AcDbEntity
8
81
62
256
6
ByLayer
370
13
48
0.05
60
0
100
AcDbLine
10
100
20
24.75
30
0
11
103.591409
21
24.75
31
0
39
0
210
0
220
0
230
1
0
LINE
5
132
100
AcDbEntity
8
1
62
256
6
ByLayer
370
18
48
1
60
0
100
AcDbLine
10
80
20
-8.803168
30
0
11
80
21
-7.915459
31
0
39
0
210
0
220
0
230
1
0
LINE
5
133
100
AcDbEntity
8
1
62
256
6
ByLayer
370
18
48
1
60
0
100
AcDbLine
10
80
20
-12.807114
30
0
11
80
21
-8.803168
31
0
39
0
210
0
220
0
230
1
0
LINE
5
134
100
AcDbEntity
8
1
62
256
6
ByLayer
370
18
48
1
60
0
100
AcDbLine
10
80
20
-8.432819
30
0
11
88.447678
21
-8.691161
31
0
39
0
210
0
220
0
230
1
0
LINE
5
135
100
AcDbEntity
8
1
62
256
6
ByLayer
370
18
48
1
60
0
100
AcDbLine
10
82.086186
20
-10.03026
30
0
11
82.886588
21
-9.743873
31
0
39
0
210
0
220
0
230
1
0
LINE
5
136
100
AcDbEntity
8
1
62
256
6
ByLayer
370
18
48
1
60
0
100
AcDbLine
10
82.086186
20
-9.43026
30
0
11
82.086186
21
-10.03026
31
0
39
0
210
0
220
0
230
1
0
LINE
5
137
100
AcDbEntity
8
1
62
256
6
ByLayer
370
18
48
1
60
0
100
AcDbLine
10
81.399598
20
-9.573152
30
0
11
82.086186
21
-10.03026
31
0
39
0
210
0
220
0
230
1
0
LINE
5
138
100
AcDbEntity
8
1
62
256
6
ByLayer
370
18
48
1
60
0
100
AcDbLine
10
82.486387
20
-9.287066
30
0
11
82.650188
21
-9.228458
31
0
39
0
210
0
220
0
230
1
0
LINE
5
139
100
AcDbEntity
8
1
62
256
6
ByLayer
370
18
48
1
60
0
100
AcDbLine
10
82.086186
20
-9.43026
30
0
11
82.486387
21
-9.287066
31
0
39
0
210
0
220
0
230
1
0
LINE
5
13A
100
AcDbEntity
8
1
62
256
6
ByLayer
370
18
48
1
60
0
100
AcDbLine
10
92.976092
20
1.757747
30
0
11
84.679179
21
1.757747
31
0
39
0
210
0
220
0
230
1
0
LINE
5
13B
100
AcDbEntity
8
1
62
256
6
ByLayer
370
18
48
1
60
0
100
AcDbLine
10
80
20
21.490215
30
0
11
87
21
21.918353
31
0
39
0
210
0
220
0
230
1
0
LINE
5
13C
100
AcDbEntity
8
1
62
256
6
ByLayer
370
18
48
1
60
0
100
AcDbLine
10
87
20
21.918353
30
0
11
88.447678
21
22.006897
31
0
39
0
210
0
220
0
230
1
0
LINE
5
13D
100
AcDbEntity
8
1
62
256
6
ByLayer
370
18
48
1
60
0
100
AcDbLine
10
87
20
21.918353
30
0
11
87
21
9.515837
31
0
39
0
210
0
220
0
230
1
0
LINE
5
13E
100
AcDbEntity
8
1
62
256
6
ByLayer
370
18
48
1
60
0
100
AcDbLine
10
88.447678
20
-8.691161
30
0
11
88.447678
21
-11.97781
31
0
39
0
210
0
220
0
230
1
0
LINE
5
13F
100
AcDbEntity
8
1
62
256
6
ByLayer
370
18
48
1
60
0
100
AcDbLine
10
88.447678
20
-8.691161
30
0
11
88.447678
21
-1.434417
31
0
39
0
210
0
220
0
230
1
0
LINE
5
140
100
AcDbEntity
8
1
62
256
6
ByLayer
370
18
48
1
60
0
100
AcDbLine
10
84.994717
20
-0.944159
30
0
11
88.447678
21
-1.434417
31
0
39
0
210
0
220
0
230
1
0
LINE
5
141
100
AcDbEntity
8
1
62
256
6
ByLayer
370
18
48
1
60
0
100
AcDbLine
10
89.010676
20
-8.724478
30
0
11
90.691341
21
-8.872651
31
0
39
0
210
0
220
0
230
1
0
LINE
5
142
100
AcDbEntity
8
1
62
256
6
ByLayer
370
18
48
1
60
0
100
AcDbLine
10
89.010676
20
-8.724478
30
0
11
89.010676
21
-1.589103
31
0
39
0
210
0
220
0
230
1
0
LINE
5
143
100
AcDbEntity
8
1
62
256
6
ByLayer
370
18
48
1
60
0
100
AcDbLine
10
89.010676
20
-8.724478
30
0
11
89.010676
21
-11.857643
31
0
39
0
210
0
220
0
230
1
0
LINE
5
144
100
AcDbEntity
8
1
62
256
6
ByLayer
370
18
48
1
60
0
100
AcDbLine
10
89.610824
20
15.349006
30
0
11
89.760695
21
15.348353
31
0
39
0
210
0
220
0
230
1
0
LINE
5
145
100
AcDbEntity
8
1
62
256
6
ByLayer
370
18
48
1
60
0
100
AcDbLine
10
89.655786
20
13.642034
30
0
11
89.655786
21
9.515837
31
0
39
0
210
0
220
0
230
1
0
LINE
5
146
100
AcDbEntity
8
1
62
256
6
ByLayer
370
18
48
1
60
0
100
AcDbLine
10
89.655786
20
22.187282
30
0
11
89.655786
21
15.964062
31
0
39
0
210
0
220
0
230
1
0
LINE
5
147
100
AcDbEntity
8
1
62
256
6
ByLayer
370
18
48
1
60
0
100
AcDbLine
10
89.761761
20
15.592651
30
0
11
89.760695
21
15.348353
31
0
39
0
210
0
220
0
230
1
0
LINE
5
148
100
AcDbEntity
8
1
62
256
6
ByLayer
370
18
48
1
60
0
100
AcDbLine
10
89.611891
20
15.593305
30
0
11
89.761761
21
15.592651
31
0
39
0
210
0
220
0
230
1
0
LINE
5
149
100
AcDbEntity
8
1
62
256
6
ByLayer
370
18
48
1
60
0
100
AcDbLine
10
90.475
20
-12.532578
30
0
11
90.722
21
-10.790434
31
0
39
0
210
0
220
0
230
1
0
LINE
5
14A
100
AcDbEntity
8
1
62
256
6
ByLayer
370
18
48
1
60
0
100
AcDbLine
10
90.475
20
-12.532578
30
0
11
90.475
21
-11.927968
31
0
39
0
210
0
220
0
230
1
0
LINE
5
14B
100
AcDbEntity
8
1
62
256
6
ByLayer
370
18
48
1
60
0
100
AcDbLine
10
90.803062
20
-12.728062
30
0
11
90.845953
21
-10.864295
31
0
39
0
210
0
220
0
230
1
0
LINE
5
14C
100
AcDbEntity
8
1
62
256
6
ByLayer
370
18
48
1
60
0
100
AcDbLine
10
90.845953
20
-10.864295
30
0
11
91.086407
21
-9.067435
31
0
39
0
210
0
220
0
230
1
0
LINE
5
14D
100
AcDbEntity
8
1
62
256
6
ByLayer
370
18
48
1
60
0
100
AcDbLine
10
90.722
20
-10.790434
30
0
11
90.962455
21
-8.993574
31
0
39
0
210
0
220
0
230
1
0
LINE
5
14E
100
AcDbEntity
8
1
62
256
6
ByLayer
370
18
48
1
60
0
100
AcDbLine
10
90.962455
20
-8.993574
30
0
11
90.962455
21
-8.896554
31
0
39
0
210
0
220
0
230
1
0
LINE
5
14F
100
AcDbEntity
8
1
62
256
6
ByLayer
370
18
48
1
60
0
100
AcDbLine
10
97.941414
20
-16.627477
30
0
11
96.774234
21
-16.481971
31
0
39
0
210
0
220
0
230
1
0
LINE
5
150
100
AcDbEntity
8
1
62
256
6
ByLayer
370
18
48
1
60
0
100
AcDbLine
10
96.774234
20
-15.919055
30
0
11
96.774234
21
-16.481971
31
0
39
0
210
0
220
0
230
1
0
LINE
5
151
100
AcDbEntity
8
1
62
256
6
ByLayer
370
18
48
1
60
0
100
AcDbLine
10
97.941414
20
1.757747
30
0
11
96.972352
21
1.757747
31
0
39
0
210
0
220
0
230
1
0
LINE
5
152
100
AcDbEntity
8
1
62
256
6
ByLayer
370
18
48
1
60
0
100
AcDbLine
10
97.941414
20
-16.627477
30
0
11
97.941414
21
-20.585708
31
0
39
0
210
0
220
0
230
1
0
LINE
5
153
100
AcDbEntity
8
1
62
256
6
ByLayer
370
18
48
1
60
0
100
AcDbLine
10
97.941414
20
-20.585708
30
0
11
98.678878
21
-17.486999
31
0
39
0
210
0
220
0
230
1
0
LINE
5
154
100
AcDbEntity
8
1
62
256
6
ByLayer
370
18
48
1
60
0
100
AcDbLine
10
97.941414
20
-20.585708
30
0
11
96.972352
21
-20.585708
31
0
39
0
210
0
220
0
230
1
0
LINE
5
155
100
AcDbEntity
8
1
62
256
6
ByLayer
370
18
48
1
60
0
100
AcDbLine
10
97.941414
20
5.715979
30
0
11
96.774234
21
5.861484
31
0
39
0
210
0
220
0
230
1
0
LINE
5
156
100
AcDbEntity
8
1
62
256
6
ByLayer
370
18
48
1
60
0
100
AcDbLine
10
97.941414
20
5.715979
30
0
11
97.941414
21
1.757747
31
0
39
0
210
0
220
0
230
1
0
LINE
5
157
100
AcDbEntity
8
1
62
256
6
ByLayer
370
18
48
1
60
0
100
AcDbLine
10
97.941414
20
5.715979
30
0
11
98.021224
21
5.143113
31
0
39
0
210
0
220
0
230
1
0
LINE
5
158
100
AcDbEntity
8
1
62
256
6
ByLayer
370
18
48
1
60
0
100
AcDbLine
10
98.021224
20
-16.074509
30
0
11
98.021224
21
-16.138611
31
0
39
0
210
0
220
0
230
1
0
LINE
5
159
100
AcDbEntity
8
1
62
256
6
ByLayer
370
18
48
1
60
0
100
AcDbLine
10
97.941414
20
-16.627477
30
0
11
98.021224
21
-16.074509
31
0
39
0
210
0
220
0
230
1
0
LINE
5
15A
100
AcDbEntity
8
1
62
256
6
ByLayer
370
18
48
1
60
0
100
AcDbLine
10
98.021224
20
-16.074509
30
0
11
96.774234
21
-15.919055
31
0
39
0
210
0
220
0
230
1
0
LINE
5
15B
100
AcDbEntity
8
1
62
256
6
ByLayer
370
18
48
1
60
0
100
AcDbLine
10
98.573754
20
-14.491497
30
0
11
94.500518
21
-14.491497
31
0
39
0
210
0
220
0
230
1
0
LINE
5
15C
100
AcDbEntity
8
1
62
256
6
ByLayer
370
18
48
1
60
0
100
AcDbLine
10
98.573754
20
-14.491497
30
0
11
98.665843
21
-13.841978
31
0
39
0
210
0
220
0
230
1
0
LINE
5
15D
100
AcDbEntity
8
1
62
256
6
ByLayer
370
18
48
1
60
0
100
AcDbLine
10
98.610676
20
-9.570848
30
0
11
90.691341
21
-8.872651
31
0
39
0
210
0
220
0
230
1
0
LINE
5
15E
100
AcDbEntity
8
1
62
256
6
ByLayer
370
18
48
1
60
0
100
AcDbLine
10
97.941414
20
1.757747
30
0
11
98.678878
21
-5.546521
31
0
39
0
210
0
220
0
230
1
0
LINE
5
15F
100
AcDbEntity
8
1
62
256
6
ByLayer
370
18
48
1
60
0
100
AcDbLine
10
89.010676
20
-1.589103
30
0
11
98.678878
21
-5.546521
31
0
39
0
210
0
220
0
230
1
0
LINE
5
160
100
AcDbEntity
8
1
62
256
6
ByLayer
370
18
48
1
60
0
100
AcDbLine
10
99.048676
20
-8.452919
30
0
11
98.678878
21
-5.546521
31
0
39
0
210
0
220
0
230
1
0
LINE
5
161
100
AcDbEntity
8
1
62
256
6
ByLayer
370
18
48
1
60
0
100
AcDbLine
10
99.1975
20
-5.441542
30
0
11
99.1975
21
-9.324646
31
0
39
0
210
0
220
0
230
1
0
LINE
5
162
100
AcDbEntity
8
1
62
256
6
ByLayer
370
18
48
1
60
0
100
AcDbLine
10
99.1975
20
-5.441542
30
0
11
99.388593
21
-5.458389
31
0
39
0
210
0
220
0
230
1
0
LINE
5
163
100
AcDbEntity
8
1
62
256
6
ByLayer
370
18
48
1
60
0
100
AcDbLine
10
99.1975
20
-5.296784
30
0
11
99.1975
21
-5.441542
31
0
39
0
210
0
220
0
230
1
0
LINE
5
164
100
AcDbEntity
8
1
62
256
6
ByLayer
370
18
48
1
60
0
100
AcDbLine
10
99.1975
20
-3.830109
30
0
11
99.1975
21
-3.784547
31
0
39
0
210
0
220
0
230
1
0
LINE
5
165
100
AcDbEntity
8
1
62
256
6
ByLayer
370
18
48
1
60
0
100
AcDbLine
10
99.1975
20
-3.830109
30
0
11
99.1975
21
-5.296784
31
0
39
0
210
0
220
0
230
1
0
LINE
5
166
100
AcDbEntity
8
1
62
256
6
ByLayer
370
18
48
1
60
0
100
AcDbLine
10
99.336498
20
-9.794791
30
0
11
91.086407
21
-9.067435
31
0
39
0
210
0
220
0
230
1
0
LINE
5
167
100
AcDbEntity
8
1
62
256
6
ByLayer
370
18
48
1
60
0
100
AcDbLine
10
99.576953
20
-11.634051
30
0
11
99.336498
21
-9.794791
31
0
39
0
210
0
220
0
230
1
0
LINE
5
168
100
AcDbEntity
8
1
62
256
6
ByLayer
370
18
48
1
60
0
100
AcDbLine
10
99.512098
20
-14.351296
30
0
11
99.643967
21
-13.499773
31
0
39
0
210
0
220
0
230
1
0
LINE
5
169
100
AcDbEntity
8
1
62
256
6
ByLayer
370
18
48
1
60
0
100
AcDbLine
10
99.752575
20
-7.121705
30
0
11
99.512121
21
-5.526613
31
0
39
0
210
0
220
0
230
1
0
LINE
5
16A
100
AcDbEntity
8
1
62
256
6
ByLayer
370
18
48
1
60
0
100
AcDbLine
10
99.534062
20
-13.497817
30
0
11
90.803062
21
-12.728062
31
0
39
0
210
0
220
0
230
1
0
LINE
5
16B
100
AcDbEntity
8
1
62
256
6
ByLayer
370
18
48
1
60
0
100
AcDbLine
10
99.534062
20
-13.497817
30
0
11
99.576953
21
-11.634051
31
0
39
0
210
0
220
0
230
1
0
LINE
5
16C
100
AcDbEntity
8
1
62
256
6
ByLayer
370
18
48
1
60
0
100
AcDbLine
10
99.671938
20
-6.422338
30
0
11
99.668655
21
-6.565007
31
0
39
0
210
0
220
0
230
1
0
LINE
5
16D
100
AcDbEntity
8
1
62
256
6
ByLayer
370
18
48
1
60
0
100
AcDbLine
10
99.646814
20
-6.420123
30
0
11
99.671938
21
-6.422338
31
0
39
0
210
0
220
0
230
1
0
LINE
5
16E
100
AcDbEntity
8
1
62
256
6
ByLayer
370
18
48
1
60
0
100
AcDbLine
10
99.999001
20
-8.855417
30
0
11
99.752622
21
-7.122025
31
0
39
0
210
0
220
0
230
1
0
LINE
5
16F
100
AcDbEntity
8
1
62
256
6
ByLayer
370
18
48
1
60
0
100
AcDbLine
10
99.753
20
-11.56019
30
0
11
99.512545
21
-9.720931
31
0
39
0
210
0
220
0
230
1
0
LINE
5
170
100
AcDbEntity
8
1
62
256
6
ByLayer
370
18
48
1
60
0
100
AcDbLine
10
100
20
-13.302333
30
0
11
99.753
21
-11.56019
31
0
39
0
210
0
220
0
230
1
0
LINE
5
171
100
AcDbEntity
8
1
62
256
6
ByLayer
370
18
48
1
60
0
100
AcDbLine
10
100
20
-8.869488
30
0
11
100
21
-13.302333
31
0
39
0
210
0
220
0
230
1
0
LINE
5
172
100
AcDbEntity
8
1
62
256
6
ByLayer
370
18
48
1
60
0
100
AcDbLine
10
100
20
-8.869488
30
0
11
99.753
21
-7.127345
31
0
39
0
210
0
220
0
230
1
0
LINE
5
173
100
AcDbEntity
8
1
62
256
6
ByLayer
370
18
48
1
60
0
100
AcDbLine
10
99.1975
20
-3.52512
30
0
11
98.974058
21
-3.508937
31
0
39
0
210
0
220
0
230
1
0
LINE
5
174
100
AcDbEntity
8
1
62
256
6
ByLayer
370
18
48
1
60
0
100
AcDbLine
10
99.1975
20
-3.784547
30
0
11
99.1975
21
-3.52512
31
0
39
0
210
0
220
0
230
1
0
LINE
5
175
100
AcDbEntity
8
1
62
256
6
ByLayer
370
18
48
1
60
0
100
AcDbLine
10
99.046882
20
-3.784547
30
0
11
99.1975
21
-3.784547
31
0
39
0
210
0
220
0
230
1
0
LINE
5
176
100
AcDbEntity
8
1
62
256
6
ByLayer
370
18
48
1
60
0
100
AcDbLine
10
83.15
20
-11.099315
30
0
11
83.15
21
-9.458448
31
0
39
0
210
0
220
0
230
1
0
LINE
5
177
100
AcDbEntity
8
1
62
256
6
ByLayer
370
18
48
1
60
0
100
AcDbLine
10
94.5
20
-13.053997
30
0
11
94.5
21
-15.026528
31
0
39
0
210
0
220
0
230
1
0
LINE
5
178
100
AcDbEntity
8
1
62
256
6
ByLayer
370
18
48
1
60
0
100
AcDbLine
10
82.086186
20
-9.43026
30
0
11
81.743763
21
-9.202285
31
0
39
0
210
0
220
0
230
1
0
LINE
5
179
100
AcDbEntity
8
1
62
256
6
ByLayer
370
18
48
1
60
0
100
AcDbLine
10
90.475
20
13.947799
30
0
11
90.475
21
22.813489
31
0
39
0
210
0
220
0
230
1
0
LINE
5
17A
100
AcDbEntity
8
1
62
256
6
ByLayer
370
18
48
1
60
0
100
AcDbLine
10
99.671938
20
15.096342
30
0
11
90.940938
21
13.556831
31
0
39
0
210
0
220
0
230
1
0
LINE
5
17B
100
AcDbEntity
8
1
62
256
6
ByLayer
370
18
48
1
60
0
100
AcDbLine
10
100
20
24.353
30
0
11
100
21
15.48731
31
0
39
0
210
0
220
0
230
1
0
LINE
5
17C
100
AcDbEntity
8
1
62
256
6
ByLayer
370
18
48
1
60
0
100
AcDbLine
10
90.803062
20
23.204458
30
0
11
99.534062
21
24.743969
31
0
39
0
210
0
220
0
230
1
0
LINE
5
17D
100
AcDbEntity
8
1
62
256
6
ByLayer
370
18
48
1
60
0
100
AcDbLine
10
98.021224
20
5.079011
30
0
11
98.021224
21
5.143113
31
0
39
0
210
0
220
0
230
1
0
LINE
5
17E
100
AcDbEntity
8
1
62
256
6
ByLayer
370
18
48
1
60
0
100
AcDbLine
10
98.665843
20
-1.717622
30
0
11
98.573754
21
-1.068103
31
0
39
0
210
0
220
0
230
1
0
LINE
5
17F
100
AcDbEntity
8
1
62
256
6
ByLayer
370
18
48
1
60
0
100
AcDbLine
10
94.5
20
9.515837
30
0
11
94.5
21
7.316928
31
0
39
0
210
0
220
0
230
1
0
LINE
5
180
100
AcDbEntity
8
1
62
256
6
ByLayer
370
18
48
1
60
0
100
AcDbLine
10
84.679179
20
9.515837
30
0
11
94.5
21
9.515837
31
0
39
0
210
0
220
0
230
1
0
LINE
5
181
100
AcDbEntity
8
1
62
256
6
ByLayer
370
18
48
1
60
0
100
AcDbLine
10
89.655786
20
22.187282
30
0
11
89.010676
21
22.073532
31
0
39
0
210
0
220
0
230
1
0
LINE
5
182
100
AcDbEntity
8
1
62
256
6
ByLayer
370
18
48
1
60
0
100
AcDbLine
10
90.475
20
22.331732
30
0
11
89.655786
21
22.187282
31
0
39
0
210
0
220
0
230
1
0
LINE
5
183
100
AcDbEntity
8
1
62
256
6
ByLayer
370
18
48
1
60
0
100
AcDbLine
10
99.512545
20
-5.53225
30
0
11
99.753
21
-7.127345
31
0
39
0
210
0
220
0
230
1
0
LINE
5
184
100
AcDbEntity
8
1
62
256
6
ByLayer
370
18
48
1
60
0
100
AcDbLine
10
99.512545
20
-9.720931
30
0
11
99.512545
21
-5.53225
31
0
39
0
210
0
220
0
230
1
0
LINE
5
185
100
AcDbEntity
8
1
62
256
6
ByLayer
370
18
48
1
60
0
100
AcDbLine
10
99.1975
20
11.224675
30
0
11
99.1975
21
15.012685
31
0
39
0
210
0
220
0
230
1
0
LINE
5
186
100
AcDbEntity
8
1
62
256
6
ByLayer
370
18
48
1
60
0
100
AcDbLine
10
96.774234
20
10.620487
30
0
11
99.1975
21
11.224675
31
0
39
0
210
0
220
0
230
1
0
LINE
5
187
100
AcDbEntity
8
1
62
256
6
ByLayer
370
18
48
1
60
0
100
AcDbLine
10
99.148496
20
-14.402792
30
0
11
99.336498
21
-14.419367
31
0
39
0
210
0
220
0
230
1
0
LINE
5
188
100
AcDbEntity
8
1
62
256
6
ByLayer
370
18
48
1
60
0
100
AcDbLine
10
92.974222
20
-1.562285
30
0
11
92.974222
21
1.607577
31
0
39
0
210
0
220
0
230
1
0
LINE
5
189
100
AcDbEntity
8
1
62
256
6
ByLayer
370
18
48
1
60
0
100
AcDbLine
10
96.974222
20
-1.562285
30
0
11
92.974222
21
-1.562285
31
0
39
0
210
0
220
0
230
1
0
LINE
5
18A
100
AcDbEntity
8
1
62
256
6
ByLayer
370
18
48
1
60
0
100
AcDbLine
10
96.974222
20
1.607577
30
0
11
96.974222
21
-1.562285
31
0
39
0
210
0
220
0
230
1
0
LINE
5
18B
100
AcDbEntity
8
1
62
256
6
ByLayer
370
18
48
1
60
0
100
AcDbLine
10
92.976092
20
-20.585708
30
0
11
84.679179
21
-20.585708
31
0
39
0
210
0
220
0
230
1
0
LINE
5
18C
100
AcDbEntity
8
1
62
256
6
ByLayer
370
18
48
1
60
0
100
AcDbLine
10
90.691341
20
-10.777907
30
0
11
90.691341
21
-8.872651
31
0
39
0
210
0
220
0
230
1
0
LINE
5
18D
100
AcDbEntity
8
1
62
256
6
ByLayer
370
18
48
1
60
0
100
AcDbLine
10
90.541388
20
-11.933821
30
0
11
90.691341
21
-10.777907
31
0
39
0
210
0
220
0
230
1
0
LINE
5
18E
100
AcDbEntity
8
1
62
256
6
ByLayer
370
18
48
1
60
0
100
AcDbLine
10
89.655786
20
-11.855743
30
0
11
90.541388
21
-11.933821
31
0
39
0
210
0
220
0
230
1
0
LINE
5
18F
100
AcDbEntity
8
1
62
256
6
ByLayer
370
18
48
1
60
0
100
AcDbLine
10
87.152016
20
-12.827618
30
0
11
91.932288
21
-12.827618
31
0
39
0
210
0
220
0
230
1
0
LINE
5
190
100
AcDbEntity
8
1
62
256
6
ByLayer
370
18
48
1
60
0
100
AcDbLine
10
99.512545
20
-14.345506
30
0
11
99.643514
21
-13.499797
31
0
39
0
210
0
220
0
230
1
0
LINE
5
191
100
AcDbEntity
8
1
62
256
6
ByLayer
370
18
48
1
60
0
100
AcDbLine
10
99.512545
20
-13.49592
30
0
11
99.512545
21
-14.345506
31
0
39
0
210
0
220
0
230
1
0
LINE
5
192
100
AcDbEntity
8
1
62
256
6
ByLayer
370
18
48
1
60
0
100
AcDbLine
10
91
20
12.672287
30
0
11
91
21
13.567245
31
0
39
0
210
0
220
0
230
1
0
LINE
5
193
100
AcDbEntity
8
1
62
256
6
ByLayer
370
18
48
1
60
0
100
AcDbLine
10
81.399598
20
-9.573152
30
0
11
81.441224
21
-9.301231
31
0
39
0
210
0
220
0
230
1
0
LINE
5
194
100
AcDbEntity
8
1
62
256
6
ByLayer
370
18
48
1
60
0
100
AcDbLine
10
82.886588
20
-9.743873
30
0
11
82.886588
21
-9.31377
31
0
39
0
210
0
220
0
230
1
0
LINE
5
195
100
AcDbEntity
8
1
62
256
6
ByLayer
370
18
48
1
60
0
100
AcDbLine
10
82.948052
20
-9.342355
30
0
11
82.886588
21
-9.743873
31
0
39
0
210
0
220
0
230
1
0
LINE
5
196
100
AcDbEntity
8
1
62
256
6
ByLayer
370
18
48
1
60
0
100
AcDbLine
10
99.1975
20
-13.949221
30
0
11
99.1975
21
-13.468145
31
0
39
0
210
0
220
0
230
1
0
LINE
5
197
100
AcDbEntity
8
1
62
256
6
ByLayer
370
18
48
1
60
0
100
AcDbLine
10
98.678878
20
-17.486999
30
0
11
99.048676
21
-15.176862
31
0
39
0
210
0
220
0
230
1
0
LINE
5
198
100
AcDbEntity
8
1
62
256
6
ByLayer
370
18
48
1
60
0
100
AcDbLine
10
98.665843
20
-13.841978
30
0
11
94.5
21
-13.841978
31
0
39
0
210
0
220
0
230
1
0
LINE
5
199
100
AcDbEntity
8
1
62
256
6
ByLayer
370
18
48
1
60
0
100
AcDbLine
10
100
20
-6.617822
30
0
11
99.840679
21
-7.741546
31
0
39
0
210
0
220
0
230
1
0
LINE
5
19A
100
AcDbEntity
8
1
62
256
6
ByLayer
370
18
48
1
60
0
100
AcDbLine
10
100
20
-8.869488
30
0
11
100
21
-6.617822
31
0
39
0
210
0
220
0
230
1
0
LINE
5
19B
100
AcDbEntity
8
1
62
256
6
ByLayer
370
18
48
1
60
0
100
AcDbLine
10
92.5
20
13.831735
30
0
11
92.5
21
13.753241
31
0
39
0
210
0
220
0
230
1
0
LINE
5
19C
100
AcDbEntity
8
1
62
256
6
ByLayer
370
18
48
1
60
0
100
AcDbLine
10
87
20
-13.021183
30
0
11
80
21
-12.807114
31
0
39
0
210
0
220
0
230
1
0
LINE
5
19D
100
AcDbEntity
8
1
62
256
6
ByLayer
370
18
48
1
60
0
100
AcDbLine
10
89.655786
20
14.700188
30
0
11
89.655786
21
14.95935
31
0
39
0
210
0
220
0
230
1
0
LINE
5
19E
100
AcDbEntity
8
1
62
256
6
ByLayer
370
18
48
1
60
0
100
AcDbLine
10
84.679179
20
-20.578658
30
0
11
84.679179
21
-12.950209
31
0
39
0
210
0
220
0
230
1
0
LINE
5
19F
100
AcDbEntity
8
1
62
256
6
ByLayer
370
18
48
1
60
0
100
AcDbLine
10
95.9
20
6.4
30
0
11
95.9
21
10.247316
31
0
39
0
210
0
220
0
230
1
0
LINE
5
1A0
100
AcDbEntity
8
1
62
256
6
ByLayer
370
18
48
1
60
0
100
AcDbLine
10
96.4
20
10.500657
30
0
11
96.4
21
6.9
31
0
39
0
210
0
220
0
230
1
0
LINE
5
1A1
100
AcDbEntity
8
1
62
256
6
ByLayer
370
18
48
1
60
0
100
AcDbLine
10
95.125769
20
6.4
30
0
11
95.9
21
6.4
31
0
39
0
210
0
220
0
230
1
0
LINE
5
1A2
100
AcDbEntity
8
2
62
256
6
ByLayer
370
18
48
0.05
60
0
100
AcDbLine
10
100
20
24.75
30
0
11
25.75
21
24.75
31
0
39
0
210
0
220
0
230
1
0
MTEXT
5
35C
100
AcDbEntity
8
SK6
62
256
6
ByLayer
370
18
48
1
60
0
100
AcDbMText
10
105.75
20
29.25
30
0
210
0
220
0
230
1
1
\W0.7041;BR30-56CC09F-C5
40
3
41
0
44
1.084337
50
0
71
7
72
5
7
iso_b_vert
0
MTEXT
5
360
100
AcDbEntity
8
2
62
256
6
ByLayer
370
18
48
1
60
0
100
AcDbMText
10
130.512999
20
-17.151344
30
0
210
0
220
0
230
1
1
\W0.7976;Dc = 49.5 - 56.0
40
3
41
0
44
1.084337
50
89.9999999999995
71
7
72
5
7
iso_b_vert
0
DIMENSION
5
36C
100
AcDbEntity
8
SK2
62
256
6
ByLayer
370
13
48
1
60
0
100
AcDbDimension
2
DimnDraft3D1
10
-48.103922
20
-24.99
30
0
11
-47.603922
21
-2.889474
31
0
70
33
71
5
72
1
41
1
210
0
220
0
230
1
3
Standard
100
AcDbAlignedDimension
13
-1.7
23
24.99
33
0
14
-1.7
24
-24.99
34
0
1001
ACAD
1000
DSTYLE
1002
{
1070
   279
1070
     0
1070
    74
1070
     0
1070
   173
1070
     1
1070
   340
1005
35D
1070
   271
1070
     0
1070
   272
1070
     3
1070
    77
1070
     1
1070
    73
1070
     0
1070
   171
1070
     4
1070
   274
1070
     4
1070
   177
1070
     7
1070
   176
1070
     7
1070
   178
1070
     7
1070
    78
1070
     8
1070
    41
1041
3.175
1070
   147
1041
1.5
1070
    42
1041
2.0
1070
    44
1041
2.0
1070
   140
1041
3.0
1070
   343
1005
0
1070
   344
1005
0
1002
}
0
DIMENSION
5
377
100
AcDbEntity
8
2
62
256
6
ByLayer
370
13
48
1
60
0
100
AcDbDimension
2
DimnDraft3D2
10
131.634485
20
-24.75
30
0
11
131.634485
21
-23.274663
31
0
70
32
71
5
72
1
41
1
210
0
220
0
230
1
3
Standard
100
AcDbAlignedDimension
13
102
23
24.75
33
0
14
101.966895
24
-24.75
34
0
50
90
100
AcDbRotatedDimension
1001
ACAD
1000
DSTYLE
1002
{
1070
    74
1070
     0
1070
   279
1070
     0
1070
   172
1070
     1
1070
   173
1070
     1
1070
   340
1005
35D
1070
    77
1070
     1
1070
    73
1070
     0
1070
   171
1070
     4
1070
   274
1070
     4
1070
   177
1070
     7
1070
   176
1070
     7
1070
   178
1070
     7
1070
    78
1070
     8
1070
    41
1041
3.175
1070
   147
1041
1.75
1070
    42
1041
2.0
1070
    44
1041
2.0
1070
   140
1041
3.5
1070
   343
1005
0
1070
   344
1005
0
1002
}
0
DIMENSION
5
381
100
AcDbEntity
8
2
62
256
6
ByLayer
370
13
48
1
60
0
100
AcDbDimension
2
DimnDraft3D3
10
100
20
15.48731
30
0
11
114.051319
21
10.698681
31
0
70
34
71
5
72
1
41
1
210
0
220
0
230
1
3
Standard
100
AcDb2LineAngularDimension
13
100
23
24.75
33
0
14
101
24
24.75
34
0
15
100
25
24.353
35
0
16
116.17264
26
8.57736
36
0
40
0
0
DIMENSION
5
38B
100
AcDbEntity
8
2
62
256
6
ByLayer
370
13
48
1
60
0
100
AcDbDimension
2
DimnDraft3D4
10
100
20
58.5
30
0
11
47.521053
21
58.5
31
0
70
32
71
5
72
1
41
1
210
0
220
0
230
1
3
Standard
100
AcDbAlignedDimension
13
0
23
26.69
33
0
14
100
24
26.75
34
0
50
0
100
AcDbRotatedDimension
1001
ACAD
1000
DSTYLE
1002
{
1070
   279
1070
     0
1070
   172
1070
     1
1070
   173
1070
     1
1070
   340
1005
35D
1070
   271
1070
     0
1070
   272
1070
     3
1070
    77
1070
     1
1070
    73
1070
     0
1070
   171
1070
     4
1070
   274
1070
     4
1070
   177
1070
     7
1070
   176
1070
     7
1070
   178
1070
     7
1070
    78
1070
     8
1070
    41
1041
3.175
1070
   147
1041
1.5
1070
    42
1041
2.0
1070
    44
1041
2.0
1070
   140
1041
3.0
1070
   343
1005
0
1070
   344
1005
0
1002
}
0
DIMENSION
5
395
100
AcDbEntity
8
SK2
62
256
6
ByLayer
370
13
48
1
60
0
100
AcDbDimension
2
DimnDraft3D5
10
100
20
73.5
30
0
11
32.521053
21
73.5
31
0
70
32
71
5
72
1
41
1
210
0
220
0
230
1
3
Standard
100
AcDbAlignedDimension
13
-30
23
17.991832
33
0
14
100
24
26.75
34
0
50
0
100
AcDbRotatedDimension
1001
ACAD
1000
DSTYLE
1002
{
1070
   279
1070
     0
1070
   172
1070
     1
1070
   173
1070
     1
1070
   340
1005
35D
1070
   271
1070
     0
1070
   272
1070
     3
1070
    77
1070
     1
1070
    73
1070
     0
1070
   171
1070
     4
1070
   274
1070
     4
1070
   177
1070
     7
1070
   176
1070
     7
1070
   178
1070
     7
1070
    78
1070
     8
1070
    41
1041
3.175
1070
   147
1041
1.5
1070
    42
1041
2.0
1070
    44
1041
2.0
1070
   140
1041
3.0
1070
   343
1005
0
1070
   344
1005
0
1002
}
0
DIMENSION
5
39F
100
AcDbEntity
8
2
62
256
6
ByLayer
370
13
48
1
60
0
100
AcDbDimension
2
DimnDraft3D6
10
100
20
43.5
30
0
11
50.774342
21
43.5
31
0
70
32
71
5
72
1
41
1
210
0
220
0
230
1
3
Standard
100
AcDbAlignedDimension
13
25.75
23
26.75
33
0
14
100
24
26.75
34
0
50
0
100
AcDbRotatedDimension
1001
ACAD
1000
DSTYLE
1002
{
1070
   279
1070
     0
1070
   172
1070
     1
1070
   173
1070
     1
1070
   340
1005
35D
1070
   271
1070
     0
1070
   272
1070
     3
1070
    77
1070
     1
1070
    73
1070
     0
1070
   171
1070
     4
1070
   274
1070
     4
1070
   177
1070
     7
1070
   176
1070
     7
1070
   178
1070
     7
1070
    78
1070
     8
1070
    41
1041
3.175
1070
   147
1041
1.5
1070
    42
1041
2.0
1070
    44
1041
2.0
1070
   140
1041
3.0
1070
   343
1005
0
1070
   344
1005
0
1002
}
0
ENDSEC
0
SECTION
2
OBJECTS
0
DICTIONARY
5
412
330
0
100
AcDbDictionary
280
0
281
1
3
ACAD_GROUP
350
413
3
ACAD_GROUP
350
414
3
ACAD_MLINESTYLE
350
415
0
DICTIONARY
5
413
330
0
100
AcDbDictionary
280
0
281
1
0
DICTIONARY
5
414
330
0
100
AcDbDictionary
280
0
281
1
3
_DC
350
3AE
3
_DC_3
350
3AC
3
_DC_55
350
3AD
3
<200936330MOD000_00>
350
3A8
3
R820B_BR14SCFC09A_A1
350
3A9
3
TEST_R820B_BR90
350
3AB
3
TEST_R820B_BR95
350
3AA
0
DICTIONARY
5
415
330
0
100
AcDbDictionary
280
0
281
1
3
Standard
350
18
0
GROUP
5
3AE
330
414
100
AcDbGroup
300

70
0
71
1
340
360
0
GROUP
5
3AC
330
414
100
AcDbGroup
300

70
0
71
1
340
360
340
360
340
360
340
360
0
GROUP
5
3AD
330
414
100
AcDbGroup
300

70
0
71
1
340
360
340
360
0
GROUP
5
3A8
330
414
100
AcDbGroup
300

70
0
71
1
340
6C
340
6E
340
70
340
72
340
73
340
74
340
75
340
76
340
77
340
78
340
79
340
7A
340
7B
340
7C
340
7D
340
7E
340
7F
340
80
340
81
340
82
340
84
340
85
340
86
340
87
340
88
340
89
340
8A
340
8B
340
8C
340
8D
340
8E
340
8F
340
90
340
91
340
92
340
93
340
94
340
95
340
96
340
97
340
98
340
99
340
9A
340
9B
340
9C
340
9D
340
9E
340
9F
340
A0
340
A1
340
A2
340
A3
340
A4
340
A5
340
A6
340
A7
340
A8
340
A9
340
AA
340
AB
340
AC
340
AD
340
AE
340
AF
340
B0
340
B1
340
B2
340
B3
340
B4
340
B5
340
B6
340
B7
340
B8
340
B9
340
BA
340
BB
340
BC
340
BD
340
BE
340
BF
340
C0
340
C1
340
C2
340
C3
340
C4
340
C5
340
C6
340
C7
340
C8
340
C9
340
CB
340
CD
340
CE
340
CF
340
D0
340
D1
340
D2
340
D3
340
D4
340
D5
340
D6
340
D7
340
D8
340
D9
340
DA
340
DB
340
DC
340
DD
340
DE
340
DF
340
E0
340
E1
340
E2
340
E3
340
E4
340
E5
340
E6
340
E7
340
E8
340
E9
340
EA
340
EB
340
EC
340
ED
340
EE
340
EF
340
F0
340
F1
340
F2
340
F3
340
F4
340
F5
340
F6
340
F7
340
F8
340
F9
340
FA
340
FB
340
FC
340
FD
340
FE
340
FF
340
100
340
101
340
102
340
103
340
104
340
105
340
106
340
107
340
108
340
109
340
10A
340
10B
340
10C
340
10D
340
10E
340
10F
340
110
340
111
340
112
340
113
340
114
340
115
340
116
340
117
340
118
340
119
340
11A
340
11B
340
11C
340
11D
340
11E
340
11F
340
120
340
121
340
122
340
123
340
124
340
125
340
126
340
127
340
128
340
129
340
12A
340
12B
340
12C
340
12D
340
12E
340
12F
340
130
340
131
340
132
340
133
340
134
340
135
340
136
340
137
340
138
340
139
340
13A
340
13B
340
13C
340
13D
340
13E
340
13F
340
140
340
141
340
142
340
143
340
144
340
145
340
146
340
147
340
148
340
149
340
14A
340
14B
340
14C
340
14D
340
14E
340
14F
340
150
340
151
340
152
340
153
340
154
340
155
340
156
340
157
340
158
340
159
340
15A
340
15B
340
15C
340
15D
340
15E
340
15F
340
160
340
161
340
162
340
163
340
164
340
165
340
166
340
167
340
168
340
169
340
16A
340
16B
340
16C
340
16D
340
16E
340
16F
340
170
340
171
340
172
340
173
340
174
340
175
340
176
340
177
340
178
340
179
340
17A
340
17B
340
17C
340
17D
340
17E
340
17F
340
180
340
181
340
182
340
183
340
184
340
185
340
186
340
187
340
188
340
189
340
18A
340
18B
340
18C
340
18D
340
18E
340
18F
340
190
340
191
340
192
340
193
340
194
340
195
340
196
340
197
340
198
340
199
340
19A
340
19B
340
19C
340
19D
340
19E
340
19F
340
1A0
340
1A1
340
1A2
340
1A4
340
1A5
340
1A6
340
1A7
340
1A8
340
1A9
340
1AA
340
1AB
340
1AC
340
1AD
340
1AE
340
1AF
340
1B0
340
1B1
340
1B2
340
1B3
340
1B4
340
1B5
340
1B6
340
1B7
340
1B8
340
1B9
340
1BA
340
1BB
340
1BC
340
1BD
340
1BE
340
1BF
340
1C0
340
1C1
340
1C2
340
1C3
340
1C4
340
1C5
340
1C6
340
1C7
340
1C8
340
1C9
340
1CA
340
1CB
340
1CC
340
1CD
340
1CE
340
1CF
340
1D0
340
1D1
340
1D2
340
1D3
340
1D4
340
1D5
340
1D6
340
1D7
340
1D8
340
1D9
340
1DA
340
1DB
340
1DC
340
1DD
340
1DE
340
1DF
340
1E0
340
1E1
340
1E2
340
1E3
340
1E4
340
1E5
340
1E6
340
1E7
340
1E8
340
1E9
340
1EA
340
1EB
340
1EC
340
1ED
340
1EE
340
1EF
340
1F0
340
1F1
340
1F2
340
1F3
340
1F4
340
1F5
340
1F6
340
1F7
340
1F8
340
1F9
340
1FA
340
1FB
340
1FC
340
1FD
340
1FE
340
1FF
340
200
340
201
340
202
340
203
340
204
340
205
340
206
340
207
340
208
340
209
340
20A
340
20B
340
20C
340
20D
340
20E
340
20F
340
210
340
211
340
212
340
213
340
214
340
215
340
216
340
217
340
218
340
219
340
21A
340
21B
340
21C
340
21D
340
21E
340
21F
340
220
340
221
340
222
340
223
340
224
340
225
340
226
340
227
340
228
340
229
340
22A
340
22B
340
22C
340
22D
340
22E
340
22F
340
230
340
231
340
232
340
233
340
234
340
235
340
236
340
237
340
238
340
239
340
23A
340
23B
340
23C
340
23D
340
23E
340
23F
340
240
340
241
340
242
340
243
340
244
340
245
340
246
340
247
340
248
340
249
340
24A
340
24B
340
24C
340
24D
340
24E
340
24F
340
250
340
251
340
252
340
253
340
254
340
255
340
256
340
257
340
258
340
259
340
25A
340
25B
340
25C
340
25D
340
25E
340
25F
340
260
340
261
340
262
340
263
340
264
340
265
340
266
340
267
340
268
340
269
340
26A
340
26B
340
26C
340
26D
340
26E
340
26F
340
270
340
271
340
272
340
273
340
274
340
275
340
276
340
277
340
278
340
279
340
27A
340
27B
340
27C
340
27D
340
27E
340
27F
340
280
340
281
340
282
340
283
340
284
340
285
340
286
340
287
340
288
340
289
340
28A
340
28B
340
28C
340
28D
340
28E
340
28F
340
290
340
291
340
292
340
293
340
294
340
295
340
296
340
297
340
298
340
299
340
29A
340
29B
340
29C
340
29D
340
29E
340
29F
340
2A0
340
2A1
340
2A2
340
2A3
340
2A4
340
2A5
340
2A6
340
2A7
340
2A8
340
2A9
340
2AA
340
2AB
340
2AC
340
2AD
340
2AE
340
2AF
340
2B0
340
2B1
340
2B2
340
2B3
340
2B4
340
2B5
340
2B6
340
2B7
340
2B8
340
2B9
340
2BA
340
2BB
340
2BC
340
2BD
340
2BE
340
2BF
340
2C0
340
2C1
340
2C2
340
2C3
340
2C4
340
2C5
340
2C6
340
2C7
340
2C8
340
2C9
340
2CA
340
2CB
340
2CC
340
2CD
340
2CE
340
2CF
340
2D0
340
2D1
340
2D2
340
2D3
340
2D4
340
2D5
340
2D6
340
2D7
340
2D8
340
2D9
340
2DA
340
2DB
340
2DC
340
2DD
340
2DE
340
2DF
340
2E0
340
2E1
340
2E2
340
2E3
340
2E4
340
2E5
340
2E6
340
2E7
340
2E8
340
2E9
340
2EA
340
2EB
340
2EC
340
2ED
340
2EE
340
2EF
340
2F0
340
2F1
340
2F2
340
2F3
340
2F4
340
2F5
340
2F6
340
2F7
340
2F8
340
2F9
340
2FA
340
2FB
340
2FC
340
2FD
340
2FE
340
2FF
340
300
340
301
340
302
340
303
340
304
340
305
340
306
340
307
340
308
340
309
340
30A
340
30B
340
30C
340
30D
340
30E
340
30F
340
310
340
311
340
312
340
313
340
314
340
315
340
316
340
317
340
318
340
319
340
31A
340
31B
340
31C
340
31D
340
31E
340
31F
340
320
340
321
340
322
340
323
340
324
340
325
340
326
340
327
340
328
340
329
340
32A
340
32B
340
32C
340
32D
340
32E
340
32F
340
330
340
331
340
332
340
333
340
334
340
335
340
336
340
337
340
338
340
339
340
33A
340
33B
340
33C
340
33D
340
33E
340
33F
340
340
340
341
340
342
340
343
340
344
340
345
340
346
340
347
340
348
340
349
340
34A
340
34B
340
34C
340
34D
340
34E
340
34F
340
350
340
351
340
352
340
353
340
354
340
355
340
356
340
357
340
358
340
359
340
35A
340
35B
340
6E
340
11F
340
120
340
121
340
122
340
123
340
124
340
125
340
126
340
127
340
128
340
129
340
12A
340
12B
340
12C
340
12D
340
12E
340
12F
340
130
340
131
340
132
340
133
340
134
340
135
340
136
340
137
340
138
340
139
340
13A
340
13B
340
13C
340
13D
340
13E
340
13F
340
140
340
141
340
142
340
143
340
144
340
145
340
146
340
147
340
148
340
149
340
14A
340
14B
340
14C
340
14D
340
14E
340
14F
340
150
340
151
340
152
340
153
340
154
340
155
340
156
340
157
340
158
340
159
340
15A
340
15B
340
15C
340
15D
340
15E
340
15F
340
160
340
161
340
162
340
163
340
164
340
165
340
166
340
167
340
168
340
169
340
16A
340
16B
340
16C
340
16D
340
16E
340
16F
340
170
340
171
340
172
340
173
340
174
340
175
340
176
340
177
340
178
340
179
340
17A
340
17B
340
17C
340
17D
340
17E
340
17F
340
180
340
181
340
182
340
183
340
184
340
185
340
186
340
187
340
188
340
189
340
18A
340
18B
340
18C
340
18D
340
18E
340
18F
340
190
340
191
340
192
340
193
340
194
340
195
340
196
340
197
340
198
340
199
340
19A
340
19B
340
19C
340
19D
340
19E
340
2E2
340
2E3
340
2E4
340
2E5
340
2E6
340
2E7
340
2E8
340
2E9
340
2EA
340
2EB
340
2EC
340
2ED
340
2EE
340
2EF
340
2F0
340
2F1
340
2F2
340
2F3
340
2F4
340
2F5
340
2F6
340
2F7
340
2F8
340
2F9
340
2FA
340
2FB
340
2FC
340
2FD
340
2FE
340
2FF
340
300
340
301
340
302
340
303
340
304
340
305
340
306
340
307
340
308
340
309
340
30A
340
30B
340
30C
340
30D
340
30E
340
30F
340
310
340
311
340
312
340
313
340
314
340
315
340
316
340
317
340
318
340
319
340
31A
340
31B
340
31C
340
31D
340
31E
340
31F
340
320
340
321
340
322
340
323
340
324
340
325
340
326
340
327
340
328
340
329
340
32A
340
32B
340
32C
340
32D
340
32E
340
32F
340
330
340
331
340
332
340
333
340
334
340
335
340
336
340
337
340
338
340
339
340
33A
340
33B
340
33C
340
33D
340
33E
340
33F
340
340
340
341
340
342
340
343
340
344
340
345
340
346
340
347
340
348
340
349
340
34A
340
34B
340
34C
340
34D
340
34E
340
34F
340
350
340
351
340
352
340
353
340
354
340
355
340
356
340
357
340
358
340
359
340
35A
340
35B
340
132
340
133
340
134
340
135
340
136
340
137
340
138
340
139
340
13A
340
13B
340
13C
340
13D
340
13E
340
13F
340
140
340
141
340
142
340
143
340
144
340
145
340
146
340
147
340
148
340
149
340
14A
340
14B
340
14C
340
14D
340
14E
340
14F
340
150
340
151
340
152
340
153
340
154
340
155
340
156
340
157
340
158
340
159
340
15A
340
15B
340
15C
340
15D
340
15E
340
15F
340
160
340
161
340
162
340
163
340
164
340
165
340
166
340
167
340
168
340
169
340
16A
340
16B
340
16C
340
16D
340
16E
340
16F
340
170
340
171
340
172
340
173
340
174
340
175
340
176
340
177
340
178
340
179
340
17A
340
17B
340
17C
340
17D
340
17E
340
17F
340
180
340
181
340
182
340
183
340
184
340
185
340
186
340
187
340
188
340
189
340
18A
340
18B
340
18C
340
18D
340
18E
340
18F
340
190
340
191
340
192
340
193
340
194
340
195
340
196
340
197
340
198
340
199
340
19A
340
19B
340
19C
340
19D
340
2E7
340
2E8
340
2E9
340
2EA
340
2EB
340
2EC
340
2ED
340
2EE
340
2EF
340
2F0
340
2F1
340
2F2
340
2F3
340
2F4
340
2F5
340
2F6
340
2F7
340
2F8
340
2F9
340
2FA
340
2FB
340
2FC
340
2FD
340
2FE
340
2FF
340
300
340
301
340
302
340
303
340
304
340
305
340
30F
340
310
340
311
340
312
340
313
340
314
340
315
340
316
340
317
340
318
340
319
340
31A
340
31B
340
31C
340
31D
340
31E
340
31F
340
320
340
321
340
322
340
323
340
324
340
325
340
326
340
327
340
328
340
329
340
32A
340
32B
340
32C
340
32D
340
32E
340
32F
340
330
340
331
340
332
340
333
340
334
340
335
340
336
340
337
340
33A
340
33B
340
33C
340
33D
340
33E
340
33F
340
340
340
341
340
342
340
343
340
344
340
345
340
346
340
347
340
348
340
349
340
34A
340
34B
340
34C
340
34D
340
34E
340
34F
340
350
340
351
340
352
340
353
340
354
340
355
340
356
340
357
340
358
340
359
340
35A
340
35B
340
360
340
360
340
360
340
360
340
360
340
360
340
360
340
35C
340
360
340
377
340
381
340
132
340
133
340
134
340
135
340
136
340
137
340
138
340
139
340
13A
340
13B
340
13C
340
13D
340
13E
340
13F
340
140
340
141
340
142
340
143
340
144
340
145
340
146
340
147
340
148
340
149
340
14A
340
14B
340
14C
340
14D
340
14E
340
14F
340
150
340
151
340
152
340
153
340
154
340
155
340
156
340
157
340
158
340
159
340
15A
340
15B
340
15C
340
15D
340
15E
340
15F
340
160
340
161
340
162
340
163
340
164
340
165
340
166
340
167
340
168
340
169
340
16A
340
16B
340
16C
340
16D
340
16E
340
16F
340
170
340
171
340
172
340
173
340
174
340
175
340
176
340
177
340
178
340
179
340
17A
340
17B
340
17C
340
17D
340
17E
340
17F
340
180
340
181
340
182
340
183
340
184
340
185
340
186
340
187
340
188
340
189
340
18A
340
18B
340
18C
340
18D
340
18E
340
18F
340
190
340
191
340
192
340
193
340
194
340
195
340
196
340
197
340
198
340
199
340
19A
340
19B
340
19C
340
19D
340
2E7
340
2E8
340
2E9
340
2EA
340
2EB
340
2EC
340
2ED
340
2EE
340
2EF
340
2F0
340
2F1
340
2F2
340
2F3
340
2F4
340
2F5
340
2F6
340
2F7
340
2F8
340
2F9
340
2FA
340
2FB
340
2FC
340
2FD
340
2FE
340
2FF
340
300
340
301
340
302
340
303
340
304
340
305
340
30F
340
310
340
311
340
312
340
313
340
314
340
315
340
316
340
317
340
318
340
319
340
31A
340
31B
340
31C
340
31D
340
31E
340
31F
340
320
340
321
340
322
340
323
340
324
340
325
340
326
340
327
340
328
340
329
340
32A
340
32B
340
32C
340
32D
340
32E
340
32F
340
330
340
331
340
332
340
333
340
334
340
335
340
336
340
337
340
33A
340
33B
340
33C
340
33D
340
33E
340
33F
340
340
340
341
340
342
340
343
340
344
340
345
340
346
340
347
340
348
340
349
340
34A
340
34B
340
34C
340
34D
340
34E
340
34F
340
350
340
351
340
352
340
353
340
354
340
355
340
356
340
357
340
358
340
359
340
35A
340
35B
340
360
340
360
340
360
340
360
340
360
340
360
340
360
340
35C
340
360
340
36C
340
377
340
381
340
38B
340
395
340
39F
0
GROUP
5
3A9
330
414
100
AcDbGroup
300

70
0
71
1
340
6E
340
11F
340
120
340
121
340
122
340
123
340
124
340
125
340
126
340
127
340
128
340
129
340
12A
340
12B
340
12C
340
12D
340
12E
340
12F
340
130
340
131
340
132
340
133
340
134
340
135
340
136
340
137
340
138
340
139
340
13A
340
13B
340
13C
340
13D
340
13E
340
13F
340
140
340
141
340
142
340
143
340
144
340
145
340
146
340
147
340
148
340
149
340
14A
340
14B
340
14C
340
14D
340
14E
340
14F
340
150
340
151
340
152
340
153
340
154
340
155
340
156
340
157
340
158
340
159
340
15A
340
15B
340
15C
340
15D
340
15E
340
15F
340
160
340
161
340
162
340
163
340
164
340
165
340
166
340
167
340
168
340
169
340
16A
340
16B
340
16C
340
16D
340
16E
340
16F
340
170
340
171
340
172
340
173
340
174
340
175
340
176
340
177
340
178
340
179
340
17A
340
17B
340
17C
340
17D
340
17E
340
17F
340
180
340
181
340
182
340
183
340
184
340
185
340
186
340
187
340
188
340
189
340
18A
340
18B
340
18C
340
18D
340
18E
340
18F
340
190
340
191
340
192
340
193
340
194
340
195
340
196
340
197
340
198
340
199
340
19A
340
19B
340
19C
340
19D
340
19E
340
2E2
340
2E3
340
2E4
340
2E5
340
2E6
340
2E7
340
2E8
340
2E9
340
2EA
340
2EB
340
2EC
340
2ED
340
2EE
340
2EF
340
2F0
340
2F1
340
2F2
340
2F3
340
2F4
340
2F5
340
2F6
340
2F7
340
2F8
340
2F9
340
2FA
340
2FB
340
2FC
340
2FD
340
2FE
340
2FF
340
300
340
301
340
302
340
303
340
304
340
305
340
306
340
307
340
308
340
309
340
30A
340
30B
340
30C
340
30D
340
30E
340
30F
340
310
340
311
340
312
340
313
340
314
340
315
340
316
340
317
340
318
340
319
340
31A
340
31B
340
31C
340
31D
340
31E
340
31F
340
320
340
321
340
322
340
323
340
324
340
325
340
326
340
327
340
328
340
329
340
32A
340
32B
340
32C
340
32D
340
32E
340
32F
340
330
340
331
340
332
340
333
340
334
340
335
340
336
340
337
340
338
340
339
340
33A
340
33B
340
33C
340
33D
340
33E
340
33F
340
340
340
341
340
342
340
343
340
344
340
345
340
346
340
347
340
348
340
349
340
34A
340
34B
340
34C
340
34D
340
34E
340
34F
340
350
340
351
340
352
340
353
340
354
340
355
340
356
340
357
340
358
340
359
340
35A
340
35B
340
132
340
133
340
134
340
135
340
136
340
137
340
138
340
139
340
13A
340
13B
340
13C
340
13D
340
13E
340
13F
340
140
340
141
340
142
340
143
340
144
340
145
340
146
340
147
340
148
340
149
340
14A
340
14B
340
14C
340
14D
340
14E
340
14F
340
150
340
151
340
152
340
153
340
154
340
155
340
156
340
157
340
158
340
159
340
15A
340
15B
340
15C
340
15D
340
15E
340
15F
340
160
340
161
340
162
340
163
340
164
340
165
340
166
340
167
340
168
340
169
340
16A
340
16B
340
16C
340
16D
340
16E
340
16F
340
170
340
171
340
172
340
173
340
174
340
175
340
176
340
177
340
178
340
179
340
17A
340
17B
340
17C
340
17D
340
17E
340
17F
340
180
340
181
340
182
340
183
340
184
340
185
340
186
340
187
340
188
340
189
340
18A
340
18B
340
18C
340
18D
340
18E
340
18F
340
190
340
191
340
192
340
193
340
194
340
195
340
196
340
197
340
198
340
199
340
19A
340
19B
340
19C
340
19D
340
2E7
340
2E8
340
2E9
340
2EA
340
2EB
340
2EC
340
2ED
340
2EE
340
2EF
340
2F0
340
2F1
340
2F2
340
2F3
340
2F4
340
2F5
340
2F6
340
2F7
340
2F8
340
2F9
340
2FA
340
2FB
340
2FC
340
2FD
340
2FE
340
2FF
340
300
340
301
340
302
340
303
340
304
340
305
340
30F
340
310
340
311
340
312
340
313
340
314
340
315
340
316
340
317
340
318
340
319
340
31A
340
31B
340
31C
340
31D
340
31E
340
31F
340
320
340
321
340
322
340
323
340
324
340
325
340
326
340
327
340
328
340
329
340
32A
340
32B
340
32C
340
32D
340
32E
340
32F
340
330
340
331
340
332
340
333
340
334
340
335
340
336
340
337
340
33A
340
33B
340
33C
340
33D
340
33E
340
33F
340
340
340
341
340
342
340
343
340
344
340
345
340
346
340
347
340
348
340
349
340
34A
340
34B
340
34C
340
34D
340
34E
340
34F
340
350
340
351
340
352
340
353
340
354
340
355
340
356
340
357
340
358
340
359
340
35A
340
35B
340
360
340
360
340
360
340
360
340
360
340
360
340
360
340
35C
340
360
340
377
340
381
0
GROUP
5
3AB
330
414
100
AcDbGroup
300

70
0
71
1
340
134
340
135
340
136
340
137
340
138
340
139
340
13A
340
13B
340
13C
340
13D
340
13E
340
13F
340
140
340
141
340
142
340
143
340
144
340
145
340
146
340
147
340
148
340
149
340
14A
340
14B
340
14C
340
14D
340
14E
340
14F
340
150
340
151
340
152
340
153
340
154
340
155
340
156
340
157
340
158
340
159
340
15A
340
15B
340
15C
340
15D
340
15E
340
15F
340
160
340
161
340
162
340
163
340
164
340
165
340
166
340
167
340
168
340
169
340
16A
340
16B
340
16C
340
16D
340
16E
340
16F
340
170
340
171
340
172
340
173
340
174
340
175
340
176
340
177
340
178
340
179
340
17A
340
17B
340
17C
340
17D
340
17E
340
17F
340
180
340
181
340
182
340
183
340
184
340
185
340
186
340
187
340
188
340
189
340
18A
340
18B
340
18C
340
18D
340
18E
340
18F
340
190
340
191
340
192
340
193
340
194
340
195
340
196
340
197
340
198
340
199
340
19A
340
19B
340
19C
340
19D
340
2E7
340
2E8
340
2E9
340
2EA
340
2EB
340
2EC
340
2ED
340
2EE
340
2EF
340
2F0
340
2F1
340
2F2
340
2F3
340
2F4
340
2F5
340
2F6
340
2F7
340
2F8
340
2F9
340
2FA
340
2FB
340
2FC
340
2FD
340
2FE
340
2FF
340
300
340
301
340
302
340
303
340
304
340
305
340
30F
340
310
340
311
340
312
340
313
340
314
340
315
340
316
340
317
340
318
340
319
340
31A
340
31B
340
31C
340
31D
340
31E
340
31F
340
320
340
321
340
322
340
323
340
324
340
325
340
326
340
327
340
328
340
329
340
32A
340
32B
340
32C
340
32D
340
32E
340
32F
340
330
340
331
340
332
340
333
340
334
340
335
340
336
340
337
340
33A
340
33B
340
33C
340
33D
340
33E
340
33F
340
340
340
341
340
342
340
343
340
344
340
345
340
346
340
347
340
348
340
349
340
34A
340
34B
340
34C
340
34D
340
34E
340
34F
340
350
340
351
340
352
340
353
340
354
340
355
340
356
340
357
340
358
340
359
340
35A
340
35B
0
GROUP
5
3AA
330
414
100
AcDbGroup
300

70
0
71
1
340
132
340
133
0
MLINESTYLE
5
18
330
415
100
AcDbMlineStyle
2
Standard
70
0
3

62
256
51
90
52
90
71
2
49
-0.5
62
256
6
ByLayer
49
0.5
62
256
6
ByLayer
0
RASTERVARIABLES
5
3ff
330

100
AcDbRasterVariables
90
0
70
1
71
1
72
1
0
ENDSEC
0
EOF
