0
SECTION
2
HEADER
9
$ACADVER
1
AC1015
9
$DWGCODEPAGE
3
ANSI_1252
9
$HANDSEED
5
3d1
9
$ANGBASE
50
0
9
$ANGDIR
70
0
9
$ATTMODE
70
1
9
$AUNITS
70
0
9
$AUPREC
70
0
9
$CECOLOR
62
256
9
$CELTSCALE
40
1
9
$CELTYPE
6
ByLayer
9
$CELWEIGHT
370
18
9
$CLAYER
8
0
9
$CMLJUST
70
0
9
$CMLSCALE
40
1
9
$CMLSTYLE
2
Standard
9
$DIMSTYLE
2
Standard
9
$TEXTSIZE
40
0.2
9
$TEXTSTYLE
7
Standard
9
$LUNITS
70
2
9
$LUPREC
70
4
9
$EXTNAMES
290
1
9
$INSUNITS
70
4
9
$LTSCALE
40
1
9
$LWDISPLAY
290
1
9
$PDMODE
70
0
9
$PDSIZE
40
0
9
$PLINEGEN
70
0
0
ENDSEC
0
SECTION
2
CLASSES
0
CLASS
1
RASTERVARIABLES
2
AcDbRasterVariables
3
ISM
90
0
280
0
281
0
0
ENDSEC
0
SECTION
2
TABLES
0
TABLE
2
VPORT
5
3c7
100
AcDbSymbolTable
0
VPORT
5
1
100
AcDbSymbolTableRecord
100
AcDbViewportTableRecord
2
*Active
70
0
10
0
20
0
11
1
21
1
12
-1
22
1
13
0
23
0
14
0.5
24
0.5
15
10
25
10
16
0
26
0
36
1
17
0
27
0
37
0
0
ENDTAB
0
TABLE
2
LTYPE
5
3c8
100
AcDbSymbolTable
0
LTYPE
5
14
100
AcDbSymbolTableRecord
100
AcDbLinetypeTableRecord
70
0
2
ByBlock
3

72
65
73
0
40
0
0
LTYPE
5
15
100
AcDbSymbolTableRecord
100
AcDbLinetypeTableRecord
70
0
2
ByLayer
3

72
65
73
0
40
0
0
LTYPE
5
16
100
AcDbSymbolTableRecord
100
AcDbLinetypeTableRecord
70
0
2
CONTINUOUS
3
Solid line
72
65
73
0
40
0
0
LTYPE
5
6A
100
AcDbSymbolTableRecord
100
AcDbLinetypeTableRecord
70
0
2
CENTER
3
____ _ ____ _ ____ _ ____
72
65
73
4
40
47.5
49
22
74
0
49
-8.5
74
0
49
8.5
74
0
49
-8.5
74
0
0
LTYPE
5
6B
100
AcDbSymbolTableRecord
100
AcDbLinetypeTableRecord
70
0
2
DASHED
3
__ __ __ __ __ __ __ __ __
72
65
73
2
40
25.72
49
12.86
74
0
49
-12.86
74
0
0
ENDTAB
0
TABLE
2
LAYER
5
3c9
100
AcDbSymbolTable
0
LAYER
5
10
100
AcDbSymbolTableRecord
100
AcDbLayerTableRecord
2
0
70
0
62
7
6
CONTINUOUS
290
1
370
-3
390
0
0
LAYER
5
6D
100
AcDbSymbolTableRecord
100
AcDbLayerTableRecord
2
80
70
0
62
-6
6
CONTINUOUS
290
1
370
-3
390
0
0
LAYER
5
6F
100
AcDbSymbolTableRecord
100
AcDbLayerTableRecord
2
81
70
0
62
-3
6
CONTINUOUS
290
1
370
-3
390
0
0
LAYER
5
71
100
AcDbSymbolTableRecord
100
AcDbLayerTableRecord
2
4
70
0
62
-2
6
CENTER
290
1
370
-3
390
0
0
LAYER
5
75
100
AcDbSymbolTableRecord
100
AcDbLayerTableRecord
2
2
70
0
62
7
6
CONTINUOUS
290
1
370
-3
390
0
0
LAYER
5
7A
100
AcDbSymbolTableRecord
100
AcDbLayerTableRecord
2
1
70
0
62
4
6
CONTINUOUS
290
1
370
-3
390
0
0
LAYER
5
3b2
100
AcDbSymbolTableRecord
100
AcDbLayerTableRecord
2
SK4
70
0
62
2
6
CENTER
290
1
370
-3
390
0
0
LAYER
5
3b3
100
AcDbSymbolTableRecord
100
AcDbLayerTableRecord
2
SK1
70
0
62
4
6
CONTINUOUS
290
1
370
-3
390
0
0
LAYER
5
3b4
100
AcDbSymbolTableRecord
100
AcDbLayerTableRecord
2
SK6
70
0
62
5
6
CONTINUOUS
290
1
370
-3
390
0
0
ENDTAB
0
TABLE
2
STYLE
5
3ca
100
AcDbSymbolTable
0
STYLE
5
11
100
AcDbSymbolTableRecord
100
AcDbTextStyleTableRecord
2
Standard
3
txt
70
0
71
0
40
0
41
1
42
0
50
0
0
STYLE
5
334
100
AcDbSymbolTableRecord
100
AcDbTextStyleTableRecord
2
iso_b_vert
3
simplex.shx
70
0
71
0
40
0
41
1
42
0
50
0
0
STYLE
5
335
100
AcDbSymbolTableRecord
100
AcDbTextStyleTableRecord
2
DWGDirectTextStyle
3
simplex
70
0
71
0
40
0
41
1
42
0
50
0
0
ENDTAB
0
TABLE
2
DIMSTYLE
5
3cb
100
AcDbSymbolTable
100
AcDbDimStyleTable
0
DIMSTYLE
105
27
100
AcDbSymbolTableRecord
100
AcDbDimStyleTableRecord
2
Standard
70
0
3
<>
41
0.18
42
0.0625
44
0.18
140
0.18
147
0.09
73
0
74
0
77
1
271
2
275
0
278
52
280
0
340
11
0
ENDTAB
0
TABLE
2
VIEW
5
3cc
100
AcDbSymbolTable
0
ENDTAB
0
TABLE
2
UCS
5
3cd
100
AcDbSymbolTable
0
ENDTAB
0
TABLE
2
APPID
5
3ce
100
AcDbSymbolTable
0
APPID
5
12
100
AcDbSymbolTableRecord
100
AcDbRegAppTableRecord
2
ACAD
70
0
0
ENDTAB
0
TABLE
2
BLOCK_RECORD
5
3cf
100
AcDbSymbolTable
0
BLOCK_RECORD
5
1F
100
AcDbSymbolTableRecord
100
AcDbBlockTableRecord
2
*Model_Space
340
0
70
0
0
BLOCK_RECORD
5
1B
100
AcDbSymbolTableRecord
100
AcDbBlockTableRecord
2
*Paper_Space
340
0
70
0
0
BLOCK_RECORD
5
23
100
AcDbSymbolTableRecord
100
AcDbBlockTableRecord
2
*Paper_Space0
340
0
70
0
0
BLOCK_RECORD
5
338
100
AcDbSymbolTableRecord
100
AcDbBlockTableRecord
2
DimnDraft3D1
340
0
70
0
0
BLOCK_RECORD
5
342
100
AcDbSymbolTableRecord
100
AcDbBlockTableRecord
2
DimnDraft3D2
340
0
70
0
0
BLOCK_RECORD
5
34C
100
AcDbSymbolTableRecord
100
AcDbBlockTableRecord
2
DimnDraft3D3
340
0
70
0
0
ENDTAB
0
ENDSEC
0
SECTION
2
BLOCKS
0
BLOCK
5
20
100
AcDbEntity
8
0
100
AcDbBlockBegin
2
*Model_Space
70
0
10
0
20
0
30
0
3
*Model_Space
0
ENDBLK
5
21
100
AcDbEntity
8
0
100
AcDbBlockEnd
0
BLOCK
5
1C
100
AcDbEntity
8
0
100
AcDbBlockBegin
2
*Paper_Space
70
0
10
0
20
0
30
0
3
*Paper_Space
0
ENDBLK
5
1D
100
AcDbEntity
8
0
100
AcDbBlockEnd
0
BLOCK
5
24
100
AcDbEntity
8
0
100
AcDbBlockBegin
2
*Paper_Space0
70
0
10
0
20
0
30
0
3
*Paper_Space0
0
ENDBLK
5
25
100
AcDbEntity
8
0
100
AcDbBlockEnd
0
BLOCK
5
33F
100
AcDbEntity
8
0
100
AcDbBlockBegin
2
DimnDraft3D1
70
0
10
0
20
0
30
0
3
DimnDraft3D1
0
MTEXT
5
339
100
AcDbEntity
8
2
62
256
6
ByLayer
370
18
48
1
60
0
100
AcDbMText
10
38.704858
20
0.313213
30
0
210
0
220
0
230
1
1
\W0.3160; 
40
3
41
0
44
1.084337
50
90
71
7
72
5
7
iso_b_vert
0
LINE
5
33A
100
AcDbEntity
8
2
62
256
6
ByLayer
370
13
48
1
60
0
100
AcDbLine
10
13
20
19.75
30
0
11
41.454858
21
19.75
31
0
39
0
210
0
220
0
230
1
0
LINE
5
33B
100
AcDbEntity
8
2
62
256
6
ByLayer
370
13
48
1
60
0
100
AcDbLine
10
12.470402
20
-19.755152
30
0
11
41.454858
21
-19.755152
31
0
39
0
210
0
220
0
230
1
0
LINE
5
33C
100
AcDbEntity
8
2
62
256
6
ByLayer
370
13
48
1
60
0
100
AcDbLine
10
39.454858
20
19.75
30
0
11
39.454858
21
-19.755152
31
0
39
0
210
0
220
0
230
1
0
SOLID
5
33D
100
AcDbEntity
8
2
62
256
6
ByLayer
370
13
48
1
60
0
100
AcDbTrace
10
39.454858
20
19.75
30
0
11
39.872855
21
16.575002
31
0
12
39.036861
22
16.574998
32
0
13
39.454858
23
19.75
33
0
39
0
210
0
220
0
230
1
0
SOLID
5
33E
100
AcDbEntity
8
2
62
256
6
ByLayer
370
13
48
1
60
0
100
AcDbTrace
10
39.454858
20
-19.755152
30
0
11
39.036861
21
-16.580154
31
0
12
39.872855
22
-16.580151
32
0
13
39.454858
23
-19.755152
33
0
39
0
210
0
220
0
230
1
0
ENDBLK
5
340
100
AcDbEntity
8
0
100
AcDbBlockEnd
0
BLOCK
5
349
100
AcDbEntity
8
0
100
AcDbBlockBegin
2
DimnDraft3D2
70
0
10
0
20
0
30
0
3
DimnDraft3D2
0
MTEXT
5
343
100
AcDbEntity
8
2
62
256
6
ByLayer
370
18
48
1
60
0
100
AcDbMText
10
19.858585
20
8.930861
30
0
210
0
220
0
230
1
1
\W0.6258;84%%d
40
3
41
0
44
1.084337
50
48.0000000000002
71
7
72
5
7
iso_b_vert
0
LINE
5
344
100
AcDbEntity
8
2
62
256
6
ByLayer
370
13
48
1
60
0
100
AcDbLine
10
11.748878
20
12.641666
30
0
11
12.733937
21
3.269461
31
0
39
0
210
0
220
0
230
1
0
LINE
5
345
100
AcDbEntity
8
2
62
256
6
ByLayer
370
13
48
1
60
0
100
AcDbLine
10
13
20
19.75
30
0
11
27.573081
21
19.75
31
0
39
0
210
0
220
0
230
1
0
ARC
5
346
100
AcDbEntity
8
2
62
256
6
ByLayer
370
13
48
1
60
0
100
AcDbCircle
39
0
10
11.001762
20
19.75
30
0
40
14.5713186536354
210
0
220
0
230
1
100
AcDbArc
50
276
51
0
0
SOLID
5
347
100
AcDbEntity
8
2
62
256
6
ByLayer
370
13
48
1
60
0
100
AcDbTrace
10
12.52488
20
5.258505
30
0
11
15.593666
21
6.173865
31
0
12
15.726016
22
5.348415
32
0
13
12.52488
23
5.258505
33
0
39
0
210
0
220
0
230
1
0
SOLID
5
348
100
AcDbEntity
8
2
62
256
6
ByLayer
370
13
48
1
60
0
100
AcDbTrace
10
25.573081
20
19.75
30
0
11
25.818273
21
16.557005
31
0
12
24.98351
22
16.60234
32
0
13
25.573081
23
19.75
33
0
39
0
210
0
220
0
230
1
0
ENDBLK
5
34A
100
AcDbEntity
8
0
100
AcDbBlockEnd
0
BLOCK
5
353
100
AcDbEntity
8
0
100
AcDbBlockBegin
2
DimnDraft3D3
70
0
10
0
20
0
30
0
3
DimnDraft3D3
0
MTEXT
5
34D
100
AcDbEntity
8
2
62
256
6
ByLayer
370
18
48
1
60
0
100
AcDbMText
10
3.557895
20
44.25
30
0
210
0
220
0
230
1
1
\W0.6140;11.0
40
3
41
0
44
1.084337
50
0
71
7
72
5
7
iso_b_vert
0
LINE
5
34E
100
AcDbEntity
8
2
62
256
6
ByLayer
370
13
48
1
60
0
100
AcDbLine
10
0
20
2
30
0
11
0
21
45.5
31
0
39
0
210
0
220
0
230
1
0
LINE
5
34F
100
AcDbEntity
8
2
62
256
6
ByLayer
370
13
48
1
60
0
100
AcDbLine
10
11
20
21.75
30
0
11
11
21
45.5
31
0
39
0
210
0
220
0
230
1
0
LINE
5
350
100
AcDbEntity
8
2
62
256
6
ByLayer
370
13
48
1
60
0
100
AcDbLine
10
-7.5
20
43.5
30
0
11
18.5
21
43.5
31
0
39
0
210
0
220
0
230
1
0
SOLID
5
351
100
AcDbEntity
8
2
62
256
6
ByLayer
370
13
48
1
60
0
100
AcDbTrace
10
0
20
43.5
30
0
11
-3.174998
21
43.082003
31
0
12
-3.175002
22
43.917997
32
0
13
0
23
43.5
33
0
39
0
210
0
220
0
230
1
0
SOLID
5
352
100
AcDbEntity
8
2
62
256
6
ByLayer
370
13
48
1
60
0
100
AcDbTrace
10
11
20
43.5
30
0
11
14.174998
21
43.917997
31
0
12
14.175002
22
43.082003
32
0
13
11
23
43.5
33
0
39
0
210
0
220
0
230
1
0
ENDBLK
5
354
100
AcDbEntity
8
0
100
AcDbBlockEnd
0
ENDSEC
0
SECTION
2
ENTITIES
0
ARC
5
1B1
100
AcDbEntity
8
1
62
256
6
ByLayer
370
18
48
1
60
0
100
AcDbCircle
39
0
10
-9.001762
20
7.116502
30
0
40
2.99999999999878
210
0
220
0
230
-1
100
AcDbArc
50
0
51
76
0
ARC
5
1B2
100
AcDbEntity
8
1
62
256
6
ByLayer
370
18
48
1
60
0
100
AcDbCircle
39
0
10
2.098238
20
15.216502
30
0
40
0.75
210
0
220
0
230
-1
100
AcDbArc
50
187.5
51
172.5
0
ARC
5
1B3
100
AcDbEntity
8
1
62
256
6
ByLayer
370
18
48
1
60
0
100
AcDbCircle
39
0
10
2.098238
20
15.216502
30
0
40
0.45
210
0
220
0
230
-1
100
AcDbArc
50
187.5
51
172.5
0
ARC
5
1B4
100
AcDbEntity
8
1
62
256
6
ByLayer
370
18
48
1
60
0
100
AcDbCircle
39
0
10
-2.098238
20
15.216502
30
0
40
0.605662432702594
210
0
220
0
230
1
100
AcDbArc
50
7.5
51
352.5
0
CIRCLE
5
1B0
100
AcDbEntity
8
1
62
256
6
ByLayer
370
18
48
1
60
0
100
AcDbCircle
10
2.098238
20
15.216502
30
0
40
0.775
39
0
210
0
220
0
230
-1
0
ELLIPSE
5
1B5
100
AcDbEntity
8
1
62
256
6
ByLayer
370
18
48
1
60
0
100
AcDbEllipse
10
10.70367
20
14.052771
30
0
11
0.0524638725030516
21
-0.499160403687552
31
0
210
0
220
0
230
-1
40
0.086824
41
-0.908084108998739
42
0
0
ELLIPSE
5
1B6
100
AcDbEntity
8
1
62
256
6
ByLayer
370
18
48
1
60
0
100
AcDbEllipse
10
6.580518
20
14.294304
30
0
11
-0.141113425411332
21
1.34260455874717
31
0
210
0
220
0
230
1
40
0.996195
41
1.5707963267949
42
3.07018267576177
0
ELLIPSE
5
1B7
100
AcDbEntity
8
1
62
256
6
ByLayer
370
18
48
1
60
0
100
AcDbEllipse
10
6.364922
20
14.523021
30
0
11
0.0015058263713248
21
-1.35005519305345
31
0
210
0
220
0
230
-1
40
0.996112
41
1.46759190587063
42
2.19892173228054
0
ELLIPSE
5
1B8
100
AcDbEntity
8
1
62
256
6
ByLayer
370
18
48
1
60
0
100
AcDbEllipse
10
11.398366
20
8.116502
30
0
11
0.0017004488872545
21
4.25000007219735
31
0
210
0
220
0
230
-1
40
0.087006
41
-0.907475856766521
42
-0.771402772333963
0
ELLIPSE
5
1B9
100
AcDbEntity
8
1
62
256
6
ByLayer
370
18
48
1
60
0
100
AcDbEllipse
10
6.390855
20
14.27437
30
0
11
0.00150582847316766
21
-1.35005519308243
31
0
210
0
220
0
230
-1
40
0.996112
41
-0.651302774557071
42
1.46759190743614
0
ELLIPSE
5
1BA
100
AcDbEntity
8
1
62
256
6
ByLayer
370
18
48
1
60
0
100
AcDbEllipse
10
4.902261
20
12.235096
30
0
11
0.00670002247687819
21
-6.00024576432652
31
0
210
0
220
0
230
-1
40
0.996112
41
3.00281895754997
42
3.03838947520298
0
ELLIPSE
5
1BB
100
AcDbEntity
8
1
62
256
6
ByLayer
370
18
48
1
60
0
100
AcDbEllipse
10
6.554386
20
14.542934
30
0
11
-0.141113425411332
21
1.34260455874717
31
0
210
0
220
0
230
1
40
0.996195
41
0.8494450116139
42
1.5707963267949
0
ELLIPSE
5
1BC
100
AcDbEntity
8
1
62
256
6
ByLayer
370
18
48
1
60
0
100
AcDbEllipse
10
5.72389
20
15.86926
30
0
11
0.445863476908729
21
0.550608025281319
31
0
210
0
220
0
230
-1
40
0.043534
41
2.31305193489949
42
2.64688178383183
0
ELLIPSE
5
1BD
100
AcDbEntity
8
1
62
256
6
ByLayer
370
18
48
1
60
0
100
AcDbEllipse
10
3.797187
20
18.156083
30
0
11
3.09999675434471
21
0.601550164687676
31
0
210
0
220
0
230
-1
40
0.007457
41
1.58332940900885
42
2.69604434964049
0
ELLIPSE
5
1BE
100
AcDbEntity
8
1
62
256
6
ByLayer
370
18
48
1
60
0
100
AcDbEllipse
10
10.487111
20
14.049063
30
0
11
0.0304705136798114
21
-0.499547905950421
31
0
210
0
220
0
230
-1
40
0.08699
41
-0.85974874017335
42
-0.00381249583714759
0
ELLIPSE
5
1BF
100
AcDbEntity
8
1
62
256
6
ByLayer
370
18
48
1
60
0
100
AcDbEllipse
10
8.75252
20
-2.434058
30
0
11
-0.870818964892282
21
0.0854361187317346
31
0
210
0
220
0
230
1
40
0.46038
41
0
42
6.28318530717959
0
ELLIPSE
5
1C0
100
AcDbEntity
8
1
62
256
6
ByLayer
370
18
48
1
60
0
100
AcDbEllipse
10
3.797187
20
-11.201722
30
0
11
2.93804366378247
21
-1.14339525760786
31
0
210
0
220
0
230
-1
40
0.86487
41
-3.01926736541376
42
-1.90655242476775
0
ELLIPSE
5
1C1
100
AcDbEntity
8
1
62
256
6
ByLayer
370
18
48
1
60
0
100
AcDbEllipse
10
8.954096
20
-0.379469
30
0
11
0.231822691580341
21
2.12605393208486
31
0
210
0
220
0
230
-1
40
0.584414
41
-1.52931728582574
42
-1.21274210456817
0
ELLIPSE
5
1C2
100
AcDbEntity
8
1
62
256
6
ByLayer
370
18
48
1
60
0
100
AcDbEllipse
10
9.001762
20
6.481147
30
0
11
3
21
0
31
0
210
0
220
0
230
1
40
0.45399
41
-3.14159265358979
42
-2.99075800450424
0
ELLIPSE
5
1C3
100
AcDbEntity
8
1
62
256
6
ByLayer
370
18
48
1
60
0
100
AcDbEllipse
10
-0.804679
20
-4.515917
30
0
11
0.947756020574744
21
-0.368837179874477
31
0
210
0
220
0
230
-1
40
0.86487
41
0.824232094213175
42
1.82960251547139
0
ELLIPSE
5
1C4
100
AcDbEntity
8
1
62
256
6
ByLayer
370
18
48
1
60
0
100
AcDbEllipse
10
-3.798238
20
-7.374531
30
0
11
1.51640963292007
21
-0.590139487799984
31
0
210
0
220
0
230
-1
40
0.86487
41
0
42
6.28318530717959
0
ELLIPSE
5
1C5
100
AcDbEntity
8
1
62
256
6
ByLayer
370
18
48
1
60
0
100
AcDbEllipse
10
8.908991
20
-0.839208
30
0
11
1.09815130977392
21
-1.30908441857595
31
0
210
0
220
0
230
-1
40
0.224945
41
-2.98188929959048
42
-1.72766815392064
0
ELLIPSE
5
1C6
100
AcDbEntity
8
1
62
256
6
ByLayer
370
18
48
1
60
0
100
AcDbEllipse
10
9.979049
20
1.839426
30
0
11
3.42558305498485
21
-4.16919314807833
31
0
210
0
220
0
230
-1
40
0.240782
41
1.02380188757069
42
2.73488074035986
0
ELLIPSE
5
1C7
100
AcDbEntity
8
SK1
62
256
6
ByLayer
370
18
48
1
60
0
100
AcDbEllipse
10
-0.804679
20
2.965172
30
0
11
-7.06057852362674E-17
21
1.15311806142251
31
0
210
0
220
0
230
-1
40
0.867214
41
-2.9901172420724
42
-2.55763428380515
0
ELLIPSE
5
1C8
100
AcDbEntity
8
1
62
256
6
ByLayer
370
18
48
1
60
0
100
AcDbEllipse
10
-0.804679
20
-4.48062
30
0
11
0.906710716626232
21
-0.471124805593222
31
0
210
0
220
0
230
-1
40
0.895205
41
-1.16041649276094
42
0.713524252600003
0
ELLIPSE
5
1C9
100
AcDbEntity
8
1
62
256
6
ByLayer
370
18
48
1
60
0
100
AcDbEllipse
10
4.902261
20
-5.827481
30
0
11
5.97097087333101
21
-0.589506876575253
31
0
210
0
220
0
230
-1
40
0.452263
41
1.63049875345028
42
1.66606927212941
0
ELLIPSE
5
1CA
100
AcDbEntity
8
1
62
256
6
ByLayer
370
18
48
1
60
0
100
AcDbEllipse
10
6.058776
20
-6.789
30
0
11
0.487118688582415
21
-0.112771764004289
31
0
210
0
220
0
230
-1
40
0.886122
41
3.02652186972436
42
-1.68586711066171
0
ELLIPSE
5
1CB
100
AcDbEntity
8
1
62
256
6
ByLayer
370
18
48
1
60
0
100
AcDbEllipse
10
8.75252
20
-2.434058
30
0
11
1.24402709270325
21
-0.122051598188192
31
0
210
0
220
0
230
1
40
0.46038
41
1.51081675606894
42
3.08161308286378
0
ELLIPSE
5
1CC
100
AcDbEntity
8
1
62
256
6
ByLayer
370
18
48
1
60
0
100
AcDbEllipse
10
11.253744
20
1.839426
30
0
11
0.0644778153014944
21
-4.24999229158992
31
0
210
0
220
0
230
-1
40
0.125541
41
0.330094079235189
42
0.830391703300555
0
ELLIPSE
5
1CD
100
AcDbEntity
8
1
62
256
6
ByLayer
370
18
48
1
60
0
100
AcDbEllipse
10
5.472658
20
-8.622879
30
0
11
0.487118688579038
21
-0.11277176399093
31
0
210
0
220
0
230
-1
40
0.886122
41
3.02652186974485
42
-2.20946588623147
0
ELLIPSE
5
1CE
100
AcDbEntity
8
1
62
256
6
ByLayer
370
18
48
1
60
0
100
AcDbEllipse
10
9.001762
20
3.33834
30
0
11
2.91617928749401
21
-3.41913032960099
31
0
210
0
220
0
230
-1
40
0.205959
41
2.36003386705999
42
2.75381360063425
0
ELLIPSE
5
1CF
100
AcDbEntity
8
SK1
62
256
6
ByLayer
370
18
48
1
60
0
100
AcDbEllipse
10
-2.098238
20
-3.917744
30
0
11
0.756462261222829
21
-0.521909240507433
31
0
210
0
220
0
230
-1
40
0.322839
41
-1.02082378444585
42
-0.511008236825725
0
ELLIPSE
5
1D0
100
AcDbEntity
8
1
62
256
6
ByLayer
370
18
48
1
60
0
100
AcDbEllipse
10
-2.098238
20
-3.917744
30
0
11
0.756462261210478
21
-0.521909240491076
31
0
210
0
220
0
230
-1
40
0.322839
41
0.0726874933406405
42
0.582503040965136
0
ELLIPSE
5
1D1
100
AcDbEntity
8
SK1
62
256
6
ByLayer
370
18
48
1
60
0
100
AcDbEllipse
10
-2.098238
20
-4.235128
30
0
11
0.775
21
0
31
0
210
0
220
0
230
1
40
0.45399
41
0.801663412696878
42
3.14159265358979
0
ELLIPSE
5
1D2
100
AcDbEntity
8
1
62
256
6
ByLayer
370
18
48
1
60
0
100
AcDbEllipse
10
10.846062
20
-5.351699
30
0
11
0.0626876665895373
21
0.496464495672881
31
0
210
0
220
0
230
-1
40
0.05333
41
-0.480729804737492
42
1.09006652207317
0
ELLIPSE
5
1D3
100
AcDbEntity
8
1
62
256
6
ByLayer
370
18
48
1
60
0
100
AcDbEllipse
10
6.378469
20
8.50059
30
0
11
1.32177002459489
21
11.6772737763479
31
0
210
0
220
0
230
-1
40
0.510496
41
-3.10214028221775
42
-3.01454217533438
0
ELLIPSE
5
1D4
100
AcDbEntity
8
1
62
256
6
ByLayer
370
18
48
1
60
0
100
AcDbEllipse
10
10.525796
20
-9.503582
30
0
11
0.298566502248769
21
-0.029292383565165
31
0
210
0
220
0
230
1
40
0.46038
41
-1.59586931248092
42
-1.34085081521863
0
ELLIPSE
5
1D5
100
AcDbEntity
8
1
62
256
6
ByLayer
370
18
48
1
60
0
100
AcDbEllipse
10
6.666299
20
-6.67244
30
0
11
-0.796177339330082
21
0.0781130228404426
31
0
210
0
220
0
230
1
40
0.46038
41
-0.0599795707260021
42
1.51081675606887
0
ELLIPSE
5
1D6
100
AcDbEntity
8
1
62
256
6
ByLayer
370
18
48
1
60
0
100
AcDbEllipse
10
10.048096
20
-7.143754
30
0
11
-0.79959240021309
21
0.078448074738529
31
0
210
0
220
0
230
1
40
0.46038
41
1.51081675606891
42
2.29621491946632
0
ELLIPSE
5
1D7
100
AcDbEntity
8
1
62
256
6
ByLayer
370
18
48
1
60
0
100
AcDbEllipse
10
11.203715
20
-5.084374
30
0
11
9.95221674162581
21
-0.976412785505518
31
0
210
0
220
0
230
1
40
0.46038
41
-1.60587382721484
42
-1.59586931248101
0
ELLIPSE
5
1D8
100
AcDbEntity
8
1
62
256
6
ByLayer
370
18
48
1
60
0
100
AcDbEllipse
10
6.608679
20
-6.768598
30
0
11
0.0375323822708154
21
0.297642940922639
31
0
210
0
220
0
230
1
40
0.053213
41
-2.66243322295181
42
-1.73513800495114
0
ELLIPSE
5
1D9
100
AcDbEntity
8
1
62
256
6
ByLayer
370
18
48
1
60
0
100
AcDbEllipse
10
10.421967
20
-5.528843
30
0
11
0.79959240021309
21
-0.0784480747385295
31
0
210
0
220
0
230
1
40
0.46038
41
0.725418592671437
42
1.10400538128955
0
ELLIPSE
5
1DA
100
AcDbEntity
8
1
62
256
6
ByLayer
370
18
48
1
60
0
100
AcDbEllipse
10
5.585274
20
-8.880589
30
0
11
0.298566502248769
21
-0.029292383565165
31
0
210
0
220
0
230
1
40
0.46038
41
-1.92070097982321
42
-1.66568248256091
0
ELLIPSE
5
1DB
100
AcDbEntity
8
1
62
256
6
ByLayer
370
18
48
1
60
0
100
AcDbEllipse
10
6.885533
20
-4.539401
30
0
11
9.95221674162602
21
-0.976412785505538
31
0
210
0
220
0
230
1
40
0.46038
41
-1.64587697475984
42
-1.63077589752091
0
ELLIPSE
5
1DC
100
AcDbEntity
8
1
62
256
6
ByLayer
370
18
48
1
60
0
100
AcDbEllipse
10
1.171722
20
-8.095771
30
0
11
9.95221674162602
21
-0.976412785505538
31
0
210
0
220
0
230
1
40
0.46038
41
-0.0750806479649423
42
-0.0599795707260049
0
ELLIPSE
5
1DD
100
AcDbEntity
8
1
62
256
6
ByLayer
370
18
48
1
60
0
100
AcDbEllipse
10
5.700293
20
-8.761505
30
0
11
0.597133004497558
21
-0.058584767130332
31
0
210
0
220
0
230
1
40
0.46038
41
-2.91164714201364
42
-1.92070097982314
0
ELLIPSE
5
1DE
100
AcDbEntity
8
1
62
256
6
ByLayer
370
18
48
1
60
0
100
AcDbEllipse
10
10.01856
20
-7.095155
30
0
11
0.796177339330082
21
-0.0781130228404431
31
0
210
0
220
0
230
1
40
0.46038
41
-1.63077589752092
42
-0.0599795707260238
0
ELLIPSE
5
1DF
100
AcDbEntity
8
1
62
256
6
ByLayer
370
18
48
1
60
0
100
AcDbEllipse
10
10.837154
20
-6.930056
30
0
11
-0.292269723492147
21
0.067663939656395
31
0
210
0
220
0
230
1
40
0.886125
41
0.758575903554613
42
1.68587112155627
0
ELLIPSE
5
1E0
100
AcDbEntity
8
1
62
256
6
ByLayer
370
18
48
1
60
0
100
AcDbEllipse
10
15.042046
20
-9.844801
30
0
11
9.95221674162602
21
-0.976412785505538
31
0
210
0
220
0
230
1
40
0.46038
41
3.08161308286379
42
3.09671416010272
0
ELLIPSE
5
1E1
100
AcDbEntity
8
1
62
256
6
ByLayer
370
18
48
1
60
0
100
AcDbEllipse
10
6.593461
20
-6.696194
30
0
11
4.97610837081339
21
-0.488206392752806
31
0
210
0
220
0
230
1
40
0.46038
41
-0.0448784934870716
42
-0.0350775004199424
0
ELLIPSE
5
1E2
100
AcDbEntity
8
1
62
256
6
ByLayer
370
18
48
1
60
0
100
AcDbEllipse
10
1.628296
20
-6.127945
30
0
11
9.95221674162581
21
-0.976412785505518
31
0
210
0
220
0
230
1
40
0.46038
41
-0.0350775004199406
42
-0.0250729856861175
0
ELLIPSE
5
1E3
100
AcDbEntity
8
1
62
256
6
ByLayer
370
18
48
1
60
0
100
AcDbEllipse
10
10.382645
20
-5.461429
30
0
11
0.557324137531057
21
-0.0546791159883101
31
0
210
0
220
0
230
1
40
0.46038
41
-0.0599795707259962
42
0.399502017826957
0
ELLIPSE
5
1E4
100
AcDbEntity
8
1
62
256
6
ByLayer
370
18
48
1
60
0
100
AcDbEllipse
10
10.804579
20
-7.356745
30
0
11
4.97610837081339
21
-0.488206392752806
31
0
210
0
220
0
230
1
40
0.46038
41
-1.61567482028196
42
-1.60587382721484
0
ELLIPSE
5
1E5
100
AcDbEntity
8
1
62
256
6
ByLayer
370
18
48
1
60
0
100
AcDbEllipse
10
6.933972
20
-4.545965
30
0
11
9.95221674162581
21
-0.976412785505518
31
0
210
0
220
0
230
1
40
0.46038
41
-1.6656824825608
42
-1.65567796782697
0
ELLIPSE
5
1E6
100
AcDbEntity
8
1
62
256
6
ByLayer
370
18
48
1
60
0
100
AcDbEllipse
10
6.6767
20
-6.566422
30
0
11
0.557324137531057
21
-0.0546791159883101
31
0
210
0
220
0
230
1
40
0.46038
41
3.0816130828638
42
-1.63077589752092
0
ELLIPSE
5
1E7
100
AcDbEntity
8
1
62
256
6
ByLayer
370
18
48
1
60
0
100
AcDbEllipse
10
6.288147
20
-6.787229
30
0
11
4.97610837081339
21
-0.488206392752806
31
0
210
0
220
0
230
1
40
0.46038
41
-1.65567796782697
42
-1.64587697475984
0
ELLIPSE
5
1E8
100
AcDbEntity
8
1
62
256
6
ByLayer
370
18
48
1
60
0
100
AcDbEllipse
10
11.190837
20
-5.402348
30
0
11
-0.292269723492147
21
0.067663939656395
31
0
210
0
220
0
230
1
40
0.886125
41
0.758575903554589
42
1.68587112155637
0
ELLIPSE
5
1E9
100
AcDbEntity
8
1
62
256
6
ByLayer
370
18
48
1
60
0
100
AcDbEllipse
10
11.252358
20
-5.090052
30
0
11
9.95221674162602
21
-0.976412785505538
31
0
210
0
220
0
230
1
40
0.46038
41
-1.6307758975209
42
-1.61567482028197
0
ELLIPSE
5
1EA
100
AcDbEntity
8
1
62
256
6
ByLayer
370
18
48
1
60
0
100
AcDbEllipse
10
1.632447
20
-6.105702
30
0
11
9.95221674162602
21
-0.976412785505538
31
0
210
0
220
0
230
1
40
0.46038
41
-0.0599795707260107
42
-0.0448784934870717
0
ELLIPSE
5
1EB
100
AcDbEntity
8
1
62
256
6
ByLayer
370
18
48
1
60
0
100
AcDbEllipse
10
10.372243
20
-5.567447
30
0
11
-0.796177339330082
21
0.0781130228404426
31
0
210
0
220
0
230
1
40
0.46038
41
3.08161308286377
42
-2.11973464003078
0
ELLIPSE
5
1EC
100
AcDbEntity
8
1
62
256
6
ByLayer
370
18
48
1
60
0
100
AcDbEllipse
10
15.046196
20
-9.822557
30
0
11
9.95221674162581
21
-0.976412785505518
31
0
210
0
220
0
230
1
40
0.46038
41
3.10651515316985
42
3.11651966790368
0
ELLIPSE
5
1ED
100
AcDbEntity
8
1
62
256
6
ByLayer
370
18
48
1
60
0
100
AcDbEllipse
10
10.472098
20
-5.561451
30
0
11
-0.79959240021309
21
0.078448074738529
31
0
210
0
220
0
230
1
40
0.46038
41
3.08161308286378
42
-2.4161740609184
0
ELLIPSE
5
1EE
100
AcDbEntity
8
1
62
256
6
ByLayer
370
18
48
1
60
0
100
AcDbEllipse
10
10.028962
20
-6.989138
30
0
11
0.557324137531057
21
-0.0546791159883101
31
0
210
0
220
0
230
1
40
0.46038
41
-1.63077589752092
42
-0.0599795707260308
0
ELLIPSE
5
1EF
100
AcDbEntity
8
1
62
256
6
ByLayer
370
18
48
1
60
0
100
AcDbEllipse
10
10.110053
20
-7.12528
30
0
11
0.79959240021309
21
-0.0784480747385295
31
0
210
0
220
0
230
1
40
0.46038
41
-0.84537773412344
42
-0.0599795707260198
0
ELLIPSE
5
1F0
100
AcDbEntity
8
1
62
256
6
ByLayer
370
18
48
1
60
0
100
AcDbEllipse
10
10.081031
20
-9.254308
30
0
11
4.97610837081339
21
-0.488206392752806
31
0
210
0
220
0
230
1
40
0.46038
41
3.09671416010272
42
3.10651515316985
0
ELLIPSE
5
1F1
100
AcDbEntity
8
1
62
256
6
ByLayer
370
18
48
1
60
0
100
AcDbEllipse
10
10.746728
20
-9.437707
30
0
11
0.298566502248769
21
-0.029292383565165
31
0
210
0
220
0
230
1
40
0.46038
41
-0.349904653028148
42
-0.0948861557658758
0
ELLIPSE
5
1F2
100
AcDbEntity
8
1
62
256
6
ByLayer
370
18
48
1
60
0
100
AcDbEllipse
10
5.406512
20
-8.764313
30
0
11
0.298566502248769
21
-0.029292383565165
31
0
210
0
220
0
230
1
40
0.46038
41
3.11651966790369
42
-2.91164714201362
0
ELLIPSE
5
1F3
100
AcDbEntity
8
1
62
256
6
ByLayer
370
18
48
1
60
0
100
AcDbEllipse
10
5.899712
20
-6.307451
30
0
11
0.292269723492147
21
-0.0676639396563952
31
0
210
0
220
0
230
1
40
0.886125
41
-1.45572153203352
42
-0.528426314032006
0
ELLIPSE
5
1F4
100
AcDbEntity
8
1
62
256
6
ByLayer
370
18
48
1
60
0
100
AcDbEllipse
10
6.566443
20
-6.678435
30
0
11
-0.79959240021309
21
0.078448074738529
31
0
210
0
220
0
230
1
40
0.46038
41
-0.0599795707260198
42
0.725418592671439
0
ELLIPSE
5
1F5
100
AcDbEntity
8
1
62
256
6
ByLayer
370
18
48
1
60
0
100
AcDbEllipse
10
10.470876
20
-9.363069
30
0
11
0.597133004497558
21
-0.058584767130332
31
0
210
0
220
0
230
1
40
0.46038
41
-1.34085081521874
42
-0.349904653028191
0
ELLIPSE
5
1F6
100
AcDbEntity
8
1
62
256
6
ByLayer
370
18
48
1
60
0
100
AcDbEllipse
10
6.116952
20
-8.754443
30
0
11
4.97610837081339
21
-0.488206392752806
31
0
210
0
220
0
230
1
40
0.46038
41
-0.0848816410320762
42
-0.0750806479649427
0
ELLIPSE
5
1F7
100
AcDbEntity
8
1
62
256
6
ByLayer
370
18
48
1
60
0
100
AcDbEllipse
10
11.267981
20
-7.18619
30
0
11
0.298566502248769
21
-0.029292383565165
31
0
210
0
220
0
230
1
40
0.46038
41
-0.0250729856861224
42
0.100983587886205
0
ELLIPSE
5
1F8
100
AcDbEntity
8
1
62
256
6
ByLayer
370
18
48
1
60
0
100
AcDbEllipse
10
9.960941
20
-7.191314
30
0
11
-0.0375323822708153
21
-0.297642940922639
31
0
210
0
220
0
230
1
40
0.053213
41
0.479159430637984
42
1.40645464863865
0
ELLIPSE
5
1F9
100
AcDbEntity
8
1
62
256
6
ByLayer
370
18
48
1
60
0
100
AcDbEllipse
10
6.616575
20
-6.711043
30
0
11
0.79959240021309
21
-0.0784480747385295
31
0
210
0
220
0
230
1
40
0.46038
41
-2.41617406091837
42
-1.63077589752088
0
ELLIPSE
5
1FA
100
AcDbEntity
8
1
62
256
6
ByLayer
370
18
48
1
60
0
100
AcDbEllipse
10
1.177814
20
-8.073772
30
0
11
9.95221674162581
21
-0.976412785505518
31
0
210
0
220
0
230
1
40
0.46038
41
-0.0948861557659031
42
-0.0848816410320802
0
ELLIPSE
5
1FB
100
AcDbEntity
8
1
62
256
6
ByLayer
370
18
48
1
60
0
100
AcDbEllipse
10
7.663969
20
15.980266
30
0
11
0.141391583625095
21
-0.195746229351766
31
0
210
0
220
0
230
-1
40
0.503173
41
-2.80467119157395
42
-1.57302092983799
0
ELLIPSE
5
1FC
100
AcDbEntity
8
1
62
256
6
ByLayer
370
18
48
1
60
0
100
AcDbEllipse
10
7.663969
20
15.980266
30
0
11
0.141391583621996
21
-0.195746229348569
31
0
210
0
220
0
230
-1
40
0.503173
41
-1.57302092984405
42
-0.341370668089515
0
ELLIPSE
5
1FD
100
AcDbEntity
8
1
62
256
6
ByLayer
370
18
48
1
60
0
100
AcDbEllipse
10
8.39965
20
16.516629
30
0
11
-0.0827029201373672
21
0.786865723615378
31
0
210
0
220
0
230
1
40
0.996195
41
-1.89784902938384
42
-1.22677580252797
0
ELLIPSE
5
1FE
100
AcDbEntity
8
1
62
256
6
ByLayer
370
18
48
1
60
0
100
AcDbEllipse
10
8.312971
20
16.507519
30
0
11
-0.108192185905184
21
1.02937988780093
31
0
210
0
220
0
230
1
40
0.996195
41
-1.5707963267949
42
-0.52359877559832
0
ELLIPSE
5
1FF
100
AcDbEntity
8
1
62
256
6
ByLayer
370
18
48
1
60
0
100
AcDbEllipse
10
8.312971
20
16.507519
30
0
11
-0.108192185905184
21
1.02937988780093
31
0
210
0
220
0
230
1
40
0.996195
41
2.61799387799151
42
-2.6179938779915
0
ELLIPSE
5
200
100
AcDbEntity
8
1
62
256
6
ByLayer
370
18
48
1
60
0
100
AcDbEllipse
10
7.864612
20
17.255605
30
0
11
0.194586925311844
21
0.142204843647984
31
0
210
0
220
0
230
-1
40
0.505095
41
2.94878888063178
42
-0.633711536567363
0
ELLIPSE
5
201
100
AcDbEntity
8
1
62
256
6
ByLayer
370
18
48
1
60
0
100
AcDbEllipse
10
8.312971
20
16.507519
30
0
11
-0.108192185905184
21
1.02937988780093
31
0
210
0
220
0
230
1
40
0.996195
41
-2.6179938779915
42
-1.5707963267949
0
ELLIPSE
5
202
100
AcDbEntity
8
1
62
256
6
ByLayer
370
18
48
1
60
0
100
AcDbEllipse
10
8.32897
20
16.5092
30
0
11
-0.162019118064862
21
1.54150893782082
31
0
210
0
220
0
230
1
40
0.996195
41
0
42
6.28318530717959
0
ELLIPSE
5
203
100
AcDbEntity
8
1
62
256
6
ByLayer
370
18
48
1
60
0
100
AcDbEllipse
10
8.39965
20
16.516629
30
0
11
-0.0827029201373672
21
0.786865723615378
31
0
210
0
220
0
230
1
40
0.996195
41
1.0471975511966
42
2.0943951023932
0
ELLIPSE
5
204
100
AcDbEntity
8
1
62
256
6
ByLayer
370
18
48
1
60
0
100
AcDbEllipse
10
8.30421
20
17.424677
30
0
11
0.239461239079302
21
0.0251683904092132
31
0
210
0
220
0
230
-1
40
0.506063
41
0.339146065052279
42
1.5707963267949
0
ELLIPSE
5
205
100
AcDbEntity
8
1
62
256
6
ByLayer
370
18
48
1
60
0
100
AcDbEllipse
10
8.373646
20
16.513896
30
0
11
-0.162019118064862
21
1.54150893782082
31
0
210
0
220
0
230
1
40
0.996195
41
3.14152991765458
42
-1.67512094525168
0
ELLIPSE
5
206
100
AcDbEntity
8
1
62
256
6
ByLayer
370
18
48
1
60
0
100
AcDbEllipse
10
8.373646
20
16.513896
30
0
11
-0.162019118064862
21
1.54150893782082
31
0
210
0
220
0
230
1
40
0.996195
41
-1.67512030006382
42
0
0
ELLIPSE
5
207
100
AcDbEntity
8
1
62
256
6
ByLayer
370
18
48
1
60
0
100
AcDbEllipse
10
8.39965
20
16.516629
30
0
11
-0.0827029201373672
21
0.786865723615378
31
0
210
0
220
0
230
1
40
0.996195
41
-0.781519957324578
42
0
0
ELLIPSE
5
208
100
AcDbEntity
8
1
62
256
6
ByLayer
370
18
48
1
60
0
100
AcDbEllipse
10
8.312971
20
16.507519
30
0
11
-0.108192185905184
21
1.02937988780093
31
0
210
0
220
0
230
1
40
0.996195
41
1.5707963267949
42
2.61799387799151
0
ELLIPSE
5
209
100
AcDbEntity
8
1
62
256
6
ByLayer
370
18
48
1
60
0
100
AcDbEllipse
10
8.312971
20
16.507519
30
0
11
-0.108192185905184
21
1.02937988780093
31
0
210
0
220
0
230
1
40
0.996195
41
-0.52359877559832
42
0.52359877559829
0
ELLIPSE
5
20A
100
AcDbEntity
8
1
62
256
6
ByLayer
370
18
48
1
60
0
100
AcDbEllipse
10
7.56853
20
16.888315
30
0
11
0.0976039087712663
21
0.220865667811349
31
0
210
0
220
0
230
-1
40
0.503173
41
1.57302092983514
42
2.80467119157358
0
ELLIPSE
5
20B
100
AcDbEntity
8
1
62
256
6
ByLayer
370
18
48
1
60
0
100
AcDbEllipse
10
8.39965
20
16.516629
30
0
11
-0.0827029201373672
21
0.786865723615378
31
0
210
0
220
0
230
1
40
0.996195
41
0.12965560078968
42
1.0471975511966
0
ELLIPSE
5
20C
100
AcDbEntity
8
1
62
256
6
ByLayer
370
18
48
1
60
0
100
AcDbEllipse
10
8.769354
20
17.350697
30
0
11
0.219900783613277
21
-0.0986404299743867
31
0
210
0
220
0
230
-1
40
0.505095
41
2.94431105994957
42
-2.49016756934263
0
ELLIPSE
5
20D
100
AcDbEntity
8
1
62
256
6
ByLayer
370
18
48
1
60
0
100
AcDbEllipse
10
8.39965
20
16.516629
30
0
11
-0.0827029201373672
21
0.786865723615378
31
0
210
0
220
0
230
1
40
0.996195
41
2.09439510239319
42
3.14159265358979
0
ELLIPSE
5
20E
100
AcDbEntity
8
1
62
256
6
ByLayer
370
18
48
1
60
0
100
AcDbEllipse
10
7.494908
20
16.421537
30
0
11
0.0252645295717944
21
-0.240375942110503
31
0
210
0
220
0
230
-1
40
0.502219
41
0.195098621616161
42
2.94649620758471
0
ELLIPSE
5
20F
100
AcDbEntity
8
1
62
256
6
ByLayer
370
18
48
1
60
0
100
AcDbEllipse
10
8.312971
20
16.507519
30
0
11
-0.108192185905184
21
1.02937988780093
31
0
210
0
220
0
230
1
40
0.996195
41
0.52359877559829
42
1.5707963267949
0
ELLIPSE
5
210
100
AcDbEntity
8
1
62
256
6
ByLayer
370
18
48
1
60
0
100
AcDbEllipse
10
8.029946
20
15.682561
30
0
11
0.219900783613289
21
-0.0986404299743814
31
0
210
0
220
0
230
-1
40
0.505095
41
0.651423662399945
42
-2.94878888063172
0
ELLIPSE
5
211
100
AcDbEntity
8
1
62
256
6
ByLayer
370
18
48
1
60
0
100
AcDbEllipse
10
7.56853
20
16.888315
30
0
11
0.0976039087709987
21
0.220865667809932
31
0
210
0
220
0
230
-1
40
0.503173
41
0.341370668087111
42
1.57302092983176
0
ELLIPSE
5
212
100
AcDbEntity
8
1
62
256
6
ByLayer
370
18
48
1
60
0
100
AcDbEllipse
10
8.312971
20
16.507519
30
0
11
-0.114981309594418
21
1.0939740849051
31
0
210
0
220
0
230
1
40
0.996195
41
0
42
6.28318530717959
0
ELLIPSE
5
213
100
AcDbEntity
8
1
62
256
6
ByLayer
370
18
48
1
60
0
100
AcDbEllipse
10
8.39965
20
16.516629
30
0
11
0.0827029201373635
21
-0.786865723615378
31
0
210
0
220
0
230
1
40
0.996195
41
0
42
0.779753422831841
0
ELLIPSE
5
214
100
AcDbEntity
8
1
62
256
6
ByLayer
370
18
48
1
60
0
100
AcDbEllipse
10
8.495089
20
15.608581
30
0
11
0.239461239077765
21
0.0251683904081326
31
0
210
0
220
0
230
-1
40
0.506063
41
-1.5707963267949
42
-0.339146065053138
0
ELLIPSE
5
215
100
AcDbEntity
8
1
62
256
6
ByLayer
370
18
48
1
60
0
100
AcDbEllipse
10
8.934687
20
15.777653
30
0
11
0.194586925311834
21
0.14220484364798
31
0
210
0
220
0
230
-1
40
0.505095
41
2.5078796778508
42
-2.94431105994965
0
ELLIPSE
5
216
100
AcDbEntity
8
1
62
256
6
ByLayer
370
18
48
1
60
0
100
AcDbEllipse
10
-2.098238
20
-4.663702
30
0
11
-0.605662432702594
21
7.41698063359115E-17
31
0
210
0
220
0
230
1
40
0.45399
41
-2.52907520687067
42
-0.612393241209364
0
ELLIPSE
5
217
100
AcDbEntity
8
1
62
256
6
ByLayer
370
18
48
1
60
0
100
AcDbEllipse
10
-2.098238
20
-4.663702
30
0
11
-0.45
21
5.5107285922007E-17
31
0
210
0
220
0
230
1
40
0.45399
41
-2.52239494849523
42
-0.619073818174833
0
ELLIPSE
5
218
100
AcDbEntity
8
1
62
256
6
ByLayer
370
18
48
1
60
0
100
AcDbEllipse
10
10.472098
20
-9.337968
30
0
11
0.79919232196302
21
0.0824241434536614
31
0
210
0
220
0
230
1
40
0.534926
41
-0.160230185174323
42
0.514636271818973
0
ELLIPSE
5
219
100
AcDbEntity
8
1
62
256
6
ByLayer
370
18
48
1
60
0
100
AcDbEllipse
10
11.190837
20
-9.600243
30
0
11
-0.29456516679718
21
0.0568450746305215
31
0
210
0
220
0
230
1
40
0.834076
41
-1.3239389795852
42
-1.00229832769291
0
ELLIPSE
5
21A
100
AcDbEntity
8
1
62
256
6
ByLayer
370
18
48
1
60
0
100
AcDbEllipse
10
10.974199
20
-7.196853
30
0
11
-0.596834227361313
21
-0.0615540823180723
31
0
210
0
220
0
230
1
40
0.534926
41
-3.01189775646193
42
-2.92864352441434
0
ELLIPSE
5
21B
100
AcDbEntity
8
1
62
256
6
ByLayer
370
18
48
1
60
0
100
AcDbEllipse
10
10.372243
20
-9.361216
30
0
11
0.795778969815089
21
0.0820721097574319
31
0
210
0
220
0
230
1
40
0.534926
41
-0.160230185174309
42
0.291373097369728
0
ELLIPSE
5
21C
100
AcDbEntity
8
1
62
256
6
ByLayer
370
18
48
1
60
0
100
AcDbEllipse
10
11.267981
20
-7.145689
30
0
11
-0.298417113680647
21
-0.0307770411590353
31
0
210
0
220
0
230
1
40
0.534926
41
3.01626905345541
42
-3.0118977564619
0
ELLIPSE
5
21D
100
AcDbEntity
8
1
62
256
6
ByLayer
370
18
48
1
60
0
100
AcDbEllipse
10
10.110053
20
-11.214047
30
0
11
-0.79919232196302
21
-0.0824241434536598
31
0
210
0
220
0
230
1
40
0.534926
41
2.61291199436479
42
2.98136246841548
0
ELLIPSE
5
21E
100
AcDbEntity
8
SK1
62
256
6
ByLayer
370
18
48
1
60
0
100
AcDbEllipse
10
-0.804679
20
-12.475676
30
0
11
0.967585030853457
21
-0.312992848478348
31
0
210
0
220
0
230
-1
40
0.806873
41
-2.4095826855647
42
-2.1471337765647
0
ELLIPSE
5
21F
100
AcDbEntity
8
SK1
62
256
6
ByLayer
370
18
48
1
60
0
100
AcDbEllipse
10
-2.098238
20
-10.803513
30
0
11
-0.775
21
9.49069924212342E-17
31
0
210
0
220
0
230
1
40
0.544639
41
-2.33992924089291
42
2.33992924089291
0
ELLIPSE
5
220
100
AcDbEntity
8
1
62
256
6
ByLayer
370
18
48
1
60
0
100
AcDbEllipse
10
9.001762
20
-12.640032
30
0
11
3
21
0
31
0
210
0
220
0
230
1
40
0.544639
41
3.14159265358979
42
-2.80175574413567
0
ELLIPSE
5
221
100
AcDbEntity
8
1
62
256
6
ByLayer
370
18
48
1
60
0
100
AcDbEllipse
10
9.979049
20
-9.620321
30
0
11
3.36749829223011
21
4.13937186341337
31
0
210
0
220
0
230
-1
40
0.286082
41
1.64701951863267
42
-2.92508693575784
0
ELLIPSE
5
222
100
AcDbEntity
8
SK1
62
256
6
ByLayer
370
18
48
1
60
0
100
AcDbEllipse
10
-2.098238
20
-11.102254
30
0
11
0.747075690436455
21
0.526334043996735
31
0
210
0
220
0
230
-1
40
0.391695
41
0.561105537964935
42
1.07092108556743
0
ELLIPSE
5
223
100
AcDbEntity
8
1
62
256
6
ByLayer
370
18
48
1
60
0
100
AcDbEllipse
10
11.253744
20
-9.620321
30
0
11
0.495108942371513
21
4.24993022686769
31
0
210
0
220
0
230
-1
40
0.049187
41
-1.88141479829101
42
-1.51585362245175
0
ELLIPSE
5
224
100
AcDbEntity
8
1
62
256
6
ByLayer
370
18
48
1
60
0
100
AcDbEllipse
10
8.908991
20
-15.120208
30
0
11
1.0827150956155
21
1.29230470547031
31
0
210
0
220
0
230
-1
40
0.268478
41
-2.40979038481089
42
-1.15556923914041
0
ELLIPSE
5
225
100
AcDbEntity
8
SK1
62
256
6
ByLayer
370
18
48
1
60
0
100
AcDbEllipse
10
-2.098238
20
-11.102254
30
0
11
0.747075690499169
21
0.526334044075814
31
0
210
0
220
0
230
-1
40
0.391695
41
-0.532405739762001
42
-0.0225901921834473
0
ELLIPSE
5
226
100
AcDbEntity
8
1
62
256
6
ByLayer
370
18
48
1
60
0
100
AcDbEllipse
10
9.001762
20
-13.017434
30
0
11
-3
21
3.67381906146713E-16
31
0
210
0
220
0
230
1
40
0.544639
41
0
42
0.150834649085548
0
ELLIPSE
5
227
100
AcDbEntity
8
1
62
256
6
ByLayer
370
18
48
1
60
0
100
AcDbEllipse
10
9.001762
20
-10.05923
30
0
11
2.88297997014607
21
3.32435453011873
31
0
210
0
220
0
230
-1
40
0.249587
41
2.87720294774341
42
-3.01220262585288
0
ELLIPSE
5
228
100
AcDbEntity
8
SK1
62
256
6
ByLayer
370
18
48
1
60
0
100
AcDbEllipse
10
-2.098238
20
-10.400112
30
0
11
0.605662432702594
21
0
31
0
210
0
220
0
230
1
40
0.544639
41
-2.78313186181668
42
-0.309754036191885
0
ELLIPSE
5
229
100
AcDbEntity
8
SK1
62
256
6
ByLayer
370
18
48
1
60
0
100
AcDbEllipse
10
-2.098238
20
-10.400112
30
0
11
0.45
21
0
31
0
210
0
220
0
230
1
40
0.544639
41
-2.91390966656152
42
-0.227714329480179
0
ELLIPSE
5
22A
100
AcDbEntity
8
1
62
256
6
ByLayer
370
18
48
1
60
0
100
AcDbEllipse
10
-3.798238
20
-5.768101
30
0
11
0.749999650312461
21
0
31
0
210
0
220
0
230
1
40
0.891007
41
-2.74943371384036
42
-2.0943951023932
0
ELLIPSE
5
22B
100
AcDbEntity
8
1
62
256
6
ByLayer
370
18
48
1
60
0
100
AcDbEllipse
10
-3.798238
20
-5.768101
30
0
11
0.749999650312461
21
0
31
0
210
0
220
0
230
1
40
0.891007
41
-2.0943951023932
42
-1.04719755119659
0
ELLIPSE
5
22C
100
AcDbEntity
8
1
62
256
6
ByLayer
370
18
48
1
60
0
100
AcDbEllipse
10
-3.798238
20
-5.768101
30
0
11
0.749999650312461
21
0
31
0
210
0
220
0
230
1
40
0.891007
41
-1.04719755119659
42
-0.551955301126079
0
ELLIPSE
5
22D
100
AcDbEntity
8
1
62
256
6
ByLayer
370
18
48
1
60
0
100
AcDbEllipse
10
-3.798238
20
-6.226405
30
0
11
-1.5
21
1.83690953073357E-16
31
0
210
0
220
0
230
1
40
0.891007
41
0.295309538294006
42
2.25674350844239
0
ELLIPSE
5
22E
100
AcDbEntity
8
1
62
256
6
ByLayer
370
18
48
1
60
0
100
AcDbEllipse
10
-3.798238
20
-6.31289
30
0
11
-1.3095
21
1.6036220203304E-16
31
0
210
0
220
0
230
1
40
0.891007
41
0.0998441541835785
42
2.38260371260021
0
ELLIPSE
5
22F
100
AcDbEntity
8
1
62
256
6
ByLayer
370
18
48
1
60
0
100
AcDbEllipse
10
10.804579
20
14.757808
30
0
11
0.522642316338283
21
-4.97260947684175
31
0
210
0
220
0
230
1
40
0.996195
41
3.11669058328373
42
3.12649157635085
0
ELLIPSE
5
230
100
AcDbEntity
8
1
62
256
6
ByLayer
370
18
48
1
60
0
100
AcDbEllipse
10
6.202937
20
13.864892
30
0
11
-0.0533453148789514
21
0.507546767683608
31
0
210
0
220
0
230
1
40
0.996195
41
1.86072140909704
42
2.85166757128753
0
ELLIPSE
5
231
100
AcDbEntity
8
1
62
256
6
ByLayer
370
18
48
1
60
0
100
AcDbEllipse
10
6.287467
20
14.28304
30
0
11
-0.513270553256643
21
4.88344310730418
31
0
210
0
220
0
230
1
40
0.996195
41
0.0151010772389338
42
0.0249020703060628
0
ELLIPSE
5
232
100
AcDbEntity
8
1
62
256
6
ByLayer
370
18
48
1
60
0
100
AcDbEllipse
10
10.803899
20
14.757736
30
0
11
-0.513270553256643
21
4.88344310730418
31
0
210
0
220
0
230
1
40
0.996195
41
-0.0249020703060693
42
-0.0151010772389396
0
ELLIPSE
5
233
100
AcDbEntity
8
1
62
256
6
ByLayer
370
18
48
1
60
0
100
AcDbEllipse
10
7.967032
20
18.297005
30
0
11
0.00470377609446316
21
-0.0447534857910885
31
0
210
0
220
0
230
1
40
0.087156
41
-2.18166434178805
42
-1.57079631753949
0
ELLIPSE
5
234
100
AcDbEntity
8
1
62
256
6
ByLayer
370
18
48
1
60
0
100
AcDbEllipse
10
8.346647
20
14.685212
30
0
11
0.00470378551778535
21
-0.0447534848006574
31
0
210
0
220
0
230
1
40
0.087156
41
-1.57079633589099
42
-0.959928310254076
0
ELLIPSE
5
235
100
AcDbEntity
8
1
62
256
6
ByLayer
370
18
48
1
60
0
100
AcDbEllipse
10
5.421455
20
23.242166
30
0
11
1.03591286959486
21
-9.85605258414556
31
0
210
0
220
0
230
1
40
0.996195
41
-0.0151010772389352
42
-3.59854706868428E-16
0
ELLIPSE
5
236
100
AcDbEntity
8
1
62
256
6
ByLayer
370
18
48
1
60
0
100
AcDbEllipse
10
5.927765
20
13.749734
30
0
11
0.0313585389802934
21
-0.298356568610471
31
0
210
0
220
0
230
1
40
0.996195
41
-1.535889741755
42
-1.28087124449271
0
ELLIPSE
5
237
100
AcDbEntity
8
1
62
256
6
ByLayer
370
18
48
1
60
0
100
AcDbEllipse
10
11.203715
20
9.773776
30
0
11
1.04528463267645
21
-9.94521895368253
31
0
210
0
220
0
230
1
40
0.996195
41
3.10668606854991
42
3.11669058328373
0
ELLIPSE
5
238
100
AcDbEntity
8
1
62
256
6
ByLayer
370
18
48
1
60
0
100
AcDbEllipse
10
1.171042
20
17.972837
30
0
11
-1.03591286959491
21
9.85605258414555
31
0
210
0
220
0
230
1
40
0.996195
41
-1.5707963267949
42
-1.55569524955596
0
ELLIPSE
5
239
100
AcDbEntity
8
1
62
256
6
ByLayer
370
18
48
1
60
0
100
AcDbEllipse
10
8.315577
20
16.507793
30
0
11
-0.205410709319574
21
1.95435235126681
31
0
210
0
220
0
230
1
40
0.996195
41
2.04307898443129
42
2.66930913196878
0
ELLIPSE
5
23A
100
AcDbEntity
8
1
62
256
6
ByLayer
370
18
48
1
60
0
100
AcDbEllipse
10
8.300109
20
18.332013
30
0
11
-0.00470378551778552
21
0.0447534848006574
31
0
210
0
220
0
230
1
40
0.087156
41
0.959928292061063
42
1.57079631769873
0
ELLIPSE
5
23B
100
AcDbEntity
8
1
62
256
6
ByLayer
370
18
48
1
60
0
100
AcDbEllipse
10
6.116952
20
18.568591
30
0
11
0.522642316338283
21
-4.97260947684175
31
0
210
0
220
0
230
1
40
0.996195
41
1.58589740403383
42
1.59569839710097
0
ELLIPSE
5
23C
100
AcDbEntity
8
1
62
256
6
ByLayer
370
18
48
1
60
0
100
AcDbEllipse
10
5.422135
20
23.242238
30
0
11
1.04528463267649
21
-9.94521895368273
31
0
210
0
220
0
230
1
40
0.996195
41
-0.0151010772389351
42
-3.56628338708837E-16
0
ELLIPSE
5
23D
100
AcDbEntity
8
1
62
256
6
ByLayer
370
18
48
1
60
0
100
AcDbEllipse
10
15.495999
20
15.095786
30
0
11
-1.03591286959487
21
9.85605258414517
31
0
210
0
220
0
230
1
40
0.996195
41
1.59569839710097
42
1.60570291183479
0
ELLIPSE
5
23E
100
AcDbEntity
8
1
62
256
6
ByLayer
370
18
48
1
60
0
100
AcDbEllipse
10
1.177134
20
17.924212
30
0
11
-1.03591286959487
21
9.85605258414517
31
0
210
0
220
0
230
1
40
0.996195
41
-1.54589425648883
42
-1.535889741755
0
ELLIPSE
5
23F
100
AcDbEntity
8
1
62
256
6
ByLayer
370
18
48
1
60
0
100
AcDbEllipse
10
15.502771
20
15.047233
30
0
11
1.04528463267649
21
-9.94521895368273
31
0
210
0
220
0
230
1
40
0.996195
41
-1.5707963267949
42
-1.55569524955596
0
ELLIPSE
5
240
100
AcDbEntity
8
1
62
256
6
ByLayer
370
18
48
1
60
0
100
AcDbEllipse
10
10.525116
20
19.449941
30
0
11
-0.0219867758986559
21
0.209190199073129
31
0
210
0
220
0
230
1
40
0.996195
41
-0.289925082302196
42
-0.0349065850398795
0
ELLIPSE
5
241
100
AcDbEntity
8
1
62
256
6
ByLayer
370
18
48
1
60
0
100
AcDbEllipse
10
1.631767
20
13.589331
30
0
11
1.03591286959486
21
-9.85605258414556
31
0
210
0
220
0
230
1
40
0.996195
41
1.55569524955596
42
1.5707963267949
0
ELLIPSE
5
242
100
AcDbEntity
8
1
62
256
6
ByLayer
370
18
48
1
60
0
100
AcDbEllipse
10
8.133571
20
18.314509
30
0
11
0.00470378084704418
21
-0.0447534852915723
31
0
210
0
220
0
230
1
40
0.087156
41
-2.18166434426602
42
-1.57079632679498
0
ELLIPSE
5
243
100
AcDbEntity
8
1
62
256
6
ByLayer
370
18
48
1
60
0
100
AcDbEllipse
10
6.288147
20
14.283112
30
0
11
0.522642316338283
21
-4.97260947684175
31
0
210
0
220
0
230
1
40
0.996195
41
-3.12649157635086
42
-3.11669058328372
0
ELLIPSE
5
244
100
AcDbEntity
8
1
62
256
6
ByLayer
370
18
48
1
60
0
100
AcDbEllipse
10
5.470778
20
23.246365
30
0
11
1.04528463267645
21
-9.94521895368253
31
0
210
0
220
0
230
1
40
0.996195
41
-0.034906585039891
42
-0.024902070306073
0
ELLIPSE
5
245
100
AcDbEntity
8
1
62
256
6
ByLayer
370
18
48
1
60
0
100
AcDbEllipse
10
8.513185
20
14.702716
30
0
11
0.00470378084704418
21
-0.0447534852915723
31
0
210
0
220
0
230
1
40
0.087156
41
-1.5707963267949
42
-0.959928309324036
0
ELLIPSE
5
246
100
AcDbEntity
8
1
62
256
6
ByLayer
370
18
48
1
60
0
100
AcDbEllipse
10
11.267301
20
14.310942
30
0
11
-0.0219867758986559
21
0.209190199073129
31
0
210
0
220
0
230
1
40
0.996195
41
-1.86072140909709
42
-1.6057029118348
0
ELLIPSE
5
247
100
AcDbEntity
8
1
62
256
6
ByLayer
370
18
48
1
60
0
100
AcDbEllipse
10
6.116272
20
18.56852
30
0
11
-0.513270553256643
21
4.88344310730418
31
0
210
0
220
0
230
1
40
0.996195
41
-1.55569524955596
42
-1.54589425648883
0
ELLIPSE
5
248
100
AcDbEntity
8
1
62
256
6
ByLayer
370
18
48
1
60
0
100
AcDbEllipse
10
9.78896
20
23.701209
30
0
11
1.04528463267649
21
-9.94521895368273
31
0
210
0
220
0
230
1
40
0.996195
41
0
42
0.0151010772389383
0
ELLIPSE
5
249
100
AcDbEntity
8
1
62
256
6
ByLayer
370
18
48
1
60
0
100
AcDbEllipse
10
9.739841
20
23.695061
30
0
11
-1.03591286959487
21
9.85605258414517
31
0
210
0
220
0
230
1
40
0.996195
41
-3.11669058328372
42
-3.1066860685499
0
ELLIPSE
5
24A
100
AcDbEntity
8
1
62
256
6
ByLayer
370
18
48
1
60
0
100
AcDbEllipse
10
8.315577
20
16.507793
30
0
11
-0.205410709319574
21
1.95435235126681
31
0
210
0
220
0
230
1
40
0.996195
41
0.47228265763639
42
1.09851280517387
0
ELLIPSE
5
24B
100
AcDbEntity
8
1
62
256
6
ByLayer
370
18
48
1
60
0
100
AcDbEllipse
10
8.319477
20
16.508203
30
0
11
-0.190618916066125
21
1.81361783932199
31
0
210
0
220
0
230
1
40
0.996195
41
0.0923085272477117
42
1.47848779826438
0
ELLIPSE
5
24C
100
AcDbEntity
8
1
62
256
6
ByLayer
370
18
48
1
60
0
100
AcDbEllipse
10
15.496679
20
15.095857
30
0
11
1.04528463267645
21
-9.94521895368253
31
0
210
0
220
0
230
1
40
0.996195
41
-1.54589425648883
42
-1.535889741755
0
ELLIPSE
5
24D
100
AcDbEntity
8
1
62
256
6
ByLayer
370
18
48
1
60
0
100
AcDbEllipse
10
8.316293
20
16.507868
30
0
11
0.202693849334237
21
-1.9285031551953
31
0
210
0
220
0
230
1
40
0.996195
41
-2.66930999595341
42
-2.04307949015333
0
ELLIPSE
5
24E
100
AcDbEntity
8
1
62
256
6
ByLayer
370
18
48
1
60
0
100
AcDbEllipse
10
1.627617
20
13.63816
30
0
11
-1.03591286959487
21
9.85605258414517
31
0
210
0
220
0
230
1
40
0.996195
41
-1.60570291183479
42
-1.59569839710097
0
ELLIPSE
5
24F
100
AcDbEntity
8
1
62
256
6
ByLayer
370
18
48
1
60
0
100
AcDbEllipse
10
5.470098
20
23.246293
30
0
11
-1.03591286959487
21
9.85605258414517
31
0
210
0
220
0
230
1
40
0.996195
41
3.1066860685499
42
3.11669058328373
0
ELLIPSE
5
250
100
AcDbEntity
8
1
62
256
6
ByLayer
370
18
48
1
60
0
100
AcDbEllipse
10
8.679724
20
14.72022
30
0
11
-0.00470377609446319
21
0.0447534857910885
31
0
210
0
220
0
230
1
40
0.087156
41
1.57079633605043
42
2.18166436030263
0
ELLIPSE
5
251
100
AcDbEntity
8
1
62
256
6
ByLayer
370
18
48
1
60
0
100
AcDbEllipse
10
10.385666
20
18.736958
30
0
11
-0.513270553256643
21
4.88344310730418
31
0
210
0
220
0
230
1
40
0.996195
41
-3.12649157635085
42
-3.11669058328372
0
ELLIPSE
5
252
100
AcDbEntity
8
1
62
256
6
ByLayer
370
18
48
1
60
0
100
AcDbEllipse
10
8.37476
20
16.514013
30
0
11
-0.161869462177996
21
1.54008505717046
31
0
210
0
220
0
230
1
40
0.996195
41
3.14153028807873
42
-1.67512031982391
0
ELLIPSE
5
253
100
AcDbEntity
8
1
62
256
6
ByLayer
370
18
48
1
60
0
100
AcDbEllipse
10
8.37476
20
16.514013
30
0
11
-0.161869462177996
21
1.54008505717046
31
0
210
0
220
0
230
1
40
0.996195
41
-1.67512031982391
42
-0.0334418522878697
0
ELLIPSE
5
254
100
AcDbEntity
8
1
62
256
6
ByLayer
370
18
48
1
60
0
100
AcDbEllipse
10
10.556861
20
14.451478
30
0
11
-0.513270553256643
21
4.88344310730418
31
0
210
0
220
0
230
1
40
0.996195
41
1.58589740403383
42
1.59569839710097
0
ELLIPSE
5
255
100
AcDbEntity
8
1
62
256
6
ByLayer
370
18
48
1
60
0
100
AcDbEllipse
10
8.319477
20
16.508203
30
0
11
0.190618916066117
21
-1.81361783932199
31
0
210
0
220
0
230
1
40
0.996195
41
1.6631048540426
42
3.04928412505926
0
ELLIPSE
5
256
100
AcDbEntity
8
1
62
256
6
ByLayer
370
18
48
1
60
0
100
AcDbEllipse
10
6.148697
20
13.570128
30
0
11
0.0313585389802934
21
-0.298356568610471
31
0
210
0
220
0
230
1
40
0.996195
41
-0.289925082302125
42
-0.0349065850399126
0
ELLIPSE
5
257
100
AcDbEntity
8
1
62
256
6
ByLayer
370
18
48
1
60
0
100
AcDbEllipse
10
6.203617
20
13.864964
30
0
11
0.0627170779605887
21
-0.59671313722096
31
0
210
0
220
0
230
1
40
0.996195
41
-1.28087124449275
42
-0.289925082302255
0
ELLIPSE
5
258
100
AcDbEntity
8
1
62
256
6
ByLayer
370
18
48
1
60
0
100
AcDbEllipse
10
11.251678
20
9.777831
30
0
11
1.03591286959486
21
-9.85605258414556
31
0
210
0
220
0
230
1
40
0.996195
41
3.12649157635086
42
3.14159265358979
0
ELLIPSE
5
259
100
AcDbEntity
8
1
62
256
6
ByLayer
370
18
48
1
60
0
100
AcDbEllipse
10
10.470876
20
19.155177
30
0
11
0.0627170779605887
21
-0.59671313722096
31
0
210
0
220
0
230
1
40
0.996195
41
1.86072140909703
42
2.85166757128758
0
ELLIPSE
5
25A
100
AcDbEntity
8
1
62
256
6
ByLayer
370
18
48
1
60
0
100
AcDbEllipse
10
8.316293
20
16.507868
30
0
11
0.202693849334237
21
-1.9285031551953
31
0
210
0
220
0
230
1
40
0.996195
41
0.472282657636391
42
1.09851316343647
0
ELLIPSE
5
25B
100
AcDbEntity
8
1
62
256
6
ByLayer
370
18
48
1
60
0
100
AcDbEllipse
10
8.319477
20
16.508203
30
0
11
-0.190618916066125
21
1.81361783932199
31
0
210
0
220
0
230
1
40
0.996195
41
-3.0492841263421
42
-1.66310485532542
0
ELLIPSE
5
25C
100
AcDbEntity
8
1
62
256
6
ByLayer
370
18
48
1
60
0
100
AcDbEllipse
10
6.592781
20
14.034836
30
0
11
-0.513270553256643
21
4.88344310730418
31
0
210
0
220
0
230
1
40
0.996195
41
-1.59569839710096
42
-1.58589740403383
0
ELLIPSE
5
25D
100
AcDbEntity
8
1
62
256
6
ByLayer
370
18
48
1
60
0
100
AcDbEllipse
10
1.177814
20
17.924284
30
0
11
1.04528463267645
21
-9.94521895368253
31
0
210
0
220
0
230
1
40
0.996195
41
1.59569839710097
42
1.60570291183479
0
ELLIPSE
5
25E
100
AcDbEntity
8
1
62
256
6
ByLayer
370
18
48
1
60
0
100
AcDbEllipse
10
10.974199
20
14.366372
30
0
11
0.0627170779605887
21
-0.59671313722096
31
0
210
0
220
0
230
1
40
0.996195
41
0.289925082302202
42
1.28087124449273
0
ELLIPSE
5
25F
100
AcDbEntity
8
1
62
256
6
ByLayer
370
18
48
1
60
0
100
AcDbEllipse
10
8.316293
20
16.507868
30
0
11
0.202693849334237
21
-1.9285031551953
31
0
210
0
220
0
230
1
40
0.996195
41
2.04307898443128
42
2.66930949023135
0
ELLIPSE
5
260
100
AcDbEntity
8
1
62
256
6
ByLayer
370
18
48
1
60
0
100
AcDbEllipse
10
5.584594
20
18.930671
30
0
11
-0.021986775898656
21
0.20919019907313
31
0
210
0
220
0
230
1
40
0.996195
41
0.0349065850398795
42
0.289925082302071
0
ELLIPSE
5
261
100
AcDbEntity
8
1
62
256
6
ByLayer
370
18
48
1
60
0
100
AcDbEllipse
10
5.699614
20
18.653697
30
0
11
-0.0533453148789514
21
0.507546767683608
31
0
210
0
220
0
230
1
40
0.996195
41
0.289925082302095
42
1.28087124449275
0
ELLIPSE
5
262
100
AcDbEntity
8
1
62
256
6
ByLayer
370
18
48
1
60
0
100
AcDbEllipse
10
5.405832
20
18.709056
30
0
11
-0.0219867758986559
21
0.209190199073129
31
0
210
0
220
0
230
1
40
0.996195
41
1.28087124449272
42
1.53588974175497
0
ELLIPSE
5
263
100
AcDbEntity
8
1
62
256
6
ByLayer
370
18
48
1
60
0
100
AcDbEllipse
10
10.973519
20
14.366301
30
0
11
-0.0533453148789514
21
0.507546767683608
31
0
210
0
220
0
230
1
40
0.996195
41
-2.85166757128764
42
-1.86072140909706
0
ELLIPSE
5
264
100
AcDbEntity
8
1
62
256
6
ByLayer
370
18
48
1
60
0
100
AcDbEllipse
10
5.927085
20
13.749662
30
0
11
-0.021986775898656
21
0.20919019907313
31
0
210
0
220
0
230
1
40
0.996195
41
1.60570291183484
42
1.86072140909713
0
ELLIPSE
5
265
100
AcDbEntity
8
1
62
256
6
ByLayer
370
18
48
1
60
0
100
AcDbEllipse
10
10.746728
20
19.270407
30
0
11
0.0313585389802934
21
-0.298356568610471
31
0
210
0
220
0
230
1
40
0.996195
41
1.60570291183478
42
1.86072140909704
0
ELLIPSE
5
266
100
AcDbEntity
8
1
62
256
6
ByLayer
370
18
48
1
60
0
100
AcDbEllipse
10
5.869234
20
18.262262
30
0
11
-0.513270553256643
21
4.88344310730418
31
0
210
0
220
0
230
1
40
0.996195
41
3.11669058328373
42
3.12649157635086
0
ELLIPSE
5
267
100
AcDbEntity
8
1
62
256
6
ByLayer
370
18
48
1
60
0
100
AcDbEllipse
10
10.557541
20
14.451549
30
0
11
0.522642316338283
21
-4.97260947684175
31
0
210
0
220
0
230
1
40
0.996195
41
-1.55569524955596
42
-1.54589425648883
0
ELLIPSE
5
268
100
AcDbEntity
8
1
62
256
6
ByLayer
370
18
48
1
60
0
100
AcDbEllipse
10
6.884853
20
9.31886
30
0
11
-1.03591286959491
21
9.85605258414555
31
0
210
0
220
0
230
1
40
0.996195
41
0
42
0.0151010772389375
0
ELLIPSE
5
269
100
AcDbEntity
8
1
62
256
6
ByLayer
370
18
48
1
60
0
100
AcDbEllipse
10
5.869914
20
18.262333
30
0
11
0.522642316338283
21
-4.97260947684175
31
0
210
0
220
0
230
1
40
0.996195
41
-0.0249020703060695
42
-0.0151010772389343
0
ELLIPSE
5
26A
100
AcDbEntity
8
1
62
256
6
ByLayer
370
18
48
1
60
0
100
AcDbEllipse
10
11.252358
20
9.777903
30
0
11
1.04528463267649
21
-9.94521895368273
31
0
210
0
220
0
230
1
40
0.996195
41
3.12649157635086
42
3.14159265358979
0
ELLIPSE
5
26B
100
AcDbEntity
8
1
62
256
6
ByLayer
370
18
48
1
60
0
100
AcDbEllipse
10
6.933292
20
9.324936
30
0
11
-1.03591286959487
21
9.85605258414517
31
0
210
0
220
0
230
1
40
0.996195
41
0.0249020703060708
42
0.0349065850398926
0
ELLIPSE
5
26C
100
AcDbEntity
8
1
62
256
6
ByLayer
370
18
48
1
60
0
100
AcDbEllipse
10
15.042046
20
19.430738
30
0
11
1.04528463267649
21
-9.94521895368273
31
0
210
0
220
0
230
1
40
0.996195
41
-1.58589740403383
42
-1.5707963267949
0
ELLIPSE
5
26D
100
AcDbEntity
8
1
62
256
6
ByLayer
370
18
48
1
60
0
100
AcDbEllipse
10
5.700293
20
18.653769
30
0
11
0.0627170779605887
21
-0.59671313722096
31
0
210
0
220
0
230
1
40
0.996195
41
-2.85166757128763
42
-1.86072140909706
0
ELLIPSE
5
26E
100
AcDbEntity
8
1
62
256
6
ByLayer
370
18
48
1
60
0
100
AcDbEllipse
10
1.632447
20
13.589403
30
0
11
1.04528463267649
21
-9.94521895368273
31
0
210
0
220
0
230
1
40
0.996195
41
1.55569524955596
42
1.5707963267949
0
ELLIPSE
5
26F
100
AcDbEntity
8
1
62
256
6
ByLayer
370
18
48
1
60
0
100
AcDbEllipse
10
1.171722
20
17.972908
30
0
11
1.04528463267649
21
-9.94521895368273
31
0
210
0
220
0
230
1
40
0.996195
41
1.5707963267949
42
1.58589740403383
0
ELLIPSE
5
270
100
AcDbEntity
8
1
62
256
6
ByLayer
370
18
48
1
60
0
100
AcDbEllipse
10
15.045516
20
19.381838
30
0
11
-1.03591286959487
21
9.85605258414517
31
0
210
0
220
0
230
1
40
0.996195
41
1.53588974175501
42
1.54589425648883
0
ELLIPSE
5
271
100
AcDbEntity
8
1
62
256
6
ByLayer
370
18
48
1
60
0
100
AcDbEllipse
10
6.885533
20
9.318931
30
0
11
1.04528463267649
21
-9.94521895368273
31
0
210
0
220
0
230
1
40
0.996195
41
3.14159265358979
42
-3.12649157635086
0
ELLIPSE
5
272
100
AcDbEntity
8
1
62
256
6
ByLayer
370
18
48
1
60
0
100
AcDbEllipse
10
8.319477
20
16.508203
30
0
11
-0.180065975550191
21
1.71321331718965
31
0
210
0
220
0
230
1
40
0.996195
41
0
42
6.28318530717959
0
ELLIPSE
5
273
100
AcDbEntity
8
1
62
256
6
ByLayer
370
18
48
1
60
0
100
AcDbEllipse
10
8.353251
20
16.511752
30
0
11
-0.170921232399303
21
1.62620689801184
31
0
210
0
220
0
230
1
40
0.996195
41
-0.926046847203454
42
0
0
ELLIPSE
5
274
100
AcDbEntity
8
1
62
256
6
ByLayer
370
18
48
1
60
0
100
AcDbEllipse
10
8.353251
20
16.511752
30
0
11
-0.170921232399303
21
1.62620689801184
31
0
210
0
220
0
230
1
40
0.996195
41
0
42
-2.21557243465675
0
ELLIPSE
5
275
100
AcDbEntity
8
1
62
256
6
ByLayer
370
18
48
1
60
0
100
AcDbEllipse
10
15.502091
20
15.047161
30
0
11
-1.03591286959491
21
9.85605258414555
31
0
210
0
220
0
230
1
40
0.996195
41
1.5707963267949
42
1.58589740403383
0
ELLIPSE
5
276
100
AcDbEntity
8
1
62
256
6
ByLayer
370
18
48
1
60
0
100
AcDbEllipse
10
11.088539
20
14.089326
30
0
11
-0.021986775898656
21
0.20919019907313
31
0
210
0
220
0
230
1
40
0.996195
41
-3.10668606854991
42
-2.85166757128759
0
ELLIPSE
5
277
100
AcDbEntity
8
1
62
256
6
ByLayer
370
18
48
1
60
0
100
AcDbEllipse
10
9.78828
20
23.701138
30
0
11
-1.03591286959491
21
9.85605258414555
31
0
210
0
220
0
230
1
40
0.996195
41
-3.14159265358979
42
-3.12649157635086
0
ELLIPSE
5
278
100
AcDbEntity
8
1
62
256
6
ByLayer
370
18
48
1
60
0
100
AcDbEllipse
10
11.203035
20
9.773704
30
0
11
-1.03591286959487
21
9.85605258414517
31
0
210
0
220
0
230
1
40
0.996195
41
-0.0349065850398955
42
-0.024902070306072
0
ELLIPSE
5
279
100
AcDbEntity
8
1
62
256
6
ByLayer
370
18
48
1
60
0
100
AcDbEllipse
10
8.319477
20
16.508203
30
0
11
-0.190618916066125
21
1.81361783932199
31
0
210
0
220
0
230
1
40
0.996195
41
1.6631048540426
42
3.04928412505929
0
ELLIPSE
5
27A
100
AcDbEntity
8
1
62
256
6
ByLayer
370
18
48
1
60
0
100
AcDbEllipse
10
9.740521
20
23.695133
30
0
11
1.04528463267645
21
-9.94521895368253
31
0
210
0
220
0
230
1
40
0.996195
41
0.0249020703060687
42
0.0349065850398931
0
ELLIPSE
5
27B
100
AcDbEntity
8
1
62
256
6
ByLayer
370
18
48
1
60
0
100
AcDbEllipse
10
8.327687
20
16.509066
30
0
11
-0.175449466207771
21
1.66929016479955
31
0
210
0
220
0
230
1
40
0.996195
41
0
42
6.28318530717959
0
ELLIPSE
5
27C
100
AcDbEntity
8
1
62
256
6
ByLayer
370
18
48
1
60
0
100
AcDbEllipse
10
5.406512
20
18.709127
30
0
11
0.0313585389802934
21
-0.298356568610471
31
0
210
0
220
0
230
1
40
0.996195
41
-1.86072140909704
42
-1.60570291183479
0
ELLIPSE
5
27D
100
AcDbEntity
8
1
62
256
6
ByLayer
370
18
48
1
60
0
100
AcDbEllipse
10
6.148017
20
13.570057
30
0
11
-0.0219867758986559
21
0.209190199073129
31
0
210
0
220
0
230
1
40
0.996195
41
2.85166757128772
42
3.10668606855004
0
ELLIPSE
5
27E
100
AcDbEntity
8
1
62
256
6
ByLayer
370
18
48
1
60
0
100
AcDbEllipse
10
10.081031
20
18.985233
30
0
11
0.522642316338283
21
-4.97260947684175
31
0
210
0
220
0
230
1
40
0.996195
41
-1.59569839710096
42
-1.58589740403383
0
ELLIPSE
5
27F
100
AcDbEntity
8
1
62
256
6
ByLayer
370
18
48
1
60
0
100
AcDbEllipse
10
8.315577
20
16.507793
30
0
11
-0.205410709319574
21
1.95435235126681
31
0
210
0
220
0
230
1
40
0.996195
41
-1.09851366915851
42
-0.472283521621044
0
ELLIPSE
5
280
100
AcDbEntity
8
1
62
256
6
ByLayer
370
18
48
1
60
0
100
AcDbEllipse
10
10.470196
20
19.155106
30
0
11
-0.0533453148789514
21
0.507546767683608
31
0
210
0
220
0
230
1
40
0.996195
41
-1.28087124449273
42
-0.289925082302146
0
ELLIPSE
5
281
100
AcDbEntity
8
1
62
256
6
ByLayer
370
18
48
1
60
0
100
AcDbEllipse
10
6.933972
20
9.325008
30
0
11
1.04528463267645
21
-9.94521895368253
31
0
210
0
220
0
230
1
40
0.996195
41
-3.11669058328372
42
-3.1066860685499
0
ELLIPSE
5
282
100
AcDbEntity
8
1
62
256
6
ByLayer
370
18
48
1
60
0
100
AcDbEllipse
10
10.080352
20
18.985161
30
0
11
-0.513270553256643
21
4.88344310730418
31
0
210
0
220
0
230
1
40
0.996195
41
1.54589425648883
42
1.55569524955596
0
ELLIPSE
5
283
100
AcDbEntity
8
1
62
256
6
ByLayer
370
18
48
1
60
0
100
AcDbEllipse
10
1.628296
20
13.638231
30
0
11
1.04528463267645
21
-9.94521895368253
31
0
210
0
220
0
230
1
40
0.996195
41
1.53588974175501
42
1.54589425648883
0
ELLIPSE
5
284
100
AcDbEntity
8
1
62
256
6
ByLayer
370
18
48
1
60
0
100
AcDbEllipse
10
8.315577
20
16.507793
30
0
11
-0.205410709319574
21
1.95435235126681
31
0
210
0
220
0
230
1
40
0.996195
41
-2.66930999595338
42
-2.04307984841592
0
ELLIPSE
5
285
100
AcDbEntity
8
1
62
256
6
ByLayer
370
18
48
1
60
0
100
AcDbEllipse
10
6.593461
20
14.034908
30
0
11
0.522642316338283
21
-4.97260947684175
31
0
210
0
220
0
230
1
40
0.996195
41
1.54589425648883
42
1.55569524955596
0
ELLIPSE
5
286
100
AcDbEntity
8
1
62
256
6
ByLayer
370
18
48
1
60
0
100
AcDbEllipse
10
8.316293
20
16.507868
30
0
11
0.202693849334237
21
-1.9285031551953
31
0
210
0
220
0
230
1
40
0.996195
41
-1.0985136691585
42
-0.472283163358428
0
ELLIPSE
5
287
100
AcDbEntity
8
1
62
256
6
ByLayer
370
18
48
1
60
0
100
AcDbEllipse
10
10.386346
20
18.737029
30
0
11
0.522642316338283
21
-4.97260947684175
31
0
210
0
220
0
230
1
40
0.996195
41
0.0151010772389343
42
0.0249020703060638
0
ELLIPSE
5
288
100
AcDbEntity
8
1
62
256
6
ByLayer
370
18
48
1
60
0
100
AcDbEllipse
10
10.746048
20
19.270335
30
0
11
-0.021986775898656
21
0.20919019907313
31
0
210
0
220
0
230
1
40
0.996195
41
-1.53588974175494
42
-1.28087124449268
0
ELLIPSE
5
289
100
AcDbEntity
8
1
62
256
6
ByLayer
370
18
48
1
60
0
100
AcDbEllipse
10
11.089219
20
14.089398
30
0
11
0.0313585389802934
21
-0.298356568610471
31
0
210
0
220
0
230
1
40
0.996195
41
0.0349065850398174
42
0.289925082302119
0
ELLIPSE
5
28A
100
AcDbEntity
8
1
62
256
6
ByLayer
370
18
48
1
60
0
100
AcDbEllipse
10
10.525796
20
19.450012
30
0
11
0.0313585389802934
21
-0.298356568610471
31
0
210
0
220
0
230
1
40
0.996195
41
2.85166757128758
42
3.10668606854979
0
ELLIPSE
5
28B
100
AcDbEntity
8
1
62
256
6
ByLayer
370
18
48
1
60
0
100
AcDbEllipse
10
15.046196
20
19.381909
30
0
11
1.04528463267645
21
-9.94521895368253
31
0
210
0
220
0
230
1
40
0.996195
41
-1.60570291183479
42
-1.59569839710097
0
ELLIPSE
5
28C
100
AcDbEntity
8
1
62
256
6
ByLayer
370
18
48
1
60
0
100
AcDbEllipse
10
11.267981
20
14.311013
30
0
11
0.0313585389802934
21
-0.298356568610471
31
0
210
0
220
0
230
1
40
0.996195
41
1.28087124449275
42
1.53588974175499
0
ELLIPSE
5
28D
100
AcDbEntity
8
1
62
256
6
ByLayer
370
18
48
1
60
0
100
AcDbEllipse
10
15.041366
20
19.430667
30
0
11
1.03591286959486
21
-9.85605258414556
31
0
210
0
220
0
230
1
40
0.996195
41
-1.58589740403383
42
-1.5707963267949
0
ELLIPSE
5
28E
100
AcDbEntity
8
1
62
256
6
ByLayer
370
18
48
1
60
0
100
AcDbEllipse
10
5.585274
20
18.930743
30
0
11
0.0313585389802934
21
-0.298356568610471
31
0
210
0
220
0
230
1
40
0.996195
41
-3.10668606854988
42
-2.85166757128766
0
ELLIPSE
5
28F
100
AcDbEntity
8
1
62
256
6
ByLayer
370
18
48
1
60
0
100
AcDbEllipse
10
8.338113
20
16.510161
30
0
11
-0.172197742311908
21
1.6383520785498
31
0
210
0
220
0
230
1
40
0.996195
41
0
42
6.28318530717959
0
ELLIPSE
5
290
100
AcDbEntity
8
1
62
256
6
ByLayer
370
18
48
1
60
0
100
AcDbEllipse
10
-2.098238
20
-4.235128
30
0
11
0.775
21
0
31
0
210
0
220
0
230
1
40
0.45399
41
2.9905934750034
42
-0.801663412696885
0
ELLIPSE
5
291
100
AcDbEntity
8
1
62
256
6
ByLayer
370
18
48
0.05
60
0
100
AcDbEllipse
10
11.252358
20
-9.777903
30
0
11
1.04528463267649
21
9.94521895368273
31
0
210
0
220
0
230
-1
40
0.996195
41
3.12649157635086
42
3.14159265358979
0
ELLIPSE
5
292
100
AcDbEntity
8
1
62
256
6
ByLayer
370
18
48
0.05
60
0
100
AcDbEllipse
10
10.804579
20
-14.757808
30
0
11
0.522642316338283
21
4.97260947684175
31
0
210
0
220
0
230
-1
40
0.996195
41
3.11669058328373
42
3.12649157635085
0
ELLIPSE
5
293
100
AcDbEntity
8
1
62
256
6
ByLayer
370
18
48
0.05
60
0
100
AcDbEllipse
10
11.203715
20
-9.773776
30
0
11
1.04528463267646
21
9.94521895368253
31
0
210
0
220
0
230
-1
40
0.996195
41
3.10668606854991
42
3.11669058328373
0
ELLIPSE
5
294
100
AcDbEntity
8
1
62
256
6
ByLayer
370
18
48
0.05
60
0
100
AcDbEllipse
10
10.525796
20
-19.450012
30
0
11
0.0313585389802934
21
0.298356568610471
31
0
210
0
220
0
230
-1
40
0.996195
41
2.85166757128758
42
3.10668606854979
0
ELLIPSE
5
295
100
AcDbEntity
8
1
62
256
6
ByLayer
370
18
48
0.05
60
0
100
AcDbEllipse
10
10.470876
20
-19.155177
30
0
11
0.0627170779605888
21
0.59671313722096
31
0
210
0
220
0
230
-1
40
0.996195
41
1.86072140909703
42
2.85166757128758
0
ELLIPSE
5
296
100
AcDbEntity
8
1
62
256
6
ByLayer
370
18
48
0.05
60
0
100
AcDbEllipse
10
10.746728
20
-19.270407
30
0
11
0.0313585389802934
21
0.298356568610471
31
0
210
0
220
0
230
-1
40
0.996195
41
1.60570291183478
42
1.86072140909704
0
ELLIPSE
5
297
100
AcDbEntity
8
1
62
256
6
ByLayer
370
18
48
0.05
60
0
100
AcDbEllipse
10
1.177814
20
-17.924284
30
0
11
1.04528463267646
21
9.94521895368253
31
0
210
0
220
0
230
-1
40
0.996195
41
1.59569839710097
42
1.60570291183479
0
ELLIPSE
5
298
100
AcDbEntity
8
1
62
256
6
ByLayer
370
18
48
0.05
60
0
100
AcDbEllipse
10
6.116952
20
-18.568591
30
0
11
0.522642316338283
21
4.97260947684175
31
0
210
0
220
0
230
-1
40
0.996195
41
1.58589740403383
42
1.59569839710097
0
ELLIPSE
5
299
100
AcDbEntity
8
1
62
256
6
ByLayer
370
18
48
0.05
60
0
100
AcDbEllipse
10
1.171722
20
-17.972908
30
0
11
1.04528463267649
21
9.94521895368273
31
0
210
0
220
0
230
-1
40
0.996195
41
1.5707963267949
42
1.58589740403383
0
POINT
5
6C
100
AcDbEntity
8
80
62
256
6
ByLayer
370
13
48
1
60
0
100
AcDbPoint
10
0
20
0
30
0
39
0
210
0
220
0
230
1
50
360
0
POINT
5
6E
100
AcDbEntity
8
81
62
256
6
ByLayer
370
13
48
1
60
0
100
AcDbPoint
10
11
20
19.75
30
0
39
0
210
0
220
0
230
1
50
360
0
SPLINE
5
29A
100
AcDbEntity
8
1
62
256
6
ByLayer
370
18
48
1
60
0
100
AcDbSpline
70
4
71
3
72
14
73
10
40
0
40
0
40
0
40
0
40
0.091114290342827
40
0.091114290342827
40
0.285754355940538
40
0.285754355940538
40
0.522538257891373
40
0.522538257891373
40
1
40
1
40
1
40
1
41
1
10
7.21299711331133
20
13.2021854608922
30
0
41
1
10
7.21440359683234
20
13.2023332882671
30
0
41
1
10
7.21703648811115
20
13.2034155220511
30
0
41
1
10
7.22870642063035
20
13.2095392279822
30
0
41
1
10
7.24183025054907
20
13.2178071458824
30
0
41
1
10
7.27657701587293
20
13.2420401200535
30
0
41
1
10
7.29968944381324
20
13.2594845247993
30
0
41
1
10
7.37206837531161
20
13.3193270071081
30
0
41
1
10
7.42561487669189
20
13.3703921010105
30
0
41
1
10
7.47568446480082
20
13.4285374677837
30
0
0
SPLINE
5
29B
100
AcDbEntity
8
1
62
256
6
ByLayer
370
18
48
1
60
0
100
AcDbSpline
70
4
71
3
72
8
73
4
40
0
40
0
40
0
40
0
40
1
40
1
40
1
40
1
41
1
10
4.06884661678106
20
18.1767346855871
30
0
41
1
10
3.96674593341274
20
18.162302205052
30
0
41
1
10
3.86442759048686
20
18.1451355776608
30
0
41
1
10
3.76282102380881
20
18.1254288155322
30
0
0
SPLINE
5
29C
100
AcDbEntity
8
1
62
256
6
ByLayer
370
18
48
1
60
0
100
AcDbSpline
70
4
71
3
72
12
73
8
40
0
40
0
40
0
40
0
40
0.397426020171268
40
0.397426020171268
40
0.894578684496459
40
0.894578684496459
40
1
40
1
40
1
40
1
41
1
10
5.34286368815103
20
15.3754506931362
30
0
41
1
10
5.32967346937107
20
15.3616059688545
30
0
41
1
10
5.31800568707331
20
15.3492748450453
30
0
41
1
10
5.29640548075957
20
15.3273882245329
30
0
41
1
10
5.28742516449808
20
15.3191535189766
30
0
41
1
10
5.28137792900117
20
15.3159414616927
30
0
41
1
10
5.28048758519455
20
15.3156196967039
30
0
41
1
10
5.27977561345836
20
15.315544865459
30
0
0
SPLINE
5
29D
100
AcDbEntity
8
1
62
256
6
ByLayer
370
18
48
1
60
0
100
AcDbSpline
70
4
71
3
72
20
73
16
40
0
40
0
40
0
40
0
40
0.112992722196425
40
0.112992722196425
40
0.34527655251512
40
0.34527655251512
40
0.512098162801545
40
0.512098162801545
40
0.650136016552988
40
0.650136016552988
40
0.789055331173244
40
0.789055331173244
40
0.914865699021838
40
0.914865699021838
40
1
40
1
40
1
40
1
41
1
10
-2.23296568185356
20
-7.36284417535813
30
0
41
1
10
-2.24652900853104
20
-7.41908466086207
30
0
41
1
10
-2.26398230470889
20
-7.47393801386943
30
0
41
1
10
-2.32890649293711
20
-7.63485494891637
30
0
41
1
10
-2.3898875992783
20
-7.73582777491603
30
0
41
1
10
-2.51224888391235
20
-7.87234236983366
30
0
41
1
10
-2.56981895790327
20
-7.91919376004597
30
0
41
1
10
-2.67197804263654
20
-7.97414963272087
30
0
41
1
10
-2.71796961570453
20
-7.98795623003784
30
0
41
1
10
-2.79546765805796
20
-7.99051171653556
30
0
41
1
10
-2.82781269203568
20
-7.97920335157411
30
0
41
1
10
-2.86620824469577
20
-7.93792461728918
30
0
41
1
10
-2.87497126650692
20
-7.90933848146702
30
0
41
1
10
-2.87156525257501
20
-7.85136368140249
30
0
41
1
10
-2.86522355930552
20
-7.82475548880842
30
0
41
1
10
-2.8544887083084
20
-7.79588221429392
30
0
0
SPLINE
5
29E
100
AcDbEntity
8
1
62
256
6
ByLayer
370
18
48
1
60
0
100
AcDbSpline
70
4
71
3
72
8
73
4
40
0
40
0
40
0
40
0
40
1
40
1
40
1
40
1
41
1
10
4.06884661678106
20
-8.45960344824226
30
0
41
1
10
3.96674593341274
20
-8.4450483470039
30
0
41
1
10
3.86442759048686
20
-8.43379765921273
30
0
41
1
10
3.76282102380881
20
-8.42585465800906
30
0
0
SPLINE
5
29F
100
AcDbEntity
8
1
62
256
6
ByLayer
370
18
48
1
60
0
100
AcDbSpline
70
4
71
3
72
8
73
4
40
0
40
0
40
0
40
0
40
1
40
1
40
1
40
1
41
1
10
4.50957931237568
20
-6.14644413178698
30
0
41
1
10
4.33668809820364
20
-6.12494025605199
30
0
41
1
10
4.16440116032925
20
-6.10026730679408
30
0
41
1
10
3.99370200110946
20
-6.07256969316225
30
0
0
SPLINE
5
2A0
100
AcDbEntity
8
1
62
256
6
ByLayer
370
18
48
1
60
0
100
AcDbSpline
70
4
71
2
72
6
73
3
40
0
40
0
40
0
40
1
40
1
40
1
41
0.500000001248399
10
3.99273413995443
20
-6.07241349118007
30
0
41
0.499999998751601
10
3.99321810773609
20
-6.072491176714
30
0
41
0.500000001248399
10
3.99370200110943
20
-6.07256969316223
30
0
0
SPLINE
5
2A1
100
AcDbEntity
8
1
62
256
6
ByLayer
370
18
48
1
60
0
100
AcDbSpline
70
4
71
3
72
10
73
6
40
0
40
0
40
0
40
0
40
0.487904522530141
40
0.487904522530141
40
1
40
1
40
1
40
1
41
1
10
-1.35600963898912
20
-4.4560111690511
30
0
41
1
10
-1.33518559501556
20
-4.43680430200541
30
0
41
1
10
-1.32376953236323
20
-4.40887856226107
30
0
41
1
10
-1.32271908716311
20
-4.34094677043248
30
0
41
1
10
-1.33418392581117
20
-4.29937841402977
30
0
41
1
10
-1.35600963898912
20
-4.25354512394645
30
0
0
SPLINE
5
2A2
100
AcDbEntity
8
1
62
256
6
ByLayer
370
18
48
1
60
0
100
AcDbSpline
70
4
71
2
72
6
73
3
40
0
40
0
40
0
40
1
40
1
40
1
41
0.500000008998202
10
4.50957931237567
20
-6.14644413178691
30
0
41
0.499999991001798
10
4.51007319643546
20
-6.14650556013365
30
0
41
0.500000008998202
10
4.51056699815062
20
-6.14656782787862
30
0
0
SPLINE
5
2A3
100
AcDbEntity
8
1
62
256
6
ByLayer
370
18
48
1
60
0
100
AcDbSpline
70
4
71
3
72
8
73
4
40
0
40
0
40
0
40
0
40
1
40
1
40
1
40
1
41
1
10
10.9467912536255
20
-8.41948365824962
30
0
41
1
10
10.9469809861745
20
-8.44358255912755
30
0
41
1
10
10.9469802116695
20
-8.46753627367735
30
0
41
1
10
10.9468444866942
20
-8.49140042947161
30
0
0
SPLINE
5
2A4
100
AcDbEntity
8
1
62
256
6
ByLayer
370
18
48
1
60
0
100
AcDbSpline
70
4
71
3
72
8
73
4
40
0
40
0
40
0
40
0
40
1
40
1
40
1
40
1
41
1
10
10.9468444866935
20
-8.49140042946686
30
0
41
1
10
10.9465615227692
20
-8.54115321195982
30
0
41
1
10
10.9463009372275
20
-8.59117926203169
30
0
41
1
10
10.9459235757844
20
-8.64124384919919
30
0
0
SPLINE
5
2A5
100
AcDbEntity
8
1
62
256
6
ByLayer
370
18
48
1
60
0
100
AcDbSpline
70
4
71
3
72
8
73
4
40
0
40
0
40
0
40
0
40
1
40
1
40
1
40
1
41
1
10
10.5971482316641
20
-8.74523735725819
30
0
41
1
10
10.5689885931224
20
-8.70368157894981
30
0
41
1
10
10.5406637882824
20
-8.66217876618572
30
0
41
1
10
10.5114306248996
20
-8.62122673659781
30
0
0
SPLINE
5
2A6
100
AcDbEntity
8
1
62
256
6
ByLayer
370
18
48
1
60
0
100
AcDbSpline
70
4
71
3
72
10
73
6
40
0
40
0
40
0
40
0
40
0.556741584505545
40
0.556741584505545
40
1
40
1
40
1
40
1
41
1
10
10.6283309958463
20
-8.73591408960198
30
0
41
1
10
10.6596680386394
20
-8.69257250383353
30
0
41
1
10
10.6981158725749
20
-8.65348133675661
30
0
41
1
10
10.7594140944626
20
-8.57880518990726
30
0
41
1
10
10.7847784723751
20
-8.54423777156509
30
0
41
1
10
10.8067385705249
20
-8.50804138675761
30
0
0
SPLINE
5
2A7
100
AcDbEntity
8
1
62
256
6
ByLayer
370
18
48
1
60
0
100
AcDbSpline
70
4
71
3
72
10
73
6
40
0
40
0
40
0
40
0
40
0.166376621465335
40
0.166376621465335
40
1
40
1
40
1
40
1
41
1
10
11.4045949585785
20
-6.19587956583135
30
0
41
1
10
11.4065306239878
20
-6.20142798502809
30
0
41
1
10
11.4084562527265
20
-6.20697722171548
30
0
41
1
10
11.4199700404972
20
-6.24032922578272
30
0
41
1
10
11.4293169443798
20
-6.26813570480451
30
0
41
1
10
11.4384141914841
20
-6.29595226410791
30
0
0
SPLINE
5
2A8
100
AcDbEntity
8
1
62
256
6
ByLayer
370
18
48
1
60
0
100
AcDbSpline
70
4
71
3
72
10
73
6
40
0
40
0
40
0
40
0
40
0.833623378534658
40
0.833623378534658
40
1
40
1
40
1
40
1
41
1
10
5.81088461612379
20
-7.97389926384068
30
0
41
1
10
5.85698436366616
20
-7.92962474899542
30
0
41
1
10
5.90310749737941
20
-7.88527890187044
30
0
41
1
10
5.95845439728797
20
-7.83199120687698
30
0
41
1
10
5.96766316240064
20
-7.82312205467318
30
0
41
1
10
5.97687307269328
20
-7.81425038589441
30
0
0
SPLINE
5
2A9
100
AcDbEntity
8
1
62
256
6
ByLayer
370
18
48
1
60
0
100
AcDbSpline
70
4
71
3
72
8
73
4
40
0
40
0
40
0
40
0
40
1
40
1
40
1
40
1
41
1
10
10.5114306248991
20
-8.62122673660292
30
0
41
1
10
10.4974088007842
20
-8.60158390327376
30
0
41
1
10
10.4836654125112
20
-8.58172825278356
30
0
41
1
10
10.4705651981548
20
-8.56147883930925
30
0
0
SPLINE
5
2AA
100
AcDbEntity
8
1
62
256
6
ByLayer
370
18
48
1
60
0
100
AcDbSpline
70
4
71
3
72
8
73
4
40
0
40
0
40
0
40
0
40
1
40
1
40
1
40
1
41
1
10
11.4651473434677
20
-6.3617417653897
30
0
41
1
10
11.4617766278726
20
-6.34395221354924
30
0
41
1
10
11.4578715212881
20
-6.32635732790544
30
0
41
1
10
11.4534266883584
20
-6.30895830954952
30
0
0
SPLINE
5
2AB
100
AcDbEntity
8
1
62
256
6
ByLayer
370
18
48
1
60
0
100
AcDbSpline
70
4
71
3
72
10
73
6
40
0
40
0
40
0
40
0
40
0.412495646220178
40
0.412495646220178
40
1
40
1
40
1
40
1
41
1
10
5.50655964090515
20
-7.83969581446391
30
0
41
1
10
5.55724432723861
20
-7.72777383525823
30
0
41
1
10
5.60908022982417
20
-7.61612853244819
30
0
41
1
10
5.73717462031809
20
-7.34619907862287
30
0
41
1
10
5.81447968540121
20
-7.18818173199188
30
0
41
1
10
5.8935939317999
20
-7.03081148498703
30
0
0
SPLINE
5
2AC
100
AcDbEntity
8
1
62
256
6
ByLayer
370
18
48
1
60
0
100
AcDbSpline
70
4
71
3
72
10
73
6
40
0
40
0
40
0
40
0
40
0.412495646220178
40
0.412495646220178
40
1
40
1
40
1
40
1
41
1
10
10.806738570524
20
-8.50804138675775
30
0
41
1
10
10.7834290959642
20
-8.38678884145889
30
0
41
1
10
10.7590747917477
20
-8.2655360540619
30
0
41
1
10
10.697801307948
20
-7.97172756105707
30
0
41
1
10
10.6599294746838
20
-7.79918655945946
30
0
41
1
10
10.6203768348601
20
-7.62685257461902
30
0
0
SPLINE
5
2AD
100
AcDbEntity
8
1
62
256
6
ByLayer
370
18
48
1
60
0
100
AcDbSpline
70
4
71
3
72
8
73
4
40
0
40
0
40
0
40
0
40
1
40
1
40
1
40
1
41
1
10
11.4680598146239
20
-6.38591235467217
30
0
41
1
10
11.4616367142692
20
-6.36522189350649
30
0
41
1
10
11.4550619549287
20
-6.34472064451558
30
0
41
1
10
11.4483314788582
20
-6.32526193266636
30
0
0
SPLINE
5
2AE
100
AcDbEntity
8
1
62
256
6
ByLayer
370
18
48
1
60
0
100
AcDbSpline
70
4
71
3
72
20
73
16
40
0
40
0
40
0
40
0
40
0.0841205154877702
40
0.0841205154877702
40
0.198111916060468
40
0.198111916060468
40
0.279744046047876
40
0.279744046047876
40
0.373904909164449
40
0.373904909164449
40
0.46649632896541
40
0.46649632896541
40
0.735358530118765
40
0.735358530118765
40
1
40
1
40
1
40
1
41
1
10
11.4680598146285
20
-6.38591235471654
30
0
41
1
10
11.4682030377936
20
-6.3863737134339
30
0
41
1
10
11.4683398762348
20
-6.38677881191123
30
0
41
1
10
11.4686316629634
20
-6.38751225461289
30
0
41
1
10
11.4687796876156
20
-6.38777134179622
30
0
41
1
10
11.4689475370373
20
-6.38768616000078
30
0
41
1
10
11.4689918605793
20
-6.38748343210213
30
0
41
1
10
11.4690082024144
20
-6.38664802212875
30
0
41
1
10
11.4689677128945
20
-6.38593968096978
30
0
41
1
10
11.4688102609125
20
-6.38423871263615
30
0
41
1
10
11.4686943533416
20
-6.38323686041849
30
0
41
1
10
11.4681679248852
20
-6.37915484430619
30
0
41
1
10
11.4676128017554
20
-6.37563343384531
30
0
41
1
10
11.4664431721061
20
-6.36872993597459
30
0
41
1
10
11.465808595498
20
-6.36523164074163
30
0
41
1
10
11.4651473434676
20
-6.36174176538958
30
0
0
SPLINE
5
2AF
100
AcDbEntity
8
1
62
256
6
ByLayer
370
18
48
1
60
0
100
AcDbSpline
70
4
71
3
72
10
73
6
40
0
40
0
40
0
40
0
40
0.833623378534657
40
0.833623378534657
40
1
40
1
40
1
40
1
41
1
10
10.9467912536237
20
-8.41948365823768
30
0
41
1
10
10.9462802571271
20
-8.35457938125643
30
0
41
1
10
10.9455199081894
20
-8.28968386999361
30
0
41
1
10
10.9443045969259
20
-8.2118483064929
30
0
41
1
10
10.9440922697543
20
-8.19889858177868
30
0
41
1
10
10.9438699687471
20
-8.18594940314367
30
0
0
SPLINE
5
2B0
100
AcDbEntity
8
1
62
256
6
ByLayer
370
18
48
1
60
0
100
AcDbSpline
70
4
71
3
72
8
73
4
40
0
40
0
40
0
40
0
40
1
40
1
40
1
40
1
41
1
10
5.81088461612219
20
-7.97389926385347
30
0
41
1
10
5.79376782046188
20
-7.99033835221977
30
0
41
1
10
5.77611994675667
20
-8.00623560597836
30
0
41
1
10
5.75825696359311
20
-8.02185780716454
30
0
0
SPLINE
5
2B1
100
AcDbEntity
8
1
62
256
6
ByLayer
370
18
48
1
60
0
100
AcDbSpline
70
4
71
3
72
8
73
4
40
0
40
0
40
0
40
0
40
1
40
1
40
1
40
1
41
1
10
5.36605424626808
20
-7.93762968637913
30
0
41
1
10
5.3792604178212
20
-7.88918279524577
30
0
41
1
10
5.39259289654606
20
-7.84080509366297
30
0
41
1
10
5.40595194642282
20
-7.79270118836178
30
0
0
SPLINE
5
2B2
100
AcDbEntity
8
1
62
256
6
ByLayer
370
18
48
1
60
0
100
AcDbSpline
70
4
71
3
72
8
73
4
40
0
40
0
40
0
40
0
40
1
40
1
40
1
40
1
41
1
10
11.448331478859
20
-6.32526193267105
30
0
41
1
10
11.445103174401
20
-6.31592847014204
30
0
41
1
10
11.4417919913233
20
-6.30628052808856
30
0
41
1
10
11.4384141914859
20
-6.29595226411968
30
0
0
SPLINE
5
2B3
100
AcDbEntity
8
1
62
256
6
ByLayer
370
18
48
1
60
0
100
AcDbSpline
70
4
71
3
72
20
73
16
40
0
40
0
40
0
40
0
40
0.264641469901898
40
0.264641469901898
40
0.533503671076426
40
0.533503671076426
40
0.626095090884611
40
0.626095090884611
40
0.720255954008577
40
0.720255954008577
40
0.801888084002454
40
0.801888084002454
40
0.915879484584147
40
0.915879484584147
40
1
40
1
40
1
40
1
41
1
10
10.9367908168075
20
-8.64394136441422
30
0
41
1
10
10.9378108661123
20
-8.64588143966978
30
0
41
1
10
10.9388355572948
20
-8.64769466188781
30
0
41
1
10
10.9408994015221
20
-8.65073566152412
30
0
41
1
10
10.9419672859069
20
-8.65204223508715
30
0
41
1
10
10.9433407686984
20
-8.65246545838315
30
0
41
1
10
10.9436940179282
20
-8.65244212966491
30
0
41
1
10
10.9443519343346
20
-8.65198137641298
30
0
41
1
10
10.9446633313979
20
-8.65151955111054
30
0
41
1
10
10.9451371199257
20
-8.65023787676458
30
0
41
1
10
10.9453195064227
20
-8.64946134627621
30
0
41
1
10
10.9456516517876
20
-8.64738683505371
30
0
41
1
10
10.9457693170534
20
-8.64598011858268
30
0
41
1
10
10.9458895931009
20
-8.64346679912202
30
0
41
1
10
10.9459151613393
20
-8.64236019618599
30
0
41
1
10
10.9459235757956
20
-8.6412438492151
30
0
0
SPLINE
5
2B4
100
AcDbEntity
8
1
62
256
6
ByLayer
370
18
48
1
60
0
100
AcDbSpline
70
4
71
3
72
10
73
6
40
0
40
0
40
0
40
0
40
0.166376621465349
40
0.166376621465349
40
1
40
1
40
1
40
1
41
1
10
5.49125784022004
20
-7.49838220552098
30
0
41
1
10
5.48755592267167
20
-7.51083654537206
30
0
41
1
10
5.48386366511303
20
-7.52329390710182
30
0
41
1
10
5.46173011775207
20
-7.59818521032619
30
0
41
1
10
5.44352287271218
20
-7.66068893300596
30
0
41
1
10
5.42555735998738
20
-7.7232633465442
30
0
0
SPLINE
5
2B5
100
AcDbEntity
8
1
62
256
6
ByLayer
370
18
48
1
60
0
100
AcDbSpline
70
4
71
3
72
10
73
6
40
0
40
0
40
0
40
0
40
0.166376621465387
40
0.166376621465387
40
1
40
1
40
1
40
1
41
1
10
10.3436979773999
20
-8.36490124670468
30
0
41
1
10
10.3507276080635
20
-8.37582070017874
30
0
41
1
10
10.3577577883471
20
-8.38673756197849
30
0
41
1
10
10.4000214906101
20
-8.45233382516111
30
0
41
1
10
10.4352830935755
20
-8.50694218023799
30
0
41
1
10
10.470565198156
20
-8.56147883929643
30
0
0
SPLINE
5
2B6
100
AcDbEntity
8
1
62
256
6
ByLayer
370
18
48
1
60
0
100
AcDbSpline
70
4
71
3
72
20
73
16
40
0
40
0
40
0
40
0
40
0.264641469902237
40
0.264641469902237
40
0.533503671077095
40
0.533503671077095
40
0.626095090884896
40
0.626095090884896
40
0.7202559540088
40
0.7202559540088
40
0.801888084002835
40
0.801888084002835
40
0.915879484583947
40
0.915879484583947
40
1
40
1
40
1
40
1
41
1
10
5.62048360291675
20
-8.10443113851053
30
0
41
1
10
5.62181576417507
20
-8.1077209704668
30
0
41
1
10
5.62330369833001
20
-8.11096482212622
30
0
41
1
10
5.62686001317388
20
-8.11715668779527
30
0
41
1
10
5.62895674949985
20
-8.12021843914596
30
0
41
1
10
5.63264227911253
20
-8.12335851364139
30
0
41
1
10
5.63369306241276
20
-8.12408161620453
30
0
41
1
10
5.63596086215631
20
-8.12515334720632
30
0
41
1
10
5.63721532317615
20
-8.12549972139399
30
0
41
1
10
5.63954095384466
20
-8.12563683104162
30
0
41
1
10
5.64063973757416
20
-8.12549872138604
30
0
41
1
10
5.64310825965481
20
-8.12479782261218
30
0
41
1
10
5.64445801544554
20
-8.12409214582553
30
0
41
1
10
5.64659262519962
20
-8.12263523030268
30
0
41
1
10
5.64744838029307
20
-8.12193417259121
30
0
41
1
10
5.64825771839622
20
-8.12118879096454
30
0
0
SPLINE
5
2B7
100
AcDbEntity
8
1
62
256
6
ByLayer
370
18
48
1
60
0
100
AcDbSpline
70
4
71
3
72
10
73
6
40
0
40
0
40
0
40
0
40
0.556741584506924
40
0.556741584506924
40
1
40
1
40
1
40
1
41
1
10
10.9367908168075
20
-8.64394136441433
30
0
41
1
10
10.9213380024917
20
-8.61455099814683
30
0
41
1
10
10.8996587655185
20
-8.5933877756294
30
0
41
1
10
10.8537811828916
20
-8.55066798142485
30
0
41
1
10
10.8308391202784
20
-8.53050397862447
30
0
41
1
10
10.8067385705242
20
-8.50804138675784
30
0
0
SPLINE
5
2B8
100
AcDbEntity
8
1
62
256
6
ByLayer
370
18
48
1
60
0
100
AcDbSpline
70
4
71
3
72
20
73
16
40
0
40
0
40
0
40
0
40
0.0841205154872722
40
0.0841205154872722
40
0.198111916059885
40
0.198111916059885
40
0.279744046047925
40
0.279744046047925
40
0.373904909164332
40
0.373904909164332
40
0.466496328965347
40
0.466496328965347
40
0.73535853011878
40
0.73535853011878
40
1
40
1
40
1
40
1
41
1
10
10.5971482316289
20
-8.74523735728792
30
0
41
1
10
10.5977761390757
20
-8.74616397368277
30
0
41
1
10
10.5984597003839
20
-8.74705913716221
30
0
41
1
10
10.6002306873144
20
-8.74900854327564
30
0
41
1
10
10.6013991829241
20
-8.75003176824239
30
0
41
1
10
10.603669691143
20
-8.75133025248644
30
0
41
1
10
10.6047197013063
20
-8.7517393222177
30
0
41
1
10
10.6070396043561
20
-8.7521880082447
30
0
41
1
10
10.608352848223
20
-8.75216541825654
30
0
41
1
10
10.6108285300799
20
-8.75169183402809
30
0
41
1
10
10.6120273088597
20
-8.75125239827619
30
0
41
1
10
10.616370295278
20
-8.74912470906293
30
0
41
1
10
10.6191335918735
20
-8.74667580145345
30
0
41
1
10
10.6240527853601
20
-8.74155268620601
30
0
41
1
10
10.6262624193356
20
-8.7387750930109
30
0
41
1
10
10.6283309958463
20
-8.73591408960186
30
0
0
SPLINE
5
2B9
100
AcDbEntity
8
1
62
256
6
ByLayer
370
18
48
1
60
0
100
AcDbSpline
70
4
71
3
72
20
73
16
40
0
40
0
40
0
40
0
40
0.0841205154877559
40
0.0841205154877559
40
0.198111916060485
40
0.198111916060485
40
0.279744046047944
40
0.279744046047944
40
0.373904909164617
40
0.373904909164617
40
0.466496328965538
40
0.466496328965538
40
0.735358530118862
40
0.735358530118862
40
1
40
1
40
1
40
1
41
1
10
5.36605424625776
20
-7.93762968639231
30
0
41
1
10
5.36575977324881
20
-7.93870996175699
30
0
41
1
10
5.3654777938641
20
-7.93978423158566
30
0
41
1
10
5.36487345563876
20
-7.94223651144418
30
0
41
1
10
5.3645643670593
20
-7.94361908968781
30
0
41
1
10
5.36420172169974
20
-7.94568975490122
30
0
41
1
10
5.36410010311499
20
-7.94647647011681
30
0
41
1
10
5.36403492312476
20
-7.94780966946038
30
0
41
1
10
5.36409500259401
20
-7.94831833746363
30
0
41
1
10
5.36436268113175
20
-7.94889580701721
30
0
41
1
10
5.36456768526168
20
-7.94898953074778
30
0
41
1
10
5.36550750398956
20
-7.94885801172225
30
0
41
1
10
5.36651067880445
20
-7.94781259599264
30
0
41
1
10
5.3686045268
20
-7.9452958758618
30
0
41
1
10
5.36973357175464
20
-7.94375423692995
30
0
41
1
10
5.37090050036568
20
-7.94208993670506
30
0
0
SPLINE
5
2BA
100
AcDbEntity
8
1
62
256
6
ByLayer
370
18
48
1
60
0
100
AcDbSpline
70
4
71
3
72
10
73
6
40
0
40
0
40
0
40
0
40
0.556741584506913
40
0.556741584506913
40
1
40
1
40
1
40
1
41
1
10
5.62048360291672
20
-8.10443113851068
30
0
41
1
10
5.60030257787653
20
-8.05459319233879
30
0
41
1
10
5.57295214787817
20
-8.00720495096516
30
0
41
1
10
5.53320153860554
20
-7.919786679786
30
0
41
1
10
5.51796705171006
20
-7.88009979813987
30
0
41
1
10
5.50655964090433
20
-7.83969581446354
30
0
0
SPLINE
5
2BB
100
AcDbEntity
8
1
62
256
6
ByLayer
370
18
48
1
60
0
100
AcDbSpline
70
4
71
3
72
8
73
4
40
0
40
0
40
0
40
0
40
1
40
1
40
1
40
1
41
1
10
5.75825696359374
20
-8.02185780715942
30
0
41
1
10
5.72101562458889
20
-8.05442748967354
30
0
41
1
10
5.68455394090998
20
-8.08776081168631
30
0
41
1
10
5.64825771836897
20
-8.12118879092694
30
0
0
SPLINE
5
2BC
100
AcDbEntity
8
1
62
256
6
ByLayer
370
18
48
1
60
0
100
AcDbSpline
70
4
71
3
72
10
73
6
40
0
40
0
40
0
40
0
40
0.556741584505587
40
0.556741584505587
40
1
40
1
40
1
40
1
41
1
10
5.37090050036562
20
-7.94208993670517
30
0
41
1
10
5.38857840187464
20
-7.91687731000502
30
0
41
1
10
5.4098783953186
20
-7.90113371175525
30
0
41
1
10
5.45684659994473
20
-7.87012164886329
30
0
41
1
10
5.48069814785924
20
-7.85585825863151
30
0
41
1
10
5.50655964090492
20
-7.83969581446396
30
0
0
SPLINE
5
2BD
100
AcDbEntity
8
1
62
256
6
ByLayer
370
18
48
1
60
0
100
AcDbSpline
70
4
71
3
72
8
73
4
40
0
40
0
40
0
40
0
40
1
40
1
40
1
40
1
41
1
10
5.40595194642114
20
-7.79270118836621
30
0
41
1
10
5.41235967743734
20
-7.76962792426119
30
0
41
1
10
5.41888678093199
20
-7.74649717118902
30
0
41
1
10
5.42555735998334
20
-7.7232633465554
30
0
0
SPLINE
5
2BE
100
AcDbEntity
8
1
62
256
6
ByLayer
370
18
48
1
60
0
100
AcDbSpline
70
4
71
3
72
8
73
4
40
0
40
0
40
0
40
0
40
1
40
1
40
1
40
1
41
1
10
9.17525585532147
20
16.8365720003194
30
0
41
1
10
9.16890704270668
20
16.836488983377
30
0
41
1
10
9.16255586458959
20
16.8364058965837
30
0
41
1
10
9.15620217135654
20
16.836322735412
30
0
0
SPLINE
5
2BF
100
AcDbEntity
8
1
62
256
6
ByLayer
370
18
48
1
60
0
100
AcDbSpline
70
4
71
3
72
28
73
24
40
0
40
0
40
0
40
0
40
0.0150369069020669
40
0.0150369069020669
40
0.0981186418858696
40
0.0981186418858696
40
0.181219540011672
40
0.181219540011672
40
0.295253230613848
40
0.295253230613848
40
0.367364426758623
40
0.367364426758623
40
0.444270175317918
40
0.444270175317918
40
0.540606423808415
40
0.540606423808415
40
0.657731681451372
40
0.657731681451372
40
0.774746419981693
40
0.774746419981693
40
0.891711459268069
40
0.891711459268069
40
1
40
1
40
1
40
1
41
1
10
8.17439366961963
20
15.5990958279049
30
0
41
1
10
8.1742574082138
20
15.5976486734396
30
0
41
1
10
8.17407777900161
20
15.5962041747759
30
0
41
1
10
8.17262789841894
20
15.5869153588474
30
0
41
1
10
8.16998664179553
20
15.579116553137
30
0
41
1
10
8.16189724956962
20
15.5649505842036
30
0
41
1
10
8.156347087505
20
15.5584210852048
30
0
41
1
10
8.14099044585092
20
15.5454145045285
30
0
41
1
10
8.13014050858587
20
15.5395744382516
30
0
41
1
10
8.11153623911505
20
15.5327119228127
30
0
41
1
10
8.1039694768879
20
15.530643289961
30
0
41
1
10
8.08811347175617
20
15.5274207142359
30
0
41
1
10
8.07975960087779
20
15.526324989105
30
0
41
1
10
8.06087870292762
20
15.5248931469825
30
0
41
1
10
8.05028193092011
20
15.5248126031395
30
0
41
1
10
8.02690150199018
20
15.5258765364871
30
0
41
1
10
8.01407906150163
20
15.5272908669475
30
0
41
1
10
7.98871419332562
20
15.5314232951285
30
0
41
1
10
7.97612855302617
20
15.5341490448019
30
0
41
1
10
7.95130164516544
20
15.5407028150581
30
0
41
1
10
7.93903075158431
20
15.5445390863375
30
0
41
1
10
7.91578474679048
20
15.5528786149754
30
0
41
1
10
7.90476146411768
20
15.5573188360552
30
0
41
1
10
7.89393721477222
20
15.5621595504245
30
0
0
SPLINE
5
2C0
100
AcDbEntity
8
1
62
256
6
ByLayer
370
18
48
1
60
0
100
AcDbSpline
70
4
71
3
72
8
73
4
40
0
40
0
40
0
40
0
40
1
40
1
40
1
40
1
41
1
10
7.48307797946521
20
16.1801169198448
30
0
41
1
10
7.47609607754046
20
16.179967731279
30
0
41
1
10
7.46911599373121
20
16.1798185438339
30
0
41
1
10
7.46213762223692
20
16.1796693575869
30
0
0
SPLINE
5
2C1
100
AcDbEntity
8
1
62
256
6
ByLayer
370
18
48
1
60
0
100
AcDbSpline
70
4
71
3
72
26
73
22
40
0
40
0
40
0
40
0
40
0.0742301486906542
40
0.0742301486906542
40
0.125696238139649
40
0.125696238139649
40
0.200645519545607
40
0.200645519545607
40
0.293529030645379
40
0.293529030645379
40
0.396382571934826
40
0.396382571934826
40
0.499190126830611
40
0.499190126830611
40
0.558129055846343
40
0.558129055846343
40
0.765978231673781
40
0.765978231673781
40
0.910227308046385
40
0.910227308046385
40
1
40
1
40
1
40
1
41
1
10
9.15620217135654
20
16.836322735412
30
0
41
1
10
9.14547032287041
20
16.8361822701642
30
0
41
1
10
9.13443924463434
20
16.838079834715
30
0
41
1
10
9.1161589195502
20
16.8435037930563
30
0
41
1
10
9.10869852769861
20
16.8463824879241
30
0
41
1
10
9.09069264711511
20
16.8546377748987
30
0
41
1
10
9.08021367694519
20
16.860584486646
30
0
41
1
10
9.05743806808573
20
16.8755226452382
30
0
41
1
10
9.04520740139077
20
16.8849657472208
30
0
41
1
10
9.02047950595741
20
16.9065473967451
30
0
41
1
10
9.00800068541147
20
16.9189512072057
30
0
41
1
10
8.984371199452
20
16.9451970630767
30
0
41
1
10
8.97314593601877
20
16.9591235764678
30
0
41
1
10
8.9566613674121
20
16.9818915120224
30
0
41
1
10
8.95088020993694
20
16.9903972363412
30
0
41
1
10
8.92616444593762
20
17.029225841938
30
0
41
1
10
8.90983720538253
20
17.0617931179178
30
0
41
1
10
8.89109688817697
20
17.1175685137969
30
0
41
1
10
8.88576068500925
20
17.1411866470919
30
0
41
1
10
8.88418813208148
20
17.1781601308039
30
0
41
1
10
8.88531680299104
20
17.1923410737061
30
0
41
1
10
8.88911398926604
20
17.2052160114398
30
0
0
SPLINE
5
2C2
100
AcDbEntity
8
1
62
256
6
ByLayer
370
18
48
1
60
0
100
AcDbSpline
70
4
71
3
72
30
73
26
40
0
40
0
40
0
40
0
40
0.0212218158422809
40
0.0212218158422809
40
0.126059559525576
40
0.126059559525576
40
0.201107055759501
40
0.201107055759501
40
0.294112283011644
40
0.294112283011644
40
0.397100605353011
40
0.397100605353011
40
0.500042881039283
40
0.500042881039283
40
0.583971495240689
40
0.583971495240689
40
0.666565148488706
40
0.666565148488706
40
0.767859984421265
40
0.767859984421265
40
0.838720561297737
40
0.838720561297737
40
0.909748878403073
40
0.909748878403073
40
1
40
1
40
1
40
1
41
1
10
7.75016616155571
20
15.8112236438171
30
0
41
1
10
7.75137734015135
20
15.8143242035113
30
0
41
1
10
7.75243127240972
20
15.8174968626896
30
0
41
1
10
7.75776560423134
20
15.8364031461557
30
0
41
1
10
7.75882980048021
20
15.8533723217389
30
0
41
1
10
7.75702237754274
20
15.8822983950425
30
0
41
1
10
7.75515165651879
20
15.8945211255523
30
0
41
1
10
7.74908054684636
20
15.9216380383317
30
0
41
1
10
7.74440471118839
20
15.9365891432249
30
0
41
1
10
7.73244260801945
20
15.9674779527099
30
0
41
1
10
7.72488177703656
20
15.9834673232832
30
0
41
1
10
7.70776011588669
20
16.0144578409225
30
0
41
1
10
7.69814365741084
20
16.0295572862221
30
0
41
1
10
7.67912868474301
20
16.0558201313473
30
0
41
1
10
7.66997741985833
20
16.0672488447261
30
0
41
1
10
7.65080244668684
20
16.0888972799507
30
0
41
1
10
7.64075727915306
20
16.099176547985
30
0
41
1
10
7.61740148666649
20
16.1206642187651
30
0
41
1
10
7.60378443207074
20
16.1316405700982
30
0
41
1
10
7.57959907146403
20
16.1481540883696
30
0
41
1
10
7.56928864470885
20
16.154369296745
30
0
41
1
10
7.54811065880611
20
16.1651862288481
30
0
41
1
10
7.53717250494412
20
16.1698225023812
30
0
41
1
10
7.51199944433844
20
16.1777381163624
30
0
41
1
10
7.4973587308283
20
16.1804220694785
30
0
41
1
10
7.48307797946521
20
16.1801169198448
30
0
0
SPLINE
5
2C3
100
AcDbEntity
8
1
62
256
6
ByLayer
370
18
48
1
60
0
100
AcDbSpline
70
4
71
3
72
8
73
4
40
0
40
0
40
0
40
0
40
1
40
1
40
1
40
1
41
1
10
9.20613771274446
20
16.3612177954282
30
0
41
1
10
9.21236985271599
20
16.3624574586307
30
0
41
1
10
9.21859951706872
20
16.3636966716642
30
0
41
1
10
9.22482685308827
20
16.3649354612066
30
0
0
SPLINE
5
2C4
100
AcDbEntity
8
1
62
256
6
ByLayer
370
18
48
1
60
0
100
AcDbSpline
70
4
71
3
72
26
73
22
40
0
40
0
40
0
40
0
40
0.0086569148768669
40
0.0086569148768669
40
0.125591395709214
40
0.125591395709214
40
0.242553460371793
40
0.242553460371793
40
0.359581429952894
40
0.359581429952894
40
0.476756419374675
40
0.476756419374675
40
0.594287938352896
40
0.594287938352896
40
0.734087980384771
40
0.734087980384771
40
0.816818773651448
40
0.816818773651448
40
0.904422913955494
40
0.904422913955494
40
1
40
1
40
1
40
1
41
1
10
7.70654285180129
20
17.3450978163826
30
0
41
1
10
7.70730949431521
20
17.3456567526681
30
0
41
1
10
7.70807787611776
20
17.3462134076513
30
0
41
1
10
7.71924218146589
20
17.3542500526812
30
0
41
1
10
7.72995867147671
20
17.3613224218175
30
0
41
1
10
7.75194108393256
20
17.3745437689605
30
0
41
1
10
7.76322897417703
20
17.3807061571644
30
0
41
1
10
7.78631098963518
20
17.391971059176
30
0
41
1
10
7.7981337979372
20
17.3970879669542
30
0
41
1
10
7.82223615783309
20
17.4060294687769
30
0
41
1
10
7.83455965627962
20
17.4098707244179
30
0
41
1
10
7.85956262004456
20
17.4158605518076
30
0
41
1
10
7.87232330290809
20
17.4180265836154
30
0
41
1
10
7.90016613810746
20
17.4201231042234
30
0
41
1
10
7.91556503123968
20
17.4195785797288
30
0
41
1
10
7.9385777823029
20
17.414476345655
30
0
41
1
10
7.94694202445555
20
17.4115794073915
30
0
41
1
10
7.96240358411504
20
17.4033982165292
30
0
41
1
10
7.96956694639905
20
17.3978529375355
30
0
41
1
10
7.98133536624189
20
17.3843203633355
30
0
41
1
10
7.98583152874625
20
17.3759651252951
30
0
41
1
10
7.98855014412544
20
17.3672788609143
30
0
0
SPLINE
5
2C5
100
AcDbEntity
8
1
62
256
6
ByLayer
370
18
48
1
60
0
100
AcDbSpline
70
4
71
3
72
26
73
22
40
0
40
0
40
0
40
0
40
0.0086569148801237
40
0.0086569148801237
40
0.125591395712032
40
0.125591395712032
40
0.242553460374252
40
0.242553460374252
40
0.359581429954893
40
0.359581429954893
40
0.476756419376238
40
0.476756419376238
40
0.594287938354022
40
0.594287938354022
40
0.734087980384728
40
0.734087980384728
40
0.816818773651412
40
0.816818773651412
40
0.904422913955511
40
0.904422913955511
40
1
40
1
40
1
40
1
41
1
10
9.33843421310888
20
16.6152994063635
30
0
41
1
10
9.33833475669897
20
16.6162456708947
30
0
41
1
10
9.33823256973872
20
16.617191653081
30
0
41
1
10
9.33671159328429
20
16.6309012851185
30
0
41
1
10
9.33479850538137
20
16.6436217299167
30
0
41
1
10
9.32996786288484
20
16.6688341478723
30
0
41
1
10
9.32704559646507
20
16.6813514626267
30
0
41
1
10
9.32013220972965
20
16.7060306134955
30
0
41
1
10
9.31613272045939
20
16.7182234136311
30
0
41
1
10
9.30694081210612
20
16.7420544507543
30
0
41
1
10
9.30173177220041
20
16.7537364358211
30
0
41
1
10
9.28991801194556
20
16.7761910765488
30
0
41
1
10
9.28327333549308
20
16.7870353823559
30
0
41
1
10
9.26697987558882
20
16.8088701029165
30
0
41
1
10
9.25680440212869
20
16.8197626952048
30
0
41
1
10
9.23870830264133
20
16.8330447570963
30
0
41
1
10
9.23142909798153
20
16.8371437273115
30
0
41
1
10
9.21608178765285
20
16.8427405763757
30
0
41
1
10
9.20779719744652
20
16.8441037788121
30
0
41
1
10
9.19123764608415
20
16.8432397613769
30
0
41
1
10
9.18278739280174
20
16.8406742921168
30
0
41
1
10
9.17525585532147
20
16.8365720003194
30
0
0
SPLINE
5
2C6
100
AcDbEntity
8
1
62
256
6
ByLayer
370
18
48
1
60
0
100
AcDbSpline
70
4
71
3
72
26
73
22
40
0
40
0
40
0
40
0
40
0.008656914876833
40
0.008656914876833
40
0.125591395709173
40
0.125591395709173
40
0.242553460371853
40
0.242553460371853
40
0.359581429952943
40
0.359581429952943
40
0.476756419374672
40
0.476756419374672
40
0.594287938352881
40
0.594287938352881
40
0.734087980384771
40
0.734087980384771
40
0.816818773651437
40
0.816818773651437
40
0.904422913955509
40
0.904422913955509
40
1
40
1
40
1
40
1
41
1
10
8.73200563834928
20
17.452878298357
30
0
41
1
10
8.73287173727309
20
17.4524909701117
30
0
41
1
10
8.73373676981427
20
17.4521010610286
30
0
41
1
10
8.74626152209029
20
17.4464112016881
30
0
41
1
10
8.75773564180389
20
17.4406416824758
30
0
41
1
10
8.78017417156164
20
17.4281908305379
30
0
41
1
10
8.79116116788072
20
17.421497136184
30
0
41
1
10
8.81248803776634
20
17.4071717878676
30
0
41
1
10
8.8228547365091
20
17.3995224889674
30
0
41
1
10
8.84271947687446
20
17.3832214534085
30
0
41
1
10
8.85225401544534
20
17.3745401003323
30
0
41
1
10
8.87006522186397
20
17.3560777266011
30
0
41
1
10
8.87839799662112
20
17.3462356770687
30
0
41
1
10
8.89434922765994
20
17.3235351075114
30
0
41
1
10
8.90172585040835
20
17.3101853307781
30
0
41
1
10
8.90912244578317
20
17.2882577340134
30
0
41
1
10
8.91092916687666
20
17.2798075270594
30
0
41
1
10
8.9118817787903
20
17.2628914679601
30
0
41
1
10
8.91084087147877
20
17.2542499375302
30
0
41
1
10
8.90539800738745
20
17.2380319229473
30
0
41
1
10
8.9006302458385
20
17.2303803191047
30
0
41
1
10
8.89468025843451
20
17.2240936431677
30
0
0
SPLINE
5
2C7
100
AcDbEntity
8
1
62
256
6
ByLayer
370
18
48
1
60
0
100
AcDbSpline
70
4
71
3
72
8
73
4
40
0
40
0
40
0
40
0
40
1
40
1
40
1
40
1
41
1
10
8.18502117705282
20
15.6167520592354
30
0
41
1
10
8.18147798713835
20
15.6108648197722
30
0
41
1
10
8.17793549797381
20
15.6049794459362
30
0
41
1
10
8.17439366961963
20
15.5990958279049
30
0
0
SPLINE
5
2C8
100
AcDbEntity
8
1
62
256
6
ByLayer
370
18
48
1
60
0
100
AcDbSpline
70
4
71
3
72
8
73
4
40
0
40
0
40
0
40
0
40
1
40
1
40
1
40
1
41
1
10
8.45425897376887
20
17.3996875960215
30
0
41
1
10
8.45717395499167
20
17.4055088080905
30
0
41
1
10
8.46008753846408
20
17.4113280812747
30
0
41
1
10
8.46299980793876
20
17.4171455300015
30
0
0
SPLINE
5
2C9
100
AcDbEntity
8
1
62
256
6
ByLayer
370
18
48
1
60
0
100
AcDbSpline
70
4
71
3
72
28
73
24
40
0
40
0
40
0
40
0
40
0.01503690690209
40
0.01503690690209
40
0.0981186418858566
40
0.0981186418858566
40
0.181219540011716
40
0.181219540011716
40
0.295253230613828
40
0.295253230613828
40
0.367364426758564
40
0.367364426758564
40
0.444270175317929
40
0.444270175317929
40
0.540606423808388
40
0.540606423808388
40
0.657731681451402
40
0.657731681451402
40
0.774746419981655
40
0.774746419981655
40
0.891711459268064
40
0.891711459268064
40
1
40
1
40
1
40
1
41
1
10
7.46213762223692
20
16.1796693575869
30
0
41
1
10
7.46079150657587
20
16.1789991555995
30
0
41
1
10
7.45942588187336
20
16.1783677818263
30
0
41
1
10
7.45049572848933
20
16.17456186004
30
0
41
1
10
7.44228061272327
20
16.1725941035977
30
0
41
1
10
7.42569934617086
20
16.1718564472654
30
0
41
1
10
7.41713843308335
20
16.1730860221133
30
0
41
1
10
7.39791524149575
20
16.1792362042369
30
0
41
1
10
7.38728823816044
20
16.1854001980316
30
0
41
1
10
7.37184185448896
20
16.1976707600147
30
0
41
1
10
7.36619583608896
20
16.2030515186992
30
0
41
1
10
7.35534300238018
20
16.2149242703577
30
0
41
1
10
7.35015471584961
20
16.2215029924752
30
0
41
1
10
7.33934593955982
20
16.236929832084
30
0
41
1
10
7.3339146227581
20
16.2459742735319
30
0
41
1
10
7.32301954305845
20
16.2665883145974
30
0
41
1
10
7.31777272091864
20
16.2783343306978
30
0
41
1
10
7.30856131118153
20
16.3022726221921
30
0
41
1
10
7.30458159158312
20
16.3145060599283
30
0
41
1
10
7.29775917330073
20
16.3392545483661
30
0
41
1
10
7.29490872189606
20
16.3517993855696
30
0
41
1
10
7.29044461897809
20
16.3761240174155
30
0
41
1
10
7.28875161694054
20
16.3879123069175
30
0
41
1
10
7.28750864001276
20
16.3997384424164
30
0
0
SPLINE
5
2CA
100
AcDbEntity
8
1
62
256
6
ByLayer
370
18
48
1
60
0
100
AcDbSpline
70
4
71
3
72
8
73
4
40
0
40
0
40
0
40
0
40
1
40
1
40
1
40
1
41
1
10
9.02158327299853
20
15.9448549670189
30
0
41
1
10
9.02470788066296
20
15.9390839024246
30
0
41
1
10
9.02783102246156
20
15.9333146657077
30
0
41
1
10
9.03095278616192
20
15.9275471492711
30
0
0
SPLINE
5
2CB
100
AcDbEntity
8
1
62
256
6
ByLayer
370
18
48
1
60
0
100
AcDbSpline
70
4
71
3
72
8
73
4
40
0
40
0
40
0
40
0
40
1
40
1
40
1
40
1
41
1
10
8.89468025843453
20
17.2240936431677
30
0
41
1
10
8.89282584685509
20
17.2178031096337
30
0
41
1
10
8.89097044495858
20
17.2115106068891
30
0
41
1
10
8.88911398926604
20
17.2052160114398
30
0
0
SPLINE
5
2CC
100
AcDbEntity
8
1
62
256
6
ByLayer
370
18
48
1
60
0
100
AcDbSpline
70
4
71
3
72
28
73
24
40
0
40
0
40
0
40
0
40
0.0150369069020633
40
0.0150369069020633
40
0.0981186418858663
40
0.0981186418858663
40
0.181219540011674
40
0.181219540011674
40
0.295253230613815
40
0.295253230613815
40
0.367364426758564
40
0.367364426758564
40
0.44427017531792
40
0.44427017531792
40
0.540606423808348
40
0.540606423808348
40
0.657731681451365
40
0.657731681451365
40
0.774746419981636
40
0.774746419981636
40
0.891711459268036
40
0.891711459268036
40
1
40
1
40
1
40
1
41
1
10
9.03095278616192
20
15.9275471492711
30
0
41
1
10
9.03209097754828
20
15.9267626647222
30
0
41
1
10
9.03320509775682
20
15.9259419854351
30
0
41
1
10
9.04022087092554
20
15.9204102704143
30
0
41
1
10
9.04539375889988
20
15.9145370773782
30
0
41
1
10
9.0531304502183
20
15.9010293918446
30
0
41
1
10
9.05577814180441
20
15.8932321589135
30
0
41
1
10
9.05888061536226
20
15.8739950884503
30
0
41
1
10
9.05827649202027
20
15.8619509637571
30
0
41
1
10
9.05460350623025
20
15.8427637471446
30
0
41
1
10
9.05250504105936
20
15.8352956763423
30
0
41
1
10
9.04717516446547
20
15.8201660108616
30
0
41
1
10
9.04386220347376
20
15.8124760737038
30
0
41
1
10
9.03549649148999
20
15.7955865343861
30
0
41
1
10
9.03019359403191
20
15.7864471033323
30
0
41
1
10
9.01744693477789
20
15.7668695308242
30
0
41
1
10
9.00975608535012
20
15.7565257339097
30
0
41
1
10
8.99341411678253
20
15.7367000573835
30
0
41
1
10
8.98473467683544
20
15.7271846421367
30
0
41
1
10
8.96661632435701
20
15.708977956482
30
0
41
1
10
8.95715544530913
20
15.7002651404714
30
0
41
1
10
8.93832336305846
20
15.6842747630934
30
0
41
1
10
8.92898127373789
20
15.6769254535285
30
0
41
1
10
8.91940000132018
20
15.669940032399
30
0
0
SPLINE
5
2CD
100
AcDbEntity
8
1
62
256
6
ByLayer
370
18
48
1
60
0
100
AcDbSpline
70
4
71
3
72
8
73
4
40
0
40
0
40
0
40
0
40
1
40
1
40
1
40
1
41
1
10
7.61769687782319
20
17.0715846882379
30
0
41
1
10
7.61394406146709
20
17.0772897254382
30
0
41
1
10
7.61019201397633
20
17.0829928615031
30
0
41
1
10
7.60644069139647
20
17.0886942086352
30
0
0
SPLINE
5
2CE
100
AcDbEntity
8
1
62
256
6
ByLayer
370
18
48
1
60
0
100
AcDbSpline
70
4
71
3
72
26
73
22
40
0
40
0
40
0
40
0
40
0.0086569148768751
40
0.0086569148768751
40
0.125591395709185
40
0.125591395709185
40
0.242553460371874
40
0.242553460371874
40
0.359581429952967
40
0.359581429952967
40
0.476756419374749
40
0.476756419374749
40
0.594287938352904
40
0.594287938352904
40
0.734087980384821
40
0.734087980384821
40
0.816818773651475
40
0.816818773651475
40
0.90442291395554
40
0.90442291395554
40
1
40
1
40
1
40
1
41
1
10
7.89393721477222
20
15.5621595504245
30
0
41
1
10
7.89307111584839
20
15.5625468786699
30
0
41
1
10
7.89220623548144
20
15.5629368037471
30
0
41
1
10
7.87968589596514
20
15.5686271268873
30
0
41
1
10
7.86824341053347
20
15.5743999709967
30
0
41
1
10
7.84592639632948
20
15.586863594734
30
0
41
1
10
7.83502936423702
20
15.593566744709
30
0
41
1
10
7.81395032817039
20
15.6079181414095
30
0
41
1
10
7.80374171826148
20
15.6155840561157
30
0
41
1
10
7.78427963319791
20
15.6319274124521
30
0
41
1
10
7.77499023713492
20
15.6406345310441
30
0
41
1
10
7.75778850755174
20
15.6591609633721
30
0
41
1
10
7.74982191626768
20
15.6690415003384
30
0
41
1
10
7.73485846346446
20
15.6918458895717
30
0
41
1
10
7.72814954614086
20
15.7052658449731
30
0
41
1
10
7.72210694144104
20
15.7273357518922
30
0
41
1
10
7.72087943697562
20
15.7358468369669
30
0
41
1
10
7.72124815170659
20
15.7529017730928
30
0
41
1
10
7.72305734558941
20
15.7616240536953
30
0
41
1
10
7.73016812802874
20
15.7780173735606
30
0
41
1
10
7.73586576563343
20
15.785766711315
30
0
41
1
10
7.74271321912386
20
15.7921477147386
30
0
0
SPLINE
5
2CF
100
AcDbEntity
8
1
62
256
6
ByLayer
370
18
48
1
60
0
100
AcDbSpline
70
4
71
3
72
30
73
26
40
0
40
0
40
0
40
0
40
0.0212218158421594
40
0.0212218158421594
40
0.126059559525441
40
0.126059559525441
40
0.201107055759397
40
0.201107055759397
40
0.294112283011544
40
0.294112283011544
40
0.39710060535293
40
0.39710060535293
40
0.500042881039217
40
0.500042881039217
40
0.5839714952406
40
0.5839714952406
40
0.666565148488645
40
0.666565148488645
40
0.767859984421255
40
0.767859984421255
40
0.838720561297713
40
0.838720561297713
40
0.909748878403058
40
0.909748878403058
40
1
40
1
40
1
40
1
41
1
10
8.00261635193243
20
17.3522180436399
30
0
41
1
10
8.00490244402474
20
17.3497700509471
30
0
41
1
10
8.00732609400001
20
17.3474203397258
30
0
41
1
10
8.02219872480524
20
17.3342094938031
30
0
41
1
10
8.03723844379388
20
17.3254662618693
30
0
41
1
10
8.06448741646031
20
17.3135671886098
30
0
41
1
10
8.07649446356342
20
17.3094579247954
30
0
41
1
10
8.10397105154948
20
17.3019227899885
30
0
41
1
10
8.11970010295803
20
17.2988620217356
30
0
41
1
10
8.15317470413629
20
17.294414922966
30
0
41
1
10
8.17108445544196
20
17.2932286551
30
0
41
1
10
8.20682346782476
20
17.2929243148472
30
0
41
1
10
8.22476669196919
20
17.2938063840054
30
0
41
1
10
8.25692076199437
20
17.297185912946
30
0
41
1
10
8.27127520339118
20
17.2993634143719
30
0
41
1
10
8.29922945776252
20
17.3049748555411
30
0
41
1
10
8.31289317483564
20
17.3083989565427
30
0
41
1
10
8.34244577813942
20
17.3174695882587
30
0
41
1
10
8.35824982333182
20
17.3234712357258
30
0
41
1
10
8.38360784995859
20
17.3355222946295
30
0
41
1
10
8.39366835337165
20
17.3410447050742
30
0
41
1
10
8.41257562083149
20
17.3533089045386
30
0
41
1
10
8.42148400337419
20
17.3600922521596
30
0
41
1
10
8.43952245096054
20
17.3770191448085
30
0
41
1
10
8.44829668404907
20
17.3877809145634
30
0
41
1
10
8.45425897376887
20
17.3996875960215
30
0
0
SPLINE
5
2D0
100
AcDbEntity
8
1
62
256
6
ByLayer
370
18
48
1
60
0
100
AcDbSpline
70
4
71
3
72
8
73
4
40
0
40
0
40
0
40
0
40
1
40
1
40
1
40
1
41
1
10
7.41256662447012
20
16.6513058966998
30
0
41
1
10
7.41942351936913
20
16.6526108555467
30
0
41
1
10
7.42628208941403
20
16.653916169232
30
0
41
1
10
7.43314243807725
20
16.6552218598286
30
0
0
SPLINE
5
2D1
100
AcDbEntity
8
1
62
256
6
ByLayer
370
18
48
1
60
0
100
AcDbSpline
70
4
71
3
72
28
73
24
40
0
40
0
40
0
40
0
40
0.0150369069020672
40
0.0150369069020672
40
0.0981186418858594
40
0.0981186418858594
40
0.181219540011677
40
0.181219540011677
40
0.295253230613804
40
0.295253230613804
40
0.367364426758574
40
0.367364426758574
40
0.444270175317905
40
0.444270175317905
40
0.540606423808387
40
0.540606423808387
40
0.657731681451384
40
0.657731681451384
40
0.774746419981625
40
0.774746419981625
40
0.891711459268072
40
0.891711459268072
40
1
40
1
40
1
40
1
41
1
10
8.46299980793876
20
17.4171455300015
30
0
41
1
10
8.46299274360689
20
17.4185776203246
30
0
41
1
10
8.46302862225559
20
17.4200070101953
30
0
41
1
10
8.46354950357301
20
17.4291981843665
30
0
41
1
10
8.46538881785975
20
17.4369127025409
30
0
41
1
10
8.47196784406941
20
17.4509199256091
30
0
41
1
10
8.47679188726056
20
17.457373106439
30
0
41
1
10
8.49062037616321
20
17.4702190717891
30
0
41
1
10
8.50070793460378
20
17.4759790088226
30
0
41
1
10
8.51828200409318
20
17.4827332458802
30
0
41
1
10
8.52549332363296
20
17.4847645202002
30
0
41
1
10
8.54069591842284
20
17.487918419731
30
0
41
1
10
8.54875503601343
20
17.4889831650429
30
0
41
1
10
8.56704875331673
20
17.4903532919925
30
0
41
1
10
8.57737064081971
20
17.4904049443099
30
0
41
1
10
8.60022844970223
20
17.489286081382
30
0
41
1
10
8.61282042803262
20
17.4878475283727
30
0
41
1
10
8.63780827595136
20
17.4836754737659
30
0
41
1
10
8.65024687775855
20
17.4809342697241
30
0
41
1
10
8.67484605981912
20
17.4743565645219
30
0
41
1
10
8.68703607965745
20
17.4705117930696
30
0
41
1
10
8.71018172370171
20
17.4621617160919
30
0
41
1
10
8.72118138900379
20
17.4577190127264
30
0
41
1
10
8.73200563834928
20
17.452878298357
30
0
0
SPLINE
5
2D2
100
AcDbEntity
8
1
62
256
6
ByLayer
370
18
48
1
60
0
100
AcDbSpline
70
4
71
3
72
26
73
22
40
0
40
0
40
0
40
0
40
0.0086569148768252
40
0.0086569148768252
40
0.12559139570921
40
0.12559139570921
40
0.242553460371797
40
0.242553460371797
40
0.359581429952894
40
0.359581429952894
40
0.476756419374739
40
0.476756419374739
40
0.594287938352876
40
0.594287938352876
40
0.734087980384793
40
0.734087980384793
40
0.816818773651434
40
0.816818773651434
40
0.9044229139555
40
0.9044229139555
40
1
40
1
40
1
40
1
41
1
10
8.91940000132018
20
15.669940032399
30
0
41
1
10
8.91863335880623
20
15.6693810961134
30
0
41
1
10
8.91786512917798
20
15.6688244571244
30
0
41
1
10
8.90670523658957
20
15.6607882758942
30
0
41
1
10
8.89602038086065
20
15.6537192316549
30
0
41
1
10
8.87415948395855
20
15.6405106563113
30
0
41
1
10
8.86296155794071
20
15.6343577237287
30
0
41
1
10
8.84012737630155
20
15.6231188701011
30
0
41
1
10
8.82846265683341
20
15.6180185781288
30
0
41
1
10
8.80476295223929
20
15.6091193970837
30
0
41
1
10
8.79268459630063
20
15.6053039069585
30
0
41
1
10
8.76829110937115
20
15.5993781381655
30
0
41
1
10
8.75589660998071
20
15.5972505937916
30
0
41
1
10
8.72904155301694
20
15.5952578928597
30
0
41
1
10
8.71431036530953
20
15.5958725960224
30
0
41
1
10
8.69265160492134
20
15.6011171402506
30
0
41
1
10
8.68486657939675
20
15.6040749566349
30
0
41
1
10
8.67072634638188
20
15.6123950245237
30
0
41
1
10
8.66433127066918
20
15.61802105369
30
0
41
1
10
8.65423076917429
20
15.6317289331724
30
0
41
1
10
8.65066448272569
20
15.6401819051246
30
0
41
1
10
8.64884333343295
20
15.648962496992
30
0
0
SPLINE
5
2D3
100
AcDbEntity
8
1
62
256
6
ByLayer
370
18
48
1
60
0
100
AcDbSpline
70
4
71
3
72
26
73
22
40
0
40
0
40
0
40
0
40
0.0086569148768398
40
0.0086569148768398
40
0.125591395709189
40
0.125591395709189
40
0.242553460371834
40
0.242553460371834
40
0.359581429952917
40
0.359581429952917
40
0.476756419374689
40
0.476756419374689
40
0.594287938352881
40
0.594287938352881
40
0.734087980384759
40
0.734087980384759
40
0.816818773651422
40
0.816818773651422
40
0.904422913955468
40
0.904422913955468
40
1
40
1
40
1
40
1
41
1
10
7.28750864001276
20
16.3997384424164
30
0
41
1
10
7.28740918360288
20
16.4006847069472
30
0
41
1
10
7.28731260895131
20
16.4016312790106
30
0
41
1
10
7.28595436840325
20
16.4153580152808
30
0
41
1
10
7.28521255584147
20
16.428201566078
30
0
41
1
10
7.28481719631645
20
16.4538801510586
30
0
41
1
10
7.28516307235518
20
16.4667409614269
30
0
41
1
10
7.28704213483721
20
16.492344235947
30
0
41
1
10
7.2885772888134
20
16.5051187505284
30
0
41
1
10
7.29301623599486
20
16.5303824482987
30
0
41
1
10
7.29592776712443
20
16.5429179397738
30
0
41
1
10
7.30342426288843
20
16.5674021701931
30
0
41
1
10
7.30803526273138
20
16.5794294952502
30
0
41
1
10
7.32042075600973
20
16.6042784952535
30
0
41
1
10
7.32877687910593
20
16.6171188368263
30
0
41
1
10
7.34507003013181
20
16.6340153545944
30
0
41
1
10
7.35191715950506
20
16.6395990623452
30
0
41
1
10
7.36708677057317
20
16.6484033690955
30
0
41
1
10
7.37567518345435
20
16.651539995618
30
0
41
1
10
7.39372042656251
20
16.6543130886422
30
0
41
1
10
7.40344928864369
20
16.6536583214002
30
0
41
1
10
7.41256662447012
20
16.6513058966998
30
0
0
SPLINE
5
2D4
100
AcDbEntity
8
1
62
256
6
ByLayer
370
18
48
1
60
0
100
AcDbSpline
70
4
71
3
72
26
73
22
40
0
40
0
40
0
40
0
40
0.0271387234067507
40
0.0271387234067507
40
0.133143415966939
40
0.133143415966939
40
0.291286691908905
40
0.291286691908905
40
0.500757280312425
40
0.500757280312425
40
0.626885076483456
40
0.626885076483456
40
0.697530097277534
40
0.697530097277534
40
0.768209951105388
40
0.768209951105388
40
0.83896370089702
40
0.83896370089702
40
0.909884938037907
40
0.909884938037907
40
1
40
1
40
1
40
1
41
1
10
9.02158327299841
20
15.9448549670191
30
0
41
1
10
9.01962873171453
20
15.9484649511248
30
0
41
1
10
9.01789501864889
20
15.9522449312015
30
0
41
1
10
9.01046722683074
20
15.9711570598452
30
0
41
1
10
9.00748709005705
20
15.9880465939828
30
0
41
1
10
9.00485432406924
20
16.0306516810381
30
0
41
1
10
9.00743246059187
20
16.0574860683893
30
0
41
1
10
9.01931763253785
20
16.1186749110925
30
0
41
1
10
9.03077175173195
20
16.1537651509277
30
0
41
1
10
9.05424406801225
20
16.2067197154954
30
0
41
1
10
9.06439235303935
20
16.2261894333761
30
0
41
1
10
9.08194889042821
20
16.2548917736182
30
0
41
1
10
9.08863528923024
20
16.2649136563233
30
0
41
1
10
9.10270574069628
20
16.2841121471594
30
0
41
1
10
9.11011404965296
20
16.2933223068986
30
0
41
1
10
9.12564184080225
20
16.3106497313289
30
0
41
1
10
9.1337956466578
20
16.3188056087529
30
0
41
1
10
9.1508419729785
20
16.3336400779609
30
0
41
1
10
9.15979147794442
20
16.340366628666
30
0
41
1
10
9.18083716084894
20
16.3531400283388
30
0
41
1
10
9.19339052116936
20
16.3586821937886
30
0
41
1
10
9.20613771274446
20
16.3612177954282
30
0
0
SPLINE
5
2D5
100
AcDbEntity
8
1
62
256
6
ByLayer
370
18
48
1
60
0
100
AcDbSpline
70
4
71
3
72
8
73
4
40
0
40
0
40
0
40
0
40
1
40
1
40
1
40
1
41
1
10
8.64884333343295
20
15.648962496992
30
0
41
1
10
8.64478518843259
20
15.6540473256359
30
0
41
1
10
8.64072537882245
20
15.659133665673
30
0
41
1
10
8.63666379888932
20
15.6642216116169
30
0
0
SPLINE
5
2D6
100
AcDbEntity
8
1
62
256
6
ByLayer
370
18
48
1
60
0
100
AcDbSpline
70
4
71
3
72
30
73
26
40
0
40
0
40
0
40
0
40
0.0212218158422407
40
0.0212218158422407
40
0.126059559525526
40
0.126059559525526
40
0.201107055759448
40
0.201107055759448
40
0.294112283011593
40
0.294112283011593
40
0.397100605352963
40
0.397100605352963
40
0.500042881039263
40
0.500042881039263
40
0.583971495240641
40
0.583971495240641
40
0.666565148488668
40
0.666565148488668
40
0.767859984421257
40
0.767859984421257
40
0.838720561297724
40
0.838720561297724
40
0.909748878403051
40
0.909748878403051
40
1
40
1
40
1
40
1
41
1
10
7.43314243807725
20
16.6552218598286
30
0
41
1
10
7.43648659494315
20
16.6558583339188
30
0
41
1
10
7.43981331016522
20
16.6566654251139
30
0
41
1
10
7.45915151741079
20
16.6622695527873
30
0
41
1
10
7.47459518318362
20
16.6704261014217
30
0
41
1
10
7.49905064946563
20
16.6873494599192
30
0
41
1
10
7.50881272972907
20
16.6954235917944
30
0
41
1
10
7.52947374505496
20
16.7149271235538
30
0
41
1
10
7.54017591088407
20
16.7267805633605
30
0
41
1
10
7.56108439433899
20
16.7531587895881
30
0
41
1
10
7.57119275161153
20
16.7679366081
30
0
41
1
10
7.58948975400907
20
16.7985891154671
30
0
41
1
10
7.59773575763762
20
16.8145621414924
30
0
41
1
10
7.61087485499499
20
16.8442045155583
30
0
41
1
10
7.61613171945885
20
16.8578163731941
30
0
41
1
10
7.62512282619105
20
16.8850985133485
30
0
41
1
10
7.62889822650561
20
16.8988183680652
30
0
41
1
10
7.6355556740701
20
16.9294250854343
30
0
41
1
10
7.63807316530509
20
16.9464378212513
30
0
41
1
10
7.63993156787095
20
16.9750744722416
30
0
41
1
10
7.64000119395609
20
16.9868456770601
30
0
41
1
10
7.63844042708089
20
17.010001427544
30
0
41
1
10
7.63680350002284
20
17.0214623382939
30
0
41
1
10
7.63063465562522
20
17.0464063512964
30
0
41
1
10
7.62537287182462
20
17.0599156303433
30
0
41
1
10
7.61769687782319
20
17.0715846882379
30
0
0
SPLINE
5
2D7
100
AcDbEntity
8
1
62
256
6
ByLayer
370
18
48
1
60
0
100
AcDbSpline
70
4
71
3
72
30
73
26
40
0
40
0
40
0
40
0
40
0.0212218158422837
40
0.0212218158422837
40
0.12605955952556
40
0.12605955952556
40
0.201107055759488
40
0.201107055759488
40
0.294112283011626
40
0.294112283011626
40
0.397100605353006
40
0.397100605353006
40
0.500042881039255
40
0.500042881039255
40
0.583971495240659
40
0.583971495240659
40
0.666565148488664
40
0.666565148488664
40
0.767859984421267
40
0.767859984421267
40
0.838720561297734
40
0.838720561297734
40
0.909748878403065
40
0.909748878403065
40
1
40
1
40
1
40
1
41
1
10
8.63666379888929
20
15.6642216116169
30
0
41
1
10
8.6346839344412
20
15.6667017901321
30
0
41
1
10
8.63256201848904
20
15.6690832148771
30
0
41
1
10
8.61942689844631
20
15.6824766805398
30
0
41
1
10
8.60570767838715
20
15.6913587025038
30
0
41
1
10
8.58043087261456
20
15.7034650588564
30
0
41
1
10
8.56917231714291
20
15.7076529923114
30
0
41
1
10
8.54318465513225
20
15.7153446195443
30
0
41
1
10
8.52815770356662
20
15.7184791814643
30
0
41
1
10
8.49589113149719
20
15.7230532492095
30
0
41
1
10
8.47846250629203
20
15.7242900854664
30
0
41
1
10
8.44336419158
20
15.7246617657579
30
0
41
1
10
8.42558249151566
20
15.7237966734646
30
0
41
1
10
8.39342842149048
20
15.720417144524
30
0
41
1
10
8.3789666041902
20
15.7182283574359
30
0
41
1
10
8.35058869875408
20
15.7125723887455
30
0
41
1
10
8.33661128013051
20
15.7091153163824
30
0
41
1
10
8.3061374033322
20
15.6999478549203
30
0
41
1
10
8.28967235686306
20
15.6938767334195
30
0
41
1
10
8.26294285714471
20
15.6816815268853
30
0
41
1
10
8.25224325487713
20
15.6760919444442
30
0
41
1
10
8.23191608428189
20
15.6636785071467
30
0
41
1
10
8.22222201321674
20
15.6568125803343
30
0
41
1
10
8.20225202838699
20
15.6396826749406
30
0
41
1
10
8.19226840205633
20
15.6287937928338
30
0
41
1
10
8.18502117705285
20
15.6167520592354
30
0
0
SPLINE
5
2D8
100
AcDbEntity
8
1
62
256
6
ByLayer
370
18
48
1
60
0
100
AcDbSpline
70
4
71
3
72
28
73
24
40
0
40
0
40
0
40
0
40
0.0150369069045304
40
0.0150369069045304
40
0.0981186418892557
40
0.0981186418892557
40
0.181219540015306
40
0.181219540015306
40
0.295253230617586
40
0.295253230617586
40
0.367364426762418
40
0.367364426762418
40
0.444270175322346
40
0.444270175322346
40
0.540606423814158
40
0.540606423814158
40
0.657731681456537
40
0.657731681456537
40
0.774746419986171
40
0.774746419986171
40
0.891711459271959
40
0.891711459271959
40
1
40
1
40
1
40
1
41
1
10
9.22482685308827
20
16.3649354612066
30
0
41
1
10
9.22613956998333
20
16.3645447137816
30
0
41
1
10
9.22746287193499
20
16.3641959575881
30
0
41
1
10
9.23606017641046
20
16.3622322458562
30
0
41
1
10
9.24370294942136
20
16.3619312206861
30
0
41
1
10
9.25856487687582
20
16.3644983772148
30
0
41
1
10
9.26595695161117
20
16.3674046786484
30
0
41
1
10
9.28195322282539
20
16.3772565754765
30
0
41
1
10
9.29030405544742
20
16.3854152202059
30
0
41
1
10
9.3018315053049
20
16.4005208463345
30
0
41
1
10
9.30587997933185
20
16.4069205372321
30
0
41
1
10
9.31337375837134
20
16.4207215955934
30
0
41
1
10
9.31678612186721
20
16.4282042824547
30
0
41
1
10
9.32356409950799
20
16.4454795643865
30
0
41
1
10
9.32672139938705
20
16.4554267058229
30
0
41
1
10
9.33256987527506
20
16.4778005654943
30
0
41
1
10
9.33502944553518
20
16.4903565560747
30
0
41
1
10
9.33868549295164
20
16.5156472718129
30
0
41
1
10
9.33988773291182
20
16.5284253554456
30
0
41
1
10
9.34118783910941
20
16.5540275556072
30
0
41
1
10
9.34128690925502
20
16.5668824000177
30
0
41
1
10
9.34049572472838
20
16.5915930711418
30
0
41
1
10
9.33967719003658
20
16.6034732708649
30
0
41
1
10
9.33843421310888
20
16.6152994063635
30
0
0
SPLINE
5
2D9
100
AcDbEntity
8
1
62
256
6
ByLayer
370
18
48
1
60
0
100
AcDbSpline
70
4
71
3
72
8
73
4
40
0
40
0
40
0
40
0
40
1
40
1
40
1
40
1
41
1
10
7.74271321912386
20
15.7921477147386
30
0
41
1
10
7.74519718958277
20
15.7985044175771
30
0
41
1
10
7.74768149717147
20
15.8048630209736
30
0
41
1
10
7.75016616155571
20
15.8112236438171
30
0
0
SPLINE
5
2DA
100
AcDbEntity
8
1
62
256
6
ByLayer
370
18
48
1
60
0
100
AcDbSpline
70
4
71
3
72
8
73
4
40
0
40
0
40
0
40
0
40
1
40
1
40
1
40
1
41
1
10
7.98855014412544
20
17.3672788609143
30
0
41
1
10
7.99323784800532
20
17.362260201575
30
0
41
1
10
7.99792656330757
20
17.3572399621898
30
0
41
1
10
8.0026163519324
20
17.35221804364
30
0
0
SPLINE
5
2DB
100
AcDbEntity
8
1
62
256
6
ByLayer
370
18
48
1
60
0
100
AcDbSpline
70
4
71
3
72
28
73
24
40
0
40
0
40
0
40
0
40
0.015036906902102
40
0.015036906902102
40
0.0981186418858719
40
0.0981186418858719
40
0.181219540011679
40
0.181219540011679
40
0.295253230613826
40
0.295253230613826
40
0.367364426758562
40
0.367364426758562
40
0.444270175317931
40
0.444270175317931
40
0.540606423808345
40
0.540606423808345
40
0.657731681451392
40
0.657731681451392
40
0.774746419981662
40
0.774746419981662
40
0.891711459268053
40
0.891711459268053
40
1
40
1
40
1
40
1
41
1
10
7.60644069139647
20
17.0886942086352
30
0
41
1
10
7.60515917427242
20
17.0894636290421
30
0
41
1
10
7.60390130350035
20
17.0902691995361
30
0
41
1
10
7.59595653106635
20
17.0957032727996
30
0
41
1
10
7.5899817007554
20
17.1014921782997
30
0
41
1
10
7.58073464342076
20
17.1148411179681
30
0
41
1
10
7.57736083296115
20
17.1225620327304
30
0
41
1
10
7.5727302066519
20
17.1416384878672
30
0
41
1
10
7.57257195116938
20
17.1536024833171
30
0
41
1
10
7.57521473697801
20
17.1726814215484
30
0
41
1
10
7.57695775946149
20
17.1801121338188
30
0
41
1
10
7.58163422571354
20
17.1951731231053
30
0
41
1
10
7.58465243341746
20
17.2028320804442
30
0
41
1
10
7.59243096475439
20
17.219659904589
30
0
41
1
10
7.59745897770787
20
17.2287704441171
30
0
41
1
10
7.60968301691446
20
17.2482930870449
30
0
41
1
10
7.61714340418413
20
17.2586126614104
30
0
41
1
10
7.63310835249445
20
17.2783987115108
30
0
41
1
10
7.64164075394933
20
17.2878986723894
30
0
41
1
10
7.65953138062761
20
17.306081423098
30
0
41
1
10
7.66891138593263
20
17.3147857389357
30
0
41
1
10
7.68764310743373
20
17.3307655679738
30
0
41
1
10
7.69696157938355
20
17.3381123952531
30
0
41
1
10
7.70654285180129
20
17.3450978163826
30
0
0
SPLINE
5
2DC
100
AcDbEntity
8
1
62
256
6
ByLayer
370
18
48
1
60
0
100
AcDbSpline
70
4
71
3
72
8
73
4
40
0
40
0
40
0
40
0
40
1
40
1
40
1
40
1
41
1
10
11.4221717115551
20
-8.25443491143301
30
0
41
1
10
11.4276717342389
20
-8.21615666377025
30
0
41
1
10
11.4330857869145
20
-8.17786641831742
30
0
41
1
10
11.4384141914841
20
-8.13956465631497
30
0
0
SPLINE
5
2DD
100
AcDbEntity
8
1
62
256
6
ByLayer
370
18
48
1
60
0
100
AcDbSpline
70
4
71
3
72
20
73
16
40
0
40
0
40
0
40
0
40
0.0841205154877936
40
0.0841205154877936
40
0.198111916060532
40
0.198111916060532
40
0.279744046047915
40
0.279744046047915
40
0.373904909164489
40
0.373904909164489
40
0.466496328965429
40
0.466496328965429
40
0.735358530118786
40
0.735358530118786
40
1
40
1
40
1
40
1
41
1
10
11.4680598146285
20
-7.91527102177369
30
0
41
1
10
11.4682030377936
20
-7.91414250537596
30
0
41
1
10
11.4683398762348
20
-7.91301594825805
30
0
41
1
10
11.4686316629634
20
-7.91042904903742
30
0
41
1
10
11.4687796876156
20
-7.90895823239774
30
0
41
1
10
11.4689475370373
20
-7.90671814022988
30
0
41
1
10
11.4689918605793
20
-7.90585364514314
30
0
41
1
10
11.4690082024144
20
-7.90435035164873
30
0
41
1
10
11.4689677128945
20
-7.9037464886116
30
0
41
1
10
11.4688102609125
20
-7.90299184742747
30
0
41
1
10
11.4686943533416
20
-7.90281346729407
30
0
41
1
10
11.4681679248852
20
-7.90264205455242
30
0
41
1
10
11.4676128017554
20
-7.90350281501571
30
0
41
1
10
11.4664431721061
20
-7.90570097934415
30
0
41
1
10
11.465808595498
20
-7.90710522456126
30
0
41
1
10
11.4651473434676
20
-7.90864522411573
30
0
0
SPLINE
5
2DE
100
AcDbEntity
8
1
62
256
6
ByLayer
370
18
48
1
60
0
100
AcDbSpline
70
4
71
3
72
8
73
4
40
0
40
0
40
0
40
0
40
1
40
1
40
1
40
1
41
1
10
11.4680598146239
20
-7.91527102178418
30
0
41
1
10
11.4616367142692
20
-7.96588136878992
30
0
41
1
10
11.4550619549287
20
-8.01646119884936
30
0
41
1
10
11.4483314788582
20
-8.06687639469877
30
0
0
SPLINE
5
2DF
100
AcDbEntity
8
1
62
256
6
ByLayer
370
18
48
1
60
0
100
AcDbSpline
70
4
71
3
72
10
73
6
40
0
40
0
40
0
40
0
40
0.720510947242948
40
0.720510947242948
40
1
40
1
40
1
40
1
41
1
10
11.4651473434677
20
-7.90864522411562
30
0
41
1
10
11.4551299798047
20
-7.93197480930937
30
0
41
1
10
11.4403928358036
20
-7.94616053835284
30
0
41
1
10
11.4131858658101
20
-7.96942902367283
30
0
41
1
10
11.4048544054957
20
-7.97619990774703
30
0
41
1
10
11.3959307705269
20
-7.98338667811356
30
0
0
SPLINE
5
2E0
100
AcDbEntity
8
1
62
256
6
ByLayer
370
18
48
1
60
0
100
AcDbSpline
70
4
71
3
72
8
73
4
40
0
40
0
40
0
40
0
40
1
40
1
40
1
40
1
41
1
10
11.448331478859
20
-8.06687639469439
30
0
41
1
10
11.445103174401
20
-8.09105828016624
30
0
41
1
10
11.4417919913233
20
-8.11528427673235
30
0
41
1
10
11.4384141914859
20
-8.13956465630389
30
0
0
SPLINE
5
2E1
100
AcDbEntity
8
SK1
62
256
6
ByLayer
370
18
48
1
60
0
100
AcDbSpline
70
4
71
3
72
10
73
6
40
0
40
0
40
0
40
0
40
0.487904522530141
40
0.487904522530141
40
1
40
1
40
1
40
1
41
1
10
-1.35600963898912
20
-10.8123364671012
30
0
41
1
10
-1.33518559501556
20
-10.7630435632483
30
0
41
1
10
-1.32376953236323
20
-10.7168158754404
30
0
41
1
10
-1.32271908716311
20
-10.6341047883195
30
0
41
1
10
-1.33418392581117
20
-10.596915058005
30
0
41
1
10
-1.35600963898912
20
-10.5694439143002
30
0
0
SPLINE
5
2E2
100
AcDbEntity
8
1
62
256
6
ByLayer
370
18
48
1
60
0
100
AcDbSpline
70
4
71
3
72
8
73
4
40
0
40
0
40
0
40
0
40
1
40
1
40
1
40
1
41
1
10
6.43578072146266
20
-13.4561039986129
30
0
41
1
10
6.33035300133668
20
-13.3805087457305
30
0
41
1
10
6.24159421449937
20
-13.2898225567519
30
0
41
1
10
6.17333501129551
20
-13.1846711777722
30
0
0
SPLINE
5
2E3
100
AcDbEntity
8
1
62
256
6
ByLayer
370
18
48
1
60
0
100
AcDbSpline
70
4
71
1
72
4
73
2
40
0
40
0
40
1
40
1
41
1
10
5.22404760627222
20
18.4287859691611
30
0
41
1
10
5.22396533943234
20
18.6356291312878
30
0
0
SPLINE
5
2E4
100
AcDbEntity
8
1
62
256
6
ByLayer
370
18
48
1
60
0
100
AcDbSpline
70
4
71
3
72
16
73
12
40
0
40
0
40
0
40
0
40
0.110975996452903
40
0.110975996452903
40
0.123664756258238
40
0.123664756258238
40
0.174424979249408
40
0.174424979249408
40
0.377754446764831
40
0.377754446764831
40
1
40
1
40
1
40
1
41
1
10
6.51322515921581
20
17.2053655955523
30
0
41
1
10
6.50364243629886
20
17.180364501017
30
0
41
1
10
6.50460982846215
20
17.1530305535459
30
0
41
1
10
6.50105485852774
20
17.1236473326987
30
0
41
1
10
6.50069651306362
20
17.1206298362813
30
0
41
1
10
6.49893730447224
20
17.1055349719394
30
0
41
1
10
6.49763414377787
20
17.0934364999437
30
0
41
1
10
6.49162288937268
20
17.0328203837551
30
0
41
1
10
6.48844101655362
20
16.9839927995378
30
0
41
1
10
6.48135283567248
20
16.7858365694096
30
0
41
1
10
6.48973511883247
20
16.6354723668408
30
0
41
1
10
6.50288204438672
20
16.4862923724739
30
0
0
SPLINE
5
2E5
100
AcDbEntity
8
1
62
256
6
ByLayer
370
18
48
1
60
0
100
AcDbSpline
70
4
71
3
72
8
73
4
40
0
40
0
40
0
40
0
40
1
40
1
40
1
40
1
41
1
10
8.29620858678749
20
18.3316031662535
30
0
41
1
10
8.2406957223171
20
18.3257685232283
30
0
41
1
10
8.18518285723457
20
18.3199338860275
30
0
41
1
10
8.12966999215527
20
18.3140992487959
30
0
0
SPLINE
5
2E6
100
AcDbEntity
8
1
62
256
6
ByLayer
370
18
48
1
60
0
100
AcDbSpline
70
4
71
3
72
40
73
36
40
0
40
0
40
0
40
0
40
0.426846585780908
40
0.426846585780908
40
0.610926968127583
40
0.610926968127583
40
0.735640085201141
40
0.735640085201141
40
0.819350942995361
40
0.819350942995361
40
0.874953681941896
40
0.874953681941896
40
0.911547609207987
40
0.911547609207987
40
0.935452233586474
40
0.935452233586474
40
0.950582988850832
40
0.950582988850832
40
0.95651756674637
40
0.95651756674637
40
0.958998086029346
40
0.958998086029346
40
0.959868153635219
40
0.959868153635219
40
0.960445619723811
40
0.960445619723811
40
0.962709281417387
40
0.962709281417387
40
0.971819134835436
40
0.971819134835436
40
0.994944664493457
40
0.994944664493457
40
0.999920489579297
40
0.999920489579297
40
1
40
1
40
1
40
1
41
1
10
10.1623500595506
20
16.5328749456672
30
0
41
1
10
10.1735735353462
20
16.4260908185879
30
0
41
1
10
10.1838663556279
20
16.3190418971388
30
0
41
1
10
10.190127836783
20
16.1655465891018
30
0
41
1
10
10.1909342835963
20
16.119214021538
30
0
41
1
10
10.1899966699734
20
16.0416278697462
30
0
41
1
10
10.1889923859581
20
16.0103103178126
30
0
41
1
10
10.1861506488767
20
15.9581059311218
30
0
41
1
10
10.1846953940213
20
15.9371666814614
30
0
41
1
10
10.1817200549337
20
15.9024047283615
30
0
41
1
10
10.1803855928425
20
15.8885504118733
30
0
41
1
10
10.177920946591
20
15.8656239023322
30
0
41
1
10
10.1768767961118
20
15.856535159172
30
0
41
1
10
10.1750393988905
20
15.8415315191438
30
0
41
1
10
10.174284181475
20
15.8356087024664
30
0
41
1
10
10.1729891491526
20
15.8259499517569
30
0
41
1
10
10.1724658381178
20
15.8222104037631
30
0
41
1
10
10.1717816601883
20
15.816995110567
30
0
41
1
10
10.171650605749
20
15.815507809536
30
0
41
1
10
10.1712195899125
20
15.8134692672625
30
0
41
1
10
10.1710556216127
20
15.8128630803707
30
0
41
1
10
10.1706546554822
20
15.8121719840392
30
0
41
1
10
10.1705332540739
20
15.8119990162195
30
0
41
1
10
10.1702915534743
20
15.8117640185496
30
0
41
1
10
10.1701820728085
20
15.8116832509695
30
0
41
1
10
10.169591154173
20
15.8114194283119
30
0
41
1
10
10.1690810336483
20
15.8113104996643
30
0
41
1
10
10.1666283803989
20
15.8103752801072
30
0
41
1
10
10.1647225612107
20
15.8092684161813
30
0
41
1
10
10.1576119725837
20
15.8061080683
30
0
41
1
10
10.152052520572
20
15.804007383026
30
0
41
1
10
10.1453058139372
20
15.8017122993167
30
0
41
1
10
10.1440908600529
20
15.8013189255212
30
0
41
1
10
10.1428511075639
20
15.8009572763248
30
0
41
1
10
10.142831972075
20
15.8009517161305
30
0
41
1
10
10.1428128409552
20
15.8009461420995
30
0
0
SPLINE
5
2E7
100
AcDbEntity
8
1
62
256
6
ByLayer
370
18
48
1
60
0
100
AcDbSpline
70
4
71
3
72
8
73
4
40
0
40
0
40
0
40
0
40
1
40
1
40
1
40
1
41
1
10
7.96113882060564
20
18.3223391315985
30
0
41
1
10
8.01665154604873
20
18.3281737481823
30
0
41
1
10
8.07216447876351
20
18.3340083924046
30
0
41
1
10
8.1276774114607
20
18.3398430367431
30
0
0
SPLINE
5
2E8
100
AcDbEntity
8
1
62
256
6
ByLayer
370
18
48
1
60
0
100
AcDbSpline
70
4
71
3
72
8
73
4
40
0
40
0
40
0
40
0
40
1
40
1
40
1
40
1
41
1
10
6.52045282392137
20
16.3191176274609
30
0
41
1
10
6.52630974843814
20
16.2633927130276
30
0
41
1
10
6.53216667287307
20
16.2076677985858
30
0
41
1
10
6.53802359151709
20
16.1519428835352
30
0
0
SPLINE
5
2E9
100
AcDbEntity
8
1
62
256
6
ByLayer
370
18
48
1
60
0
100
AcDbSpline
70
4
71
3
72
8
73
4
40
0
40
0
40
0
40
0
40
1
40
1
40
1
40
1
41
1
10
8.67922672544628
20
14.694214603294
30
0
41
1
10
8.62371400000183
20
14.68837998671
30
0
41
1
10
8.56820106728281
20
14.6825453424873
30
0
41
1
10
8.51268813458563
20
14.6767106981488
30
0
0
SPLINE
5
2EA
100
AcDbEntity
8
1
62
256
6
ByLayer
370
18
48
1
60
0
100
AcDbSpline
70
4
71
3
72
21
73
17
40
0
40
0
40
0
40
0
40
0.323368193892375
40
0.646736387784749
40
0.808420484730937
40
0.88926253320403
40
0.970104581677124
40
0.975157209706693
40
0.980209837736261
40
0.990315093795398
40
0.995367721824966
40
0.996630878832358
40
0.99789403583975
40
0.998525614343446
40
0.999157192847142
40
1
40
1
40
1
40
1
41
1
10
11.2199517628324
20
16.813054869567
30
0
41
1
10
11.1957275808964
20
17.0435325651119
30
0
41
1
10
11.1472792170243
20
17.5044879562019
30
0
41
1
10
11.0867187621841
20
18.0806821950644
30
0
41
1
10
11.0443264437961
20
18.4840181622681
30
0
41
1
10
11.0201002694534
20
18.7144949751504
30
0
41
1
10
11.0076104276785
20
18.8333353700777
30
0
41
1
10
11.0007990163987
20
18.8981579484427
30
0
41
1
10
10.9992852779459
20
18.9125629253206
30
0
41
1
10
10.9977712167648
20
18.9269677592256
30
0
41
1
10
10.9965393119302
20
18.9386709203051
30
0
41
1
10
10.9959735617468
20
18.9440736291288
30
0
41
1
10
10.9957380475066
20
18.9463246562041
30
0
41
1
10
10.99554961199
20
18.9481252309562
30
0
41
1
10
10.9953920322511
20
18.9496260471734
30
0
41
1
10
10.9952809081344
20
18.9506766137562
30
0
41
1
10
10.9952169511274
20
18.9512770920678
30
0
0
SPLINE
5
2EB
100
AcDbEntity
8
1
62
256
6
ByLayer
370
18
48
1
60
0
100
AcDbSpline
70
4
71
3
72
16
73
12
40
0
40
0
40
0
40
0
40
0.110975996452916
40
0.110975996452916
40
0.123664756258255
40
0.123664756258255
40
0.174424979249433
40
0.174424979249433
40
0.377754446764843
40
0.377754446764843
40
1
40
1
40
1
40
1
41
1
10
9.00976546683833
20
18.3171204849166
30
0
41
1
10
8.98484983005298
20
18.3267588316999
30
0
41
1
10
8.95812551214723
20
18.3264381871627
30
0
41
1
10
8.92910982811154
20
18.3303532876899
30
0
41
1
10
8.92612975376028
20
18.3307481856986
30
0
41
1
10
8.91122049710964
20
18.3326881124827
30
0
41
1
10
8.89926568879966
20
18.3341292911482
30
0
41
1
10
8.83934485136686
20
18.3407992186043
30
0
41
1
10
8.79099872681445
20
18.3444063862873
30
0
41
1
10
8.5945326588197
20
18.3528660843977
30
0
41
1
10
8.44482291371244
20
18.3446809639349
30
0
41
1
10
8.29620858678749
20
18.3316031662535
30
0
0
SPLINE
5
2EC
100
AcDbEntity
8
1
62
256
6
ByLayer
370
18
48
1
60
0
100
AcDbSpline
70
4
71
3
72
8
73
4
40
0
40
0
40
0
40
0
40
1
40
1
40
1
40
1
41
1
10
6.49558626589351
20
16.3165040468957
30
0
41
1
10
6.48972933409797
20
16.3722290305818
30
0
41
1
10
6.48387240231443
20
16.4279540145678
30
0
41
1
10
6.47801548668173
20
16.4836787892443
30
0
0
SPLINE
5
2ED
100
AcDbEntity
8
1
62
256
6
ByLayer
370
18
48
1
60
0
100
AcDbSpline
70
4
71
3
72
8
73
4
40
0
40
0
40
0
40
0
40
1
40
1
40
1
40
1
41
1
10
6.5131570332328
20
16.1493293056887
30
0
41
1
10
6.50730012931572
20
16.2050540807204
30
0
41
1
10
6.50144319769717
20
16.2607790638216
30
0
41
1
10
6.49558626596519
20
16.3165040469032
30
0
0
SPLINE
5
2EE
100
AcDbEntity
8
1
62
256
6
ByLayer
370
18
48
1
60
0
100
AcDbSpline
70
4
71
2
72
6
73
3
40
0
40
0
40
0
40
1
40
1
40
1
41
1
10
11.444689343586
20
14.6748329381049
30
0
41
1
10
11.4490092950688
20
14.6329882152246
30
0
41
1
10
11.4490854127425
20
14.5912117659187
30
0
0
SPLINE
5
2EF
100
AcDbEntity
8
1
62
256
6
ByLayer
370
18
48
1
60
0
100
AcDbSpline
70
4
71
2
72
11
73
8
40
0
40
0
40
0
40
0.25
40
0.25
40
0.5
40
0.75
40
0.75
40
1
40
1
40
1
41
1
10
6.22131510623638
20
13.3874523292359
30
0
41
1
10
6.13822903444748
20
13.3876032515958
30
0
41
1
10
6.05977062956873
20
13.4145350138305
30
0
41
1
10
5.97682432484174
20
13.4430073000132
30
0
41
1
10
5.8396064635894
20
13.5543069469722
30
0
41
1
10
5.79390155540173
20
13.6306720103009
30
0
41
1
10
5.75146282288321
20
13.7015798542257
30
0
41
1
10
5.73392652514644
20
13.7836725528961
30
0
0
SPLINE
5
2F0
100
AcDbEntity
8
1
62
256
6
ByLayer
370
18
48
1
60
0
100
AcDbSpline
70
4
71
3
72
10
73
6
40
0
40
0
40
0
40
0
40
0.889589714445528
40
0.889589714445528
40
1
40
1
40
1
40
1
41
1
10
7.96313139859694
20
18.2965953433211
30
0
41
1
10
7.75178578781964
20
18.2707538419337
30
0
41
1
10
7.538300067443
20
18.233312856141
30
0
41
1
10
7.31153437865058
20
18.1533787680187
30
0
41
1
10
7.28418597935018
20
18.1480146859587
30
0
41
1
10
7.2618111822421
20
18.1334035351136
30
0
0
SPLINE
5
2F1
100
AcDbEntity
8
1
62
256
6
ByLayer
370
18
48
1
60
0
100
AcDbSpline
70
4
71
3
72
8
73
4
40
0
40
0
40
0
40
0
40
1
40
1
40
1
40
1
41
1
10
7.26181118222735
20
18.1334035351322
30
0
41
1
10
7.25724850976286
20
18.1396756599626
30
0
41
1
10
7.25198353398105
20
18.1473736339701
30
0
41
1
10
7.24696073340129
20
18.1551165256187
30
0
0
SPLINE
5
2F2
100
AcDbEntity
8
1
62
256
6
ByLayer
370
18
48
1
60
0
100
AcDbSpline
70
4
71
3
72
32
73
28
40
0
40
0
40
0
40
0
40
8.0906347952E-05
40
8.0906347952E-05
40
0.0233532792237085
40
0.0233532792237085
40
0.0320021003017843
40
0.0320021003017843
40
0.037364075970324
40
0.037364075970324
40
0.0397264517562079
40
0.0397264517562079
40
0.0408604824381008
40
0.0408604824381008
40
0.0420106202949924
40
0.0420106202949924
40
0.0437524015515151
40
0.0437524015515151
40
0.0521515632448662
40
0.0521515632448662
40
0.0855169767667493
40
0.0855169767667493
40
0.21909622839697
40
0.21909622839697
40
0.75799053507381
40
0.75799053507381
40
1
40
1
40
1
40
1
41
1
10
7.24695990309036
20
18.1551159828971
30
0
41
1
10
7.24696135686915
20
18.1551359276418
30
0
41
1
10
7.24696279663604
20
18.1551558734925
30
0
41
1
10
7.24738485137323
20
18.160912744108
30
0
41
1
10
7.24837395359441
20
18.1666904981347
30
0
41
1
10
7.25005417694655
20
18.1740740217824
30
0
41
1
10
7.25048260816081
20
18.1760632519979
30
0
41
1
10
7.25143294156922
20
18.179148801407
30
0
41
1
10
7.25182925774672
20
18.1803091434081
30
0
41
1
10
7.25222987517685
20
18.1819688197062
30
0
41
1
10
7.25233520451468
20
18.1824745822395
30
0
41
1
10
7.25245970350019
20
18.1832154576592
30
0
41
1
10
7.25247503356132
20
18.1834659545278
30
0
41
1
10
7.25273379624059
20
18.1839115683569
30
0
41
1
10
7.25293750848812
20
18.1841096948367
30
0
41
1
10
7.25348292368181
20
18.184547638196
30
0
41
1
10
7.25386921686845
20
18.1847600619574
30
0
41
1
10
7.25616643882813
20
18.1858315065421
30
0
41
1
10
7.25824122133406
20
18.1863804913929
30
0
41
1
10
7.26820985238936
20
18.1897587882087
30
0
41
1
10
7.27615923002611
20
18.1924961030713
30
0
41
1
10
7.31611375429708
20
18.2056866716818
30
0
41
1
10
7.34839952650586
20
18.2154398870819
30
0
41
1
10
7.51142824786962
20
18.2605810781215
30
0
41
1
10
7.64582268404195
20
18.2842583883951
30
0
41
1
10
7.84023696714922
20
18.3093620047107
30
0
41
1
10
7.90068870296872
20
18.315985575157
30
0
41
1
10
7.96113883731931
20
18.3223391334635
30
0
0
SPLINE
5
2F3
100
AcDbEntity
8
1
62
256
6
ByLayer
370
18
48
1
60
0
100
AcDbSpline
70
4
71
3
72
8
73
4
40
0
40
0
40
0
40
0
40
1
40
1
40
1
40
1
41
1
10
6.69764388128536
20
15.4507344098965
30
0
41
1
10
6.69088750216323
20
15.4465752511158
30
0
41
1
10
6.68294155982648
20
15.4415249743991
30
0
41
1
10
6.67523146859116
20
15.4364895436242
30
0
0
SPLINE
5
2F4
100
AcDbEntity
8
1
62
256
6
ByLayer
370
18
48
1
60
0
100
AcDbSpline
70
4
71
3
72
8
73
4
40
0
40
0
40
0
40
0
40
1
40
1
40
1
40
1
41
1
10
9.37077534683272
20
14.8823325921282
30
0
41
1
10
9.37441316511067
20
14.8759632612058
30
0
41
1
10
9.37917014980309
20
14.8682118951834
30
0
41
1
10
9.38419295038284
20
14.8604690035348
30
0
0
SPLINE
5
2F5
100
AcDbEntity
8
1
62
256
6
ByLayer
370
18
48
1
60
0
100
AcDbSpline
70
4
71
2
72
6
73
3
40
0
40
0
40
0
40
1
40
1
40
1
41
1
10
6.51069478587232
20
13.3917171540064
30
0
41
1
10
6.46900923288285
20
13.387414230306
30
0
41
1
10
6.4273883353614
20
13.3873709434814
30
0
0
SPLINE
5
2F6
100
AcDbEntity
8
1
62
256
6
ByLayer
370
18
48
1
60
0
100
AcDbSpline
70
4
71
3
72
8
73
4
40
0
40
0
40
0
40
0
40
1
40
1
40
1
40
1
41
1
10
8.51268813459831
20
14.6767106980727
30
0
41
1
10
8.45717520129895
20
14.6708760536709
30
0
41
1
10
8.40166226769992
20
14.6650414092821
30
0
41
1
10
8.34614954261724
20
14.6592067809396
30
0
0
SPLINE
5
2F7
100
AcDbEntity
8
1
62
256
6
ByLayer
370
18
48
1
60
0
100
AcDbSpline
70
4
71
1
72
4
73
2
40
0
40
0
40
1
40
1
41
1
10
5.73392652514644
20
13.7836725528961
30
0
41
1
10
5.69100188268672
20
13.9860127998963
30
0
0
SPLINE
5
2F8
100
AcDbEntity
8
1
62
256
6
ByLayer
370
18
48
1
60
0
100
AcDbSpline
70
4
71
3
72
8
73
4
40
0
40
0
40
0
40
0
40
1
40
1
40
1
40
1
41
1
10
8.50928473813113
20
14.7023062033844
30
0
41
1
10
8.56479760244116
20
14.7081408405351
30
0
41
1
10
8.62031046675983
20
14.7139754776037
30
0
41
1
10
8.67582333168949
20
14.7198101088592
30
0
0
SPLINE
5
2F9
100
AcDbEntity
8
1
62
256
6
ByLayer
370
18
48
1
60
0
100
AcDbSpline
70
4
71
3
72
8
73
4
40
0
40
0
40
0
40
0
40
1
40
1
40
1
40
1
41
1
10
8.34274614349894
20
14.6848022859268
30
0
41
1
10
8.3982590079693
20
14.6906369289521
30
0
41
1
10
8.45377187305184
20
14.6964715661528
30
0
41
1
10
8.50928473813113
20
14.7023062033844
30
0
0
SPLINE
5
2FA
100
AcDbEntity
8
1
62
256
6
ByLayer
370
18
48
1
60
0
100
AcDbSpline
70
4
71
3
72
21
73
17
40
0
40
0
40
0
40
0
40
0.323368193892373
40
0.646736387784746
40
0.808420484730933
40
0.889262533204026
40
0.970104581677119
40
0.975157209706687
40
0.980209837736256
40
0.990315093795392
40
0.995367721824961
40
0.996630878832353
40
0.997894035839745
40
0.998525614343441
40
0.999157192847137
40
1
40
1
40
1
40
1
41
1
10
5.45318125618232
20
16.2069428655128
30
0
41
1
10
5.47740543811835
20
15.9764651699679
30
0
41
1
10
5.52585380199048
20
15.5155097788779
30
0
41
1
10
5.58641425683058
20
14.9393155400155
30
0
41
1
10
5.62880657521868
20
14.5359795728118
30
0
41
1
10
5.65303274956128
20
14.3055027599294
30
0
41
1
10
5.66552259133624
20
14.1866623650021
30
0
41
1
10
5.672334002616
20
14.1218397866372
30
0
41
1
10
5.67384774106881
20
14.1074348097592
30
0
41
1
10
5.67536180224997
20
14.0930299758542
30
0
41
1
10
5.67659370708455
20
14.0813268147747
30
0
41
1
10
5.67715945726789
20
14.075924105951
30
0
41
1
10
5.67739497150811
20
14.0736730788758
30
0
41
1
10
5.67758340702474
20
14.0718725041236
30
0
41
1
10
5.67774098676367
20
14.0703716879064
30
0
41
1
10
5.67785211088037
20
14.0693211213236
30
0
41
1
10
5.67791606788737
20
14.0687206430121
30
0
0
SPLINE
5
2FB
100
AcDbEntity
8
1
62
256
6
ByLayer
370
18
48
1
60
0
100
AcDbSpline
70
4
71
3
72
21
73
17
40
0
40
0
40
0
40
0
40
0.32336819389237
40
0.64673638778474
40
0.808420484730925
40
0.889262533204017
40
0.97010458167711
40
0.975157209706678
40
0.980209837736246
40
0.990315093795383
40
0.995367721824951
40
0.996630878832343
40
0.997894035839735
40
0.998525614343432
40
0.999157192847128
40
1
40
1
40
1
40
1
41
1
10
8.6407801362287
20
13.6155995509723
30
0
41
1
10
8.870380794559
20
13.6397315525826
30
0
41
1
10
9.32958211121965
20
13.6879955558032
30
0
41
1
10
9.90358375704542
20
13.7483255598289
30
0
41
1
10
10.3053849091234
20
13.790556562647
30
0
41
1
10
10.5349846864971
20
13.8146905648082
30
0
41
1
10
10.6533728584666
20
13.8271328730286
30
0
41
1
10
10.7179487687109
20
13.8339183518883
30
0
41
1
10
10.7322989305292
20
13.8354263279552
30
0
41
1
10
10.746648949651
20
13.8369346280696
30
0
41
1
10
10.7583075752004
20
13.8381618591097
30
0
41
1
10
10.7636897267485
20
13.8387254406246
30
0
41
1
10
10.7659321888408
20
13.8389600505301
30
0
41
1
10
10.7677259125064
20
13.8391477628648
30
0
41
1
10
10.7692210177936
20
13.8393047417405
30
0
41
1
10
10.7702675860945
20
13.8394154483143
30
0
41
1
10
10.7708657787356
20
13.8394791683123
30
0
0
SPLINE
5
2FC
100
AcDbEntity
8
1
62
256
6
ByLayer
370
18
48
1
60
0
100
AcDbSpline
70
4
71
3
72
32
73
28
40
0
40
0
40
0
40
0
40
8.0906347952E-05
40
8.0906347952E-05
40
0.023353279223733
40
0.023353279223733
40
0.0320021003017786
40
0.0320021003017786
40
0.0373640759702786
40
0.0373640759702786
40
0.0397264517561678
40
0.0397264517561678
40
0.0408604824380514
40
0.0408604824380514
40
0.0420106202927009
40
0.0420106202927009
40
0.0437524015456337
40
0.0437524015456337
40
0.0521515632215426
40
0.0521515632215426
40
0.0855169766742576
40
0.0855169766742576
40
0.219096228027491
40
0.219096228027491
40
0.757990533586988
40
0.757990533586988
40
1
40
1
40
1
40
1
41
1
10
9.95592167383325
20
17.5790968193729
30
0
41
1
10
9.95594154579803
20
17.5790953447265
30
0
41
1
10
9.95596141915962
20
17.5790938845228
30
0
41
1
10
9.96169772227816
20
17.578666340221
30
0
41
1
10
9.96753160647003
20
17.5777642359827
30
0
41
1
10
9.97508407300987
20
17.5763137419883
30
0
41
1
10
9.97712981804497
20
17.575960953513
30
0
41
1
10
9.98031929778867
20
17.575146771558
30
0
41
1
10
9.98152262900615
20
17.5748063140527
30
0
41
1
10
9.98325101597706
20
17.5744953306781
30
0
41
1
10
9.9837786999372
20
17.574418613537
30
0
41
1
10
9.98455327120507
20
17.5743381317841
30
0
41
1
10
9.98481554849971
20
17.5743382911157
30
0
41
1
10
9.98528139180354
20
17.5741050891337
30
0
41
1
10
9.98548825529059
20
17.5739120041322
30
0
41
1
10
9.98594518194264
20
17.5733892226276
30
0
41
1
10
9.98616636291393
20
17.5730127747294
30
0
41
1
10
9.98728033375667
20
17.5707615269762
30
0
41
1
10
9.98784694305874
20
17.5687009004982
30
0
41
1
10
9.99134637135199
20
17.5588483049143
30
0
41
1
10
9.99418243647528
20
17.5509942960292
30
0
41
1
10
10.0078411447606
20
17.5114819888287
30
0
41
1
10
10.0179270142849
20
17.4794935238308
30
0
41
1
10
10.0645414165228
20
17.317694314921
30
0
41
1
10
10.0887528517976
20
17.1834182918232
30
0
41
1
10
10.1141692805537
20
16.9885702588216
30
0
41
1
10
10.120830686906
20
16.9279054554977
30
0
41
1
10
10.1272085148535
20
16.8672244109376
30
0
0
SPLINE
5
2FD
100
AcDbEntity
8
1
62
256
6
ByLayer
370
18
48
1
60
0
100
AcDbSpline
70
4
71
3
72
21
73
17
40
0
40
0
40
0
40
0
40
0.0002112286491648
40
0.0008428071528611
40
0.0021059641602539
40
0.0033691211676457
40
0.0046322781750381
40
0.0071585921898214
40
0.0096849062046064
40
0.0147375342341749
40
0.0197901622637431
40
0.0298954183228798
40
0.191579515269066
40
0.353263612215253
40
0.676631806107627
40
1
40
1
40
1
40
1
41
1
10
5.22844367542871
20
18.3451647969749
30
0
41
1
10
5.22845928613302
20
18.3450142580331
30
0
41
1
10
5.22852168292169
20
18.3444136121596
30
0
41
1
10
5.22867858386937
20
18.3429128110025
30
0
41
1
10
5.22891610613843
20
18.3406624022671
30
0
41
1
10
5.229201282726
20
18.337961438791
30
0
41
1
10
5.22958121548737
20
18.334359923624
30
0
41
1
10
5.23005462169493
20
18.3298583476525
30
0
41
1
10
5.2308106511486
20
18.3226561252838
30
0
41
1
10
5.23175640014844
20
18.3136531973208
30
0
41
1
10
5.23327047334377
20
18.2992483283276
30
0
41
1
10
5.24652163606774
20
18.1732050880776
30
0
41
1
10
5.27149989166196
20
17.9355255821002
30
0
41
1
10
5.31994825553403
20
17.4745701910102
30
0
41
1
10
5.38050871037416
20
16.8983759521478
30
0
41
1
10
5.42895707424626
20
16.4374205610578
30
0
41
1
10
5.45318125618232
20
16.2069428655128
30
0
0
SPLINE
5
2FE
100
AcDbEntity
8
1
62
256
6
ByLayer
370
18
48
1
60
0
100
AcDbSpline
70
4
71
3
72
8
73
4
40
0
40
0
40
0
40
0
40
1
40
1
40
1
40
1
41
1
10
10.118501906365
20
16.6972878247195
30
0
41
1
10
10.1126449818483
20
16.7530127391527
30
0
41
1
10
10.1067880574134
20
16.8087376535946
30
0
41
1
10
10.1009311387693
20
16.8644625686451
30
0
0
SPLINE
5
2FF
100
AcDbEntity
8
1
62
256
6
ByLayer
370
18
48
1
60
0
100
AcDbSpline
70
4
71
3
72
142
73
138
40
0
40
0
40
0
40
0
40
0.147862764189031
40
0.324584009170594
40
0.335629086981941
40
0.341151625887615
40
0.346674164793289
40
0.349435434246127
40
0.352196703698963
40
0.353577338425382
40
0.3549579731518
40
0.356338607878219
40
0.357028925241429
40
0.357719242604637
40
0.360480512057474
40
0.363241781510311
40
0.366003050963148
40
0.368764320415985
40
0.379809398227332
40
0.385331937133006
40
0.39085447603868
40
0.393615745491517
40
0.394996380217936
40
0.396377014944354
40
0.399138284397191
40
0.40051891912361
40
0.401899553850028
40
0.402589871213237
40
0.407422092755701
40
0.412944631661375
40
0.457124942906766
40
0.500753000261589
40
0.501305254152157
40
0.502685888878575
40
0.503376206241784
40
0.504066523604994
40
0.505447158331412
40
0.506137475694621
40
0.506827793057831
40
0.507172951739436
40
0.509589062510668
40
0.512350331963504
40
0.517872870869179
40
0.523395409774852
40
0.534440487586201
40
0.545485565397548
40
0.556530643208895
40
0.564814451567406
40
0.567575721020243
40
0.573098259925916
40
0.575859529378754
40
0.577412743445975
40
0.578620798831591
40
0.579828854217207
40
0.581382068284428
40
0.582762703010847
40
0.584143337737264
40
0.585523972463683
40
0.586904607190101
40
0.589665876642938
40
0.595188415548612
40
0.600710954454286
40
0.60623349335996
40
0.611756032265634
40
0.622801110076982
40
0.633846187888329
40
0.644891265699677
40
0.65041380460535
40
0.655936343511024
40
0.666981421322373
40
0.672503960228047
40
0.67802649913372
40
0.689071576945067
40
0.700116654756415
40
0.711161732567762
40
0.722206810379111
40
0.733251888190458
40
0.744296966001806
40
0.755342043813154
40
0.760864582718827
40
0.766387121624501
40
0.76776775635092
40
0.769148391077338
40
0.770529025803757
40
0.771909660530175
40
0.772599977893384
40
0.774670929983012
40
0.77605156470943
40
0.777432199435849
40
0.778122516799059
40
0.782954738341523
40
0.78571600779436
40
0.788477277247197
40
0.789857911973615
40
0.799522355058544
40
0.810567432869892
40
0.832657588492587
40
0.838180127398262
40
0.842322031577517
40
0.843702666303935
40
0.846463935756772
40
0.847844570483191
40
0.848621177516801
40
0.849225205209609
40
0.849829232902417
40
0.850605839936028
40
0.851296157299237
40
0.851986474662446
40
0.85233163334405
40
0.853367109388865
40
0.854057426752074
40
0.854747744115283
40
0.855023871060567
40
0.898928055360674
40
0.921018210983369
40
0.943108366606064
40
0.948630905511738
40
0.951392174964575
40
0.953290547713401
40
0.954153444417412
40
0.955016341121424
40
0.956914713870249
40
0.958295348596668
40
0.959675983323086
40
0.960366300686294
40
0.962437252775923
40
0.963817887502341
40
0.96519852222876
40
0.976243600040107
40
0.987288677851455
40
0.990049947304293
40
0.992811216757129
40
0.995572486209966
40
0.996953120936384
40
0.998333755662803
40
0.999714390389221
40
1
40
1
40
1
40
1
41
1
10
9.01834480135204
20
18.3412960379876
30
0
41
1
10
9.07768572009377
20
18.3475327796466
30
0
41
1
10
9.20795503685463
20
18.3612239422702
30
0
41
1
10
9.3426239412712
20
18.3753784428515
30
0
41
1
10
9.42015015535915
20
18.3835277507453
30
0
41
1
10
9.42901012066801
20
18.3844590869224
30
0
41
1
10
9.43454755284452
20
18.3850411684958
30
0
41
1
10
9.43897748657699
20
18.3855068328339
30
0
41
1
10
9.44174619342195
20
18.385797872912
30
0
41
1
10
9.44396115981476
20
18.3860307050447
30
0
41
1
10
9.44562238555764
20
18.386205329217
30
0
41
1
10
9.44700674154188
20
18.3863508494524
30
0
41
1
10
9.4481142272933
20
18.3864672657147
30
0
41
1
10
9.44977545700692
20
18.3866418901913
30
0
41
1
10
9.45226730611094
20
18.3869038272539
30
0
41
1
10
9.45558978517377
20
18.3872530777125
30
0
41
1
10
9.45891228174636
20
18.3876023295135
30
0
41
1
10
9.46555731774913
20
18.3883008364009
30
0
41
1
10
9.47331000761483
20
18.3891157724383
30
0
41
1
10
9.48217055279582
20
18.3900471530694
30
0
41
1
10
9.48770855640734
20
18.3906292784499
30
0
41
1
10
9.49158525816051
20
18.391036773823
30
0
41
1
10
9.49380054661475
20
18.3912696306455
30
0
41
1
10
9.4960158559285
20
18.3915024890672
30
0
41
1
10
9.49823119751136
20
18.3917353499626
30
0
41
1
10
9.50044657332276
20
18.3919682134821
30
0
41
1
10
9.50183119787502
20
18.3921137543064
30
0
41
1
10
9.50460046959714
20
18.3924048376889
30
0
41
1
10
9.50903140216045
20
18.392870578599
30
0
41
1
10
9.53091012183637
20
18.3951702502489
30
0
41
1
10
9.56836212502614
20
18.3991065753185
30
0
41
1
10
9.60384521118749
20
18.4028352337211
30
0
41
1
10
9.62215053529638
20
18.4047585405949
30
0
41
1
10
9.62320450185825
20
18.4048692782589
30
0
41
1
10
9.6243139577351
20
18.4049858455543
30
0
41
1
10
9.62542342210847
20
18.4051024135009
30
0
41
1
10
9.62653289458061
20
18.4052189820685
30
0
41
1
10
9.62764236585949
20
18.4053355505446
30
0
41
1
10
9.62833578297582
20
18.4054084056556
30
0
41
1
10
9.62972261065531
20
18.4055541153752
30
0
41
1
10
9.63194150078738
20
18.4057872483083
30
0
41
1
10
9.63624031881193
20
18.4062389217778
30
0
41
1
10
9.64178622772013
20
18.4068216531915
30
0
41
1
10
9.65065606295454
20
18.4077537460134
30
0
41
1
10
9.66173359791341
20
18.4089181138932
30
0
41
1
10
9.67500151037223
20
18.4103134288806
30
0
41
1
10
9.68713200604785
20
18.4115900330433
30
0
41
1
10
9.69600640772035
20
18.4125224759359
30
0
41
1
10
9.70270787205843
20
18.4132253087129
30
0
41
1
10
9.70720222679202
20
18.4136959116715
30
0
41
1
10
9.71114285949062
20
18.4141102777575
30
0
41
1
10
9.71332440676701
20
18.4143405479255
30
0
41
1
10
9.71487500340442
20
18.4145047214267
30
0
41
1
10
9.71640817082607
20
18.4146675587754
30
0
41
1
10
9.71798893985169
20
18.4148320585782
30
0
41
1
10
9.71961693951795
20
18.4149919751578
30
0
41
1
10
9.72116495622603
20
18.4151307907705
30
0
41
1
10
9.72270008402273
20
18.415250531786
30
0
41
1
10
9.72473901206081
20
18.4153866607752
30
0
41
1
10
9.72831072494054
20
18.4155681376801
30
0
41
1
10
9.73349196866994
20
18.415672642852
30
0
41
1
10
9.73980958633942
20
18.41553660638
30
0
41
1
10
9.74620137958397
20
18.4151252806309
30
0
41
1
10
9.75480327797473
20
18.4141959010775
30
0
41
1
10
9.76566836476837
20
18.4122938552485
30
0
41
1
10
9.7787220715569
20
18.4087846834493
30
0
41
1
10
9.78947587986741
20
18.4048029407925
30
0
41
1
10
9.79791379066455
20
18.4009938071757
30
0
41
1
10
9.80621142174641
20
18.3967724206324
30
0
41
1
10
9.81425334953374
20
18.3919380148012
30
0
41
1
10
9.82195624073208
20
18.3865352887475
30
0
41
1
10
9.82940532977292
20
18.3807685822343
30
0
41
1
10
9.83818872871962
20
18.3729056726469
30
0
41
1
10
9.84776231113793
20
18.3625680129138
30
0
41
1
10
9.85624764068771
20
18.3514732590378
30
0
41
1
10
9.86358616674312
20
18.3397948218071
30
0
41
1
10
9.86971933867838
20
18.3277061120098
30
0
41
1
10
9.87465402474331
20
18.3153776728722
30
0
41
1
10
9.87777324844689
20
18.3050463184956
30
0
41
1
10
9.87970133136042
20
18.2968124384194
30
0
41
1
10
9.8805792140231
20
18.2922138525868
30
0
41
1
10
9.88108088915908
20
18.2891707295883
30
0
41
1
10
9.8813153631678
20
18.2876502460733
30
0
41
1
10
9.88153382605245
20
18.2861273983489
30
0
41
1
10
9.88170257990092
20
18.2848504475122
30
0
41
1
10
9.88189315546239
20
18.2833056397457
30
0
41
1
10
9.88207015991199
20
18.2817436947191
30
0
41
1
10
9.8822670864478
20
18.2798941809507
30
0
41
1
10
9.88240616523669
20
18.2785566731775
30
0
41
1
10
9.88268778402346
20
18.2758557305901
30
0
41
1
10
9.88303599899101
20
18.2725376513596
30
0
41
1
10
9.88347925697695
20
18.2683302066716
30
0
41
1
10
9.88377595773855
20
18.2655162888253
30
0
41
1
10
9.88436713519175
20
18.2599051130788
30
0
41
1
10
9.88530421898849
20
18.2509931514201
30
0
41
1
10
9.88710537671119
20
18.2338344080756
30
0
41
1
10
9.88874030559182
20
18.2182756874343
30
0
41
1
10
9.89008577472725
20
18.2054766440167
30
0
41
1
10
9.89055397491936
20
18.2010232228224
30
0
41
1
10
9.89090518575239
20
18.1976827023213
30
0
41
1
10
9.89113935170073
20
18.1954554984412
30
0
41
1
10
9.89134791954444
20
18.1934717916438
30
0
41
1
10
9.89146501300814
20
18.1923581111294
30
0
41
1
10
9.89154917486397
20
18.1915576463022
30
0
41
1
10
9.89163333730548
20
18.1907571770881
30
0
41
1
10
9.89172115941116
20
18.1899219016615
30
0
41
1
10
9.89181264085926
20
18.1890518224331
30
0
41
1
10
9.89188582582605
20
18.1883557604861
30
0
41
1
10
9.8919736473816
20
18.1875204891803
30
0
41
1
10
9.89206146824301
20
18.1866852230745
30
0
41
1
10
9.89216392422532
20
18.1857107586052
30
0
41
1
10
9.89223417858179
20
18.1850425631939
30
0
41
1
10
9.89413687377976
20
18.1669458060581
30
0
41
1
10
9.89694519160003
20
18.1402318957128
30
0
41
1
10
9.90067536204728
20
18.1047437728485
30
0
41
1
10
9.90277939688775
20
18.0847248461359
30
0
41
1
10
9.90406498090329
20
18.0724926685016
30
0
41
1
10
9.9044959240243
20
18.0683922565391
30
0
41
1
10
9.90472965016937
20
18.0661683471145
30
0
41
1
10
9.90488303080718
20
18.0647089226211
30
0
41
1
10
9.90503641012683
20
18.0632495080021
30
0
41
1
10
9.90521169840812
20
18.0615816233311
30
0
41
1
10
9.90540889467877
20
18.0597052758919
30
0
41
1
10
9.90555496414478
20
18.0583154027246
30
0
41
1
10
9.9057302458919
20
18.0566475669994
30
0
41
1
10
9.90590552552229
20
18.0549797471305
30
0
41
1
10
9.90611001548012
20
18.0530339793379
30
0
41
1
10
9.90669426599047
20
18.0474746915683
30
0
41
1
10
9.90768744370448
20
18.0380242630661
30
0
41
1
10
9.90873897805517
20
18.0280184182617
30
0
41
1
10
9.90943998407158
20
18.0213479815326
30
0
41
1
10
9.90979048422511
20
18.018012784552
30
0
41
1
10
9.9100825657425
20
18.0152334682958
30
0
41
1
10
9.91031623005114
20
18.013010022072
30
0
41
1
10
9.91049147789525
20
18.0113424403058
30
0
41
1
10
9.91062039396445
20
18.0101157309474
30
0
41
1
10
9.91069089413062
20
18.0094448818404
30
0
41
1
10
9.91070297850604
20
18.0093298921439
30
0
0
SPLINE
5
300
100
AcDbEntity
8
1
62
256
6
ByLayer
370
18
48
1
60
0
100
AcDbSpline
70
4
71
3
72
8
73
4
40
0
40
0
40
0
40
0
40
1
40
1
40
1
40
1
41
1
10
10.1193613698443
20
15.8103705317082
30
0
41
1
10
10.1259099878268
20
15.8076097810299
30
0
41
1
10
10.1342243107462
20
15.8042685228993
30
0
41
1
10
10.1428128409553
20
15.8009461420995
30
0
0
SPLINE
5
301
100
AcDbEntity
8
1
62
256
6
ByLayer
370
18
48
1
60
0
100
AcDbSpline
70
4
71
3
72
21
73
17
40
0
40
0
40
0
40
0
40
0.0002112286491625
40
0.0008428071528589
40
0.0021059641602517
40
0.0033691211676435
40
0.0046322781750358
40
0.0071585921898191
40
0.0096849062046042
40
0.0147375342341727
40
0.0197901622637409
40
0.0298954183228776
40
0.191579515269065
40
0.353263612215252
40
0.676631806107626
40
1
40
1
40
1
40
1
41
1
10
11.444689343586
20
14.6748329381049
30
0
41
1
10
11.4446737328817
20
14.6749834770467
30
0
41
1
10
11.444611336093
20
14.6755841229202
30
0
41
1
10
11.4444544351454
20
14.6770849240773
30
0
41
1
10
11.4442169128763
20
14.6793353328127
30
0
41
1
10
11.4439317362887
20
14.6820362962888
30
0
41
1
10
11.4435518035274
20
14.6856378114558
30
0
41
1
10
11.4430783973198
20
14.6901393874274
30
0
41
1
10
11.4423223678661
20
14.697341609796
30
0
41
1
10
11.4413766188663
20
14.706344537759
30
0
41
1
10
11.439862545671
20
14.7207494067522
30
0
41
1
10
11.426611382947
20
14.8467926470022
30
0
41
1
10
11.4016331273528
20
15.0844721529797
30
0
41
1
10
11.3531847634807
20
15.5454275440696
30
0
41
1
10
11.2926243086406
20
16.121621782932
30
0
41
1
10
11.2441759447685
20
16.582577174022
30
0
41
1
10
11.2199517628324
20
16.813054869567
30
0
0
SPLINE
5
302
100
AcDbEntity
8
1
62
256
6
ByLayer
370
18
48
1
60
0
100
AcDbSpline
70
4
71
2
72
6
73
3
40
0
40
0
40
0
40
1
40
1
40
1
41
1
10
5.69100188268672
20
13.9860127998963
30
0
41
1
10
5.68239052479507
20
14.0268921593065
30
0
41
1
10
5.67791606788734
20
14.068720643012
30
0
0
SPLINE
5
303
100
AcDbEntity
8
1
62
256
6
ByLayer
370
18
48
1
60
0
100
AcDbSpline
70
4
71
3
72
16
73
12
40
0
40
0
40
0
40
0
40
0.110975996452921
40
0.110975996452921
40
0.123664756258261
40
0.123664756258261
40
0.174424979249419
40
0.174424979249419
40
0.377754446764839
40
0.377754446764839
40
1
40
1
40
1
40
1
41
1
10
7.62282106222173
20
14.6986156423439
30
0
41
1
10
7.64773669897383
20
14.688977295557
30
0
41
1
10
7.67559490027435
20
14.6894171160413
30
0
41
1
10
7.70519413361478
20
14.6855633490175
30
0
41
1
10
7.70823340349884
20
14.68517467271
30
0
41
1
10
7.72343515899203
20
14.6832654887931
30
0
41
1
10
7.73561281121525
20
14.6818477319667
30
0
41
1
10
7.79659442966951
20
14.6752892970887
30
0
41
1
10
7.84561634652707
20
14.671753158039
30
0
41
1
10
8.04422495620548
20
14.6635186501338
30
0
41
1
10
8.19413181657396
20
14.6717244882455
30
0
41
1
10
8.34274614349894
20
14.6848022859268
30
0
0
SPLINE
5
304
100
AcDbEntity
8
1
62
256
6
ByLayer
370
18
48
1
60
0
100
AcDbSpline
70
4
71
2
72
11
73
8
40
0
40
0
40
0
40
0.25
40
0.25
40
0.5
40
0.75
40
0.75
40
1
40
1
40
1
41
1
10
11.4491676795824
20
14.384368603792
30
0
41
1
10
11.4490831794398
20
14.3009721985556
30
0
41
1
10
11.4223138491413
20
14.2222419801943
30
0
41
1
10
11.3940132861651
20
14.1390083139796
30
0
41
1
10
11.2832366647239
20
14.0013659596914
30
0
41
1
10
11.20719206052
20
13.9555508069207
30
0
41
1
10
11.1365817749892
20
13.9130097081453
30
0
41
1
10
11.0548085250016
20
13.8954729586769
30
0
0
SPLINE
5
305
100
AcDbEntity
8
1
62
256
6
ByLayer
370
18
48
1
60
0
100
AcDbSpline
70
4
71
1
72
4
73
2
40
0
40
0
40
1
40
1
41
1
10
5.61832449401314
20
19.1245247764029
30
0
41
1
10
5.81987760760739
20
19.167449417183
30
0
0
SPLINE
5
306
100
AcDbEntity
8
1
62
256
6
ByLayer
370
18
48
1
60
0
100
AcDbSpline
70
4
71
3
72
8
73
4
40
0
40
0
40
0
40
0
40
1
40
1
40
1
40
1
41
1
10
8.12767741145731
20
18.3398430368202
30
0
41
1
10
8.18319034475667
20
18.345677681222
30
0
41
1
10
8.23870327835408
20
18.3515123256106
30
0
41
1
10
8.29421600343281
20
18.3573469539526
30
0
0
SPLINE
5
307
100
AcDbEntity
8
1
62
256
6
ByLayer
370
18
48
1
60
0
100
AcDbSpline
70
4
71
3
72
10
73
6
40
0
40
0
40
0
40
0
40
0.889589714445532
40
0.889589714445532
40
1
40
1
40
1
40
1
41
1
10
6.53802359151709
20
16.1519428835352
30
0
41
1
10
6.56393644012113
20
15.9397870908794
30
0
41
1
10
6.60111233681445
20
15.725713783393
30
0
41
1
10
6.67833054070334
20
15.500149548655
30
0
41
1
10
6.68306947327355
20
15.4732043146365
30
0
41
1
10
6.69764388130548
20
15.4507344099099
30
0
0
SPLINE
5
308
100
AcDbEntity
8
1
62
256
6
ByLayer
370
18
48
1
60
0
100
AcDbSpline
70
4
71
3
72
41
73
37
40
0
40
0
40
0
40
0
40
0.0421172729720281
40
0.11053746775974
40
0.144747565153596
40
0.153300089502061
40
0.157576351676293
40
0.161852613850525
40
0.170405138198989
40
0.178957662547453
40
0.213167759941309
40
0.247377857335165
40
0.315798052122877
40
0.384218246910589
40
0.418428344304446
40
0.452638441698302
40
0.46974349039523
40
0.478296014743694
40
0.486848539092158
40
0.521058636486014
40
0.589478831273726
40
0.606583879970654
40
0.623688928667582
40
0.627965190841814
40
0.632241453016047
40
0.64079397736451
40
0.657899026061439
40
0.726319220849151
40
0.794739415636863
40
0.828949513030719
40
0.837502037379183
40
0.841778299553415
40
0.846054561727647
40
0.854607086076111
40
0.863159610424575
40
1
40
1
40
1
40
1
41
1
10
6.49558626605452
20
16.3165040469127
30
0
41
1
10
6.48345679918182
20
16.3152291885729
30
0
41
1
10
6.45162688980483
20
16.3118837302892
30
0
41
1
10
6.40994833017675
20
16.3075031371526
30
0
41
1
10
6.37791213136609
20
16.3041359969758
30
0
41
1
10
6.36438196984929
20
16.3027139196965
30
0
41
1
10
6.35943712253598
20
16.3021941953012
30
0
41
1
10
6.35453627416322
20
16.3016790953808
30
0
41
1
10
6.34841566525461
20
16.3010357934621
30
0
41
1
10
6.33350213378176
20
16.2994683181415
30
0
41
1
10
6.31042673410687
20
16.2970429959052
30
0
41
1
10
6.2675636792776
20
16.2925379073062
30
0
41
1
10
6.21084791251096
20
16.2865768400127
30
0
41
1
10
6.15096449175397
20
16.280282838869
30
0
41
1
10
6.10183860666035
20
16.2751195002845
30
0
41
1
10
6.07077419804099
20
16.2718544993726
30
0
41
1
10
6.04891994922562
20
16.2695575252635
30
0
41
1
10
6.03640686899357
20
16.2682423475349
30
0
41
1
10
6.01756636126825
20
16.2662621303784
30
0
41
1
10
5.97626107882022
20
16.2619207702543
30
0
41
1
10
5.93199991156843
20
16.2572687341183
30
0
41
1
10
5.89399786215074
20
16.2532745577758
30
0
41
1
10
5.87974645663243
20
16.2517766746973
30
0
41
1
10
5.87025248110325
20
16.2507788176597
30
0
41
1
10
5.86393066482111
20
16.2501143679939
30
0
41
1
10
5.85287031741223
20
16.2489518786377
30
0
41
1
10
5.81793584934991
20
16.2452801180876
30
0
41
1
10
5.7601234957921
20
16.239203794878
30
0
41
1
10
5.69559640537625
20
16.2324217243859
30
0
41
1
10
5.65397249012995
20
16.2280468746052
30
0
41
1
10
5.63644579680047
20
16.2262047449061
30
0
41
1
10
5.63009320038711
20
16.2255370601181
30
0
41
1
10
5.62372906275922
20
16.2248681622996
30
0
41
1
10
5.61575593572255
20
16.2240301528797
30
0
41
1
10
5.55837663706129
20
16.2179993455738
30
0
41
1
10
5.50418507721449
20
16.2123035831183
30
0
41
1
10
5.45318125618232
20
16.2069428655131
30
0
0
SPLINE
5
309
100
AcDbEntity
8
1
62
256
6
ByLayer
370
18
48
1
60
0
100
AcDbSpline
70
4
71
1
72
4
73
2
40
0
40
0
40
1
40
1
41
1
10
10.2457446836533
20
19.6326267915984
30
0
41
1
10
10.4518179127784
20
19.6325454058439
30
0
0
SPLINE
5
30A
100
AcDbEntity
8
1
62
256
6
ByLayer
370
18
48
1
60
0
100
AcDbSpline
70
4
71
3
72
41
73
37
40
0
40
0
40
0
40
0
40
0.0421172729721639
40
0.110537467759867
40
0.144747565153718
40
0.153300089502181
40
0.157576351676412
40
0.161852613850643
40
0.170405138199106
40
0.178957662547569
40
0.21316775994142
40
0.247377857335272
40
0.315798052122974
40
0.384218246910677
40
0.418428344304528
40
0.452638441698379
40
0.469743490395305
40
0.478296014743768
40
0.486848539092231
40
0.521058636486082
40
0.589478831273785
40
0.60658387997071
40
0.623688928667636
40
0.627965190841867
40
0.632241453016099
40
0.640793977364562
40
0.657899026061487
40
0.72631922084919
40
0.794739415636892
40
0.828949513030744
40
0.837502037379206
40
0.841778299553438
40
0.846054561727669
40
0.854607086076132
40
0.863159610424595
40
1
40
1
40
1
40
1
41
1
10
8.51268813456943
20
14.6767106982439
30
0
41
1
10
8.5148429245809
20
14.6638235213618
30
0
41
1
10
8.52049758695401
20
14.6300051591594
30
0
41
1
10
8.52790150249785
20
14.5857232018034
30
0
41
1
10
8.53359304633358
20
14.5516854730868
30
0
41
1
10
8.53599631878092
20
14.5373103866196
30
0
41
1
10
8.53687515745773
20
14.5320563244596
30
0
41
1
10
8.5377461303828
20
14.5268490499289
30
0
41
1
10
8.53882600202971
20
14.5203521516666
30
0
41
1
10
8.54142341148153
20
14.5045492403945
30
0
41
1
10
8.54532048522196
20
14.4801967744704
30
0
41
1
10
8.55221893802869
20
14.4352383054474
30
0
41
1
10
8.56072550464668
20
14.3762550531378
30
0
41
1
10
8.56891561416654
20
14.3146210000557
30
0
41
1
10
8.57518799229652
20
14.264421907462
30
0
41
1
10
8.57897569723167
20
14.2328240469729
30
0
41
1
10
8.58154839846921
20
14.2106693002593
30
0
41
1
10
8.58299637808798
20
14.198004545476
30
0
41
1
10
8.58514624493421
20
14.1789603033709
30
0
41
1
10
8.58985511522508
20
14.1372119571228
30
0
41
1
10
8.59490296088518
20
14.0924743939917
30
0
41
1
10
8.59923639406577
20
14.0540637888802
30
0
41
1
10
8.60086121969402
20
14.0396593993717
30
0
41
1
10
8.60194444916738
20
14.0300628539479
30
0
41
1
10
8.6026646269639
20
14.0236736487643
30
0
41
1
10
8.60391450334694
20
14.0125036216582
30
0
41
1
10
8.60780029503755
20
13.9772731159947
30
0
41
1
10
8.61389021711557
20
13.9192477424232
30
0
41
1
10
8.62008360958458
20
13.8549737924879
30
0
41
1
10
8.62378662526612
20
13.8137506302788
30
0
41
1
10
8.62529510407032
20
13.7964339481325
30
0
41
1
10
8.62583565225754
20
13.7901625143005
30
0
41
1
10
8.62637392607621
20
13.7838823339996
30
0
41
1
10
8.6270472001174
20
13.7760152740401
30
0
41
1
10
8.63189411874478
20
13.7193979600162
30
0
41
1
10
8.63647176411507
20
13.6659260523269
30
0
41
1
10
8.64078013622822
20
13.6155995509722
30
0
0
SPLINE
5
30B
100
AcDbEntity
8
1
62
256
6
ByLayer
370
18
48
1
60
0
100
AcDbSpline
70
4
71
1
72
4
73
2
40
0
40
0
40
1
40
1
41
1
10
11.4490854127425
20
14.5912117659187
30
0
41
1
10
11.4491676795824
20
14.384368603792
30
0
0
SPLINE
5
30C
100
AcDbEntity
8
1
62
256
6
ByLayer
370
18
48
1
60
0
100
AcDbSpline
70
4
71
2
72
11
73
8
40
0
40
0
40
0
40
0.25
40
0.25
40
0.5
40
0.75
40
0.75
40
1
40
1
40
1
41
1
10
5.22396533943234
20
18.6356291312878
30
0
41
1
10
5.22404983957489
20
18.7190255365242
30
0
41
1
10
5.25081916987347
20
18.7977557548855
30
0
41
1
10
5.27911973284964
20
18.8809894211002
30
0
41
1
10
5.38989635429087
20
19.0186317753884
30
0
41
1
10
5.46594095849477
20
19.0644469281591
30
0
41
1
10
5.53655124402553
20
19.1069880269345
30
0
41
1
10
5.61832449401314
20
19.1245247764029
30
0
0
SPLINE
5
30D
100
AcDbEntity
8
1
62
256
6
ByLayer
370
18
48
1
60
0
100
AcDbSpline
70
4
71
2
72
6
73
3
40
0
40
0
40
0
40
1
40
1
40
1
41
1
10
10.8532554114073
20
13.8525483178968
30
0
41
1
10
10.8125350305193
20
13.8439371876233
30
0
41
1
10
10.7708657787355
20
13.8394791683123
30
0
0
SPLINE
5
30E
100
AcDbEntity
8
1
62
256
6
ByLayer
370
18
48
1
60
0
100
AcDbSpline
70
4
71
3
72
8
73
4
40
0
40
0
40
0
40
0
40
1
40
1
40
1
40
1
41
1
10
8.12966999215527
20
18.3140992487959
30
0
41
1
10
8.07415712784527
20
18.3082646116452
30
0
41
1
10
8.01864426352657
20
18.3024299745767
30
0
41
1
10
7.96313139859694
20
18.2965953433211
30
0
0
SPLINE
5
30F
100
AcDbEntity
8
1
62
256
6
ByLayer
370
18
48
1
60
0
100
AcDbSpline
70
4
71
2
72
6
73
3
40
0
40
0
40
0
40
1
40
1
40
1
41
1
10
10.1624382331424
20
19.6282805810735
30
0
41
1
10
10.2041237861319
20
19.6325835047739
30
0
41
1
10
10.2457446836533
20
19.6326267915984
30
0
0
SPLINE
5
310
100
AcDbEntity
8
1
62
256
6
ByLayer
370
18
48
1
60
0
100
AcDbSpline
70
4
71
3
72
8
73
4
40
0
40
0
40
0
40
0
40
1
40
1
40
1
40
1
41
1
10
9.00976546683833
20
18.3171204849166
30
0
41
1
10
9.0119995353102
20
18.3241069740121
30
0
41
1
10
9.01504097321279
20
18.3326779848135
30
0
41
1
10
9.01834418019837
20
18.3412959727042
30
0
0
SPLINE
5
311
100
AcDbEntity
8
1
62
256
6
ByLayer
370
18
48
1
60
0
100
AcDbSpline
70
4
71
3
72
41
73
37
40
0
40
0
40
0
40
0
40
0.136840389576458
40
0.145392913924987
40
0.153945438273516
40
0.15822170044778
40
0.162497962622044
40
0.171050486970573
40
0.205260584364688
40
0.273680779152917
40
0.342100973941146
40
0.359206022638203
40
0.367758546986732
40
0.372034809160996
40
0.37631107133526
40
0.393416120032318
40
0.410521168729375
40
0.478941363517604
40
0.513151460911719
40
0.521703985260248
40
0.530256509608776
40
0.547361558305834
40
0.581571655699948
40
0.615781753094063
40
0.684201947882292
40
0.752622142670521
40
0.786832240064636
40
0.82104233745875
40
0.829594861807279
40
0.838147386155808
40
0.842423648330072
40
0.846699910504336
40
0.855252434852865
40
0.88946253224698
40
0.957882727035209
40
1
40
1
40
1
40
1
41
1
10
8.03235288278628
20
19.4043981841076
30
0
41
1
10
8.03860212693024
20
19.3542756766235
30
0
41
1
10
8.04524194883322
20
19.3010205124216
30
0
41
1
10
8.05227234849525
20
19.244632691502
30
0
41
1
10
8.05324944084518
20
19.2367975641335
30
0
41
1
10
8.05402865250591
20
19.2305427074203
30
0
41
1
10
8.05480382100535
20
19.2242959331768
30
0
41
1
10
8.05692864674668
20
19.2070440317039
30
0
41
1
10
8.06187732819794
20
19.1659517942429
30
0
41
1
10
8.06918258182048
20
19.1017947056239
30
0
41
1
10
8.07528989268079
20
19.0437711596871
30
0
41
1
10
8.07881384886261
20
19.0085026235792
30
0
41
1
10
8.07991366449946
20
18.9973168244531
30
0
41
1
10
8.08053761476836
20
18.9909175053489
30
0
41
1
10
8.08147329044306
20
18.9813054513958
30
0
41
1
10
8.08287881213104
20
18.9668780121144
30
0
41
1
10
8.0866260887166
20
18.9284057994623
30
0
41
1
10
8.09099001298893
20
18.8835963532967
30
0
41
1
10
8.09506401206895
20
18.8417812793955
30
0
41
1
10
8.09692064554787
20
18.8227062172215
30
0
41
1
10
8.09813745833864
20
18.8100171658256
30
0
41
1
10
8.10022720764456
20
18.7878116588185
30
0
41
1
10
8.1030918377505
20
18.7561167792554
30
0
41
1
10
8.10739350435045
20
18.7057105565335
30
0
41
1
10
8.11219680856198
20
18.6437205358694
30
0
41
1
10
8.11613943855178
20
18.5842575944907
30
0
41
1
10
8.11873912480132
20
18.5388473068961
30
0
41
1
10
8.11999037383808
20
18.5142167535899
30
0
41
1
10
8.1207353340171
20
18.4982191420536
30
0
41
1
10
8.12102984125934
20
18.4916396986662
30
0
41
1
10
8.12126055443463
20
18.4863651301241
30
0
41
1
10
8.12149330143879
20
18.4810431609929
30
0
41
1
10
8.12213129479358
20
18.4664825362167
30
0
41
1
10
8.12364096657518
20
18.4320052750358
30
0
41
1
10
8.12560558097636
20
18.3871516240953
30
0
41
1
10
8.12710571940926
20
18.3528966038337
30
0
41
1
10
8.12767741146479
20
18.3398430366539
30
0
0
SPLINE
5
312
100
AcDbEntity
8
1
62
256
6
ByLayer
370
18
48
1
60
0
100
AcDbSpline
70
4
71
2
72
11
73
8
40
0
40
0
40
0
40
0.25
40
0.25
40
0.5
40
0.75
40
0.75
40
1
40
1
40
1
41
1
10
10.4518179127784
20
19.6325454058439
30
0
41
1
10
10.5349039845673
20
19.632394483484
30
0
41
1
10
10.613362389446
20
19.6054627212494
30
0
41
1
10
10.696308694173
20
19.5769904350666
30
0
41
1
10
10.8335265554253
20
19.4656907881077
30
0
41
1
10
10.879231463613
20
19.3893257247789
30
0
41
1
10
10.9216701961315
20
19.3184178808541
30
0
41
1
10
10.9392064938683
20
19.2363251821838
30
0
0
SPLINE
5
313
100
AcDbEntity
8
1
62
256
6
ByLayer
370
18
48
1
60
0
100
AcDbSpline
70
4
71
3
72
40
73
36
40
0
40
0
40
0
40
0
40
0.426846585780918
40
0.426846585780918
40
0.610926968127572
40
0.610926968127572
40
0.735640085201144
40
0.735640085201144
40
0.819350942995376
40
0.819350942995376
40
0.874953681941888
40
0.874953681941888
40
0.911547609208003
40
0.911547609208003
40
0.935452233586474
40
0.935452233586474
40
0.950582988850836
40
0.950582988850836
40
0.956517566746369
40
0.956517566746369
40
0.958998086029152
40
0.958998086029152
40
0.959868153635716
40
0.959868153635716
40
0.960445619721822
40
0.960445619721822
40
0.962709281412036
40
0.962709281412036
40
0.971819134816079
40
0.971819134816079
40
0.99494466443905
40
0.99494466443905
40
0.999920489517318
40
0.999920489517318
40
1
40
1
40
1
40
1
41
1
10
8.29421600342522
20
18.3573469541261
30
0
41
1
10
8.40059378469033
20
18.368527721266
30
0
41
1
10
8.50717561013613
20
18.3788233306659
30
0
41
1
10
8.65947158526927
20
18.3854930508331
30
0
41
1
10
8.70537460224605
20
18.3864742737718
30
0
41
1
10
8.78209887501919
20
18.3859381625091
30
0
41
1
10
8.81302953794847
20
18.385125708183
30
0
41
1
10
8.86451624143146
20
18.3826592813952
30
0
41
1
10
8.88514797007778
20
18.3813695689752
30
0
41
1
10
8.91936450912209
20
18.3786956847476
30
0
41
1
10
8.93299218134607
20
18.3774884436946
30
0
41
1
10
8.9555276333169
20
18.3752465411109
30
0
41
1
10
8.96445716191704
20
18.3742938897966
30
0
41
1
10
8.97919086796
20
18.372612962015
30
0
41
1
10
8.98500524561661
20
18.3719209483808
30
0
41
1
10
8.99448329004778
20
18.3707319345102
30
0
41
1
10
8.99815157705282
20
18.3702506573368
30
0
41
1
10
9.00327019850977
20
18.3696230383402
30
0
41
1
10
9.00473385325691
20
18.3695051226136
30
0
41
1
10
9.00672443538585
20
18.3691039789221
30
0
41
1
10
9.00731409928505
20
18.3689506212043
30
0
41
1
10
9.00797359006268
20
18.3685714699085
30
0
41
1
10
9.00813740389677
20
18.3684564743363
30
0
41
1
10
9.0083554675484
20
18.3682268954643
30
0
41
1
10
9.00842886802485
20
18.3681227569171
30
0
41
1
10
9.00865501550413
20
18.3675596315623
30
0
41
1
10
9.00873374578825
20
18.367072067353
30
0
41
1
10
9.00952520808539
20
18.3647251258968
30
0
41
1
10
9.01053276790651
20
18.3628899159779
30
0
41
1
10
9.01338323150276
20
18.355997191882
30
0
41
1
10
9.01534260964451
20
18.3505274029721
30
0
41
1
10
9.01758375599755
20
18.3437949191628
30
0
41
1
10
9.01797191799713
20
18.3425789433217
30
0
41
1
10
9.01833305820566
20
18.3413343902088
30
0
41
1
10
9.01833861212208
20
18.341315179423
30
0
41
1
10
9.0183441801984
20
18.3412959727042
30
0
0
SPLINE
5
314
100
AcDbEntity
8
1
62
256
6
ByLayer
370
18
48
1
60
0
100
AcDbSpline
70
4
71
3
72
21
73
17
40
0
40
0
40
0
40
0
40
0.0002112286491482
40
0.0008428071528445
40
0.0021059641602373
40
0.0033691211676291
40
0.0046322781750215
40
0.0071585921898049
40
0.00968490620459
40
0.0147375342341585
40
0.0197901622637268
40
0.0298954183228636
40
0.191579515269053
40
0.353263612215242
40
0.676631806107621
40
1
40
1
40
1
40
1
41
1
10
10.1624382331424
20
19.6282805810735
30
0
41
1
10
10.162288266879
20
19.6282650313682
30
0
41
1
10
10.1616899060629
20
19.6282028775512
30
0
41
1
10
10.1601948152418
20
19.6280465799912
30
0
41
1
10
10.1579529707795
20
19.6278099540636
30
0
41
1
10
10.1552622863106
20
19.6275258529008
30
0
41
1
10
10.1516744771044
20
19.6271473553528
30
0
41
1
10
10.1471900312037
20
19.6266757485511
30
0
41
1
10
10.1400152147089
20
19.6259226032173
30
0
41
1
10
10.131046545211
20
19.6249804568252
30
0
41
1
10
10.1166964911412
20
19.6234721446795
30
0
41
1
10
9.99113288623587
20
19.610271380352
30
0
41
1
10
9.75435782026335
20
19.5853881961848
30
0
41
1
10
9.2951565036027
20
19.5371241929642
30
0
41
1
10
8.72115485777692
20
19.4767941889384
30
0
41
1
10
8.26195354111633
20
19.4285301857179
30
0
41
1
10
8.03235288278603
20
19.4043981841075
30
0
0
SPLINE
5
315
100
AcDbEntity
8
1
62
256
6
ByLayer
370
18
48
1
60
0
100
AcDbSpline
70
4
71
3
72
8
73
4
40
0
40
0
40
0
40
0
40
1
40
1
40
1
40
1
41
1
10
9.93494264777473
20
17.565001717364
30
0
41
1
10
9.94077417271026
20
17.5690636700526
30
0
41
1
10
9.94821212395766
20
17.5740605547543
30
0
41
1
10
9.95592221519297
20
17.5790959855293
30
0
0
SPLINE
5
316
100
AcDbEntity
8
1
62
256
6
ByLayer
370
18
48
1
60
0
100
AcDbSpline
70
4
71
3
72
18
73
14
40
0
40
0
40
0
40
0
40
0.0011366486695921
40
0.0030754509480602
40
0.0069530555049965
40
0.0108306600619329
40
0.0263410782896781
40
0.0573619147451687
40
0.072872332972914
40
0.0883827512006593
40
0.336549442844584
40
0.584716134488508
40
1
40
1
40
1
40
1
41
1
10
6.8183639965585
20
18.1100693630544
30
0
41
1
10
6.81852631649519
20
18.1100864213928
30
0
41
1
10
6.81896550842543
20
18.1101325764393
30
0
41
1
10
6.81995844399825
20
18.1102369248562
30
0
41
1
10
6.82134280264955
20
18.1103824082211
30
0
41
1
10
6.8246652615274
20
18.1107315680449
30
0
41
1
10
6.83186391749263
20
18.1114880803361
30
0
41
1
10
6.84072384950852
20
18.1124191787719
30
0
41
1
10
6.84958395394287
20
18.1133503002629
30
0
41
1
10
6.88945512815349
20
18.1175404411424
30
0
41
1
10
6.96256616963018
20
18.1252242232375
30
0
41
1
10
7.09281227100746
20
18.1389136683937
30
0
41
1
10
7.18761882754299
20
18.1488787443062
30
0
41
1
10
7.24695990309129
20
18.1551159828972
30
0
0
SPLINE
5
317
100
AcDbEntity
8
1
62
256
6
ByLayer
370
18
48
1
60
0
100
AcDbSpline
70
4
71
3
72
32
73
28
40
0
40
0
40
0
40
0
40
8.0906347952E-05
40
8.0906347952E-05
40
0.0233532792236827
40
0.0233532792236827
40
0.0320021003018123
40
0.0320021003018123
40
0.0373640759702883
40
0.0373640759702883
40
0.0397264517565648
40
0.0397264517565648
40
0.0408604824386284
40
0.0408604824386284
40
0.0420106202930059
40
0.0420106202930059
40
0.0437524015470585
40
0.0437524015470585
40
0.0521515632219867
40
0.0521515632219867
40
0.0855169766706874
40
0.0855169766706874
40
0.219096228007855
40
0.219096228007855
40
0.757990533502461
40
0.757990533502461
40
1
40
1
40
1
40
1
41
1
10
6.67523200995089
20
15.4364887097805
30
0
41
1
10
6.67521213866101
20
15.4364901844979
30
0
41
1
10
6.67519226665848
20
15.4364916448444
30
0
41
1
10
6.66945713728376
20
15.4369193125118
30
0
41
1
10
6.66379508394422
20
15.4378394769009
30
0
41
1
10
6.65667882456009
20
15.439335818114
30
0
41
1
10
6.65477523605713
20
15.4397035478422
30
0
41
1
10
6.65184212777828
20
15.4405446755254
30
0
41
1
10
6.65074387010921
20
15.4408961767028
30
0
41
1
10
6.64918221513261
20
15.4412246843194
30
0
41
1
10
6.64870756756901
20
15.4413069758098
30
0
41
1
10
6.6480142817621
20
15.4413960010085
30
0
41
1
10
6.64778040178749
20
15.4413988263554
30
0
41
1
10
6.64736303935118
20
15.4416371238823
30
0
41
1
10
6.64717699869854
20
15.4418323974522
30
0
41
1
10
6.64676519469126
20
15.4423599215366
30
0
41
1
10
6.64656467711032
20
15.4427385412448
30
0
41
1
10
6.64555063582208
20
15.4450002920207
30
0
41
1
10
6.64502432444112
20
15.447065153978
30
0
41
1
10
6.64180618032927
20
15.4569473137215
30
0
41
1
10
6.63919960178865
20
15.4648254426177
30
0
41
1
10
6.62662656561585
20
15.5044518585553
30
0
41
1
10
6.6173084220944
20
15.5365210148077
30
0
41
1
10
6.57407469416879
20
15.6986755469059
30
0
41
1
10
6.55101635777822
20
15.83307276558
30
0
41
1
10
6.52616368856991
20
16.0279800521266
30
0
41
1
10
6.51953485919509
20
16.0886482794576
30
0
41
1
10
6.51315703120241
20
16.1493293240418
30
0
0
SPLINE
5
318
100
AcDbEntity
8
1
62
256
6
ByLayer
370
18
48
1
60
0
100
AcDbSpline
70
4
71
3
72
142
73
138
40
0
40
0
40
0
40
0
40
0.14786276418903
40
0.324584009170589
40
0.335629086981937
40
0.34115162588761
40
0.346674164793284
40
0.349435434246122
40
0.352196703698958
40
0.353577338425376
40
0.354957973151795
40
0.356338607878214
40
0.357028925241423
40
0.357719242604632
40
0.360480512057469
40
0.363241781510305
40
0.366003050963143
40
0.368764320415979
40
0.379809398227326
40
0.385331937133
40
0.390854476038674
40
0.393615745491511
40
0.39499638021793
40
0.396377014944348
40
0.399138284397185
40
0.400518919123603
40
0.401899553850021
40
0.402589871213231
40
0.407422092755695
40
0.412944631661369
40
0.457124942906758
40
0.50075300026158
40
0.501305254152148
40
0.502685888878567
40
0.503376206241776
40
0.504066523604985
40
0.505447158331404
40
0.506137475694612
40
0.506827793057822
40
0.507172951739428
40
0.50958906251066
40
0.512350331963496
40
0.51787287086917
40
0.523395409774843
40
0.534440487586192
40
0.545485565397538
40
0.556530643208885
40
0.564814451567396
40
0.567575721020233
40
0.573098259925906
40
0.575859529378744
40
0.577412743445965
40
0.57862079883158
40
0.579828854217197
40
0.581382068284418
40
0.582762703010837
40
0.584143337737254
40
0.585523972463672
40
0.586904607190091
40
0.589665876642928
40
0.595188415548601
40
0.600710954454275
40
0.606233493359949
40
0.611756032265623
40
0.62280111007697
40
0.633846187888318
40
0.644891265699665
40
0.650413804605339
40
0.655936343511012
40
0.66698142132236
40
0.672503960228034
40
0.678026499133707
40
0.689071576945055
40
0.700116654756402
40
0.711161732567749
40
0.722206810379097
40
0.733251888190445
40
0.744296966001792
40
0.75534204381314
40
0.760864582718813
40
0.766387121624487
40
0.767767756350906
40
0.769148391077324
40
0.770529025803743
40
0.771909660530161
40
0.77259997789337
40
0.774670929982998
40
0.776051564709416
40
0.777432199435834
40
0.778122516799044
40
0.782954738341508
40
0.785716007794345
40
0.788477277247182
40
0.7898579119736
40
0.799522355058529
40
0.810567432869877
40
0.832657588492572
40
0.838180127398246
40
0.842322031577501
40
0.843702666303919
40
0.846463935756756
40
0.847844570483175
40
0.848621177516785
40
0.849225205209593
40
0.849829232902401
40
0.850605839936012
40
0.851296157299221
40
0.85198647466243
40
0.852331633344034
40
0.853367109388848
40
0.854057426752057
40
0.854747744115267
40
0.85502387106055
40
0.898928055360657
40
0.921018210983351
40
0.943108366606046
40
0.94863090551172
40
0.951392174964557
40
0.953290547713383
40
0.954153444417393
40
0.955016341121406
40
0.95691471387023
40
0.958295348596649
40
0.959675983323067
40
0.960366300686275
40
0.962437252775905
40
0.963817887502323
40
0.965198522228741
40
0.976243600040088
40
0.987288677851436
40
0.990049947304273
40
0.99281121675711
40
0.995572486209947
40
0.996953120936365
40
0.998333755662783
40
0.999714390389202
40
1
40
1
40
1
40
1
41
1
10
6.48834077729617
20
17.2146400105804
30
0
41
1
10
6.48208021048549
20
17.2742076018009
30
0
41
1
10
6.46833674460862
20
17.4049745256383
30
0
41
1
10
6.45412817785689
20
17.5401578435729
30
0
41
1
10
6.44594774827993
20
17.6179801959765
30
0
41
1
10
6.44501285542708
20
17.6268740050057
30
0
41
1
10
6.44442855095474
20
17.6324325893321
30
0
41
1
10
6.44396110830357
20
17.6368794447389
30
0
41
1
10
6.4436689567807
20
17.6396587276238
30
0
41
1
10
6.44343523549165
20
17.641882154852
30
0
41
1
10
6.44325994445168
20
17.6435497262251
30
0
41
1
10
6.44311386849256
20
17.644939370239
30
0
41
1
10
6.44299700765086
20
17.6460510864178
30
0
41
1
10
6.44282171630448
20
17.6477186617766
30
0
41
1
10
6.44255877893505
20
17.6502200293657
30
0
41
1
10
6.44220819472702
20
17.6535551997935
30
0
41
1
10
6.44185760916778
20
17.6568903877976
30
0
41
1
10
6.44115643474203
20
17.6635608068262
30
0
41
1
10
6.44033838650159
20
17.6713431107833
30
0
41
1
10
6.43940344890055
20
17.6802375018866
30
0
41
1
10
6.43881910033116
20
17.685796659818
30
0
41
1
10
6.43841004867548
20
17.6896881699719
30
0
41
1
10
6.43817630253326
20
17.6919119204845
30
0
41
1
10
6.43794255478133
20
17.6941356919358
30
0
41
1
10
6.43770880453926
20
17.6963594957787
30
0
41
1
10
6.43747505165578
20
17.6985833339802
30
0
41
1
10
6.43732895497152
20
17.699973247582
30
0
41
1
10
6.43703675985765
20
17.702753097489
30
0
41
1
10
6.43656924012768
20
17.7072009555195
30
0
41
1
10
6.4342607850526
20
17.7291632484498
30
0
41
1
10
6.43030942356597
20
17.7667583121765
30
0
41
1
10
6.42656651653027
20
17.8023769373567
30
0
41
1
10
6.42463585795741
20
17.8207521843065
30
0
41
1
10
6.42452469700174
20
17.8218101768188
30
0
41
1
10
6.42440768412743
20
17.8229238706042
30
0
41
1
10
6.42429067059746
20
17.8240375729183
30
0
41
1
10
6.42417365644255
20
17.825151283362
30
0
41
1
10
6.4240566423797
20
17.826264992608
30
0
41
1
10
6.42398350877812
20
17.8269610584444
30
0
41
1
10
6.42383724208077
20
17.8283531835393
30
0
41
1
10
6.42360321800066
20
17.8305805494064
30
0
41
1
10
6.42314981807678
20
17.8348957880981
30
0
41
1
10
6.42256485946356
20
17.8404628813449
30
0
41
1
10
6.42162920495841
20
17.8493665977786
30
0
41
1
10
6.42046038992578
20
17.8604864471785
30
0
41
1
10
6.4190597511043
20
17.8738050415425
30
0
41
1
10
6.41777828287226
20
17.8859818750391
30
0
41
1
10
6.41684227597966
20
17.894890175251
30
0
41
1
10
6.41613674703578
20
17.9016172368897
30
0
41
1
10
6.41566433308046
20
17.906128757923
30
0
41
1
10
6.41524838560804
20
17.910084443348
30
0
41
1
10
6.41501724323874
20
17.9122743245577
30
0
41
1
10
6.41485245166575
20
17.9138308451729
30
0
41
1
10
6.41468900508789
20
17.9153698703887
30
0
41
1
10
6.41452386451093
20
17.9169566763906
30
0
41
1
10
6.41436325265965
20
17.9185908858786
30
0
41
1
10
6.41422372663857
20
17.920144796824
30
0
41
1
10
6.4141032144359
20
17.9216857555781
30
0
41
1
10
6.41396597590418
20
17.9237324100257
30
0
41
1
10
6.41378234323653
20
17.9273176125481
30
0
41
1
10
6.41367411997473
20
17.9325182989567
30
0
41
1
10
6.41380464228519
20
17.9388594147215
30
0
41
1
10
6.414209370452
20
17.9452747650045
30
0
41
1
10
6.41512847233173
20
17.9539080678944
30
0
41
1
10
6.41701482625544
20
17.9648122446333
30
0
41
1
10
6.42050058957508
20
17.9779119452646
30
0
41
1
10
6.42445898792781
20
17.9887027791961
30
0
41
1
10
6.42824725544986
20
17.9971691990316
30
0
41
1
10
6.43244635269443
20
18.0054944882096
30
0
41
1
10
6.43725639026692
20
18.0135626327248
30
0
41
1
10
6.44263290152742
20
18.0212900233379
30
0
41
1
10
6.44837223969995
20
18.0287623749365
30
0
41
1
10
6.45619892122585
20
18.037572360508
30
0
41
1
10
6.46649051554579
20
18.0471735204108
30
0
41
1
10
6.47753724874721
20
18.0556817610306
30
0
41
1
10
6.48916640188659
20
18.0630384504248
30
0
41
1
10
6.50120525602034
20
18.0691849566505
30
0
41
1
10
6.5134838972379
20
18.0741283088068
30
0
41
1
10
6.52377432589694
20
18.0772509981284
30
0
41
1
10
6.53197603122075
20
18.0791797585555
30
0
41
1
10
6.53655680529346
20
18.0800572762506
30
0
41
1
10
6.53958820415758
20
18.0805584136915
30
0
41
1
10
6.54110284258863
20
18.0807925585644
30
0
41
1
10
6.54261984912125
20
18.0810106306132
30
0
41
1
10
6.54389191339467
20
18.0811790028038
30
0
41
1
10
6.54543082033999
20
18.0813690659206
30
0
41
1
10
6.54698681151831
20
18.0815454936323
30
0
41
1
10
6.54882928531916
20
18.0817416899203
30
0
41
1
10
6.55016170465967
20
18.0818802281676
30
0
41
1
10
6.55285237113787
20
18.0821607582524
30
0
41
1
10
6.55615782449465
20
18.0825076441656
30
0
41
1
10
6.56034925776274
20
18.0829492232475
30
0
41
1
10
6.56315246705213
20
18.0832448021083
30
0
41
1
10
6.56874228945605
20
18.0838337406555
30
0
41
1
10
6.57762033809377
20
18.0847672615738
30
0
41
1
10
6.59471378906173
20
18.0865615480099
30
0
41
1
10
6.61021330435798
20
18.0881902527883
30
0
41
1
10
6.62296364336453
20
18.0895306037833
30
0
41
1
10
6.62740011784621
20
18.0899970232884
30
0
41
1
10
6.63072792657266
20
18.0903468984725
30
0
41
1
10
6.63294665520826
20
18.0905801739324
30
0
41
1
10
6.63492281334538
20
18.0907879486544
30
0
41
1
10
6.63603225593678
20
18.0909045968508
30
0
41
1
10
6.63682967473017
20
18.0909884386687
30
0
41
1
10
6.6376270978937
20
18.091072281071
30
0
41
1
10
6.63845919482051
20
18.0911597692217
30
0
41
1
10
6.639325963109
20
18.0912509027999
30
0
41
1
10
6.64001937630965
20
18.0913238094712
30
0
41
1
10
6.64085146913135
20
18.0914112970731
30
0
41
1
10
6.64168355677299
20
18.0914987839823
30
0
41
1
10
6.64265431308252
20
18.0916008503574
30
0
41
1
10
6.64331996578935
20
18.0916708375573
30
0
41
1
10
6.661347858786
20
18.0935662973231
30
0
41
1
10
6.68796011418331
20
18.0963639329654
30
0
41
1
10
6.72331319385282
20
18.1000799106353
30
0
41
1
10
6.74325594253645
20
18.1021759386928
30
0
41
1
10
6.75544157309702
20
18.1034566301477
30
0
41
1
10
6.75952638177586
20
18.1038859331923
30
0
41
1
10
6.7617418285665
20
18.104118769817
30
0
41
1
10
6.76319569951789
20
18.1042715667118
30
0
41
1
10
6.76464956063259
20
18.1044243622913
30
0
41
1
10
6.76631109850962
20
18.1045989834462
30
0
41
1
10
6.7681803058928
20
18.1047954292064
30
0
41
1
10
6.76956489018266
20
18.1049409427428
30
0
41
1
10
6.7712263793012
20
18.105115557378
30
0
41
1
10
6.77288785262408
20
18.1052901699011
30
0
41
1
10
6.77482621619743
20
18.1054938815735
30
0
41
1
10
6.78036434924161
20
18.1060759084257
30
0
41
1
10
6.78977881609131
20
18.1070653060267
30
0
41
1
10
6.79974658573235
20
18.1081128380493
30
0
41
1
10
6.80639163950326
20
18.1088111758841
30
0
41
1
10
6.80971414508665
20
18.1091603419531
30
0
41
1
10
6.81248288523429
20
18.1094513117376
30
0
41
1
10
6.81469787059717
20
18.109684086662
30
0
41
1
10
6.81635910672875
20
18.1098586674688
30
0
41
1
10
6.81758114810063
20
18.1099870928506
30
0
41
1
10
6.81824944443127
20
18.1100573246752
30
0
41
1
10
6.8183639965585
20
18.1100693630544
30
0
0
SPLINE
5
319
100
AcDbEntity
8
1
62
256
6
ByLayer
370
18
48
1
60
0
100
AcDbSpline
70
4
71
1
72
4
73
2
40
0
40
0
40
1
40
1
41
1
10
10.9392064938683
20
19.2363251821838
30
0
41
1
10
10.982131136328
20
19.0339849351836
30
0
0
SPLINE
5
31A
100
AcDbEntity
8
1
62
256
6
ByLayer
370
18
48
1
60
0
100
AcDbSpline
70
4
71
3
72
40
73
36
40
0
40
0
40
0
40
0
40
0.426846585780915
40
0.426846585780915
40
0.610926968127589
40
0.610926968127589
40
0.73564008520115
40
0.73564008520115
40
0.819350942995368
40
0.819350942995368
40
0.874953681941916
40
0.874953681941916
40
0.911547609208017
40
0.911547609208017
40
0.935452233586508
40
0.935452233586508
40
0.950582988850843
40
0.950582988850843
40
0.956517566746362
40
0.956517566746362
40
0.958998086029786
40
0.958998086029786
40
0.959868153637161
40
0.959868153637161
40
0.960445619725489
40
0.960445619725489
40
0.962709281421078
40
0.962709281421078
40
0.971819134847785
40
0.971819134847785
40
0.994944664528172
40
0.994944664528172
40
0.999920489618836
40
0.999920489618836
40
1
40
1
40
1
40
1
41
1
10
6.4780154865206
20
16.4836787892273
30
0
41
1
10
6.46679201079328
20
16.5904629163137
30
0
41
1
10
6.45638973418036
20
16.6975003334389
30
0
41
1
10
6.44900105513625
20
16.8508771682038
30
0
41
1
10
6.44773063592555
20
16.8971609703036
30
0
41
1
10
6.44763008664987
20
16.9746380067778
30
0
41
1
10
6.44814387745828
20
17.005904005798
30
0
41
1
10
6.45003468018399
20
17.0580084452605
30
0
41
1
10
6.45107249907213
20
17.0789038206328
30
0
41
1
10
6.45329091947804
20
17.1135862183735
30
0
41
1
10
6.45430672837941
20
17.1274070430619
30
0
41
1
10
6.45621474423066
20
17.1502750483905
30
0
41
1
10
6.45703055750781
20
17.1593397923437
30
0
41
1
10
6.45847800273484
20
17.1743024467658
30
0
41
1
10
6.45907583876161
20
17.1802087219931
30
0
41
1
10
6.46010713103647
20
17.1898397525058
30
0
41
1
10
6.46052595187794
20
17.1935683181382
30
0
41
1
10
6.46106937465535
20
17.1987688173714
30
0
41
1
10
6.46116747684414
20
17.2002526549809
30
0
41
1
10
6.4615248352203
20
17.2022834555441
30
0
41
1
10
6.46166275798501
20
17.2028869049378
30
0
41
1
10
6.4620106241797
20
17.2035724202436
30
0
41
1
10
6.46211645545336
20
17.203743751577
30
0
41
1
10
6.46232875603374
20
17.2039756591781
30
0
41
1
10
6.46242529552512
20
17.2040550665861
30
0
41
1
10
6.46294898402405
20
17.2043118230754
30
0
41
1
10
6.46340447382897
20
17.2044150098002
30
0
41
1
10
6.46559983207408
20
17.2053231865611
30
0
41
1
10
6.46733071762353
20
17.2064116642211
30
0
41
1
10
6.47389176966627
20
17.209514253483
30
0
41
1
10
6.47920175167195
20
17.211588718401
30
0
41
1
10
6.48585665770361
20
17.2138741534776
30
0
41
1
10
6.48706308927925
20
17.2142666315424
30
0
41
1
10
6.48830257825421
20
17.2146282530424
30
0
41
1
10
6.48832171238402
20
17.2146338130939
30
0
41
1
10
6.48834084282893
20
17.214639387054
30
0
0
SPLINE
5
31B
100
AcDbEntity
8
1
62
256
6
ByLayer
370
18
48
1
60
0
100
AcDbSpline
70
4
71
3
72
32
73
28
40
0
40
0
40
0
40
0
40
8.0906347952E-05
40
8.0906347952E-05
40
0.0233532792237102
40
0.0233532792237102
40
0.0320021003018127
40
0.0320021003018127
40
0.0373640759704
40
0.0373640759704
40
0.0397264517562585
40
0.0397264517562585
40
0.0408604824381246
40
0.0408604824381246
40
0.0420106202944511
40
0.0420106202944511
40
0.0437524015503882
40
0.0437524015503882
40
0.0521515632415934
40
0.0521515632415934
40
0.085516976755069
40
0.085516976755069
40
0.219096228351559
40
0.219096228351559
40
0.757990534892437
40
0.757990534892437
40
1
40
1
40
1
40
1
41
1
10
9.38419378069381
20
14.8604695462563
30
0
41
1
10
9.38419232758994
20
14.8604496015826
30
0
41
1
10
9.38419088918209
20
14.8604296558748
30
0
41
1
10
9.38377000818886
20
14.8546729086247
30
0
41
1
10
9.38295273681942
20
14.8489132147483
30
0
41
1
10
9.38170872062361
20
14.8415755383201
30
0
41
1
10
9.38142244594067
20
14.8396012493584
30
0
41
1
10
9.3807284839981
20
14.8365426456757
30
0
41
1
10
9.38043724136858
20
14.8353933473497
30
0
41
1
10
9.38020335593291
20
14.8337511952903
30
0
41
1
10
9.3801510629917
20
14.833251007107
30
0
41
1
10
9.38010784946687
20
14.8325186751335
30
0
41
1
10
9.3801209167261
20
14.8322711629434
30
0
41
1
10
9.37991063491387
20
14.831830644659
30
0
41
1
10
9.3797277455005
20
14.8316347067472
30
0
41
1
10
9.37922745295288
20
14.8312015059689
30
0
41
1
10
9.37886182315663
20
14.8309912540176
30
0
41
1
10
9.37666453074652
20
14.829930312451
30
0
41
1
10
9.37463004616615
20
14.8293855630835
30
0
41
1
10
9.36494269929048
20
14.826036830426
30
0
41
1
10
9.35722280823782
20
14.8233236355757
30
0
41
1
10
9.31835395607939
20
14.8102471757024
30
0
41
1
10
9.28683590987347
20
14.8005746515566
30
0
41
1
10
9.12718786282193
20
14.7557887837052
30
0
41
1
10
8.99394652553386
20
14.7322326690081
30
0
41
1
10
8.80009600191636
20
14.7071883062011
30
0
41
1
10
8.73967684301692
20
14.7005681597279
30
0
41
1
10
8.67922670856396
20
14.6942146014112
30
0
0
SPLINE
5
31C
100
AcDbEntity
8
1
62
256
6
ByLayer
370
18
48
1
60
0
100
AcDbSpline
70
4
71
3
72
8
73
4
40
0
40
0
40
0
40
0
40
1
40
1
40
1
40
1
41
1
10
10.1272085128191
20
16.8672244292038
30
0
41
1
10
10.1330654167348
20
16.8114996541719
30
0
41
1
10
10.1389223483491
20
16.7557746710703
30
0
41
1
10
10.1447792800811
20
16.7000496879887
30
0
0
SPLINE
5
31D
100
AcDbEntity
8
1
62
256
6
ByLayer
370
18
48
1
60
0
100
AcDbSpline
70
4
71
2
72
6
73
3
40
0
40
0
40
0
40
1
40
1
40
1
41
1
10
5.81987760760739
20
19.167449417183
30
0
41
1
10
5.86059798849544
20
19.1760605474565
30
0
41
1
10
5.90226724027917
20
19.1805185667675
30
0
0
SPLINE
5
31E
100
AcDbEntity
8
1
62
256
6
ByLayer
370
18
48
1
60
0
100
AcDbSpline
70
4
71
3
72
8
73
4
40
0
40
0
40
0
40
0
40
1
40
1
40
1
40
1
41
1
10
7.62282106222176
20
14.6986156423439
30
0
41
1
10
7.61966213958877
20
14.691531947159
30
0
41
1
10
7.61611271059849
20
14.6829075443428
30
0
41
1
10
7.61280950358576
20
14.6742895564493
30
0
0
SPLINE
5
31F
100
AcDbEntity
8
1
62
256
6
ByLayer
370
18
48
1
60
0
100
AcDbSpline
70
4
71
3
72
142
73
138
40
0
40
0
40
0
40
0
40
0.147862764189037
40
0.324584009170599
40
0.335629086981947
40
0.341151625887621
40
0.346674164793295
40
0.349435434246133
40
0.352196703698969
40
0.353577338425388
40
0.354957973151806
40
0.356338607878225
40
0.357028925241434
40
0.357719242604643
40
0.36048051205748
40
0.363241781510316
40
0.366003050963154
40
0.36876432041599
40
0.379809398227338
40
0.385331937133011
40
0.390854476038686
40
0.393615745491523
40
0.394996380217941
40
0.39637701494436
40
0.399138284397197
40
0.400518919123615
40
0.401899553850033
40
0.402589871213243
40
0.407422092755707
40
0.412944631661381
40
0.457124942906772
40
0.500753000261595
40
0.501305254152163
40
0.502685888878581
40
0.50337620624179
40
0.504066523604999
40
0.505447158331418
40
0.506137475694627
40
0.506827793057836
40
0.507172951739442
40
0.509589062510674
40
0.51235033196351
40
0.517872870869184
40
0.523395409774858
40
0.534440487586207
40
0.545485565397553
40
0.556530643208901
40
0.564814451567411
40
0.567575721020249
40
0.573098259925922
40
0.57585952937876
40
0.577412743445981
40
0.578620798831596
40
0.579828854217212
40
0.581382068284434
40
0.582762703010853
40
0.58414333773727
40
0.585523972463688
40
0.586904607190107
40
0.589665876642944
40
0.595188415548617
40
0.600710954454292
40
0.606233493359966
40
0.611756032265639
40
0.622801110076987
40
0.633846187888335
40
0.644891265699682
40
0.650413804605356
40
0.65593634351103
40
0.666981421322378
40
0.672503960228052
40
0.678026499133725
40
0.689071576945073
40
0.700116654756421
40
0.711161732567768
40
0.722206810379116
40
0.733251888190464
40
0.744296966001812
40
0.755342043813159
40
0.760864582718833
40
0.766387121624507
40
0.767767756350926
40
0.769148391077344
40
0.770529025803763
40
0.771909660530181
40
0.77259997789339
40
0.774670929983018
40
0.776051564709436
40
0.777432199435855
40
0.778122516799065
40
0.782954738341529
40
0.785716007794365
40
0.788477277247202
40
0.789857911973621
40
0.79952235505855
40
0.810567432869898
40
0.832657588492593
40
0.838180127398267
40
0.842322031577522
40
0.843702666303941
40
0.846463935756777
40
0.847844570483197
40
0.848621177516807
40
0.849225205209615
40
0.849829232902423
40
0.850605839936034
40
0.851296157299243
40
0.851986474662452
40
0.852331633344056
40
0.85336710938887
40
0.854057426752079
40
0.854747744115288
40
0.855023871060572
40
0.89892805536068
40
0.921018210983375
40
0.94310836660607
40
0.948630905511744
40
0.951392174964581
40
0.953290547713407
40
0.954153444417418
40
0.95501634112143
40
0.956914713870255
40
0.958295348596673
40
0.959675983323091
40
0.9603663006863
40
0.962437252775929
40
0.963817887502347
40
0.965198522228765
40
0.976243600040113
40
0.987288677851461
40
0.990049947304298
40
0.992811216757135
40
0.995572486209972
40
0.99695312093639
40
0.998333755662808
40
0.999714390389227
40
1
40
1
40
1
40
1
41
1
10
10.142812906488
20
15.8009455185731
30
0
41
1
10
10.1490734732986
20
15.7413779273525
30
0
41
1
10
10.1628169391755
20
15.6106110035152
30
0
41
1
10
10.1770255059273
20
15.4754276855805
30
0
41
1
10
10.1852059355042
20
15.3976053331769
30
0
41
1
10
10.1861408283571
20
15.3887115241478
30
0
41
1
10
10.1867251328294
20
15.3831529398213
30
0
41
1
10
10.1871925754806
20
15.3787060844145
30
0
41
1
10
10.1874847270034
20
15.3759268015296
30
0
41
1
10
10.1877184482925
20
15.3737033743014
30
0
41
1
10
10.1878937393325
20
15.3720358029284
30
0
41
1
10
10.1880398152916
20
15.3706461589145
30
0
41
1
10
10.1881566761333
20
15.3695344427356
30
0
41
1
10
10.1883319674797
20
15.3678668673768
30
0
41
1
10
10.1885949048491
20
15.3653654997877
30
0
41
1
10
10.1889454890571
20
15.3620303293599
30
0
41
1
10
10.1892960746163
20
15.3586951413558
30
0
41
1
10
10.1899972490421
20
15.3520247223273
30
0
41
1
10
10.1908152972825
20
15.3442424183701
30
0
41
1
10
10.1917502348836
20
15.3353480272668
30
0
41
1
10
10.192334583453
20
15.3297888693355
30
0
41
1
10
10.1927436351087
20
15.3258973591816
30
0
41
1
10
10.1929773812509
20
15.323673608669
30
0
41
1
10
10.1932111290028
20
15.3214498372176
30
0
41
1
10
10.1934448792449
20
15.3192260333747
30
0
41
1
10
10.1936786321284
20
15.3170021951732
30
0
41
1
10
10.1938247288126
20
15.3156122815715
30
0
41
1
10
10.1941169239265
20
15.3128324316645
30
0
41
1
10
10.1945844436564
20
15.3083845736339
30
0
41
1
10
10.1968928987315
20
15.2864222807036
30
0
41
1
10
10.2008442602182
20
15.248827216977
30
0
41
1
10
10.2045871672539
20
15.2132085917968
30
0
41
1
10
10.2065178258267
20
15.1948333448469
30
0
41
1
10
10.2066289867824
20
15.1937753523347
30
0
41
1
10
10.2067459996567
20
15.1926616585493
30
0
41
1
10
10.2068630131867
20
15.1915479562351
30
0
41
1
10
10.2069800273416
20
15.1904342457914
30
0
41
1
10
10.2070970414045
20
15.1893205365455
30
0
41
1
10
10.207170175006
20
15.188624470709
30
0
41
1
10
10.2073164417034
20
15.1872323456142
30
0
41
1
10
10.2075504657835
20
15.1850049797471
30
0
41
1
10
10.2080038657074
20
15.1806897410553
30
0
41
1
10
10.2085888243206
20
15.1751226478086
30
0
41
1
10
10.2095244788257
20
15.1662189313749
30
0
41
1
10
10.2106932938584
20
15.1550990819749
30
0
41
1
10
10.2120939326799
20
15.1417804876109
30
0
41
1
10
10.2133754009119
20
15.1296036541143
30
0
41
1
10
10.2143114078045
20
15.1206953539025
30
0
41
1
10
10.2150169367484
20
15.1139682922638
30
0
41
1
10
10.2154893507037
20
15.1094567712305
30
0
41
1
10
10.2159052981761
20
15.1055010858054
30
0
41
1
10
10.2161364405454
20
15.1033112045957
30
0
41
1
10
10.2163012321184
20
15.1017546839805
30
0
41
1
10
10.2164646786962
20
15.1002156587648
30
0
41
1
10
10.2166298192732
20
15.0986288527628
30
0
41
1
10
10.2167904311245
20
15.0969946432748
30
0
41
1
10
10.2169299571456
20
15.0954407323295
30
0
41
1
10
10.2170504693483
20
15.0938997735753
30
0
41
1
10
10.21718770788
20
15.0918531191278
30
0
41
1
10
10.2173713405476
20
15.0882679166053
30
0
41
1
10
10.2174795638094
20
15.0830672301968
30
0
41
1
10
10.217349041499
20
15.0767261144319
30
0
41
1
10
10.2169443133321
20
15.0703107641489
30
0
41
1
10
10.2160252114524
20
15.0616774612591
30
0
41
1
10
10.2141388575287
20
15.0507732845201
30
0
41
1
10
10.2106530942091
20
15.0376735838889
30
0
41
1
10
10.2066946958563
20
15.0268827499573
30
0
41
1
10
10.2029064283343
20
15.0184163301218
30
0
41
1
10
10.1987073310897
20
15.0100910409438
30
0
41
1
10
10.1938972935172
20
15.0020228964286
30
0
41
1
10
10.1885207822568
20
14.9942955058155
30
0
41
1
10
10.1827814440842
20
14.9868231542169
30
0
41
1
10
10.1749547625583
20
14.9780131686455
30
0
41
1
10
10.1646631682384
20
14.9684120087427
30
0
41
1
10
10.1536164350369
20
14.9599037681228
30
0
41
1
10
10.1419872818975
20
14.9525470787287
30
0
41
1
10
10.1299484277638
20
14.9464005725029
30
0
41
1
10
10.1176697865462
20
14.9414572203466
30
0
41
1
10
10.1073793578872
20
14.938334531025
30
0
41
1
10
10.0991776525634
20
14.936405770598
30
0
41
1
10
10.0945968784907
20
14.9355282529029
30
0
41
1
10
10.0915654796266
20
14.9350271154619
30
0
41
1
10
10.0900508411955
20
14.934792970589
30
0
41
1
10
10.0885338346629
20
14.9345748985403
30
0
41
1
10
10.0872617703895
20
14.9344065263496
30
0
41
1
10
10.0857228634442
20
14.9342164632329
30
0
41
1
10
10.0841668722659
20
14.9340400355211
30
0
41
1
10
10.082324398465
20
14.9338438392332
30
0
41
1
10
10.0809919791245
20
14.9337053009858
30
0
41
1
10
10.0783013126463
20
14.933424770901
30
0
41
1
10
10.0749958592895
20
14.9330778849878
30
0
41
1
10
10.0708044260214
20
14.932636305906
30
0
41
1
10
10.068001216732
20
14.9323407270452
30
0
41
1
10
10.0624113943281
20
14.9317517884979
30
0
41
1
10
10.0535333456904
20
14.9308182675797
30
0
41
1
10
10.0364398947224
20
14.9290239811436
30
0
41
1
10
10.0209403794262
20
14.9273952763651
30
0
41
1
10
10.0081900404196
20
14.9260549253701
30
0
41
1
10
10.0037535659379
20
14.9255885058651
30
0
41
1
10
10.0004257572115
20
14.9252386306809
30
0
41
1
10
9.99820702857591
20
14.925005355221
30
0
41
1
10
9.99623087043878
20
14.924797580499
30
0
41
1
10
9.99512142784735
20
14.9246809323027
30
0
41
1
10
9.99432400905397
20
14.9245970904848
30
0
41
1
10
9.99352658589044
20
14.9245132480825
30
0
41
1
10
9.99269448896365
20
14.9244257599317
30
0
41
1
10
9.99182772067513
20
14.9243346263535
30
0
41
1
10
9.99113430747451
20
14.9242617196822
30
0
41
1
10
9.99030221465279
20
14.9241742320804
30
0
41
1
10
9.98947012701115
20
14.9240867451712
30
0
41
1
10
9.98849937070162
20
14.923984678796
30
0
41
1
10
9.98783371799479
20
14.9239146915962
30
0
41
1
10
9.96980582499813
20
14.9220192318303
30
0
41
1
10
9.94319356960082
20
14.919221596188
30
0
41
1
10
9.90784048993132
20
14.9155056185181
30
0
41
1
10
9.88789774124771
20
14.9134095904607
30
0
41
1
10
9.87571211068712
20
14.9121288990058
30
0
41
1
10
9.87162730200831
20
14.9116995959611
30
0
41
1
10
9.86941185521763
20
14.9114667593365
30
0
41
1
10
9.86795798426627
20
14.9113139624416
30
0
41
1
10
9.86650412315154
20
14.9111611668622
30
0
41
1
10
9.86484258527454
20
14.9109865457072
30
0
41
1
10
9.86297337789134
20
14.910790099947
30
0
41
1
10
9.86158879360147
20
14.9106445864106
30
0
41
1
10
9.85992730448297
20
14.9104699717755
30
0
41
1
10
9.85826583116005
20
14.9102953592524
30
0
41
1
10
9.85632746758674
20
14.9100916475799
30
0
41
1
10
9.85078933454253
20
14.9095096207278
30
0
41
1
10
9.84137486769282
20
14.9085202231267
30
0
41
1
10
9.83140709805178
20
14.9074726911042
30
0
41
1
10
9.82476204428087
20
14.9067743532694
30
0
41
1
10
9.82143953869749
20
14.9064251872004
30
0
41
1
10
9.81867079854987
20
14.9061342174158
30
0
41
1
10
9.81645581318696
20
14.9059014424914
30
0
41
1
10
9.81479457705538
20
14.9057268616846
30
0
41
1
10
9.81357253568353
20
14.9055984363028
30
0
41
1
10
9.81290423935292
20
14.9055282044783
30
0
41
1
10
9.81278968722572
20
14.9055161660991
30
0
0
SPLINE
5
320
100
AcDbEntity
8
1
62
256
6
ByLayer
370
18
48
1
60
0
100
AcDbSpline
70
4
71
3
72
142
73
138
40
0
40
0
40
0
40
0
40
0.147862764189031
40
0.324584009170594
40
0.335629086981941
40
0.341151625887615
40
0.346674164793289
40
0.349435434246127
40
0.352196703698963
40
0.353577338425382
40
0.3549579731518
40
0.356338607878219
40
0.357028925241429
40
0.357719242604637
40
0.360480512057474
40
0.363241781510311
40
0.366003050963148
40
0.368764320415984
40
0.379809398227332
40
0.385331937133005
40
0.39085447603868
40
0.393615745491517
40
0.394996380217935
40
0.396377014944354
40
0.399138284397191
40
0.400518919123609
40
0.401899553850027
40
0.402589871213237
40
0.407422092755701
40
0.412944631661375
40
0.457124942906766
40
0.500753000261588
40
0.501305254152156
40
0.502685888878575
40
0.503376206241784
40
0.504066523604993
40
0.505447158331412
40
0.506137475694621
40
0.50682779305783
40
0.507172951739436
40
0.509589062510668
40
0.512350331963504
40
0.517872870869178
40
0.523395409774852
40
0.534440487586201
40
0.545485565397547
40
0.556530643208895
40
0.564814451567405
40
0.567575721020242
40
0.573098259925916
40
0.575859529378754
40
0.577412743445975
40
0.57862079883159
40
0.579828854217206
40
0.581382068284428
40
0.582762703010846
40
0.584143337737264
40
0.585523972463682
40
0.586904607190101
40
0.589665876642938
40
0.595188415548611
40
0.600710954454285
40
0.60623349335996
40
0.611756032265633
40
0.622801110076981
40
0.633846187888328
40
0.644891265699676
40
0.65041380460535
40
0.655936343511024
40
0.666981421322372
40
0.672503960228046
40
0.678026499133719
40
0.689071576945067
40
0.700116654756414
40
0.711161732567762
40
0.72220681037911
40
0.733251888190457
40
0.744296966001805
40
0.755342043813153
40
0.760864582718827
40
0.7663871216245
40
0.76776775635092
40
0.769148391077337
40
0.770529025803756
40
0.771909660530174
40
0.772599977893384
40
0.774670929983011
40
0.77605156470943
40
0.777432199435848
40
0.778122516799058
40
0.782954738341522
40
0.785716007794359
40
0.788477277247196
40
0.789857911973614
40
0.799522355058543
40
0.810567432869891
40
0.832657588492586
40
0.838180127398261
40
0.842322031577516
40
0.843702666303934
40
0.846463935756771
40
0.84784457048319
40
0.8486211775168
40
0.849225205209608
40
0.849829232902416
40
0.850605839936027
40
0.851296157299236
40
0.851986474662445
40
0.852331633344049
40
0.853367109388864
40
0.854057426752073
40
0.854747744115282
40
0.855023871060566
40
0.898928055360673
40
0.921018210983368
40
0.943108366606063
40
0.948630905511737
40
0.951392174964574
40
0.9532905477134
40
0.954153444417411
40
0.955016341121423
40
0.956914713870248
40
0.958295348596666
40
0.959675983323085
40
0.960366300686293
40
0.962437252775922
40
0.96381788750234
40
0.965198522228758
40
0.976243600040106
40
0.987288677851454
40
0.990049947304291
40
0.992811216757128
40
0.995572486209965
40
0.996953120936383
40
0.998333755662801
40
0.99971439038922
40
1
40
1
40
1
40
1
41
1
10
7.61280888243209
20
14.6742894911659
30
0
41
1
10
7.5534679636904
20
14.6680527495069
30
0
41
1
10
7.42319864692956
20
14.6543615868832
30
0
41
1
10
7.28852974251296
20
14.6402070863019
30
0
41
1
10
7.21100352842498
20
14.6320577784081
30
0
41
1
10
7.20214356311612
20
14.6311264422311
30
0
41
1
10
7.19660613093961
20
14.6305443606577
30
0
41
1
10
7.19217619720715
20
14.6300786963196
30
0
41
1
10
7.18940749036219
20
14.6297876562415
30
0
41
1
10
7.1871925239694
20
14.6295548241087
30
0
41
1
10
7.18553129822649
20
14.6293801999365
30
0
41
1
10
7.18414694224225
20
14.629234679701
30
0
41
1
10
7.18303945649083
20
14.6291182634388
30
0
41
1
10
7.18137822677721
20
14.6289436389621
30
0
41
1
10
7.17888637767319
20
14.6286817018996
30
0
41
1
10
7.17556389861036
20
14.6283324514409
30
0
41
1
10
7.17224140203777
20
14.62798319964
30
0
41
1
10
7.165596366035
20
14.6272846927525
30
0
41
1
10
7.15784367616931
20
14.6264697567151
30
0
41
1
10
7.14898313098831
20
14.6255383760841
30
0
41
1
10
7.14344512737682
20
14.6249562507035
30
0
41
1
10
7.13956842562362
20
14.6245487553304
30
0
41
1
10
7.13735313716938
20
14.6243158985079
30
0
41
1
10
7.13513782785563
20
14.6240830400862
30
0
41
1
10
7.1329224862728
20
14.6238501791908
30
0
41
1
10
7.13070711046137
20
14.6236173156713
30
0
41
1
10
7.12932248590911
20
14.6234717748471
30
0
41
1
10
7.126553214187
20
14.6231806914645
30
0
41
1
10
7.12212228162369
20
14.6227149505544
30
0
41
1
10
7.10024356194776
20
14.6204152789046
30
0
41
1
10
7.06279155875799
20
14.616478953835
30
0
41
1
10
7.02730847259667
20
14.6127502954324
30
0
41
1
10
7.00900314848775
20
14.6108269885586
30
0
41
1
10
7.00794918192591
20
14.6107162508945
30
0
41
1
10
7.00683972604904
20
14.6105996835992
30
0
41
1
10
7.00573026167567
20
14.6104831156525
30
0
41
1
10
7.00462078920356
20
14.610366547085
30
0
41
1
10
7.00351131792465
20
14.6102499786089
30
0
41
1
10
7.00281790080831
20
14.6101771234979
30
0
41
1
10
7.00143107312883
20
14.6100314137782
30
0
41
1
10
6.99921218299676
20
14.6097982808451
30
0
41
1
10
6.99491336497221
20
14.6093466073756
30
0
41
1
10
6.989367456064
20
14.608763875962
30
0
41
1
10
6.98049762082959
20
14.6078317831401
30
0
41
1
10
6.96942008587072
20
14.6066674152602
30
0
41
1
10
6.95615217341191
20
14.6052721002729
30
0
41
1
10
6.94402167773629
20
14.6039954961102
30
0
41
1
10
6.93514727606379
20
14.6030630532176
30
0
41
1
10
6.92844581172571
20
14.6023602204406
30
0
41
1
10
6.92395145699211
20
14.6018896174819
30
0
41
1
10
6.92001082429351
20
14.601475251396
30
0
41
1
10
6.91782927701712
20
14.601244981228
30
0
41
1
10
6.91627868037972
20
14.6010808077268
30
0
41
1
10
6.91474551295806
20
14.600917970378
30
0
41
1
10
6.91316474393244
20
14.6007534705753
30
0
41
1
10
6.91153674426619
20
14.6005935539956
30
0
41
1
10
6.9099887275581
20
14.600454738383
30
0
41
1
10
6.9084535997614
20
14.6003349973674
30
0
41
1
10
6.90641467172333
20
14.6001988683783
30
0
41
1
10
6.90284295884359
20
14.6000173914733
30
0
41
1
10
6.89766171511423
20
14.5999128863015
30
0
41
1
10
6.89134409744474
20
14.6000489227734
30
0
41
1
10
6.8849523042002
20
14.6004602485225
30
0
41
1
10
6.8763504058094
20
14.6013896280759
30
0
41
1
10
6.86548531901576
20
14.603291673905
30
0
41
1
10
6.85243161222724
20
14.6068008457041
30
0
41
1
10
6.84167780391672
20
14.610782588361
30
0
41
1
10
6.83323989311958
20
14.6145917219778
30
0
41
1
10
6.82494226203772
20
14.618813108521
30
0
41
1
10
6.81690033425039
20
14.6236475143523
30
0
41
1
10
6.80919744305206
20
14.6290502404059
30
0
41
1
10
6.80174835401124
20
14.6348169469192
30
0
41
1
10
6.79296495506455
20
14.6426798565066
30
0
41
1
10
6.78339137264621
20
14.6530175162396
30
0
41
1
10
6.77490604309642
20
14.6641122701156
30
0
41
1
10
6.76756751704102
20
14.6757907073463
30
0
41
1
10
6.76143434510576
20
14.6878794171436
30
0
41
1
10
6.75649965904085
20
14.7002078562812
30
0
41
1
10
6.75338043533728
20
14.7105392106579
30
0
41
1
10
6.75145235242371
20
14.718773090734
30
0
41
1
10
6.75057446976103
20
14.7233716765667
30
0
41
1
10
6.75007279462505
20
14.7264147995651
30
0
41
1
10
6.74983832061633
20
14.7279352830801
30
0
41
1
10
6.74961985773169
20
14.7294581308046
30
0
41
1
10
6.74945110388322
20
14.7307350816413
30
0
41
1
10
6.74926052832174
20
14.7322798894077
30
0
41
1
10
6.74908352387214
20
14.7338418344343
30
0
41
1
10
6.74888659733637
20
14.7356913482027
30
0
41
1
10
6.74874751854745
20
14.737028855976
30
0
41
1
10
6.74846589976067
20
14.7397297985633
30
0
41
1
10
6.74811768479313
20
14.7430478777939
30
0
41
1
10
6.74767442680718
20
14.7472553224818
30
0
41
1
10
6.74737772604558
20
14.7500692403281
30
0
41
1
10
6.74678654859238
20
14.7556804160747
30
0
41
1
10
6.74584946479564
20
14.7645923777333
30
0
41
1
10
6.74404830707294
20
14.7817511210778
30
0
41
1
10
6.74241337819231
20
14.7973098417192
30
0
41
1
10
6.74106790905691
20
14.8101088851367
30
0
41
1
10
6.74059970886478
20
14.814562306331
30
0
41
1
10
6.74024849803175
20
14.8179028268321
30
0
41
1
10
6.7400143320834
20
14.8201300307122
30
0
41
1
10
6.73980576423972
20
14.8221137375096
30
0
41
1
10
6.73968867077602
20
14.823227418024
30
0
41
1
10
6.73960450892017
20
14.8240278828512
30
0
41
1
10
6.73952034647868
20
14.8248283520653
30
0
41
1
10
6.73943252437297
20
14.825663627492
30
0
41
1
10
6.73934104292488
20
14.8265337067203
30
0
41
1
10
6.73926785795808
20
14.8272297686674
30
0
41
1
10
6.73918003640253
20
14.8280650399732
30
0
41
1
10
6.73909221554115
20
14.828900306079
30
0
41
1
10
6.73898975955882
20
14.8298747705482
30
0
41
1
10
6.73891950520235
20
14.8305429659595
30
0
41
1
10
6.73701681000438
20
14.8486397230954
30
0
41
1
10
6.73420849218411
20
14.8753536334407
30
0
41
1
10
6.73047832173685
20
14.910841756305
30
0
41
1
10
6.72837428689641
20
14.9308606830176
30
0
41
1
10
6.72708870288085
20
14.9430928606518
30
0
41
1
10
6.72665775975983
20
14.9471932726143
30
0
41
1
10
6.72642403361479
20
14.949417182039
30
0
41
1
10
6.72627065297695
20
14.9508766065324
30
0
41
1
10
6.72611727365731
20
14.9523360211513
30
0
41
1
10
6.72594198537601
20
14.9540039058224
30
0
41
1
10
6.72574478910536
20
14.9558802532616
30
0
41
1
10
6.72559871963938
20
14.9572701264289
30
0
41
1
10
6.72542343789223
20
14.9589379621541
30
0
41
1
10
6.72524815826185
20
14.960605782023
30
0
41
1
10
6.72504366830401
20
14.9625515498155
30
0
41
1
10
6.72445941779367
20
14.9681108375852
30
0
41
1
10
6.72346624007966
20
14.9775612660873
30
0
41
1
10
6.72241470572899
20
14.9875671108917
30
0
41
1
10
6.72171369971255
20
14.9942375476208
30
0
41
1
10
6.72136319955905
20
14.9975727446014
30
0
41
1
10
6.72107111804166
20
15.0003520608576
30
0
41
1
10
6.720837453733
20
15.0025755070815
30
0
41
1
10
6.72066220588891
20
15.0042430888476
30
0
41
1
10
6.72053328981968
20
15.0054697982061
30
0
41
1
10
6.72046278965351
20
15.006140647313
30
0
41
1
10
6.7204507052781
20
15.0062556370095
30
0
0
SPLINE
5
321
100
AcDbEntity
8
1
62
256
6
ByLayer
370
18
48
1
60
0
100
AcDbSpline
70
4
71
2
72
6
73
3
40
0
40
0
40
0
40
1
40
1
40
1
41
1
10
5.22844367542871
20
18.3451647969749
30
0
41
1
10
5.22412372394598
20
18.3870095198552
30
0
41
1
10
5.22404760627222
20
18.4287859691611
30
0
0
SPLINE
5
322
100
AcDbEntity
8
1
62
256
6
ByLayer
370
18
48
1
60
0
100
AcDbSpline
70
4
71
3
72
8
73
4
40
0
40
0
40
0
40
0
40
1
40
1
40
1
40
1
41
1
10
6.50288204438672
20
16.4862923724739
30
0
41
1
10
6.50873897475623
20
16.430567457875
30
0
41
1
10
6.51459589932347
20
16.3748425426663
30
0
41
1
10
6.52045282392137
20
16.3191176274609
30
0
0
SPLINE
5
323
100
AcDbEntity
8
1
62
256
6
ByLayer
370
18
48
1
60
0
100
AcDbSpline
70
4
71
3
72
18
73
14
40
0
40
0
40
0
40
0
40
0.0011366486696466
40
0.0030754509481145
40
0.0069530555050503
40
0.0108306600619861
40
0.0263410782897293
40
0.0573619147452158
40
0.072872332972959
40
0.0883827512007022
40
0.336549442844594
40
0.584716134488486
40
1
40
1
40
1
40
1
41
1
10
9.91070297850604
20
18.0093298921439
30
0
41
1
10
9.91072010202092
20
18.0091669521732
30
0
41
1
10
9.91076643341668
20
18.0087260826057
30
0
41
1
10
9.91087118052801
20
18.0077293541909
30
0
41
1
10
9.91101721975596
20
18.0063397075292
30
0
41
1
10
9.91136771365041
20
18.0030045574336
30
0
41
1
10
9.9121271164268
20
17.9957784038489
30
0
41
1
10
9.9130617723969
20
17.9868846284255
30
0
41
1
10
9.91399645147297
20
17.9779906799212
30
0
41
1
10
9.91820260169334
20
17.9379672046896
30
0
41
1
10
9.9259157383436
20
17.8645768913066
30
0
41
1
10
9.93965747474311
20
17.733833270959
30
0
41
1
10
9.94966061181597
20
17.6386645683789
30
0
41
1
10
9.95592167383336
20
17.5790968193719
30
0
0
SPLINE
5
324
100
AcDbEntity
8
1
62
256
6
ByLayer
370
18
48
1
60
0
100
AcDbSpline
70
4
71
1
72
4
73
2
40
0
40
0
40
1
40
1
41
1
10
11.0548085250016
20
13.8954729586769
30
0
41
1
10
10.8532554114073
20
13.8525483178968
30
0
0
SPLINE
5
325
100
AcDbEntity
8
1
62
256
6
ByLayer
370
18
48
1
60
0
100
AcDbSpline
70
4
71
3
72
10
73
6
40
0
40
0
40
0
40
0
40
0.889589714445549
40
0.889589714445549
40
1
40
1
40
1
40
1
41
1
10
8.67582333168949
20
14.7198101088592
30
0
41
1
10
8.88716894246679
20
14.7456516102467
30
0
41
1
10
9.10012104354837
20
14.7830365103915
30
0
41
1
10
9.32218639908984
20
14.8624765735819
30
0
41
1
10
9.34840072391128
20
14.8677214596109
30
0
41
1
10
9.37077534682081
20
14.8823325921471
30
0
0
SPLINE
5
326
100
AcDbEntity
8
1
62
256
6
ByLayer
370
18
48
1
60
0
100
AcDbSpline
70
4
71
3
72
21
73
17
40
0
40
0
40
0
40
0
40
0.0002112286491625
40
0.0008428071528589
40
0.0021059641602517
40
0.0033691211676435
40
0.0046322781750358
40
0.0071585921898191
40
0.0096849062046042
40
0.0147375342341727
40
0.0197901622637409
40
0.0298954183228776
40
0.191579515269065
40
0.353263612215252
40
0.676631806107626
40
1
40
1
40
1
40
1
41
1
10
6.51069478587235
20
13.3917171540064
30
0
41
1
10
6.51084475213577
20
13.3917327037116
30
0
41
1
10
6.51144311295187
20
13.3917948575287
30
0
41
1
10
6.51293820377296
20
13.3919511550887
30
0
41
1
10
6.51518004823524
20
13.3921877810163
30
0
41
1
10
6.51787073270415
20
13.3924718821791
30
0
41
1
10
6.52145854191031
20
13.3928503797271
30
0
41
1
10
6.52594298781099
20
13.3933219865287
30
0
41
1
10
6.53311780430579
20
13.3940751318625
30
0
41
1
10
6.54208647380372
20
13.3950172782546
30
0
41
1
10
6.55643652787356
20
13.3965255904003
30
0
41
1
10
6.68200013277885
20
13.4097263547278
30
0
41
1
10
6.91877519875138
20
13.434609538895
30
0
41
1
10
7.37797651541203
20
13.4828735421156
30
0
41
1
10
7.95197816123778
20
13.5432035461414
30
0
41
1
10
8.4111794778984
20
13.591467549362
30
0
41
1
10
8.6407801362287
20
13.6155995509723
30
0
0
SPLINE
5
327
100
AcDbEntity
8
1
62
256
6
ByLayer
370
18
48
1
60
0
100
AcDbSpline
70
4
71
2
72
6
73
3
40
0
40
0
40
0
40
1
40
1
40
1
41
1
10
10.982131136328
20
19.0339849351836
30
0
41
1
10
10.9907424942197
20
18.9931055757734
30
0
41
1
10
10.9952169511274
20
18.9512770920678
30
0
0
SPLINE
5
328
100
AcDbEntity
8
1
62
256
6
ByLayer
370
18
48
1
60
0
100
AcDbSpline
70
4
71
3
72
21
73
17
40
0
40
0
40
0
40
0
40
0.323368193892373
40
0.646736387784746
40
0.808420484730933
40
0.889262533204026
40
0.970104581677119
40
0.975157209706688
40
0.980209837736256
40
0.990315093795393
40
0.995367721824961
40
0.996630878832353
40
0.997894035839745
40
0.998525614343441
40
0.999157192847137
40
1
40
1
40
1
40
1
41
1
10
8.03235288278603
20
19.4043981841075
30
0
41
1
10
7.8027522244557
20
19.3802661824973
30
0
41
1
10
7.34355090779508
20
19.3320021792766
30
0
41
1
10
6.7695492619693
20
19.2716721752509
30
0
41
1
10
6.36774810989129
20
19.2294411724328
30
0
41
1
10
6.13814833251763
20
19.2053071702716
30
0
41
1
10
6.01976016054812
20
19.1928648620512
30
0
41
1
10
5.95518425030386
20
19.1860793831915
30
0
41
1
10
5.9408340884855
20
19.1845714071246
30
0
41
1
10
5.92648406936377
20
19.1830631070102
30
0
41
1
10
5.91482544381432
20
19.1818358759701
30
0
41
1
10
5.90944329226622
20
19.1812722944552
30
0
41
1
10
5.90720083017393
20
19.1810376845497
30
0
41
1
10
5.90540710650828
20
19.180849972215
30
0
41
1
10
5.9039120012211
20
19.1806929933393
30
0
41
1
10
5.90286543292027
20
19.1805822867655
30
0
41
1
10
5.90226724027917
20
19.1805185667675
30
0
0
SPLINE
5
329
100
AcDbEntity
8
1
62
256
6
ByLayer
370
18
48
1
60
0
100
AcDbSpline
70
4
71
3
72
8
73
4
40
0
40
0
40
0
40
0
40
1
40
1
40
1
40
1
41
1
10
10.1447792801622
20
16.7000496879972
30
0
41
1
10
10.1506362119577
20
16.6443247043111
30
0
41
1
10
10.1564931437396
20
16.5885997203249
30
0
41
1
10
10.1623500593684
20
16.532874945648
30
0
0
SPLINE
5
32A
100
AcDbEntity
8
1
62
256
6
ByLayer
370
18
48
1
60
0
100
AcDbSpline
70
4
71
3
72
8
73
4
40
0
40
0
40
0
40
0
40
1
40
1
40
1
40
1
41
1
10
10.1360726858997
20
16.5301130797065
30
0
41
1
10
10.1302157555302
20
16.5858379943053
30
0
41
1
10
10.124358830963
20
16.641562909514
30
0
41
1
10
10.118501906365
20
16.6972878247195
30
0
0
SPLINE
5
32B
100
AcDbEntity
8
1
62
256
6
ByLayer
370
18
48
1
60
0
100
AcDbSpline
70
4
71
3
72
41
73
37
40
0
40
0
40
0
40
0
40
0.0421172729720979
40
0.110537467759805
40
0.144747565153659
40
0.153300089502122
40
0.157576351676354
40
0.161852613850586
40
0.170405138199049
40
0.178957662547512
40
0.213167759941366
40
0.24737785733522
40
0.315798052122927
40
0.384218246910634
40
0.418428344304488
40
0.452638441698342
40
0.469743490395269
40
0.478296014743732
40
0.486848539092195
40
0.521058636486049
40
0.589478831273756
40
0.606583879970683
40
0.62368892866761
40
0.627965190841842
40
0.632241453016073
40
0.640793977364537
40
0.657899026061464
40
0.726319220849171
40
0.794739415636878
40
0.828949513030732
40
0.837502037379195
40
0.841778299553427
40
0.846054561727659
40
0.854607086076122
40
0.863159610424585
40
1
40
1
40
1
40
1
41
1
10
10.1447792799801
20
16.7000496879782
30
0
41
1
10
10.1584918448086
20
16.701490936618
30
0
41
1
10
10.1944762781256
20
16.7052730529632
30
0
41
1
10
10.2415941388962
20
16.7102253396869
30
0
41
1
10
10.2778122097611
20
16.714032012328
30
0
41
1
10
10.2931076503705
20
16.7156396279162
30
0
41
1
10
10.2986985893564
20
16.7162272592828
30
0
41
1
10
10.304239697479
20
16.7168096532145
30
0
41
1
10
10.3111456707923
20
16.7175355002584
30
0
41
1
10
10.3279116515379
20
16.7192976758431
30
0
41
1
10
10.3536328759165
20
16.7220010854615
30
0
41
1
10
10.400794697303
20
16.7269579926321
30
0
41
1
10
10.4620744006977
20
16.7333987489947
30
0
41
1
10
10.5253446267631
20
16.7400487177204
30
0
41
1
10
10.5764412233868
20
16.7454191864332
30
0
41
1
10
10.6084287068352
20
16.7487812064191
30
0
41
1
10
10.6307659075823
20
16.7511289408216
30
0
41
1
10
10.6435101546423
20
16.7524684151629
30
0
41
1
10
10.662643895735
20
16.7544794523882
30
0
41
1
10
10.704584049394
20
16.7588875401655
30
0
41
1
10
10.7495291380335
20
16.7636114593359
30
0
41
1
10
10.7881173440462
20
16.7676672432191
30
0
41
1
10
10.8025880535048
20
16.7691881760705
30
0
41
1
10
10.8122295828327
20
16.7702015416373
30
0
41
1
10
10.8186476266424
20
16.7708761052239
30
0
41
1
10
10.8298580347975
20
16.7720543666
30
0
41
1
10
10.8651543383685
20
16.7757641575946
30
0
41
1
10
10.922949303144
20
16.7818386531695
30
0
41
1
10
10.9863645324064
20
16.7885038623453
30
0
41
1
10
11.0267427818828
20
16.7927477873779
30
0
41
1
10
11.0436531282753
20
16.7945251364036
30
0
41
1
10
11.0497711043764
20
16.795168161603
30
0
41
1
10
11.0558943041622
20
16.7958117358339
30
0
41
1
10
11.0635636128902
20
16.7966178126628
30
0
41
1
10
11.1187594305168
20
16.8024191268643
30
0
41
1
10
11.1708888138309
20
16.8078981458324
30
0
41
1
10
11.2199517628324
20
16.8130548695671
30
0
0
SPLINE
5
32C
100
AcDbEntity
8
1
62
256
6
ByLayer
370
18
48
1
60
0
100
AcDbSpline
70
4
71
3
72
18
73
14
40
0
40
0
40
0
40
0
40
0.0011366486696431
40
0.003075450948111
40
0.0069530555050468
40
0.0108306600619826
40
0.0263410782897259
40
0.0573619147452125
40
0.0728723329729558
40
0.088382751200699
40
0.336549442844592
40
0.584716134488484
40
1
40
1
40
1
40
1
41
1
10
6.7204507052781
20
15.0062556370095
30
0
41
1
10
6.72043358176322
20
15.0064185769803
30
0
41
1
10
6.72038725036748
20
15.0068594465477
30
0
41
1
10
6.72028250325616
20
15.0078561749625
30
0
41
1
10
6.7201364640282
20
15.0092458216243
30
0
41
1
10
6.71978597013376
20
15.0125809717199
30
0
41
1
10
6.71902656735733
20
15.0198071253045
30
0
41
1
10
6.71809191138726
20
15.0287009007279
30
0
41
1
10
6.7171572323112
20
15.0375948492322
30
0
41
1
10
6.7129510820908
20
15.0776183244639
30
0
41
1
10
6.70523794544053
20
15.1510086378468
30
0
41
1
10
6.69149620904102
20
15.2817522581945
30
0
41
1
10
6.68149307196816
20
15.3769209607746
30
0
41
1
10
6.67523200995078
20
15.4364887097815
30
0
0
SPLINE
5
32D
100
AcDbEntity
8
1
62
256
6
ByLayer
370
18
48
1
60
0
100
AcDbSpline
70
4
71
1
72
4
73
2
40
0
40
0
40
1
40
1
41
1
10
6.4273883353614
20
13.3873709434814
30
0
41
1
10
6.22131510623638
20
13.3874523292359
30
0
0
SPLINE
5
32E
100
AcDbEntity
8
1
62
256
6
ByLayer
370
18
48
1
60
0
100
AcDbSpline
70
4
71
3
72
16
73
12
40
0
40
0
40
0
40
0
40
0.110975996452901
40
0.110975996452901
40
0.123664756258237
40
0.123664756258237
40
0.174424979249408
40
0.174424979249408
40
0.377754446764831
40
0.377754446764831
40
1
40
1
40
1
40
1
41
1
10
10.1193613698443
20
15.8103705317082
30
0
41
1
10
10.128944092728
20
15.83537162624
30
0
41
1
10
10.1291105839594
20
15.8628247496581
30
0
41
1
10
10.1332491031985
20
15.8922693040087
30
0
41
1
10
10.1336666441955
20
15.8952930221273
30
0
41
1
10
10.1357183516295
20
15.9104186293364
30
0
41
1
10
10.1372443562371
20
15.9225405231712
30
0
41
1
10
10.1443163916637
20
15.9832681319378
30
0
41
1
10
10.1481740567879
20
16.0321667447886
30
0
41
1
10
10.1574047793527
20
16.2305481651219
30
0
41
1
10
10.149219611454
20
16.3809330853396
30
0
41
1
10
10.1360726858997
20
16.5301130797065
30
0
0
SPLINE
5
32F
100
AcDbEntity
8
1
62
256
6
ByLayer
370
18
48
1
60
0
100
AcDbSpline
70
4
71
3
72
10
73
6
40
0
40
0
40
0
40
0
40
0.889589714445534
40
0.889589714445534
40
1
40
1
40
1
40
1
41
1
10
10.1009311387693
20
16.8644625686451
30
0
41
1
10
10.0750182901652
20
17.0766183613009
30
0
41
1
10
10.0373087741769
20
17.2906355831394
30
0
41
1
10
9.95539023703708
20
17.5157057929456
30
0
41
1
10
9.94951722998752
20
17.542531830933
30
0
41
1
10
9.93494264775742
20
17.5650017173508
30
0
0
SPLINE
5
330
100
AcDbEntity
8
1
62
256
6
ByLayer
370
18
48
1
60
0
100
AcDbSpline
70
4
71
3
72
18
73
14
40
0
40
0
40
0
40
0
40
0.0011366486696624
40
0.0030754509481303
40
0.0069530555050661
40
0.0108306600620019
40
0.026341078289745
40
0.0573619147452313
40
0.0728723329729744
40
0.0883827512007176
40
0.336549442844608
40
0.584716134488498
40
1
40
1
40
1
40
1
41
1
10
9.81278968722572
20
14.9055161660991
30
0
41
1
10
9.812627367289
20
14.9054991077607
30
0
41
1
10
9.8121881753587
20
14.9054529527141
30
0
41
1
10
9.81119523978592
20
14.9053486042972
30
0
41
1
10
9.80981088113458
20
14.9052031209323
30
0
41
1
10
9.80648842225673
20
14.9048539611086
30
0
41
1
10
9.79928976629154
20
14.9040974488173
30
0
41
1
10
9.79042983427561
20
14.9031663503815
30
0
41
1
10
9.78156972984129
20
14.9022352288906
30
0
41
1
10
9.74169855563068
20
14.898045088011
30
0
41
1
10
9.66858751415398
20
14.890361305916
30
0
41
1
10
9.5383414127767
20
14.8766718607598
30
0
41
1
10
9.44353485624114
20
14.8667067848472
30
0
41
1
10
9.38419378069281
20
14.8604695462562
30
0
0
SPLINE
5
331
100
AcDbEntity
8
1
62
256
6
ByLayer
370
18
48
1
60
0
100
AcDbSpline
70
4
71
3
72
8
73
4
40
0
40
0
40
0
40
0
40
1
40
1
40
1
40
1
41
1
10
6.51322515921578
20
17.2053655955523
30
0
41
1
10
6.50575168707212
20
17.2080291401412
30
0
41
1
10
6.496929373065
20
17.211317006257
30
0
41
1
10
6.4883408428289
20
17.214639387054
30
0
0
SPLINE
5
332
100
AcDbEntity
8
1
62
256
6
ByLayer
370
18
48
1
60
0
100
AcDbSpline
70
4
71
3
72
40
73
36
40
0
40
0
40
0
40
0
40
0.42684658578092
40
0.42684658578092
40
0.610926968127587
40
0.610926968127587
40
0.735640085201134
40
0.735640085201134
40
0.81935094299538
40
0.81935094299538
40
0.874953681941912
40
0.874953681941912
40
0.911547609208
40
0.911547609208
40
0.935452233586484
40
0.935452233586484
40
0.950582988850828
40
0.950582988850828
40
0.956517566746406
40
0.956517566746406
40
0.958998086029917
40
0.958998086029917
40
0.95986815363687
40
0.95986815363687
40
0.960445619723384
40
0.960445619723384
40
0.962709281412012
40
0.962709281412012
40
0.97181913480982
40
0.97181913480982
40
0.994944664416758
40
0.994944664416758
40
0.999920489491597
40
0.999920489491597
40
1
40
1
40
1
40
1
41
1
10
8.34614954264597
20
14.6592067807684
30
0
41
1
10
8.23977176144919
20
14.6480260136357
30
0
41
1
10
8.13308047967212
20
14.6377188999117
30
0
41
1
10
7.97965730665007
20
14.6309307064725
30
0
41
1
10
7.93329031727583
20
14.6299007180698
30
0
41
1
10
7.85552788160402
20
14.6303277140149
30
0
41
1
10
7.82410672546794
20
14.6310886154277
30
0
41
1
10
7.77166908762925
20
14.6334550949871
30
0
41
1
10
7.75061992301556
20
14.6347009331191
30
0
41
1
10
7.71564646528972
20
14.6372952619875
30
0
41
1
10
7.7017001398759
20
14.6384690112407
30
0
41
1
10
7.67860805750473
20
14.6406524096118
30
0
41
1
10
7.66945019170265
20
14.6415810617191
30
0
41
1
10
7.65432653366531
20
14.6432210038945
30
0
41
1
10
7.64835477462134
20
14.6438964760784
30
0
41
1
10
7.6386129901405
20
14.6450577697527
30
0
41
1
10
7.63484021294323
20
14.6455280645646
30
0
41
1
10
7.62958083633379
20
14.6461408895983
30
0
41
1
10
7.62808422933577
20
14.6462553419054
30
0
41
1
10
7.62601998974716
20
14.6466487438837
30
0
41
1
10
7.62540428031068
20
14.646799364106
30
0
41
1
10
7.6246916895999
20
14.6471729343737
30
0
41
1
10
7.6245123056317
20
14.6472862934591
30
0
41
1
10
7.62426484195879
20
14.6475127822641
30
0
41
1
10
7.62417850030772
20
14.6476155606389
30
0
41
1
10
7.62388512269717
20
14.6481716198232
30
0
41
1
10
7.62375176168899
20
14.6486534421112
30
0
41
1
10
7.62270300438763
20
14.6509733407729
30
0
41
1
10
7.62152051092698
20
14.6527901644251
30
0
41
1
10
7.6181205107489
20
14.6596251298993
30
0
41
1
10
7.61591166260004
20
14.6650686984547
30
0
41
1
10
7.61357871564314
20
14.6717915336316
30
0
41
1
10
7.61318203133496
20
14.673006613742
30
0
41
1
10
7.61282062761245
20
14.6742511391584
30
0
41
1
10
7.61281507233696
20
14.6742703498014
30
0
41
1
10
7.61280950358574
20
14.6742895564492
30
0
0
LINE
5
70
100
AcDbEntity
8
4
62
256
6
ByLayer
370
13
48
0.05
60
0
100
AcDbLine
10
0
20
0
30
0
11
11
21
0
31
0
39
0
210
0
220
0
230
1
0
LINE
5
72
100
AcDbEntity
8
SK4
62
256
6
ByLayer
370
13
48
0.05
60
0
100
AcDbLine
10
14.641526
20
0
30
0
11
-8.588576
21
0
31
0
39
0
210
0
220
0
230
1
0
LINE
5
74
100
AcDbEntity
8
2
62
256
6
ByLayer
370
13
48
1
60
0
100
AcDbLine
10
16
20
19.75
30
0
11
31
21
19.75
31
0
39
0
210
0
220
0
230
1
0
LINE
5
76
100
AcDbEntity
8
2
62
256
6
ByLayer
370
13
48
1
60
0
100
AcDbLine
10
16
20
19.75
30
0
11
31
21
19.75
31
0
39
0
210
0
220
0
230
1
0
LINE
5
77
100
AcDbEntity
8
81
62
256
6
ByLayer
370
13
48
0.05
60
0
100
AcDbLine
10
11
20
19.75
30
0
11
15.298925
21
19.75
31
0
39
0
210
0
220
0
230
1
0
LINE
5
78
100
AcDbEntity
8
80
62
256
6
ByLayer
370
13
48
0.05
60
0
100
AcDbLine
10
0
20
0
30
0
11
-8.637198
21
0
31
0
39
0
210
0
220
0
230
1
0
LINE
5
79
100
AcDbEntity
8
1
62
256
6
ByLayer
370
18
48
1
60
1
100
AcDbLine
10
0
20
0
30
0
11
0
21
297
31
0
39
0
210
0
220
0
230
1
0
LINE
5
7B
100
AcDbEntity
8
1
62
256
6
ByLayer
370
18
48
1
60
1
100
AcDbLine
10
420
20
297
30
0
11
0
21
297
31
0
39
0
210
0
220
0
230
1
0
LINE
5
7C
100
AcDbEntity
8
1
62
256
6
ByLayer
370
18
48
1
60
1
100
AcDbLine
10
420
20
297
30
0
11
420
21
0
31
0
39
0
210
0
220
0
230
1
0
LINE
5
7D
100
AcDbEntity
8
1
62
256
6
ByLayer
370
18
48
1
60
1
100
AcDbLine
10
0
20
0
30
0
11
420
21
0
31
0
39
0
210
0
220
0
230
1
0
LINE
5
7E
100
AcDbEntity
8
1
62
256
6
ByLayer
370
18
48
1
60
0
100
AcDbLine
10
8.490989
20
14.967692
30
0
11
8.535665
21
14.972387
31
0
39
0
210
0
220
0
230
1
0
LINE
5
7F
100
AcDbEntity
8
1
62
256
6
ByLayer
370
18
48
1
60
0
100
AcDbLine
10
8.482353
20
15.729763
30
0
11
8.407878
21
15.721936
31
0
39
0
210
0
220
0
230
1
0
LINE
5
80
100
AcDbEntity
8
1
62
256
6
ByLayer
370
18
48
1
60
0
100
AcDbLine
10
8.211627
20
18.055405
30
0
11
8.166951
21
18.050709
31
0
39
0
210
0
220
0
230
1
0
LINE
5
81
100
AcDbEntity
8
1
62
256
6
ByLayer
370
18
48
1
60
0
100
AcDbLine
10
8.242472
20
17.295667
30
0
11
8.316947
21
17.303495
31
0
39
0
210
0
220
0
230
1
0
LINE
5
82
100
AcDbEntity
8
1
62
256
6
ByLayer
370
18
48
1
60
0
100
AcDbLine
10
11.566386
20
-7.201476
30
0
11
11.468678
21
-6.383143
31
0
39
0
210
0
220
0
230
1
0
LINE
5
83
100
AcDbEntity
8
1
62
256
6
ByLayer
370
18
48
1
60
0
100
AcDbLine
10
11.453581
20
-6.309256
30
0
11
11.265984
21
-5.57532
31
0
39
0
210
0
220
0
230
1
0
LINE
5
84
100
AcDbEntity
8
1
62
256
6
ByLayer
370
18
48
1
60
0
100
AcDbLine
10
10.905874
20
-5.412004
30
0
11
10.804426
21
-5.276984
31
0
39
0
210
0
220
0
230
1
0
LINE
5
85
100
AcDbEntity
8
1
62
256
6
ByLayer
370
18
48
1
60
0
100
AcDbLine
10
11.269879
20
-9.314356
30
0
11
11.422172
21
-8.254434
31
0
39
0
210
0
220
0
230
1
0
LINE
5
86
100
AcDbEntity
8
1
62
256
6
ByLayer
370
18
48
1
60
0
100
AcDbLine
10
-2.848238
20
-6.3066
30
0
11
-2.848238
21
-7.956542
31
0
39
0
210
0
220
0
230
1
0
LINE
5
87
100
AcDbEntity
8
SK1
62
256
6
ByLayer
370
18
48
1
60
0
100
AcDbLine
10
-2.665547
20
-10.515941
30
0
11
-2.659718
21
-10.523791
31
0
39
0
210
0
220
0
230
1
0
LINE
5
89
100
AcDbEntity
8
SK1
62
256
6
ByLayer
370
18
48
1
60
0
100
AcDbLine
10
-1.536758
20
-10.523791
30
0
11
-1.519654
21
-10.500757
31
0
39
0
210
0
220
0
230
1
0
LINE
5
8A
100
AcDbEntity
8
SK1
62
256
6
ByLayer
370
18
48
1
60
0
100
AcDbLine
10
-2.798238
20
2.316502
30
0
11
-2.798238
21
3.727041
31
0
39
0
210
0
220
0
230
1
0
LINE
5
8B
100
AcDbEntity
8
SK1
62
256
6
ByLayer
370
18
48
1
60
0
100
AcDbLine
10
-4.798238
20
3.727041
30
0
11
-4.798238
21
2.316502
31
0
39
0
210
0
220
0
230
1
0
LINE
5
8C
100
AcDbEntity
8
1
62
256
6
ByLayer
370
18
48
1
60
0
100
AcDbLine
10
5.398258
20
-7.772002
30
0
11
5.255309
21
-8.211814
31
0
39
0
210
0
220
0
230
1
0
LINE
5
8D
100
AcDbEntity
8
1
62
256
6
ByLayer
370
18
48
1
60
0
100
AcDbLine
10
5.398258
20
-7.772002
30
0
11
5.255309
21
-8.211814
31
0
39
0
210
0
220
0
230
1
0
LINE
5
8E
100
AcDbEntity
8
1
62
256
6
ByLayer
370
18
48
1
60
0
100
AcDbLine
10
1.001762
20
17.603297
30
0
11
1.001762
21
8.770779
31
0
39
0
210
0
220
0
230
1
0
LINE
5
8F
100
AcDbEntity
8
1
62
256
6
ByLayer
370
18
48
1
60
0
100
AcDbLine
10
4.975787
20
18.275874
30
0
11
4.977287
21
18.276032
31
0
39
0
210
0
220
0
230
1
0
LINE
5
90
100
AcDbEntity
8
SK1
62
256
6
ByLayer
370
18
48
1
60
0
100
AcDbLine
10
-5.998238
20
12.82082
30
0
11
-5.998238
21
4.010233
31
0
39
0
210
0
220
0
230
1
0
LINE
5
91
100
AcDbEntity
8
1
62
256
6
ByLayer
370
18
48
1
60
0
100
AcDbLine
10
5.342864
20
15.375451
30
0
11
5.450266
21
15.386739
31
0
39
0
210
0
220
0
230
1
0
LINE
5
92
100
AcDbEntity
8
1
62
256
6
ByLayer
370
18
48
1
60
0
100
AcDbLine
10
10.512055
20
13.54893
30
0
11
7.207305
21
13.201587
31
0
39
0
210
0
220
0
230
1
0
LINE
5
93
100
AcDbEntity
8
1
62
256
6
ByLayer
370
18
48
1
60
0
100
AcDbLine
10
10.756133
20
13.553611
30
0
11
10.517747
21
13.549529
31
0
39
0
210
0
220
0
230
1
0
LINE
5
94
100
AcDbEntity
8
SK1
62
256
6
ByLayer
370
18
48
1
60
0
100
AcDbLine
10
-5.998238
20
2.157998
30
0
11
-5.998238
21
3.727017
31
0
39
0
210
0
220
0
230
1
0
LINE
5
95
100
AcDbEntity
8
1
62
256
6
ByLayer
370
18
48
1
60
0
100
AcDbLine
10
11.023469
20
13.205488
30
0
11
11.1418
21
11.163572
31
0
39
0
210
0
220
0
230
1
0
LINE
5
96
100
AcDbEntity
8
1
62
256
6
ByLayer
370
18
48
1
60
0
100
AcDbLine
10
10.789597
20
13.180907
30
0
11
10.788593
21
10.65385
31
0
39
0
210
0
220
0
230
1
0
LINE
5
97
100
AcDbEntity
8
1
62
256
6
ByLayer
370
18
48
1
60
0
100
AcDbLine
10
1.001762
20
17.603297
30
0
11
-5.998238
21
16.245035
31
0
39
0
210
0
220
0
230
1
0
LINE
5
98
100
AcDbEntity
8
1
62
256
6
ByLayer
370
18
48
1
60
0
100
AcDbLine
10
5.275913
20
15.315139
30
0
11
5.279776
21
15.315545
31
0
39
0
210
0
220
0
230
1
0
LINE
5
99
100
AcDbEntity
8
SK1
62
256
6
ByLayer
370
18
48
1
60
0
100
AcDbLine
10
-5.998238
20
3.727042
30
0
11
-5.998238
21
4.010233
31
0
39
0
210
0
220
0
230
1
0
LINE
5
9A
100
AcDbEntity
8
1
62
256
6
ByLayer
370
18
48
1
60
0
100
AcDbLine
10
5.05336
20
14.133793
30
0
11
5.027426
21
14.382445
31
0
39
0
210
0
220
0
230
1
0
LINE
5
9B
100
AcDbEntity
8
1
62
256
6
ByLayer
370
18
48
1
60
0
100
AcDbLine
10
4.068847
20
8.77085
30
0
11
4.068847
21
18.176735
31
0
39
0
210
0
220
0
230
1
0
LINE
5
9C
100
AcDbEntity
8
1
62
256
6
ByLayer
370
18
48
1
60
0
100
AcDbLine
10
4.279855
20
18.202729
30
0
11
4.975787
21
18.275874
31
0
39
0
210
0
220
0
230
1
0
LINE
5
9D
100
AcDbEntity
8
1
62
256
6
ByLayer
370
18
48
1
60
0
100
AcDbLine
10
10.756133
20
13.553611
30
0
11
10.750487
21
13.553017
31
0
39
0
210
0
220
0
230
1
0
LINE
5
9E
100
AcDbEntity
8
1
62
256
6
ByLayer
370
18
48
1
60
0
100
AcDbLine
10
10.742374
20
13.552873
30
0
11
10.750487
21
13.553017
31
0
39
0
210
0
220
0
230
1
0
LINE
5
9F
100
AcDbEntity
8
1
62
256
6
ByLayer
370
18
48
1
60
0
100
AcDbLine
10
5.279776
20
15.315545
30
0
11
4.977287
21
18.276032
31
0
39
0
210
0
220
0
230
1
0
LINE
5
A0
100
AcDbEntity
8
1
62
256
6
ByLayer
370
18
48
1
60
0
100
AcDbLine
10
10.964083
20
13.770507
30
0
11
11.023469
21
13.205488
31
0
39
0
210
0
220
0
230
1
0
LINE
5
A1
100
AcDbEntity
8
1
62
256
6
ByLayer
370
18
48
1
60
0
100
AcDbLine
10
5.55004
20
14.437373
30
0
11
5.21689
21
14.402358
31
0
39
0
210
0
220
0
230
1
0
LINE
5
A2
100
AcDbEntity
8
1
62
256
6
ByLayer
370
18
48
1
60
0
100
AcDbLine
10
11.023469
20
13.205488
30
0
11
10.789597
21
13.180907
31
0
39
0
210
0
220
0
230
1
0
LINE
5
A3
100
AcDbEntity
8
1
62
256
6
ByLayer
370
18
48
1
60
0
100
AcDbLine
10
10.789597
20
13.180907
30
0
11
10.750487
21
13.553017
31
0
39
0
210
0
220
0
230
1
0
LINE
5
A4
100
AcDbEntity
8
1
62
256
6
ByLayer
370
18
48
1
60
0
100
AcDbLine
10
10.788593
20
10.65385
30
0
11
10.742374
21
10.642326
31
0
39
0
210
0
220
0
230
1
0
LINE
5
A5
100
AcDbEntity
8
1
62
256
6
ByLayer
370
18
48
1
60
0
100
AcDbLine
10
10.742374
20
13.552873
30
0
11
10.512055
21
13.54893
31
0
39
0
210
0
220
0
230
1
0
LINE
5
A6
100
AcDbEntity
8
SK1
62
256
6
ByLayer
370
18
48
1
60
0
100
AcDbLine
10
-5.998238
20
3.727042
30
0
11
-1.998238
21
3.727042
31
0
39
0
210
0
220
0
230
1
0
LINE
5
A7
100
AcDbEntity
8
1
62
256
6
ByLayer
370
18
48
1
60
0
100
AcDbLine
10
5.05336
20
14.133793
30
0
11
5.243023
21
14.153728
31
0
39
0
210
0
220
0
230
1
0
LINE
5
A8
100
AcDbEntity
8
SK1
62
256
6
ByLayer
370
18
48
1
60
0
100
AcDbLine
10
-5.998238
20
4.010233
30
0
11
-1.120332
21
4.010233
31
0
39
0
210
0
220
0
230
1
0
LINE
5
A9
100
AcDbEntity
8
1
62
256
6
ByLayer
370
18
48
1
60
0
100
AcDbLine
10
5.027426
20
14.382445
30
0
11
5.21689
21
14.402358
31
0
39
0
210
0
220
0
230
1
0
LINE
5
AA
100
AcDbEntity
8
SK1
62
256
6
ByLayer
370
18
48
1
60
0
100
AcDbLine
10
-1.998238
20
3.727042
30
0
11
-1.998238
21
2.157999
31
0
39
0
210
0
220
0
230
1
0
LINE
5
AB
100
AcDbEntity
8
1
62
256
6
ByLayer
370
18
48
1
60
0
100
AcDbLine
10
5.144736
20
18.293632
30
0
11
4.977287
21
18.276032
31
0
39
0
210
0
220
0
230
1
0
LINE
5
AC
100
AcDbEntity
8
1
62
256
6
ByLayer
370
18
48
1
60
0
100
AcDbLine
10
5.243023
20
14.153728
30
0
11
5.21689
21
14.402358
31
0
39
0
210
0
220
0
230
1
0
LINE
5
AD
100
AcDbEntity
8
1
62
256
6
ByLayer
370
18
48
1
60
0
100
AcDbLine
10
10.742374
20
13.552873
30
0
11
10.742374
21
10.642326
31
0
39
0
210
0
220
0
230
1
0
LINE
5
AE
100
AcDbEntity
8
1
62
256
6
ByLayer
370
18
48
1
60
0
100
AcDbLine
10
10.517747
20
13.549529
30
0
11
10.512055
21
13.54893
31
0
39
0
210
0
220
0
230
1
0
LINE
5
AF
100
AcDbEntity
8
1
62
256
6
ByLayer
370
18
48
1
60
0
100
AcDbLine
10
11.108049
20
10.733499
30
0
11
10.788593
21
10.65385
31
0
39
0
210
0
220
0
230
1
0
LINE
5
B0
100
AcDbEntity
8
1
62
256
6
ByLayer
370
18
48
1
60
0
100
AcDbLine
10
5.275913
20
15.315139
30
0
11
4.975787
21
18.275874
31
0
39
0
210
0
220
0
230
1
0
LINE
5
B1
100
AcDbEntity
8
1
62
256
6
ByLayer
370
18
48
1
60
0
100
AcDbLine
10
5.576172
20
14.188743
30
0
11
5.243023
21
14.153728
31
0
39
0
210
0
220
0
230
1
0
LINE
5
B2
100
AcDbEntity
8
1
62
256
6
ByLayer
370
18
48
1
60
0
100
AcDbLine
10
8.275996
20
10.027389
30
0
11
10.742374
21
10.642326
31
0
39
0
210
0
220
0
230
1
0
LINE
5
B3
100
AcDbEntity
8
SK1
62
256
6
ByLayer
370
18
48
1
60
0
100
AcDbLine
10
-2.798238
20
2.316502
30
0
11
-4.798238
21
2.316502
31
0
39
0
210
0
220
0
230
1
0
LINE
5
B4
100
AcDbEntity
8
1
62
256
6
ByLayer
370
18
48
1
60
0
100
AcDbLine
10
7.335711
20
-3.048429
30
0
11
7.514099
21
-2.277895
31
0
39
0
210
0
220
0
230
1
0
LINE
5
B5
100
AcDbEntity
8
1
62
256
6
ByLayer
370
18
48
1
60
0
100
AcDbLine
10
10.16397
20
-5.784529
30
0
11
10.053814
21
-6.845564
31
0
39
0
210
0
220
0
230
1
0
LINE
5
B6
100
AcDbEntity
8
1
62
256
6
ByLayer
370
18
48
1
60
0
100
AcDbLine
10
10.257953
20
-3.353813
30
0
11
10.550917
21
-2.088373
31
0
39
0
210
0
220
0
230
1
0
LINE
5
B7
100
AcDbEntity
8
1
62
256
6
ByLayer
370
18
48
1
60
0
100
AcDbLine
10
-1.559216
20
-5.070872
30
0
11
-1.559216
21
-4.487932
31
0
39
0
210
0
220
0
230
1
0
LINE
5
B8
100
AcDbEntity
8
1
62
256
6
ByLayer
370
18
48
1
60
0
100
AcDbLine
10
7.871643
20
0.4925
30
0
11
5.984226
21
3.226685
31
0
39
0
210
0
220
0
230
1
0
LINE
5
B9
100
AcDbEntity
8
SK1
62
256
6
ByLayer
370
18
48
1
60
0
100
AcDbLine
10
-1.559216
20
2.15799
30
0
11
-5.998238
21
2.15799
31
0
39
0
210
0
220
0
230
1
0
LINE
5
BA
100
AcDbEntity
8
1
62
256
6
ByLayer
370
18
48
1
60
0
100
AcDbLine
10
10.257953
20
-3.353813
30
0
11
10.38091
21
-5.719208
31
0
39
0
210
0
220
0
230
1
0
LINE
5
BB
100
AcDbEntity
8
1
62
256
6
ByLayer
370
18
48
1
60
0
100
AcDbLine
10
-1.355607
20
-5.213908
30
0
11
-1.35601
21
-5.213626
31
0
39
0
210
0
220
0
230
1
0
LINE
5
BC
100
AcDbEntity
8
1
62
256
6
ByLayer
370
18
48
1
60
0
100
AcDbLine
10
10.550917
20
-2.079978
30
0
11
8.883181
21
-1.869679
31
0
39
0
210
0
220
0
230
1
0
LINE
5
BD
100
AcDbEntity
8
1
62
256
6
ByLayer
370
18
48
1
60
0
100
AcDbLine
10
5.398257
20
-7.772005
30
0
11
5.489729
21
-7.477492
31
0
39
0
210
0
220
0
230
1
0
LINE
5
BE
100
AcDbEntity
8
1
62
256
6
ByLayer
370
18
48
1
60
0
100
AcDbLine
10
11.023469
20
-4.330862
30
0
11
11.1418
21
-2.183741
31
0
39
0
210
0
220
0
230
1
0
LINE
5
BF
100
AcDbEntity
8
1
62
256
6
ByLayer
370
18
48
1
60
0
100
AcDbLine
10
-3.01742
20
-4.947158
30
0
11
-1.559216
21
-5.070872
31
0
39
0
210
0
220
0
230
1
0
LINE
5
C0
100
AcDbEntity
8
1
62
256
6
ByLayer
370
18
48
1
60
0
100
AcDbLine
10
9.894836
20
-4.115847
30
0
11
10.248189
21
-3.356753
31
0
39
0
210
0
220
0
230
1
0
LINE
5
C1
100
AcDbEntity
8
1
62
256
6
ByLayer
370
18
48
1
60
0
100
AcDbLine
10
-1.35601
20
-5.213626
30
0
11
-1.35601
21
-4.456011
31
0
39
0
210
0
220
0
230
1
0
LINE
5
C2
100
AcDbEntity
8
1
62
256
6
ByLayer
370
18
48
1
60
0
100
AcDbLine
10
-1.355607
20
-5.213908
30
0
11
-3.01742
21
-4.947158
31
0
39
0
210
0
220
0
230
1
0
LINE
5
C3
100
AcDbEntity
8
1
62
256
6
ByLayer
370
18
48
1
60
0
100
AcDbLine
10
6.102115
20
-6.34726
30
0
11
4.510567
21
-6.146568
31
0
39
0
210
0
220
0
230
1
0
LINE
5
C4
100
AcDbEntity
8
1
62
256
6
ByLayer
370
18
48
1
60
0
100
AcDbLine
10
10.903376
20
-1.033538
30
0
11
10.550917
21
-2.088373
31
0
39
0
210
0
220
0
230
1
0
LINE
5
C5
100
AcDbEntity
8
1
62
256
6
ByLayer
370
18
48
1
60
0
100
AcDbLine
10
10.16397
20
-5.784529
30
0
11
10.38091
21
-5.719208
31
0
39
0
210
0
220
0
230
1
0
LINE
5
C6
100
AcDbEntity
8
1
62
256
6
ByLayer
370
18
48
1
60
0
100
AcDbLine
10
3.992734
20
-6.072413
30
0
11
-0.39519
21
-5.368073
31
0
39
0
210
0
220
0
230
1
0
LINE
5
C7
100
AcDbEntity
8
1
62
256
6
ByLayer
370
18
48
1
60
0
100
AcDbLine
10
7.335711
20
-3.048429
30
0
11
10.248189
21
-3.356753
31
0
39
0
210
0
220
0
230
1
0
LINE
5
C8
100
AcDbEntity
8
1
62
256
6
ByLayer
370
18
48
1
60
0
100
AcDbLine
10
10.550917
20
-2.088373
30
0
11
10.550917
21
-2.079978
31
0
39
0
210
0
220
0
230
1
0
LINE
5
C9
100
AcDbEntity
8
1
62
256
6
ByLayer
370
18
48
1
60
0
100
AcDbLine
10
-1.120225
20
3.226685
30
0
11
-0.6051
21
-1.15802
31
0
39
0
210
0
220
0
230
1
0
LINE
5
CA
100
AcDbEntity
8
1
62
256
6
ByLayer
370
18
48
1
60
0
100
AcDbLine
10
-0.217731
20
-3.740184
30
0
11
-0.056205
21
-3.924283
31
0
39
0
210
0
220
0
230
1
0
LINE
5
CB
100
AcDbEntity
8
1
62
256
6
ByLayer
370
18
48
1
60
0
100
AcDbLine
10
-5.998238
20
-9.140176
30
0
11
-5.998238
21
-4.684574
31
0
39
0
210
0
220
0
230
1
0
LINE
5
CC
100
AcDbEntity
8
SK1
62
256
6
ByLayer
370
18
48
1
60
0
100
AcDbLine
10
-5.998238
20
-4.107553
30
0
11
-5.998238
21
2.15799
31
0
39
0
210
0
220
0
230
1
0
LINE
5
CD
100
AcDbEntity
8
SK1
62
256
6
ByLayer
370
18
48
1
60
0
100
AcDbLine
10
-1.35601
20
-4.253545
30
0
11
-1.35601
21
2.003141
31
0
39
0
210
0
220
0
230
1
0
LINE
5
CE
100
AcDbEntity
8
1
62
256
6
ByLayer
370
18
48
1
60
0
100
AcDbLine
10
10.38091
20
-5.719208
30
0
11
10.470319
21
-6.720153
31
0
39
0
210
0
220
0
230
1
0
LINE
5
CF
100
AcDbEntity
8
1
62
256
6
ByLayer
370
18
48
1
60
0
100
AcDbLine
10
-0.217731
20
-3.740184
30
0
11
-0.6051
21
-1.15802
31
0
39
0
210
0
220
0
230
1
0
LINE
5
D0
100
AcDbEntity
8
1
62
256
6
ByLayer
370
18
48
1
60
0
100
AcDbLine
10
3.762821
20
-8.425855
30
0
11
3.993702
21
-6.07257
31
0
39
0
210
0
220
0
230
1
0
LINE
5
D1
100
AcDbEntity
8
1
62
256
6
ByLayer
370
18
48
1
60
0
100
AcDbLine
10
10.885115
20
-5.261771
30
0
11
10.898525
21
-5.125085
31
0
39
0
210
0
220
0
230
1
0
LINE
5
D2
100
AcDbEntity
8
1
62
256
6
ByLayer
370
18
48
1
60
0
100
AcDbLine
10
10.470319
20
-6.720153
30
0
11
10.889401
21
-4.909959
31
0
39
0
210
0
220
0
230
1
0
LINE
5
D3
100
AcDbEntity
8
1
62
256
6
ByLayer
370
18
48
1
60
0
100
AcDbLine
10
5.721939
20
-6.44521
30
0
11
5.489729
21
-7.477492
31
0
39
0
210
0
220
0
230
1
0
LINE
5
D4
100
AcDbEntity
8
1
62
256
6
ByLayer
370
18
48
1
60
0
100
AcDbLine
10
4.822605
20
-3.140983
30
0
11
4.510567
21
-6.146568
31
0
39
0
210
0
220
0
230
1
0
LINE
5
D5
100
AcDbEntity
8
1
62
256
6
ByLayer
370
18
48
1
60
0
100
AcDbLine
10
10.889401
20
-4.909959
30
0
11
11.023469
21
-4.330862
31
0
39
0
210
0
220
0
230
1
0
LINE
5
D6
100
AcDbEntity
8
1
62
256
6
ByLayer
370
18
48
1
60
0
100
AcDbLine
10
10.248189
20
-3.356753
30
0
11
10.257953
21
-3.353813
31
0
39
0
210
0
220
0
230
1
0
LINE
5
D7
100
AcDbEntity
8
1
62
256
6
ByLayer
370
18
48
1
60
0
100
AcDbLine
10
6.001762
20
8.770675
30
0
11
-1.120225
21
8.770675
31
0
39
0
210
0
220
0
230
1
0
LINE
5
D8
100
AcDbEntity
8
1
62
256
6
ByLayer
370
18
48
1
60
0
100
AcDbLine
10
10.550917
20
-2.079978
30
0
11
9.028284
21
-0.390701
31
0
39
0
210
0
220
0
230
1
0
LINE
5
D9
100
AcDbEntity
8
1
62
256
6
ByLayer
370
18
48
1
60
0
100
AcDbLine
10
-5.998238
20
-4.684574
30
0
11
-3.01742
21
-4.947158
31
0
39
0
210
0
220
0
230
1
0
LINE
5
DA
100
AcDbEntity
8
1
62
256
6
ByLayer
370
18
48
1
60
0
100
AcDbLine
10
5.563405
20
-6.726534
30
0
11
5.489729
21
-7.477492
31
0
39
0
210
0
220
0
230
1
0
LINE
5
DB
100
AcDbEntity
8
1
62
256
6
ByLayer
370
18
48
1
60
0
100
AcDbLine
10
10.053814
20
-6.845564
30
0
11
10.470319
21
-6.720153
31
0
39
0
210
0
220
0
230
1
0
LINE
5
DC
100
AcDbEntity
8
1
62
256
6
ByLayer
370
18
48
1
60
0
100
AcDbLine
10
6.035824
20
6.276492
30
0
11
5.984226
21
3.226685
31
0
39
0
210
0
220
0
230
1
0
LINE
5
DD
100
AcDbEntity
8
1
62
256
6
ByLayer
370
18
48
1
60
0
100
AcDbLine
10
11.023469
20
-4.330862
30
0
11
10.930227
21
-5.281241
31
0
39
0
210
0
220
0
230
1
0
LINE
5
DE
100
AcDbEntity
8
1
62
256
6
ByLayer
370
18
48
1
60
0
100
AcDbLine
10
-0.6051
20
-1.15802
30
0
11
4.312015
21
-2.997066
31
0
39
0
210
0
220
0
230
1
0
LINE
5
DF
100
AcDbEntity
8
1
62
256
6
ByLayer
370
18
48
1
60
0
100
AcDbLine
10
1.001762
20
-9.756814
30
0
11
-5.998238
21
-9.140176
31
0
39
0
210
0
220
0
230
1
0
LINE
5
E0
100
AcDbEntity
8
1
62
256
6
ByLayer
370
18
48
1
60
0
100
AcDbLine
10
4.998551
20
-8.465885
30
0
11
4.977287
21
-8.560414
31
0
39
0
210
0
220
0
230
1
0
LINE
5
E1
100
AcDbEntity
8
1
62
256
6
ByLayer
370
18
48
1
60
0
100
AcDbLine
10
3.992734
20
-6.072413
30
0
11
4.312015
21
-2.997066
31
0
39
0
210
0
220
0
230
1
0
LINE
5
E2
100
AcDbEntity
8
1
62
256
6
ByLayer
370
18
48
1
60
0
100
AcDbLine
10
4.975787
20
-8.5757
30
0
11
4.977287
21
-8.560414
31
0
39
0
210
0
220
0
230
1
0
LINE
5
E3
100
AcDbEntity
8
1
62
256
6
ByLayer
370
18
48
1
60
0
100
AcDbLine
10
7.722283
20
-0.155944
30
0
11
7.335711
21
-3.048429
31
0
39
0
210
0
220
0
230
1
0
LINE
5
E4
100
AcDbEntity
8
1
62
256
6
ByLayer
370
18
48
1
60
0
100
AcDbLine
10
4.509579
20
-6.146444
30
0
11
4.279855
21
-8.487944
31
0
39
0
210
0
220
0
230
1
0
LINE
5
E5
100
AcDbEntity
8
1
62
256
6
ByLayer
370
18
48
1
60
0
100
AcDbLine
10
9.894836
20
-4.115847
30
0
11
10.16397
21
-5.784529
31
0
39
0
210
0
220
0
230
1
0
LINE
5
E6
100
AcDbEntity
8
1
62
256
6
ByLayer
370
18
48
1
60
0
100
AcDbLine
10
5.003985
20
-8.451624
30
0
11
4.975787
21
-8.5757
31
0
39
0
210
0
220
0
230
1
0
LINE
5
E7
100
AcDbEntity
8
1
62
256
6
ByLayer
370
18
48
1
60
0
100
AcDbLine
10
-1.35601
20
-5.213626
30
0
11
-1.559216
21
-5.070872
31
0
39
0
210
0
220
0
230
1
0
LINE
5
E8
100
AcDbEntity
8
1
62
256
6
ByLayer
370
18
48
1
60
0
100
AcDbLine
10
9.028284
20
-0.390701
30
0
11
8.883181
21
-1.869679
31
0
39
0
210
0
220
0
230
1
0
LINE
5
E9
100
AcDbEntity
8
1
62
256
6
ByLayer
370
18
48
1
60
0
100
AcDbLine
10
6.102115
20
-6.34726
30
0
11
10.053814
21
-6.845564
31
0
39
0
210
0
220
0
230
1
0
LINE
5
EA
100
AcDbEntity
8
1
62
256
6
ByLayer
370
18
48
1
60
0
100
AcDbLine
10
-1.120225
20
3.226685
30
0
11
-1.120225
21
8.770675
31
0
39
0
210
0
220
0
230
1
0
LINE
5
EB
100
AcDbEntity
8
1
62
256
6
ByLayer
370
18
48
1
60
0
100
AcDbLine
10
10.898525
20
-5.125085
30
0
11
10.840738
21
-5.120148
31
0
39
0
210
0
220
0
230
1
0
LINE
5
EC
100
AcDbEntity
8
1
62
256
6
ByLayer
370
18
48
1
60
0
100
AcDbLine
10
7.514099
20
-2.277895
30
0
11
7.722283
21
-0.155944
31
0
39
0
210
0
220
0
230
1
0
LINE
5
ED
100
AcDbEntity
8
1
62
256
6
ByLayer
370
18
48
1
60
0
100
AcDbLine
10
5.984226
20
3.226685
30
0
11
-1.120225
21
3.226685
31
0
39
0
210
0
220
0
230
1
0
LINE
5
EE
100
AcDbEntity
8
SK1
62
256
6
ByLayer
370
18
48
1
60
0
100
AcDbLine
10
-1.559216
20
-3.982324
30
0
11
-1.559216
21
2.15799
31
0
39
0
210
0
220
0
230
1
0
LINE
5
EF
100
AcDbEntity
8
1
62
256
6
ByLayer
370
18
48
1
60
0
100
AcDbLine
10
5.58467
20
-6.632002
30
0
11
5.563405
21
-6.726534
31
0
39
0
210
0
220
0
230
1
0
LINE
5
F0
100
AcDbEntity
8
SK1
62
256
6
ByLayer
370
18
48
1
60
0
100
AcDbLine
10
-1.559216
20
2.15799
30
0
11
-1.35601
21
2.003141
31
0
39
0
210
0
220
0
230
1
0
LINE
5
F1
100
AcDbEntity
8
1
62
256
6
ByLayer
370
18
48
1
60
0
100
AcDbLine
10
4.822605
20
-3.140983
30
0
11
9.894836
21
-4.115847
31
0
39
0
210
0
220
0
230
1
0
LINE
5
F2
100
AcDbEntity
8
1
62
256
6
ByLayer
370
18
48
1
60
0
100
AcDbLine
10
4.279855
20
-8.487944
30
0
11
4.975787
21
-8.5757
31
0
39
0
210
0
220
0
230
1
0
LINE
5
F3
100
AcDbEntity
8
1
62
256
6
ByLayer
370
18
48
1
60
0
100
AcDbLine
10
6.001762
20
6.481147
30
0
11
6.001762
21
8.770675
31
0
39
0
210
0
220
0
230
1
0
LINE
5
F4
100
AcDbEntity
8
1
62
256
6
ByLayer
370
18
48
1
60
0
100
AcDbLine
10
5.94421
20
-6.863965
30
0
11
5.893594
21
-7.030811
31
0
39
0
210
0
220
0
230
1
0
LINE
5
F5
100
AcDbEntity
8
1
62
256
6
ByLayer
370
18
48
1
60
0
100
AcDbLine
10
10.470565
20
-8.561479
30
0
11
10.356799
21
-9.623438
31
0
39
0
210
0
220
0
230
1
0
LINE
5
F6
100
AcDbEntity
8
1
62
256
6
ByLayer
370
18
48
1
60
0
100
AcDbLine
10
11.539821
20
-7.355008
30
0
11
11.079096
21
-9.345078
31
0
39
0
210
0
220
0
230
1
0
LINE
5
F7
100
AcDbEntity
8
1
62
256
6
ByLayer
370
18
48
1
60
0
100
AcDbLine
10
5.548408
20
-7.309998
30
0
11
5.491258
21
-7.498382
31
0
39
0
210
0
220
0
230
1
0
LINE
5
F8
100
AcDbEntity
8
1
62
256
6
ByLayer
370
18
48
1
60
0
100
AcDbLine
10
5.366054
20
-7.93763
30
0
11
5.108377
21
-8.731584
31
0
39
0
210
0
220
0
230
1
0
LINE
5
F9
100
AcDbEntity
8
1
62
256
6
ByLayer
370
18
48
1
60
0
100
AcDbLine
10
5.134672
20
-8.595494
30
0
11
5.219956
21
-8.227114
31
0
39
0
210
0
220
0
230
1
0
LINE
5
FA
100
AcDbEntity
8
1
62
256
6
ByLayer
370
18
48
1
60
0
100
AcDbLine
10
5.548408
20
-7.309998
30
0
11
5.753872
21
-6.422511
31
0
39
0
210
0
220
0
230
1
0
LINE
5
FB
100
AcDbEntity
8
1
62
256
6
ByLayer
370
18
48
1
60
0
100
AcDbLine
10
11.376653
20
-6.086562
30
0
11
11.268088
21
-5.661824
31
0
39
0
210
0
220
0
230
1
0
LINE
5
FC
100
AcDbEntity
8
1
62
256
6
ByLayer
370
18
48
1
60
0
100
AcDbLine
10
10.613519
20
-7.452759
30
0
11
10.620377
21
-7.626853
31
0
39
0
210
0
220
0
230
1
0
LINE
5
FD
100
AcDbEntity
8
1
62
256
6
ByLayer
370
18
48
1
60
0
100
AcDbLine
10
5.642323
20
-9.028493
30
0
11
5.758257
21
-8.021858
31
0
39
0
210
0
220
0
230
1
0
LINE
5
FE
100
AcDbEntity
8
1
62
256
6
ByLayer
370
18
48
1
60
0
100
AcDbLine
10
5.405952
20
-7.792701
30
0
11
5.115867
21
-8.68606
31
0
39
0
210
0
220
0
230
1
0
LINE
5
FF
100
AcDbEntity
8
1
62
256
6
ByLayer
370
18
48
1
60
0
100
AcDbLine
10
5.620484
20
-8.104431
30
0
11
5.470254
21
-8.999672
31
0
39
0
210
0
220
0
230
1
0
LINE
5
100
100
AcDbEntity
8
1
62
256
6
ByLayer
370
18
48
1
60
0
100
AcDbLine
10
11.404595
20
-6.19588
30
0
11
11.539821
21
-7.355008
31
0
39
0
210
0
220
0
230
1
0
LINE
5
101
100
AcDbEntity
8
1
62
256
6
ByLayer
370
18
48
1
60
0
100
AcDbLine
10
10.265999
20
-8.189193
30
0
11
10.343698
21
-8.364901
31
0
39
0
210
0
220
0
230
1
0
LINE
5
102
100
AcDbEntity
8
1
62
256
6
ByLayer
370
18
48
1
60
0
100
AcDbLine
10
5.543562
20
-9.014649
30
0
11
5.648258
21
-8.121189
31
0
39
0
210
0
220
0
230
1
0
LINE
5
103
100
AcDbEntity
8
1
62
256
6
ByLayer
370
18
48
1
60
0
100
AcDbLine
10
9.970426
20
-7.24198
30
0
11
6.618164
21
-6.819264
31
0
39
0
210
0
220
0
230
1
0
LINE
5
104
100
AcDbEntity
8
1
62
256
6
ByLayer
370
18
48
1
60
0
100
AcDbLine
10
6.090626
20
-7.662684
30
0
11
6.532593
21
-7.073796
31
0
39
0
210
0
220
0
230
1
0
LINE
5
105
100
AcDbEntity
8
1
62
256
6
ByLayer
370
18
48
1
60
0
100
AcDbLine
10
11.46806
20
-6.385912
30
0
11
11.566115
21
-7.218919
31
0
39
0
210
0
220
0
230
1
0
LINE
5
106
100
AcDbEntity
8
1
62
256
6
ByLayer
370
18
48
1
60
0
100
AcDbLine
10
10.511431
20
-8.621227
30
0
11
10.405443
21
-9.629116
31
0
39
0
210
0
220
0
230
1
0
LINE
5
107
100
AcDbEntity
8
1
62
256
6
ByLayer
370
18
48
1
60
0
100
AcDbLine
10
11.079096
20
-9.345078
30
0
11
10.94387
21
-8.185949
31
0
39
0
210
0
220
0
230
1
0
LINE
5
108
100
AcDbEntity
8
1
62
256
6
ByLayer
370
18
48
1
60
0
100
AcDbLine
10
11.042673
20
-9.479891
30
0
11
10.945924
21
-8.641244
31
0
39
0
210
0
220
0
230
1
0
LINE
5
109
100
AcDbEntity
8
1
62
256
6
ByLayer
370
18
48
1
60
0
100
AcDbLine
10
10.906043
20
-7.225653
30
0
11
11.268088
21
-5.661824
31
0
39
0
210
0
220
0
230
1
0
LINE
5
10A
100
AcDbEntity
8
1
62
256
6
ByLayer
370
18
48
1
60
0
100
AcDbLine
10
10.583775
20
-7.059099
30
0
11
10.37532
21
-6.748762
31
0
39
0
210
0
220
0
230
1
0
LINE
5
10B
100
AcDbEntity
8
1
62
256
6
ByLayer
370
18
48
1
60
0
100
AcDbLine
10
10.906043
20
-7.225653
30
0
11
10.936127
21
-7.989383
31
0
39
0
210
0
220
0
230
1
0
LINE
5
10C
100
AcDbEntity
8
1
62
256
6
ByLayer
370
18
48
1
60
0
100
AcDbLine
10
6.121887
20
-6.496461
30
0
11
6.15489
21
-6.353907
31
0
39
0
210
0
220
0
230
1
0
LINE
5
10D
100
AcDbEntity
8
1
62
256
6
ByLayer
370
18
48
1
60
0
100
AcDbLine
10
5.840249
20
-9.054436
30
0
11
10.207073
21
-9.605087
31
0
39
0
210
0
220
0
230
1
0
LINE
5
10E
100
AcDbEntity
8
1
62
256
6
ByLayer
370
18
48
1
60
0
100
AcDbLine
10
10.628331
20
-8.735914
30
0
11
10.580716
21
-9.644095
31
0
39
0
210
0
220
0
230
1
0
LINE
5
10F
100
AcDbEntity
8
1
62
256
6
ByLayer
370
18
48
1
60
0
100
AcDbLine
10
10.265999
20
-8.189193
30
0
11
9.964114
21
-7.506506
31
0
39
0
210
0
220
0
230
1
0
LINE
5
110
100
AcDbEntity
8
1
62
256
6
ByLayer
370
18
48
1
60
0
100
AcDbLine
10
10.343698
20
-8.364901
30
0
11
10.207073
21
-9.605087
31
0
39
0
210
0
220
0
230
1
0
LINE
5
111
100
AcDbEntity
8
1
62
256
6
ByLayer
370
18
48
1
60
0
100
AcDbLine
10
5.491258
20
-7.498382
30
0
11
5.134672
21
-8.595494
31
0
39
0
210
0
220
0
230
1
0
LINE
5
112
100
AcDbEntity
8
1
62
256
6
ByLayer
370
18
48
1
60
0
100
AcDbLine
10
11.062182
20
-9.413115
30
0
11
10.946791
21
-8.419484
31
0
39
0
210
0
220
0
230
1
0
LINE
5
113
100
AcDbEntity
8
1
62
256
6
ByLayer
370
18
48
1
60
0
100
AcDbLine
10
5.873709
20
-6.572495
30
0
11
5.924374
21
-6.353651
31
0
39
0
210
0
220
0
230
1
0
LINE
5
114
100
AcDbEntity
8
1
62
256
6
ByLayer
370
18
48
1
60
0
100
AcDbLine
10
5.94421
20
-6.863965
30
0
11
5.994341
21
-6.896573
31
0
39
0
210
0
220
0
230
1
0
LINE
5
115
100
AcDbEntity
8
1
62
256
6
ByLayer
370
18
48
1
60
0
100
AcDbLine
10
10.936791
20
-8.643941
30
0
11
11.02258
21
-9.512345
31
0
39
0
210
0
220
0
230
1
0
LINE
5
116
100
AcDbEntity
8
1
62
256
6
ByLayer
370
18
48
1
60
0
100
AcDbLine
10
11.376653
20
-6.086562
30
0
11
11.404595
21
-6.19588
31
0
39
0
210
0
220
0
230
1
0
LINE
5
117
100
AcDbEntity
8
1
62
256
6
ByLayer
370
18
48
1
60
0
100
AcDbLine
10
6.532593
20
-7.073796
30
0
11
9.964114
21
-7.506506
31
0
39
0
210
0
220
0
230
1
0
LINE
5
118
100
AcDbEntity
8
1
62
256
6
ByLayer
370
18
48
1
60
0
100
AcDbLine
10
10.02447
20
-6.841869
30
0
11
9.970426
21
-7.24198
31
0
39
0
210
0
220
0
230
1
0
LINE
5
119
100
AcDbEntity
8
1
62
256
6
ByLayer
370
18
48
1
60
0
100
AcDbLine
10
10.551562
20
-7.471233
30
0
11
10.620377
21
-7.626853
31
0
39
0
210
0
220
0
230
1
0
LINE
5
11A
100
AcDbEntity
8
1
62
256
6
ByLayer
370
18
48
1
60
0
100
AcDbLine
10
11.438414
20
-6.295952
30
0
11
11.554476
21
-7.286687
31
0
39
0
210
0
220
0
230
1
0
LINE
5
11B
100
AcDbEntity
8
1
62
256
6
ByLayer
370
18
48
1
60
0
100
AcDbLine
10
5.994341
20
-6.896573
30
0
11
5.893594
21
-7.030811
31
0
39
0
210
0
220
0
230
1
0
LINE
5
11C
100
AcDbEntity
8
1
62
256
6
ByLayer
370
18
48
1
60
0
100
AcDbLine
10
5.370901
20
-7.94209
30
0
11
5.11273
21
-8.767121
31
0
39
0
210
0
220
0
230
1
0
LINE
5
11D
100
AcDbEntity
8
1
62
256
6
ByLayer
370
18
48
1
60
0
100
AcDbLine
10
11.448331
20
-6.325262
30
0
11
11.558626
21
-7.264443
31
0
39
0
210
0
220
0
230
1
0
LINE
5
11E
100
AcDbEntity
8
1
62
256
6
ByLayer
370
18
48
1
60
0
100
AcDbLine
10
5.690761
20
-9.035056
30
0
11
5.810885
21
-7.973899
31
0
39
0
210
0
220
0
230
1
0
LINE
5
11F
100
AcDbEntity
8
1
62
256
6
ByLayer
370
18
48
1
60
0
100
AcDbLine
10
10.265999
20
-8.189193
30
0
11
6.090626
21
-7.662684
31
0
39
0
210
0
220
0
230
1
0
LINE
5
120
100
AcDbEntity
8
1
62
256
6
ByLayer
370
18
48
1
60
0
100
AcDbLine
10
11.376653
20
-6.086562
30
0
11
10.936127
21
-7.989383
31
0
39
0
210
0
220
0
230
1
0
LINE
5
121
100
AcDbEntity
8
1
62
256
6
ByLayer
370
18
48
1
60
0
100
AcDbLine
10
9.934938
20
-7.456358
30
0
11
6.582676
21
-7.033642
31
0
39
0
210
0
220
0
230
1
0
LINE
5
122
100
AcDbEntity
8
1
62
256
6
ByLayer
370
18
48
1
60
0
100
AcDbLine
10
11.05609
20
-9.435114
30
0
11
10.946844
21
-8.4914
31
0
39
0
210
0
220
0
230
1
0
LINE
5
123
100
AcDbEntity
8
1
62
256
6
ByLayer
370
18
48
1
60
0
100
AcDbLine
10
10.937458
20
-5.531391
30
0
11
10.583775
21
-7.059099
31
0
39
0
210
0
220
0
230
1
0
LINE
5
124
100
AcDbEntity
8
1
62
256
6
ByLayer
370
18
48
1
60
0
100
AcDbLine
10
10.937458
20
-5.531391
30
0
11
10.794729
21
-5.318904
31
0
39
0
210
0
220
0
230
1
0
LINE
5
125
100
AcDbEntity
8
1
62
256
6
ByLayer
370
18
48
1
60
0
100
AcDbLine
10
5.425557
20
-7.723263
30
0
11
5.120017
21
-8.663816
31
0
39
0
210
0
220
0
230
1
0
LINE
5
126
100
AcDbEntity
8
1
62
256
6
ByLayer
370
18
48
1
60
0
100
AcDbLine
10
6.618164
20
-6.819264
30
0
11
6.672208
21
-6.419154
31
0
39
0
210
0
220
0
230
1
0
LINE
5
127
100
AcDbEntity
8
1
62
256
6
ByLayer
370
18
48
1
60
0
100
AcDbLine
10
10.597148
20
-8.745237
30
0
11
10.504829
21
-9.640258
31
0
39
0
210
0
220
0
230
1
0
LINE
5
128
100
AcDbEntity
8
1
62
256
6
ByLayer
370
18
48
1
60
0
100
AcDbLine
10
11.094332
20
-5.375921
30
0
11
11.0442
21
-5.343313
31
0
39
0
210
0
220
0
230
1
0
LINE
5
129
100
AcDbEntity
8
1
62
256
6
ByLayer
370
18
48
1
60
0
100
AcDbLine
10
5.814114
20
-6.389474
30
0
11
5.770454
21
-6.578062
31
0
39
0
210
0
220
0
230
1
0
LINE
5
12A
100
AcDbEntity
8
1
62
256
6
ByLayer
370
18
48
1
60
0
100
AcDbLine
10
5.548408
20
-7.309998
30
0
11
5.770454
21
-6.578062
31
0
39
0
210
0
220
0
230
1
0
LINE
5
12B
100
AcDbEntity
8
1
62
256
6
ByLayer
370
18
48
1
60
0
100
AcDbLine
10
11.164833
20
-5.667392
30
0
11
10.81115
21
-7.1951
31
0
39
0
210
0
220
0
230
1
0
LINE
5
12C
100
AcDbEntity
8
1
62
256
6
ByLayer
370
18
48
1
60
0
100
AcDbLine
10
10.551562
20
-7.471233
30
0
11
10.613519
21
-7.452759
31
0
39
0
210
0
220
0
230
1
0
LINE
5
12D
100
AcDbEntity
8
1
62
256
6
ByLayer
370
18
48
1
60
0
100
AcDbLine
10
10.94387
20
-8.185949
30
0
11
10.936127
21
-7.989383
31
0
39
0
210
0
220
0
230
1
0
LINE
5
12E
100
AcDbEntity
8
1
62
256
6
ByLayer
370
18
48
1
60
0
100
AcDbLine
10
5.976873
20
-7.81425
30
0
11
5.840249
21
-9.054436
31
0
39
0
210
0
220
0
230
1
0
LINE
5
12F
100
AcDbEntity
8
1
62
256
6
ByLayer
370
18
48
1
60
0
100
AcDbLine
10
6.090626
20
-7.662684
30
0
11
5.976873
21
-7.81425
31
0
39
0
210
0
220
0
230
1
0
LINE
5
130
100
AcDbEntity
8
1
62
256
6
ByLayer
370
18
48
1
60
0
100
AcDbLine
10
6.121887
20
-6.496461
30
0
11
6.257987
21
-6.366913
31
0
39
0
210
0
220
0
230
1
0
LINE
5
131
100
AcDbEntity
8
1
62
256
6
ByLayer
370
18
48
1
60
0
100
AcDbLine
10
7.513152
20
16.663631
30
0
11
7.49352
21
16.659814
31
0
39
0
210
0
220
0
230
1
0
LINE
5
132
100
AcDbEntity
8
1
62
256
6
ByLayer
370
18
48
1
60
0
100
AcDbLine
10
9.175256
20
16.836572
30
0
11
9.217048
21
16.840965
31
0
39
0
210
0
220
0
230
1
0
LINE
5
133
100
AcDbEntity
8
1
62
256
6
ByLayer
370
18
48
1
60
0
100
AcDbLine
10
7.433142
20
16.655222
30
0
11
7.513152
21
16.663631
31
0
39
0
210
0
220
0
230
1
0
LINE
5
134
100
AcDbEntity
8
1
62
256
6
ByLayer
370
18
48
1
60
0
100
AcDbLine
10
7.687394
20
17.097203
30
0
11
7.697707
21
17.079994
31
0
39
0
210
0
220
0
230
1
0
LINE
5
135
100
AcDbEntity
8
1
62
256
6
ByLayer
370
18
48
1
60
0
100
AcDbLine
10
7.617697
20
17.071585
30
0
11
7.697707
21
17.079994
31
0
39
0
210
0
220
0
230
1
0
LINE
5
136
100
AcDbEntity
8
1
62
256
6
ByLayer
370
18
48
1
60
0
100
AcDbLine
10
7.543091
20
16.188178
30
0
11
7.563088
21
16.188526
31
0
39
0
210
0
220
0
230
1
0
LINE
5
137
100
AcDbEntity
8
1
62
256
6
ByLayer
370
18
48
1
60
0
100
AcDbLine
10
8.648843
20
15.648962
30
0
11
8.729796
21
15.657471
31
0
39
0
210
0
220
0
230
1
0
LINE
5
138
100
AcDbEntity
8
1
62
256
6
ByLayer
370
18
48
1
60
0
100
AcDbLine
10
8.543953
20
17.425654
30
0
11
8.534269
21
17.408097
31
0
39
0
210
0
220
0
230
1
0
LINE
5
139
100
AcDbEntity
8
1
62
256
6
ByLayer
370
18
48
1
60
0
100
AcDbLine
10
8.454259
20
17.399688
30
0
11
8.534269
21
17.408097
31
0
39
0
210
0
220
0
230
1
0
LINE
5
13A
100
AcDbEntity
8
1
62
256
6
ByLayer
370
18
48
1
60
0
100
AcDbLine
10
8.636664
20
15.664222
30
0
11
8.716673
21
15.672631
31
0
39
0
210
0
220
0
230
1
0
LINE
5
13B
100
AcDbEntity
8
1
62
256
6
ByLayer
370
18
48
1
60
0
100
AcDbLine
10
7.483078
20
16.180117
30
0
11
7.563088
21
16.188526
31
0
39
0
210
0
220
0
230
1
0
LINE
5
13C
100
AcDbEntity
8
1
62
256
6
ByLayer
370
18
48
1
60
0
100
AcDbLine
10
7.742713
20
15.792148
30
0
11
7.823666
21
15.800656
31
0
39
0
210
0
220
0
230
1
0
LINE
5
13D
100
AcDbEntity
8
1
62
256
6
ByLayer
370
18
48
1
60
0
100
AcDbLine
10
8.211627
20
18.055405
30
0
11
8.211572
21
18.055399
31
0
39
0
210
0
220
0
230
1
0
LINE
5
13E
100
AcDbEntity
8
1
62
256
6
ByLayer
370
18
48
1
60
0
100
AcDbLine
10
7.412567
20
16.651306
30
0
11
7.49352
21
16.659814
31
0
39
0
210
0
220
0
230
1
0
LINE
5
13F
100
AcDbEntity
8
1
62
256
6
ByLayer
370
18
48
1
60
0
100
AcDbLine
10
7.830176
20
15.819633
30
0
11
7.823666
21
15.800656
31
0
39
0
210
0
220
0
230
1
0
LINE
5
140
100
AcDbEntity
8
1
62
256
6
ByLayer
370
18
48
1
60
0
100
AcDbLine
10
7.750166
20
15.811224
30
0
11
7.830176
21
15.819633
31
0
39
0
210
0
220
0
230
1
0
LINE
5
141
100
AcDbEntity
8
1
62
256
6
ByLayer
370
18
48
1
60
0
100
AcDbLine
10
8.463
20
17.417146
30
0
11
8.543953
21
17.425654
31
0
39
0
210
0
220
0
230
1
0
LINE
5
142
100
AcDbEntity
8
1
62
256
6
ByLayer
370
18
48
1
60
0
100
AcDbLine
10
8.716673
20
15.672631
30
0
11
8.729796
21
15.657471
31
0
39
0
210
0
220
0
230
1
0
LINE
5
143
100
AcDbEntity
8
1
62
256
6
ByLayer
370
18
48
1
60
0
100
AcDbLine
10
7.462138
20
16.179669
30
0
11
7.543091
21
16.188178
31
0
39
0
210
0
220
0
230
1
0
LINE
5
144
100
AcDbEntity
8
1
62
256
6
ByLayer
370
18
48
1
60
0
100
AcDbLine
10
9.224827
20
16.364935
30
0
11
9.267043
21
16.369373
31
0
39
0
210
0
220
0
230
1
0
LINE
5
145
100
AcDbEntity
8
1
62
256
6
ByLayer
370
18
48
1
60
0
100
AcDbLine
10
7.606441
20
17.088694
30
0
11
7.687394
21
17.097203
31
0
39
0
210
0
220
0
230
1
0
LINE
5
146
100
AcDbEntity
8
1
62
256
6
ByLayer
370
18
48
1
60
0
100
AcDbLine
10
-1.354654
20
15.314397
30
0
11
-1.497757
21
15.295557
31
0
39
0
210
0
220
0
230
1
0
LINE
5
147
100
AcDbEntity
8
1
62
256
6
ByLayer
370
18
48
1
60
0
100
AcDbLine
10
-1.652088
20
15.157765
30
0
11
-1.497757
21
15.137447
31
0
39
0
210
0
220
0
230
1
0
LINE
5
148
100
AcDbEntity
8
1
62
256
6
ByLayer
370
18
48
1
60
0
100
AcDbLine
10
-1.497757
20
15.137447
30
0
11
-1.354654
21
15.118607
31
0
39
0
210
0
220
0
230
1
0
LINE
5
149
100
AcDbEntity
8
1
62
256
6
ByLayer
370
18
48
1
60
0
100
AcDbLine
10
-1.497757
20
15.295557
30
0
11
-1.652088
21
15.275239
31
0
39
0
210
0
220
0
230
1
0
LINE
5
14A
100
AcDbEntity
8
1
62
256
6
ByLayer
370
18
48
1
60
0
100
AcDbLine
10
10.906043
20
-11.200886
30
0
11
11.268088
21
-9.324806
31
0
39
0
210
0
220
0
230
1
0
LINE
5
14B
100
AcDbEntity
8
1
62
256
6
ByLayer
370
18
48
1
60
0
100
AcDbLine
10
11.465147
20
-7.908645
30
0
11
11.521414
21
-7.434522
31
0
39
0
210
0
220
0
230
1
0
LINE
5
14C
100
AcDbEntity
8
1
62
256
6
ByLayer
370
18
48
1
60
0
100
AcDbLine
10
11.557702
20
-7.128743
30
0
11
11.561763
21
-7.094525
31
0
39
0
210
0
220
0
230
1
0
LINE
5
14D
100
AcDbEntity
8
1
62
256
6
ByLayer
370
18
48
1
60
0
100
AcDbLine
10
11.164833
20
-9.348111
30
0
11
10.946274
21
-10.480662
31
0
39
0
210
0
220
0
230
1
0
LINE
5
14E
100
AcDbEntity
8
1
62
256
6
ByLayer
370
18
48
1
60
0
100
AcDbLine
10
11.46806
20
-7.915271
30
0
11
11.53688
21
-7.367717
31
0
39
0
210
0
220
0
230
1
0
LINE
5
14F
100
AcDbEntity
8
1
62
256
6
ByLayer
370
18
48
1
60
0
100
AcDbLine
10
11.56219
20
-7.166337
30
0
11
11.566115
21
-7.135106
31
0
39
0
210
0
220
0
230
1
0
LINE
5
150
100
AcDbEntity
8
SK1
62
256
6
ByLayer
370
18
48
1
60
0
100
AcDbLine
10
-1.35601
20
-10.569444
30
0
11
-1.35601
21
-9.549102
31
0
39
0
210
0
220
0
230
1
0
LINE
5
151
100
AcDbEntity
8
SK1
62
256
6
ByLayer
370
18
48
1
60
0
100
AcDbLine
10
-5.998238
20
-11.3427
30
0
11
-3.01742
21
-11.657714
31
0
39
0
210
0
220
0
230
1
0
LINE
5
152
100
AcDbEntity
8
1
62
256
6
ByLayer
370
18
48
1
60
0
100
AcDbLine
10
5.001762
20
-9.751852
30
0
11
6.001762
21
-9.751852
31
0
39
0
210
0
220
0
230
1
0
LINE
5
153
100
AcDbEntity
8
1
62
256
6
ByLayer
370
18
48
1
60
0
100
AcDbLine
10
6.035824
20
-13.262952
30
0
11
5.984226
21
-16.921716
31
0
39
0
210
0
220
0
230
1
0
LINE
5
154
100
AcDbEntity
8
SK1
62
256
6
ByLayer
370
18
48
1
60
0
100
AcDbLine
10
-1.35601
20
-11.721225
30
0
11
-1.35601
21
-10.812336
31
0
39
0
210
0
220
0
230
1
0
LINE
5
155
100
AcDbEntity
8
SK1
62
256
6
ByLayer
370
18
48
1
60
0
100
AcDbLine
10
-1.559216
20
-11.806131
30
0
11
-1.559216
21
-11.106794
31
0
39
0
210
0
220
0
230
1
0
LINE
5
156
100
AcDbEntity
8
1
62
256
6
ByLayer
370
18
48
1
60
0
100
AcDbLine
10
-1.120225
20
-10.270755
30
0
11
-1.034826
21
-9.577386
31
0
39
0
210
0
220
0
230
1
0
LINE
5
157
100
AcDbEntity
8
1
62
256
6
ByLayer
370
18
48
1
60
0
100
AcDbLine
10
6.001762
20
-10.270755
30
0
11
-1.120225
21
-10.270755
31
0
39
0
210
0
220
0
230
1
0
LINE
5
158
100
AcDbEntity
8
1
62
256
6
ByLayer
370
18
48
1
60
0
100
AcDbLine
10
6.001762
20
-13.017434
30
0
11
6.001762
21
-10.270755
31
0
39
0
210
0
220
0
230
1
0
LINE
5
159
100
AcDbEntity
8
1
62
256
6
ByLayer
370
18
48
1
60
0
100
AcDbLine
10
10.550917
20
-12.908161
30
0
11
10.550917
21
-12.898407
31
0
39
0
210
0
220
0
230
1
0
LINE
5
15A
100
AcDbEntity
8
SK1
62
256
6
ByLayer
370
18
48
1
60
0
100
AcDbLine
10
-3.01742
20
-11.657714
30
0
11
-1.559216
21
-11.806131
31
0
39
0
210
0
220
0
230
1
0
LINE
5
15B
100
AcDbEntity
8
1
62
256
6
ByLayer
370
18
48
1
60
0
100
AcDbLine
10
10.903376
20
-10.896114
30
0
11
10.550917
21
-12.908161
31
0
39
0
210
0
220
0
230
1
0
LINE
5
15C
100
AcDbEntity
8
SK1
62
256
6
ByLayer
370
18
48
1
60
0
100
AcDbLine
10
-1.35601
20
-11.721225
30
0
11
-1.559216
21
-11.806131
31
0
39
0
210
0
220
0
230
1
0
LINE
5
15D
100
AcDbEntity
8
1
62
256
6
ByLayer
370
18
48
1
60
0
100
AcDbLine
10
-1.120225
20
-16.921716
30
0
11
-1.120225
21
-10.270755
31
0
39
0
210
0
220
0
230
1
0
LINE
5
15E
100
AcDbEntity
8
1
62
256
6
ByLayer
370
18
48
1
60
0
100
AcDbLine
10
8.872134
20
-14.486386
30
0
11
10.248189
21
-14.43128
31
0
39
0
210
0
220
0
230
1
0
LINE
5
15F
100
AcDbEntity
8
SK1
62
256
6
ByLayer
370
18
48
1
60
0
100
AcDbLine
10
-1.355607
20
-11.721057
30
0
11
-1.35601
21
-11.721225
31
0
39
0
210
0
220
0
230
1
0
LINE
5
160
100
AcDbEntity
8
1
62
256
6
ByLayer
370
18
48
1
60
0
100
AcDbLine
10
7.871643
20
-15.887406
30
0
11
5.984226
21
-16.921716
31
0
39
0
210
0
220
0
230
1
0
LINE
5
161
100
AcDbEntity
8
1
62
256
6
ByLayer
370
18
48
1
60
0
100
AcDbLine
10
10.248189
20
-14.43128
30
0
11
10.257953
21
-14.426272
31
0
39
0
210
0
220
0
230
1
0
LINE
5
162
100
AcDbEntity
8
1
62
256
6
ByLayer
370
18
48
1
60
0
100
AcDbLine
10
10.257953
20
-14.426272
30
0
11
10.550917
21
-12.908161
31
0
39
0
210
0
220
0
230
1
0
LINE
5
163
100
AcDbEntity
8
1
62
256
6
ByLayer
370
18
48
1
60
0
100
AcDbLine
10
6.001762
20
-9.751852
30
0
11
6.001762
21
-10.270755
31
0
39
0
210
0
220
0
230
1
0
LINE
5
164
100
AcDbEntity
8
1
62
256
6
ByLayer
370
18
48
1
60
0
100
AcDbLine
10
5.001762
20
-8.461391
30
0
11
5.001762
21
-9.751852
31
0
39
0
210
0
220
0
230
1
0
LINE
5
165
100
AcDbEntity
8
1
62
256
6
ByLayer
370
18
48
1
60
0
100
AcDbLine
10
5.984226
20
-16.921716
30
0
11
-1.120225
21
-16.921716
31
0
39
0
210
0
220
0
230
1
0
LINE
5
166
100
AcDbEntity
8
1
62
256
6
ByLayer
370
18
48
1
60
0
100
AcDbLine
10
10.550917
20
-12.898407
30
0
11
9.028284
21
-14.332911
31
0
39
0
210
0
220
0
230
1
0
LINE
5
167
100
AcDbEntity
8
SK1
62
256
6
ByLayer
370
18
48
1
60
0
100
AcDbLine
10
-1.559216
20
-10.500231
30
0
11
-1.559216
21
-9.53121
31
0
39
0
210
0
220
0
230
1
0
LINE
5
168
100
AcDbEntity
8
SK1
62
256
6
ByLayer
370
18
48
1
60
0
100
AcDbLine
10
-5.998238
20
-11.3427
30
0
11
-5.998238
21
-9.14017
31
0
39
0
210
0
220
0
230
1
0
LINE
5
169
100
AcDbEntity
8
1
62
256
6
ByLayer
370
18
48
1
60
0
100
AcDbLine
10
-3.798238
20
-7.084524
30
0
11
-3.048238
21
-6.698707
31
0
39
0
210
0
220
0
230
1
0
LINE
5
16A
100
AcDbEntity
8
1
62
256
6
ByLayer
370
18
48
1
60
0
100
AcDbLine
10
-3.069226
20
-6.164715
30
0
11
-3.423238
21
-6.346827
31
0
39
0
210
0
220
0
230
1
0
LINE
5
16B
100
AcDbEntity
8
1
62
256
6
ByLayer
370
18
48
1
60
0
100
AcDbLine
10
-3.798238
20
-7.084524
30
0
11
-3.798238
21
-6.539735
31
0
39
0
210
0
220
0
230
1
0
LINE
5
16C
100
AcDbEntity
8
1
62
256
6
ByLayer
370
18
48
1
60
0
100
AcDbLine
10
-3.048238
20
-6.698707
30
0
11
-3.048238
21
-6.176359
31
0
39
0
210
0
220
0
230
1
0
LINE
5
16D
100
AcDbEntity
8
1
62
256
6
ByLayer
370
18
48
1
60
0
100
AcDbLine
10
-3.423238
20
-6.346827
30
0
11
-3.798238
21
-6.539735
31
0
39
0
210
0
220
0
230
1
0
LINE
5
16E
100
AcDbEntity
8
1
62
256
6
ByLayer
370
18
48
1
60
0
100
AcDbLine
10
-4.548238
20
-6.698707
30
0
11
-3.798238
21
-7.084524
31
0
39
0
210
0
220
0
230
1
0
LINE
5
16F
100
AcDbEntity
8
1
62
256
6
ByLayer
370
18
48
1
60
0
100
AcDbLine
10
-3.798238
20
-6.539735
30
0
11
-4.173238
21
-6.346827
31
0
39
0
210
0
220
0
230
1
0
LINE
5
170
100
AcDbEntity
8
1
62
256
6
ByLayer
370
18
48
1
60
0
100
AcDbLine
10
-4.548238
20
-6.044217
30
0
11
-4.548238
21
-6.698707
31
0
39
0
210
0
220
0
230
1
0
LINE
5
171
100
AcDbEntity
8
1
62
256
6
ByLayer
370
18
48
1
60
0
100
AcDbLine
10
-4.173238
20
-6.346827
30
0
11
-4.548238
21
-6.153918
31
0
39
0
210
0
220
0
230
1
0
LINE
5
172
100
AcDbEntity
8
1
62
256
6
ByLayer
370
18
48
1
60
0
100
AcDbLine
10
6.093777
20
13.275293
30
0
11
6.109511
21
13.363335
31
0
39
0
210
0
220
0
230
1
0
LINE
5
173
100
AcDbEntity
8
1
62
256
6
ByLayer
370
18
48
1
60
0
100
AcDbLine
10
5.595397
20
14.005925
30
0
11
5.683544
21
14.01519
31
0
39
0
210
0
220
0
230
1
0
LINE
5
174
100
AcDbEntity
8
1
62
256
6
ByLayer
370
18
48
1
60
0
100
AcDbLine
10
10.824193
20
13.845085
30
0
11
10.770866
21
13.839481
31
0
39
0
210
0
220
0
230
1
0
LINE
5
175
100
AcDbEntity
8
1
62
256
6
ByLayer
370
18
48
1
60
0
100
AcDbLine
10
10.207073
20
19.723122
30
0
11
10.215765
21
19.633884
31
0
39
0
210
0
220
0
230
1
0
LINE
5
176
100
AcDbEntity
8
1
62
256
6
ByLayer
370
18
48
1
60
0
100
AcDbLine
10
5.612311
20
13.855866
30
0
11
5.700306
21
13.866476
31
0
39
0
210
0
220
0
230
1
0
LINE
5
177
100
AcDbEntity
8
1
62
256
6
ByLayer
370
18
48
1
60
0
100
AcDbLine
10
10.580716
20
19.744848
30
0
11
10.563622
21
19.656662
31
0
39
0
210
0
220
0
230
1
0
LINE
5
178
100
AcDbEntity
8
1
62
256
6
ByLayer
370
18
48
1
60
0
100
AcDbLine
10
6.467419
20
13.297019
30
0
11
6.457368
21
13.386114
31
0
39
0
210
0
220
0
230
1
0
LINE
5
179
100
AcDbEntity
8
1
62
256
6
ByLayer
370
18
48
1
60
0
100
AcDbLine
10
11.03217
20
13.778925
30
0
11
11.01991
21
13.86776
31
0
39
0
210
0
220
0
230
1
0
LINE
5
17A
100
AcDbEntity
8
1
62
256
6
ByLayer
370
18
48
1
60
0
100
AcDbLine
10
10.100931
20
16.864463
30
0
11
10.127209
21
16.867224
31
0
39
0
210
0
220
0
230
1
0
LINE
5
17B
100
AcDbEntity
8
1
62
256
6
ByLayer
370
18
48
1
60
0
100
AcDbLine
10
5.134672
20
18.389431
30
0
11
5.595397
21
14.005925
31
0
39
0
210
0
220
0
230
1
0
LINE
5
17C
100
AcDbEntity
8
1
62
256
6
ByLayer
370
18
48
1
60
0
100
AcDbLine
10
5.11273
20
18.764486
30
0
11
5.19985
21
18.74787
31
0
39
0
210
0
220
0
230
1
0
LINE
5
17D
100
AcDbEntity
8
1
62
256
6
ByLayer
370
18
48
1
60
0
100
AcDbLine
10
11.02258
20
19.385637
30
0
11
10.939459
21
19.351128
31
0
39
0
210
0
220
0
230
1
0
LINE
5
17E
100
AcDbEntity
8
1
62
256
6
ByLayer
370
18
48
1
60
0
100
AcDbLine
10
11.062182
20
19.164274
30
0
11
10.972827
21
19.153521
31
0
39
0
210
0
220
0
230
1
0
LINE
5
17F
100
AcDbEntity
8
1
62
256
6
ByLayer
370
18
48
1
60
0
100
AcDbLine
10
6.169664
20
13.270863
30
0
11
6.162718
21
13.36023
31
0
39
0
210
0
220
0
230
1
0
LINE
5
180
100
AcDbEntity
8
1
62
256
6
ByLayer
370
18
48
1
60
0
100
AcDbLine
10
5.840249
20
19.26415
30
0
11
10.207073
21
19.723122
31
0
39
0
210
0
220
0
230
1
0
LINE
5
181
100
AcDbEntity
8
1
62
256
6
ByLayer
370
18
48
1
60
0
100
AcDbLine
10
11.561763
20
14.255654
30
0
11
11.473284
21
14.272127
31
0
39
0
210
0
220
0
230
1
0
LINE
5
182
100
AcDbEntity
8
1
62
256
6
ByLayer
370
18
48
1
60
0
100
AcDbLine
10
5.108377
20
18.68832
30
0
11
5.196797
21
18.694467
31
0
39
0
210
0
220
0
230
1
0
LINE
5
183
100
AcDbEntity
8
1
62
256
6
ByLayer
370
18
48
1
60
0
100
AcDbLine
10
11.130931
20
13.792313
30
0
11
11.117785
21
13.881028
31
0
39
0
210
0
220
0
230
1
0
LINE
5
184
100
AcDbEntity
8
1
62
256
6
ByLayer
370
18
48
1
60
0
100
AcDbLine
10
10.989589
20
19.004808
30
0
11
10.995216
21
18.951277
31
0
39
0
210
0
220
0
230
1
0
LINE
5
185
100
AcDbEntity
8
1
62
256
6
ByLayer
370
18
48
1
60
0
100
AcDbLine
10
5.840249
20
19.26415
30
0
11
5.84894
21
19.174912
31
0
39
0
210
0
220
0
230
1
0
LINE
5
186
100
AcDbEntity
8
1
62
256
6
ByLayer
370
18
48
1
60
0
100
AcDbLine
10
10.16235
20
16.532875
30
0
11
10.136073
21
16.530113
31
0
39
0
210
0
220
0
230
1
0
LINE
5
187
100
AcDbEntity
8
1
62
256
6
ByLayer
370
18
48
1
60
0
100
AcDbLine
10
10.983731
20
13.772849
30
0
11
10.972339
21
13.861793
31
0
39
0
210
0
220
0
230
1
0
LINE
5
188
100
AcDbEntity
8
1
62
256
6
ByLayer
370
18
48
1
60
0
100
AcDbLine
10
11.539821
20
14.63071
30
0
11
11.079096
21
19.014215
31
0
39
0
210
0
220
0
230
1
0
LINE
5
189
100
AcDbEntity
8
1
62
256
6
ByLayer
370
18
48
1
60
0
100
AcDbLine
10
5.690761
20
19.247292
30
0
11
5.700794
21
19.158205
31
0
39
0
210
0
220
0
230
1
0
LINE
5
18A
100
AcDbEntity
8
1
62
256
6
ByLayer
370
18
48
1
60
0
100
AcDbLine
10
6.317694
20
13.282428
30
0
11
6.308985
21
13.371654
31
0
39
0
210
0
220
0
230
1
0
LINE
5
18B
100
AcDbEntity
8
1
62
256
6
ByLayer
370
18
48
1
60
0
100
AcDbLine
10
11.554476
20
14.480413
30
0
11
11.464838
21
14.472353
31
0
39
0
210
0
220
0
230
1
0
LINE
5
18C
100
AcDbEntity
8
1
62
256
6
ByLayer
370
18
48
1
60
0
100
AcDbLine
10
5.115867
20
18.588556
30
0
11
5.20422
21
18.595598
31
0
39
0
210
0
220
0
230
1
0
LINE
5
18D
100
AcDbEntity
8
1
62
256
6
ByLayer
370
18
48
1
60
0
100
AcDbLine
10
11.566115
20
14.331821
30
0
11
11.476336
21
14.325531
31
0
39
0
210
0
220
0
230
1
0
LINE
5
18E
100
AcDbEntity
8
1
62
256
6
ByLayer
370
18
48
1
60
0
100
AcDbLine
10
11.204238
20
13.812424
30
0
11
11.169184
21
13.895128
31
0
39
0
210
0
220
0
230
1
0
LINE
5
18F
100
AcDbEntity
8
1
62
256
6
ByLayer
370
18
48
1
60
0
100
AcDbLine
10
11.079096
20
19.014215
30
0
11
10.989589
21
19.004808
31
0
39
0
210
0
220
0
230
1
0
LINE
5
190
100
AcDbEntity
8
1
62
256
6
ByLayer
370
18
48
1
60
0
100
AcDbLine
10
5.683544
20
14.01519
30
0
11
5.677917
21
14.068721
31
0
39
0
210
0
220
0
230
1
0
LINE
5
191
100
AcDbEntity
8
1
62
256
6
ByLayer
370
18
48
1
60
0
100
AcDbLine
10
5.84894
20
19.174912
30
0
11
5.902267
21
19.180517
31
0
39
0
210
0
220
0
230
1
0
LINE
5
192
100
AcDbEntity
8
1
62
256
6
ByLayer
370
18
48
1
60
0
100
AcDbLine
10
5.642323
20
19.241215
30
0
11
5.653223
21
19.152238
31
0
39
0
210
0
220
0
230
1
0
LINE
5
193
100
AcDbEntity
8
1
62
256
6
ByLayer
370
18
48
1
60
0
100
AcDbLine
10
10.834244
20
13.755991
30
0
11
10.824193
21
13.845085
31
0
39
0
210
0
220
0
230
1
0
LINE
5
194
100
AcDbEntity
8
1
62
256
6
ByLayer
370
18
48
1
60
0
100
AcDbLine
10
11.042673
20
19.312039
30
0
11
10.953548
21
19.299526
31
0
39
0
210
0
220
0
230
1
0
LINE
5
195
100
AcDbEntity
8
1
62
256
6
ByLayer
370
18
48
1
60
0
100
AcDbLine
10
10.504829
20
19.749278
30
0
11
10.510415
21
19.659768
31
0
39
0
210
0
220
0
230
1
0
LINE
5
196
100
AcDbEntity
8
1
62
256
6
ByLayer
370
18
48
1
60
0
100
AcDbLine
10
5.618403
20
13.807242
30
0
11
5.706289
21
13.818724
31
0
39
0
210
0
220
0
230
1
0
LINE
5
197
100
AcDbEntity
8
1
62
256
6
ByLayer
370
18
48
1
60
0
100
AcDbLine
10
11.444688
20
14.674833
30
0
11
11.450314
21
14.621302
31
0
39
0
210
0
220
0
230
1
0
LINE
5
198
100
AcDbEntity
8
1
62
256
6
ByLayer
370
18
48
1
60
0
100
AcDbLine
10
5.134672
20
18.389431
30
0
11
5.222819
21
18.398696
31
0
39
0
210
0
220
0
230
1
0
LINE
5
199
100
AcDbEntity
8
1
62
256
6
ByLayer
370
18
48
1
60
0
100
AcDbLine
10
11.558626
20
14.431585
30
0
11
11.468913
21
14.4244
31
0
39
0
210
0
220
0
230
1
0
LINE
5
19A
100
AcDbEntity
8
1
62
256
6
ByLayer
370
18
48
1
60
0
100
AcDbLine
10
6.510695
20
13.391719
30
0
11
6.457368
21
13.386114
31
0
39
0
210
0
220
0
230
1
0
LINE
5
19B
100
AcDbEntity
8
1
62
256
6
ByLayer
370
18
48
1
60
0
100
AcDbLine
10
6.26905
20
13.278301
30
0
11
6.261213
21
13.367601
31
0
39
0
210
0
220
0
230
1
0
LINE
5
19C
100
AcDbEntity
8
1
62
256
6
ByLayer
370
18
48
1
60
0
100
AcDbLine
10
6.495586
20
16.316504
30
0
11
6.520453
21
16.319118
31
0
39
0
210
0
220
0
230
1
0
LINE
5
19D
100
AcDbEntity
8
1
62
256
6
ByLayer
370
18
48
1
60
0
100
AcDbLine
10
5.631819
20
13.708101
30
0
11
5.719585
21
13.720472
31
0
39
0
210
0
220
0
230
1
0
LINE
5
19E
100
AcDbEntity
8
1
62
256
6
ByLayer
370
18
48
1
60
0
100
AcDbLine
10
5.651913
20
13.634504
30
0
11
5.733674
21
13.66887
31
0
39
0
210
0
220
0
230
1
0
LINE
5
19F
100
AcDbEntity
8
1
62
256
6
ByLayer
370
18
48
1
60
0
100
AcDbLine
10
11.05609
20
19.212899
30
0
11
10.966844
21
19.201274
31
0
39
0
210
0
220
0
230
1
0
LINE
5
1A0
100
AcDbEntity
8
1
62
256
6
ByLayer
370
18
48
1
60
0
100
AcDbLine
10
6.478015
20
16.483679
30
0
11
6.502882
21
16.486292
31
0
39
0
210
0
220
0
230
1
0
LINE
5
1A1
100
AcDbEntity
8
1
62
256
6
ByLayer
370
18
48
1
60
0
100
AcDbLine
10
5.470254
20
19.207717
30
0
11
5.503949
21
19.124869
31
0
39
0
210
0
220
0
230
1
0
LINE
5
1A2
100
AcDbEntity
8
1
62
256
6
ByLayer
370
18
48
1
60
0
100
AcDbLine
10
6.467419
20
13.297019
30
0
11
10.834244
21
13.755991
31
0
39
0
210
0
220
0
230
1
0
LINE
5
1A3
100
AcDbEntity
8
1
62
256
6
ByLayer
370
18
48
1
60
0
100
AcDbLine
10
5.120017
20
18.539727
30
0
11
5.208295
21
18.547645
31
0
39
0
210
0
220
0
230
1
0
LINE
5
1A4
100
AcDbEntity
8
1
62
256
6
ByLayer
370
18
48
1
60
0
100
AcDbLine
10
5.543562
20
19.227827
30
0
11
5.555348
21
19.13897
31
0
39
0
210
0
220
0
230
1
0
LINE
5
1A5
100
AcDbEntity
8
1
62
256
6
ByLayer
370
18
48
1
60
0
100
AcDbLine
10
11.539821
20
14.63071
30
0
11
11.450314
21
14.621302
31
0
39
0
210
0
220
0
230
1
0
LINE
5
1A6
100
AcDbEntity
8
1
62
256
6
ByLayer
370
18
48
1
60
0
100
AcDbLine
10
10.405443
20
19.741839
30
0
11
10.41192
21
19.652397
31
0
39
0
210
0
220
0
230
1
0
LINE
5
1A7
100
AcDbEntity
8
1
62
256
6
ByLayer
370
18
48
1
60
0
100
AcDbLine
10
10.162438
20
19.628279
30
0
11
10.215765
21
19.633884
31
0
39
0
210
0
220
0
230
1
0
LINE
5
1A8
100
AcDbEntity
8
1
62
256
6
ByLayer
370
18
48
1
60
0
100
AcDbLine
10
10.356799
20
19.737712
30
0
11
10.364148
21
19.648344
31
0
39
0
210
0
220
0
230
1
0
LINE
5
1A9
100
AcDbEntity
8
1
62
256
6
ByLayer
370
18
48
1
60
0
100
AcDbLine
10
6.538024
20
16.151943
30
0
11
6.513157
21
16.149329
31
0
39
0
210
0
220
0
230
1
0
LINE
5
1AA
100
AcDbEntity
8
1
62
256
6
ByLayer
370
18
48
1
60
0
100
AcDbLine
10
5.228445
20
18.345165
30
0
11
5.222819
21
18.398696
31
0
39
0
210
0
220
0
230
1
0
LINE
5
1AB
100
AcDbEntity
8
1
62
256
6
ByLayer
370
18
48
1
60
0
100
AcDbLine
10
10.144779
20
16.70005
30
0
11
10.118502
21
16.697288
31
0
39
0
210
0
220
0
230
1
0
LINE
5
1AC
100
AcDbEntity
8
1
62
256
6
ByLayer
370
18
48
1
60
0
100
AcDbLine
10
-5.998238
20
16.245035
30
0
11
-5.998238
21
12.82082
31
0
39
0
210
0
220
0
230
1
0
LINE
5
1AD
100
AcDbEntity
8
1
62
256
6
ByLayer
370
18
48
1
60
0
100
AcDbLine
10
-5.998238
20
-4.684574
30
0
11
-5.998238
21
-4.107553
31
0
39
0
210
0
220
0
230
1
0
LINE
5
1AE
100
AcDbEntity
8
1
62
256
6
ByLayer
370
18
48
0.05
60
0
100
AcDbLine
10
5.840249
20
-19.26415
30
0
11
10.207073
21
-19.723122
31
0
39
0
210
0
220
0
230
1
0
LINE
5
1AF
100
AcDbEntity
8
1
62
256
6
ByLayer
370
18
48
0.05
60
0
100
AcDbLine
10
11.539821
20
-14.63071
30
0
11
11.079096
21
-19.014215
31
0
39
0
210
0
220
0
230
1
0
MTEXT
5
333
100
AcDbEntity
8
SK6
62
256
6
ByLayer
370
18
48
1
60
0
100
AcDbMText
10
15.75
20
29.25
30
0
210
0
220
0
230
1
1
\W0.7828;3X  R820A-BR11SSYP06
40
3
41
0
44
1.084337
50
0
71
7
72
5
7
iso_b_vert
0
MTEXT
5
337
100
AcDbEntity
8
2
62
256
6
ByLayer
370
18
48
1
60
0
100
AcDbMText
10
38.238143
20
-13.390792
30
0
210
0
220
0
230
1
1
\W0.8127;Dc= 39.5-45.0
40
3
41
0
44
1.084337
50
89.9999999999996
71
7
72
5
7
iso_b_vert
0
DIMENSION
5
341
100
AcDbEntity
8
2
62
256
6
ByLayer
370
13
48
1
60
0
100
AcDbDimension
2
DimnDraft3D1
10
39.454858
20
-19.755152
30
0
11
39.454858
21
-0.436787
31
0
70
32
71
5
72
1
41
1
210
0
220
0
230
1
3
Standard
100
AcDbAlignedDimension
13
13
23
19.75
33
0
14
12.470402
24
-19.755152
34
0
50
90
100
AcDbRotatedDimension
1001
ACAD
1000
DSTYLE
1002
{
1070
    74
1070
     0
1070
   279
1070
     0
1070
   172
1070
     1
1070
   173
1070
     1
1070
   340
1005
334
1070
   272
1070
     3
1070
    77
1070
     1
1070
    73
1070
     0
1070
   171
1070
     4
1070
   274
1070
     4
1070
   177
1070
     7
1070
   176
1070
     7
1070
   178
1070
     7
1070
    78
1070
     8
1070
    41
1041
3.175
1070
   147
1041
1.5
1070
    42
1041
2.0
1070
    44
1041
2.0
1070
   140
1041
3.0
1070
   343
1005
0
1070
   344
1005
0
1002
}
0
DIMENSION
5
34B
100
AcDbEntity
8
2
62
256
6
ByLayer
370
13
48
1
60
0
100
AcDbDimension
2
DimnDraft3D2
10
12
20
19.75
30
0
11
19.600928
21
12.007277
31
0
70
34
71
5
72
1
41
1
210
0
220
0
230
1
3
Standard
100
AcDb2LineAngularDimension
13
11.539821
23
14.63071
33
0
14
11.079096
24
19.014215
34
0
15
11
25
19.75
35
0
16
21.830362
26
9.999885
36
0
40
0
0
DIMENSION
5
355
100
AcDbEntity
8
2
62
256
6
ByLayer
370
13
48
1
60
0
100
AcDbDimension
2
DimnDraft3D3
10
11
20
43.5
30
0
11
2.807895
21
43.5
31
0
70
32
71
5
72
1
41
1
210
0
220
0
230
1
3
Standard
100
AcDbAlignedDimension
13
0
23
2
33
0
14
11
24
21.75
34
0
50
0
100
AcDbRotatedDimension
1001
ACAD
1000
DSTYLE
1002
{
1070
   279
1070
     0
1070
   172
1070
     1
1070
   173
1070
     1
1070
   340
1005
334
1070
   271
1070
     1
1070
   272
1070
     3
1070
    77
1070
     1
1070
    73
1070
     0
1070
   171
1070
     4
1070
   274
1070
     4
1070
   177
1070
     7
1070
   176
1070
     7
1070
   178
1070
     7
1070
    41
1041
3.175
1070
   147
1041
1.5
1070
    42
1041
2.0
1070
    44
1041
2.0
1070
   140
1041
3.0
1070
   343
1005
0
1070
   344
1005
0
1002
}
0
ENDSEC
0
SECTION
2
OBJECTS
0
DICTIONARY
5
3c3
330
0
100
AcDbDictionary
280
0
281
1
3
ACAD_GROUP
350
3c4
3
ACAD_GROUP
350
3c5
3
ACAD_MLINESTYLE
350
3c6
0
DICTIONARY
5
3c4
330
0
100
AcDbDictionary
280
0
281
1
0
DICTIONARY
5
3c5
330
0
100
AcDbDictionary
280
0
281
1
3
_DC
350
35F
3
<200934600NDI000_00>
350
360
3
<200935605MOD000_00>
350
35E
0
DICTIONARY
5
3c6
330
0
100
AcDbDictionary
280
0
281
1
3
Standard
350
18
0
GROUP
5
35F
330
3c5
100
AcDbGroup
300

70
0
71
1
340
74
340
76
340
337
0
GROUP
5
360
330
3c5
100
AcDbGroup
300

70
0
71
1
340
79
340
7B
340
7C
340
7D
340
7E
340
7F
340
80
340
81
340
82
340
83
340
84
340
85
340
86
340
87
340
89
340
8A
340
8B
340
8C
340
8D
340
8E
340
8F
340
90
340
91
340
92
340
93
340
94
340
95
340
96
340
97
340
98
340
99
340
9A
340
9B
340
9C
340
9D
340
9E
340
9F
340
A0
340
A1
340
A2
340
A3
340
A4
340
A5
340
A6
340
A7
340
A8
340
A9
340
AA
340
AB
340
AC
340
AD
340
AE
340
AF
340
B0
340
B1
340
B2
340
B3
340
B4
340
B5
340
B6
340
B7
340
B8
340
B9
340
BA
340
BB
340
BC
340
BD
340
BE
340
BF
340
C0
340
C1
340
C2
340
C3
340
C4
340
C5
340
C6
340
C7
340
C8
340
C9
340
CA
340
CB
340
CC
340
CD
340
CE
340
CF
340
D0
340
D1
340
D2
340
D3
340
D4
340
D5
340
D6
340
D7
340
D8
340
D9
340
DA
340
DB
340
DC
340
DD
340
DE
340
DF
340
E0
340
E1
340
E2
340
E3
340
E4
340
E5
340
E6
340
E7
340
E8
340
E9
340
EA
340
EB
340
EC
340
ED
340
EE
340
EF
340
F0
340
F1
340
F2
340
F3
340
F4
340
F5
340
F6
340
F7
340
F8
340
F9
340
FA
340
FB
340
FC
340
FD
340
FE
340
FF
340
100
340
101
340
102
340
103
340
104
340
105
340
106
340
107
340
108
340
109
340
10A
340
10B
340
10C
340
10D
340
10E
340
10F
340
110
340
111
340
112
340
113
340
114
340
115
340
116
340
117
340
118
340
119
340
11A
340
11B
340
11C
340
11D
340
11E
340
11F
340
120
340
121
340
122
340
123
340
124
340
125
340
126
340
127
340
128
340
129
340
12A
340
12B
340
12C
340
12D
340
12E
340
12F
340
130
340
131
340
132
340
133
340
134
340
135
340
136
340
137
340
138
340
139
340
13A
340
13B
340
13C
340
13D
340
13E
340
13F
340
140
340
141
340
142
340
143
340
144
340
145
340
146
340
147
340
148
340
149
340
14A
340
14B
340
14C
340
14D
340
14E
340
14F
340
150
340
151
340
152
340
153
340
154
340
155
340
156
340
157
340
158
340
159
340
15A
340
15B
340
15C
340
15D
340
15E
340
15F
340
160
340
161
340
162
340
163
340
164
340
165
340
166
340
167
340
168
340
169
340
16A
340
16B
340
16C
340
16D
340
16E
340
16F
340
170
340
171
340
172
340
173
340
174
340
175
340
176
340
177
340
178
340
179
340
17A
340
17B
340
17C
340
17D
340
17E
340
17F
340
180
340
181
340
182
340
183
340
184
340
185
340
186
340
187
340
188
340
189
340
18A
340
18B
340
18C
340
18D
340
18E
340
18F
340
190
340
191
340
192
340
193
340
194
340
195
340
196
340
197
340
198
340
199
340
19A
340
19B
340
19C
340
19D
340
19E
340
19F
340
1A0
340
1A1
340
1A2
340
1A3
340
1A4
340
1A5
340
1A6
340
1A7
340
1A8
340
1A9
340
1AA
340
1AB
340
1B0
340
1B1
340
1B2
340
1B3
340
1B4
340
1B5
340
1B6
340
1B7
340
1B8
340
1B9
340
1BA
340
1BB
340
1BC
340
1BD
340
1BE
340
1BF
340
1C0
340
1C1
340
1C2
340
1C3
340
1C4
340
1C5
340
1C6
340
1C7
340
1C8
340
1C9
340
1CA
340
1CB
340
1CC
340
1CD
340
1CE
340
1CF
340
1D0
340
1D1
340
1D2
340
1D3
340
1D4
340
1D5
340
1D6
340
1D7
340
1D8
340
1D9
340
1DA
340
1DB
340
1DC
340
1DD
340
1DE
340
1DF
340
1E0
340
1E1
340
1E2
340
1E3
340
1E4
340
1E5
340
1E6
340
1E7
340
1E8
340
1E9
340
1EA
340
1EB
340
1EC
340
1ED
340
1EE
340
1EF
340
1F0
340
1F1
340
1F2
340
1F3
340
1F4
340
1F5
340
1F6
340
1F7
340
1F8
340
1F9
340
1FA
340
1FB
340
1FC
340
1FD
340
1FE
340
1FF
340
200
340
201
340
202
340
203
340
204
340
205
340
206
340
207
340
208
340
209
340
20A
340
20B
340
20C
340
20D
340
20E
340
20F
340
210
340
211
340
212
340
213
340
214
340
215
340
216
340
217
340
218
340
219
340
21A
340
21B
340
21C
340
21D
340
21E
340
21F
340
220
340
221
340
222
340
223
340
224
340
225
340
226
340
227
340
228
340
229
340
22A
340
22B
340
22C
340
22D
340
22E
340
22F
340
230
340
231
340
232
340
233
340
234
340
235
340
236
340
237
340
238
340
239
340
23A
340
23B
340
23C
340
23D
340
23E
340
23F
340
240
340
241
340
242
340
243
340
244
340
245
340
246
340
247
340
248
340
249
340
24A
340
24B
340
24C
340
24D
340
24E
340
24F
340
250
340
251
340
252
340
253
340
254
340
255
340
256
340
257
340
258
340
259
340
25A
340
25B
340
25C
340
25D
340
25E
340
25F
340
260
340
261
340
262
340
263
340
264
340
265
340
266
340
267
340
268
340
269
340
26A
340
26B
340
26C
340
26D
340
26E
340
26F
340
270
340
271
340
272
340
273
340
274
340
275
340
276
340
277
340
278
340
279
340
27A
340
27B
340
27C
340
27D
340
27E
340
27F
340
280
340
281
340
282
340
283
340
284
340
285
340
286
340
287
340
288
340
289
340
28A
340
28B
340
28C
340
28D
340
28E
340
28F
340
29A
340
29B
340
29C
340
29D
340
29E
340
29F
340
2A0
340
2A1
340
2A2
340
2A3
340
2A4
340
2A5
340
2A6
340
2A7
340
2A8
340
2A9
340
2AA
340
2AB
340
2AC
340
2AD
340
2AE
340
2AF
340
2B0
340
2B1
340
2B2
340
2B3
340
2B4
340
2B5
340
2B6
340
2B7
340
2B8
340
2B9
340
2BA
340
2BB
340
2BC
340
2BD
340
2BE
340
2BF
340
2C0
340
2C1
340
2C2
340
2C3
340
2C4
340
2C5
340
2C6
340
2C7
340
2C8
340
2C9
340
2CA
340
2CB
340
2CC
340
2CD
340
2CE
340
2CF
340
2D0
340
2D1
340
2D2
340
2D3
340
2D4
340
2D5
340
2D6
340
2D7
340
2D8
340
2D9
340
2DA
340
2DB
340
2DC
340
2DD
340
2DE
340
2DF
340
2E0
340
2E1
340
2E2
340
2E3
340
2E4
340
2E5
340
2E6
340
2E7
340
2E8
340
2E9
340
2EA
340
2EB
340
2EC
340
2ED
340
2EE
340
2EF
340
2F0
340
2F1
340
2F2
340
2F3
340
2F4
340
2F5
340
2F6
340
2F7
340
2F8
340
2F9
340
2FA
340
2FB
340
2FC
340
2FD
340
2FE
340
2FF
340
300
340
301
340
302
340
303
340
304
340
305
340
306
340
307
340
308
340
309
340
30A
340
30B
340
30C
340
30D
340
30E
340
30F
340
310
340
311
340
312
340
313
340
314
340
315
340
316
340
317
340
318
340
319
340
31A
340
31B
340
31C
340
31D
340
31E
340
31F
340
320
340
321
340
322
340
323
340
324
340
325
340
326
340
327
340
328
340
329
340
32A
340
32B
340
32C
340
32D
340
32E
340
32F
340
330
340
331
340
332
0
GROUP
5
35E
330
3c5
100
AcDbGroup
300

70
0
71
1
340
6C
340
6E
340
70
340
72
340
74
340
76
340
77
340
78
340
79
340
7B
340
7C
340
7D
340
7E
340
7F
340
80
340
81
340
82
340
83
340
84
340
85
340
86
340
87
340
89
340
8A
340
8B
340
8C
340
8D
340
8E
340
8F
340
90
340
91
340
92
340
93
340
94
340
95
340
96
340
97
340
98
340
99
340
9A
340
9B
340
9C
340
9D
340
9E
340
9F
340
A0
340
A1
340
A2
340
A3
340
A4
340
A5
340
A6
340
A7
340
A8
340
A9
340
AA
340
AB
340
AC
340
AD
340
AE
340
AF
340
B0
340
B1
340
B2
340
B3
340
B4
340
B5
340
B6
340
B7
340
B8
340
B9
340
BA
340
BB
340
BC
340
BD
340
BE
340
BF
340
C0
340
C1
340
C2
340
C3
340
C4
340
C5
340
C6
340
C7
340
C8
340
C9
340
CA
340
CB
340
CC
340
CD
340
CE
340
CF
340
D0
340
D1
340
D2
340
D3
340
D4
340
D5
340
D6
340
D7
340
D8
340
D9
340
DA
340
DB
340
DC
340
DD
340
DE
340
DF
340
E0
340
E1
340
E2
340
E3
340
E4
340
E5
340
E6
340
E7
340
E8
340
E9
340
EA
340
EB
340
EC
340
ED
340
EE
340
EF
340
F0
340
F1
340
F2
340
F3
340
F4
340
F5
340
F6
340
F7
340
F8
340
F9
340
FA
340
FB
340
FC
340
FD
340
FE
340
FF
340
100
340
101
340
102
340
103
340
104
340
105
340
106
340
107
340
108
340
109
340
10A
340
10B
340
10C
340
10D
340
10E
340
10F
340
110
340
111
340
112
340
113
340
114
340
115
340
116
340
117
340
118
340
119
340
11A
340
11B
340
11C
340
11D
340
11E
340
11F
340
120
340
121
340
122
340
123
340
124
340
125
340
126
340
127
340
128
340
129
340
12A
340
12B
340
12C
340
12D
340
12E
340
12F
340
130
340
131
340
132
340
133
340
134
340
135
340
136
340
137
340
138
340
139
340
13A
340
13B
340
13C
340
13D
340
13E
340
13F
340
140
340
141
340
142
340
143
340
144
340
145
340
146
340
147
340
148
340
149
340
14A
340
14B
340
14C
340
14D
340
14E
340
14F
340
150
340
151
340
152
340
153
340
154
340
155
340
156
340
157
340
158
340
159
340
15A
340
15B
340
15C
340
15D
340
15E
340
15F
340
160
340
161
340
162
340
163
340
164
340
165
340
166
340
167
340
168
340
169
340
16A
340
16B
340
16C
340
16D
340
16E
340
16F
340
170
340
171
340
172
340
173
340
174
340
175
340
176
340
177
340
178
340
179
340
17A
340
17B
340
17C
340
17D
340
17E
340
17F
340
180
340
181
340
182
340
183
340
184
340
185
340
186
340
187
340
188
340
189
340
18A
340
18B
340
18C
340
18D
340
18E
340
18F
340
190
340
191
340
192
340
193
340
194
340
195
340
196
340
197
340
198
340
199
340
19A
340
19B
340
19C
340
19D
340
19E
340
19F
340
1A0
340
1A1
340
1A2
340
1A3
340
1A4
340
1A5
340
1A6
340
1A7
340
1A8
340
1A9
340
1AA
340
1AB
340
1AC
340
1AD
340
1AE
340
1AF
340
1B0
340
1B1
340
1B2
340
1B3
340
1B4
340
1B5
340
1B6
340
1B7
340
1B8
340
1B9
340
1BA
340
1BB
340
1BC
340
1BD
340
1BE
340
1BF
340
1C0
340
1C1
340
1C2
340
1C3
340
1C4
340
1C5
340
1C6
340
1C7
340
1C8
340
1C9
340
1CA
340
1CB
340
1CC
340
1CD
340
1CE
340
1CF
340
1D0
340
1D1
340
1D2
340
1D3
340
1D4
340
1D5
340
1D6
340
1D7
340
1D8
340
1D9
340
1DA
340
1DB
340
1DC
340
1DD
340
1DE
340
1DF
340
1E0
340
1E1
340
1E2
340
1E3
340
1E4
340
1E5
340
1E6
340
1E7
340
1E8
340
1E9
340
1EA
340
1EB
340
1EC
340
1ED
340
1EE
340
1EF
340
1F0
340
1F1
340
1F2
340
1F3
340
1F4
340
1F5
340
1F6
340
1F7
340
1F8
340
1F9
340
1FA
340
1FB
340
1FC
340
1FD
340
1FE
340
1FF
340
200
340
201
340
202
340
203
340
204
340
205
340
206
340
207
340
208
340
209
340
20A
340
20B
340
20C
340
20D
340
20E
340
20F
340
210
340
211
340
212
340
213
340
214
340
215
340
216
340
217
340
218
340
219
340
21A
340
21B
340
21C
340
21D
340
21E
340
21F
340
220
340
221
340
222
340
223
340
224
340
225
340
226
340
227
340
228
340
229
340
22A
340
22B
340
22C
340
22D
340
22E
340
22F
340
230
340
231
340
232
340
233
340
234
340
235
340
236
340
237
340
238
340
239
340
23A
340
23B
340
23C
340
23D
340
23E
340
23F
340
240
340
241
340
242
340
243
340
244
340
245
340
246
340
247
340
248
340
249
340
24A
340
24B
340
24C
340
24D
340
24E
340
24F
340
250
340
251
340
252
340
253
340
254
340
255
340
256
340
257
340
258
340
259
340
25A
340
25B
340
25C
340
25D
340
25E
340
25F
340
260
340
261
340
262
340
263
340
264
340
265
340
266
340
267
340
268
340
269
340
26A
340
26B
340
26C
340
26D
340
26E
340
26F
340
270
340
271
340
272
340
273
340
274
340
275
340
276
340
277
340
278
340
279
340
27A
340
27B
340
27C
340
27D
340
27E
340
27F
340
280
340
281
340
282
340
283
340
284
340
285
340
286
340
287
340
288
340
289
340
28A
340
28B
340
28C
340
28D
340
28E
340
28F
340
290
340
291
340
292
340
293
340
294
340
295
340
296
340
297
340
298
340
299
340
29A
340
29B
340
29C
340
29D
340
29E
340
29F
340
2A0
340
2A1
340
2A2
340
2A3
340
2A4
340
2A5
340
2A6
340
2A7
340
2A8
340
2A9
340
2AA
340
2AB
340
2AC
340
2AD
340
2AE
340
2AF
340
2B0
340
2B1
340
2B2
340
2B3
340
2B4
340
2B5
340
2B6
340
2B7
340
2B8
340
2B9
340
2BA
340
2BB
340
2BC
340
2BD
340
2BE
340
2BF
340
2C0
340
2C1
340
2C2
340
2C3
340
2C4
340
2C5
340
2C6
340
2C7
340
2C8
340
2C9
340
2CA
340
2CB
340
2CC
340
2CD
340
2CE
340
2CF
340
2D0
340
2D1
340
2D2
340
2D3
340
2D4
340
2D5
340
2D6
340
2D7
340
2D8
340
2D9
340
2DA
340
2DB
340
2DC
340
2DD
340
2DE
340
2DF
340
2E0
340
2E1
340
2E2
340
2E3
340
2E4
340
2E5
340
2E6
340
2E7
340
2E8
340
2E9
340
2EA
340
2EB
340
2EC
340
2ED
340
2EE
340
2EF
340
2F0
340
2F1
340
2F2
340
2F3
340
2F4
340
2F5
340
2F6
340
2F7
340
2F8
340
2F9
340
2FA
340
2FB
340
2FC
340
2FD
340
2FE
340
2FF
340
300
340
301
340
302
340
303
340
304
340
305
340
306
340
307
340
308
340
309
340
30A
340
30B
340
30C
340
30D
340
30E
340
30F
340
310
340
311
340
312
340
313
340
314
340
315
340
316
340
317
340
318
340
319
340
31A
340
31B
340
31C
340
31D
340
31E
340
31F
340
320
340
321
340
322
340
323
340
324
340
325
340
326
340
327
340
328
340
329
340
32A
340
32B
340
32C
340
32D
340
32E
340
32F
340
330
340
331
340
332
340
74
340
76
340
337
340
79
340
7B
340
7C
340
7D
340
7E
340
7F
340
80
340
81
340
82
340
83
340
84
340
85
340
86
340
87
340
89
340
8A
340
8B
340
8C
340
8D
340
8E
340
8F
340
90
340
91
340
92
340
93
340
94
340
95
340
96
340
97
340
98
340
99
340
9A
340
9B
340
9C
340
9D
340
9E
340
9F
340
A0
340
A1
340
A2
340
A3
340
A4
340
A5
340
A6
340
A7
340
A8
340
A9
340
AA
340
AB
340
AC
340
AD
340
AE
340
AF
340
B0
340
B1
340
B2
340
B3
340
B4
340
B5
340
B6
340
B7
340
B8
340
B9
340
BA
340
BB
340
BC
340
BD
340
BE
340
BF
340
C0
340
C1
340
C2
340
C3
340
C4
340
C5
340
C6
340
C7
340
C8
340
C9
340
CA
340
CB
340
CC
340
CD
340
CE
340
CF
340
D0
340
D1
340
D2
340
D3
340
D4
340
D5
340
D6
340
D7
340
D8
340
D9
340
DA
340
DB
340
DC
340
DD
340
DE
340
DF
340
E0
340
E1
340
E2
340
E3
340
E4
340
E5
340
E6
340
E7
340
E8
340
E9
340
EA
340
EB
340
EC
340
ED
340
EE
340
EF
340
F0
340
F1
340
F2
340
F3
340
F4
340
F5
340
F6
340
F7
340
F8
340
F9
340
FA
340
FB
340
FC
340
FD
340
FE
340
FF
340
100
340
101
340
102
340
103
340
104
340
105
340
106
340
107
340
108
340
109
340
10A
340
10B
340
10C
340
10D
340
10E
340
10F
340
110
340
111
340
112
340
113
340
114
340
115
340
116
340
117
340
118
340
119
340
11A
340
11B
340
11C
340
11D
340
11E
340
11F
340
120
340
121
340
122
340
123
340
124
340
125
340
126
340
127
340
128
340
129
340
12A
340
12B
340
12C
340
12D
340
12E
340
12F
340
130
340
131
340
132
340
133
340
134
340
135
340
136
340
137
340
138
340
139
340
13A
340
13B
340
13C
340
13D
340
13E
340
13F
340
140
340
141
340
142
340
143
340
144
340
145
340
146
340
147
340
148
340
149
340
14A
340
14B
340
14C
340
14D
340
14E
340
14F
340
150
340
151
340
152
340
153
340
154
340
155
340
156
340
157
340
158
340
159
340
15A
340
15B
340
15C
340
15D
340
15E
340
15F
340
160
340
161
340
162
340
163
340
164
340
165
340
166
340
167
340
168
340
169
340
16A
340
16B
340
16C
340
16D
340
16E
340
16F
340
170
340
171
340
172
340
173
340
174
340
175
340
176
340
177
340
178
340
179
340
17A
340
17B
340
17C
340
17D
340
17E
340
17F
340
180
340
181
340
182
340
183
340
184
340
185
340
186
340
187
340
188
340
189
340
18A
340
18B
340
18C
340
18D
340
18E
340
18F
340
190
340
191
340
192
340
193
340
194
340
195
340
196
340
197
340
198
340
199
340
19A
340
19B
340
19C
340
19D
340
19E
340
19F
340
1A0
340
1A1
340
1A2
340
1A3
340
1A4
340
1A5
340
1A6
340
1A7
340
1A8
340
1A9
340
1AA
340
1AB
340
1B0
340
1B1
340
1B2
340
1B3
340
1B4
340
1B5
340
1B6
340
1B7
340
1B8
340
1B9
340
1BA
340
1BB
340
1BC
340
1BD
340
1BE
340
1BF
340
1C0
340
1C1
340
1C2
340
1C3
340
1C4
340
1C5
340
1C6
340
1C7
340
1C8
340
1C9
340
1CA
340
1CB
340
1CC
340
1CD
340
1CE
340
1CF
340
1D0
340
1D1
340
1D2
340
1D3
340
1D4
340
1D5
340
1D6
340
1D7
340
1D8
340
1D9
340
1DA
340
1DB
340
1DC
340
1DD
340
1DE
340
1DF
340
1E0
340
1E1
340
1E2
340
1E3
340
1E4
340
1E5
340
1E6
340
1E7
340
1E8
340
1E9
340
1EA
340
1EB
340
1EC
340
1ED
340
1EE
340
1EF
340
1F0
340
1F1
340
1F2
340
1F3
340
1F4
340
1F5
340
1F6
340
1F7
340
1F8
340
1F9
340
1FA
340
1FB
340
1FC
340
1FD
340
1FE
340
1FF
340
200
340
201
340
202
340
203
340
204
340
205
340
206
340
207
340
208
340
209
340
20A
340
20B
340
20C
340
20D
340
20E
340
20F
340
210
340
211
340
212
340
213
340
214
340
215
340
216
340
217
340
218
340
219
340
21A
340
21B
340
21C
340
21D
340
21E
340
21F
340
220
340
221
340
222
340
223
340
224
340
225
340
226
340
227
340
228
340
229
340
22A
340
22B
340
22C
340
22D
340
22E
340
22F
340
230
340
231
340
232
340
233
340
234
340
235
340
236
340
237
340
238
340
239
340
23A
340
23B
340
23C
340
23D
340
23E
340
23F
340
240
340
241
340
242
340
243
340
244
340
245
340
246
340
247
340
248
340
249
340
24A
340
24B
340
24C
340
24D
340
24E
340
24F
340
250
340
251
340
252
340
253
340
254
340
255
340
256
340
257
340
258
340
259
340
25A
340
25B
340
25C
340
25D
340
25E
340
25F
340
260
340
261
340
262
340
263
340
264
340
265
340
266
340
267
340
268
340
269
340
26A
340
26B
340
26C
340
26D
340
26E
340
26F
340
270
340
271
340
272
340
273
340
274
340
275
340
276
340
277
340
278
340
279
340
27A
340
27B
340
27C
340
27D
340
27E
340
27F
340
280
340
281
340
282
340
283
340
284
340
285
340
286
340
287
340
288
340
289
340
28A
340
28B
340
28C
340
28D
340
28E
340
28F
340
29A
340
29B
340
29C
340
29D
340
29E
340
29F
340
2A0
340
2A1
340
2A2
340
2A3
340
2A4
340
2A5
340
2A6
340
2A7
340
2A8
340
2A9
340
2AA
340
2AB
340
2AC
340
2AD
340
2AE
340
2AF
340
2B0
340
2B1
340
2B2
340
2B3
340
2B4
340
2B5
340
2B6
340
2B7
340
2B8
340
2B9
340
2BA
340
2BB
340
2BC
340
2BD
340
2BE
340
2BF
340
2C0
340
2C1
340
2C2
340
2C3
340
2C4
340
2C5
340
2C6
340
2C7
340
2C8
340
2C9
340
2CA
340
2CB
340
2CC
340
2CD
340
2CE
340
2CF
340
2D0
340
2D1
340
2D2
340
2D3
340
2D4
340
2D5
340
2D6
340
2D7
340
2D8
340
2D9
340
2DA
340
2DB
340
2DC
340
2DD
340
2DE
340
2DF
340
2E0
340
2E1
340
2E2
340
2E3
340
2E4
340
2E5
340
2E6
340
2E7
340
2E8
340
2E9
340
2EA
340
2EB
340
2EC
340
2ED
340
2EE
340
2EF
340
2F0
340
2F1
340
2F2
340
2F3
340
2F4
340
2F5
340
2F6
340
2F7
340
2F8
340
2F9
340
2FA
340
2FB
340
2FC
340
2FD
340
2FE
340
2FF
340
300
340
301
340
302
340
303
340
304
340
305
340
306
340
307
340
308
340
309
340
30A
340
30B
340
30C
340
30D
340
30E
340
30F
340
310
340
311
340
312
340
313
340
314
340
315
340
316
340
317
340
318
340
319
340
31A
340
31B
340
31C
340
31D
340
31E
340
31F
340
320
340
321
340
322
340
323
340
324
340
325
340
326
340
327
340
328
340
329
340
32A
340
32B
340
32C
340
32D
340
32E
340
32F
340
330
340
331
340
332
340
333
340
337
340
341
340
34B
340
355
0
MLINESTYLE
5
18
330
3c6
100
AcDbMlineStyle
2
Standard
70
0
3

62
256
51
90
52
90
71
2
49
-0.5
62
256
6
ByLayer
49
0.5
62
256
6
ByLayer
0
RASTERVARIABLES
5
3b1
330

100
AcDbRasterVariables
90
0
70
1
71
1
72
1
0
ENDSEC
0
EOF
