0
SECTION
2
HEADER
9
$ACADVER
1
AC1015
9
$DWGCODEPAGE
3
ANSI_1252
9
$HANDSEED
5
380
9
$ANGBASE
50
0
9
$ANGDIR
70
0
9
$ATTMODE
70
1
9
$AUNITS
70
0
9
$AUPREC
70
0
9
$CECOLOR
62
256
9
$CELTSCALE
40
1
9
$CELTYPE
6
ByLayer
9
$CELWEIGHT
370
18
9
$CLAYER
8
0
9
$CMLJUST
70
0
9
$CMLSCALE
40
1
9
$CMLSTYLE
2
Standard
9
$DIMSTYLE
2
Standard
9
$TEXTSIZE
40
0.2
9
$TEXTSTYLE
7
Standard
9
$LUNITS
70
2
9
$LUPREC
70
4
9
$EXTNAMES
290
1
9
$INSUNITS
70
4
9
$LTSCALE
40
1
9
$LWDISPLAY
290
1
9
$PDMODE
70
0
9
$PDSIZE
40
0
9
$PLINEGEN
70
0
0
ENDSEC
0
SECTION
2
CLASSES
0
CLASS
1
RASTERVARIABLES
2
AcDbRasterVariables
3
ISM
90
0
280
0
281
0
0
ENDSEC
0
SECTION
2
TABLES
0
TABLE
2
VPORT
5
376
100
AcDbSymbolTable
0
VPORT
5
1
100
AcDbSymbolTableRecord
100
AcDbViewportTableRecord
2
*Active
70
0
10
0
20
0
11
1
21
1
12
-1
22
1
13
0
23
0
14
0.5
24
0.5
15
10
25
10
16
0
26
0
36
1
17
0
27
0
37
0
0
ENDTAB
0
TABLE
2
LTYPE
5
377
100
AcDbSymbolTable
0
LTYPE
5
14
100
AcDbSymbolTableRecord
100
AcDbLinetypeTableRecord
70
0
2
ByBlock
3

72
65
73
0
40
0
0
LTYPE
5
15
100
AcDbSymbolTableRecord
100
AcDbLinetypeTableRecord
70
0
2
ByLayer
3

72
65
73
0
40
0
0
LTYPE
5
16
100
AcDbSymbolTableRecord
100
AcDbLinetypeTableRecord
70
0
2
CONTINUOUS
3
Solid line
72
65
73
0
40
0
0
LTYPE
5
6A
100
AcDbSymbolTableRecord
100
AcDbLinetypeTableRecord
70
0
2
CENTER
3
____ _ ____ _ ____ _ ____
72
65
73
4
40
47.5
49
22
74
0
49
-8.5
74
0
49
8.5
74
0
49
-8.5
74
0
0
LTYPE
5
6B
100
AcDbSymbolTableRecord
100
AcDbLinetypeTableRecord
70
0
2
DASHED
3
__ __ __ __ __ __ __ __ __
72
65
73
2
40
25.72
49
12.86
74
0
49
-12.86
74
0
0
ENDTAB
0
TABLE
2
LAYER
5
378
100
AcDbSymbolTable
0
LAYER
5
10
100
AcDbSymbolTableRecord
100
AcDbLayerTableRecord
2
0
70
0
62
7
6
CONTINUOUS
290
1
370
-3
390
0
0
LAYER
5
6D
100
AcDbSymbolTableRecord
100
AcDbLayerTableRecord
2
81
70
0
62
-3
6
CONTINUOUS
290
1
370
-3
390
0
0
LAYER
5
6F
100
AcDbSymbolTableRecord
100
AcDbLayerTableRecord
2
80
70
0
62
-6
6
CONTINUOUS
290
1
370
-3
390
0
0
LAYER
5
72
100
AcDbSymbolTableRecord
100
AcDbLayerTableRecord
2
1
70
0
62
4
6
CONTINUOUS
290
1
370
-3
390
0
0
LAYER
5
78
100
AcDbSymbolTableRecord
100
AcDbLayerTableRecord
2
4
70
0
62
-2
6
CENTER
290
1
370
-3
390
0
0
LAYER
5
2E4
100
AcDbSymbolTableRecord
100
AcDbLayerTableRecord
2
2
70
0
62
7
6
CONTINUOUS
290
1
370
-3
390
0
0
LAYER
5
361
100
AcDbSymbolTableRecord
100
AcDbLayerTableRecord
2
SK4
70
0
62
2
6
CENTER
290
1
370
-3
390
0
0
LAYER
5
362
100
AcDbSymbolTableRecord
100
AcDbLayerTableRecord
2
SK1
70
0
62
4
6
CONTINUOUS
290
1
370
-3
390
0
0
LAYER
5
363
100
AcDbSymbolTableRecord
100
AcDbLayerTableRecord
2
SK6
70
0
62
5
6
CONTINUOUS
290
1
370
-3
390
0
0
ENDTAB
0
TABLE
2
STYLE
5
379
100
AcDbSymbolTable
0
STYLE
5
11
100
AcDbSymbolTableRecord
100
AcDbTextStyleTableRecord
2
Standard
3
txt
70
0
71
0
40
0
41
1
42
0
50
0
0
STYLE
5
2E0
100
AcDbSymbolTableRecord
100
AcDbTextStyleTableRecord
2
iso_b_vert
3
simplex.shx
70
0
71
0
40
0
41
1
42
0
50
0
0
STYLE
5
2E1
100
AcDbSymbolTableRecord
100
AcDbTextStyleTableRecord
2
DWGDirectTextStyle
3
simplex
70
0
71
0
40
0
41
1
42
0
50
0
0
ENDTAB
0
TABLE
2
DIMSTYLE
5
37a
100
AcDbSymbolTable
100
AcDbDimStyleTable
0
DIMSTYLE
105
27
100
AcDbSymbolTableRecord
100
AcDbDimStyleTableRecord
2
Standard
70
0
3
<>
41
0.18
42
0.0625
44
0.18
140
0.18
147
0.09
73
0
74
0
77
1
271
2
275
0
278
52
280
0
340
11
0
ENDTAB
0
TABLE
2
VIEW
5
37b
100
AcDbSymbolTable
0
ENDTAB
0
TABLE
2
UCS
5
37c
100
AcDbSymbolTable
0
ENDTAB
0
TABLE
2
APPID
5
37d
100
AcDbSymbolTable
0
APPID
5
12
100
AcDbSymbolTableRecord
100
AcDbRegAppTableRecord
2
ACAD
70
0
0
ENDTAB
0
TABLE
2
BLOCK_RECORD
5
37e
100
AcDbSymbolTable
0
BLOCK_RECORD
5
1F
100
AcDbSymbolTableRecord
100
AcDbBlockTableRecord
2
*Model_Space
340
0
70
0
0
BLOCK_RECORD
5
1B
100
AcDbSymbolTableRecord
100
AcDbBlockTableRecord
2
*Paper_Space
340
0
70
0
0
BLOCK_RECORD
5
23
100
AcDbSymbolTableRecord
100
AcDbBlockTableRecord
2
*Paper_Space0
340
0
70
0
0
BLOCK_RECORD
5
2E5
100
AcDbSymbolTableRecord
100
AcDbBlockTableRecord
2
DimnDraft3D1
340
0
70
0
0
BLOCK_RECORD
5
2EF
100
AcDbSymbolTableRecord
100
AcDbBlockTableRecord
2
DimnDraft3D2
340
0
70
0
0
BLOCK_RECORD
5
2F9
100
AcDbSymbolTableRecord
100
AcDbBlockTableRecord
2
DimnDraft3D3
340
0
70
0
0
ENDTAB
0
ENDSEC
0
SECTION
2
BLOCKS
0
BLOCK
5
20
100
AcDbEntity
8
0
100
AcDbBlockBegin
2
*Model_Space
70
0
10
0
20
0
30
0
3
*Model_Space
0
ENDBLK
5
21
100
AcDbEntity
8
0
100
AcDbBlockEnd
0
BLOCK
5
1C
100
AcDbEntity
8
0
100
AcDbBlockBegin
2
*Paper_Space
70
0
10
0
20
0
30
0
3
*Paper_Space
0
ENDBLK
5
1D
100
AcDbEntity
8
0
100
AcDbBlockEnd
0
BLOCK
5
24
100
AcDbEntity
8
0
100
AcDbBlockBegin
2
*Paper_Space0
70
0
10
0
20
0
30
0
3
*Paper_Space0
0
ENDBLK
5
25
100
AcDbEntity
8
0
100
AcDbBlockEnd
0
BLOCK
5
2EC
100
AcDbEntity
8
0
100
AcDbBlockBegin
2
DimnDraft3D1
70
0
10
0
20
0
30
0
3
DimnDraft3D1
0
MTEXT
5
2E6
100
AcDbEntity
8
2
62
256
6
ByLayer
370
18
48
1
60
0
100
AcDbMText
10
49.472386
20
0.315789
30
0
210
0
220
0
230
1
1
\W0.3160; 
40
3
41
0
44
1.084337
50
90
71
7
72
5
7
iso_b_vert
0
LINE
5
2E7
100
AcDbEntity
8
2
62
256
6
ByLayer
370
13
48
1
60
0
100
AcDbLine
10
20
20
31
30
0
11
52.222386
21
31
31
0
39
0
210
0
220
0
230
1
0
LINE
5
2E8
100
AcDbEntity
8
2
62
256
6
ByLayer
370
13
48
1
60
0
100
AcDbLine
10
19.966895
20
-31
30
0
11
52.222386
21
-31
31
0
39
0
210
0
220
0
230
1
0
LINE
5
2E9
100
AcDbEntity
8
2
62
256
6
ByLayer
370
13
48
1
60
0
100
AcDbLine
10
50.222386
20
31
30
0
11
50.222386
21
-31
31
0
39
0
210
0
220
0
230
1
0
SOLID
5
2EA
100
AcDbEntity
8
2
62
256
6
ByLayer
370
13
48
1
60
0
100
AcDbTrace
10
50.222386
20
31
30
0
11
50.640383
21
27.825002
31
0
12
49.804389
22
27.824998
32
0
13
50.222386
23
31
33
0
39
0
210
0
220
0
230
1
0
SOLID
5
2EB
100
AcDbEntity
8
2
62
256
6
ByLayer
370
13
48
1
60
0
100
AcDbTrace
10
50.222386
20
-31
30
0
11
49.804389
21
-27.825002
31
0
12
50.640383
22
-27.824998
32
0
13
50.222386
23
-31
33
0
39
0
210
0
220
0
230
1
0
ENDBLK
5
2ED
100
AcDbEntity
8
0
100
AcDbBlockEnd
0
BLOCK
5
2F6
100
AcDbEntity
8
0
100
AcDbBlockBegin
2
DimnDraft3D2
70
0
10
0
20
0
30
0
3
DimnDraft3D2
0
MTEXT
5
2F0
100
AcDbEntity
8
2
62
256
6
ByLayer
370
18
48
1
60
0
100
AcDbMText
10
6.682895
20
44.25
30
0
210
0
220
0
230
1
1
\W0.6576;18.0
40
3
41
0
44
1.084337
50
0
71
7
72
5
7
iso_b_vert
0
LINE
5
2F1
100
AcDbEntity
8
2
62
256
6
ByLayer
370
13
48
1
60
0
100
AcDbLine
10
0
20
2
30
0
11
0
21
45.5
31
0
39
0
210
0
220
0
230
1
0
LINE
5
2F2
100
AcDbEntity
8
2
62
256
6
ByLayer
370
13
48
1
60
0
100
AcDbLine
10
18
20
33
30
0
11
18
21
45.5
31
0
39
0
210
0
220
0
230
1
0
LINE
5
2F3
100
AcDbEntity
8
2
62
256
6
ByLayer
370
13
48
1
60
0
100
AcDbLine
10
0
20
43.5
30
0
11
18
21
43.5
31
0
39
0
210
0
220
0
230
1
0
SOLID
5
2F4
100
AcDbEntity
8
2
62
256
6
ByLayer
370
13
48
1
60
0
100
AcDbTrace
10
0
20
43.5
30
0
11
3.174998
21
43.917997
31
0
12
3.175002
22
43.082003
32
0
13
0
23
43.5
33
0
39
0
210
0
220
0
230
1
0
SOLID
5
2F5
100
AcDbEntity
8
2
62
256
6
ByLayer
370
13
48
1
60
0
100
AcDbTrace
10
18
20
43.5
30
0
11
14.825002
21
43.082003
31
0
12
14.824998
22
43.917997
32
0
13
18
23
43.5
33
0
39
0
210
0
220
0
230
1
0
ENDBLK
5
2F7
100
AcDbEntity
8
0
100
AcDbBlockEnd
0
BLOCK
5
300
100
AcDbEntity
8
0
100
AcDbBlockBegin
2
DimnDraft3D3
70
0
10
0
20
0
30
0
3
DimnDraft3D3
0
MTEXT
5
2FA
100
AcDbEntity
8
2
62
256
6
ByLayer
370
18
48
1
60
0
100
AcDbMText
10
30.357182
20
17.03071
30
0
210
0
220
0
230
1
1
\W0.6258;84%%d
40
3
41
0
44
1.084337
50
48.0000000000003
71
7
72
5
7
iso_b_vert
0
LINE
5
2FB
100
AcDbEntity
8
2
62
256
6
ByLayer
370
13
48
1
60
0
100
AcDbLine
10
19.405216
20
17.647029
30
0
11
20.226039
21
9.837424
31
0
39
0
210
0
220
0
230
1
0
LINE
5
2FC
100
AcDbEntity
8
2
62
256
6
ByLayer
370
13
48
1
60
0
100
AcDbLine
10
20
20
31
30
0
11
39.280908
21
31
31
0
39
0
210
0
220
0
230
1
0
ARC
5
2FD
100
AcDbEntity
8
2
62
256
6
ByLayer
370
13
48
1
60
0
100
AcDbCircle
39
0
10
18.001762
20
31
30
0
40
19.2791454297012
210
0
220
0
230
1
100
AcDbArc
50
276
51
0
0
SOLID
5
2FE
100
AcDbEntity
8
2
62
256
6
ByLayer
370
13
48
1
60
0
100
AcDbTrace
10
20.016982
20
11.826468
30
0
11
23.097566
21
12.701301
31
0
12
23.219025
22
11.874178
32
0
13
20.016982
23
11.826468
33
0
39
0
210
0
220
0
230
1
0
SOLID
5
2FF
100
AcDbEntity
8
2
62
256
6
ByLayer
370
13
48
1
60
0
100
AcDbTrace
10
37.280908
20
31
30
0
11
37.568163
21
27.810514
31
0
12
36.732875
22
27.844843
32
0
13
37.280908
23
31
33
0
39
0
210
0
220
0
230
1
0
ENDBLK
5
301
100
AcDbEntity
8
0
100
AcDbBlockEnd
0
ENDSEC
0
SECTION
2
ENTITIES
0
ARC
5
18F
100
AcDbEntity
8
1
62
256
6
ByLayer
370
13
48
0.05
60
0
100
AcDbCircle
39
0
10
17.603
20
-30.603
30
0
40
0.396999999999999
210
0
220
0
230
1
100
AcDbArc
50
264
51
354
0
ARC
5
190
100
AcDbEntity
8
1
62
256
6
ByLayer
370
18
48
1
60
0
100
AcDbCircle
39
0
10
4.098238
20
24.373655
30
0
40
0.5
210
0
220
0
230
-1
100
AcDbArc
50
187.5
51
172.5
0
ARC
5
191
100
AcDbEntity
8
1
62
256
6
ByLayer
370
18
48
1
60
0
100
AcDbCircle
39
0
10
-4.098238
20
24.373655
30
0
40
0.655662432702594
210
0
220
0
230
1
100
AcDbArc
50
7.5
51
352.5
0
ARC
5
192
100
AcDbEntity
8
1
62
256
6
ByLayer
370
18
48
1
60
0
100
AcDbCircle
39
0
10
-16.501762
20
8.073655
30
0
40
4.99999999999767
210
0
220
0
230
-1
100
AcDbArc
50
28.086407
51
70
0
CIRCLE
5
193
100
AcDbEntity
8
1
62
256
6
ByLayer
370
18
48
1
60
0
100
AcDbCircle
10
4.098238
20
24.373655
30
0
40
0.775
39
0
210
-1.24683249835833E-15
220
0
230
-1
0
ELLIPSE
5
194
100
AcDbEntity
8
1
62
256
6
ByLayer
370
18
48
1
60
0
100
AcDbEllipse
10
18.386383
20
-15.138347
30
0
11
0.950692525027117
21
6.49994272909663
31
0
210
0
220
0
230
-1
40
0.028701
41
-1.94537488445871
42
-1.15284442394863
0
ELLIPSE
5
195
100
AcDbEntity
8
1
62
256
6
ByLayer
370
18
48
1
60
0
100
AcDbEllipse
10
13.505967
20
-25.435121
30
0
11
1.61110100701109
21
2.31300902474015
31
0
210
0
220
0
230
-1
40
0.21989
41
-2.394098754599
42
-1.15989215341292
0
ELLIPSE
5
196
100
AcDbEntity
8
SK1
62
256
6
ByLayer
370
18
48
1
60
0
100
AcDbEllipse
10
-1.265502
20
-20.322883
30
0
11
1.48266439262488
21
-0.275628173814142
31
0
210
0
220
0
230
-1
40
0.824989
41
-2.22236941513899
42
-2.02852167390312
0
ELLIPSE
5
197
100
AcDbEntity
8
1
62
256
6
ByLayer
370
18
48
1
60
0
100
AcDbEllipse
10
16.501762
20
-13.077745
30
0
11
4.81702077352865
21
6.67883588421661
31
0
210
0
220
0
230
-1
40
0.200673
41
2.73968603760835
42
2.93686603264328
0
ELLIPSE
5
198
100
AcDbEntity
8
1
62
256
6
ByLayer
370
18
48
1
60
0
100
AcDbEllipse
10
16.501762
20
-17.88171
30
0
11
5
21
0
31
0
210
0
220
0
230
1
40
0.551937
41
3.14159265358979
42
-2.46831449142296
0
ELLIPSE
5
199
100
AcDbEntity
8
1
62
256
6
ByLayer
370
18
48
1
60
0
100
AcDbEllipse
10
13.287818
20
-23.331761
30
0
11
1.44226377889343
21
0.149583395107985
31
0
210
0
220
0
230
1
40
0.54224
41
0
42
0.220010062172597
0
ELLIPSE
5
19A
100
AcDbEntity
8
1
62
256
6
ByLayer
370
18
48
1
60
0
100
AcDbEllipse
10
13.287818
20
-23.331761
30
0
11
1.44226377889343
21
0.149583395107985
31
0
210
0
220
0
230
1
40
0.54224
41
-1.25084475042678
42
0
0
ELLIPSE
5
19B
100
AcDbEntity
8
1
62
256
6
ByLayer
370
18
48
1
60
0
100
AcDbEllipse
10
16.501762
20
-18.548819
30
0
11
-5
21
6.12303176911189E-16
31
0
210
1.24683249835833E-15
220
0
230
1
40
0.551937
41
0
42
0.476098167219019
0
ELLIPSE
5
19C
100
AcDbEntity
8
SK1
62
256
6
ByLayer
370
18
48
1
60
0
100
AcDbEllipse
10
-1.265503
20
-20.18857
30
0
11
1.49537600945504
21
-0.16062742068074
31
0
210
0
220
0
230
-1
40
0.732666
41
-2.2332929149361
42
-2.14872745991737
0
ELLIPSE
5
19D
100
AcDbEntity
8
SK1
62
256
6
ByLayer
370
18
48
1
60
0
100
AcDbEllipse
10
-4.098238
20
-17.455373
30
0
11
-0.775
21
9.49069924212342E-17
31
0
210
1.24683249835833E-15
220
0
230
1
40
0.551937
41
0
42
6.28318530717959
0
ELLIPSE
5
19E
100
AcDbEntity
8
1
62
256
6
ByLayer
370
18
48
1
60
0
100
AcDbEllipse
10
13.703447
20
-27.338957
30
0
11
1.90720399044668
21
-0.00119990975915974
31
0
210
0
220
0
230
-1
40
0.54988
41
-2.73272643527012
42
-2.70102759377848
0
ELLIPSE
5
19F
100
AcDbEntity
8
1
62
256
6
ByLayer
370
18
48
1
60
0
100
AcDbEllipse
10
16.970813
20
-15.138347
30
0
11
4.03082762896957
21
6.40758403528924
31
0
210
0
220
0
230
-1
40
0.270958
41
1.77234778748239
42
-2.72573661830785
0
ELLIPSE
5
1A0
100
AcDbEntity
8
1
62
256
6
ByLayer
370
18
48
1
60
0
100
AcDbEllipse
10
12.339001
20
25.381575
30
0
11
0.326745207485905
21
0.0343423051572421
31
0
210
0
220
0
230
-1
40
0.510128
41
0.317077564754277
42
1.5707963267949
0
ELLIPSE
5
1A1
100
AcDbEntity
8
1
62
256
6
ByLayer
370
18
48
1
60
0
100
AcDbEllipse
10
12.468825
20
24.146378
30
0
11
-0.112305380934756
21
1.06851432438367
31
0
210
0
220
0
230
1
40
0.996195
41
-0.782387088380207
42
-5.31092090407802E-14
0
ELLIPSE
5
1A2
100
AcDbEntity
8
1
62
256
6
ByLayer
370
18
48
1
60
0
100
AcDbEllipse
10
12.468825
20
24.146378
30
0
11
-0.112305380934756
21
1.06851432438367
31
0
210
0
220
0
230
1
40
0.996195
41
-1.8989947813132
42
-1.22592464552857
0
ELLIPSE
5
1A3
100
AcDbEntity
8
1
62
256
6
ByLayer
370
18
48
1
60
0
100
AcDbEllipse
10
12.35181
20
24.13408
30
0
11
-0.147353774668397
21
1.40197751590066
31
0
210
0
220
0
230
1
40
0.996195
41
0.523598775598332
42
1.5707963267949
0
ELLIPSE
5
1A4
100
AcDbEntity
8
1
62
256
6
ByLayer
370
18
48
1
60
0
100
AcDbEllipse
10
12.35181
20
24.13408
30
0
11
-0.147353774668397
21
1.40197751590066
31
0
210
0
220
0
230
1
40
0.996195
41
-2.61799387799154
42
-1.57079632679489
0
ELLIPSE
5
1A5
100
AcDbEntity
8
1
62
256
6
ByLayer
370
18
48
1
60
0
100
AcDbEllipse
10
12.468825
20
24.146378
30
0
11
-0.112305380934756
21
1.06851432438367
31
0
210
0
220
0
230
1
40
0.996195
41
0.128314548408038
42
1.04719755119662
0
ELLIPSE
5
1A6
100
AcDbEntity
8
1
62
256
6
ByLayer
370
18
48
1
60
0
100
AcDbEllipse
10
11.741088
20
25.151505
30
0
11
0.265509374245937
21
0.194045260686871
31
0
210
0
220
0
230
-1
40
0.509152
41
2.93304503394638
42
-0.612689599861912
0
ELLIPSE
5
1A7
100
AcDbEntity
8
1
62
256
6
ByLayer
370
18
48
1
60
0
100
AcDbEllipse
10
11.965968
20
23.011911
30
0
11
0.300051635635572
21
-0.134602403247228
31
0
210
0
220
0
230
-1
40
0.509152
41
0.706725092708367
42
-2.93304503394674
0
ELLIPSE
5
1A8
100
AcDbEntity
8
1
62
256
6
ByLayer
370
18
48
1
60
0
100
AcDbEllipse
10
12.468825
20
24.146378
30
0
11
-0.112305380934756
21
1.06851432438367
31
0
210
0
220
0
230
1
40
0.996195
41
2.09439510239318
42
3.14159265358979
0
ELLIPSE
5
1A9
100
AcDbEntity
8
1
62
256
6
ByLayer
370
18
48
1
60
0
100
AcDbEllipse
10
11.468097
20
23.416777
30
0
11
0.192922535723737
21
-0.267100713770936
31
0
210
0
220
0
230
-1
40
0.507214
41
-1.57305112794564
42
-0.319332365939184
0
ELLIPSE
5
1AA
100
AcDbEntity
8
1
62
256
6
ByLayer
370
18
48
1
60
0
100
AcDbEllipse
10
12.35181
20
24.13408
30
0
11
-0.147353774668397
21
1.40197751590066
31
0
210
0
220
0
230
1
40
0.996195
41
-0.523598775598294
42
0.523598775598332
0
ELLIPSE
5
1AB
100
AcDbEntity
8
1
62
256
6
ByLayer
370
18
48
1
60
0
100
AcDbEllipse
10
12.357694
20
24.134698
30
0
11
0.250868311842342
21
-2.38685254888386
31
0
210
0
220
0
230
1
40
0.996195
41
0
42
6.28318530717959
0
ELLIPSE
5
1AC
100
AcDbEntity
8
1
62
256
6
ByLayer
370
18
48
1
60
0
100
AcDbEllipse
10
11.23823
20
24.017038
30
0
11
0.0344734871856548
21
-0.327993321092466
31
0
210
0
220
0
230
-1
40
0.506253
41
0.21087049072406
42
2.93072648561033
0
ELLIPSE
5
1AD
100
AcDbEntity
8
1
62
256
6
ByLayer
370
18
48
1
60
0
100
AcDbEllipse
10
12.35181
20
24.13408
30
0
11
0.156792694901463
21
-1.49178284305241
31
0
210
0
220
0
230
1
40
0.996195
41
0
42
6.28318530717959
0
ELLIPSE
5
1AE
100
AcDbEntity
8
1
62
256
6
ByLayer
370
18
48
1
60
0
100
AcDbEllipse
10
12.468825
20
24.146378
30
0
11
0.112305380934755
21
-1.06851432438367
31
0
210
0
220
0
230
1
40
0.996195
41
0
42
0.781013460241084
0
ELLIPSE
5
1AF
100
AcDbEntity
8
1
62
256
6
ByLayer
370
18
48
1
60
0
100
AcDbEllipse
10
12.59865
20
22.911182
30
0
11
0.326745207486837
21
0.034342305162753
31
0
210
0
220
0
230
-1
40
0.510128
41
-1.5707963267949
42
-0.317077564751973
0
ELLIPSE
5
1B0
100
AcDbEntity
8
1
62
256
6
ByLayer
370
18
48
1
60
0
100
AcDbEllipse
10
11.338272
20
24.651973
30
0
11
0.133173354416926
21
0.30137477291765
31
0
210
0
220
0
230
-1
40
0.507214
41
1.5730511279769
42
2.82676989002584
0
ELLIPSE
5
1B1
100
AcDbEntity
8
1
62
256
6
ByLayer
370
18
48
1
60
0
100
AcDbEllipse
10
12.468825
20
24.146378
30
0
11
-0.112305380934756
21
1.06851432438367
31
0
210
0
220
0
230
1
40
0.996195
41
1.04719755119659
42
2.09439510239318
0
ELLIPSE
5
1B2
100
AcDbEntity
8
1
62
256
6
ByLayer
370
18
48
1
60
0
100
AcDbEllipse
10
12.35181
20
24.13408
30
0
11
-0.147353774668397
21
1.40197751590066
31
0
210
0
220
0
230
1
40
0.996195
41
2.61799387799147
42
-2.61799387799154
0
ELLIPSE
5
1B3
100
AcDbEntity
8
1
62
256
6
ByLayer
370
18
48
1
60
0
100
AcDbEllipse
10
12.971682
20
25.280846
30
0
11
0.300051635635574
21
-0.134602403247198
31
0
210
0
220
0
230
-1
40
0.509152
41
2.9285061720884
42
-2.43486654220567
0
ELLIPSE
5
1B4
100
AcDbEntity
8
1
62
256
6
ByLayer
370
18
48
1
60
0
100
AcDbEllipse
10
13.196563
20
23.141251
30
0
11
0.2655093742459
21
0.19404526068687
31
0
210
0
220
0
230
-1
40
0.509152
41
2.52890196913059
42
-2.92850617208866
0
ELLIPSE
5
1B5
100
AcDbEntity
8
1
62
256
6
ByLayer
370
18
48
1
60
0
100
AcDbEllipse
10
12.35181
20
24.13408
30
0
11
-0.147353774668397
21
1.40197751590066
31
0
210
0
220
0
230
1
40
0.996195
41
1.5707963267949
42
2.61799387799147
0
ELLIPSE
5
1B6
100
AcDbEntity
8
1
62
256
6
ByLayer
370
18
48
1
60
0
100
AcDbEllipse
10
12.35181
20
24.13408
30
0
11
-0.147353774668397
21
1.40197751590066
31
0
210
0
220
0
230
1
40
0.996195
41
-1.57079632679489
42
-0.523598775598294
0
ELLIPSE
5
1B7
100
AcDbEntity
8
1
62
256
6
ByLayer
370
18
48
1
60
0
100
AcDbEllipse
10
11.468097
20
23.416777
30
0
11
0.192922535712858
21
-0.267100713772658
31
0
210
0
220
0
230
-1
40
0.507214
41
-2.82676989003094
42
-1.57305112800979
0
ELLIPSE
5
1B8
100
AcDbEntity
8
1
62
256
6
ByLayer
370
18
48
1
60
0
100
AcDbEllipse
10
11.338272
20
24.651973
30
0
11
0.133173354416956
21
0.301374772921145
31
0
210
0
220
0
230
-1
40
0.507214
41
0.319332365945383
42
1.57305112798496
0
ELLIPSE
5
1B9
100
AcDbEntity
8
1
62
256
6
ByLayer
370
18
48
1
60
0
100
AcDbEllipse
10
12.42982
20
24.142279
30
0
11
0.250868311842342
21
-2.38685254888386
31
0
210
0
220
0
230
1
40
0.996195
41
3.55980384410862E-05
42
3.14153014702201
0
ELLIPSE
5
1BA
100
AcDbEntity
8
1
62
256
6
ByLayer
370
18
48
1
60
0
100
AcDbEllipse
10
6.531574
20
-13.055836
30
0
11
0.995264174726101
21
-0.0972071114002019
31
0
210
0
220
0
230
1
40
0.452653
41
-2.94072840774274
42
-1.89353085654609
0
ELLIPSE
5
1BB
100
AcDbEntity
8
1
62
256
6
ByLayer
370
18
48
1
60
0
100
AcDbEllipse
10
17.581448
20
-14.503103
30
0
11
0.497632087363052
21
-0.0486035557001011
31
0
210
0
220
0
230
1
40
0.452653
41
-0.322734529751284
42
-0.0958417269920205
0
ELLIPSE
5
1BC
100
AcDbEntity
8
1
62
256
6
ByLayer
370
18
48
1
60
0
100
AcDbEllipse
10
17.906767
20
-10.367429
30
0
11
9.95264174726103
21
-0.972071114002021
31
0
210
0
220
0
230
1
40
0.452653
41
-1.63173146874699
42
-1.6226308398288
0
ELLIPSE
5
1BD
100
AcDbEntity
8
1
62
256
6
ByLayer
370
18
48
1
60
0
100
AcDbEllipse
10
15.480486
20
-14.087691
30
0
11
9.95264174726105
21
-0.972071114002023
31
0
210
0
220
0
230
1
40
0.452653
41
3.0995581336427
42
3.11556409667759
0
ELLIPSE
5
1BE
100
AcDbEntity
8
1
62
256
6
ByLayer
370
18
48
1
60
0
100
AcDbEllipse
10
16.490844
20
-10.822147
30
0
11
-0.781435742101832
21
0.076322561550553
31
0
210
0
220
0
230
1
40
0.452653
41
1.50986118484279
42
3.0806575116377
0
ELLIPSE
5
1BF
100
AcDbEntity
8
1
62
256
6
ByLayer
370
18
48
1
60
0
100
AcDbEllipse
10
14.247023
20
-9.192969
30
0
11
4.97632087363033
21
-0.486035557000993
31
0
210
0
220
0
230
1
40
0.452653
41
-0.0518345130338985
42
-0.0420345199470913
0
ELLIPSE
5
1C0
100
AcDbEntity
8
1
62
256
6
ByLayer
370
18
48
1
60
0
100
AcDbEllipse
10
10.517805
20
-13.507428
30
0
11
4.97632087363033
21
-0.486035557000993
31
0
210
0
220
0
230
1
40
0.452653
41
3.0897581405559
42
3.0995581336427
0
ELLIPSE
5
1C1
100
AcDbEntity
8
1
62
256
6
ByLayer
370
18
48
1
60
0
100
AcDbEllipse
10
16.397248
20
-11.091318
30
0
11
0.0498581853543235
21
0.396880537886621
31
0
210
0
220
0
230
1
40
0.054301
41
-2.67110409685535
42
-1.76498686300803
0
ELLIPSE
5
1C2
100
AcDbEntity
8
1
62
256
6
ByLayer
370
18
48
1
60
0
100
AcDbEllipse
10
9.288785
20
-8.590879
30
0
11
9.95264174726103
21
-0.972071114002021
31
0
210
0
220
0
230
1
40
0.452653
41
-0.0609351419520895
42
-0.0518345130338981
0
ELLIPSE
5
1C3
100
AcDbEntity
8
1
62
256
6
ByLayer
370
18
48
1
60
0
100
AcDbEllipse
10
7.861088
20
-10.018962
30
0
11
0.0498581853543235
21
0.396880537886621
31
0
210
0
220
0
230
1
40
0.054301
41
-2.67110409685305
42
-1.76498686300801
0
ELLIPSE
5
1C4
100
AcDbEntity
8
1
62
256
6
ByLayer
370
18
48
1
60
0
100
AcDbEllipse
10
17.60204
20
-10.740097
30
0
11
-0.389344188343521
21
0.0917120657445066
31
0
210
0
220
0
230
1
40
0.890032
41
0.78407117703031
42
1.69018841087401
0
ELLIPSE
5
1C5
100
AcDbEntity
8
1
62
256
6
ByLayer
370
18
48
1
60
0
100
AcDbEllipse
10
6.039557
20
-13.053151
30
0
11
0.497632087363052
21
-0.0486035557001011
31
0
210
0
220
0
230
1
40
0.452653
41
3.11556409667757
42
-2.94072840774283
0
ELLIPSE
5
1C6
100
AcDbEntity
8
1
62
256
6
ByLayer
370
18
48
1
60
0
100
AcDbEllipse
10
17.116486
20
-14.385567
30
0
11
0.995264174726101
21
-0.0972071114002019
31
0
210
0
220
0
230
1
40
0.452653
41
-1.36993208094787
42
-0.322734529751238
0
ELLIPSE
5
1C7
100
AcDbEntity
8
1
62
256
6
ByLayer
370
18
48
1
60
0
100
AcDbEllipse
10
15.476044
20
-14.109518
30
0
11
9.95264174726103
21
-0.972071114002021
31
0
210
0
220
0
230
1
40
0.452653
41
3.0806575116377
42
3.0897581405559
0
ELLIPSE
5
1C8
100
AcDbEntity
8
1
62
256
6
ByLayer
370
18
48
1
60
0
100
AcDbEllipse
10
7.229475
20
-10.093358
30
0
11
0.746448131044576
21
-0.0729053335501515
31
0
210
0
220
0
230
1
40
0.452653
41
3.0806575116377
42
-1.6317314687471
0
ELLIPSE
5
1C9
100
AcDbEntity
8
1
62
256
6
ByLayer
370
18
48
1
60
0
100
AcDbEllipse
10
13.152757
20
-13.838444
30
0
11
4.97632087363033
21
-0.486035557000993
31
0
210
0
220
0
230
1
40
0.452653
41
-0.0798357639570904
42
-0.070035770870282
0
ELLIPSE
5
1CA
100
AcDbEntity
8
1
62
256
6
ByLayer
370
18
48
1
60
0
100
AcDbEllipse
10
16.477558
20
-10.958175
30
0
11
-1.09479059219871
21
0.106927822540224
31
0
210
0
220
0
230
1
40
0.452653
41
1.50986118484281
42
3.0806575116377
0
ELLIPSE
5
1CB
100
AcDbEntity
8
1
62
256
6
ByLayer
370
18
48
1
60
0
100
AcDbEllipse
10
6.886258
20
-9.393925
30
0
11
0.389344188343521
21
-0.0917120657445064
31
0
210
0
220
0
230
1
40
0.890032
41
-1.45140424271585
42
-0.545287008872146
0
ELLIPSE
5
1CC
100
AcDbEntity
8
1
62
256
6
ByLayer
370
18
48
1
60
0
100
AcDbEllipse
10
8.204031
20
-13.195971
30
0
11
9.95264174726103
21
-0.972071114002021
31
0
210
0
220
0
230
1
40
0.452653
41
-0.0700357708702841
42
-0.0609351419520895
0
ELLIPSE
5
1CD
100
AcDbEntity
8
1
62
256
6
ByLayer
370
18
48
1
60
0
100
AcDbEllipse
10
7.673769
20
-9.08222
30
0
11
9.95264174726105
21
-0.972071114002023
31
0
210
0
220
0
230
1
40
0.452653
41
-1.66663805378688
42
-1.65063209075199
0
ELLIPSE
5
1CE
100
AcDbEntity
8
1
62
256
6
ByLayer
370
18
48
1
60
0
100
AcDbEllipse
10
17.378172
20
-7.13481
30
0
11
-1.09479059219871
21
0.106927822540224
31
0
210
0
220
0
230
1
40
0.452653
41
3.08065751163772
42
-2.40942282444094
0
ELLIPSE
5
1CF
100
AcDbEntity
8
1
62
256
6
ByLayer
370
18
48
1
60
0
100
AcDbEllipse
10
9.284343
20
-8.612706
30
0
11
9.95264174726105
21
-0.972071114002023
31
0
210
0
220
0
230
1
40
0.452653
41
-0.0420345199470916
42
-0.0260285569122048
0
ELLIPSE
5
1D0
100
AcDbEntity
8
1
62
256
6
ByLayer
370
18
48
1
60
0
100
AcDbEllipse
10
6.35288
20
-13.254045
30
0
11
0.497632087363052
21
-0.0486035557001011
31
0
210
0
220
0
230
1
40
0.452653
41
-1.89353085654609
42
-1.66663805378691
0
ELLIPSE
5
1D1
100
AcDbEntity
8
1
62
256
6
ByLayer
370
18
48
1
60
0
100
AcDbEllipse
10
7.057598
20
-11.28883
30
0
11
4.97632087363033
21
-0.486035557000993
31
0
210
0
220
0
230
1
40
0.452653
41
-1.65063209075197
42
-1.64083209766518
0
ELLIPSE
5
1D2
100
AcDbEntity
8
1
62
256
6
ByLayer
370
18
48
1
60
0
100
AcDbEllipse
10
18.090094
20
-6.92727
30
0
11
0.746448131044576
21
-0.0729053335501515
31
0
210
0
220
0
230
1
40
0.452653
41
-0.0609351419521038
42
1.34674398795085
0
ELLIPSE
5
1D3
100
AcDbEntity
8
1
62
256
6
ByLayer
370
18
48
1
60
0
100
AcDbEllipse
10
7.954684
20
-9.74979
30
0
11
-0.781435742101832
21
0.076322561550553
31
0
210
0
220
0
230
1
40
0.452653
41
-0.0609351419520873
42
1.50986118484279
0
ELLIPSE
5
1D4
100
AcDbEntity
8
1
62
256
6
ByLayer
370
18
48
1
60
0
100
AcDbEllipse
10
18.502654
20
-6.916732
30
0
11
-0.389344188343521
21
0.0917120657445066
31
0
210
0
220
0
230
1
40
0.890032
41
0.784071177030322
42
1.69018841087387
0
ELLIPSE
5
1D5
100
AcDbEntity
8
1
62
256
6
ByLayer
370
18
48
1
60
0
100
AcDbEllipse
10
17.194213
20
-14.61599
30
0
11
0.497632087363052
21
-0.0486035557001011
31
0
210
0
220
0
230
1
40
0.452653
41
-1.59682488370704
42
-1.36993208094793
0
ELLIPSE
5
1D6
100
AcDbEntity
8
1
62
256
6
ByLayer
370
18
48
1
60
0
100
AcDbEllipse
10
17.429228
20
-12.591768
30
0
11
4.97632087363033
21
-0.486035557000993
31
0
210
0
220
0
230
1
40
0.452653
41
-1.62263083982879
42
-1.61283084674198
0
ELLIPSE
5
1D7
100
AcDbEntity
8
1
62
256
6
ByLayer
370
18
48
1
60
0
100
AcDbEllipse
10
7.941398
20
-9.885818
30
0
11
-1.09479059219871
21
0.106927822540224
31
0
210
0
220
0
230
1
40
0.452653
41
-0.0609351419520716
42
1.50986118484286
0
ELLIPSE
5
1D8
100
AcDbEntity
8
1
62
256
6
ByLayer
370
18
48
1
60
0
100
AcDbEllipse
10
17.053594
20
-11.327515
30
0
11
0.746448131044576
21
-0.0729053335501515
31
0
210
0
220
0
230
1
40
0.452653
41
-1.63173146874703
42
-0.0609351419520278
0
ELLIPSE
5
1D9
100
AcDbEntity
8
1
62
256
6
ByLayer
370
18
48
1
60
0
100
AcDbEllipse
10
17.858154
20
-10.361635
30
0
11
9.95264174726105
21
-0.972071114002023
31
0
210
0
220
0
230
1
40
0.452653
41
-1.61283084674199
42
-1.5968248837071
0
ELLIPSE
5
1DA
100
AcDbEntity
8
1
62
256
6
ByLayer
370
18
48
1
60
0
100
AcDbEllipse
10
8.209832
20
-13.174314
30
0
11
9.95264174726105
21
-0.972071114002023
31
0
210
0
220
0
230
1
40
0.452653
41
-0.0958417269919748
42
-0.0798357639570844
0
ELLIPSE
5
1DB
100
AcDbEntity
8
1
62
256
6
ByLayer
370
18
48
1
60
0
100
AcDbEllipse
10
7.6253
20
-9.075818
30
0
11
9.95264174726103
21
-0.972071114002021
31
0
210
0
220
0
230
1
40
0.452653
41
-1.64083209766517
42
-1.63173146874698
0
ELLIPSE
5
1DC
100
AcDbEntity
8
1
62
256
6
ByLayer
370
18
48
1
60
0
100
AcDbEllipse
10
18.725271
20
-9.647246
30
0
11
0.497632087363052
21
-0.0486035557001011
31
0
210
0
220
0
230
1
40
0.452653
41
-0.0260285569121565
42
0.0988316718691446
0
ELLIPSE
5
1DD
100
AcDbEntity
8
1
62
256
6
ByLayer
370
18
48
1
60
0
100
AcDbEllipse
10
16.970813
20
2.824863
30
0
11
4.15201856643227
21
-6.43489812804755
31
0
210
0
220
0
230
-1
40
0.221014
41
1.03563003064353
42
2.82073093203201
0
ELLIPSE
5
1DE
100
AcDbEntity
8
SK1
62
256
6
ByLayer
370
18
48
1
60
0
100
AcDbEllipse
10
-1.265502
20
4.759271
30
0
11
-1.05856209076885E-16
21
1.72882018366922
31
0
210
0
220
0
230
-1
40
0.867644
41
-2.97322470385486
42
-2.55763428380515
0
ELLIPSE
5
1DF
100
AcDbEntity
8
1
62
256
6
ByLayer
370
18
48
1
60
0
100
AcDbEllipse
10
6.137882
20
-13.132126
30
0
11
0.778692410408507
21
-0.1834215598632
31
0
210
0
220
0
230
-1
40
0.890028
41
-3.10755950809335
42
-2.36531562975942
0
ELLIPSE
5
1E0
100
AcDbEntity
8
SK1
62
256
6
ByLayer
370
18
48
1
60
0
100
AcDbEllipse
10
-4.098238
20
-6.579786
30
0
11
0.775
21
0
31
0
210
0
220
0
230
1
40
0.446198
41
0
42
3.14159265358979
0
ELLIPSE
5
1E1
100
AcDbEntity
8
1
62
256
6
ByLayer
370
18
48
1
60
0
100
AcDbEllipse
10
18.327597
20
-6.861987
30
0
11
0.0999283642298476
21
0.794368322940904
31
0
210
0
220
0
230
-1
40
0.054423
41
-0.472039968068096
42
1.09875635870507
0
ELLIPSE
5
1E2
100
AcDbEntity
8
1
62
256
6
ByLayer
370
18
48
1
60
0
100
AcDbEllipse
10
-5.798238
20
-11.691811
30
0
11
1.56888366150349
21
-0.354597246742343
31
0
210
0
220
0
230
-1
40
0.885548
41
0
42
6.28318530717959
0
ELLIPSE
5
1E3
100
AcDbEntity
8
1
62
256
6
ByLayer
370
18
48
1
60
0
100
AcDbEllipse
10
16.501762
20
5.650334
30
0
11
4.87881186099108
21
-6.96393362718389
31
0
210
0
220
0
230
-1
40
0.157119
41
2.24769636824279
42
2.4448763629214
0
ELLIPSE
5
1E4
100
AcDbEntity
8
1
62
256
6
ByLayer
370
18
48
1
60
0
100
AcDbEllipse
10
16.501762
20
11.521944
30
0
11
5
21
0
31
0
210
0
220
0
230
1
40
0.446198
41
3.14159265358979
42
-2.66549448637077
0
ELLIPSE
5
1E5
100
AcDbEntity
8
1
62
256
6
ByLayer
370
18
48
1
60
0
100
AcDbEllipse
10
-1.265502
20
-7.06339
30
0
11
1.32799899206499
21
-0.73212379445154
31
0
210
0
220
0
230
-1
40
0.952622
41
-1.20862590637552
42
0.763305454879368
0
ELLIPSE
5
1E6
100
AcDbEntity
8
1
62
256
6
ByLayer
370
18
48
1
60
0
100
AcDbEllipse
10
13.610518
20
3.464612
30
0
11
0.35282872722439
21
3.22746557974005
31
0
210
0
220
0
230
-1
40
0.585136
41
-1.52955992504043
42
-1.22466927303056
0
ELLIPSE
5
1E7
100
AcDbEntity
8
1
62
256
6
ByLayer
370
18
48
1
60
0
100
AcDbEllipse
10
18.386383
20
2.824863
30
0
11
0.31621871766994
21
-6.49984731430116
31
0
210
0
220
0
230
-1
40
0.14089
41
0.108303263961246
42
0.900833724456533
0
ELLIPSE
5
1E8
100
AcDbEntity
8
1
62
256
6
ByLayer
370
18
48
1
60
0
100
AcDbEllipse
10
13.287818
20
0.16062
30
0
11
-1.44313305335284
21
0.140950311530294
31
0
210
0
220
0
230
1
40
0.452653
41
0
42
6.28318530717959
0
ELLIPSE
5
1E9
100
AcDbEntity
8
1
62
256
6
ByLayer
370
18
48
1
60
0
100
AcDbEllipse
10
-1.265502
20
-7.171971
30
0
11
1.47082843265843
21
-0.332434918819738
31
0
210
0
220
0
230
-1
40
0.885548
41
1.04935253738684
42
1.87264899470517
0
ELLIPSE
5
1EA
100
AcDbEntity
8
1
62
256
6
ByLayer
370
18
48
1
60
0
100
AcDbEllipse
10
13.703445
20
4.415806
30
0
11
1.90720265374174
21
-0.000843067921979743
31
0
210
0
220
0
230
-1
40
0.444535
41
-2.73257683891495
42
-2.70087798458401
0
ELLIPSE
5
1EB
100
AcDbEntity
8
1
62
256
6
ByLayer
370
18
48
1
60
0
100
AcDbEllipse
10
15.208006
20
2.824863
30
0
11
17.8293644206524
21
-3.2282717466229
31
0
210
0
220
0
230
-1
40
0.316425
41
1.32320208506028
42
1.33218487820873
0
ELLIPSE
5
1EC
100
AcDbEntity
8
1
62
256
6
ByLayer
370
18
48
1
60
0
100
AcDbEllipse
10
4.601359
20
-15.614282
30
0
11
3.03971209416301
21
-0.687032165562658
31
0
210
0
220
0
230
-1
40
0.885548
41
2.96018213058931
42
-1.68059188754418
0
ELLIPSE
5
1ED
100
AcDbEntity
8
1
62
256
6
ByLayer
370
18
48
1
60
0
100
AcDbEllipse
10
13.505967
20
2.394154
30
0
11
1.6373601357159
21
-2.37297739118848
31
0
210
0
220
0
230
-1
40
0.175471
41
-2.94891184666416
42
-1.7147052454718
0
ELLIPSE
5
1EE
100
AcDbEntity
8
1
62
256
6
ByLayer
370
18
48
1
60
0
100
AcDbEllipse
10
19.141967
20
2.824864
30
0
11
0.505736536873692
21
6.49997063111955
31
0
210
0
220
0
230
-1
40
0.038942
41
-2.97802037688728
42
-2.87247368141236
0
ELLIPSE
5
1EF
100
AcDbEntity
8
1
62
256
6
ByLayer
370
18
48
1
60
0
100
AcDbEllipse
10
13.287818
20
0.16062
30
0
11
1.89100193197957
21
-0.184693511660383
31
0
210
0
220
0
230
1
40
0.452653
41
1.50986118484284
42
3.08065751163771
0
ELLIPSE
5
1F0
100
AcDbEntity
8
1
62
256
6
ByLayer
370
18
48
1
60
0
100
AcDbEllipse
10
-1.265503
20
-7.06339
30
0
11
1.32799879041904
21
-0.732123873583471
31
0
210
0
220
0
230
-1
40
0.952622
41
1.5866017982617
42
1.67116725317527
0
ELLIPSE
5
1F1
100
AcDbEntity
8
1
62
256
6
ByLayer
370
18
48
1
60
0
100
AcDbEllipse
10
7.057093
20
-10.171193
30
0
11
0.77869241039662
21
-0.183421559837453
31
0
210
0
220
0
230
-1
40
0.890028
41
3.02220488359476
42
-1.69018409678735
0
ELLIPSE
5
1F2
100
AcDbEntity
8
1
62
256
6
ByLayer
370
18
48
1
60
0
100
AcDbEllipse
10
18.411419
20
18.913986
30
0
11
-0.0376441750873262
21
0.358160401359422
31
0
210
0
220
0
230
1
40
0.996195
41
-3.10668606855003
42
-2.87979326579074
0
ELLIPSE
5
1F3
100
AcDbEntity
8
1
62
256
6
ByLayer
370
18
48
1
60
0
100
AcDbEllipse
10
6.857532
20
27.246823
30
0
11
-1.03066457612992
21
9.80611840735787
31
0
210
0
220
0
230
1
40
0.996195
41
3.13249202467161
42
3.14159265358979
0
ELLIPSE
5
1F4
100
AcDbEntity
8
1
62
256
6
ByLayer
370
18
48
1
60
0
100
AcDbEllipse
10
17.906238
20
21.027658
30
0
11
-1.03066457612992
21
9.80611840735787
31
0
210
0
220
0
230
1
40
0.996195
41
-0.00910062891819124
42
5.06361994899101E-15
0
ELLIPSE
5
1F5
100
AcDbEntity
8
1
62
256
6
ByLayer
370
18
48
1
60
0
100
AcDbEllipse
10
12.347743
20
24.133652
30
0
11
-0.321279495150663
21
3.05677020853233
31
0
210
0
220
0
230
1
40
0.996195
41
0.168458242080861
42
1.40233808471402
0
ELLIPSE
5
1F6
100
AcDbEntity
8
1
62
256
6
ByLayer
370
18
48
1
60
0
100
AcDbEllipse
10
16.554996
20
19.407741
30
0
11
1.04528463267643
21
-9.94521895368278
31
0
210
0
220
0
230
1
40
0.996195
41
-1.5518957047899
42
-1.53588974175501
0
ELLIPSE
5
1F7
100
AcDbEntity
8
1
62
256
6
ByLayer
370
18
48
1
60
0
100
AcDbEllipse
10
7.18338
20
18.089373
30
0
11
0.0522642316338214
21
-0.497260947684139
31
0
210
0
220
0
230
1
40
0.996195
41
-1.53588974175497
42
-1.30899693899576
0
ELLIPSE
5
1F8
100
AcDbEntity
8
1
62
256
6
ByLayer
370
18
48
1
60
0
100
AcDbEllipse
10
12.347743
20
24.133652
30
0
11
-0.282116967194818
21
2.68416364461171
31
0
210
0
220
0
230
1
40
0.996195
41
0
42
6.28318530717959
0
ELLIPSE
5
1F9
100
AcDbEntity
8
1
62
256
6
ByLayer
370
18
48
1
60
0
100
AcDbEllipse
10
17.906767
20
21.027714
30
0
11
1.04528463267643
21
-9.94521895368276
31
0
210
0
220
0
230
1
40
0.996195
41
3.13249202467161
42
3.14159265358979
0
ELLIPSE
5
1FA
100
AcDbEntity
8
1
62
256
6
ByLayer
370
18
48
1
60
0
100
AcDbEllipse
10
15.63263
20
23.922573
30
0
11
-0.0104528463267643
21
0.0994521895368272
31
0
210
0
220
0
230
1
40
0.996195
41
-1.57079632679497
42
1.40233808471403
0
ELLIPSE
5
1FB
100
AcDbEntity
8
1
62
256
6
ByLayer
370
18
48
1
60
0
100
AcDbEllipse
10
12.555844
20
27.426731
30
0
11
0.023664433632561
21
-0.225152046182972
31
0
210
0
220
0
230
1
40
0.996195
41
3.14159265358954
42
-0.168458242081205
0
ELLIPSE
5
1FC
100
AcDbEntity
8
1
62
256
6
ByLayer
370
18
48
1
60
0
100
AcDbEllipse
10
15.480486
20
29.631028
30
0
11
1.04528463267643
21
-9.94521895368278
31
0
210
0
220
0
230
1
40
0.996195
41
-1.60570291183478
42
-1.58969694879989
0
ELLIPSE
5
1FD
100
AcDbEntity
8
1
62
256
6
ByLayer
370
18
48
1
60
0
100
AcDbEllipse
10
6.039557
20
28.972118
30
0
11
0.0522642316338214
21
-0.497260947684139
31
0
210
0
220
0
230
1
40
0.996195
41
-1.83259571459399
42
-1.60570291183477
0
ELLIPSE
5
1FE
100
AcDbEntity
8
1
62
256
6
ByLayer
370
18
48
1
60
0
100
AcDbEllipse
10
17.116486
20
30.006228
30
0
11
0.104528463267641
21
-0.994521895368274
31
0
210
0
220
0
230
1
40
0.996195
41
1.83259571459405
42
2.87979326579068
0
ELLIPSE
5
1FF
100
AcDbEntity
8
1
62
256
6
ByLayer
370
18
48
1
60
0
100
AcDbEllipse
10
12.132513
20
20.938951
30
0
11
-0.0128650708014692
21
-0.199585795970738
31
0
210
0
220
0
230
1
40
0.085922
41
1.58546385301626
42
2.26954508481226
0
ELLIPSE
5
200
100
AcDbEntity
8
1
62
256
6
ByLayer
370
18
48
1
60
0
100
AcDbEllipse
10
14.246494
20
19.070089
30
0
11
-0.508022259791706
21
4.8335089305165
31
0
210
0
220
0
230
1
40
0.996195
41
-1.58969694879989
42
-1.57989695571309
0
ELLIPSE
5
201
100
AcDbEntity
8
1
62
256
6
ByLayer
370
18
48
1
60
0
100
AcDbEllipse
10
15.476044
20
29.679826
30
0
11
1.04528463267643
21
-9.94521895368276
31
0
210
0
220
0
230
1
40
0.996195
41
-1.57989695571309
42
-1.5707963267949
0
ELLIPSE
5
202
100
AcDbEntity
8
1
62
256
6
ByLayer
370
18
48
1
60
0
100
AcDbEllipse
10
12.347743
20
24.133652
30
0
11
-0.321279495150663
21
3.05677020853233
31
0
210
0
220
0
230
1
40
0.996195
41
-2.9731344115089
42
-1.73925456887578
0
ELLIPSE
5
203
100
AcDbEntity
8
1
62
256
6
ByLayer
370
18
48
1
60
0
100
AcDbEllipse
10
12.351643
20
24.134062
30
0
11
-0.33449108245646
21
3.18247006517848
31
0
210
0
220
0
230
1
40
0.996195
41
-1.40233808471402
42
-0.168458242080874
0
ELLIPSE
5
204
100
AcDbEntity
8
1
62
256
6
ByLayer
370
18
48
1
60
0
100
AcDbEllipse
10
12.13666
20
20.739709
30
0
11
-0.0209056926535287
21
0.198904379073655
31
0
210
0
220
0
230
1
40
0.087156
41
-2.25487755859021
42
-1.57079632679488
0
ELLIPSE
5
205
100
AcDbEntity
8
1
62
256
6
ByLayer
370
18
48
1
60
0
100
AcDbEllipse
10
12.347743
20
24.133652
30
0
11
-0.321279495150663
21
3.05677020853233
31
0
210
0
220
0
230
1
40
0.996195
41
-1.40233808471403
42
-0.1684582420809
0
ELLIPSE
5
206
100
AcDbEntity
8
1
62
256
6
ByLayer
370
18
48
1
60
0
100
AcDbEllipse
10
15.62873
20
23.922164
30
0
11
0.023664433632561
21
-0.225152046182972
31
0
210
0
220
0
230
1
40
0.996195
41
1.57079632679488
42
-1.73925456887574
0
ELLIPSE
5
207
100
AcDbEntity
8
1
62
256
6
ByLayer
370
18
48
1
60
0
100
AcDbEllipse
10
17.581448
20
30.18522
30
0
11
0.0522642316338214
21
-0.497260947684139
31
0
210
0
220
0
230
1
40
0.996195
41
1.60570291183481
42
1.83259571459405
0
ELLIPSE
5
208
100
AcDbEntity
8
1
62
256
6
ByLayer
370
18
48
1
60
0
100
AcDbEllipse
10
7.647813
20
18.268309
30
0
11
-0.0899084067211502
21
0.85542134904358
31
0
210
0
220
0
230
1
40
0.996195
41
1.83259571459406
42
2.87979326579053
0
ELLIPSE
5
209
100
AcDbEntity
8
1
62
256
6
ByLayer
370
18
48
1
60
0
100
AcDbEllipse
10
8.897956
20
26.941721
30
0
11
0.0209056926535285
21
-0.198904379073655
31
0
210
0
220
0
230
1
40
0.996195
41
-3.14159265358951
42
-1.57079632679491
0
ELLIPSE
5
20A
100
AcDbEntity
8
1
62
256
6
ByLayer
370
18
48
1
60
0
100
AcDbEllipse
10
7.67324
20
19.952817
30
0
11
-1.03066457612994
21
9.80611840735806
31
0
210
0
220
0
230
1
40
0.996195
41
0.0189006220049952
42
0.0349065850398849
0
ELLIPSE
5
20B
100
AcDbEntity
8
1
62
256
6
ByLayer
370
18
48
1
60
0
100
AcDbEllipse
10
17.193684
20
30.499965
30
0
11
-0.0376441750873262
21
0.358160401359422
31
0
210
0
220
0
230
1
40
0.996195
41
-0.261799387799348
42
-0.0349065850399247
0
ELLIPSE
5
20C
100
AcDbEntity
8
1
62
256
6
ByLayer
370
18
48
1
60
0
100
AcDbEllipse
10
12.351643
20
24.134062
30
0
11
-0.33449108245646
21
3.18247006517848
31
0
210
0
220
0
230
1
40
0.996195
41
0.168458242080874
42
1.40233808471402
0
ELLIPSE
5
20D
100
AcDbEntity
8
1
62
256
6
ByLayer
370
18
48
1
60
0
100
AcDbEllipse
10
13.195615
20
21.050688
30
0
11
0.0540801584411731
21
-0.192549568846512
31
0
210
0
220
0
230
1
40
0.085922
41
1.5561288005735
42
2.24021003236736
0
ELLIPSE
5
20E
100
AcDbEntity
8
1
62
256
6
ByLayer
370
18
48
1
60
0
100
AcDbEllipse
10
11.611542
20
18.793145
30
0
11
-0.508022259791707
21
4.83350893051651
31
0
210
0
220
0
230
1
40
0.996195
41
1.57989695571309
42
1.5896969487999
0
ELLIPSE
5
20F
100
AcDbEntity
8
1
62
256
6
ByLayer
370
18
48
1
60
0
100
AcDbEllipse
10
17.091059
20
28.32172
30
0
11
1.04528463267643
21
-9.94521895368278
31
0
210
0
220
0
230
1
40
0.996195
41
0.0189006220049866
42
0.0349065850398894
0
ELLIPSE
5
210
100
AcDbEntity
8
1
62
256
6
ByLayer
370
18
48
1
60
0
100
AcDbEllipse
10
9.066756
20
24.345141
30
0
11
0.0236644336325609
21
-0.225152046182971
31
0
210
0
220
0
230
1
40
0.996195
41
-1.57079632679491
42
1.40233808471405
0
ELLIPSE
5
211
100
AcDbEntity
8
1
62
256
6
ByLayer
370
18
48
1
60
0
100
AcDbEllipse
10
15.805331
20
21.326403
30
0
11
-0.0209056926535288
21
0.198904379073655
31
0
210
0
220
0
230
1
40
0.996195
41
3.14159265358979
42
-1.57079632679491
0
ELLIPSE
5
212
100
AcDbEntity
8
1
62
256
6
ByLayer
370
18
48
1
60
0
100
AcDbEllipse
10
17.857625
20
21.023239
30
0
11
-1.03066457612994
21
9.80611840735806
31
0
210
0
220
0
230
1
40
0.996195
41
-0.034906585039891
42
-0.0189006220049959
0
ELLIPSE
5
213
100
AcDbEntity
8
1
62
256
6
ByLayer
370
18
48
1
60
0
100
AcDbEllipse
10
7.057598
20
24.914753
30
0
11
0.522642316338193
21
-4.97260947684119
31
0
210
0
220
0
230
1
40
0.996195
41
-3.13249202467161
42
-3.12269203158481
0
ELLIPSE
5
214
100
AcDbEntity
8
1
62
256
6
ByLayer
370
18
48
1
60
0
100
AcDbEllipse
10
12.418643
20
24.141104
30
0
11
-0.264604505792529
21
2.51754370433981
31
0
210
0
220
0
230
1
40
0.996195
41
0
42
6.28318530717959
0
ELLIPSE
5
215
100
AcDbEntity
8
1
62
256
6
ByLayer
370
18
48
1
60
0
100
AcDbEllipse
10
8.203502
20
28.915451
30
0
11
-1.03066457612992
21
9.80611840735787
31
0
210
0
220
0
230
1
40
0.996195
41
-1.5707963267949
42
-1.5616956978767
0
ELLIPSE
5
216
100
AcDbEntity
8
1
62
256
6
ByLayer
370
18
48
1
60
0
100
AcDbEllipse
10
10.517805
20
29.204448
30
0
11
0.522642316338193
21
-4.97260947684119
31
0
210
0
220
0
230
1
40
0.996195
41
-1.58969694879989
42
-1.57989695571309
0
ELLIPSE
5
217
100
AcDbEntity
8
1
62
256
6
ByLayer
370
18
48
1
60
0
100
AcDbEllipse
10
12.392247
20
24.13833
30
0
11
-0.278364087565371
21
2.64845738006432
31
0
210
0
220
0
230
1
40
0.996195
41
-0.926046936998005
42
0
0
ELLIPSE
5
218
100
AcDbEntity
8
1
62
256
6
ByLayer
370
18
48
1
60
0
100
AcDbEllipse
10
12.392247
20
24.13833
30
0
11
-0.278364087565371
21
2.64845738006432
31
0
210
0
220
0
230
1
40
0.996195
41
0
42
-2.2155727204214
0
ELLIPSE
5
219
100
AcDbEntity
8
1
62
256
6
ByLayer
370
18
48
1
60
0
100
AcDbEllipse
10
7.335071
20
22.269681
30
0
11
-0.508022259791706
21
4.8335089305165
31
0
210
0
220
0
230
1
40
0.996195
41
3.1226920315848
42
3.1324920246716
0
ELLIPSE
5
21A
100
AcDbEntity
8
1
62
256
6
ByLayer
370
18
48
1
60
0
100
AcDbEllipse
10
9.288785
20
18.594766
30
0
11
1.04528463267643
21
-9.94521895368276
31
0
210
0
220
0
230
1
40
0.996195
41
1.5616956978767
42
1.5707963267949
0
ELLIPSE
5
21B
100
AcDbEntity
8
1
62
256
6
ByLayer
370
18
48
1
60
0
100
AcDbEllipse
10
18.411949
20
18.914042
30
0
11
0.0522642316338214
21
-0.497260947684139
31
0
210
0
220
0
230
1
40
0.996195
41
0.0349065850398898
42
0.261799387799004
0
ELLIPSE
5
21C
100
AcDbEntity
8
1
62
256
6
ByLayer
370
18
48
1
60
0
100
AcDbEllipse
10
9.152745
20
24.33732
30
0
11
-0.199601851976567
21
0.0126135121011009
31
0
210
0
220
0
230
1
40
0.014613
41
-2.340914845488
42
-1.6568336136937
0
ELLIPSE
5
21D
100
AcDbEntity
8
1
62
256
6
ByLayer
370
18
48
1
60
0
100
AcDbEllipse
10
17.428698
20
26.0048
30
0
11
-0.508022259791706
21
4.8335089305165
31
0
210
0
220
0
230
1
40
0.996195
41
-0.0189006220049995
42
-0.00910062891820919
0
ELLIPSE
5
21E
100
AcDbEntity
8
1
62
256
6
ByLayer
370
18
48
1
60
0
100
AcDbEllipse
10
9.264908
20
23.270157
30
0
11
-0.192617575984812
21
-0.0538374351333267
31
0
210
0
220
0
230
1
40
0.014613
41
1.65683361369398
42
2.34091484548798
0
ELLIPSE
5
21F
100
AcDbEntity
8
1
62
256
6
ByLayer
370
18
48
1
60
0
100
AcDbEllipse
10
9.070656
20
24.345551
30
0
11
0.0104528463267642
21
-0.0994521895368266
31
0
210
0
220
0
230
1
40
0.996195
41
-1.57079632679493
42
1.40233808471395
0
ELLIPSE
5
220
100
AcDbEntity
8
1
62
256
6
ByLayer
370
18
48
1
60
0
100
AcDbEllipse
10
15.516962
20
25.023085
30
0
11
0.0104528463267642
21
-0.0994521895368266
31
0
210
0
220
0
230
1
40
0.996195
41
-1.40233808471385
42
1.57079632679493
0
ELLIPSE
5
221
100
AcDbEntity
8
1
62
256
6
ByLayer
370
18
48
1
60
0
100
AcDbEllipse
10
9.288255
20
18.59471
30
0
11
-1.03066457612992
21
9.80611840735787
31
0
210
0
220
0
230
1
40
0.996195
41
-1.57989695571309
42
-1.5707963267949
0
ELLIPSE
5
222
100
AcDbEntity
8
1
62
256
6
ByLayer
370
18
48
1
60
0
100
AcDbEllipse
10
12.351643
20
24.134062
30
0
11
0.334491082456456
21
-3.18247006517848
31
0
210
0
220
0
230
1
40
0.996195
41
-1.40233808471402
42
-0.168458242080892
0
ELLIPSE
5
223
100
AcDbEntity
8
1
62
256
6
ByLayer
370
18
48
1
60
0
100
AcDbEllipse
10
17.139528
20
28.327504
30
0
11
1.04528463267643
21
-9.94521895368276
31
0
210
0
220
0
230
1
40
0.996195
41
0
42
0.00910062891819053
0
ELLIPSE
5
224
100
AcDbEntity
8
1
62
256
6
ByLayer
370
18
48
1
60
0
100
AcDbEllipse
10
7.6253
20
19.947088
30
0
11
1.04528463267643
21
-9.94521895368276
31
0
210
0
220
0
230
1
40
0.996195
41
3.14159265358979
42
-3.13249202467161
0
ELLIPSE
5
225
100
AcDbEntity
8
1
62
256
6
ByLayer
370
18
48
1
60
0
100
AcDbEllipse
10
6.531574
20
28.893709
30
0
11
0.104528463267641
21
-0.994521895368274
31
0
210
0
220
0
230
1
40
0.996195
41
-2.87979326579069
42
-1.83259571459404
0
ELLIPSE
5
226
100
AcDbEntity
8
1
62
256
6
ByLayer
370
18
48
1
60
0
100
AcDbEllipse
10
9.557172
20
20.669696
30
0
11
-0.0209056926535288
21
0.198904379073655
31
0
210
0
220
0
230
1
40
0.996195
41
1.57079632679488
42
-3.14159265358951
0
ELLIPSE
5
227
100
AcDbEntity
8
1
62
256
6
ByLayer
370
18
48
1
60
0
100
AcDbEllipse
10
15.146114
20
27.598429
30
0
11
0.0209056926535285
21
-0.198904379073655
31
0
210
0
220
0
230
1
40
0.996195
41
1.57079632679491
42
3.14159265358979
0
ELLIPSE
5
228
100
AcDbEntity
8
1
62
256
6
ByLayer
370
18
48
1
60
0
100
AcDbEllipse
10
8.894056
20
26.941311
30
0
11
0.0341172799593253
21
-0.3246042357198
31
0
210
0
220
0
230
1
40
0.996195
41
3.14159265358979
42
-1.5707963267949
0
ELLIPSE
5
229
100
AcDbEntity
8
1
62
256
6
ByLayer
370
18
48
1
60
0
100
AcDbEllipse
10
8.204031
20
28.915507
30
0
11
1.04528463267643
21
-9.94521895368276
31
0
210
0
220
0
230
1
40
0.996195
41
1.5707963267949
42
1.57989695571309
0
ELLIPSE
5
22A
100
AcDbEntity
8
1
62
256
6
ByLayer
370
18
48
1
60
0
100
AcDbEllipse
10
17.429228
20
26.004856
30
0
11
0.522642316338193
21
-4.97260947684119
31
0
210
0
220
0
230
1
40
0.996195
41
3.12269203158478
42
3.1324920246716
0
ELLIPSE
5
22B
100
AcDbEntity
8
1
62
256
6
ByLayer
370
18
48
1
60
0
100
AcDbEllipse
10
7.648343
20
18.268364
30
0
11
0.104528463267641
21
-0.994521895368274
31
0
210
0
220
0
230
1
40
0.996195
41
-1.30899693899576
42
-0.261799387799222
0
ELLIPSE
5
22C
100
AcDbEntity
8
1
62
256
6
ByLayer
370
18
48
1
60
0
100
AcDbEllipse
10
17.858154
20
21.023294
30
0
11
1.04528463267643
21
-9.94521895368278
31
0
210
0
220
0
230
1
40
0.996195
41
3.1066860685499
42
3.1226920315848
0
ELLIPSE
5
22D
100
AcDbEntity
8
1
62
256
6
ByLayer
370
18
48
1
60
0
100
AcDbEllipse
10
12.531956
20
27.524771
30
0
11
-0.0209056926535287
21
0.198904379073655
31
0
210
0
220
0
230
1
40
0.087156
41
-1.57079632679495
42
-0.88671509499959
0
ELLIPSE
5
22E
100
AcDbEntity
8
1
62
256
6
ByLayer
370
18
48
1
60
0
100
AcDbEllipse
10
18.232725
20
19.380828
30
0
11
-0.0899084067211502
21
0.85542134904358
31
0
210
0
220
0
230
1
40
0.996195
41
-2.87979326579059
42
-1.83259571459405
0
ELLIPSE
5
22F
100
AcDbEntity
8
1
62
256
6
ByLayer
370
18
48
1
60
0
100
AcDbEllipse
10
13.152227
20
29.481337
30
0
11
-0.508022259791707
21
4.83350893051651
31
0
210
0
220
0
230
1
40
0.996195
41
-1.5616956978767
42
-1.5518957047899
0
ELLIPSE
5
230
100
AcDbEntity
8
1
62
256
6
ByLayer
370
18
48
1
60
0
100
AcDbEllipse
10
18.725271
20
19.302474
30
0
11
0.0522642316338214
21
-0.497260947684139
31
0
210
0
220
0
230
1
40
0.996195
41
1.30899693899578
42
1.53588974175501
0
ELLIPSE
5
231
100
AcDbEntity
8
1
62
256
6
ByLayer
370
18
48
1
60
0
100
AcDbEllipse
10
8.209832
20
28.866852
30
0
11
1.04528463267643
21
-9.94521895368278
31
0
210
0
220
0
230
1
40
0.996195
41
1.58969694879989
42
1.60570291183478
0
ELLIPSE
5
232
100
AcDbEntity
8
1
62
256
6
ByLayer
370
18
48
1
60
0
100
AcDbEllipse
10
15.403708
20
24.994323
30
0
11
-0.192617575984812
21
-0.0538374351333267
31
0
210
0
220
0
230
1
40
0.014613
41
0.972752381901691
42
1.6568336136937
0
ELLIPSE
5
233
100
AcDbEntity
8
1
62
256
6
ByLayer
370
18
48
1
60
0
100
AcDbEllipse
10
13.239866
20
20.956211
30
0
11
-0.0104528463267643
21
0.0994521895368266
31
0
210
0
220
0
230
1
40
0.996195
41
0.168458242080639
42
3.14159265358922
0
ELLIPSE
5
234
100
AcDbEntity
8
1
62
256
6
ByLayer
370
18
48
1
60
0
100
AcDbEllipse
10
10.517276
20
29.204392
30
0
11
-0.508022259791706
21
4.8335089305165
31
0
210
0
220
0
230
1
40
0.996195
41
1.5518957047899
42
1.56169569787671
0
ELLIPSE
5
235
100
AcDbEntity
8
1
62
256
6
ByLayer
370
18
48
1
60
0
100
AcDbEllipse
10
6.858061
20
27.246879
30
0
11
1.04528463267643
21
-9.94521895368276
31
0
210
0
220
0
230
1
40
0.996195
41
-0.00910062891819124
42
4.99279674192371E-15
0
ELLIPSE
5
236
100
AcDbEntity
8
1
62
256
6
ByLayer
370
18
48
1
60
0
100
AcDbEllipse
10
17.09053
20
28.321665
30
0
11
-1.03066457612994
21
9.80611840735806
31
0
210
0
220
0
230
1
40
0.996195
41
-3.12269203158479
42
-3.1066860685499
0
ELLIPSE
5
237
100
AcDbEntity
8
1
62
256
6
ByLayer
370
18
48
1
60
0
100
AcDbEllipse
10
18.724742
20
19.302419
30
0
11
-0.0376441750873262
21
0.358160401359422
31
0
210
0
220
0
230
1
40
0.996195
41
-1.83259571459402
42
-1.60570291183476
0
ELLIPSE
5
238
100
AcDbEntity
8
1
62
256
6
ByLayer
370
18
48
1
60
0
100
AcDbEllipse
10
15.475514
20
29.679771
30
0
11
-1.03066457612992
21
9.80611840735787
31
0
210
0
220
0
230
1
40
0.996195
41
1.56169569787671
42
1.5707963267949
0
ELLIPSE
5
239
100
AcDbEntity
8
1
62
256
6
ByLayer
370
18
48
1
60
0
100
AcDbEllipse
10
7.570615
20
17.774572
30
0
11
0.0522642316338214
21
-0.497260947684139
31
0
210
0
220
0
230
1
40
0.996195
41
-0.261799387799107
42
-0.0349065850398898
0
ELLIPSE
5
23A
100
AcDbEntity
8
1
62
256
6
ByLayer
370
18
48
1
60
0
100
AcDbEllipse
10
6.039028
20
28.972063
30
0
11
-0.0376441750873262
21
0.358160401359422
31
0
210
0
220
0
230
1
40
0.996195
41
1.30899693899579
42
1.53588974175503
0
ELLIPSE
5
23B
100
AcDbEntity
8
1
62
256
6
ByLayer
370
18
48
1
60
0
100
AcDbEllipse
10
8.209303
20
28.866796
30
0
11
-1.03066457612994
21
9.80611840735806
31
0
210
0
220
0
230
1
40
0.996195
41
-1.5518957047899
42
-1.53588974175501
0
ELLIPSE
5
23C
100
AcDbEntity
8
1
62
256
6
ByLayer
370
18
48
1
60
0
100
AcDbEllipse
10
15.808901
20
21.125677
30
0
11
0.0209056926535285
21
-0.198904379073655
31
0
210
0
220
0
230
1
40
0.087156
41
0.886715095001758
42
1.5707963267949
0
ELLIPSE
5
23D
100
AcDbEntity
8
1
62
256
6
ByLayer
370
18
48
1
60
0
100
AcDbEllipse
10
6.906145
20
27.251243
30
0
11
-1.03066457612994
21
9.80611840735806
31
0
210
0
220
0
230
1
40
0.996195
41
3.10668606854991
42
3.1226920315848
0
ELLIPSE
5
23E
100
AcDbEntity
8
1
62
256
6
ByLayer
370
18
48
1
60
0
100
AcDbEllipse
10
11.612072
20
18.7932
30
0
11
0.522642316338193
21
-4.97260947684119
31
0
210
0
220
0
230
1
40
0.996195
41
-1.56169569787671
42
-1.5518957047899
0
ELLIPSE
5
23F
100
AcDbEntity
8
1
62
256
6
ByLayer
370
18
48
1
60
0
100
AcDbEllipse
10
8.859715
20
27.138803
30
0
11
-0.0209056926535287
21
0.198904379073655
31
0
210
0
220
0
230
1
40
0.087156
41
-1.57079632679491
42
-0.886715094997599
0
ELLIPSE
5
240
100
AcDbEntity
8
1
62
256
6
ByLayer
370
18
48
1
60
0
100
AcDbEllipse
10
7.057069
20
24.914698
30
0
11
-0.508022259791707
21
4.83350893051651
31
0
210
0
220
0
230
1
40
0.996195
41
0.0091006289181967
42
0.0189006220049988
0
ELLIPSE
5
241
100
AcDbEntity
8
1
62
256
6
ByLayer
370
18
48
1
60
0
100
AcDbEllipse
10
6.35235
20
29.360495
30
0
11
-0.0376441750873262
21
0.358160401359422
31
0
210
0
220
0
230
1
40
0.996195
41
0.0349065850400832
42
0.261799387799349
0
ELLIPSE
5
242
100
AcDbEntity
8
1
62
256
6
ByLayer
370
18
48
1
60
0
100
AcDbEllipse
10
17.70723
20
23.359839
30
0
11
0.522642316338193
21
-4.97260947684119
31
0
210
0
220
0
230
1
40
0.996195
41
0.00910062891819694
42
0.0189006220049817
0
ELLIPSE
5
243
100
AcDbEntity
8
1
62
256
6
ByLayer
370
18
48
1
60
0
100
AcDbEllipse
10
11.473001
20
27.213792
30
0
11
-0.0540801584411734
21
0.192549568846512
31
0
210
0
220
0
230
1
40
0.085922
41
-2.26954508481028
42
-1.5854638530163
0
ELLIPSE
5
244
100
AcDbEntity
8
1
62
256
6
ByLayer
370
18
48
1
60
0
100
AcDbEllipse
10
9.186325
20
23.245039
30
0
11
-0.0104528463267643
21
0.0994521895368266
31
0
210
0
220
0
230
1
40
0.996195
41
-1.4023380847141
42
1.57079632679483
0
ELLIPSE
5
245
100
AcDbEntity
8
1
62
256
6
ByLayer
370
18
48
1
60
0
100
AcDbEllipse
10
17.706701
20
23.359784
30
0
11
-0.508022259791707
21
4.83350893051651
31
0
210
0
220
0
230
1
40
0.996195
41
-3.13249202467161
42
-3.12269203158481
0
ELLIPSE
5
246
100
AcDbEntity
8
1
62
256
6
ByLayer
370
18
48
1
60
0
100
AcDbEllipse
10
17.115956
20
30.006172
30
0
11
-0.0899084067211502
21
0.85542134904358
31
0
210
0
220
0
230
1
40
0.996195
41
-1.30899693899573
42
-0.261799387799143
0
ELLIPSE
5
247
100
AcDbEntity
8
1
62
256
6
ByLayer
370
18
48
1
60
0
100
AcDbEllipse
10
11.45952
20
27.311503
30
0
11
0.023664433632561
21
-0.225152046182972
31
0
210
0
220
0
230
1
40
0.996195
41
0.168458242080694
42
3.14159265358979
0
ELLIPSE
5
248
100
AcDbEntity
8
1
62
256
6
ByLayer
370
18
48
1
60
0
100
AcDbEllipse
10
7.624771
20
19.947032
30
0
11
-1.03066457612992
21
9.80611840735787
31
0
210
0
220
0
230
1
40
0.996195
41
0
42
0.00910062891819052
0
ELLIPSE
5
249
100
AcDbEntity
8
1
62
256
6
ByLayer
370
18
48
1
60
0
100
AcDbEllipse
10
12.536102
20
27.325529
30
0
11
-0.0128650708014692
21
-0.199585795970738
31
0
210
0
220
0
230
1
40
0.085922
41
0.901382621222447
42
1.58546385301634
0
ELLIPSE
5
24A
100
AcDbEntity
8
1
62
256
6
ByLayer
370
18
48
1
60
0
100
AcDbEllipse
10
9.182424
20
23.244629
30
0
11
0.0236644336325609
21
-0.225152046182971
31
0
210
0
220
0
230
1
40
0.996195
41
1.73925456887567
42
-1.5707963267949
0
ELLIPSE
5
24B
100
AcDbEntity
8
1
62
256
6
ByLayer
370
18
48
1
60
0
100
AcDbEllipse
10
12.143543
20
20.840983
30
0
11
-0.0104528463267643
21
0.0994521895368272
31
0
210
0
220
0
230
1
40
0.996195
41
-3.14159265358922
42
-0.168458242080675
0
ELLIPSE
5
24C
100
AcDbEntity
8
1
62
256
6
ByLayer
370
18
48
1
60
0
100
AcDbEllipse
10
15.513062
20
25.022675
30
0
11
0.0236644336325609
21
-0.225152046182971
31
0
210
0
220
0
230
1
40
0.996195
41
-1.40233808471401
42
1.5707963267949
0
ELLIPSE
5
24D
100
AcDbEntity
8
1
62
256
6
ByLayer
370
18
48
1
60
0
100
AcDbEllipse
10
7.182851
20
18.089317
30
0
11
-0.0376441750873262
21
0.358160401359422
31
0
210
0
220
0
230
1
40
0.996195
41
1.60570291183485
42
1.83259571459412
0
ELLIPSE
5
24E
100
AcDbEntity
8
1
62
256
6
ByLayer
370
18
48
1
60
0
100
AcDbEllipse
10
7.673769
20
19.952872
30
0
11
1.04528463267643
21
-9.94521895368278
31
0
210
0
220
0
230
1
40
0.996195
41
-3.1226920315848
42
-3.1066860685499
0
ELLIPSE
5
24F
100
AcDbEntity
8
1
62
256
6
ByLayer
370
18
48
1
60
0
100
AcDbEllipse
10
9.284343
20
18.643564
30
0
11
1.04528463267643
21
-9.94521895368278
31
0
210
0
220
0
230
1
40
0.996195
41
1.53588974175501
42
1.5518957047899
0
ELLIPSE
5
250
100
AcDbEntity
8
1
62
256
6
ByLayer
370
18
48
1
60
0
100
AcDbEllipse
10
12.559744
20
27.427141
30
0
11
0.0104528463267641
21
-0.0994521895368273
31
0
210
0
220
0
230
1
40
0.996195
41
3.14159265358922
42
-0.168458242081217
0
ELLIPSE
5
251
100
AcDbEntity
8
1
62
256
6
ByLayer
370
18
48
1
60
0
100
AcDbEllipse
10
15.107873
20
27.795511
30
0
11
0.0209056926535285
21
-0.198904379073655
31
0
210
0
220
0
230
1
40
0.087156
41
1.57079632679493
42
2.25487755859022
0
ELLIPSE
5
252
100
AcDbEntity
8
1
62
256
6
ByLayer
370
18
48
1
60
0
100
AcDbEllipse
10
16.554467
20
19.407685
30
0
11
-1.03066457612994
21
9.80611840735806
31
0
210
0
220
0
230
1
40
0.996195
41
1.58969694879989
42
1.60570291183478
0
ELLIPSE
5
253
100
AcDbEntity
8
1
62
256
6
ByLayer
370
18
48
1
60
0
100
AcDbEllipse
10
15.142214
20
27.598019
30
0
11
0.0341172799593253
21
-0.3246042357198
31
0
210
0
220
0
230
1
40
0.996195
41
1.5707963267949
42
3.14159265358979
0
ELLIPSE
5
254
100
AcDbEntity
8
1
62
256
6
ByLayer
370
18
48
1
60
0
100
AcDbEllipse
10
13.235966
20
20.955801
30
0
11
0.0236644336325609
21
-0.225152046182971
31
0
210
0
220
0
230
1
40
0.996195
41
-2.97313441150908
42
0
0
ELLIPSE
5
255
100
AcDbEntity
8
1
62
256
6
ByLayer
370
18
48
1
60
0
100
AcDbEllipse
10
7.335601
20
22.269737
30
0
11
0.522642316338193
21
-4.97260947684119
31
0
210
0
220
0
230
1
40
0.996195
41
-0.0189006220050059
42
-0.00910062891818553
0
ELLIPSE
5
256
100
AcDbEntity
8
1
62
256
6
ByLayer
370
18
48
1
60
0
100
AcDbEllipse
10
12.351643
20
24.134062
30
0
11
0.334491082456456
21
-3.18247006517848
31
0
210
0
220
0
230
1
40
0.996195
41
0.168458242080891
42
1.40233808471402
0
ELLIPSE
5
257
100
AcDbEntity
8
1
62
256
6
ByLayer
370
18
48
1
60
0
100
AcDbEllipse
10
12.347743
20
24.133652
30
0
11
-0.321279495150663
21
3.05677020853233
31
0
210
0
220
0
230
1
40
0.996195
41
1.73925456887578
42
2.97313441150893
0
ELLIPSE
5
258
100
AcDbEntity
8
1
62
256
6
ByLayer
370
18
48
1
60
0
100
AcDbEllipse
10
13.152757
20
29.481392
30
0
11
0.522642316338193
21
-4.97260947684119
31
0
210
0
220
0
230
1
40
0.996195
41
1.57989695571309
42
1.58969694879989
0
ELLIPSE
5
259
100
AcDbEntity
8
1
62
256
6
ByLayer
370
18
48
1
60
0
100
AcDbEllipse
10
11.463421
20
27.311913
30
0
11
0.0104528463267641
21
-0.0994521895368273
31
0
210
0
220
0
230
1
40
0.996195
41
0.168458242081217
42
3.14159265358922
0
ELLIPSE
5
25A
100
AcDbEntity
8
1
62
256
6
ByLayer
370
18
48
1
60
0
100
AcDbEllipse
10
11.435632
20
27.409543
30
0
11
0.0209056926535285
21
-0.198904379073655
31
0
210
0
220
0
230
1
40
0.087156
41
1.57079632679491
42
2.25487755858802
0
ELLIPSE
5
25B
100
AcDbEntity
8
1
62
256
6
ByLayer
370
18
48
1
60
0
100
AcDbEllipse
10
17.580919
20
30.185164
30
0
11
-0.0376441750873262
21
0.358160401359422
31
0
210
0
220
0
230
1
40
0.996195
41
-1.53588974175499
42
-1.30899693899571
0
ELLIPSE
5
25C
100
AcDbEntity
8
1
62
256
6
ByLayer
370
18
48
1
60
0
100
AcDbEllipse
10
9.560743
20
20.468969
30
0
11
0.0209056926535285
21
-0.198904379073655
31
0
210
0
220
0
230
1
40
0.087156
41
0.88671509499957
42
1.57079632679483
0
ELLIPSE
5
25D
100
AcDbEntity
8
1
62
256
6
ByLayer
370
18
48
1
60
0
100
AcDbEllipse
10
15.80143
20
21.325994
30
0
11
0.0341172799593253
21
-0.3246042357198
31
0
210
0
220
0
230
1
40
0.996195
41
0
42
1.57079632679486
0
ELLIPSE
5
25E
100
AcDbEntity
8
1
62
256
6
ByLayer
370
18
48
1
60
0
100
AcDbEllipse
10
7.570086
20
17.774516
30
0
11
-0.0376441750873262
21
0.358160401359422
31
0
210
0
220
0
230
1
40
0.996195
41
2.8797932657906
42
3.10668606854987
0
ELLIPSE
5
25F
100
AcDbEntity
8
1
62
256
6
ByLayer
370
18
48
1
60
0
100
AcDbEllipse
10
15.515871
20
23.92716
30
0
11
0.199601851976567
21
-0.0126135121011011
31
0
210
0
220
0
230
1
40
0.014613
41
1.4847590398962
42
2.16884027169253
0
ELLIPSE
5
260
100
AcDbEntity
8
1
62
256
6
ByLayer
370
18
48
1
60
0
100
AcDbEllipse
10
17.138999
20
28.327449
30
0
11
-1.03066457612992
21
9.80611840735787
31
0
210
0
220
0
230
1
40
0.996195
41
-3.14159265358979
42
-3.1324920246716
0
ELLIPSE
5
261
100
AcDbEntity
8
1
62
256
6
ByLayer
370
18
48
1
60
0
100
AcDbEllipse
10
18.233254
20
19.380884
30
0
11
0.104528463267641
21
-0.994521895368274
31
0
210
0
220
0
230
1
40
0.996195
41
0.261799387799167
42
1.30899693899576
0
ELLIPSE
5
262
100
AcDbEntity
8
1
62
256
6
ByLayer
370
18
48
1
60
0
100
AcDbEllipse
10
6.35288
20
29.360551
30
0
11
0.0522642316338214
21
-0.497260947684139
31
0
210
0
220
0
230
1
40
0.996195
41
-3.1066860685499
42
-2.87979326579069
0
ELLIPSE
5
263
100
AcDbEntity
8
1
62
256
6
ByLayer
370
18
48
1
60
0
100
AcDbEllipse
10
6.906674
20
27.251298
30
0
11
1.04528463267643
21
-9.94521895368278
31
0
210
0
220
0
230
1
40
0.996195
41
-0.034906585039884
42
-0.0189006220049988
0
ELLIPSE
5
264
100
AcDbEntity
8
1
62
256
6
ByLayer
370
18
48
1
60
0
100
AcDbEllipse
10
16.560797
20
19.359085
30
0
11
1.04528463267643
21
-9.94521895368276
31
0
210
0
220
0
230
1
40
0.996195
41
-1.5707963267949
42
-1.5616956978767
0
ELLIPSE
5
265
100
AcDbEntity
8
1
62
256
6
ByLayer
370
18
48
1
60
0
100
AcDbEllipse
10
17.194213
20
30.500021
30
0
11
0.0522642316338214
21
-0.497260947684139
31
0
210
0
220
0
230
1
40
0.996195
41
2.8797932657908
42
3.10668606854979
0
ELLIPSE
5
266
100
AcDbEntity
8
1
62
256
6
ByLayer
370
18
48
1
60
0
100
AcDbEllipse
10
9.283814
20
18.643508
30
0
11
-1.03066457612994
21
9.80611840735806
31
0
210
0
220
0
230
1
40
0.996195
41
-1.60570291183478
42
-1.58969694879989
0
ELLIPSE
5
267
100
AcDbEntity
8
1
62
256
6
ByLayer
370
18
48
1
60
0
100
AcDbEllipse
10
13.232983
20
20.854937
30
0
11
0.0209056926535285
21
-0.198904379073655
31
0
210
0
220
0
230
1
40
0.087156
41
0.886715095000199
42
1.5707963267949
0
ELLIPSE
5
268
100
AcDbEntity
8
1
62
256
6
ByLayer
370
18
48
1
60
0
100
AcDbEllipse
10
16.560268
20
19.35903
30
0
11
-1.03066457612992
21
9.80611840735787
31
0
210
0
220
0
230
1
40
0.996195
41
1.5707963267949
42
1.57989695571309
0
ELLIPSE
5
269
100
AcDbEntity
8
1
62
256
6
ByLayer
370
18
48
1
60
0
100
AcDbEllipse
10
15.479956
20
29.630973
30
0
11
-1.03066457612994
21
9.80611840735806
31
0
210
0
220
0
230
1
40
0.996195
41
1.53588974175501
42
1.5518957047899
0
ELLIPSE
5
26A
100
AcDbEntity
8
1
62
256
6
ByLayer
370
18
48
1
60
0
100
AcDbEllipse
10
14.247023
20
19.070145
30
0
11
0.522642316338193
21
-4.97260947684119
31
0
210
0
220
0
230
1
40
0.996195
41
1.5518957047899
42
1.56169569787671
0
ELLIPSE
5
26B
100
AcDbEntity
8
1
62
256
6
ByLayer
370
18
48
1
60
0
100
AcDbEllipse
10
9.553272
20
20.669286
30
0
11
0.0341172799593253
21
-0.3246042357198
31
0
210
0
220
0
230
1
40
0.996195
41
-1.57079632679491
42
0
0
ELLIPSE
5
26C
100
AcDbEntity
8
1
62
256
6
ByLayer
370
18
48
1
60
0
100
AcDbEllipse
10
12.139642
20
20.840573
30
0
11
0.023664433632561
21
-0.225152046182972
31
0
210
0
220
0
230
1
40
0.996195
41
0
42
2.9731344115086
0
ELLIPSE
5
26D
100
AcDbEntity
8
1
62
256
6
ByLayer
370
18
48
1
60
0
100
AcDbEllipse
10
6.531045
20
28.893653
30
0
11
-0.0899084067211502
21
0.85542134904358
31
0
210
0
220
0
230
1
40
0.996195
41
0.261799387799206
42
1.30899693899576
0
ELLIPSE
5
26E
100
AcDbEntity
8
1
62
256
6
ByLayer
370
18
48
1
60
0
100
AcDbEllipse
10
-5.798238
20
-9.970813
30
0
11
-1.3095
21
1.6036220203304E-16
31
0
210
1.24683249835833E-15
220
0
230
1
40
0.894934
41
0.569512003375668
42
2.32860768722559
0
ELLIPSE
5
26F
100
AcDbEntity
8
1
62
256
6
ByLayer
370
18
48
1
60
0
100
AcDbEllipse
10
-5.798238
20
-9.885813
30
0
11
-1.5
21
1.83690953073357E-16
31
0
210
1.24683249835833E-15
220
0
230
1
40
0.894934
41
0.642062986726111
42
2.21433171750594
0
ELLIPSE
5
270
100
AcDbEntity
8
1
62
256
6
ByLayer
370
18
48
1
60
0
100
AcDbEllipse
10
7.494463
20
15.408222
30
0
11
8.80763192867475
21
-86.8874057674629
31
0
210
0
220
0
230
-1
40
0.009125
41
1.62698418513795
42
1.72418351331989
0
ELLIPSE
5
271
100
AcDbEntity
8
1
62
256
6
ByLayer
370
18
48
1
60
0
100
AcDbEllipse
10
18.096683
20
18.909188
30
0
11
0.0839421959960879
21
-0.79865664583666
31
0
210
0
220
0
230
-1
40
0.086824
41
-0.89566479392885
42
-0.0179855101284477
0
ELLIPSE
5
272
100
AcDbEntity
8
1
62
256
6
ByLayer
370
18
48
1
60
0
100
AcDbEllipse
10
8.008319
20
18.846093
30
0
11
0.0023423998361077
21
-2.10008585590628
31
0
210
0
220
0
230
-1
40
0.996112
41
-0.691374479408198
42
1.4675919074308
0
ELLIPSE
5
273
100
AcDbEntity
8
1
62
256
6
ByLayer
370
18
48
1
60
0
100
AcDbEllipse
10
17.587832
20
18.900475
30
0
11
0.0487528218923594
21
-0.799276649567956
31
0
210
0
220
0
230
-1
40
0.08699
41
-0.767633816981312
42
-0.0223429964685723
0
ELLIPSE
5
274
100
AcDbEntity
8
1
62
256
6
ByLayer
370
18
48
1
60
0
100
AcDbEllipse
10
8.276345
20
19.125641
30
0
11
-0.219509772862052
21
2.08849598027338
31
0
210
0
220
0
230
1
40
0.996195
41
0.947386744149112
42
1.5707963267949
0
ELLIPSE
5
275
100
AcDbEntity
8
1
62
256
6
ByLayer
370
18
48
1
60
0
100
AcDbEllipse
10
19.141967
20
12.923654
30
0
11
0.00260067436288362
21
6.50000048758397
31
0
210
0
220
0
230
-1
40
0.087006
41
-1.38046773909863
42
-1.27492104728438
0
ELLIPSE
5
276
100
AcDbEntity
8
1
62
256
6
ByLayer
370
18
48
1
60
0
100
AcDbEllipse
10
8.302477
20
18.87701
30
0
11
-0.219509772862052
21
2.08849598027338
31
0
210
0
220
0
230
1
40
0.996195
41
1.57079632679489
42
3.07044042407415
0
ELLIPSE
5
277
100
AcDbEntity
8
1
62
256
6
ByLayer
370
18
48
1
60
0
100
AcDbEllipse
10
7.982386
20
19.094744
30
0
11
0.0023423971822866
21
-2.10008585586753
31
0
210
0
220
0
230
-1
40
0.996112
41
1.46759190616006
42
2.13030169993338
0
ELLIPSE
5
278
100
AcDbEntity
8
1
62
256
6
ByLayer
370
18
48
1
60
0
100
AcDbEllipse
10
18.725271
20
-9.689796
30
0
11
-0.497332337549462
21
-0.0515804810717205
31
0
210
0
220
0
230
1
40
0.54224
41
3.01520355560188
42
-3.04108894881851
0
ELLIPSE
5
279
100
AcDbEntity
8
1
62
256
6
ByLayer
370
18
48
1
60
0
100
AcDbEllipse
10
18.090094
20
-12.65914
30
0
11
-0.745998506324189
21
-0.0773707216075807
31
0
210
0
220
0
230
1
40
0.54224
41
2.98029697056198
42
-2.3813210565732
0
ELLIPSE
5
27A
100
AcDbEntity
8
1
62
256
6
ByLayer
370
18
48
1
60
0
100
AcDbEllipse
10
17.053594
20
-18.102146
30
0
11
-0.745998506324189
21
-0.0773707216075807
31
0
210
0
220
0
230
1
40
0.54224
41
2.66608829260849
42
2.98029697056203
0
ELLIPSE
5
27B
100
AcDbEntity
8
1
62
256
6
ByLayer
370
18
48
1
60
0
100
AcDbEllipse
10
-4.098238
20
-6.579786
30
0
11
0.775
21
0
31
0
210
0
220
0
230
1
40
0.446198
41
2.63805508732311
42
0
0
ELLIPSE
5
27C
100
AcDbEntity
8
1
62
256
6
ByLayer
370
18
48
1
60
0
100
AcDbEllipse
10
-4.098238
20
-6.579786
30
0
11
0.775
21
0
31
0
210
0
220
0
230
1
40
0.446198
41
0
42
0.398981325393038
0
POINT
5
6C
100
AcDbEntity
8
81
62
256
6
ByLayer
370
13
48
1
60
0
100
AcDbPoint
10
18
20
31
30
0
39
0
210
0
220
0
230
1
50
360
0
POINT
5
6E
100
AcDbEntity
8
80
62
256
6
ByLayer
370
13
48
1
60
0
100
AcDbPoint
10
0
20
0
30
0
39
0
210
0
220
0
230
1
50
360
0
SPLINE
5
27D
100
AcDbEntity
8
1
62
256
6
ByLayer
370
18
48
1
60
0
100
AcDbSpline
70
4
71
3
72
13
73
9
40
0
40
0
40
0
40
0
40
0.176639521196456
40
0.405543443311488
40
0.597551212269698
40
0.790351552331305
40
0.964529024501337
40
1
40
1
40
1
40
1
41
1
10
-4.33689122859542
20
-11.2510667819855
30
0
41
1
10
-4.36843962025105
20
-11.3101953622584
30
0
41
1
10
-4.45186271865421
20
-11.436139254616
30
0
41
1
10
-4.60616472095168
20
-11.5728175768333
30
0
41
1
10
-4.76512387325297
20
-11.6310508388771
30
0
41
1
10
-4.87178507756457
20
-11.6064178712608
30
0
41
1
10
-4.89986894127546
20
-11.5437509290821
30
0
41
1
10
-4.89804973697997
20
-11.5012511795858
30
0
41
1
10
-4.89728113811103
20
-11.4937936552554
30
0
0
SPLINE
5
27E
100
AcDbEntity
8
1
62
256
6
ByLayer
370
18
48
1
60
0
100
AcDbSpline
70
4
71
3
72
30
73
26
40
0
40
0
40
0
40
0
40
0.0754486908211924
40
0.0754486908211924
40
0.134142567439234
40
0.134142567439234
40
0.208789318447063
40
0.208789318447063
40
0.300864837338281
40
0.300864837338281
40
0.400373451415948
40
0.400373451415948
40
0.499841523429527
40
0.499841523429527
40
0.64479499723631
40
0.64479499723631
40
0.71184360098512
40
0.71184360098512
40
0.778927202841157
40
0.778927202841157
40
0.846083321820494
40
0.846083321820494
40
0.913400043300338
40
0.913400043300338
40
1
40
1
40
1
40
1
41
1
10
12.7956057112035
20
22.9844271865744
30
0
41
1
10
12.7864560607441
20
22.996844507536
30
0
41
1
10
12.7746966965306
20
23.0075982389853
30
0
41
1
10
12.7515863294561
20
23.0238666988334
30
0
41
1
10
12.7405796211942
20
23.0301130166697
30
0
41
1
10
12.7144463333109
20
23.0425099023403
30
0
41
1
10
12.698903199097
20
23.048230372217
30
0
41
1
10
12.6631238033095
20
23.0586799092494
30
0
41
1
10
12.6424850489376
20
23.0629122285002
30
0
41
1
10
12.5987340075022
20
23.0689540646089
30
0
41
1
10
12.5753937286364
20
23.070559453679
30
0
41
1
10
12.5283973123882
20
23.0709923794064
30
0
41
1
10
12.504595588732
20
23.0698199406818
30
0
41
1
10
12.4464675119226
20
23.0637104336213
30
0
41
1
10
12.4118847648832
20
23.0572738988169
30
0
41
1
10
12.3629215993488
20
23.0437332803398
30
0
41
1
10
12.3475677673631
20
23.0388108104868
30
0
41
1
10
12.3175415102037
20
23.0276713513528
30
0
41
1
10
12.3028178941368
20
23.0214356802375
30
0
41
1
10
12.2743615920002
20
23.007551945419
30
0
41
1
10
12.2605662212179
20
22.9998733539898
30
0
41
1
10
12.2344450389734
20
22.9829198743821
30
0
41
1
10
12.2220344242467
20
22.9735871870812
30
0
41
1
10
12.1964373887755
20
22.950275298161
30
0
41
1
10
12.1837102297931
20
22.9354370223304
30
0
41
1
10
12.1746913597387
20
22.9191664584982
30
0
0
SPLINE
5
27F
100
AcDbEntity
8
1
62
256
6
ByLayer
370
18
48
1
60
0
100
AcDbSpline
70
4
71
3
72
26
73
22
40
0
40
0
40
0
40
0
40
0.0286869624047466
40
0.0286869624047466
40
0.141758577073008
40
0.141758577073008
40
0.254859186747307
40
0.254859186747307
40
0.368025661656668
40
0.368025661656668
40
0.481336136143645
40
0.481336136143645
40
0.594988764681352
40
0.594988764681352
40
0.731770501834084
40
0.731770501834084
40
0.814572892185895
40
0.814572892185895
40
0.903908109635028
40
0.903908109635028
40
1
40
1
40
1
40
1
41
1
10
11.5258761474667
20
25.2748311955996
30
0
41
1
10
11.529376631297
20
25.2773832943863
30
0
41
1
10
11.5329040418668
20
25.2799003628325
30
0
41
1
10
11.5504555169082
20
25.2921562358953
30
0
41
1
10
11.5648691511118
20
25.3013860049803
30
0
41
1
10
11.5944073207208
20
25.3186124285798
30
0
41
1
10
11.6095610730635
20
25.3266263789676
30
0
41
1
10
11.6405229492366
20
25.3412330639723
30
0
41
1
10
11.6563696484278
20
25.3478444496663
30
0
41
1
10
11.6886473949157
20
25.3593312717161
30
0
41
1
10
11.7051377558664
20
25.3642280575757
30
0
41
1
10
11.7385569734636
20
25.3717517242636
30
0
41
1
10
11.7555945176328
20
25.3743997740164
30
0
41
1
10
11.7929449007773
20
25.3766944707251
30
0
41
1
10
11.8136732695867
20
25.375646621721
30
0
41
1
10
11.8448066231281
20
25.3682480437513
30
0
41
1
10
11.8562496791287
20
25.3640559946478
30
0
41
1
10
11.8774889468338
20
25.3522728013207
30
0
41
1
10
11.8873274541435
20
25.344245915908
30
0
41
1
10
11.9031446371035
20
25.3249618799836
30
0
41
1
10
11.9090284984548
20
25.3132402047404
30
0
41
1
10
11.9124933656048
20
25.3011179339777
30
0
0
SPLINE
5
280
100
AcDbEntity
8
1
62
256
6
ByLayer
370
18
48
1
60
0
100
AcDbSpline
70
4
71
3
72
26
73
22
40
0
40
0
40
0
40
0
40
0.0286869624045571
40
0.0286869624045571
40
0.141758577072858
40
0.141758577072858
40
0.254859186747111
40
0.254859186747111
40
0.368025661656489
40
0.368025661656489
40
0.481336136143514
40
0.481336136143514
40
0.594988764681215
40
0.594988764681215
40
0.731770501834064
40
0.731770501834064
40
0.814572892185868
40
0.814572892185868
40
0.903908109634997
40
0.903908109634997
40
1
40
1
40
1
40
1
41
1
10
13.1777429400636
20
22.993327956059
30
0
41
1
10
13.1742424562333
20
22.9907758572723
30
0
41
1
10
13.1707174008216
20
22.9882590363633
30
0
41
1
10
13.1531892276127
20
22.9760056124217
30
0
41
1
10
13.1388306135588
20
22.9667816261875
30
0
41
1
10
13.1094806030781
20
22.9495749789092
30
0
41
1
10
13.0944601228094
20
22.9415750359808
30
0
41
1
10
13.0638565059024
20
22.9270060055424
30
0
41
1
10
13.0482351269058
20
22.9204183019551
30
0
41
1
10
13.0165249145533
20
22.9089911301466
30
0
41
1
10
13.0003776212304
20
22.9041304021477
30
0
41
1
10
12.9678048213414
20
22.8966956975458
30
0
41
1
10
12.9512732768085
20
22.8941008304977
30
0
41
1
10
12.9152862938097
20
22.8919494329187
30
0
41
1
10
12.8954814531773
20
22.8930943486456
30
0
41
1
10
12.8662208869102
20
22.9006897644896
30
0
41
1
10
12.8555896850048
20
22.9049671428969
30
0
41
1
10
12.8362131731513
20
22.9169461197532
30
0
41
1
10
12.8274666670468
20
22.9250877791176
30
0
41
1
10
12.8139912201347
20
22.9446179414185
30
0
41
1
10
12.8093968888912
20
22.9564751517375
30
0
41
1
10
12.807172872691
20
22.9687278411904
30
0
0
SPLINE
5
281
100
AcDbEntity
8
1
62
256
6
ByLayer
370
18
48
1
60
0
100
AcDbSpline
70
4
71
3
72
26
73
22
40
0
40
0
40
0
40
0
40
0.0341747429583157
40
0.0341747429583157
40
0.118717554180427
40
0.118717554180427
40
0.203116442115718
40
0.203116442115718
40
0.327045140901049
40
0.327045140901049
40
0.40298023117911
40
0.40298023117911
40
0.505547228462848
40
0.505547228462848
40
0.607904869129083
40
0.607904869129083
40
0.710165947508077
40
0.710165947508077
40
0.91560288621887
40
0.91560288621887
40
1
40
1
40
1
40
1
41
1
10
11.3927940640337
20
24.9222206097062
30
0
41
1
10
11.3887187458619
20
24.9245359463753
30
0
41
1
10
11.384798163345
20
24.9271089905817
30
0
41
1
10
11.3720369506886
20
24.9368465736957
30
0
41
1
10
11.3641490497379
20
24.94547639994
30
0
41
1
10
11.3523704916862
20
24.9650256192862
30
0
41
1
10
11.3483315808504
20
24.9761723739059
30
0
41
1
10
11.3431869595269
20
25.0044576119429
30
0
41
1
10
11.3440989559542
20
25.0224912841188
30
0
41
1
10
11.3497374163398
20
25.0506040920623
30
0
41
1
10
11.3528818153585
20
25.0612836777137
30
0
41
1
10
11.3619351290942
20
25.0858124614133
30
0
41
1
10
11.3684579213922
20
25.0995700339943
30
0
41
1
10
11.383242880327
20
25.1261018904736
30
0
41
1
10
11.3915441562614
20
25.1389497960548
30
0
41
1
10
11.4094330963364
20
25.1637192179984
30
0
41
1
10
11.4190501110266
20
25.1756808595324
30
0
41
1
10
11.4494661629653
20
25.2102898398182
30
0
41
1
10
11.4718942988477
20
25.2317479175078
30
0
41
1
10
11.5055184173025
20
25.2595171082213
30
0
41
1
10
11.5155844286004
20
25.2673278090667
30
0
41
1
10
11.5258761474667
20
25.2748311955996
30
0
0
SPLINE
5
282
100
AcDbEntity
8
1
62
256
6
ByLayer
370
18
48
1
60
0
100
AcDbSpline
70
4
71
3
72
26
73
22
40
0
40
0
40
0
40
0
40
0.0369679839399248
40
0.0369679839399248
40
0.140366078223073
40
0.140366078223073
40
0.298318733654473
40
0.298318733654473
40
0.500628765508234
40
0.500628765508234
40
0.645354084681093
40
0.645354084681093
40
0.712297154914724
40
0.712297154914724
40
0.779275168169092
40
0.779275168169092
40
0.846325584405815
40
0.846325584405815
40
0.91353635035721
40
0.91353635035721
40
1
40
1
40
1
40
1
41
1
10
13.3169102642773
20
23.3644948520411
30
0
41
1
10
13.3129982290922
20
23.3711190191595
30
0
41
1
10
13.3096644693093
20
23.3782189403398
30
0
41
1
10
13.2990756343936
20
23.4060101135694
30
0
41
1
10
13.2951222957579
20
23.4288376796347
30
0
41
1
10
13.2915926427226
20
23.487247992743
30
0
41
1
10
13.2952437301155
20
23.5243884354124
30
0
41
1
10
13.3116669962559
20
23.6074534461711
30
0
41
1
10
13.3270323702331
20
23.6543722936167
30
0
41
1
10
13.3606490871293
20
23.7302130663881
30
0
41
1
10
13.3771166724073
20
23.7609958125406
30
0
41
1
10
13.4041611869361
20
23.8028701359595
30
0
41
1
10
13.413212204735
20
23.8157405171931
30
0
41
1
10
13.4322006918364
20
23.8403362522265
30
0
41
1
10
13.4421702398818
20
23.8521036336107
30
0
41
1
10
13.4630144567347
20
23.8741634428259
30
0
41
1
10
13.4739349449335
20
23.8845044500515
30
0
41
1
10
13.4967093570535
20
23.9031992959608
30
0
41
1
10
13.5086395685572
20
23.9116127820736
30
0
41
1
10
13.536799816121
20
23.9274937314744
30
0
41
1
10
13.5536419957483
20
23.9342135821332
30
0
41
1
10
13.570634104157
20
23.9369068501006
30
0
0
SPLINE
5
283
100
AcDbEntity
8
1
62
256
6
ByLayer
370
18
48
1
60
0
100
AcDbSpline
70
4
71
3
72
26
73
22
40
0
40
0
40
0
40
0
40
0.0341747429583064
40
0.0341747429583064
40
0.118717554180375
40
0.118717554180375
40
0.203116442115667
40
0.203116442115667
40
0.327045140900962
40
0.327045140900962
40
0.402980231178989
40
0.402980231178989
40
0.505547228462763
40
0.505547228462763
40
0.607904869128985
40
0.607904869128985
40
0.710165947508043
40
0.710165947508043
40
0.915602886218719
40
0.915602886218719
40
1
40
1
40
1
40
1
41
1
10
12.1647343964258
20
22.9012048364372
30
0
41
1
10
12.1644208548781
20
22.8966655914153
30
0
41
1
10
12.1638042589362
20
22.8921336196327
30
0
41
1
10
12.160555836183
20
22.8767315174626
30
0
41
1
10
12.1561693739825
20
22.8659638963734
30
0
41
1
10
12.14354459891
20
22.8467042093833
30
0
41
1
10
12.1351640838635
20
22.8379788093067
30
0
41
1
10
12.1116307248277
20
22.8201459192721
30
0
41
1
10
12.0947628942273
20
22.8123151225099
30
0
41
1
10
12.0665642535823
20
22.8036800769686
30
0
41
1
10
12.0553997605434
20
22.8012489664712
30
0
41
1
10
12.0289223121934
20
22.7972204206058
30
0
41
1
10
12.0134128652518
20
22.7961881276
30
0
41
1
10
11.9824831880401
20
22.7960765219657
30
0
41
1
10
11.9669781736313
20
22.7969951973096
30
0
41
1
10
11.9362053790921
20
22.8003766335883
30
0
41
1
10
11.92088767021
20
22.8028451470306
30
0
41
1
10
11.8753476218324
20
22.812205355485
30
0
41
1
10
11.8454289733651
20
22.8210652694496
30
0
41
1
10
11.8045223816853
20
22.8364780308607
30
0
41
1
10
11.7927272337769
20
22.8413352561269
30
0
41
1
10
11.7811003718795
20
22.8465349069905
30
0
0
SPLINE
5
284
100
AcDbEntity
8
1
62
256
6
ByLayer
370
18
48
1
60
0
100
AcDbSpline
70
4
71
3
72
26
73
22
40
0
40
0
40
0
40
0
40
0.0753632465605439
40
0.0753632465605439
40
0.133990653438513
40
0.133990653438513
40
0.208552868369791
40
0.208552868369791
40
0.300524113423237
40
0.300524113423237
40
0.399920035818932
40
0.399920035818932
40
0.499275462063603
40
0.499275462063603
40
0.577746029348543
40
0.577746029348543
40
0.777160361616573
40
0.777160361616573
40
0.913864695659915
40
0.913864695659915
40
1
40
1
40
1
40
1
41
1
10
13.5030053484384
20
24.5803514795923
30
0
41
1
10
13.4880039493247
20
24.5795670015386
30
0
41
1
10
13.4724735108081
20
24.5818130256403
30
0
41
1
10
13.4454518906066
20
24.5892575286279
30
0
41
1
10
13.4336626625331
20
24.5937384477961
30
0
41
1
10
13.4074182936235
20
24.6058847298492
30
0
41
1
10
13.3929953334297
20
24.614132360955
30
0
41
1
10
13.361738471758
20
24.6347849312967
30
0
41
1
10
13.3449921691137
20
24.6477987906277
30
0
41
1
10
13.3115768575478
20
24.6771584820428
30
0
41
1
10
13.2949013298959
20
24.6937998391976
30
0
41
1
10
13.2633072951496
20
24.7289812062803
30
0
41
1
10
13.2482918659597
20
24.7476310293243
30
0
41
1
10
13.2231939682872
20
24.7822954072887
30
0
41
1
10
13.212691522202
20
24.7981074999468
30
0
41
1
10
13.1782765991053
20
24.8548880550891
30
0
41
1
10
13.1575801905322
20
24.8984954376005
30
0
41
1
10
13.1347714171994
20
24.9724867890127
30
0
41
1
10
13.1286387515183
20
25.0034947132409
30
0
41
1
10
13.1280372642493
20
25.0520050621912
30
0
41
1
10
13.1301644821801
20
25.0706789055726
30
0
41
1
10
13.1358148368514
20
25.087502749579
30
0
0
SPLINE
5
285
100
AcDbEntity
8
1
62
256
6
ByLayer
370
18
48
1
60
0
100
AcDbSpline
70
4
71
3
72
8
73
4
40
0
40
0
40
0
40
0
40
1
40
1
40
1
40
1
41
1
10
11.1302748346123
20
24.3299658309852
30
0
41
1
10
11.1371617941646
20
24.3310234918212
30
0
41
1
10
11.144049761742
20
24.3320813195957
30
0
41
1
10
11.1509387836388
20
24.3331393220051
30
0
0
SPLINE
5
286
100
AcDbEntity
8
1
62
256
6
ByLayer
370
18
48
1
60
0
100
AcDbSpline
70
4
71
3
72
8
73
4
40
0
40
0
40
0
40
0
40
1
40
1
40
1
40
1
41
1
10
11.4046626235166
20
24.905551320068
30
0
41
1
10
11.4007059502736
20
24.9111088235282
30
0
41
1
10
11.3967497709256
20
24.9166652372814
30
0
41
1
10
11.3927940640337
20
24.9222206097062
30
0
0
SPLINE
5
287
100
AcDbEntity
8
1
62
256
6
ByLayer
370
18
48
1
60
0
100
AcDbSpline
70
4
71
3
72
30
73
26
40
0
40
0
40
0
40
0
40
0.075448690821289
40
0.075448690821289
40
0.134142567439342
40
0.134142567439342
40
0.208789318447153
40
0.208789318447153
40
0.300864837338282
40
0.300864837338282
40
0.400373451416022
40
0.400373451416022
40
0.499841523429528
40
0.499841523429528
40
0.644794997236263
40
0.644794997236263
40
0.711843600985123
40
0.711843600985123
40
0.778927202841202
40
0.778927202841202
40
0.846083321820503
40
0.846083321820503
40
0.913400043300364
40
0.913400043300364
40
1
40
1
40
1
40
1
41
1
10
11.9259671765924
20
25.2856189855313
30
0
41
1
10
11.9366236643951
20
25.2733600395563
30
0
41
1
10
11.9498232921246
20
25.2627576859024
30
0
41
1
10
11.9752754927105
20
25.2467353626747
30
0
41
1
10
11.9872466199347
20
25.2405904093559
30
0
41
1
10
12.0154065560781
20
25.2284065330008
30
0
41
1
10
12.0319762050182
20
25.2227939541694
30
0
41
1
10
12.0697885215471
20
25.2125580857169
30
0
41
1
10
12.0913818064234
20
25.2084260916649
30
0
41
1
10
12.1367477791742
20
25.202553991677
30
0
41
1
10
12.1607240556941
20
25.201015448654
30
0
41
1
10
12.2085675329761
20
25.2006715526287
30
0
41
1
10
12.2325828285924
20
25.2018664386709
30
0
41
1
10
12.2907109054018
20
25.2079759457314
30
0
41
1
10
12.3248402727527
20
25.2143648284103
30
0
41
1
10
12.372498424643
20
25.2277682844265
30
0
41
1
10
12.3873427094889
20
25.232637198717
30
0
41
1
10
12.4161654690161
20
25.2436501651526
30
0
41
1
10
12.4301930815913
20
25.2498126833532
30
0
41
1
10
12.4570766666358
20
25.2635311189444
30
0
41
1
10
12.4699917967701
20
25.2711171933535
30
0
41
1
10
12.4941745161571
20
25.287866932305
30
0
41
1
10
12.50552023878
20
25.2970876949356
30
0
41
1
10
12.5284995033156
20
25.3201244450436
30
0
41
1
10
12.5395884036119
20
25.3347905329478
30
0
41
1
10
12.5468815280571
20
25.3508797136074
30
0
0
SPLINE
5
288
100
AcDbEntity
8
1
62
256
6
ByLayer
370
18
48
1
60
0
100
AcDbSpline
70
4
71
3
72
26
73
22
40
0
40
0
40
0
40
0
40
0.0246840387502232
40
0.0246840387502232
40
0.108402719804378
40
0.108402719804378
40
0.19210305254761
40
0.19210305254761
40
0.309485195483531
40
0.309485195483531
40
0.380199874143333
40
0.380199874143333
40
0.476666438094151
40
0.476666438094151
40
0.587023534816817
40
0.587023534816817
40
0.69722910130018
40
0.69722910130018
40
0.807364565734766
40
0.807364565734766
40
1
40
1
40
1
40
1
41
1
10
13.5893914036834
20
23.9398799441829
30
0
41
1
10
13.5923418847654
20
23.9389165256714
30
0
41
1
10
13.5953347113052
20
23.9381042475989
30
0
41
1
10
13.6084783926533
20
23.9352971371316
30
0
41
1
10
13.6191132603497
20
23.9350527031573
30
0
41
1
10
13.6397316688345
20
23.9389720227102
30
0
41
1
10
13.6499565514837
20
23.9431883232418
30
0
41
1
10
13.6723060216964
20
23.9574082979769
30
0
41
1
10
13.6840053005505
20
23.9692252626043
30
0
41
1
10
13.6997627800732
20
23.9905868899513
30
0
41
1
10
13.7051396208016
20
23.9993203692462
30
0
41
1
10
13.7165330189264
20
24.020799708807
30
0
41
1
10
13.722127818739
20
24.0339401071338
30
0
41
1
10
13.7323351297159
20
24.062823916967
30
0
41
1
10
13.7367270980499
20
24.0787697484051
30
0
41
1
10
13.7437487160366
20
24.1110545033455
30
0
41
1
10
13.746393169995
20
24.1274617622118
30
0
41
1
10
13.7501868578659
20
24.1604468283766
30
0
41
1
10
13.7513408116821
20
24.1770696513635
30
0
41
1
10
13.7526713235788
20
24.2227377073321
30
0
41
1
10
13.7514925944396
20
24.2519443663674
30
0
41
1
10
13.7484521119492
20
24.2808726248978
30
0
0
SPLINE
5
289
100
AcDbEntity
8
1
62
256
6
ByLayer
370
18
48
1
60
0
100
AcDbSpline
70
4
71
3
72
26
73
22
40
0
40
0
40
0
40
0
40
0.0286869624046207
40
0.0286869624046207
40
0.141758577072886
40
0.141758577072886
40
0.254859186747175
40
0.254859186747175
40
0.368025661656546
40
0.368025661656546
40
0.481336136143601
40
0.481336136143601
40
0.594988764681305
40
0.594988764681305
40
0.731770501834084
40
0.731770501834084
40
0.814572892185916
40
0.814572892185916
40
0.90390810963504
40
0.90390810963504
40
1
40
1
40
1
40
1
41
1
10
11.7811003718795
20
22.8465349069905
30
0
41
1
10
11.7771457708456
20
22.8483034447837
30
0
41
1
10
11.7732097861722
20
22.8501120420167
30
0
41
1
10
11.7538661482383
20
22.8592410457034
30
0
41
1
10
11.7387297513533
20
22.8671421337266
30
0
41
1
10
11.7092271107694
20
22.8841501817823
30
0
41
1
10
11.6948314215319
20
22.8932738555443
30
0
41
1
10
11.6670116123791
20
22.9127670193717
30
0
41
1
10
11.6535523510794
20
22.9231606102763
30
0
41
1
10
11.6279320445998
20
22.9452809309691
30
0
41
1
10
11.6157235607454
20
22.9570482559523
30
0
41
1
10
11.5931730573189
20
22.9820404328654
30
0
41
1
10
11.5827604629943
20
22.9953482499111
30
0
41
1
10
11.5631645995737
20
23.0261845701323
30
0
41
1
10
11.5544251096726
20
23.0443975177721
30
0
41
1
10
11.5467107182063
20
23.0744883381069
30
0
41
1
10
11.5452442238023
20
23.0862396019678
30
0
41
1
10
11.5462587406776
20
23.1099227434054
30
0
41
1
10
11.549127235746
20
23.1220943336143
30
0
41
1
10
11.5597093771515
20
23.144639098966
30
0
41
1
10
11.567902953133
20
23.1551476384946
30
0
41
1
10
11.5776145881555
20
23.1637707845915
30
0
0
SPLINE
5
28A
100
AcDbEntity
8
1
62
256
6
ByLayer
370
18
48
1
60
0
100
AcDbSpline
70
4
71
3
72
8
73
4
40
0
40
0
40
0
40
0
40
1
40
1
40
1
40
1
41
1
10
12.1746913597387
20
22.9191664584982
30
0
41
1
10
12.1713720052213
20
22.9131781507357
30
0
41
1
10
12.168053022796
20
22.9071909598776
30
0
41
1
10
12.1647343964258
20
22.9012048364372
30
0
0
SPLINE
5
28B
100
AcDbEntity
8
1
62
256
6
ByLayer
370
18
48
1
60
0
100
AcDbSpline
70
4
71
3
72
8
73
4
40
0
40
0
40
0
40
0
40
1
40
1
40
1
40
1
41
1
10
13.570634104157
20
23.9369068501006
30
0
41
1
10
13.5768879731523
20
23.9378980952499
30
0
41
1
10
13.583140384625
20
23.9388891233861
30
0
41
1
10
13.5893914036834
20
23.9398799441829
30
0
0
SPLINE
5
28C
100
AcDbEntity
8
1
62
256
6
ByLayer
370
18
48
1
60
0
100
AcDbSpline
70
4
71
3
72
8
73
4
40
0
40
0
40
0
40
0
40
1
40
1
40
1
40
1
41
1
10
11.9124933656047
20
25.3011179339777
30
0
41
1
10
11.9169840570724
20
25.2959526029166
30
0
41
1
10
11.9214753187432
20
25.2907863017915
30
0
41
1
10
11.9259671765924
20
25.2856189855312
30
0
0
SPLINE
5
28D
100
AcDbEntity
8
1
62
256
6
ByLayer
370
18
48
1
60
0
100
AcDbSpline
70
4
71
3
72
8
73
4
40
0
40
0
40
0
40
0
40
1
40
1
40
1
40
1
41
1
10
12.5468815280571
20
25.3508797136074
30
0
41
1
10
12.5495657296729
20
25.35680126411
30
0
41
1
10
12.5522491559936
20
25.3627216553297
30
0
41
1
10
12.5549318418699
20
25.3686409387308
30
0
0
SPLINE
5
28E
100
AcDbEntity
8
1
62
256
6
ByLayer
370
18
48
1
60
0
100
AcDbSpline
70
4
71
3
72
26
73
22
40
0
40
0
40
0
40
0
40
0.028698839565869
40
0.028698839565869
40
0.141769071600787
40
0.141769071600787
40
0.254868298287115
40
0.254868298287115
40
0.368033389403154
40
0.368033389403154
40
0.481342478336057
40
0.481342478336057
40
0.594993717135819
40
0.594993717135819
40
0.731773781728602
40
0.731773781728602
40
0.814575159577667
40
0.814575159577667
40
0.90390928464105
40
0.90390928464105
40
1
40
1
40
1
40
1
41
1
10
13.7484521119492
20
24.2808726248978
30
0
41
1
10
13.7479979947456
20
24.285193261478
30
0
41
1
10
13.7475018167966
20
24.2895097196224
30
0
41
1
10
13.7448436034958
20
24.3108035708064
30
0
41
1
10
13.7420713968366
20
24.3277190226726
30
0
41
1
10
13.7352011360122
20
24.3612276665665
30
0
41
1
10
13.731096434102
20
24.3778541935182
30
0
41
1
10
13.7214706604567
20
24.410612088221
30
0
41
1
10
13.7159378406669
20
24.4267846121929
30
0
41
1
10
13.7032898650276
20
24.4583626739872
30
0
41
1
10
13.6961514951987
20
24.4738264685103
30
0
41
1
10
13.6800294910505
20
24.503505473303
30
0
41
1
10
13.6709909004651
20
24.517815035663
30
0
41
1
10
13.6487811340649
20
24.5467456368617
30
0
41
1
10
13.6348707085109
20
24.5611886089078
30
0
41
1
10
13.6100547053782
20
24.5788111521416
30
0
41
1
10
13.5999422876104
20
24.5842589300858
30
0
41
1
10
13.5784947970608
20
24.5915656890935
30
0
41
1
10
13.5668417423978
20
24.5931500487235
30
0
41
1
10
13.5438539669119
20
24.5912199847889
30
0
41
1
10
13.5322706756198
20
24.5873097978157
30
0
41
1
10
13.5219708969841
20
24.5813432166087
30
0
0
SPLINE
5
28F
100
AcDbEntity
8
1
62
256
6
ByLayer
370
18
48
1
60
0
100
AcDbSpline
70
4
71
3
72
26
73
22
40
0
40
0
40
0
40
0
40
0.0341747429583101
40
0.0341747429583101
40
0.118717554180376
40
0.118717554180376
40
0.203116442115669
40
0.203116442115669
40
0.327045140900969
40
0.327045140900969
40
0.402980231179041
40
0.402980231179041
40
0.50554722846272
40
0.50554722846272
40
0.607904869128945
40
0.607904869128945
40
0.710165947507917
40
0.710165947507917
40
0.915602886218621
40
0.915602886218621
40
1
40
1
40
1
40
1
41
1
10
13.326872174262
20
23.3476251654619
30
0
41
1
10
13.3304996759636
20
23.3452627613851
30
0
41
1
10
13.3339683829334
20
23.3426422231449
30
0
41
1
10
13.3451759882522
20
23.3327413493198
30
0
41
1
10
13.3519453620515
20
23.3239939611347
30
0
41
1
10
13.3616439106694
20
23.3042261239876
30
0
41
1
10
13.3646958733421
20
23.2929756369359
30
0
41
1
10
13.3676981407965
20
23.2644652284338
30
0
41
1
10
13.3657157253664
20
23.2463190506872
30
0
41
1
10
13.3586699863397
20
23.2180583317984
30
0
41
1
10
13.3550533323005
20
23.2073291101442
30
0
41
1
10
13.3450183600293
20
23.1826971499749
30
0
41
1
10
13.338026147274
20
23.1688902393157
30
0
41
1
10
13.322442747623
20
23.1422744633355
30
0
41
1
10
13.3138103379036
20
23.1293917541911
30
0
41
1
10
13.2953622123759
20
23.1045635594881
30
0
41
1
10
13.2855163753017
20
23.0925778677525
30
0
41
1
10
13.2545342168016
20
23.0579093872695
30
0
41
1
10
13.2318860061234
20
23.0364281787867
30
0
41
1
10
13.1981209587945
20
23.0086441758516
30
0
41
1
10
13.1880346589299
20
23.0008313425919
30
0
41
1
10
13.1777429400636
20
22.993327956059
30
0
0
SPLINE
5
290
100
AcDbEntity
8
1
62
256
6
ByLayer
370
18
48
1
60
0
100
AcDbSpline
70
4
71
3
72
8
73
4
40
0
40
0
40
0
40
0
40
1
40
1
40
1
40
1
41
1
10
11.5776145881555
20
23.1637707845915
30
0
41
1
10
11.580328826487
20
23.1700271965082
30
0
41
1
10
11.583043310446
20
23.176284725227
30
0
41
1
10
11.5857580509444
20
23.1825434225267
30
0
0
SPLINE
5
291
100
AcDbEntity
8
1
62
256
6
ByLayer
370
18
48
1
60
0
100
AcDbSpline
70
4
71
3
72
26
73
22
40
0
40
0
40
0
40
0
40
0.034174742958311
40
0.034174742958311
40
0.118717554180352
40
0.118717554180352
40
0.203116442115647
40
0.203116442115647
40
0.327045140900973
40
0.327045140900973
40
0.402980231179046
40
0.402980231179046
40
0.505547228462778
40
0.505547228462778
40
0.607904869128977
40
0.607904869128977
40
0.710165947508032
40
0.710165947508032
40
0.915602886218634
40
0.915602886218634
40
1
40
1
40
1
40
1
41
1
10
12.5549318418699
20
25.3686409387308
30
0
41
1
10
12.5547975669475
20
25.3731331163451
30
0
41
1
10
12.5549622873421
20
25.377617594094
30
0
41
1
10
12.5566571027579
20
25.3928564055529
30
0
41
1
10
12.5599250378068
20
25.4035064647012
30
0
41
1
10
12.5704698034457
20
25.4225475338904
30
0
41
1
10
12.5778633703291
20
25.4311692015351
30
0
41
1
10
12.5992543754957
20
25.4487769211046
30
0
41
1
10
12.6150517870933
20
25.4564952122961
30
0
41
1
10
12.6418431490973
20
25.4649823468921
30
0
41
1
10
12.6525353871155
20
25.4673638213867
30
0
41
1
10
12.6780311769302
20
25.4712891907824
30
0
41
1
10
12.6930712034142
20
25.47227214571
30
0
41
1
10
12.7232024399098
20
25.4722998318434
30
0
41
1
10
12.7383763205336
20
25.4713463529363
30
0
41
1
10
12.76858992962
20
25.4679061438982
30
0
41
1
10
12.7836788161184
20
25.4654135802543
30
0
41
1
10
12.8286527579344
20
25.4559938716026
30
0
41
1
10
12.858351331606
20
25.4471108268449
30
0
41
1
10
12.8991169944116
20
25.4316832532122
30
0
41
1
10
12.9108918537534
20
25.4268238955318
30
0
41
1
10
12.9225187156509
20
25.4216242446681
30
0
0
SPLINE
5
292
100
AcDbEntity
8
1
62
256
6
ByLayer
370
18
48
1
60
0
100
AcDbSpline
70
4
71
3
72
8
73
4
40
0
40
0
40
0
40
0
40
1
40
1
40
1
40
1
41
1
10
13.5219708969841
20
24.5813432166087
30
0
41
1
10
13.5156504744628
20
24.581012725652
30
0
41
1
10
13.5093286468465
20
24.5806821480047
30
0
41
1
10
13.5030053484384
20
24.5803514795923
30
0
0
SPLINE
5
293
100
AcDbEntity
8
1
62
256
6
ByLayer
370
18
48
1
60
0
100
AcDbSpline
70
4
71
3
72
8
73
4
40
0
40
0
40
0
40
0
40
1
40
1
40
1
40
1
41
1
10
12.807172872691
20
22.9687278411904
30
0
41
1
10
12.8033181217172
20
22.9739600122908
30
0
41
1
10
12.7994624161511
20
22.9791931130542
30
0
41
1
10
12.7956057112035
20
22.9844271865744
30
0
0
SPLINE
5
294
100
AcDbEntity
8
1
62
256
6
ByLayer
370
18
48
1
60
0
100
AcDbSpline
70
4
71
3
72
8
73
4
40
0
40
0
40
0
40
0
40
1
40
1
40
1
40
1
41
1
10
13.3169102642793
20
23.3644948520377
30
0
41
1
10
13.3202317846208
20
23.3588705913176
30
0
41
1
10
13.323552407864
20
23.353247377926
30
0
41
1
10
13.326872174262
20
23.3476251654619
30
0
0
SPLINE
5
295
100
AcDbEntity
8
1
62
256
6
ByLayer
370
18
48
1
60
0
100
AcDbSpline
70
4
71
3
72
26
73
22
40
0
40
0
40
0
40
0
40
0.0286869624046621
40
0.0286869624046621
40
0.141758577072943
40
0.141758577072943
40
0.254859186747208
40
0.254859186747208
40
0.368025661656601
40
0.368025661656601
40
0.481336136143611
40
0.481336136143611
40
0.594988764681348
40
0.594988764681348
40
0.731770501834078
40
0.731770501834078
40
0.81457289218598
40
0.81457289218598
40
0.903908109635011
40
0.903908109635011
40
1
40
1
40
1
40
1
41
1
10
10.955166975581
20
23.9872865267609
30
0
41
1
10
10.9547128583775
20
23.9916071633406
30
0
41
1
10
10.9543031066948
20
23.9959327052513
30
0
41
1
10
10.952499292886
20
24.0173163574401
30
0
41
1
10
10.9517490201297
20
24.034444323123
30
0
41
1
10
10.9516904695908
20
24.0686689066175
30
0
41
1
10
10.9523818966589
20
24.0857995270377
30
0
41
1
10
10.9553448340461
20
24.1198805485867
30
0
41
1
10
10.9576196118403
20
24.1368736841318
30
0
41
1
10
10.963993284781
20
24.1704510017538
30
0
41
1
10
10.9681036280634
20
24.1870970836663
30
0
41
1
10
10.97854913338
20
24.2195684462243
30
0
41
1
10
10.9849210834065
20
24.2354977216704
30
0
41
1
10
11.0019939030576
20
24.2685570890356
30
0
41
1
10
11.0135210178773
20
24.2856736543098
30
0
41
1
10
11.0360035863153
20
24.3082674777378
30
0
41
1
10
11.0455742208643
20
24.3157840278434
30
0
41
1
10
11.066896627519
20
24.3275860841892
30
0
41
1
10
11.0790576292943
20
24.3316734020096
30
0
41
1
10
11.104286085636
20
24.3348110682486
30
0
41
1
10
11.1177187579148
20
24.3335301649961
30
0
41
1
10
11.1302748346123
20
24.3299658309852
30
0
0
SPLINE
5
296
100
AcDbEntity
8
1
62
256
6
ByLayer
370
18
48
1
60
0
100
AcDbSpline
70
4
71
3
72
26
73
22
40
0
40
0
40
0
40
0
40
0.0286869624045607
40
0.0286869624045607
40
0.141758577072922
40
0.141758577072922
40
0.254859186747177
40
0.254859186747177
40
0.368025661656553
40
0.368025661656553
40
0.48133613614359
40
0.48133613614359
40
0.594988764681312
40
0.594988764681312
40
0.73177050183406
40
0.73177050183406
40
0.814572892185903
40
0.814572892185903
40
0.903908109635027
40
0.903908109635027
40
1
40
1
40
1
40
1
41
1
10
12.9225187156509
20
25.4216242446681
30
0
41
1
10
12.9264733166847
20
25.419855706875
30
0
41
1
10
12.9304116565162
20
25.4180473571791
30
0
41
1
10
12.9497785962827
20
25.4089208026137
30
0
41
1
10
12.9649700133174
20
25.4010254974412
30
0
41
1
10
12.9946608130295
20
25.3840372257069
30
0
41
1
10
13.0091897743409
20
25.3749275594042
30
0
41
1
10
13.03736784276
20
25.3554720501429
30
0
41
1
10
13.0510524242544
20
25.3451021413452
30
0
41
1
10
13.0772402648693
20
25.3230414708936
30
0
41
1
10
13.0897918163513
20
25.3113102037711
30
0
41
1
10
13.1131887374861
20
25.2864069889439
30
0
41
1
10
13.124107331447
20
25.2731523546031
30
0
41
1
10
13.1450665950132
20
25.2424593335115
30
0
41
1
10
13.1547296130915
20
25.2243434525946
30
0
41
1
10
13.164316791832
20
25.194449470134
30
0
41
1
10
13.1665951403312
20
25.1827835355769
30
0
41
1
10
13.1674433793075
20
25.1592961776686
30
0
41
1
10
13.1656668854443
20
25.1472393614112
30
0
41
1
10
13.1574264800866
20
25.124940722436
30
0
41
1
10
13.150522434213
20
25.1145677179833
30
0
41
1
10
13.1420516501403
20
25.1060749905766
30
0
0
SPLINE
5
297
100
AcDbEntity
8
1
62
256
6
ByLayer
370
18
48
1
60
0
100
AcDbSpline
70
4
71
3
72
30
73
26
40
0
40
0
40
0
40
0
40
0.0754486908211949
40
0.0754486908211949
40
0.134142567439247
40
0.134142567439247
40
0.208789318447072
40
0.208789318447072
40
0.300864837338263
40
0.300864837338263
40
0.400373451415955
40
0.400373451415955
40
0.499841523429541
40
0.499841523429541
40
0.644794997236265
40
0.644794997236265
40
0.711843600985101
40
0.711843600985101
40
0.778927202841172
40
0.778927202841172
40
0.846083321820511
40
0.846083321820511
40
0.913400043300328
40
0.913400043300328
40
1
40
1
40
1
40
1
41
1
10
11.5857580509444
20
23.1825434225267
30
0
41
1
10
11.5921985038661
20
23.1973915619098
30
0
41
1
10
11.5958833579155
20
23.2136468850743
30
0
41
1
10
11.5988272413615
20
23.2429383467135
30
0
41
1
10
11.5989027122548
20
23.2560694654843
30
0
41
1
10
11.5969282609443
20
23.2859102235753
30
0
41
1
10
11.5942913890695
20
23.3027507415937
30
0
41
1
10
11.585808367084
20
23.3400070420043
30
0
41
1
10
11.5793215002229
20
23.3605007512323
30
0
41
1
10
11.5629588081971
20
23.4022930010443
30
0
41
1
10
11.5527877228191
20
23.4236765538612
30
0
41
1
10
11.529803848857
20
23.465135333426
30
0
41
1
10
11.5169187009743
20
23.485338281296
30
0
41
1
10
11.4825434635348
20
23.5328162110721
30
0
41
1
10
11.4595822620162
20
23.5594548247409
30
0
41
1
10
11.4231175599889
20
23.5946540605213
30
0
41
1
10
11.4110788787811
20
23.6053078250688
30
0
41
1
10
11.3861880971915
20
23.6252916631224
30
0
41
1
10
11.3732938280383
20
23.6346559604846
30
0
41
1
10
11.3467458980094
20
23.6517346543442
30
0
41
1
10
11.3330337917328
20
23.6594866715646
30
0
41
1
10
11.3049317152793
20
23.6728341830493
30
0
41
1
10
11.2904480532949
20
23.6784714591892
30
0
41
1
10
11.2569835687271
20
23.6878753882458
30
0
41
1
10
11.2374740369349
20
23.6907745200753
30
0
41
1
10
11.2185675393574
20
23.6896946925134
30
0
0
SPLINE
5
298
100
AcDbEntity
8
1
62
256
6
ByLayer
370
18
48
1
60
0
100
AcDbSpline
70
4
71
3
72
26
73
22
40
0
40
0
40
0
40
0
40
0.0341747429582825
40
0.0341747429582825
40
0.118717554180306
40
0.118717554180306
40
0.203116442115698
40
0.203116442115698
40
0.327045140900948
40
0.327045140900948
40
0.402980231179082
40
0.402980231179082
40
0.505547228462739
40
0.505547228462739
40
0.607904869129002
40
0.607904869129002
40
0.710165947508022
40
0.710165947508022
40
0.915602886218735
40
0.915602886218735
40
1
40
1
40
1
40
1
41
1
10
11.1976953413117
20
23.6885025585594
30
0
41
1
10
11.1935303898273
20
23.6863021839104
30
0
41
1
10
11.1892191491421
20
23.6843670033511
30
0
41
1
10
11.1739863174012
20
23.6787841296505
30
0
41
1
10
11.1622712178258
20
23.676705115776
30
0
41
1
10
11.1389078894184
20
23.6771039570326
30
0
41
1
10
11.1269819376177
20
23.6795771777917
30
0
41
1
10
11.0993751341929
20
23.6901421110267
30
0
41
1
10
11.0839545095212
20
23.7004012392257
30
0
41
1
10
11.0620979685823
20
23.7199529571005
30
0
41
1
10
11.0543140020723
20
23.7282262502559
30
0
41
1
10
11.0373806967259
20
23.748778076325
30
0
41
1
10
11.028628752311
20
23.7615280249393
30
0
41
1
10
11.0128832543921
20
23.7879902355348
30
0
41
1
10
11.0058450828101
20
23.8017742182414
30
0
41
1
10
10.9932408210724
20
23.8299544628434
30
0
41
1
10
10.9876545380725
20
23.8443966429205
30
0
41
1
10
10.9728135949143
20
23.8883955817593
30
0
41
1
10
10.9654331197272
20
23.9187251388101
30
0
41
1
10
10.9582211109393
20
23.9619144970456
30
0
41
1
10
10.9565021186122
20
23.9745834893642
30
0
41
1
10
10.955166975581
20
23.9872865267609
30
0
0
SPLINE
5
299
100
AcDbEntity
8
1
62
256
6
ByLayer
370
18
48
1
60
0
100
AcDbSpline
70
4
71
3
72
30
73
26
40
0
40
0
40
0
40
0
40
0.0754486908211629
40
0.0754486908211629
40
0.134142567439243
40
0.134142567439243
40
0.208789318447058
40
0.208789318447058
40
0.30086483733821
40
0.30086483733821
40
0.400373451415949
40
0.400373451415949
40
0.499841523429521
40
0.499841523429521
40
0.644794997236263
40
0.644794997236263
40
0.711843600985091
40
0.711843600985091
40
0.778927202841184
40
0.778927202841184
40
0.846083321820503
40
0.846083321820503
40
0.913400043300359
40
0.913400043300359
40
1
40
1
40
1
40
1
41
1
10
11.1509387836388
20
24.333139322005
30
0
41
1
10
11.1672823056916
20
24.33564932792
30
0
41
1
10
11.1834466557125
20
24.3412266085329
30
0
41
1
10
11.2106718229887
20
24.3543726786342
30
0
41
1
10
11.2222362116251
20
24.3613081618274
30
0
41
1
10
11.2474083723279
20
24.3788585389055
30
0
41
1
10
11.2608278920301
20
24.3900325325699
30
0
41
1
10
11.2891407262028
20
24.416946130238
30
0
41
1
10
11.3037698789658
20
24.4332576828147
30
0
41
1
10
11.3319656940331
20
24.4690929645784
30
0
41
1
10
11.345452886348
20
24.4889045513486
30
0
41
1
10
11.3698889591509
20
24.5299749200372
30
0
41
1
10
11.3809123209046
20
24.5513615302906
30
0
41
1
10
11.4046651602744
20
24.6049489671271
30
0
41
1
10
11.4160600159509
20
24.6380002895375
30
0
41
1
10
11.4279059726359
20
24.6866715625647
30
0
41
1
10
11.4309663498441
20
24.7022210191839
30
0
41
1
10
11.4355000765977
20
24.7332810700223
30
0
41
1
10
11.4369814217655
20
24.7488444620423
30
0
41
1
10
11.4381034353271
20
24.7797242411069
30
0
41
1
10
11.4377465795089
20
24.7951085912464
30
0
41
1
10
11.4347964538711
20
24.8253077120108
30
0
41
1
10
11.4321909605615
20
24.8402217131163
30
0
41
1
10
11.4230146259971
20
24.8727999616871
30
0
41
1
10
11.4154131238443
20
24.8904512753839
30
0
41
1
10
11.4046626235166
20
24.905551320068
30
0
0
SPLINE
5
29A
100
AcDbEntity
8
1
62
256
6
ByLayer
370
18
48
1
60
0
100
AcDbSpline
70
4
71
3
72
8
73
4
40
0
40
0
40
0
40
0
40
1
40
1
40
1
40
1
41
1
10
13.1420516501403
20
25.1060749905766
30
0
41
1
10
13.1399733523026
20
25.0998854186991
30
0
41
1
10
13.1378944244484
20
25.0936946896186
30
0
41
1
10
13.1358148368515
20
25.087502749579
30
0
0
SPLINE
5
29B
100
AcDbEntity
8
1
62
256
6
ByLayer
370
18
48
1
60
0
100
AcDbSpline
70
4
71
3
72
8
73
4
40
0
40
0
40
0
40
0
40
1
40
1
40
1
40
1
41
1
10
11.2185675393574
20
23.6896946925134
30
0
41
1
10
11.2116090880478
20
23.689297266841
30
0
41
1
10
11.2046517043268
20
23.6888998895553
30
0
41
1
10
11.1976953413117
20
23.6885025585594
30
0
0
SPLINE
5
29C
100
AcDbEntity
8
1
62
256
6
ByLayer
370
18
48
1
60
0
100
AcDbSpline
70
4
71
3
72
10
73
6
40
0
40
0
40
0
40
0
40
0.295368028639111
40
0.295368028639111
40
1
40
1
40
1
40
1
41
1
10
18.9830242489111
20
-8.00071730591381
30
0
41
1
10
18.9873368066018
20
-8.02618954241754
30
0
41
1
10
18.9916381559786
20
-8.05166057310825
30
0
41
1
10
19.0061611623046
20
-8.1379091274849
30
0
41
1
10
19.0163289694221
20
-8.19869575976983
30
0
41
1
10
19.0264322740436
20
-8.25949616785923
30
0
0
SPLINE
5
29D
100
AcDbEntity
8
1
62
256
6
ByLayer
370
18
48
1
60
0
100
AcDbSpline
70
4
71
3
72
8
73
4
40
0
40
0
40
0
40
0
40
1
40
1
40
1
40
1
41
1
10
17.1291089264425
20
-13.1742249837817
30
0
41
1
10
17.1377145955014
20
-13.2284126794554
30
0
41
1
10
17.147638321131
20
-13.2824125119059
30
0
41
1
10
17.1579125263595
20
-13.3363224813827
30
0
0
SPLINE
5
29E
100
AcDbEntity
8
1
62
256
6
ByLayer
370
18
48
1
60
0
100
AcDbSpline
70
4
71
3
72
8
73
4
40
0
40
0
40
0
40
0
40
1
40
1
40
1
40
1
41
1
10
5.98152130028339
20
-11.6082024178625
30
0
41
1
10
5.92439151874359
20
-11.7949943169355
30
0
41
1
10
5.86772017434365
20
-11.9808257973414
30
0
41
1
10
5.8113976632911
20
-12.1668246285579
30
0
0
SPLINE
5
29F
100
AcDbEntity
8
1
62
256
6
ByLayer
370
18
48
1
60
0
100
AcDbSpline
70
4
71
3
72
22
73
18
40
0
40
0
40
0
40
0
40
0.247648061031906
40
0.247648061031906
40
0.49963085309829
40
0.49963085309829
40
0.554937524731983
40
0.554937524731983
40
0.59993912543132
40
0.59993912543132
40
0.645356331404786
40
0.645356331404786
40
0.695796263471302
40
0.695796263471302
40
0.780049574066919
40
0.780049574066919
40
1
40
1
40
1
40
1
41
1
10
19.1198996418809
20
-8.8291646653515
30
0
41
1
10
19.1211378405328
20
-8.83697399993585
30
0
41
1
10
19.1223652472103
20
-8.84459015245361
30
0
41
1
10
19.1247206461255
20
-8.85870262494703
30
0
41
1
10
19.1259365993672
20
-8.86575974237812
30
0
41
1
10
19.1268849153744
20
-8.87022593561042
30
0
41
1
10
19.1270326197166
20
-8.87084164477935
30
0
41
1
10
19.1271961010663
20
-8.87124983812257
30
0
41
1
10
19.1272309979122
20
-8.8711661931022
30
0
41
1
10
19.1271871647716
20
-8.87029480444019
30
0
41
1
10
19.1271052763409
20
-8.86948109761673
30
0
41
1
10
19.1268259734389
20
-8.86718372708512
30
0
41
1
10
19.1266152140852
20
-8.86561795692765
30
0
41
1
10
19.125971086984
20
-8.86108111589809
30
0
41
1
10
19.1254756646495
20
-8.85780664592531
30
0
41
1
10
19.1236050761965
20
-8.84585062710815
30
0
41
1
10
19.1220455068263
20
-8.8365617679095
30
0
41
1
10
19.1204590785938
20
-8.82742525134344
30
0
0
SPLINE
5
2A0
100
AcDbEntity
8
1
62
256
6
ByLayer
370
18
48
1
60
0
100
AcDbSpline
70
4
71
3
72
22
73
18
40
0
40
0
40
0
40
0
40
0.104611531529233
40
0.104611531529233
40
0.208411675036487
40
0.208411675036487
40
0.40277588600409
40
0.40277588600409
40
0.500031490391555
40
0.500031490391555
40
0.699792640385718
40
0.699792640385718
40
0.846184360106939
40
0.846184360106939
40
0.950335564350924
40
0.950335564350924
40
1
40
1
40
1
40
1
41
1
10
17.3242074844543
20
-13.9419490069388
30
0
41
1
10
17.3429080245841
20
-13.9161079059333
30
0
41
1
10
17.3662628692975
20
-13.8926420750945
30
0
41
1
10
17.4178778467429
20
-13.8543817747482
30
0
41
1
10
17.4464070975755
20
-13.8389113449445
30
0
41
1
10
17.5280119215475
20
-13.8019248240265
30
0
41
1
10
17.5823186589619
20
-13.7849812655486
30
0
41
1
10
17.657530020003
20
-13.7619676004205
30
0
41
1
10
17.6819695299078
20
-13.7547430360903
30
0
41
1
10
17.7529427278846
20
-13.7340529281934
30
0
41
1
10
17.7965956272176
20
-13.7212938447792
30
0
41
1
10
17.8616710179595
20
-13.7077728296181
30
0
41
1
10
17.8864358276161
20
-13.7046924055861
30
0
41
1
10
17.9218587457714
20
-13.7129826298285
30
0
41
1
10
17.9347731978446
20
-13.720940475558
30
0
41
1
10
17.950472528984
20
-13.7406009750011
30
0
41
1
10
17.9551126445925
20
-13.7482206716052
30
0
41
1
10
17.9593186756636
20
-13.7568013815365
30
0
0
SPLINE
5
2A1
100
AcDbEntity
8
1
62
256
6
ByLayer
370
18
48
1
60
0
100
AcDbSpline
70
4
71
3
72
10
73
6
40
0
40
0
40
0
40
0
40
0.295368028639105
40
0.295368028639105
40
1
40
1
40
1
40
1
41
1
10
17.8982706679126
20
-12.6058093308075
30
0
41
1
10
17.900770138342
20
-12.6389786460158
30
0
41
1
10
17.9032578624562
20
-12.672149039381
30
0
41
1
10
17.9116442907796
20
-12.7844491384725
30
0
41
1
10
17.9174911675223
20
-12.8635793672735
30
0
41
1
10
17.923276898164
20
-12.9427091230139
30
0
0
SPLINE
5
2A2
100
AcDbEntity
8
1
62
256
6
ByLayer
370
18
48
1
60
0
100
AcDbSpline
70
4
71
3
72
10
73
6
40
0
40
0
40
0
40
0
40
0.295368028639118
40
0.295368028639118
40
1
40
1
40
1
40
1
41
1
10
6.13069713140723
20
-11.1275058955273
30
0
41
1
10
6.12080906561457
20
-11.159119024382
30
0
41
1
10
6.11093194221885
20
-11.190736081667
30
0
41
1
10
6.07752949661008
20
-11.2977864463337
30
0
41
1
10
6.05405581398978
20
-11.3732332748572
30
0
41
1
10
6.03064382734735
20
-11.4486950623772
30
0
0
SPLINE
5
2A3
100
AcDbEntity
8
1
62
256
6
ByLayer
370
18
48
1
60
0
100
AcDbSpline
70
4
71
3
72
10
73
6
40
0
40
0
40
0
40
0
40
0.295368028639105
40
0.295368028639105
40
1
40
1
40
1
40
1
41
1
10
17.0768212409853
20
-12.8452782818963
30
0
41
1
10
17.0819723740505
20
-12.8776745843674
30
0
41
1
10
17.0871271206813
20
-12.9100674872825
30
0
41
1
10
17.104564650816
20
-13.0197290090181
30
0
41
1
10
17.1168422032334
20
-13.0969845671357
30
0
41
1
10
17.1291089264392
20
-13.1742249838121
30
0
0
SPLINE
5
2A4
100
AcDbEntity
8
1
62
256
6
ByLayer
370
18
48
1
60
0
100
AcDbSpline
70
4
71
3
72
22
73
18
40
0
40
0
40
0
40
0
40
0.247648061032017
40
0.247648061032017
40
0.499630853098379
40
0.499630853098379
40
0.554937524732062
40
0.554937524732062
40
0.5999391254315
40
0.5999391254315
40
0.64535633140492
40
0.64535633140492
40
0.695796263471428
40
0.695796263471428
40
0.780049574067045
40
0.780049574067045
40
1
40
1
40
1
40
1
41
1
10
17.9737908313594
20
-13.6947273474633
30
0
41
1
10
17.9744636602374
20
-13.704936839911
30
0
41
1
10
17.9750583514392
20
-13.7152390522325
30
0
41
1
10
17.9758277522187
20
-13.7360845445515
30
0
41
1
10
17.9761187057931
20
-13.7470685525366
30
0
41
1
10
17.9752198409983
20
-13.7593765613929
30
0
41
1
10
17.9749896674385
20
-13.7615964713164
30
0
41
1
10
17.9743945805249
20
-13.7652250058693
30
0
41
1
10
17.9740545040472
20
-13.7667332308295
30
0
41
1
10
17.9732328582968
20
-13.7691638811831
30
0
41
1
10
17.9727378481192
20
-13.770103995407
30
0
41
1
10
17.971626087546
20
-13.7713406479479
30
0
41
1
10
17.9709880147604
20
-13.7715889466364
30
0
41
1
10
17.9692965470416
20
-13.7714983688042
30
0
41
1
10
17.9682168343976
20
-13.7707043798289
30
0
41
1
10
17.9644576632252
20
-13.7667659397244
30
0
41
1
10
17.9618437972898
20
-13.7619528737278
30
0
41
1
10
17.9593186756636
20
-13.7568013815373
30
0
0
SPLINE
5
2A5
100
AcDbEntity
8
1
62
256
6
ByLayer
370
18
48
1
60
0
100
AcDbSpline
70
4
71
3
72
8
73
4
40
0
40
0
40
0
40
0
40
1
40
1
40
1
40
1
41
1
10
6.67322640329903
20
-11.8607029560758
30
0
41
1
10
6.65312295290963
20
-11.9112840637155
30
0
41
1
10
6.63178698698655
20
-11.961356892076
30
0
41
1
10
6.6101394827123
20
-12.0112566913446
30
0
0
SPLINE
5
2A6
100
AcDbEntity
8
1
62
256
6
ByLayer
370
18
48
1
60
0
100
AcDbSpline
70
4
71
3
72
8
73
4
40
0
40
0
40
0
40
0
40
1
40
1
40
1
40
1
41
1
10
6.61013948271537
20
-12.0112566913485
30
0
41
1
10
6.53430759127477
20
-12.1860572647974
30
0
41
1
10
6.46364275737292
20
-12.3629164693412
30
0
41
1
10
6.39254663823837
20
-12.539442832152
30
0
0
SPLINE
5
2A7
100
AcDbEntity
8
1
62
256
6
ByLayer
370
18
48
1
60
0
100
AcDbSpline
70
4
71
3
72
22
73
18
40
0
40
0
40
0
40
0
40
0.24764806103187
40
0.24764806103187
40
0.499630853098264
40
0.499630853098264
40
0.554937524731924
40
0.554937524731924
40
0.599939125431335
40
0.599939125431335
40
0.645356331404716
40
0.645356331404716
40
0.695796263471279
40
0.695796263471279
40
0.780049574066903
40
0.780049574066903
40
1
40
1
40
1
40
1
41
1
10
5.81139766327377
20
-12.1668246285355
30
0
41
1
10
5.80844406734005
20
-12.1765785507468
30
0
41
1
10
5.80550987863566
20
-12.1864374469274
30
0
41
1
10
5.79981940837391
20
-12.2064714168436
30
0
41
1
10
5.79688100800777
20
-12.2170497366883
30
0
41
1
10
5.79431481910129
20
-12.2291482876684
30
0
41
1
10
5.79389251817068
20
-12.2313440615581
30
0
41
1
10
5.79333431839214
20
-12.2349772300636
30
0
41
1
10
5.79315827071574
20
-12.2365060611701
30
0
41
1
10
5.79304116673657
20
-12.2390252197039
30
0
41
1
10
5.79310386603427
20
-12.2400353962759
30
0
41
1
10
5.79346865201663
20
-12.2414575402301
30
0
41
1
10
5.7937962399258
20
-12.2418271502083
30
0
41
1
10
5.79485853738552
20
-12.2420825145969
30
0
41
1
10
5.79572741595237
20
-12.2415333177252
30
0
41
1
10
5.7990633554123
20
-12.2384862021058
30
0
41
1
10
5.80193297391227
20
-12.2343619997779
30
0
41
1
10
5.80484815581204
20
-12.2298939466469
30
0
0
SPLINE
5
2A8
100
AcDbEntity
8
1
62
256
6
ByLayer
370
18
48
1
60
0
100
AcDbSpline
70
4
71
3
72
8
73
4
40
0
40
0
40
0
40
0
40
1
40
1
40
1
40
1
41
1
10
6.03064382735622
20
-11.4486950623503
30
0
41
1
10
6.01421924471046
20
-11.5016349680763
30
0
41
1
10
5.99782996892773
20
-11.554879490569
30
0
41
1
10
5.98152130028424
20
-11.6082024178613
30
0
0
SPLINE
5
2A9
100
AcDbEntity
8
1
62
256
6
ByLayer
370
18
48
1
60
0
100
AcDbSpline
70
4
71
3
72
10
73
6
40
0
40
0
40
0
40
0
40
0.295368028639112
40
0.295368028639112
40
1
40
1
40
1
40
1
41
1
10
6.79535386343301
20
-11.5536671866432
30
0
41
1
10
6.78332026638284
20
-11.5839046544586
30
0
41
1
10
6.77128518363858
20
-11.6141380821226
30
0
41
1
10
6.73055924914067
20
-11.7164928086801
30
0
41
1
10
6.70188233460075
20
-11.7886034548917
30
0
41
1
10
6.67322640329562
20
-11.8607029561061
30
0
0
SPLINE
5
2AA
100
AcDbEntity
8
1
62
256
6
ByLayer
370
18
48
1
60
0
100
AcDbSpline
70
4
71
3
72
22
73
18
40
0
40
0
40
0
40
0
40
0.247648061032079
40
0.247648061032079
40
0.499630853098451
40
0.499630853098451
40
0.554937524732013
40
0.554937524732013
40
0.599939125431427
40
0.599939125431427
40
0.645356331404812
40
0.645356331404812
40
0.695796263471333
40
0.695796263471333
40
0.780049574066895
40
0.780049574066895
40
1
40
1
40
1
40
1
41
1
10
17.2555486628592
20
-13.9041093167975
30
0
41
1
10
17.2571789923705
20
-13.9140396786441
30
0
41
1
10
17.2591379319302
20
-13.9239441852608
30
0
41
1
10
17.2646457911854
20
-13.9434083220833
30
0
41
1
10
17.2679978571298
20
-13.9534999545375
30
0
41
1
10
17.2758549016317
20
-13.9632554405649
30
0
41
1
10
17.277498261569
20
-13.9649291779711
30
0
41
1
10
17.2808977637231
20
-13.9673932098501
30
0
41
1
10
17.2826128697664
20
-13.9683023079664
30
0
41
1
10
17.2862556837584
20
-13.9694314789389
30
0
41
1
10
17.2882333268499
20
-13.9696507652393
30
0
41
1
10
17.2922990437028
20
-13.9693780794717
30
0
41
1
10
17.2944334717577
20
-13.9688181386674
30
0
41
1
10
17.2997512565937
20
-13.9666842234097
30
0
41
1
10
17.3028097768177
20
-13.9646838567174
30
0
41
1
10
17.3128668837371
20
-13.9567176949855
30
0
41
1
10
17.3188075732415
20
-13.9494108048399
30
0
41
1
10
17.3242074844544
20
-13.9419490069396
30
0
0
SPLINE
5
2AB
100
AcDbEntity
8
1
62
256
6
ByLayer
370
18
48
1
60
0
100
AcDbSpline
70
4
71
3
72
8
73
4
40
0
40
0
40
0
40
0
40
1
40
1
40
1
40
1
41
1
10
17.9348219005239
20
-13.1098378472444
30
0
41
1
10
17.9476988236006
20
-13.3054243505411
30
0
41
1
10
17.9609605685631
20
-13.500041187242
30
0
41
1
10
17.9737908313264
20
-13.6947273474794
30
0
0
SPLINE
5
2AC
100
AcDbEntity
8
1
62
256
6
ByLayer
370
18
48
1
60
0
100
AcDbSpline
70
4
71
3
72
22
73
18
40
0
40
0
40
0
40
0
40
0.104611531529244
40
0.104611531529244
40
0.208411675036481
40
0.208411675036481
40
0.40277588600406
40
0.40277588600406
40
0.500031490391549
40
0.500031490391549
40
0.69979264038569
40
0.69979264038569
40
0.846184360106916
40
0.846184360106916
40
0.950335564350916
40
0.950335564350916
40
1
40
1
40
1
40
1
41
1
10
5.80484815581227
20
-12.2298939466462
30
0
41
1
10
5.81494378034225
20
-12.2144205428103
30
0
41
1
10
5.82563066945042
20
-12.2036112083588
30
0
41
1
10
5.84807514292677
20
-12.1939044186023
30
0
41
1
10
5.86012723913612
20
-12.194537994109
30
0
41
1
10
5.89743308745719
20
-12.2059180013935
30
0
41
1
10
5.92604862712474
20
-12.2240528766447
30
0
41
1
10
5.97572362490692
20
-12.255445712743
30
0
41
1
10
5.9935797294261
20
-12.266910863516
30
0
41
1
10
6.05100604476874
20
-12.3037311822027
30
0
41
1
10
6.0946300769364
20
-12.3311223326184
30
0
41
1
10
6.17297059924104
20
-12.3856264396689
30
0
41
1
10
6.20771244547606
20
-12.411462365545
30
0
41
1
10
6.26134491755496
20
-12.4645561118282
30
0
41
1
10
6.28209319531928
20
-12.4899930168351
30
0
41
1
10
6.30606174365531
20
-12.5311036724181
30
0
41
1
10
6.31290847589011
20
-12.5450938258212
30
0
41
1
10
6.31873363066265
20
-12.5593844744567
30
0
0
SPLINE
5
2AD
100
AcDbEntity
8
1
62
256
6
ByLayer
370
18
48
1
60
0
100
AcDbSpline
70
4
71
3
72
8
73
4
40
0
40
0
40
0
40
0
40
1
40
1
40
1
40
1
41
1
10
19.0476722515962
20
-8.38546692430518
30
0
41
1
10
19.0723471147542
20
-8.53096776692209
30
0
41
1
10
19.0962882681988
20
-8.68024743240491
30
0
41
1
10
19.1198996418681
20
-8.82916466528209
30
0
0
SPLINE
5
2AE
100
AcDbEntity
8
1
62
256
6
ByLayer
370
18
48
1
60
0
100
AcDbSpline
70
4
71
3
72
8
73
4
40
0
40
0
40
0
40
0
40
1
40
1
40
1
40
1
41
1
10
17.1579125263558
20
-13.3363224813856
30
0
41
1
10
17.1939033918934
20
-13.5251708077779
30
0
41
1
10
17.2244596941488
20
-13.7147459348388
30
0
41
1
10
17.2555486629597
20
-13.9041093167748
30
0
0
SPLINE
5
2AF
100
AcDbEntity
8
1
62
256
6
ByLayer
370
18
48
1
60
0
100
AcDbSpline
70
4
71
3
72
22
73
18
40
0
40
0
40
0
40
0
40
0.247648061032143
40
0.247648061032143
40
0.499630853098371
40
0.499630853098371
40
0.554937524732023
40
0.554937524732023
40
0.599939125431412
40
0.599939125431412
40
0.645356331405155
40
0.645356331405155
40
0.695796263471266
40
0.695796263471266
40
0.780049574066987
40
0.780049574066987
40
1
40
1
40
1
40
1
41
1
10
6.39254663832892
20
-12.5394428321988
30
0
41
1
10
6.38881830298837
20
-12.5487000108582
30
0
41
1
10
6.38478026439921
20
-12.5578511460708
30
0
41
1
10
6.37525578047561
20
-12.5754268422141
30
0
41
1
10
6.36984055210596
20
-12.5844170818227
30
0
41
1
10
6.36018972247982
20
-12.5919731381726
30
0
41
1
10
6.35825149541822
20
-12.5931969381004
30
0
41
1
10
6.35446116663886
20
-12.5947577462405
30
0
41
1
10
6.35262221574121
20
-12.5952203653465
30
0
41
1
10
6.34889279781387
20
-12.5954233984251
30
0
41
1
10
6.34695480712693
20
-12.5951507825633
30
0
41
1
10
6.34313035745654
20
-12.5938868932787
30
0
41
1
10
6.34121464068053
20
-12.5928181523384
30
0
41
1
10
6.33660556417081
20
-12.5894371734287
30
0
41
1
10
6.33412608769081
20
-12.5867410949546
30
0
41
1
10
6.32628290650823
20
-12.5765262064728
30
0
41
1
10
6.32223080508729
20
-12.5679639702605
30
0
41
1
10
6.31873363066242
20
-12.5593844744574
30
0
0
SPLINE
5
2B0
100
AcDbEntity
8
1
62
256
6
ByLayer
370
18
48
1
60
0
100
AcDbSpline
70
4
71
3
72
8
73
4
40
0
40
0
40
0
40
0
40
1
40
1
40
1
40
1
41
1
10
19.0264322740402
20
-8.2594961678308
30
0
41
1
10
19.0335202057175
20
-8.30215044330217
30
0
41
1
10
19.0406283918747
20
-8.34393123195812
30
0
41
1
10
19.0476722515959
20
-8.38546692430057
30
0
0
SPLINE
5
2B1
100
AcDbEntity
8
1
62
256
6
ByLayer
370
18
48
1
60
0
100
AcDbSpline
70
4
71
3
72
8
73
4
40
0
40
0
40
0
40
0
40
1
40
1
40
1
40
1
41
1
10
17.9232768981605
20
-12.9427091229855
30
0
41
1
10
17.927335853624
20
-12.9982222766848
30
0
41
1
10
17.9311459636305
20
-13.0540043504671
30
0
41
1
10
17.9348219005228
20
-13.1098378472429
30
0
0
SPLINE
5
2B2
100
AcDbEntity
8
1
62
256
6
ByLayer
370
18
48
1
60
0
100
AcDbSpline
70
4
71
3
72
16
73
12
40
0
40
0
40
0
40
0
40
0.204287217128301
40
0.204287217128301
40
0.443225907276695
40
0.443225907276695
40
0.640937606076602
40
0.640937606076602
40
0.839911821795331
40
0.839911821795331
40
1
40
1
40
1
40
1
41
1
10
-4.34311469948781
20
-11.2510143332973
30
0
41
1
10
-4.37749348633659
20
-11.3131367401881
30
0
41
1
10
-4.4173445080327
20
-11.3704232681783
30
0
41
1
10
-4.51224888391445
20
-11.4772642109939
30
0
41
1
10
-4.56981895790531
20
-11.5246941929879
30
0
41
1
10
-4.67197804263859
20
-11.5808217700282
30
0
41
1
10
-4.71796961570661
20
-11.5952154072451
30
0
41
1
10
-4.79546765806001
20
-11.5990045769849
30
0
41
1
10
-4.82781269203772
20
-11.5883619261139
30
0
41
1
10
-4.86416912928897
20
-11.5504622664424
30
0
41
1
10
-4.87289693833318
20
-11.5264909696004
30
0
41
1
10
-4.87321904244075
20
-11.4975134903624
30
0
0
SPLINE
5
2B3
100
AcDbEntity
8
1
62
256
6
ByLayer
370
18
48
1
60
0
100
AcDbSpline
70
4
71
3
72
46
73
42
40
0
40
0
40
0
40
0
40
0.0002356819181271
40
0.0012435088516774
40
0.0022513357852276
40
0.0026922600686559
40
0.0093061243200796
40
0.0163609128549315
40
0.0324861437917359
40
0.0486113747285403
40
0.0647366056653447
40
0.0687679133995458
40
0.0707835672666463
40
0.0727992211337469
40
0.076830528867948
40
0.0788461827350486
40
0.0808618366021491
40
0.0848931443363502
40
0.0889244520705513
40
0.0969870675389535
40
0.129237529412562
40
0.161487991286171
40
0.19373845315978
40
0.209863684096584
40
0.217926299564986
40
0.219941953432087
40
0.221957607299188
40
0.222965434232738
40
0.223973261166288
40
0.225988915033389
40
0.226492828500164
40
0.226996741966939
40
0.22723295140449
40
0.234555443968566
40
0.242114145970193
40
0.258239376906998
40
0.290489838780606
40
0.354990762527824
40
0.483992610022259
40
0.74199630501113
40
1
40
1
40
1
40
1
41
1
10
16.3940009472862
20
20.707831924946
30
0
41
1
10
16.3937215475762
20
20.707798973897
30
0
41
1
10
16.3922434274607
20
20.7076268578981
30
0
41
1
10
16.3895287620358
20
20.7073307113898
30
0
41
1
10
16.3865331759839
20
20.707020972883
30
0
41
1
10
16.3767046853835
20
20.7060031217431
30
0
41
1
10
16.3595310497379
20
20.7042113691441
30
0
41
1
10
16.3233224505128
20
20.7004056920125
30
0
41
1
10
16.2755546578776
20
20.6953850946973
30
0
41
1
10
16.2167635284805
20
20.6892058980016
30
0
41
1
10
16.1726701814326
20
20.6845715004799
30
0
41
1
10
16.1457242471256
20
20.681739368661
30
0
41
1
10
16.1359257255594
20
20.6807095025451
30
0
41
1
10
16.1261272039932
20
20.6796796364291
30
0
41
1
10
16.116328682427
20
20.6786497703131
30
0
41
1
10
16.1065301608608
20
20.6776199041972
30
0
41
1
10
16.0967316392946
20
20.6765900380812
30
0
41
1
10
16.0844834873369
20
20.6753027054363
30
0
41
1
10
16.0648864442045
20
20.6732429732044
30
0
41
1
10
16.0109945755905
20
20.6675787095667
30
0
41
1
10
15.9228078814948
20
20.6583099145231
30
0
41
1
10
15.8052256227004
20
20.6459515211318
30
0
41
1
10
15.7072404070385
20
20.6356528599723
30
0
41
1
10
15.6386507560752
20
20.6284437971607
30
0
41
1
10
15.6068055609851
20
20.6250967322838
30
0
41
1
10
15.5921077786358
20
20.6235519331099
30
0
41
1
10
15.585983702657
20
20.6229082667874
30
0
41
1
10
15.5810844418739
20
20.6223933337294
30
0
41
1
10
15.5761851810908
20
20.6218784006715
30
0
41
1
10
15.5718983279056
20
20.6214278342457
30
0
41
1
10
15.5682238823182
20
20.6210416344523
30
0
41
1
10
15.566712001061
20
20.6208827293289
30
0
41
1
10
15.5569134794947
20
20.619852863213
30
0
41
1
10
15.5385412515581
20
20.6179218642455
30
0
41
1
10
15.5008590465507
20
20.6139613049051
30
0
41
1
10
15.4328818031853
20
20.6068166087257
30
0
41
1
10
15.2957025012586
20
20.5923984831024
30
0
41
1
10
15.0213438974052
20
20.5635622318559
30
0
41
1
10
14.4726266896986
20
20.5058897293627
30
0
41
1
10
13.6887449644034
20
20.4235004400868
30
0
41
1
10
13.0616395841672
20
20.3575890086662
30
0
41
1
10
12.7480868940492
20
20.3246332929558
30
0
0
SPLINE
5
2B4
100
AcDbEntity
8
1
62
256
6
ByLayer
370
18
48
1
60
0
100
AcDbSpline
70
4
71
3
72
42
73
38
40
0
40
0
40
0
40
0
40
0.258003694988867
40
0.516007389977733
40
0.645009237472167
40
0.709510161219383
40
0.741760623092992
40
0.749823238561393
40
0.757885854029796
40
0.765444556031423
40
0.769223907032236
40
0.77300325803305
40
0.773507171499825
40
0.7740110849666
40
0.7760267388337
40
0.778042392700801
40
0.782073700435002
40
0.790136315903404
40
0.806261546840208
40
0.838512008713816
40
0.870762470587425
40
0.903012932461033
40
0.911075547929435
40
0.915106855663637
40
0.919138163397837
40
0.923169471132038
40
0.927200778866239
40
0.93123208660044
40
0.935263394334641
40
0.951388625271446
40
0.96751385620825
40
0.983639087145054
40
0.990693875679906
40
0.997748664214758
40
0.998756491148308
40
0.999764318081858
40
1
40
1
40
1
40
1
41
1
10
12.7480868940492
20
20.3246332929558
30
0
41
1
10
12.4345342039311
20
20.2916775772455
30
0
41
1
10
11.8074288236949
20
20.2257661458247
30
0
41
1
10
11.0235470983997
20
20.1433768565488
30
0
41
1
10
10.474829890693
20
20.0857043540557
30
0
41
1
10
10.2004712868397
20
20.0568681028092
30
0
41
1
10
10.0730905064793
20
20.0434798433018
30
0
41
1
10
10.0142993770821
20
20.0373006466061
30
0
41
1
10
9.98551621998141
20
20.0342754148905
30
0
41
1
10
9.96193852746282
20
20.031797299549
30
0
41
1
10
9.94356629952617
20
20.0298663005816
30
0
41
1
10
9.93376777795996
20
20.0288364344657
30
0
41
1
10
9.92794990578008
20
20.0282249514593
30
0
41
1
10
9.92427546019277
20
20.0278387516658
30
0
41
1
10
9.91876379181176
20
20.0272594519756
30
0
41
1
10
9.90896527024555
20
20.0262295858597
30
0
41
1
10
9.89181785750472
20
20.0244273201568
30
0
41
1
10
9.85752303202312
20
20.0208227887509
30
0
41
1
10
9.78893338105976
20
20.0136137259393
30
0
41
1
10
9.69094816539788
20
20.0033150647798
30
0
41
1
10
9.57336590660358
20
19.9909566713884
30
0
41
1
10
9.48517921250786
20
19.9816878763449
30
0
41
1
10
9.43128734389384
20
19.9760236127072
30
0
41
1
10
9.41169030076142
20
19.9739638804753
30
0
41
1
10
9.39699251841213
20
19.9724190813014
30
0
41
1
10
9.38229473606285
20
19.9708742821274
30
0
41
1
10
9.36759695371356
20
19.9693294829535
30
0
41
1
10
9.35289917136433
20
19.9677846837796
30
0
41
1
10
9.32350360666575
20
19.9646950854317
30
0
41
1
10
9.27941025961789
20
19.9600606879099
30
0
41
1
10
9.22061913022074
20
19.9538814912143
30
0
41
1
10
9.17285133758557
20
19.948860893899
30
0
41
1
10
9.13610688171238
20
19.9449988959642
30
0
41
1
10
9.11770870272576
20
19.9430504937718
30
0
41
1
10
9.10665200032824
20
19.9418695188164
30
0
41
1
10
9.10393508453481
20
19.9415947831344
30
0
41
1
10
9.10245347996184
20
19.9414558195334
30
0
41
1
10
9.10217333489746
20
19.9414299600568
30
0
0
SPLINE
5
2B5
100
AcDbEntity
8
1
62
256
6
ByLayer
370
18
48
1
60
0
100
AcDbSpline
70
4
71
3
72
21
73
17
40
0
40
0
40
0
40
0
40
0.0001096836879333
40
0.00270680139264
40
0.0033560808188169
40
0.0040053602449933
40
0.0088749559413179
40
0.0137445516376433
40
0.0234837430302933
40
0.0338722138491201
40
0.0442606846679466
40
0.0858145679432533
40
0.168922334493867
40
0.335137867595093
40
0.667568933797547
40
1
40
1
40
1
40
1
41
1
10
18.9862478698229
20
20.2942463337772
30
0
41
1
10
18.9862327191331
20
20.2944106106801
30
0
41
1
10
18.9858581404268
20
20.2984646100375
30
0
41
1
10
18.98537165105
20
20.3034888851731
30
0
41
1
10
18.9847696747536
20
20.3093173022312
30
0
41
1
10
18.9838046177984
20
20.3185444545549
30
0
41
1
10
18.9821774527532
20
20.3340847361432
30
0
41
1
10
18.9791211714412
20
20.3632222162492
30
0
41
1
10
18.9751898614283
20
20.4006143878451
30
0
41
1
10
18.9703793952831
20
20.4462608397784
30
0
41
1
10
18.9605505282695
20
20.5394958189006
30
0
41
1
10
18.9393475786944
20
20.7415143513796
30
0
41
1
10
18.8935953046339
20
21.176622645012
30
0
41
1
10
18.8021449783078
20
22.0468447233953
30
0
41
1
10
18.6714768678785
20
23.2900166108602
30
0
41
1
10
18.5669467172788
20
24.2845545601216
30
0
41
1
10
18.5146816419788
20
24.7818235347522
30
0
0
SPLINE
5
2B6
100
AcDbEntity
8
1
62
256
6
ByLayer
370
18
48
1
60
0
100
AcDbSpline
70
4
71
3
72
41
73
37
40
0
40
0
40
0
40
0
40
0.0625
40
0.078125
40
0.09375
40
0.125
40
0.1875
40
0.21875
40
0.25
40
0.2578125
40
0.265625
40
0.28125
40
0.3125
40
0.375
40
0.4375
40
0.5
40
0.515625
40
0.5234375
40
0.53125
40
0.5625
40
0.625
40
0.6875
40
0.75
40
0.8125
40
0.84375
40
0.859375
40
0.8671875
40
0.875
40
0.90625
40
0.9375
40
0.96875
40
0.984375
40
0.986328125
40
0.98828125
40
0.9921875
40
1
40
1
40
1
40
1
41
1
10
6.2490881139162
20
23.4926577069056
30
0
41
1
10
6.29979864158739
20
23.4979875981364
30
0
41
1
10
6.36327646361914
20
23.5046593860774
30
0
41
1
10
6.43916293024026
20
23.5126353751186
30
0
41
1
10
6.49004505475202
20
23.5179833019041
30
0
41
1
10
6.57971286540035
20
23.5274077685703
30
0
41
1
10
6.68306279713195
20
23.5382702841096
30
0
41
1
10
6.78604133263499
20
23.5490937643325
30
0
41
1
10
6.84354828379171
20
23.5551379884563
30
0
41
1
10
6.88175649435615
20
23.5591538332085
30
0
41
1
10
6.90730667938411
20
23.5618392658668
30
0
41
1
10
6.95196213623828
20
23.5665327435099
30
0
41
1
10
7.04131335857241
20
23.5759239354034
30
0
41
1
10
7.16893946110335
20
23.5893379793098
30
0
41
1
10
7.32209621104275
20
23.6054354023879
30
0
41
1
10
7.43689724943872
20
23.6175014777363
30
0
41
1
10
7.50721228004525
20
23.6248918852559
30
0
41
1
10
7.53258647432975
20
23.6275588205416
30
0
41
1
10
7.5703204782242
20
23.6315248241645
30
0
41
1
10
7.65217131542514
20
23.6401276938143
30
0
41
1
10
7.77707618070477
20
23.6532557241605
30
0
41
1
10
7.92295469293927
20
23.6685881736306
30
0
41
1
10
8.06248114420143
20
23.6832529945898
30
0
41
1
10
8.17145164191081
20
23.6947062554181
30
0
41
1
10
8.24327063228779
20
23.7022547354792
30
0
41
1
10
8.2777302417293
20
23.7058765863771
30
0
41
1
10
8.29740493396807
20
23.707944479859
30
0
41
1
10
8.32696262177436
20
23.7110511180321
30
0
41
1
10
8.37134916268829
20
23.7157163314709
30
0
41
1
10
8.43051830158666
20
23.7219352585662
30
0
41
1
10
8.47984266558117
20
23.7271194581238
30
0
41
1
10
8.51062911245819
20
23.7303552440793
30
0
41
1
10
8.52298020143323
20
23.7316533958408
30
0
41
1
10
8.52783223695221
20
23.7321633653235
30
0
41
1
10
8.53729761386577
20
23.7331582165255
30
0
41
1
10
8.54690561064447
20
23.7341680576793
30
0
41
1
10
8.55321848720726
20
23.7348315677428
30
0
0
SPLINE
5
2B7
100
AcDbEntity
8
1
62
256
6
ByLayer
370
18
48
1
60
0
100
AcDbSpline
70
4
71
3
72
42
73
38
40
0
40
0
40
0
40
0
40
0.258003694988868
40
0.516007389977736
40
0.64500923747217
40
0.709510161219387
40
0.741760623092996
40
0.749823238561398
40
0.7578858540298
40
0.765444556031427
40
0.769223907032241
40
0.773003258033054
40
0.773507171499829
40
0.774011084966604
40
0.776026738833705
40
0.778042392700806
40
0.782073700435007
40
0.790136315903409
40
0.806261546840213
40
0.838512008713821
40
0.87076247058743
40
0.903012932461039
40
0.911075547929441
40
0.915106855663642
40
0.919138163397843
40
0.923169471132044
40
0.927200778866245
40
0.931232086600446
40
0.935263394334647
40
0.951388625271451
40
0.967513856208256
40
0.98363908714506
40
0.990693875679912
40
0.997748664214764
40
0.998756491148314
40
0.999764318081864
40
1
40
1
40
1
40
1
41
1
10
8.55321848720726
20
23.7348315677428
30
0
41
1
10
8.52013688601679
20
24.0495819781984
30
0
41
1
10
8.45397368363578
20
24.6790827991096
30
0
41
1
10
8.37126968065954
20
25.4659588252486
30
0
41
1
10
8.31337687857624
20
26.016772043546
30
0
41
1
10
8.28443047753447
20
26.2921786526946
30
0
41
1
10
8.27099107705087
20
26.4200460069422
30
0
41
1
10
8.26478827682766
20
26.4790617089027
30
0
41
1
10
8.26175148921837
20
26.5079548129874
30
0
41
1
10
8.25926390787888
20
26.5316225684612
30
0
41
1
10
8.25732553280906
20
26.5500649753238
30
0
41
1
10
8.25629173277187
20
26.5599009256505
30
0
41
1
10
8.25567791399979
20
26.565741021157
30
0
41
1
10
8.25529023898579
20
26.5694295025296
30
0
41
1
10
8.25470872646488
20
26.5749622245884
30
0
41
1
10
8.25367492642769
20
26.5847981749151
30
0
41
1
10
8.25186577636262
20
26.6020110879869
30
0
41
1
10
8.24824747623236
20
26.6364369141305
30
0
41
1
10
8.24101087597197
20
26.7052885664176
30
0
41
1
10
8.23067287559994
20
26.803648069685
30
0
41
1
10
8.21826727515352
20
26.9216794736058
30
0
41
1
10
8.20896307481868
20
27.0102030265465
30
0
41
1
10
8.2032771746141
20
27.0643007533436
30
0
41
1
10
8.20120957453966
20
27.0839726539971
30
0
41
1
10
8.19965887448384
20
27.0987265794871
30
0
41
1
10
8.19810817442809
20
27.1134805049773
30
0
41
1
10
8.19655747437227
20
27.1282344304674
30
0
41
1
10
8.19500677431645
20
27.1429883559574
30
0
41
1
10
8.19190537420488
20
27.1724962069377
30
0
41
1
10
8.18725327403743
20
27.216757983408
30
0
41
1
10
8.18105047381422
20
27.2757736853684
30
0
41
1
10
8.17601069863284
20
27.3237239432113
30
0
41
1
10
8.17213394849333
20
27.3606087569366
30
0
41
1
10
8.1701782144024
20
27.379077225611
30
0
41
1
10
8.16899287061889
20
27.3901761777723
30
0
41
1
10
8.16871700386096
20
27.3929034631629
30
0
41
1
10
8.16857738304574
20
27.39439071394
30
0
41
1
10
8.16855139775296
20
27.3946719262713
30
0
0
SPLINE
5
2B8
100
AcDbEntity
8
1
62
256
6
ByLayer
370
18
48
1
60
0
100
AcDbSpline
70
4
71
3
72
45
73
41
40
0
40
0
40
0
40
0
40
0.0011565097570587
40
0.0196321945810335
40
0.0288700369930209
40
0.0381078794050083
40
0.0565835642289831
40
0.130486303524882
40
0.204389042820781
40
0.278291782116681
40
0.310624230558637
40
0.34093590097297
40
0.342956679000593
40
0.347575600206586
40
0.35219452141258
40
0.370670206236555
40
0.379908048648542
40
0.389145891060529
40
0.407621575884504
40
0.426097260708479
40
0.463048630356429
40
0.500000000004378
40
0.536951369652328
40
0.555427054476303
40
0.573902739300278
40
0.592378424124252
40
0.610854108948227
40
0.629329793772202
40
0.647805478596177
40
0.65242439980217
40
0.657043321008164
40
0.68937576945012
40
0.721708217892076
40
0.795610957187975
40
0.869513696483874
40
0.943416435779774
40
0.961892120603749
40
0.980367805427723
40
0.998843490251699
40
1
40
1
40
1
40
1
41
1
10
6.421196333388
20
29.721712661733
30
0
41
1
10
6.42073714551648
20
29.721655242171
30
0
41
1
10
6.41294804472219
20
29.7206780586723
30
0
41
1
10
6.40163686564526
20
29.7191736350411
30
0
41
1
10
6.38737597707583
20
29.716955704776
30
0
41
1
10
6.37319636935584
20
29.7145429911496
30
0
41
1
10
6.33427756243802
20
29.7071051293927
30
0
41
1
10
6.26966969854348
20
29.6903499899521
30
0
41
1
10
6.18382889483988
20
29.6576834044431
30
0
41
1
10
6.11567773895612
20
29.6223538549015
30
0
41
1
10
6.06575820409117
20
29.5909426119248
30
0
41
1
10
6.04270997812952
20
29.5747930420228
30
0
41
1
10
6.02974368490712
20
29.5651942574372
30
0
41
1
10
6.02580591204062
20
29.5622464703398
30
0
41
1
10
6.01615805441534
20
29.5549112437101
30
0
41
1
10
6.0050366284153
20
29.5461231726752
30
0
41
1
10
5.99252394879758
20
29.5357738402886
30
0
41
1
10
5.98014734709531
20
29.5252239683021
30
0
41
1
10
5.96493998524412
20
29.5116668831097
30
0
41
1
10
5.94120528072827
20
29.4892134942625
30
0
41
1
10
5.91272236815072
20
29.4597680420174
30
0
41
1
10
5.88065067310285
20
29.4223879768669
30
0
41
1
10
5.85585663654857
20
29.3896670067287
30
0
41
1
10
5.83723704639712
20
29.362667980842
30
0
41
1
10
5.82389422670465
20
29.3420376614716
30
0
41
1
10
5.81118733330848
20
29.3210563670787
30
0
41
1
10
5.7991304195838
20
29.2997541725963
30
0
41
1
10
5.78773753890576
20
29.2781611529571
30
0
41
1
10
5.7797014432135
20
29.2617708255598
30
0
41
1
10
5.77456033977185
20
29.2507718545997
30
0
41
1
10
5.76697841402236
20
29.2342316159681
30
0
41
1
10
5.75520642186521
20
29.2063957998081
30
0
41
1
10
5.73468072136089
20
29.1500235424427
30
0
41
1
10
5.71442717748678
20
29.0757558575413
30
0
41
1
10
5.70044618300537
20
28.9846711826743
30
0
41
1
10
5.69755377243578
20
28.9177447596451
30
0
41
1
10
5.69847527601959
20
28.8743664782613
30
0
41
1
10
5.69951633025781
20
28.8527451001614
30
0
41
1
10
5.70068572734036
20
28.837670929001
30
0
41
1
10
5.70135307316471
20
28.8298191175381
30
0
41
1
10
5.70139259808619
20
28.8293562717915
30
0
0
SPLINE
5
2B9
100
AcDbEntity
8
1
62
256
6
ByLayer
370
18
48
1
60
0
100
AcDbSpline
70
4
71
3
72
41
73
37
40
0
40
0
40
0
40
0
40
0.0078125
40
0.01171875
40
0.013671875
40
0.015625
40
0.03125
40
0.0625
40
0.09375
40
0.125
40
0.1328125
40
0.140625
40
0.15625
40
0.1875
40
0.25
40
0.3125
40
0.375
40
0.4375
40
0.46875
40
0.4765625
40
0.484375
40
0.5
40
0.5625
40
0.625
40
0.6875
40
0.71875
40
0.734375
40
0.7421875
40
0.75
40
0.78125
40
0.8125
40
0.875
40
0.90625
40
0.921875
40
0.9375
40
1
40
1
40
1
40
1
41
1
10
11.9473988654189
20
27.9426710114767
30
0
41
1
10
11.9467328208548
20
27.9490080022024
30
0
41
1
10
11.9458672103208
20
27.9588362879522
30
0
41
1
10
11.9452828502568
20
27.9688514270382
30
0
41
1
10
11.9450631972677
20
27.9740843232126
30
0
41
1
10
11.9444772464827
20
27.9873716698693
30
0
41
1
10
11.9430309890512
20
28.0205095566942
30
0
41
1
10
11.9407035036609
20
28.073588412569
30
0
41
1
10
11.9379146210128
20
28.1372653188303
30
0
41
1
10
11.9358201701388
20
28.1850305318268
30
0
41
1
10
11.9344328381993
20
28.2168472982322
30
0
41
1
10
11.9335039156009
20
28.2380189442286
30
0
41
1
10
11.9318072515947
20
28.2750140313639
30
0
41
1
10
11.9279160749858
20
28.3516771435726
30
0
41
1
10
11.9210502616769
20
28.4668052869527
30
0
41
1
10
11.9107605414339
20
28.6123580601591
30
0
41
1
10
11.8986064599601
20
28.7628067041036
30
0
41
1
10
11.887083002876
20
28.8902400784056
30
0
41
1
10
11.8790170385739
20
28.9731099249755
30
0
41
1
10
11.8752037364875
20
29.0111961552124
30
0
41
1
10
11.8726116945046
20
29.0367727510257
30
0
41
1
10
11.8654357432836
20
29.1076572373172
30
0
41
1
10
11.8537165755521
20
29.2233840053015
30
0
41
1
10
11.8380829647485
20
29.3777770172622
30
0
41
1
10
11.8250548934451
20
29.506432652112
30
0
41
1
10
11.8159354219382
20
29.5965065116158
30
0
41
1
10
11.8113754085412
20
29.6415202297295
30
0
41
1
10
11.808770138189
20
29.6672801082354
30
0
41
1
10
11.8048718786066
20
29.7057990580338
30
0
41
1
10
11.798872717273
20
29.7636101643657
30
0
41
1
10
11.7877075070371
20
29.8666096659736
30
0
41
1
10
11.7758813796237
20
29.9692112068301
30
0
41
1
10
11.7650712790972
20
30.0575483633302
30
0
41
1
10
11.7587858993776
20
30.107487993742
30
0
41
1
10
11.7492291413099
20
30.1817423910805
30
0
41
1
10
11.7412290147878
20
30.2438475122605
30
0
41
1
10
11.7348397620097
20
30.2934636721853
30
0
0
SPLINE
5
2BA
100
AcDbEntity
8
1
62
256
6
ByLayer
370
18
48
1
60
0
100
AcDbSpline
70
4
71
3
72
20
73
16
40
0
40
0
40
0
40
0
40
0.332431012821213
40
0.664862025642425
40
0.831077532053032
40
0.914185285258335
40
0.955739161860986
40
0.976516100162312
40
0.986255289991058
40
0.995690130137657
40
0.995994479819805
40
0.996643759141721
40
0.997293038463638
40
0.999890155751304
40
1
40
1
40
1
40
1
41
1
10
18.5146816419788
20
24.7818235347523
30
0
41
1
10
18.462416566679
20
25.279092509383
30
0
41
1
10
18.3578864160791
20
26.2736304586444
30
0
41
1
10
18.227229145688
20
27.5168034854431
30
0
41
1
10
18.1357517192667
20
28.3870227154917
30
0
41
1
10
18.090040095349
20
28.8221352816263
30
0
41
1
10
18.067142125678
20
29.0396869720281
30
0
41
1
10
18.0558548267711
20
29.1474980822145
30
0
41
1
10
18.0495756535464
20
29.2072591952126
30
0
41
1
10
18.0465049147705
20
29.2363951492721
30
0
41
1
10
18.0448640229766
20
29.2519339845382
30
0
41
1
10
18.0446107903747
20
29.2543315730872
30
0
41
1
10
18.0439878159995
20
29.2601577831582
30
0
41
1
10
18.0434190416648
20
29.2651736526393
30
0
41
1
10
18.0429425317459
20
29.269217181422
30
0
41
1
10
18.0429231678793
20
29.2693812583364
30
0
0
SPLINE
5
2BB
100
AcDbEntity
8
1
62
256
6
ByLayer
370
18
48
1
60
0
100
AcDbSpline
70
4
71
1
72
4
73
2
40
0
40
0
40
1
40
1
41
1
10
18.3425739425107
20
18.5527644164541
30
0
41
1
10
17.49941143697
20
18.4509789789961
30
0
0
SPLINE
5
2BC
100
AcDbEntity
8
1
62
256
6
ByLayer
370
18
48
1
60
0
100
AcDbSpline
70
4
71
3
72
20
73
16
40
0
40
0
40
0
40
0
40
0.332431012821213
40
0.664862025642426
40
0.831077532053032
40
0.914185285258335
40
0.955739161860987
40
0.976516100162313
40
0.986255289991059
40
0.995690130137657
40
0.995994479819806
40
0.996643759141722
40
0.997293038463639
40
0.999890155751304
40
1
40
1
40
1
40
1
41
1
10
6.2490881139162
20
23.4926577069056
30
0
41
1
10
6.30135318921614
20
22.9953887322749
30
0
41
1
10
6.40588333981592
20
22.0008507830135
30
0
41
1
10
6.53654061020703
20
20.7576777562147
30
0
41
1
10
6.62801803662839
20
19.8874585261662
30
0
41
1
10
6.67372966054606
20
19.4523459600315
30
0
41
1
10
6.69662763021719
20
19.2347942696298
30
0
41
1
10
6.70791492912386
20
19.1269831594434
30
0
41
1
10
6.71419410234861
20
19.0672220464453
30
0
41
1
10
6.71726484112455
20
19.0380860923858
30
0
41
1
10
6.71890573291844
20
19.0225472571197
30
0
41
1
10
6.71915896552028
20
19.0201496685707
30
0
41
1
10
6.71978193989563
20
19.0143234584997
30
0
41
1
10
6.72035071423031
20
19.0093075890186
30
0
41
1
10
6.72082722414902
20
19.0052640602359
30
0
41
1
10
6.72084658801569
20
19.0050999833215
30
0
0
SPLINE
5
2BD
100
AcDbEntity
8
1
62
256
6
ByLayer
370
18
48
1
60
0
100
AcDbSpline
70
4
71
3
72
46
73
42
40
0
40
0
40
0
40
0
40
0.000235681918147
40
0.0012435088516973
40
0.0022513357852475
40
0.0026922600686758
40
0.0093061243200993
40
0.0163609128549511
40
0.0324861437917552
40
0.0486113747285593
40
0.0647366056653633
40
0.0687679133995644
40
0.0707835672666649
40
0.0727992211337654
40
0.0768305288679664
40
0.0788461827350669
40
0.0808618366021674
40
0.0848931443363684
40
0.0889244520705695
40
0.0969870675389715
40
0.12923752941258
40
0.161487991286188
40
0.193738453159796
40
0.2098636840966
40
0.217926299565002
40
0.219941953432103
40
0.221957607299203
40
0.222965434232753
40
0.223973261166304
40
0.225988915033404
40
0.226492828500179
40
0.226996741966954
40
0.227232951404505
40
0.234555443968581
40
0.242114145970208
40
0.258239376907012
40
0.290489838780621
40
0.354990762527837
40
0.483992610022269
40
0.741996305011135
40
1
40
1
40
1
40
1
41
1
10
8.30148481218177
20
27.5594723794865
30
0
41
1
10
8.30176421189182
20
27.5595053305355
30
0
41
1
10
8.30324233200744
20
27.5596774465345
30
0
41
1
10
8.30595699743233
20
27.5599735930427
30
0
41
1
10
8.30895258348417
20
27.5602833315495
30
0
41
1
10
8.31878107408451
20
27.5613011826895
30
0
41
1
10
8.33595470973026
20
27.5630929352884
30
0
41
1
10
8.37216330895532
20
27.56689861242
30
0
41
1
10
8.41993110159055
20
27.5719192097352
30
0
41
1
10
8.47872223098764
20
27.5780984064309
30
0
41
1
10
8.52281557803551
20
27.5827328039527
30
0
41
1
10
8.54976151234249
20
27.5855649357715
30
0
41
1
10
8.5595600339087
20
27.5865948018875
30
0
41
1
10
8.56935855547491
20
27.5876246680034
30
0
41
1
10
8.57915707704106
20
27.5886545341194
30
0
41
1
10
8.58895559860727
20
27.5896844002354
30
0
41
1
10
8.59875412017348
20
27.5907142663513
30
0
41
1
10
8.61100227213123
20
27.5920015989962
30
0
41
1
10
8.63059931526359
20
27.5940613312281
30
0
41
1
10
8.68449118387761
20
27.5997255948659
30
0
41
1
10
8.77267787797334
20
27.6089943899094
30
0
41
1
10
8.89026013676758
20
27.6213527833008
30
0
41
1
10
8.98824535242952
20
27.6316514444602
30
0
41
1
10
9.05683500339282
20
27.6388605072719
30
0
41
1
10
9.08868019848299
20
27.6422075721487
30
0
41
1
10
9.10337798083222
20
27.6437523713227
30
0
41
1
10
9.10950205681112
20
27.6443960376451
30
0
41
1
10
9.11440131759426
20
27.6449109707031
30
0
41
1
10
9.11930057837733
20
27.6454259037611
30
0
41
1
10
9.12358743156253
20
27.6458764701868
30
0
41
1
10
9.12726187714983
20
27.6462626699803
30
0
41
1
10
9.12877375840711
20
27.6464215751036
30
0
41
1
10
9.13857227997332
20
27.6474514412196
30
0
41
1
10
9.15694450790991
20
27.649382440187
30
0
41
1
10
9.19462671291737
20
27.6533429995274
30
0
41
1
10
9.26260395628285
20
27.6604876957068
30
0
41
1
10
9.39978325820951
20
27.6749058213301
30
0
41
1
10
9.67414186206284
20
27.7037420725767
30
0
41
1
10
10.2228590697694
20
27.7614145750698
30
0
41
1
10
11.0067407950646
20
27.8438038643457
30
0
41
1
10
11.6338461753009
20
27.9097152957664
30
0
41
1
10
11.9473988654189
20
27.9426710114767
30
0
0
SPLINE
5
2BE
100
AcDbEntity
8
1
62
256
6
ByLayer
370
18
48
1
60
0
100
AcDbSpline
70
4
71
1
72
4
73
2
40
0
40
0
40
1
40
1
41
1
10
18.9862504825843
20
20.2942465744859
30
0
41
1
10
19.0623813225687
20
19.4451253248909
30
0
0
SPLINE
5
2BF
100
AcDbEntity
8
1
62
256
6
ByLayer
370
18
48
1
60
0
100
AcDbSpline
70
4
71
3
72
41
73
37
40
0
40
0
40
0
40
0
40
0.0078125
40
0.01171875
40
0.013671875
40
0.015625
40
0.03125
40
0.0625
40
0.09375
40
0.125
40
0.1328125
40
0.140625
40
0.15625
40
0.1875
40
0.25
40
0.3125
40
0.375
40
0.4375
40
0.46875
40
0.4765625
40
0.484375
40
0.5
40
0.5625
40
0.625
40
0.6875
40
0.71875
40
0.734375
40
0.7421875
40
0.75
40
0.78125
40
0.8125
40
0.875
40
0.90625
40
0.921875
40
0.9375
40
1
40
1
40
1
40
1
41
1
10
12.7480868940492
20
20.3246332929558
30
0
41
1
10
12.7487529386133
20
20.3182963022301
30
0
41
1
10
12.7499496592543
20
20.3085028175549
30
0
41
1
10
12.7514603333609
20
20.298585037998
30
0
41
1
10
12.7523334606082
20
20.2934208247358
30
0
41
1
10
12.7545229089635
20
20.280302012465
30
0
41
1
10
12.7599980098066
20
20.2475875741458
30
0
41
1
10
12.7687571002281
20
20.1951847071993
30
0
41
1
10
12.7792683346039
20
20.1323194528109
30
0
41
1
10
12.787150598703
20
20.0851625634972
30
0
41
1
10
12.7924086609947
20
20.0537526272455
30
0
41
1
10
12.7959018703003
20
20.0328504986424
30
0
41
1
10
12.8019339935916
20
19.9963110866397
30
0
41
1
10
12.8140670058102
20
19.9205142262601
30
0
41
1
10
12.8312877139459
20
19.806474426182
30
0
41
1
10
12.8514849719586
20
19.6619629771562
30
0
41
1
10
12.8708765182696
20
19.5122750214187
30
0
41
1
10
12.8860997646884
20
19.3852305106453
30
0
41
1
10
12.8954396709769
20
19.3024945607737
30
0
41
1
10
12.8996282712156
20
19.2644477759621
30
0
41
1
10
12.9024105448499
20
19.238891174301
30
0
41
1
10
12.9101291187779
20
19.1680637199542
30
0
41
1
10
12.922726990983
20
19.0524293075316
30
0
41
1
10
12.9395351242519
20
18.8981597428565
30
0
41
1
10
12.9535407581392
20
18.7696068539744
30
0
41
1
10
12.9633479773927
20
18.6796052796715
30
0
41
1
10
12.9682464894721
20
18.6346271392031
30
0
41
1
10
12.9710539304231
20
18.6088885096834
30
0
41
1
10
12.9752493971468
20
18.5704007976142
30
0
41
1
10
12.9814009367474
20
18.5126057068835
30
0
41
1
10
12.9918945136762
20
18.4095356137705
30
0
41
1
10
13.0016588753608
20
18.3067173726039
30
0
41
1
10
13.0094513290371
20
18.2180630486391
30
0
41
1
10
13.0136863329423
20
18.1679079150455
30
0
41
1
10
13.019776770269
20
18.0932891927163
30
0
41
1
10
13.0248638464588
20
18.0308778976087
30
0
41
1
10
13.0289299938853
20
17.9810175694726
30
0
0
SPLINE
5
2C0
100
AcDbEntity
8
1
62
256
6
ByLayer
370
18
48
1
60
0
100
AcDbSpline
70
4
71
1
72
4
73
2
40
0
40
0
40
1
40
1
41
1
10
16.205340212017
20
30.763237338249
30
0
41
1
10
17.0512406951871
20
30.8389795633455
30
0
0
SPLINE
5
2C1
100
AcDbEntity
8
1
62
256
6
ByLayer
370
18
48
1
60
0
100
AcDbSpline
70
4
71
1
72
4
73
2
40
0
40
0
40
1
40
1
41
1
10
6.82291893362103
20
18.1587059904375
30
0
41
1
10
6.72084398413617
20
19.0050996757617
30
0
0
SPLINE
5
2C2
100
AcDbEntity
8
1
62
256
6
ByLayer
370
18
48
1
60
0
100
AcDbSpline
70
4
71
3
72
20
73
16
40
0
40
0
40
0
40
0
40
0.332431012821212
40
0.664862025642423
40
0.831077532053029
40
0.914185285258332
40
0.955739161860983
40
0.976516100162309
40
0.986255289991056
40
0.995690130137654
40
0.995994479819802
40
0.996643759141718
40
0.997293038463635
40
0.999890155751301
40
1
40
1
40
1
40
1
41
1
10
13.0289299938853
20
17.9810175694726
30
0
41
1
10
13.5243067099379
20
18.0330837603817
30
0
41
1
10
14.5150601420432
20
18.1372161422001
30
0
41
1
10
15.7535025244946
20
18.2673761809025
30
0
41
1
10
16.6204102967868
20
18.3585056114195
30
0
41
1
10
17.0538671445325
20
18.4040431338259
30
0
41
1
10
17.2705909594161
20
18.4268542139052
30
0
41
1
10
17.3779918507405
20
18.4380982285967
30
0
41
1
10
17.4375255562252
20
18.4443534927927
30
0
41
1
10
17.4665506325034
20
18.4474126100324
30
0
41
1
10
17.4820303317111
20
18.4490473157675
30
0
41
1
10
17.484418795732
20
18.4492995940637
30
0
41
1
10
17.4902228269005
20
18.4499202778901
30
0
41
1
10
17.4952195765202
20
18.4504872014951
30
0
41
1
10
17.499247677618
20
18.450962286689
30
0
41
1
10
17.4994111284907
20
18.4509815928491
30
0
0
SPLINE
5
2C3
100
AcDbEntity
8
1
62
256
6
ByLayer
370
18
48
1
60
0
100
AcDbSpline
70
4
71
3
72
21
73
17
40
0
40
0
40
0
40
0
40
0.0001096836879125
40
0.0027068013926192
40
0.0033560808187962
40
0.0040053602449726
40
0.0088749559412972
40
0.0137445516376228
40
0.023483743030273
40
0.0338722138491
40
0.0442606846679267
40
0.0858145679432343
40
0.168922334493849
40
0.33513786759508
40
0.66756893379754
40
1
40
1
40
1
40
1
41
1
10
8.55842930199421
20
17.5112465261237
30
0
41
1
10
8.55859295545079
20
17.5112616032057
30
0
41
1
10
8.56263156895048
20
17.5116343680189
30
0
41
1
10
8.56763675816447
20
17.5121186925434
30
0
41
1
10
8.57344300475026
20
17.5127182980816
30
0
41
1
10
8.58263504874347
20
17.5136796468361
30
0
41
1
10
8.59811619977077
20
17.5153005733856
30
0
41
1
10
8.62714280787586
20
17.5183451779312
30
0
41
1
10
8.66439268999127
20
17.5222615374323
30
0
41
1
10
8.70986543322337
20
17.5270537950684
30
0
41
1
10
8.80274560173675
20
17.5368454825774
30
0
41
1
10
9.00399541653147
20
17.5579675218675
30
0
41
1
10
9.43744797545466
20
17.6035458496937
30
0
41
1
10
10.304358606962
20
17.6946480765976
30
0
41
1
10
11.5427998457274
20
17.8248189967452
30
0
41
1
10
12.5335532778326
20
17.9289513785635
30
0
41
1
10
13.0289299938852
20
17.9810175694726
30
0
0
SPLINE
5
2C4
100
AcDbEntity
8
1
62
256
6
ByLayer
370
18
48
1
60
0
100
AcDbSpline
70
4
71
3
72
46
73
42
40
0
40
0
40
0
40
0
40
0.0002356819181351
40
0.0012435088516854
40
0.0022513357852356
40
0.0026922600686639
40
0.0093061243200875
40
0.0163609128549394
40
0.0324861437917437
40
0.0486113747285479
40
0.0647366056653522
40
0.0687679133995533
40
0.0707835672666538
40
0.0727992211337543
40
0.0768305288679554
40
0.0788461827350559
40
0.0808618366021565
40
0.0848931443363575
40
0.0889244520705586
40
0.0969870675389607
40
0.129237529412569
40
0.161487991286178
40
0.193738453159786
40
0.209863684096591
40
0.217926299564993
40
0.219941953432093
40
0.221957607299194
40
0.222965434232744
40
0.223973261166294
40
0.225988915033395
40
0.22649282850017
40
0.226996741966945
40
0.227232951404496
40
0.234555443968572
40
0.242114145970199
40
0.258239376907003
40
0.290489838780612
40
0.354990762527829
40
0.483992610022263
40
0.741996305011132
40
1
40
1
40
1
40
1
41
1
10
8.93788089364111
20
20.074990717009
30
0
41
1
10
8.9378478437616
20
20.0752711868223
30
0
41
1
10
8.93767519670328
20
20.0767549664013
30
0
41
1
10
8.93737800059378
20
20.0794800099868
30
0
41
1
10
8.93706704039542
20
20.0824870346399
30
0
41
1
10
8.93604518685876
20
20.0923530564568
30
0
41
1
10
8.93424648998175
20
20.1095922820825
30
0
41
1
10
8.93042627578174
20
20.1459391922743
30
0
41
1
10
8.92538650060035
20
20.1938894501172
30
0
41
1
10
8.91918370037709
20
20.2529051520775
30
0
41
1
10
8.91453160020976
20
20.2971669285478
30
0
41
1
10
8.91168865010738
20
20.3242157919464
30
0
41
1
10
8.91065485007024
20
20.3340517422732
30
0
41
1
10
8.90962105003305
20
20.3438876925999
30
0
41
1
10
8.9085872499958
20
20.3537236429266
30
0
41
1
10
8.90755344995861
20
20.3635595932534
30
0
41
1
10
8.90651964992142
20
20.3733955435801
30
0
41
1
10
8.90522739987492
20
20.3856904814885
30
0
41
1
10
8.90315979980048
20
20.405362382142
30
0
41
1
10
8.89747389959584
20
20.4594601089391
30
0
41
1
10
8.88816969926106
20
20.5479836618797
30
0
41
1
10
8.87576409881459
20
20.6660150658006
30
0
41
1
10
8.86542609844255
20
20.7643745690679
30
0
41
1
10
8.85818949818216
20
20.8332262213551
30
0
41
1
10
8.85482964806127
20
20.865193059917
30
0
41
1
10
8.85327894800545
20
20.8799469854071
30
0
41
1
10
8.85263282298214
20
20.8860944543613
30
0
41
1
10
8.85211592296363
20
20.8910124295247
30
0
41
1
10
8.85159902294501
20
20.8959304046881
30
0
41
1
10
8.85114673542873
20
20.900233632956
30
0
41
1
10
8.85075906041479
20
20.9039221143285
30
0
41
1
10
8.85059954829964
20
20.9054397707266
30
0
41
1
10
8.84956574826239
20
20.9152757210534
30
0
41
1
10
8.84762737319269
20
20.933718127916
30
0
41
1
10
8.84365168515902
20
20.9715442728248
30
0
41
1
10
8.8364796974009
20
21.0397811782166
30
0
41
1
10
8.82200649688005
20
21.1774844827909
30
0
41
1
10
8.7930600958384
20
21.4528910919396
30
0
41
1
10
8.73516729375504
20
22.0037043102369
30
0
41
1
10
8.65246329077874
20
22.7905803363759
30
0
41
1
10
8.58630008839779
20
23.4200811572872
30
0
41
1
10
8.55321848720726
20
23.7348315677428
30
0
0
SPLINE
5
2C5
100
AcDbEntity
8
1
62
256
6
ByLayer
370
18
48
1
60
0
100
AcDbSpline
70
4
71
3
72
21
73
17
40
0
40
0
40
0
40
0
40
0.059279273843807
40
0.122239377580398
40
0.185199481316987
40
0.248159585053579
40
0.311119688790172
40
0.374079792526761
40
0.499999999999943
40
0.625920207473124
40
0.751840414946306
40
0.814800518682897
40
0.877760622419488
40
0.909240674287783
40
0.940720726156079
40
1
40
1
40
1
40
1
41
1
10
9.10217333489746
20
19.9414299600568
30
0
41
1
10
9.09766163604954
20
19.9410134966393
30
0
41
1
10
9.08871273153451
20
19.9404105018469
30
0
41
1
10
9.07567778589575
20
19.9408077858199
30
0
41
1
10
9.06139503923967
20
19.9425670808815
30
0
41
1
10
9.04674893796752
20
19.9457799793807
30
0
41
1
10
9.03236485962574
20
19.9505459696646
30
0
41
1
10
9.01372776558551
20
19.9589447595531
30
0
41
1
10
8.99180762976781
20
19.9732260281146
30
0
41
1
10
8.96964083689292
20
19.9954927383474
30
0
41
1
10
8.95570129134288
20
20.0168988697838
30
0
41
1
10
8.94746718439646
20
20.0351841873926
30
0
41
1
10
8.94356407864299
20
20.0465670283991
30
0
41
1
10
8.94120406497265
20
20.0553286190905
30
0
41
1
10
8.93935837807581
20
20.0638562071801
30
0
41
1
10
8.9384131575371
20
20.070473788123
30
0
41
1
10
8.93788089364111
20
20.074990717009
30
0
0
SPLINE
5
2C6
100
AcDbEntity
8
1
62
256
6
ByLayer
370
18
48
1
60
0
100
AcDbSpline
70
4
71
3
72
46
73
42
40
0
40
0
40
0
40
0
40
0.0002356819181369
40
0.0012435088516872
40
0.0022513357852375
40
0.0026922600686657
40
0.0093061243200893
40
0.0163609128549412
40
0.0324861437917454
40
0.0486113747285497
40
0.0647366056653539
40
0.068767913399555
40
0.0707835672666555
40
0.072799221133756
40
0.0768305288679571
40
0.0788461827350576
40
0.0808618366021582
40
0.0848931443363592
40
0.0889244520705603
40
0.0969870675389624
40
0.129237529412571
40
0.161487991286179
40
0.193738453159788
40
0.209863684096592
40
0.217926299564994
40
0.219941953432095
40
0.221957607299195
40
0.222965434232746
40
0.223973261166296
40
0.225988915033396
40
0.226492828500171
40
0.226996741966947
40
0.227232951404498
40
0.234555443968574
40
0.242114145970201
40
0.258239376907005
40
0.290489838780613
40
0.35499076252783
40
0.483992610022264
40
0.741996305011132
40
1
40
1
40
1
40
1
41
1
10
15.757604865827
20
28.1923135874235
30
0
41
1
10
15.7576379157065
20
28.1920331176102
30
0
41
1
10
15.7578105627648
20
28.1905493380312
30
0
41
1
10
15.7581077588743
20
28.1878242944457
30
0
41
1
10
15.7584187190727
20
28.1848172697927
30
0
41
1
10
15.7594405726093
20
28.1749512479757
30
0
41
1
10
15.7612392694864
20
28.15771202235
30
0
41
1
10
15.7650594836864
20
28.1213651121583
30
0
41
1
10
15.7700992588677
20
28.0734148543154
30
0
41
1
10
15.776302059091
20
28.014399152355
30
0
41
1
10
15.7809541592584
20
27.9701373758847
30
0
41
1
10
15.7837971093607
20
27.9430885124861
30
0
41
1
10
15.7848309093979
20
27.9332525621594
30
0
41
1
10
15.7858647094351
20
27.9234166118327
30
0
41
1
10
15.7868985094723
20
27.9135806615059
30
0
41
1
10
15.7879323095095
20
27.9037447111792
30
0
41
1
10
15.7889661095467
20
27.8939087608524
30
0
41
1
10
15.7902583595932
20
27.8816138229441
30
0
41
1
10
15.7923259596676
20
27.8619419222905
30
0
41
1
10
15.7980118598722
20
27.8078441954935
30
0
41
1
10
15.8073160602071
20
27.7193206425528
30
0
41
1
10
15.8197216606535
20
27.601289238632
30
0
41
1
10
15.8300596610255
20
27.5029297353646
30
0
41
1
10
15.8372962612859
20
27.4340780830774
30
0
41
1
10
15.8406561114068
20
27.4021112445156
30
0
41
1
10
15.8422068114627
20
27.3873573190254
30
0
41
1
10
15.8428529364858
20
27.3812098500712
30
0
41
1
10
15.8433698365045
20
27.3762918749078
30
0
41
1
10
15.8438867365231
20
27.3713738997445
30
0
41
1
10
15.8443390240394
20
27.3670706714765
30
0
41
1
10
15.8447266990533
20
27.363382190104
30
0
41
1
10
15.8448862111684
20
27.3618645337059
30
0
41
1
10
15.8459200112056
20
27.3520285833792
30
0
41
1
10
15.8478583862754
20
27.3335861765166
30
0
41
1
10
15.8518340743091
20
27.2957600316077
30
0
41
1
10
15.8590060620672
20
27.227523126216
30
0
41
1
10
15.8734792625881
20
27.0898198216416
30
0
41
1
10
15.9024256636297
20
26.814413212493
30
0
41
1
10
15.9603184657131
20
26.2635999941956
30
0
41
1
10
16.0430224686894
20
25.4767239680566
30
0
41
1
10
16.1091856710703
20
24.8472231471453
30
0
41
1
10
16.1422672722608
20
24.5324727366898
30
0
0
SPLINE
5
2C7
100
AcDbEntity
8
1
62
256
6
ByLayer
370
18
48
1
60
0
100
AcDbSpline
70
4
71
3
72
21
73
17
40
0
40
0
40
0
40
0
40
0.0001096836879367
40
0.0027068013926434
40
0.0033560808188203
40
0.0040053602449967
40
0.0088749559413212
40
0.0137445516376467
40
0.0234837430302966
40
0.0338722138491234
40
0.0442606846679499
40
0.0858145679432564
40
0.16892233449387
40
0.335137867595096
40
0.667568933797548
40
1
40
1
40
1
40
1
41
1
10
16.205340453901
20
30.7632347155341
30
0
41
1
10
16.2051768004444
20
30.7632196384522
30
0
41
1
10
16.2011381869446
20
30.762846873639
30
0
41
1
10
16.1961329977306
20
30.7623625491145
30
0
41
1
10
16.1903267511448
20
30.7617629435763
30
0
41
1
10
16.1811347071516
20
30.7608015948218
30
0
41
1
10
16.1656535561243
20
30.7591806682723
30
0
41
1
10
16.1366269480192
20
30.7561360637267
30
0
41
1
10
16.0993770659038
20
30.7522197042255
30
0
41
1
10
16.0539043226717
20
30.7474274465894
30
0
41
1
10
15.9610241541584
20
30.7376357590805
30
0
41
1
10
15.7597743393636
20
30.7165137197903
30
0
41
1
10
15.3263217804404
20
30.6709353919642
30
0
41
1
10
14.4594111489331
20
30.5798331650603
30
0
41
1
10
13.2209699101676
20
30.4496622449126
30
0
41
1
10
12.2302164780624
20
30.3455298630944
30
0
41
1
10
11.7348397620098
20
30.2934636721853
30
0
0
SPLINE
5
2C8
100
AcDbEntity
8
1
62
256
6
ByLayer
370
18
48
1
60
0
100
AcDbSpline
70
4
71
3
72
20
73
16
40
0
40
0
40
0
40
0
40
0.332431012821212
40
0.664862025642423
40
0.831077532053029
40
0.914185285258332
40
0.955739161860983
40
0.976516100162309
40
0.986255289991055
40
0.995690130137654
40
0.995994479819802
40
0.996643759141718
40
0.997293038463635
40
0.9998901557513
40
1
40
1
40
1
40
1
41
1
10
11.7348397620097
20
30.2934636721853
30
0
41
1
10
11.2394630459571
20
30.2413974812761
30
0
41
1
10
10.248709613852
20
30.1372650994578
30
0
41
1
10
9.01026723140049
20
30.0071050607554
30
0
41
1
10
8.14335945910815
20
29.9159756302384
30
0
41
1
10
7.70990261136254
20
29.870438107832
30
0
41
1
10
7.49317879647887
20
29.8476270277527
30
0
41
1
10
7.38577790515447
20
29.8363830130612
30
0
41
1
10
7.32624419966984
20
29.8301277488652
30
0
41
1
10
7.29721912339156
20
29.8270686316255
30
0
41
1
10
7.28173942418411
20
29.8254339258904
30
0
41
1
10
7.27935096016304
20
29.8251816475942
30
0
41
1
10
7.27354692899465
20
29.8245609637678
30
0
41
1
10
7.26855017937484
20
29.8239940401628
30
0
41
1
10
7.26452207827705
20
29.8235189549689
30
0
41
1
10
7.26435862740428
20
29.8234996488088
30
0
0
SPLINE
5
2C9
100
AcDbEntity
8
1
62
256
6
ByLayer
370
18
48
1
60
0
100
AcDbSpline
70
4
71
3
72
45
73
41
40
0
40
0
40
0
40
0
40
0.0011565097570397
40
0.019632194581014
40
0.0288700369930012
40
0.0381078794049883
40
0.0565835642289626
40
0.13048630352486
40
0.204389042820757
40
0.278291782116654
40
0.310624230558609
40
0.340935900972942
40
0.342956679000564
40
0.347575600206558
40
0.352194521412551
40
0.370670206236526
40
0.379908048648513
40
0.3891458910605
40
0.407621575884474
40
0.426097260708449
40
0.463048630356397
40
0.500000000004346
40
0.536951369652295
40
0.555427054476269
40
0.573902739300243
40
0.592378424124217
40
0.610854108948192
40
0.629329793772166
40
0.64780547859614
40
0.652424399802134
40
0.657043321008127
40
0.689375769450083
40
0.721708217892037
40
0.795610957187935
40
0.869513696483832
40
0.943416435779729
40
0.961892120603703
40
0.980367805427678
40
0.998843490251653
40
1
40
1
40
1
40
1
41
1
10
6.82292308118323
20
18.1587065090838
30
0
41
1
10
6.82298065101836
20
18.1582455599306
30
0
41
1
10
6.82396037169903
20
18.1504265803846
30
0
41
1
10
6.82546816200417
20
18.1390719442952
30
0
41
1
10
6.8276891414491
20
18.1247560114728
30
0
41
1
10
6.83010411484471
20
18.1105215088072
30
0
41
1
10
6.83754514304351
20
18.0714513850151
30
0
41
1
10
6.85428913327482
20
18.0065888308755
30
0
41
1
10
6.88690217824185
20
17.9204013868927
30
0
41
1
10
6.92215425352967
20
17.8519675776463
30
0
41
1
10
6.95348815434133
20
17.8018366182583
30
0
41
1
10
6.96959588555362
20
17.7786894706472
30
0
41
1
10
6.97916922167011
20
17.7656671198186
30
0
41
1
10
6.9821091585242
20
17.7617122967249
30
0
41
1
10
6.98942473117026
20
17.752022575179
30
0
41
1
10
6.99818890881696
20
17.7408526275977
30
0
41
1
10
7.00850963963504
20
17.7282849903692
30
0
41
1
10
7.01903005578103
20
17.7158537805512
30
0
41
1
10
7.0325487362019
20
17.7005788496305
30
0
41
1
10
7.05493736777655
20
17.6767376615244
30
0
41
1
10
7.08429580217134
20
17.6481249811108
30
0
41
1
10
7.12156216168503
20
17.6159038190642
30
0
41
1
10
7.15418099844416
20
17.5909912018164
30
0
41
1
10
7.1810942936136
20
17.5722806375952
30
0
41
1
10
7.20165840373775
20
17.5588716089436
30
0
41
1
10
7.22257167847474
20
17.5461006045319
30
0
41
1
10
7.24380414369065
20
17.5339817540857
30
0
41
1
10
7.26532582525121
20
17.5225291873307
30
0
41
1
10
7.28166151807963
20
17.5144500723272
30
0
41
1
10
7.29262362623919
20
17.5092810403901
30
0
41
1
10
7.30910831232356
20
17.5016576735146
30
0
41
1
10
7.33684985530383
20
17.4898196301952
30
0
41
1
10
7.39302856606494
20
17.4691725498856
30
0
41
1
10
7.46703588206097
20
17.4487844578174
30
0
41
1
10
7.55779262327511
20
17.4346790222168
30
0
41
1
10
7.62447223970307
20
17.4317227529955
30
0
41
1
10
7.66768833718382
20
17.4326133147979
30
0
41
1
10
7.68922841555079
20
17.4336411201731
30
0
41
1
10
7.70424555387032
20
17.4348029377745
30
0
41
1
10
7.71206761199406
20
17.4354665531956
30
0
41
1
10
7.71252870370373
20
17.4355058589153
30
0
0
SPLINE
5
2CA
100
AcDbEntity
8
1
62
256
6
ByLayer
370
18
48
1
60
0
100
AcDbSpline
70
4
71
3
72
41
73
37
40
0
40
0
40
0
40
0
40
0.0078125
40
0.01171875
40
0.013671875
40
0.015625
40
0.03125
40
0.0625
40
0.09375
40
0.125
40
0.1328125
40
0.140625
40
0.15625
40
0.1875
40
0.25
40
0.3125
40
0.375
40
0.4375
40
0.46875
40
0.4765625
40
0.484375
40
0.5
40
0.5625
40
0.625
40
0.6875
40
0.71875
40
0.734375
40
0.7421875
40
0.75
40
0.78125
40
0.8125
40
0.875
40
0.90625
40
0.921875
40
0.9375
40
1
40
1
40
1
40
1
41
1
10
16.1422672722608
20
24.5324727366898
30
0
41
1
10
16.1485801488235
20
24.5331362467532
30
0
41
1
10
16.1585192557094
20
24.5341808889816
30
0
41
1
10
16.1689109466655
20
24.5352730997127
30
0
41
1
10
16.1744164564426
20
24.5358517521076
30
0
41
1
10
16.188371042988
20
24.5373184382549
30
0
41
1
10
16.2231863332766
20
24.5409776727162
30
0
41
1
10
16.2789423023023
20
24.5468378612022
30
0
41
1
10
16.3458337929283
20
24.5538684401702
30
0
41
1
10
16.3960081470675
20
24.5591419772919
30
0
41
1
10
16.429436565226
20
24.5626554456186
30
0
41
1
10
16.4516755441719
20
24.5649928564938
30
0
41
1
10
16.4904706128985
20
24.5690703825244
30
0
41
1
10
16.5705314388852
20
24.5774851144145
30
0
41
1
10
16.6898568314215
20
24.5900267185448
30
0
41
1
10
16.8392908204532
20
24.6057328636847
30
0
41
1
10
16.9924067975251
20
24.6218260013618
30
0
41
1
10
17.1210114521392
20
24.6353428952366
30
0
41
1
10
17.2041362313265
20
24.6440796615848
30
0
41
1
10
17.2422455333733
20
24.6480851106329
30
0
41
1
10
17.2678099593092
20
24.6507720400709
30
0
41
1
10
17.3386676126228
20
24.6582194795351
30
0
41
1
10
17.4543473554924
20
24.6703779104451
30
0
41
1
10
17.608678627897
20
24.6865987808088
30
0
41
1
10
17.7372822930118
20
24.7001155706831
30
0
41
1
10
17.8273212630925
20
24.7095790477775
30
0
41
1
10
17.8723152186292
20
24.7143081030658
30
0
41
1
10
17.898067574256
20
24.7170147847102
30
0
41
1
10
17.9365729919618
20
24.7210618671918
30
0
41
1
10
17.9942323213855
20
24.7271221069168
30
0
41
1
10
18.0965392235812
20
24.7378749956345
30
0
41
1
10
18.1978273895841
20
24.7485208108636
30
0
41
1
10
18.2844775533822
20
24.7576281100653
30
0
41
1
10
18.3333093020796
20
24.7627605336689
30
0
41
1
10
18.4057294479597
20
24.7703721977194
30
0
41
1
10
18.4662942196592
20
24.7767378117329
30
0
41
1
10
18.5146816419788
20
24.7818235347523
30
0
0
SPLINE
5
2CB
100
AcDbEntity
8
1
62
256
6
ByLayer
370
18
48
1
60
0
100
AcDbSpline
70
4
71
3
72
45
73
41
40
0
40
0
40
0
40
0
40
0.0011565097570702
40
0.0196321945810447
40
0.028870036993032
40
0.0381078794050192
40
0.0565835642289938
40
0.130486303524892
40
0.20438904282079
40
0.278291782116688
40
0.310624230558644
40
0.340935900972977
40
0.342956679000599
40
0.347575600206593
40
0.352194521412586
40
0.370670206236561
40
0.379908048648548
40
0.389145891060535
40
0.40762157588451
40
0.426097260708484
40
0.463048630356433
40
0.500000000004383
40
0.536951369652332
40
0.555427054476305
40
0.573902739300281
40
0.592378424124255
40
0.61085410894823
40
0.629329793772205
40
0.647805478596179
40
0.652424399802172
40
0.657043321008166
40
0.689375769450122
40
0.721708217892077
40
0.795610957187975
40
0.869513696483873
40
0.943416435779771
40
0.961892120603746
40
0.980367805427721
40
0.998843490251695
40
1
40
1
40
1
40
1
41
1
10
18.3425734225071
20
18.5527685799249
30
0
41
1
10
18.3430326103785
20
18.5528259994869
30
0
41
1
10
18.3508217111728
20
18.5538031829856
30
0
41
1
10
18.3621328902498
20
18.5553076066168
30
0
41
1
10
18.3763937788192
20
18.5575255368818
30
0
41
1
10
18.3905733865393
20
18.5599382505083
30
0
41
1
10
18.429492193457
20
18.5673761122652
30
0
41
1
10
18.4941000573515
20
18.5841312517058
30
0
41
1
10
18.5799408610551
20
18.6167978372148
30
0
41
1
10
18.6480920169389
20
18.6521273867564
30
0
41
1
10
18.6980115518038
20
18.6835386297331
30
0
41
1
10
18.7210597777655
20
18.6996881996351
30
0
41
1
10
18.734026070988
20
18.7092869842207
30
0
41
1
10
18.7379638438545
20
18.7122347713181
30
0
41
1
10
18.7476117014797
20
18.7195699979478
30
0
41
1
10
18.7587331274797
20
18.7283580689827
30
0
41
1
10
18.7712458070975
20
18.7387074013693
30
0
41
1
10
18.7836224087997
20
18.7492572733558
30
0
41
1
10
18.798829770651
20
18.7628143585482
30
0
41
1
10
18.8225644751667
20
18.7852677473954
30
0
41
1
10
18.8510473877443
20
18.8147131996405
30
0
41
1
10
18.8831190827922
20
18.852093264791
30
0
41
1
10
18.9079131193464
20
18.8848142349291
30
0
41
1
10
18.9265327094979
20
18.9118132608159
30
0
41
1
10
18.9398755291903
20
18.9324435801863
30
0
41
1
10
18.9525824225865
20
18.9534248745792
30
0
41
1
10
18.9646393363112
20
18.9747270690616
30
0
41
1
10
18.9760322169893
20
18.9963200887007
30
0
41
1
10
18.9840683126816
20
19.0127104160981
30
0
41
1
10
18.9892094161231
20
19.0237093870581
30
0
41
1
10
18.9967913418728
20
19.0402496256898
30
0
41
1
10
19.0085633340299
20
19.0680854418498
30
0
41
1
10
19.0290890345341
20
19.1244576992152
30
0
41
1
10
19.0493425784082
20
19.1987253841166
30
0
41
1
10
19.0633235728897
20
19.2898100589836
30
0
41
1
10
19.0662159834592
20
19.3567364820127
30
0
41
1
10
19.0652944798755
20
19.4001147633966
30
0
41
1
10
19.0642534256372
20
19.4217361414965
30
0
41
1
10
19.0630840285546
20
19.4368103126569
30
0
41
1
10
19.0624166827304
20
19.4446621241198
30
0
41
1
10
19.0623771578089
20
19.4451249698663
30
0
0
SPLINE
5
2CC
100
AcDbEntity
8
1
62
256
6
ByLayer
370
18
48
1
60
0
100
AcDbSpline
70
4
71
1
72
4
73
2
40
0
40
0
40
1
40
1
41
1
10
17.940850822274
20
30.1157752512204
30
0
41
1
10
18.042925771759
20
29.2693815658962
30
0
0
SPLINE
5
2CD
100
AcDbEntity
8
1
62
256
6
ByLayer
370
18
48
1
60
0
100
AcDbSpline
70
4
71
3
72
42
73
38
40
0
40
0
40
0
40
0
40
0.258003694988868
40
0.516007389977736
40
0.645009237472171
40
0.709510161219388
40
0.741760623092996
40
0.749823238561398
40
0.7578858540298
40
0.765444556031427
40
0.769223907032241
40
0.773003258033054
40
0.773507171499829
40
0.774011084966605
40
0.776026738833705
40
0.778042392700806
40
0.782073700435007
40
0.790136315903409
40
0.806261546840213
40
0.838512008713822
40
0.87076247058743
40
0.903012932461039
40
0.911075547929441
40
0.915106855663642
40
0.919138163397843
40
0.923169471132044
40
0.927200778866245
40
0.931232086600446
40
0.935263394334647
40
0.951388625271452
40
0.967513856208256
40
0.98363908714506
40
0.990693875679912
40
0.997748664214764
40
0.998756491148314
40
0.999764318081864
40
1
40
1
40
1
40
1
41
1
10
16.1422672722608
20
24.5324727366898
30
0
41
1
10
16.1753488734513
20
24.2177223262341
30
0
41
1
10
16.2415120758323
20
23.5882215053229
30
0
41
1
10
16.3242160788085
20
22.8013454791839
30
0
41
1
10
16.3821088808919
20
22.2505322608866
30
0
41
1
10
16.4110552819336
20
21.9751256517379
30
0
41
1
10
16.4244946824172
20
21.8472582974903
30
0
41
1
10
16.4306974826405
20
21.7882425955299
30
0
41
1
10
16.4337342702497
20
21.7593494914451
30
0
41
1
10
16.4362218515892
20
21.7356817359714
30
0
41
1
10
16.438160226659
20
21.7172393291087
30
0
41
1
10
16.4391940266962
20
21.707403378782
30
0
41
1
10
16.4398078454683
20
21.7015632832755
30
0
41
1
10
16.4401955204822
20
21.6978748019029
30
0
41
1
10
16.4407770330031
20
21.6923420798442
30
0
41
1
10
16.4418108330404
20
21.6825061295175
30
0
41
1
10
16.4436199831055
20
21.6652932164456
30
0
41
1
10
16.4472382832357
20
21.6308673903021
30
0
41
1
10
16.4544748834962
20
21.5620157380149
30
0
41
1
10
16.4648128838682
20
21.4636562347475
30
0
41
1
10
16.4772184843146
20
21.3456248308267
30
0
41
1
10
16.4865226846494
20
21.2571012778861
30
0
41
1
10
16.492208584854
20
21.203003551089
30
0
41
1
10
16.4942761849284
20
21.1833316504355
30
0
41
1
10
16.4958268849842
20
21.1685777249454
30
0
41
1
10
16.49737758504
20
21.1538237994553
30
0
41
1
10
16.4989282850958
20
21.1390698739652
30
0
41
1
10
16.5004789851517
20
21.1243159484751
30
0
41
1
10
16.5035803852632
20
21.0948080974949
30
0
41
1
10
16.5082324854307
20
21.0505463210245
30
0
41
1
10
16.5144352856538
20
20.9915306190641
30
0
41
1
10
16.5194750608353
20
20.9435803612213
30
0
41
1
10
16.5233518109748
20
20.906695547496
30
0
41
1
10
16.5253075450657
20
20.8882270788216
30
0
41
1
10
16.5264928888492
20
20.8771281266603
30
0
41
1
10
16.5267687556071
20
20.8744008412696
30
0
41
1
10
16.5269083764223
20
20.8729135904925
30
0
41
1
10
16.526934361715
20
20.8726323781613
30
0
0
SPLINE
5
2CE
100
AcDbEntity
8
1
62
256
6
ByLayer
370
18
48
1
60
0
100
AcDbSpline
70
4
71
1
72
4
73
2
40
0
40
0
40
1
40
1
41
1
10
8.55842954387808
20
17.5112439034089
30
0
41
1
10
7.71252906070808
20
17.4355016783124
30
0
0
SPLINE
5
2CF
100
AcDbEntity
8
1
62
256
6
ByLayer
370
18
48
1
60
0
100
AcDbSpline
70
4
71
1
72
4
73
2
40
0
40
0
40
1
40
1
41
1
10
5.77751927331073
20
27.980234667172
30
0
41
1
10
5.70138843332634
20
28.829355916767
30
0
0
SPLINE
5
2D0
100
AcDbEntity
8
1
62
256
6
ByLayer
370
18
48
1
60
0
100
AcDbSpline
70
4
71
3
72
21
73
17
40
0
40
0
40
0
40
0
40
0.0592792738437517
40
0.122239377580352
40
0.185199481316951
40
0.248159585053553
40
0.311119688790156
40
0.374079792526754
40
0.499999999999955
40
0.625920207473156
40
0.751840414946357
40
0.814800518682958
40
0.877760622419558
40
0.909240674287859
40
0.940720726156159
40
1
40
1
40
1
40
1
41
1
10
15.5933124245707
20
28.3258743443758
30
0
41
1
10
15.5978241234187
20
28.3262908077932
30
0
41
1
10
15.6067730279336
20
28.3268938025857
30
0
41
1
10
15.6198079735724
20
28.3264965186126
30
0
41
1
10
15.6340907202284
20
28.324737223551
30
0
41
1
10
15.6487368215005
20
28.3215243250519
30
0
41
1
10
15.6631208998424
20
28.316758334768
30
0
41
1
10
15.6817579938825
20
28.3083595448794
30
0
41
1
10
15.7036781297003
20
28.294078276318
30
0
41
1
10
15.7258449225751
20
28.2718115660851
30
0
41
1
10
15.7397844681252
20
28.2504054346487
30
0
41
1
10
15.7480185750717
20
28.23212011704
30
0
41
1
10
15.751921680825
20
28.2207372760335
30
0
41
1
10
15.7542816944954
20
28.211975685342
30
0
41
1
10
15.7561273813923
20
28.2034480972525
30
0
41
1
10
15.757072601931
20
28.1968305163095
30
0
41
1
10
15.757604865827
20
28.1923135874235
30
0
0
SPLINE
5
2D1
100
AcDbEntity
8
1
62
256
6
ByLayer
370
18
48
1
60
0
100
AcDbSpline
70
4
71
3
72
21
73
17
40
0
40
0
40
0
40
0
40
0.0001096836879336
40
0.0027068013926403
40
0.0033560808188172
40
0.0040053602449936
40
0.0088749559413182
40
0.0137445516376436
40
0.0234837430302936
40
0.0338722138491204
40
0.0442606846679469
40
0.0858145679432536
40
0.168922334493867
40
0.335137867595094
40
0.667568933797547
40
1
40
1
40
1
40
1
41
1
10
5.77752188607215
20
27.9802349078807
30
0
41
1
10
5.77753703676186
20
27.9800706309778
30
0
41
1
10
5.77791161546818
20
27.9760166316204
30
0
41
1
10
5.77839810484502
20
27.9709923564847
30
0
41
1
10
5.77900008114139
20
27.9651639394267
30
0
41
1
10
5.77996513809663
20
27.955936787103
30
0
41
1
10
5.78159230314182
20
27.9403965055147
30
0
41
1
10
5.78464858445383
20
27.9112590254087
30
0
41
1
10
5.78857989446672
20
27.8738668538128
30
0
41
1
10
5.79339036061188
20
27.8282204018794
30
0
41
1
10
5.80321922762553
20
27.7349854227573
30
0
41
1
10
5.82442217720066
20
27.5329668902783
30
0
41
1
10
5.87017445126108
20
27.0978585966459
30
0
41
1
10
5.96162477758722
20
26.2276365182626
30
0
41
1
10
6.09229288801643
20
24.9844646307977
30
0
41
1
10
6.19682303861626
20
23.9899266815363
30
0
41
1
10
6.2490881139162
20
23.4926577069056
30
0
0
SPLINE
5
2D2
100
AcDbEntity
8
1
62
256
6
ByLayer
370
18
48
1
60
0
100
AcDbSpline
70
4
71
3
72
42
73
38
40
0
40
0
40
0
40
0
40
0.258003694988866
40
0.516007389977731
40
0.645009237472164
40
0.70951016121938
40
0.741760623092988
40
0.74982323856139
40
0.757885854029793
40
0.76544455603142
40
0.769223907032233
40
0.773003258033046
40
0.773507171499821
40
0.774011084966597
40
0.776026738833697
40
0.778042392700798
40
0.782073700434999
40
0.790136315903401
40
0.806261546840205
40
0.838512008713813
40
0.870762470587421
40
0.903012932461029
40
0.911075547929431
40
0.915106855663633
40
0.919138163397834
40
0.923169471132034
40
0.927200778866236
40
0.931232086600437
40
0.935263394334638
40
0.951388625271442
40
0.967513856208246
40
0.98363908714505
40
0.990693875679902
40
0.997748664214754
40
0.998756491148304
40
0.999764318081854
40
1
40
1
40
1
40
1
41
1
10
11.9473988654189
20
27.9426710114767
30
0
41
1
10
12.260951555537
20
27.9756267271871
30
0
41
1
10
12.8880569357732
20
28.0415381586078
30
0
41
1
10
13.6719386610684
20
28.1239274478837
30
0
41
1
10
14.220655868775
20
28.1815999503769
30
0
41
1
10
14.4950144726284
20
28.2104362016234
30
0
41
1
10
14.6223952529888
20
28.2238244611308
30
0
41
1
10
14.681186382386
20
28.2300036578264
30
0
41
1
10
14.7099695394867
20
28.233028889542
30
0
41
1
10
14.7335472320053
20
28.2355070048835
30
0
41
1
10
14.7519194599419
20
28.2374380038509
30
0
41
1
10
14.761717981508
20
28.2384678699669
30
0
41
1
10
14.767535853688
20
28.2390793529732
30
0
41
1
10
14.7712102992753
20
28.2394655527667
30
0
41
1
10
14.7767219676563
20
28.2400448524569
30
0
41
1
10
14.7865204892225
20
28.2410747185729
30
0
41
1
10
14.8036679019633
20
28.2428769842758
30
0
41
1
10
14.837962727445
20
28.2464815156816
30
0
41
1
10
14.9065523784083
20
28.2536905784932
30
0
41
1
10
15.0045375940702
20
28.2639892396527
30
0
41
1
10
15.1221198528645
20
28.2763476330441
30
0
41
1
10
15.2103065469602
20
28.2856164280877
30
0
41
1
10
15.2641984155743
20
28.2912806917254
30
0
41
1
10
15.2837954587066
20
28.2933404239573
30
0
41
1
10
15.2984932410559
20
28.2948852231312
30
0
41
1
10
15.3131910234053
20
28.2964300223051
30
0
41
1
10
15.3278888057545
20
28.297974821479
30
0
41
1
10
15.3425865881038
20
28.2995196206529
30
0
41
1
10
15.3719821528024
20
28.3026092190008
30
0
41
1
10
15.4160754998502
20
28.3072436165226
30
0
41
1
10
15.4748666292474
20
28.3134228132183
30
0
41
1
10
15.5226344218825
20
28.3184434105336
30
0
41
1
10
15.5593788777557
20
28.3223054084683
30
0
41
1
10
15.5777770567422
20
28.3242538106607
30
0
41
1
10
15.5888337591399
20
28.3254347856162
30
0
41
1
10
15.5915506749333
20
28.3257095212981
30
0
41
1
10
15.5930322795063
20
28.3258484848992
30
0
41
1
10
15.5933124245707
20
28.3258743443758
30
0
0
SPLINE
5
2D3
100
AcDbEntity
8
1
62
256
6
ByLayer
370
18
48
1
60
0
100
AcDbSpline
70
4
71
3
72
21
73
17
40
0
40
0
40
0
40
0
40
0.0592792738438917
40
0.122239377580468
40
0.185199481317043
40
0.248159585053621
40
0.311119688790199
40
0.374079792526773
40
0.499999999999926
40
0.625920207473078
40
0.751840414946231
40
0.814800518682807
40
0.877760622419384
40
0.909240674287672
40
0.94072072615596
40
1
40
1
40
1
40
1
41
1
10
16.526934361715
20
20.8726323781613
30
0
41
1
10
16.5273528513843
20
20.8681034911221
30
0
41
1
10
16.5279606954353
20
20.8591206708323
30
0
41
1
10
16.5275752226607
20
20.8460373347278
30
0
41
1
10
16.5258337972909
20
20.8317026148038
30
0
41
1
10
16.5226444668014
20
20.8170043348199
30
0
41
1
10
16.5179076174165
20
20.8025702879225
30
0
41
1
10
16.5095548609351
20
20.7838702134723
30
0
41
1
10
16.4953441226909
20
20.7618794929914
30
0
41
1
10
16.4731778600138
20
20.7396475236958
30
0
41
1
10
16.4518624515127
20
20.7256728608683
30
0
41
1
10
16.4336517186326
20
20.7174224813514
30
0
41
1
10
16.4223143383304
20
20.7135138144762
30
0
41
1
10
16.4135872289059
20
20.7111519276773
30
0
41
1
10
16.4050928434328
20
20.7093061039575
30
0
41
1
10
16.3985006423029
20
20.7083625971894
30
0
41
1
10
16.3940009472862
20
20.707831924946
30
0
0
SPLINE
5
2D4
100
AcDbEntity
8
1
62
256
6
ByLayer
370
18
48
1
60
0
100
AcDbSpline
70
4
71
3
72
21
73
17
40
0
40
0
40
0
40
0
40
0.059279273843897
40
0.122239377580483
40
0.185199481317067
40
0.248159585053654
40
0.311119688790242
40
0.374079792526826
40
0.499999999999997
40
0.625920207473169
40
0.75184041494634
40
0.814800518682926
40
0.877760622419512
40
0.909240674287805
40
0.940720726156098
40
1
40
1
40
1
40
1
41
1
10
8.16855139775296
20
27.3946719262713
30
0
41
1
10
8.16813290808389
20
27.3992008133104
30
0
41
1
10
8.16752506403273
20
27.4081836336003
30
0
41
1
10
8.1679105368074
20
27.4212669697048
30
0
41
1
10
8.1696519621772
20
27.4356016896287
30
0
41
1
10
8.17284129266667
20
27.4502999696127
30
0
41
1
10
8.1775781420516
20
27.4647340165101
30
0
41
1
10
8.18593089853297
20
27.4834340909602
30
0
41
1
10
8.2001416367772
20
27.5054248114412
30
0
41
1
10
8.22230789945425
20
27.5276567807367
30
0
41
1
10
8.2436233079554
20
27.5416314435642
30
0
41
1
10
8.26183404083545
20
27.5498818230812
30
0
41
1
10
8.27317142113768
20
27.5537904899564
30
0
41
1
10
8.28189853056224
20
27.5561523767553
30
0
41
1
10
8.29039291603524
20
27.5579982004751
30
0
41
1
10
8.29698511716529
20
27.5589417072432
30
0
41
1
10
8.30148481218183
20
27.5594723794865
30
0
0
SPLINE
5
2D5
100
AcDbEntity
8
1
62
256
6
ByLayer
370
18
48
1
60
0
100
AcDbSpline
70
4
71
3
72
45
73
41
40
0
40
0
40
0
40
0
40
0.0011565097570586
40
0.0196321945810322
40
0.028870036993019
40
0.0381078794050058
40
0.0565835642289795
40
0.130486303524874
40
0.204389042820768
40
0.278291782116663
40
0.310624230558617
40
0.340935900972949
40
0.342956679000571
40
0.347575600206564
40
0.352194521412557
40
0.370670206236531
40
0.379908048648518
40
0.389145891060505
40
0.407621575884478
40
0.426097260708452
40
0.463048630356399
40
0.500000000004346
40
0.536951369652294
40
0.555427054476266
40
0.573902739300241
40
0.592378424124215
40
0.610854108948188
40
0.629329793772162
40
0.647805478596135
40
0.652424399802128
40
0.657043321008122
40
0.689375769450077
40
0.72170821789203
40
0.795610957187924
40
0.869513696483819
40
0.943416435779713
40
0.961892120603687
40
0.980367805427661
40
0.998843490251635
40
1
40
1
40
1
40
1
41
1
10
17.9408466747118
20
30.1157747325741
30
0
41
1
10
17.9407891048767
20
30.1162356817273
30
0
41
1
10
17.939809384196
20
30.1240546612733
30
0
41
1
10
17.9383015938909
20
30.1354092973627
30
0
41
1
10
17.936080614446
20
30.1497252301851
30
0
41
1
10
17.9336656410503
20
30.1639597328506
30
0
41
1
10
17.9262246128516
20
30.2030298566427
30
0
41
1
10
17.9094806226202
20
30.2678924107824
30
0
41
1
10
17.8768675776533
20
30.3540798547652
30
0
41
1
10
17.8416155023654
20
30.4225136640116
30
0
41
1
10
17.8102816015537
20
30.4726446233996
30
0
41
1
10
17.7941738703414
20
30.4957917710107
30
0
41
1
10
17.784600534225
20
30.5088141218393
30
0
41
1
10
17.7816605973708
20
30.512768944933
30
0
41
1
10
17.7743450247247
20
30.5224586664789
30
0
41
1
10
17.7655808470782
20
30.5336286140602
30
0
41
1
10
17.75526011626
20
30.5461962512887
30
0
41
1
10
17.744739700114
20
30.5586274611067
30
0
41
1
10
17.7312210196931
20
30.5739023920274
30
0
41
1
10
17.7088323881185
20
30.5977435801335
30
0
41
1
10
17.6794739537236
20
30.6263562605471
30
0
41
1
10
17.6422075942101
20
30.6585774225936
30
0
41
1
10
17.6095887574509
20
30.6834900398415
30
0
41
1
10
17.5826754622815
20
30.7022006040627
30
0
41
1
10
17.5621113521572
20
30.7156096327143
30
0
41
1
10
17.5411980774203
20
30.728380637126
30
0
41
1
10
17.5199656122045
20
30.7404994875722
30
0
41
1
10
17.4984439306438
20
30.7519520543272
30
0
41
1
10
17.4821082378153
20
30.7600311693307
30
0
41
1
10
17.4711461296559
20
30.7652002012677
30
0
41
1
10
17.4546614435715
20
30.7728235681432
30
0
41
1
10
17.4269199005912
20
30.7846616114627
30
0
41
1
10
17.3707411898301
20
30.8053086917722
30
0
41
1
10
17.296733873834
20
30.8256967838404
30
0
41
1
10
17.2059771326199
20
30.8398022194411
30
0
41
1
10
17.139297516192
20
30.8427584886624
30
0
41
1
10
17.0960814187113
20
30.84186792686
30
0
41
1
10
17.0745413403443
20
30.8408401214848
30
0
41
1
10
17.0595242020247
20
30.8396783038834
30
0
41
1
10
17.0517021439009
20
30.8390146884622
30
0
41
1
10
17.0512410521915
20
30.8389753827426
30
0
0
SPLINE
5
2D6
100
AcDbEntity
8
1
62
256
6
ByLayer
370
18
48
1
60
0
100
AcDbSpline
70
4
71
1
72
4
73
2
40
0
40
0
40
1
40
1
41
1
10
6.4211958133844
20
29.7217168252038
30
0
41
1
10
7.26435831892516
20
29.8235022626617
30
0
0
SPLINE
5
2D7
100
AcDbEntity
8
1
62
256
6
ByLayer
370
18
48
1
60
0
100
AcDbSpline
70
4
71
3
72
14
73
10
40
0
40
0
40
0
40
0
40
0.123716125021416
40
0.123716125021416
40
0.6145215304253
40
0.6145215304253
40
0.930668043503642
40
0.930668043503642
40
1
40
1
40
1
40
1
41
1
10
6.3960048504795
20
20.421112683077
30
0
41
1
10
6.38448624879643
20
20.4082741480561
30
0
41
1
10
6.37334182631795
20
20.3956438745521
30
0
41
1
10
6.32043889820923
20
20.3348961737055
30
0
41
1
10
6.28378825304159
20
20.2900296518174
30
0
41
1
10
6.23801709669735
20
20.2362241619606
30
0
41
1
10
6.22349384949243
20
20.220033466009
30
0
41
1
10
6.21175014327085
20
20.2099413757229
30
0
41
1
10
6.20985670247168
20
20.2084885350416
30
0
41
1
10
6.20820233990659
20
20.2074232819345
30
0
0
SPLINE
5
2D8
100
AcDbEntity
8
1
62
256
6
ByLayer
370
18
48
1
60
0
100
AcDbSpline
70
4
71
2
72
6
73
3
40
0
40
0
40
0
40
1
40
1
40
1
41
0.499320020008479
10
17.6381262501986
20
18.1014924656156
30
0
41
0.500679979991521
10
17.909990324646
20
18.106141979586
30
0
41
0.499320020008479
10
18.181858436856
20
18.1107916814802
30
0
0
SPLINE
5
2D9
100
AcDbEntity
8
1
62
256
6
ByLayer
370
18
48
1
60
0
100
AcDbSpline
70
4
71
3
72
12
73
8
40
0
40
0
40
0
40
0
40
0.198037621888094
40
0.198037621888094
40
0.443598583190911
40
0.443598583190911
40
1
40
1
40
1
40
1
41
1
10
9.34392532337208
20
17.2297368200615
30
0
41
1
10
9.34937638422147
20
17.2312145024023
30
0
41
1
10
9.3612281456453
20
17.2379728774231
30
0
41
1
10
9.39787530813001
20
17.2626457730529
30
0
41
1
10
9.42532193521245
20
17.2830380882947
30
0
41
1
10
9.52304088290501
20
17.3625291498744
30
0
41
1
10
9.6055723938828
20
17.4397842988407
30
0
41
1
10
9.68337971357155
20
17.529045397525
30
0
0
SPLINE
5
2DA
100
AcDbEntity
8
1
62
256
6
ByLayer
370
18
48
1
60
0
100
AcDbSpline
70
4
71
3
72
22
73
18
40
0
40
0
40
0
40
0
40
0.247648061031947
40
0.247648061031947
40
0.4996308530983
40
0.4996308530983
40
0.55493752473199
40
0.55493752473199
40
0.599939125431354
40
0.599939125431354
40
0.64535633140479
40
0.64535633140479
40
0.69579626347131
40
0.69579626347131
40
0.780049574066925
40
0.780049574066925
40
1
40
1
40
1
40
1
41
1
10
19.1198996418809
20
-10.4815680881853
30
0
41
1
10
19.1211378405328
20
-10.4717859706608
30
0
41
1
10
19.1223652472103
20
-10.4618693079699
30
0
41
1
10
19.1247206461255
20
-10.4415772766357
30
0
41
1
10
19.1259365993672
20
-10.4308199515407
30
0
41
1
10
19.1268849153744
20
-10.4181574193186
30
0
41
1
10
19.1270326197166
20
-10.4158399519424
30
0
41
1
10
19.1271961010663
20
-10.4119455769271
30
0
41
1
10
19.1272309979122
20
-10.410281802258
30
0
41
1
10
19.1271871647716
20
-10.4074690657175
30
0
41
1
10
19.1271052763409
20
-10.4062961163544
30
0
41
1
10
19.1268259734389
20
-10.4045337998576
30
0
41
1
10
19.1266152140852
20
-10.4039824506925
30
0
41
1
10
19.125971086984
20
-10.4032695879095
30
0
41
1
10
19.1254756646495
20
-10.403550797812
30
0
41
1
10
19.1236050761965
20
-10.4057108177613
30
0
41
1
10
19.1220455068263
20
-10.4093003267802
30
0
41
1
10
19.1204590785938
20
-10.4132832130081
30
0
0
SPLINE
5
2DB
100
AcDbEntity
8
1
62
256
6
ByLayer
370
18
48
1
60
0
100
AcDbSpline
70
4
71
3
72
8
73
4
40
0
40
0
40
0
40
0
40
1
40
1
40
1
40
1
41
1
10
19.0476722515962
20
-11.0424495591256
30
0
41
1
10
19.0723471147542
20
-10.8544718780073
30
0
41
1
10
19.0962882681988
20
-10.6681045795204
30
0
41
1
10
19.1198996418681
20
-10.4815680881549
30
0
0
SPLINE
5
2DC
100
AcDbEntity
8
1
62
256
6
ByLayer
370
18
48
1
60
0
100
AcDbSpline
70
4
71
3
72
12
73
8
40
0
40
0
40
0
40
0
40
0.428408370807837
40
0.428408370807837
40
0.853493920359581
40
0.853493920359581
40
1
40
1
40
1
40
1
41
1
10
19.1204590785938
20
-10.4132832130088
30
0
41
1
10
19.1149650873681
20
-10.4270764256746
30
0
41
1
10
19.1084165066769
20
-10.4360266221609
30
0
41
1
10
19.0924678234898
20
-10.4423184548812
30
0
41
1
10
19.0828873058232
20
-10.4401116128567
30
0
41
1
10
19.0678886835424
20
-10.4331293027517
30
0
41
1
10
19.0638508184146
20
-10.4310221025882
30
0
41
1
10
19.0596098917561
20
-10.4286410980546
30
0
0
SPLINE
5
2DD
100
AcDbEntity
8
1
62
256
6
ByLayer
370
18
48
1
60
0
100
AcDbSpline
70
4
71
3
72
8
73
4
40
0
40
0
40
0
40
0
40
1
40
1
40
1
40
1
41
1
10
19.0264322740402
20
-11.2027908024275
30
0
41
1
10
19.0335202057175
20
-11.1496691593671
30
0
41
1
10
19.0406283918747
20
-11.0961109880887
30
0
41
1
10
19.0476722515959
20
-11.0424495591265
30
0
0
SPLINE
5
2DE
100
AcDbEntity
8
1
62
256
6
ByLayer
370
18
48
1
60
0
100
AcDbSpline
70
4
71
3
72
8
73
4
40
0
40
0
40
0
40
0
40
1
40
1
40
1
40
1
41
1
10
19.0249894535773
20
-11.2136009413939
30
0
41
1
10
19.0254705398816
20
-11.2099975703295
30
0
41
1
10
19.0259514799988
20
-11.2063941906395
30
0
41
1
10
19.0264322740436
20
-11.2027908024013
30
0
0
LINE
5
70
100
AcDbEntity
8
80
62
256
6
ByLayer
370
13
48
0.05
60
0
100
AcDbLine
10
0
20
0
30
0
11
-13.598602
21
0
31
0
39
0
210
0
220
0
230
1
0
LINE
5
71
100
AcDbEntity
8
1
62
256
6
ByLayer
370
13
48
0.05
60
0
100
AcDbLine
10
18.924542
20
-21.827375
30
0
11
17.997825
21
-30.644498
31
0
39
0
210
0
220
0
230
1
0
LINE
5
73
100
AcDbEntity
8
1
62
256
6
ByLayer
370
13
48
0.05
60
0
100
AcDbLine
10
17.561502
20
-30.997825
30
0
11
8.74438
21
-30.071108
31
0
39
0
210
0
220
0
230
1
0
LINE
5
74
100
AcDbEntity
8
81
62
256
6
ByLayer
370
13
48
0.05
60
0
100
AcDbLine
10
18
20
31
30
0
11
22.434276
21
31
31
0
39
0
210
0
220
0
230
1
0
LINE
5
75
100
AcDbEntity
8
SK4
62
256
6
ByLayer
370
13
48
0.05
60
0
100
AcDbLine
10
-10
20
0
30
0
11
18.758091
21
0
31
0
39
0
210
0
220
0
230
1
0
LINE
5
77
100
AcDbEntity
8
4
62
256
6
ByLayer
370
13
48
0.05
60
0
100
AcDbLine
10
0
20
0
30
0
11
18
21
0
31
0
39
0
210
0
220
0
230
1
0
LINE
5
79
100
AcDbEntity
8
1
62
256
6
ByLayer
370
18
48
1
60
1
100
AcDbLine
10
0
20
0
30
0
11
0
21
841
31
0
39
0
210
0
220
0
230
1
0
LINE
5
7A
100
AcDbEntity
8
1
62
256
6
ByLayer
370
18
48
1
60
1
100
AcDbLine
10
1189
20
841
30
0
11
0
21
841
31
0
39
0
210
0
220
0
230
1
0
LINE
5
7B
100
AcDbEntity
8
1
62
256
6
ByLayer
370
18
48
1
60
1
100
AcDbLine
10
1189
20
841
30
0
11
1189
21
0
31
0
39
0
210
0
220
0
230
1
0
LINE
5
7C
100
AcDbEntity
8
1
62
256
6
ByLayer
370
18
48
1
60
1
100
AcDbLine
10
0
20
0
30
0
11
1189
21
0
31
0
39
0
210
0
220
0
230
1
0
LINE
5
7D
100
AcDbEntity
8
1
62
256
6
ByLayer
370
18
48
1
60
0
100
AcDbLine
10
18.835145
20
-12.63555
30
0
11
19.02499
21
-11.213599
31
0
39
0
210
0
220
0
230
1
0
LINE
5
7E
100
AcDbEntity
8
1
62
256
6
ByLayer
370
18
48
1
60
0
100
AcDbLine
10
12.256284
20
25.204358
30
0
11
12.35652
21
25.214893
31
0
39
0
210
0
220
0
230
1
0
LINE
5
7F
100
AcDbEntity
8
1
62
256
6
ByLayer
370
18
48
1
60
0
100
AcDbLine
10
12.178952
20
26.529131
30
0
11
12.106825
21
26.521551
31
0
39
0
210
0
220
0
230
1
0
LINE
5
80
100
AcDbEntity
8
1
62
256
6
ByLayer
370
18
48
1
60
0
100
AcDbLine
10
12.581131
20
23.077864
30
0
11
12.480895
21
23.067329
31
0
39
0
210
0
220
0
230
1
0
LINE
5
81
100
AcDbEntity
8
1
62
256
6
ByLayer
370
18
48
1
60
0
100
AcDbLine
10
12.608562
20
21.747845
30
0
11
12.680688
21
21.755426
31
0
39
0
210
0
220
0
230
1
0
LINE
5
82
100
AcDbEntity
8
1
62
256
6
ByLayer
370
18
48
1
60
0
100
AcDbLine
10
-4.898238
20
-10.550093
30
0
11
-4.898238
21
-11.511602
31
0
39
0
210
0
220
0
230
1
0
LINE
5
83
100
AcDbEntity
8
1
62
256
6
ByLayer
370
18
48
1
60
0
100
AcDbLine
10
5.677611
20
-12.526557
30
0
11
6.030443
21
-11.435847
31
0
39
0
210
0
220
0
230
1
0
LINE
5
84
100
AcDbEntity
8
1
62
256
6
ByLayer
370
18
48
1
60
0
100
AcDbLine
10
19.12286
20
-8.840742
30
0
11
18.835072
21
-6.958787
31
0
39
0
210
0
220
0
230
1
0
LINE
5
85
100
AcDbEntity
8
1
62
256
6
ByLayer
370
18
48
1
60
0
100
AcDbLine
10
19.222645
20
-9.673385
30
0
11
19.126998
21
-8.868599
31
0
39
0
210
0
220
0
230
1
0
LINE
5
86
100
AcDbEntity
8
1
62
256
6
ByLayer
370
18
48
1
60
0
100
AcDbLine
10
11.953712
20
-26.920913
30
0
11
-1.716725
21
-26.920913
31
0
39
0
210
0
220
0
230
1
0
LINE
5
87
100
AcDbEntity
8
1
62
256
6
ByLayer
370
18
48
1
60
0
100
AcDbLine
10
-1.716725
20
-26.920913
30
0
11
-1.716725
21
-15.86794
31
0
39
0
210
0
220
0
230
1
0
LINE
5
88
100
AcDbEntity
8
1
62
256
6
ByLayer
370
18
48
1
60
0
100
AcDbLine
10
-1.716725
20
-15.86794
30
0
11
-1.64386
21
-15.276633
31
0
39
0
210
0
220
0
230
1
0
LINE
5
89
100
AcDbEntity
8
SK1
62
256
6
ByLayer
370
18
48
1
60
0
100
AcDbLine
10
-7.998238
20
-19.015036
30
0
11
-4.448418
21
-19.220965
31
0
39
0
210
0
220
0
230
1
0
LINE
5
8B
100
AcDbEntity
8
SK1
62
256
6
ByLayer
370
18
48
1
60
0
100
AcDbLine
10
-4.448418
20
-19.220965
30
0
11
-2.321646
21
-19.326131
31
0
39
0
210
0
220
0
230
1
0
LINE
5
8C
100
AcDbEntity
8
1
62
256
6
ByLayer
370
18
48
1
60
0
100
AcDbLine
10
12.592853
20
-19.602518
30
0
11
12.582158
21
-20.558605
31
0
39
0
210
0
220
0
230
1
0
LINE
5
8D
100
AcDbEntity
8
SK1
62
256
6
ByLayer
370
18
48
1
60
0
100
AcDbLine
10
-7.998238
20
-19.015036
30
0
11
-7.998238
21
-14.978628
31
0
39
0
210
0
220
0
230
1
0
LINE
5
8E
100
AcDbEntity
8
1
62
256
6
ByLayer
370
18
48
1
60
0
100
AcDbLine
10
18.601762
20
-12.475151
30
0
11
18.601762
21
-12.358857
31
0
39
0
210
0
220
0
230
1
0
LINE
5
8F
100
AcDbEntity
8
1
62
256
6
ByLayer
370
18
48
1
60
0
100
AcDbLine
10
16.818128
20
-23.399017
30
0
11
16.424724
21
-23.955445
31
0
39
0
210
0
220
0
230
1
0
LINE
5
90
100
AcDbEntity
8
1
62
256
6
ByLayer
370
18
48
1
60
0
100
AcDbLine
10
11.978642
20
-26.890639
30
0
11
12.057812
21
-19.813623
31
0
39
0
210
0
220
0
230
1
0
LINE
5
91
100
AcDbEntity
8
1
62
256
6
ByLayer
370
18
48
1
60
0
100
AcDbLine
10
11.501762
20
-15.86794
30
0
11
-1.716725
21
-15.86794
31
0
39
0
210
0
220
0
230
1
0
LINE
5
92
100
AcDbEntity
8
1
62
256
6
ByLayer
370
18
48
1
60
0
100
AcDbLine
10
13.216615
20
-24.775775
30
0
11
15.318181
21
-24.693436
31
0
39
0
210
0
220
0
230
1
0
LINE
5
93
100
AcDbEntity
8
1
62
256
6
ByLayer
370
18
48
1
60
0
100
AcDbLine
10
11.501762
20
-18.548819
30
0
11
11.501762
21
-15.86794
31
0
39
0
210
0
220
0
230
1
0
LINE
5
94
100
AcDbEntity
8
1
62
256
6
ByLayer
370
18
48
1
60
0
100
AcDbLine
10
15.318181
20
-22.260714
30
0
11
13.683232
21
-24.186441
31
0
39
0
210
0
220
0
230
1
0
LINE
5
95
100
AcDbEntity
8
SK1
62
256
6
ByLayer
370
18
48
1
60
0
100
AcDbLine
10
-2.092498
20
-19.225925
30
0
11
-2.092498
21
-15.255425
31
0
39
0
210
0
220
0
230
1
0
LINE
5
96
100
AcDbEntity
8
1
62
256
6
ByLayer
370
18
48
1
60
0
100
AcDbLine
10
16.424724
20
-23.955445
30
0
11
15.318181
21
-24.693436
31
0
39
0
210
0
220
0
230
1
0
LINE
5
97
100
AcDbEntity
8
SK1
62
256
6
ByLayer
370
18
48
1
60
0
100
AcDbLine
10
-2.321646
20
-19.326131
30
0
11
-2.321646
21
-15.244695
31
0
39
0
210
0
220
0
230
1
0
LINE
5
98
100
AcDbEntity
8
1
62
256
6
ByLayer
370
18
48
1
60
0
100
AcDbLine
10
11.501762
20
-14.131564
30
0
11
11.501762
21
-15.86794
31
0
39
0
210
0
220
0
230
1
0
LINE
5
99
100
AcDbEntity
8
1
62
256
6
ByLayer
370
18
48
1
60
0
100
AcDbLine
10
17.864923
20
-17.491154
30
0
11
16.818128
21
-23.399017
31
0
39
0
210
0
220
0
230
1
0
LINE
5
9A
100
AcDbEntity
8
SK1
62
256
6
ByLayer
370
18
48
1
60
0
100
AcDbLine
10
-2.092498
20
-19.225925
30
0
11
-2.321646
21
-19.326131
31
0
39
0
210
0
220
0
230
1
0
LINE
5
9B
100
AcDbEntity
8
1
62
256
6
ByLayer
370
18
48
1
60
0
100
AcDbLine
10
15.318181
20
-24.693436
30
0
11
15.318181
21
-22.260714
31
0
39
0
210
0
220
0
230
1
0
LINE
5
9C
100
AcDbEntity
8
1
62
256
6
ByLayer
370
18
48
1
60
0
100
AcDbLine
10
11.258978
20
24.344495
30
0
11
11.239267
21
24.341421
31
0
39
0
210
0
220
0
230
1
0
LINE
5
9D
100
AcDbEntity
8
1
62
256
6
ByLayer
370
18
48
1
60
0
100
AcDbLine
10
12.807173
20
22.968728
30
0
11
12.916165
21
22.980183
31
0
39
0
210
0
220
0
230
1
0
LINE
5
9E
100
AcDbEntity
8
1
62
256
6
ByLayer
370
18
48
1
60
0
100
AcDbLine
10
11.392794
20
24.922221
30
0
11
11.501786
21
24.933676
31
0
39
0
210
0
220
0
230
1
0
LINE
5
9F
100
AcDbEntity
8
1
62
256
6
ByLayer
370
18
48
1
60
0
100
AcDbLine
10
11.150939
20
24.333139
30
0
11
11.258978
21
24.344495
31
0
39
0
210
0
220
0
230
1
0
LINE
5
A0
100
AcDbEntity
8
1
62
256
6
ByLayer
370
18
48
1
60
0
100
AcDbLine
10
13.521971
20
24.581343
30
0
11
13.586768
21
24.588154
31
0
39
0
210
0
220
0
230
1
0
LINE
5
A1
100
AcDbEntity
8
1
62
256
6
ByLayer
370
18
48
1
60
0
100
AcDbLine
10
11.693797
20
23.193899
30
0
11
11.686607
21
23.175226
31
0
39
0
210
0
220
0
230
1
0
LINE
5
A2
100
AcDbEntity
8
1
62
256
6
ByLayer
370
18
48
1
60
0
100
AcDbLine
10
11.585758
20
23.182543
30
0
11
11.693797
21
23.193899
31
0
39
0
210
0
220
0
230
1
0
LINE
5
A3
100
AcDbEntity
8
1
62
256
6
ByLayer
370
18
48
1
60
0
100
AcDbLine
10
11.577615
20
23.163771
30
0
11
11.686607
21
23.175226
31
0
39
0
210
0
220
0
230
1
0
LINE
5
A4
100
AcDbEntity
8
1
62
256
6
ByLayer
370
18
48
1
60
0
100
AcDbLine
10
12.663924
20
25.380096
30
0
11
12.65492
21
25.362235
31
0
39
0
210
0
220
0
230
1
0
LINE
5
A5
100
AcDbEntity
8
1
62
256
6
ByLayer
370
18
48
1
60
0
100
AcDbLine
10
11.306687
20
23.699958
30
0
11
11.326606
21
23.70105
31
0
39
0
210
0
220
0
230
1
0
LINE
5
A6
100
AcDbEntity
8
1
62
256
6
ByLayer
370
18
48
1
60
0
100
AcDbLine
10
11.501786
20
24.933676
30
0
11
11.512701
21
24.916907
31
0
39
0
210
0
220
0
230
1
0
LINE
5
A7
100
AcDbEntity
8
1
62
256
6
ByLayer
370
18
48
1
60
0
100
AcDbLine
10
13.589391
20
23.93988
30
0
11
13.652966
21
23.946562
31
0
39
0
210
0
220
0
230
1
0
LINE
5
A8
100
AcDbEntity
8
1
62
256
6
ByLayer
370
18
48
1
60
0
100
AcDbLine
10
12.795606
20
22.984427
30
0
11
12.903645
21
22.995783
31
0
39
0
210
0
220
0
230
1
0
LINE
5
A9
100
AcDbEntity
8
1
62
256
6
ByLayer
370
18
48
1
60
0
100
AcDbLine
10
12.546882
20
25.35088
30
0
11
12.65492
21
25.362235
31
0
39
0
210
0
220
0
230
1
0
LINE
5
AA
100
AcDbEntity
8
1
62
256
6
ByLayer
370
18
48
1
60
0
100
AcDbLine
10
12.903645
20
22.995783
30
0
11
12.916165
21
22.980183
31
0
39
0
210
0
220
0
230
1
0
LINE
5
AB
100
AcDbEntity
8
1
62
256
6
ByLayer
370
18
48
1
60
0
100
AcDbLine
10
11.218568
20
23.689695
30
0
11
11.326606
21
23.70105
31
0
39
0
210
0
220
0
230
1
0
LINE
5
AC
100
AcDbEntity
8
1
62
256
6
ByLayer
370
18
48
1
60
0
100
AcDbLine
10
11.404663
20
24.905551
30
0
11
11.512701
21
24.916907
31
0
39
0
210
0
220
0
230
1
0
LINE
5
AD
100
AcDbEntity
8
1
62
256
6
ByLayer
370
18
48
1
60
0
100
AcDbLine
10
12.554932
20
25.368641
30
0
11
12.663924
21
25.380096
31
0
39
0
210
0
220
0
230
1
0
LINE
5
AE
100
AcDbEntity
8
1
62
256
6
ByLayer
370
18
48
1
60
0
100
AcDbLine
10
18.467983
20
-7.271718
30
0
11
17.567369
21
-11.095083
31
0
39
0
210
0
220
0
230
1
0
LINE
5
AF
100
AcDbEntity
8
1
62
256
6
ByLayer
370
18
48
1
60
0
100
AcDbLine
10
6.51561
20
-9.621184
30
0
11
6.249451
21
-10.751108
31
0
39
0
210
0
220
0
230
1
0
LINE
5
B0
100
AcDbEntity
8
1
62
256
6
ByLayer
370
18
48
1
60
0
100
AcDbLine
10
16.975197
20
-11.66033
30
0
11
17.042896
21
-12.4497
31
0
39
0
210
0
220
0
230
1
0
LINE
5
B1
100
AcDbEntity
8
1
62
256
6
ByLayer
370
18
48
1
60
0
100
AcDbLine
10
17.796647
20
-11.420861
30
0
11
18.833148
21
-7.020616
31
0
39
0
210
0
220
0
230
1
0
LINE
5
B2
100
AcDbEntity
8
1
62
256
6
ByLayer
370
18
48
1
60
0
100
AcDbLine
10
17.271941
20
-14.846413
30
0
11
17.324207
21
-13.941949
31
0
39
0
210
0
220
0
230
1
0
LINE
5
B3
100
AcDbEntity
8
1
62
256
6
ByLayer
370
18
48
1
60
0
100
AcDbLine
10
17.923277
20
-12.942709
30
0
11
18.101483
21
-14.480918
31
0
39
0
210
0
220
0
230
1
0
LINE
5
B4
100
AcDbEntity
8
1
62
256
6
ByLayer
370
18
48
1
60
0
100
AcDbLine
10
6.486422
20
-10.000012
30
0
11
6.249451
21
-10.751108
31
0
39
0
210
0
220
0
230
1
0
LINE
5
B5
100
AcDbEntity
8
1
62
256
6
ByLayer
370
18
48
1
60
0
100
AcDbLine
10
6.392547
20
-12.539443
30
0
11
6.283359
21
-13.473615
31
0
39
0
210
0
220
0
230
1
0
LINE
5
B6
100
AcDbEntity
8
1
62
256
6
ByLayer
370
18
48
1
60
0
100
AcDbLine
10
17.898271
20
-12.605809
30
0
11
18.111405
21
-14.440586
31
0
39
0
210
0
220
0
230
1
0
LINE
5
B7
100
AcDbEntity
8
1
62
256
6
ByLayer
370
18
48
1
60
0
100
AcDbLine
10
7.219018
20
-9.472848
30
0
11
7.176802
21
-9.652069
31
0
39
0
210
0
220
0
230
1
0
LINE
5
B8
100
AcDbEntity
8
1
62
256
6
ByLayer
370
18
48
1
60
0
100
AcDbLine
10
16.951688
20
-14.816107
30
0
11
17.129109
21
-13.174225
31
0
39
0
210
0
220
0
230
1
0
LINE
5
B9
100
AcDbEntity
8
1
62
256
6
ByLayer
370
18
48
1
60
0
100
AcDbLine
10
17.973791
20
-13.694727
30
0
11
18.074691
21
-14.573039
31
0
39
0
210
0
220
0
230
1
0
LINE
5
BA
100
AcDbEntity
8
1
62
256
6
ByLayer
370
18
48
1
60
0
100
AcDbLine
10
19.205261
20
-9.795059
30
0
11
19.026432
21
-8.259496
31
0
39
0
210
0
220
0
230
1
0
LINE
5
BB
100
AcDbEntity
8
1
62
256
6
ByLayer
370
18
48
1
60
0
100
AcDbLine
10
19.209703
20
-9.773232
30
0
11
19.047672
21
-8.385467
31
0
39
0
210
0
220
0
230
1
0
LINE
5
BC
100
AcDbEntity
8
1
62
256
6
ByLayer
370
18
48
1
60
0
100
AcDbLine
10
17.796647
20
-11.420861
30
0
11
17.864345
21
-12.210231
31
0
39
0
210
0
220
0
230
1
0
LINE
5
BD
100
AcDbEntity
8
1
62
256
6
ByLayer
370
18
48
1
60
0
100
AcDbLine
10
5.555125
20
-12.927165
30
0
11
5.981521
21
-11.608202
31
0
39
0
210
0
220
0
230
1
0
LINE
5
BE
100
AcDbEntity
8
1
62
256
6
ByLayer
370
18
48
1
60
0
100
AcDbLine
10
19.196159
20
-9.835494
30
0
11
18.983024
21
-8.000717
31
0
39
0
210
0
220
0
230
1
0
LINE
5
BF
100
AcDbEntity
8
1
62
256
6
ByLayer
370
18
48
1
60
0
100
AcDbLine
10
6.174185
20
-13.452255
30
0
11
6.318734
21
-12.559384
31
0
39
0
210
0
220
0
230
1
0
LINE
5
C0
100
AcDbEntity
8
1
62
256
6
ByLayer
370
18
48
1
60
0
100
AcDbLine
10
17.268725
20
-10.919868
30
0
11
17.085493
21
-10.658183
31
0
39
0
210
0
220
0
230
1
0
LINE
5
C1
100
AcDbEntity
8
1
62
256
6
ByLayer
370
18
48
1
60
0
100
AcDbLine
10
7.151079
20
-10.426173
30
0
11
6.914108
21
-11.177269
31
0
39
0
210
0
220
0
230
1
0
LINE
5
C2
100
AcDbEntity
8
1
62
256
6
ByLayer
370
18
48
1
60
0
100
AcDbLine
10
17.864345
20
-12.210231
30
0
11
17.898271
21
-12.605809
31
0
39
0
210
0
220
0
230
1
0
LINE
5
C3
100
AcDbEntity
8
1
62
256
6
ByLayer
370
18
48
1
60
0
100
AcDbLine
10
6.249451
20
-10.751108
30
0
11
6.130697
21
-11.127506
31
0
39
0
210
0
220
0
230
1
0
LINE
5
C4
100
AcDbEntity
8
1
62
256
6
ByLayer
370
18
48
1
60
0
100
AcDbLine
10
6.486422
20
-10.000012
30
0
11
6.587416
21
-9.571263
31
0
39
0
210
0
220
0
230
1
0
LINE
5
C5
100
AcDbEntity
8
1
62
256
6
ByLayer
370
18
48
1
60
0
100
AcDbLine
10
17.159269
20
-14.839903
30
0
11
17.255549
21
-13.904109
31
0
39
0
210
0
220
0
230
1
0
LINE
5
C6
100
AcDbEntity
8
1
62
256
6
ByLayer
370
18
48
1
60
0
100
AcDbLine
10
7.872613
20
-10.098205
30
0
11
7.945508
21
-9.564123
31
0
39
0
210
0
220
0
230
1
0
LINE
5
C7
100
AcDbEntity
8
1
62
256
6
ByLayer
370
18
48
1
60
0
100
AcDbLine
10
16.861483
20
-14.804964
30
0
11
17.076821
21
-12.845278
31
0
39
0
210
0
220
0
230
1
0
LINE
5
C8
100
AcDbEntity
8
1
62
256
6
ByLayer
370
18
48
1
60
0
100
AcDbLine
10
6.610139
20
-12.011257
30
0
11
6.441427
21
-13.49544
31
0
39
0
210
0
220
0
230
1
0
LINE
5
C9
100
AcDbEntity
8
1
62
256
6
ByLayer
370
18
48
1
60
0
100
AcDbLine
10
17.042896
20
-12.4497
30
0
11
17.076821
21
-12.845278
31
0
39
0
210
0
220
0
230
1
0
LINE
5
CA
100
AcDbEntity
8
1
62
256
6
ByLayer
370
18
48
1
60
0
100
AcDbLine
10
17.349204
20
-10.578215
30
0
11
17.268725
21
-10.919868
31
0
39
0
210
0
220
0
230
1
0
LINE
5
CB
100
AcDbEntity
8
1
62
256
6
ByLayer
370
18
48
1
60
0
100
AcDbLine
10
19.196159
20
-9.835494
30
0
11
18.111405
21
-14.440586
31
0
39
0
210
0
220
0
230
1
0
LINE
5
CC
100
AcDbEntity
8
1
62
256
6
ByLayer
370
18
48
1
60
0
100
AcDbLine
10
6.919752
20
-9.45953
30
0
11
6.851587
21
-9.748911
31
0
39
0
210
0
220
0
230
1
0
LINE
5
CD
100
AcDbEntity
8
1
62
256
6
ByLayer
370
18
48
1
60
0
100
AcDbLine
10
17.864345
20
-12.210231
30
0
11
18.93299
21
-7.673524
31
0
39
0
210
0
220
0
230
1
0
LINE
5
CE
100
AcDbEntity
8
1
62
256
6
ByLayer
370
18
48
1
60
0
100
AcDbLine
10
16.408773
20
-11.170562
30
0
11
7.872613
21
-10.098205
31
0
39
0
210
0
220
0
230
1
0
LINE
5
CF
100
AcDbEntity
8
1
62
256
6
ByLayer
370
18
48
1
60
0
100
AcDbLine
10
17.000301
20
-14.8219
30
0
11
17.157913
21
-13.336322
31
0
39
0
210
0
220
0
230
1
0
LINE
5
D0
100
AcDbEntity
8
1
62
256
6
ByLayer
370
18
48
1
60
0
100
AcDbLine
10
7.176802
20
-9.652069
30
0
11
7.354077
21
-9.489812
31
0
39
0
210
0
220
0
230
1
0
LINE
5
D1
100
AcDbEntity
8
1
62
256
6
ByLayer
370
18
48
1
60
0
100
AcDbLine
10
5.568669
20
-12.864903
30
0
11
5.643297
21
-12.548087
31
0
39
0
210
0
220
0
230
1
0
LINE
5
D2
100
AcDbEntity
8
1
62
256
6
ByLayer
370
18
48
1
60
0
100
AcDbLine
10
18.833148
20
-7.020616
30
0
11
18.93299
21
-7.673524
31
0
39
0
210
0
220
0
230
1
0
LINE
5
D3
100
AcDbEntity
8
1
62
256
6
ByLayer
370
18
48
1
60
0
100
AcDbLine
10
16.861483
20
-14.804964
30
0
11
6.580015
21
-13.513353
31
0
39
0
210
0
220
0
230
1
0
LINE
5
D4
100
AcDbEntity
8
1
62
256
6
ByLayer
370
18
48
1
60
0
100
AcDbLine
10
5.542667
20
-12.998702
30
0
11
5.811398
21
-12.166825
31
0
39
0
210
0
220
0
230
1
0
LINE
5
D5
100
AcDbEntity
8
1
62
256
6
ByLayer
370
18
48
1
60
0
100
AcDbLine
10
5.547541
20
-13.050467
30
0
11
5.804848
21
-12.229894
31
0
39
0
210
0
220
0
230
1
0
LINE
5
D6
100
AcDbEntity
8
1
62
256
6
ByLayer
370
18
48
1
60
0
100
AcDbLine
10
18.93299
20
-7.673524
30
0
11
18.983024
21
-8.000717
31
0
39
0
210
0
220
0
230
1
0
LINE
5
D7
100
AcDbEntity
8
1
62
256
6
ByLayer
370
18
48
1
60
0
100
AcDbLine
10
17.934822
20
-13.109838
30
0
11
18.095681
21
-14.502575
31
0
39
0
210
0
220
0
230
1
0
LINE
5
D8
100
AcDbEntity
8
1
62
256
6
ByLayer
370
18
48
1
60
0
100
AcDbLine
10
19.222162
20
-9.701695
30
0
11
19.1199
21
-8.829165
31
0
39
0
210
0
220
0
230
1
0
LINE
5
D9
100
AcDbEntity
8
1
62
256
6
ByLayer
370
18
48
1
60
0
100
AcDbLine
10
6.914108
20
-11.177269
30
0
11
6.795354
21
-11.553667
31
0
39
0
210
0
220
0
230
1
0
LINE
5
DA
100
AcDbEntity
8
1
62
256
6
ByLayer
370
18
48
1
60
0
100
AcDbLine
10
16.362577
20
-11.446304
30
0
11
7.826417
21
-10.373947
31
0
39
0
210
0
220
0
230
1
0
LINE
5
DB
100
AcDbEntity
8
1
62
256
6
ByLayer
370
18
48
1
60
0
100
AcDbLine
10
5.568669
20
-12.864903
30
0
11
6.130697
21
-11.127506
31
0
39
0
210
0
220
0
230
1
0
LINE
5
DC
100
AcDbEntity
8
1
62
256
6
ByLayer
370
18
48
1
60
0
100
AcDbLine
10
6.673226
20
-11.860703
30
0
11
6.489897
21
-13.501842
31
0
39
0
210
0
220
0
230
1
0
LINE
5
DD
100
AcDbEntity
8
1
62
256
6
ByLayer
370
18
48
1
60
0
100
AcDbLine
10
16.408773
20
-11.170562
30
0
11
16.481669
21
-10.636479
31
0
39
0
210
0
220
0
230
1
0
LINE
5
DE
100
AcDbEntity
8
1
62
256
6
ByLayer
370
18
48
1
60
0
100
AcDbLine
10
6.795354
20
-11.553667
30
0
11
6.580015
21
-13.513353
31
0
39
0
210
0
220
0
230
1
0
LINE
5
DF
100
AcDbEntity
8
1
62
256
6
ByLayer
370
18
48
1
60
0
100
AcDbLine
10
6.914108
20
-11.177269
30
0
11
17.042896
21
-12.4497
31
0
39
0
210
0
220
0
230
1
0
LINE
5
E0
100
AcDbEntity
8
1
62
256
6
ByLayer
370
18
48
1
60
0
100
AcDbLine
10
5.559567
20
-12.905338
30
0
11
6.030644
21
-11.448695
31
0
39
0
210
0
220
0
230
1
0
LINE
5
E1
100
AcDbEntity
8
1
62
256
6
ByLayer
370
18
48
1
60
0
100
AcDbLine
10
18.046411
20
-14.620639
30
0
11
17.959319
21
-13.756801
31
0
39
0
210
0
220
0
230
1
0
LINE
5
E2
100
AcDbEntity
8
1
62
256
6
ByLayer
370
18
48
1
60
0
100
AcDbLine
10
7.151079
20
-10.426173
30
0
11
16.975197
21
-11.66033
31
0
39
0
210
0
220
0
230
1
0
LINE
5
E3
100
AcDbEntity
8
1
62
256
6
ByLayer
370
18
48
1
60
0
100
AcDbLine
10
17.059606
20
-9.774431
30
0
11
17.251198
21
-9.716337
31
0
39
0
210
0
220
0
230
1
0
LINE
5
E4
100
AcDbEntity
8
1
62
256
6
ByLayer
370
18
48
1
60
0
100
AcDbLine
10
-7.998238
20
-7.840652
30
0
11
-4.448418
21
-8.007129
31
0
39
0
210
0
220
0
230
1
0
LINE
5
E5
100
AcDbEntity
8
1
62
256
6
ByLayer
370
18
48
1
60
0
100
AcDbLine
10
11.501762
20
13.689224
30
0
11
-1.716725
21
13.689224
31
0
39
0
210
0
220
0
230
1
0
LINE
5
E6
100
AcDbEntity
8
1
62
256
6
ByLayer
370
18
48
1
60
0
100
AcDbLine
10
15.318181
20
-1.25716
30
0
11
15.318181
21
0.773637
31
0
39
0
210
0
220
0
230
1
0
LINE
5
E7
100
AcDbEntity
8
1
62
256
6
ByLayer
370
18
48
1
60
0
100
AcDbLine
10
17.864923
20
-1.246182
30
0
11
16.818128
21
-3.711208
31
0
39
0
210
0
220
0
230
1
0
LINE
5
E8
100
AcDbEntity
8
1
62
256
6
ByLayer
370
18
48
1
60
0
100
AcDbLine
10
18.411539
20
-6.505628
30
0
11
18.315579
21
-6.497409
31
0
39
0
210
0
220
0
230
1
0
LINE
5
E9
100
AcDbEntity
8
SK1
62
256
6
ByLayer
370
18
48
1
60
0
100
AcDbLine
10
-2.321646
20
3.49147
30
0
11
-7.998238
21
3.49147
31
0
39
0
210
0
220
0
230
1
0
LINE
5
EA
100
AcDbEntity
8
1
62
256
6
ByLayer
370
18
48
1
60
0
100
AcDbLine
10
11.405417
20
0.397097
30
0
11
11.738163
21
3.803941
31
0
39
0
210
0
220
0
230
1
0
LINE
5
EB
100
AcDbEntity
8
1
62
256
6
ByLayer
370
18
48
1
60
0
100
AcDbLine
10
7.126436
20
-9.461222
30
0
11
16.95925
21
-10.696471
31
0
39
0
210
0
220
0
230
1
0
LINE
5
EC
100
AcDbEntity
8
SK1
62
256
6
ByLayer
370
18
48
1
60
0
100
AcDbLine
10
-2.092498
20
-6.475579
30
0
11
-2.092498
21
3.31694
31
0
39
0
210
0
220
0
230
1
0
LINE
5
ED
100
AcDbEntity
8
1
62
256
6
ByLayer
370
18
48
1
60
0
100
AcDbLine
10
11.978642
20
4.778235
30
0
11
12.057812
21
10.499449
31
0
39
0
210
0
220
0
230
1
0
LINE
5
EE
100
AcDbEntity
8
1
62
256
6
ByLayer
370
18
48
1
60
0
100
AcDbLine
10
18.601762
20
-4.62876
30
0
11
18.601762
21
-3.641716
31
0
39
0
210
0
220
0
230
1
0
LINE
5
EF
100
AcDbEntity
8
1
62
256
6
ByLayer
370
18
48
1
60
0
100
AcDbLine
10
11.120297
20
-0.813321
30
0
11
15.318181
21
-1.25716
31
0
39
0
210
0
220
0
230
1
0
LINE
5
F0
100
AcDbEntity
8
1
62
256
6
ByLayer
370
18
48
1
60
0
100
AcDbLine
10
18.398343
20
-6.640744
30
0
11
18.411539
21
-6.505628
31
0
39
0
210
0
220
0
230
1
0
LINE
5
F1
100
AcDbEntity
8
1
62
256
6
ByLayer
370
18
48
1
60
0
100
AcDbLine
10
18.601762
20
-3.641717
30
0
11
18.601762
21
-3.585137
31
0
39
0
210
0
220
0
230
1
0
LINE
5
F2
100
AcDbEntity
8
1
62
256
6
ByLayer
370
18
48
1
60
0
100
AcDbLine
10
18.39694
20
-6.152016
30
0
11
18.559782
21
-5.460703
31
0
39
0
210
0
220
0
230
1
0
LINE
5
F3
100
AcDbEntity
8
1
62
256
6
ByLayer
370
18
48
1
60
0
100
AcDbLine
10
16.818128
20
-3.711208
30
0
11
17.251198
21
-9.716337
31
0
39
0
210
0
220
0
230
1
0
LINE
5
F4
100
AcDbEntity
8
1
62
256
6
ByLayer
370
18
48
1
60
0
100
AcDbLine
10
11.501762
20
11.521944
30
0
11
11.501762
21
13.689224
31
0
39
0
210
0
220
0
230
1
0
LINE
5
F5
100
AcDbEntity
8
1
62
256
6
ByLayer
370
18
48
1
60
0
100
AcDbLine
10
16.95925
20
-10.696471
30
0
11
17.354716
21
-10.576559
31
0
39
0
210
0
220
0
230
1
0
LINE
5
F6
100
AcDbEntity
8
1
62
256
6
ByLayer
370
18
48
1
60
0
100
AcDbLine
10
17.354716
20
-10.576559
30
0
11
18.39694
21
-6.152016
31
0
39
0
210
0
220
0
230
1
0
LINE
5
F7
100
AcDbEntity
8
1
62
256
6
ByLayer
370
18
48
1
60
0
100
AcDbLine
10
17.251198
20
-9.716337
30
0
11
17.354716
21
-10.576559
31
0
39
0
210
0
220
0
230
1
0
LINE
5
F8
100
AcDbEntity
8
1
62
256
6
ByLayer
370
18
48
1
60
0
100
AcDbLine
10
-7.998238
20
-14.978648
30
0
11
-7.998238
21
-7.840652
31
0
39
0
210
0
220
0
230
1
0
LINE
5
F9
100
AcDbEntity
8
1
62
256
6
ByLayer
370
18
48
1
60
0
100
AcDbLine
10
15.318181
20
0.773637
30
0
11
13.683232
21
3.018808
31
0
39
0
210
0
220
0
230
1
0
LINE
5
FA
100
AcDbEntity
8
1
62
256
6
ByLayer
370
18
48
1
60
0
100
AcDbLine
10
-1.03838
20
-1.012954
30
0
11
16.012356
21
-4.533635
31
0
39
0
210
0
220
0
230
1
0
LINE
5
FB
100
AcDbEntity
8
1
62
256
6
ByLayer
370
18
48
1
60
0
100
AcDbLine
10
-2.092498
20
-8.248743
30
0
11
-2.321646
21
-8.092148
31
0
39
0
210
0
220
0
230
1
0
LINE
5
FC
100
AcDbEntity
8
1
62
256
6
ByLayer
370
18
48
1
60
0
100
AcDbLine
10
16.012356
20
-4.533635
30
0
11
16.424724
21
-3.248653
31
0
39
0
210
0
220
0
230
1
0
LINE
5
FD
100
AcDbEntity
8
1
62
256
6
ByLayer
370
18
48
1
60
0
100
AcDbLine
10
12.592853
20
9.414858
30
0
11
12.582158
21
8.641937
31
0
39
0
210
0
220
0
230
1
0
LINE
5
FE
100
AcDbEntity
8
1
62
256
6
ByLayer
370
18
48
1
60
0
100
AcDbLine
10
6.2645
20
-10.071623
30
0
11
6.177821
21
-10.959087
31
0
39
0
210
0
220
0
230
1
0
LINE
5
FF
100
AcDbEntity
8
1
62
256
6
ByLayer
370
18
48
1
60
0
100
AcDbLine
10
15.318181
20
0.773637
30
0
11
13.486422
21
1.003752
31
0
39
0
210
0
220
0
230
1
0
LINE
5
100
100
AcDbEntity
8
1
62
256
6
ByLayer
370
18
48
1
60
0
100
AcDbLine
10
6.476407
20
-9.654503
30
0
11
6.177821
21
-10.959087
31
0
39
0
210
0
220
0
230
1
0
LINE
5
101
100
AcDbEntity
8
1
62
256
6
ByLayer
370
18
48
1
60
0
100
AcDbLine
10
-1.983842
20
-8.316741
30
0
11
-4.448418
21
-8.007129
31
0
39
0
210
0
220
0
230
1
0
LINE
5
102
100
AcDbEntity
8
SK1
62
256
6
ByLayer
370
18
48
1
60
0
100
AcDbLine
10
-2.321646
20
-6.47026
30
0
11
-2.321646
21
3.49147
31
0
39
0
210
0
220
0
230
1
0
LINE
5
103
100
AcDbEntity
8
1
62
256
6
ByLayer
370
18
48
1
60
0
100
AcDbLine
10
16.012356
20
-4.533635
30
0
11
17.059606
21
-9.774431
31
0
39
0
210
0
220
0
230
1
0
LINE
5
104
100
AcDbEntity
8
1
62
256
6
ByLayer
370
18
48
1
60
0
100
AcDbLine
10
11.738163
20
3.803941
30
0
11
11.120297
21
-0.813321
31
0
39
0
210
0
220
0
230
1
0
LINE
5
105
100
AcDbEntity
8
1
62
256
6
ByLayer
370
18
48
1
60
0
100
AcDbLine
10
-4.448418
20
-8.007129
30
0
11
-2.321646
21
-8.092148
31
0
39
0
210
0
220
0
230
1
0
LINE
5
106
100
AcDbEntity
8
1
62
256
6
ByLayer
370
18
48
1
60
0
100
AcDbLine
10
17.059606
20
-9.774431
30
0
11
16.95925
21
-10.696471
31
0
39
0
210
0
220
0
230
1
0
LINE
5
107
100
AcDbEntity
8
1
62
256
6
ByLayer
370
18
48
1
60
0
100
AcDbLine
10
-1.716725
20
4.753762
30
0
11
-1.716725
21
13.689224
31
0
39
0
210
0
220
0
230
1
0
LINE
5
108
100
AcDbEntity
8
1
62
256
6
ByLayer
370
18
48
1
60
0
100
AcDbLine
10
16.424724
20
-3.248653
30
0
11
15.318181
21
-1.25716
31
0
39
0
210
0
220
0
230
1
0
LINE
5
109
100
AcDbEntity
8
1
62
256
6
ByLayer
370
18
48
1
60
0
100
AcDbLine
10
1.501762
20
-15.424172
30
0
11
-7.998238
21
-14.978648
31
0
39
0
210
0
220
0
230
1
0
LINE
5
10A
100
AcDbEntity
8
1
62
256
6
ByLayer
370
18
48
1
60
0
100
AcDbLine
10
7.126436
20
-9.461222
30
0
11
-0.788098
21
-8.466957
31
0
39
0
210
0
220
0
230
1
0
LINE
5
10B
100
AcDbEntity
8
1
62
256
6
ByLayer
370
18
48
1
60
0
100
AcDbLine
10
4.873019
20
-12.863398
30
0
11
5.365195
21
-12.925228
31
0
39
0
210
0
220
0
230
1
0
LINE
5
10C
100
AcDbEntity
8
1
62
256
6
ByLayer
370
18
48
1
60
0
100
AcDbLine
10
18.559782
20
-5.460703
30
0
11
18.443197
21
-6.654372
31
0
39
0
210
0
220
0
230
1
0
LINE
5
10D
100
AcDbEntity
8
1
62
256
6
ByLayer
370
18
48
1
60
0
100
AcDbLine
10
18.559782
20
-5.460703
30
0
11
18.601762
21
-4.62876
31
0
39
0
210
0
220
0
230
1
0
LINE
5
10E
100
AcDbEntity
8
1
62
256
6
ByLayer
370
18
48
1
60
0
100
AcDbLine
10
6.030438
20
-11.435865
30
0
11
6.177821
21
-10.959087
31
0
39
0
210
0
220
0
230
1
0
LINE
5
10F
100
AcDbEntity
8
1
62
256
6
ByLayer
370
18
48
1
60
0
100
AcDbLine
10
13.683232
20
3.018808
30
0
11
13.486422
21
1.003752
31
0
39
0
210
0
220
0
230
1
0
LINE
5
110
100
AcDbEntity
8
1
62
256
6
ByLayer
370
18
48
1
60
0
100
AcDbLine
10
16.818128
20
-3.711208
30
0
11
16.424724
21
-3.248653
31
0
39
0
210
0
220
0
230
1
0
LINE
5
111
100
AcDbEntity
8
1
62
256
6
ByLayer
370
18
48
1
60
0
100
AcDbLine
10
11.953712
20
4.753762
30
0
11
-1.716725
21
4.753762
31
0
39
0
210
0
220
0
230
1
0
LINE
5
112
100
AcDbEntity
8
1
62
256
6
ByLayer
370
18
48
1
60
0
100
AcDbLine
10
6.300566
20
-9.914042
30
0
11
6.2645
21
-10.071623
31
0
39
0
210
0
220
0
230
1
0
LINE
5
113
100
AcDbEntity
8
1
62
256
6
ByLayer
370
18
48
1
60
0
100
AcDbLine
10
-0.324939
20
-5.932334
30
0
11
-0.142792
21
-6.139769
31
0
39
0
210
0
220
0
230
1
0
LINE
5
114
100
AcDbEntity
8
SK1
62
256
6
ByLayer
370
18
48
1
60
0
100
AcDbLine
10
-2.321646
20
3.49147
30
0
11
-2.092498
21
3.31694
31
0
39
0
210
0
220
0
230
1
0
LINE
5
115
100
AcDbEntity
8
SK1
62
256
6
ByLayer
370
18
48
1
60
0
100
AcDbLine
10
-7.998238
20
-6.337552
30
0
11
-7.998238
21
3.49147
31
0
39
0
210
0
220
0
230
1
0
LINE
5
116
100
AcDbEntity
8
1
62
256
6
ByLayer
370
18
48
1
60
0
100
AcDbLine
10
11.120297
20
-0.813321
30
0
11
11.405417
21
0.397097
31
0
39
0
210
0
220
0
230
1
0
LINE
5
117
100
AcDbEntity
8
1
62
256
6
ByLayer
370
18
48
1
60
0
100
AcDbLine
10
-0.324939
20
-5.932334
30
0
11
-1.03838
21
-1.012954
31
0
39
0
210
0
220
0
230
1
0
LINE
5
118
100
AcDbEntity
8
1
62
256
6
ByLayer
370
18
48
1
60
0
100
AcDbLine
10
-1.716725
20
4.753762
30
0
11
-1.03838
21
-1.012954
31
0
39
0
210
0
220
0
230
1
0
LINE
5
119
100
AcDbEntity
8
1
62
256
6
ByLayer
370
18
48
1
60
0
100
AcDbLine
10
-3.32987
20
24.474812
30
0
11
-3.448185
21
24.459236
31
0
39
0
210
0
220
0
230
1
0
LINE
5
11A
100
AcDbEntity
8
1
62
256
6
ByLayer
370
18
48
1
60
0
100
AcDbLine
10
-3.602515
20
24.308391
30
0
11
-3.448185
21
24.288073
31
0
39
0
210
0
220
0
230
1
0
LINE
5
11B
100
AcDbEntity
8
1
62
256
6
ByLayer
370
18
48
1
60
0
100
AcDbLine
10
-3.448185
20
24.288073
30
0
11
-3.32987
21
24.272497
31
0
39
0
210
0
220
0
230
1
0
LINE
5
11C
100
AcDbEntity
8
1
62
256
6
ByLayer
370
18
48
1
60
0
100
AcDbLine
10
-3.448185
20
24.459236
30
0
11
-3.602515
21
24.438918
31
0
39
0
210
0
220
0
230
1
0
LINE
5
11D
100
AcDbEntity
8
1
62
256
6
ByLayer
370
18
48
1
60
0
100
AcDbLine
10
16.861483
20
30.972933
30
0
11
6.580015
21
29.892307
31
0
39
0
210
0
220
0
230
1
0
LINE
5
11E
100
AcDbEntity
8
1
62
256
6
ByLayer
370
18
48
1
60
0
100
AcDbLine
10
8.958129
20
23.221055
30
0
11
9.229903
21
20.635298
31
0
39
0
210
0
220
0
230
1
0
LINE
5
11F
100
AcDbEntity
8
1
62
256
6
ByLayer
370
18
48
1
60
0
100
AcDbLine
10
15.737357
20
25.046249
30
0
11
15.616036
21
25.033498
31
0
39
0
210
0
220
0
230
1
0
LINE
5
120
100
AcDbEntity
8
1
62
256
6
ByLayer
370
18
48
1
60
0
100
AcDbLine
10
15.108097
20
27.922623
30
0
11
12.532179
21
27.651883
31
0
39
0
210
0
220
0
230
1
0
LINE
5
121
100
AcDbEntity
8
1
62
256
6
ByLayer
370
18
48
1
60
0
100
AcDbLine
10
5.542667
20
28.937439
30
0
11
5.681134
21
28.947084
31
0
39
0
210
0
220
0
230
1
0
LINE
5
122
100
AcDbEntity
8
1
62
256
6
ByLayer
370
18
48
1
60
0
100
AcDbLine
10
5.559567
20
28.729069
30
0
11
5.697736
21
28.742311
31
0
39
0
210
0
220
0
230
1
0
LINE
5
123
100
AcDbEntity
8
1
62
256
6
ByLayer
370
18
48
1
60
0
100
AcDbLine
10
6.594106
20
29.753151
30
0
11
7.264348
21
29.823596
31
0
39
0
210
0
220
0
230
1
0
LINE
5
124
100
AcDbEntity
8
1
62
256
6
ByLayer
370
18
48
1
60
0
100
AcDbLine
10
6.669147
20
18.17866
30
0
11
6.806888
21
18.195795
31
0
39
0
210
0
220
0
230
1
0
LINE
5
125
100
AcDbEntity
8
1
62
256
6
ByLayer
370
18
48
1
60
0
100
AcDbLine
10
7.81314
20
17.292595
30
0
11
7.799253
21
17.431767
31
0
39
0
210
0
220
0
230
1
0
LINE
5
126
100
AcDbEntity
8
1
62
256
6
ByLayer
370
18
48
1
60
0
100
AcDbLine
10
5.568669
20
28.638519
30
0
11
6.653423
21
18.317778
31
0
39
0
210
0
220
0
230
1
0
LINE
5
127
100
AcDbEntity
8
1
62
256
6
ByLayer
370
18
48
1
60
0
100
AcDbLine
10
6.791465
20
18.332287
30
0
11
6.720751
21
19.00509
31
0
39
0
210
0
220
0
230
1
0
LINE
5
128
100
AcDbEntity
8
1
62
256
6
ByLayer
370
18
48
1
60
0
100
AcDbLine
10
7.903346
20
17.30166
30
0
11
7.888196
21
17.440705
31
0
39
0
210
0
220
0
230
1
0
LINE
5
129
100
AcDbEntity
8
1
62
256
6
ByLayer
370
18
48
1
60
0
100
AcDbLine
10
6.283359
20
29.855692
30
0
11
6.302277
21
29.717128
31
0
39
0
210
0
220
0
230
1
0
LINE
5
12A
100
AcDbEntity
8
1
62
256
6
ByLayer
370
18
48
1
60
0
100
AcDbLine
10
15.737357
20
25.046249
30
0
11
15.465583
21
27.632006
31
0
39
0
210
0
220
0
230
1
0
LINE
5
12B
100
AcDbEntity
8
1
62
256
6
ByLayer
370
18
48
1
60
0
100
AcDbLine
10
7.605559
20
17.275797
30
0
11
7.595255
21
17.415265
31
0
39
0
210
0
220
0
230
1
0
LINE
5
12C
100
AcDbEntity
8
1
62
256
6
ByLayer
370
18
48
1
60
0
100
AcDbLine
10
6.580015
20
29.892307
30
0
11
6.594106
21
29.753151
31
0
39
0
210
0
220
0
230
1
0
LINE
5
12D
100
AcDbEntity
8
1
62
256
6
ByLayer
370
18
48
1
60
0
100
AcDbLine
10
7.492888
20
17.280779
30
0
11
7.514101
21
17.418854
31
0
39
0
210
0
220
0
230
1
0
LINE
5
12E
100
AcDbEntity
8
1
62
256
6
ByLayer
370
18
48
1
60
0
100
AcDbLine
10
6.663346
20
18.227315
30
0
11
6.801249
21
18.243089
31
0
39
0
210
0
220
0
230
1
0
LINE
5
12F
100
AcDbEntity
8
1
62
256
6
ByLayer
370
18
48
1
60
0
100
AcDbLine
10
9.087251
20
23.234626
30
0
11
8.958129
21
23.221055
31
0
39
0
210
0
220
0
230
1
0
LINE
5
130
100
AcDbEntity
8
1
62
256
6
ByLayer
370
18
48
1
60
0
100
AcDbLine
10
18.169664
20
18.52133
30
0
11
17.499421
21
18.450885
31
0
39
0
210
0
220
0
230
1
0
LINE
5
131
100
AcDbEntity
8
1
62
256
6
ByLayer
370
18
48
1
60
0
100
AcDbLine
10
18.101483
20
30.047277
30
0
11
17.962521
21
30.031392
31
0
39
0
210
0
220
0
230
1
0
LINE
5
132
100
AcDbEntity
8
1
62
256
6
ByLayer
370
18
48
1
60
0
100
AcDbLine
10
6.489897
20
29.882419
30
0
11
6.505248
21
29.743401
31
0
39
0
210
0
220
0
230
1
0
LINE
5
133
100
AcDbEntity
8
1
62
256
6
ByLayer
370
18
48
1
60
0
100
AcDbLine
10
18.111405
20
29.956814
30
0
11
17.972305
21
29.942194
31
0
39
0
210
0
220
0
230
1
0
LINE
5
134
100
AcDbEntity
8
1
62
256
6
ByLayer
370
18
48
1
60
0
100
AcDbLine
10
18.323401
20
18.397958
30
0
11
18.305636
21
18.536703
31
0
39
0
210
0
220
0
230
1
0
LINE
5
135
100
AcDbEntity
8
1
62
256
6
ByLayer
370
18
48
1
60
0
100
AcDbLine
10
8.971583
20
24.335138
30
0
11
8.842461
21
24.321566
31
0
39
0
210
0
220
0
230
1
0
LINE
5
136
100
AcDbEntity
8
1
62
256
6
ByLayer
370
18
48
1
60
0
100
AcDbLine
10
15.826236
20
21.127499
30
0
11
13.250319
21
20.856759
31
0
39
0
210
0
220
0
230
1
0
LINE
5
137
100
AcDbEntity
8
1
62
256
6
ByLayer
370
18
48
1
60
0
100
AcDbLine
10
6.174185
20
29.827392
30
0
11
6.223643
21
29.696745
31
0
39
0
210
0
220
0
230
1
0
LINE
5
138
100
AcDbEntity
8
1
62
256
6
ByLayer
370
18
48
1
60
0
100
AcDbLine
10
7.764527
20
17.288176
30
0
11
7.752
21
17.427471
31
0
39
0
210
0
220
0
230
1
0
LINE
5
139
100
AcDbEntity
8
1
62
256
6
ByLayer
370
18
48
1
60
0
100
AcDbLine
10
17.000301
20
30.986417
30
0
11
17.01177
21
30.84701
31
0
39
0
210
0
220
0
230
1
0
LINE
5
13A
100
AcDbEntity
8
1
62
256
6
ByLayer
370
18
48
1
60
0
100
AcDbLine
10
16.861483
20
30.972933
30
0
11
16.875573
21
30.833777
31
0
39
0
210
0
220
0
230
1
0
LINE
5
13B
100
AcDbEntity
8
1
62
256
6
ByLayer
370
18
48
1
60
0
100
AcDbLine
10
5.777426
20
27.980226
30
0
11
5.706711
21
28.653028
31
0
39
0
210
0
220
0
230
1
0
LINE
5
13C
100
AcDbEntity
8
1
62
256
6
ByLayer
370
18
48
1
60
0
100
AcDbLine
10
6.690137
20
18.019985
30
0
11
6.827584
21
18.039339
31
0
39
0
210
0
220
0
230
1
0
LINE
5
13D
100
AcDbEntity
8
1
62
256
6
ByLayer
370
18
48
1
60
0
100
AcDbLine
10
12.153996
20
20.741531
30
0
11
9.578078
21
20.470791
31
0
39
0
210
0
220
0
230
1
0
LINE
5
13E
100
AcDbEntity
8
1
62
256
6
ByLayer
370
18
48
1
60
0
100
AcDbLine
10
19.217287
20
19.224065
30
0
11
19.079125
21
19.245943
31
0
39
0
210
0
220
0
230
1
0
LINE
5
13F
100
AcDbEntity
8
1
62
256
6
ByLayer
370
18
48
1
60
0
100
AcDbLine
10
9.359025
20
20.648869
30
0
11
9.087251
21
23.234626
31
0
39
0
210
0
220
0
230
1
0
LINE
5
140
100
AcDbEntity
8
1
62
256
6
ByLayer
370
18
48
1
60
0
100
AcDbLine
10
19.196159
20
19.636073
30
0
11
18.111405
21
29.956814
31
0
39
0
210
0
220
0
230
1
0
LINE
5
141
100
AcDbEntity
8
1
62
256
6
ByLayer
370
18
48
1
60
0
100
AcDbLine
10
18.590643
20
18.4472
30
0
11
18.540127
21
18.577736
31
0
39
0
210
0
220
0
230
1
0
LINE
5
142
100
AcDbEntity
8
1
62
256
6
ByLayer
370
18
48
1
60
0
100
AcDbLine
10
18.481469
20
18.418901
30
0
11
18.461493
21
18.557353
31
0
39
0
210
0
220
0
230
1
0
LINE
5
143
100
AcDbEntity
8
1
62
256
6
ByLayer
370
18
48
1
60
0
100
AcDbLine
10
5.547541
20
29.050528
30
0
11
5.684645
21
29.028538
31
0
39
0
210
0
220
0
230
1
0
LINE
5
144
100
AcDbEntity
8
1
62
256
6
ByLayer
370
18
48
1
60
0
100
AcDbLine
10
17.972305
20
29.942194
30
0
11
18.043019
21
29.269391
31
0
39
0
210
0
220
0
230
1
0
LINE
5
145
100
AcDbEntity
8
1
62
256
6
ByLayer
370
18
48
1
60
0
100
AcDbLine
10
19.209703
20
19.496726
30
0
11
19.070351
21
19.484737
31
0
39
0
210
0
220
0
230
1
0
LINE
5
146
100
AcDbEntity
8
1
62
256
6
ByLayer
370
18
48
1
60
0
100
AcDbLine
10
15.128022
20
27.596527
30
0
11
15.465583
21
27.632006
31
0
39
0
210
0
220
0
230
1
0
LINE
5
147
100
AcDbEntity
8
1
62
256
6
ByLayer
370
18
48
1
60
0
100
AcDbLine
10
8.570687
20
26.907323
30
0
11
8.842461
21
24.321566
31
0
39
0
210
0
220
0
230
1
0
LINE
5
148
100
AcDbEntity
8
1
62
256
6
ByLayer
370
18
48
1
60
0
100
AcDbLine
10
16.205331
20
30.763331
30
0
11
16.875573
21
30.833777
31
0
39
0
210
0
220
0
230
1
0
LINE
5
149
100
AcDbEntity
8
1
62
256
6
ByLayer
370
18
48
1
60
0
100
AcDbLine
10
9.587389
20
20.344681
30
0
11
12.163307
21
20.615421
31
0
39
0
210
0
220
0
230
1
0
LINE
5
14A
100
AcDbEntity
8
1
62
256
6
ByLayer
370
18
48
1
60
0
100
AcDbLine
10
17.271941
20
30.993813
30
0
11
17.249668
21
30.855627
31
0
39
0
210
0
220
0
230
1
0
LINE
5
14B
100
AcDbEntity
8
1
62
256
6
ByLayer
370
18
48
1
60
0
100
AcDbLine
10
15.616036
20
25.033498
30
0
11
15.344262
21
27.619255
31
0
39
0
210
0
220
0
230
1
0
LINE
5
14C
100
AcDbEntity
8
1
62
256
6
ByLayer
370
18
48
1
60
0
100
AcDbLine
10
16.003478
20
21.34723
30
0
11
16.124799
21
21.359981
31
0
39
0
210
0
220
0
230
1
0
LINE
5
14D
100
AcDbEntity
8
1
62
256
6
ByLayer
370
18
48
1
60
0
100
AcDbLine
10
6.718418
20
17.910381
30
0
11
6.847954
21
17.960395
31
0
39
0
210
0
220
0
230
1
0
LINE
5
14E
100
AcDbEntity
8
1
62
256
6
ByLayer
370
18
48
1
60
0
100
AcDbLine
10
18.046411
20
30.364212
30
0
11
17.915816
21
30.314086
31
0
39
0
210
0
220
0
230
1
0
LINE
5
14F
100
AcDbEntity
8
1
62
256
6
ByLayer
370
18
48
1
60
0
100
AcDbLine
10
11.435856
20
27.536655
30
0
11
8.859938
21
27.265915
31
0
39
0
210
0
220
0
230
1
0
LINE
5
150
100
AcDbEntity
8
1
62
256
6
ByLayer
370
18
48
1
60
0
100
AcDbLine
10
6.441427
20
29.876635
30
0
11
6.458134
21
29.737779
31
0
39
0
210
0
220
0
230
1
0
LINE
5
151
100
AcDbEntity
8
1
62
256
6
ByLayer
370
18
48
1
60
0
100
AcDbLine
10
8.699809
20
26.920895
30
0
11
8.570687
21
26.907323
31
0
39
0
210
0
220
0
230
1
0
LINE
5
152
100
AcDbEntity
8
1
62
256
6
ByLayer
370
18
48
1
60
0
100
AcDbLine
10
11.452968
20
27.411365
30
0
11
8.87705
21
27.140625
31
0
39
0
210
0
220
0
230
1
0
LINE
5
153
100
AcDbEntity
8
1
62
256
6
ByLayer
370
18
48
1
60
0
100
AcDbLine
10
9.359025
20
20.648869
30
0
11
9.229903
21
20.635298
31
0
39
0
210
0
220
0
230
1
0
LINE
5
154
100
AcDbEntity
8
1
62
256
6
ByLayer
370
18
48
1
60
0
100
AcDbLine
10
18.074691
20
30.254608
30
0
11
17.936185
21
30.235142
31
0
39
0
210
0
220
0
230
1
0
LINE
5
155
100
AcDbEntity
8
1
62
256
6
ByLayer
370
18
48
1
60
0
100
AcDbLine
10
15.853025
20
23.945738
30
0
11
15.731704
21
23.932987
31
0
39
0
210
0
220
0
230
1
0
LINE
5
156
100
AcDbEntity
8
1
62
256
6
ByLayer
370
18
48
1
60
0
100
AcDbLine
10
8.558439
20
17.51115
30
0
11
7.888196
21
17.440705
31
0
39
0
210
0
220
0
230
1
0
LINE
5
157
100
AcDbEntity
8
1
62
256
6
ByLayer
370
18
48
1
60
0
100
AcDbLine
10
18.274932
20
18.392174
30
0
11
18.258522
21
18.53108
31
0
39
0
210
0
220
0
230
1
0
LINE
5
158
100
AcDbEntity
8
1
62
256
6
ByLayer
370
18
48
1
60
0
100
AcDbLine
10
17.159269
20
30.998796
30
0
11
17.168515
21
30.859216
31
0
39
0
210
0
220
0
230
1
0
LINE
5
159
100
AcDbEntity
8
1
62
256
6
ByLayer
370
18
48
1
60
0
100
AcDbLine
10
16.951688
20
30.981997
30
0
11
16.964517
21
30.842714
31
0
39
0
210
0
220
0
230
1
0
LINE
5
15A
100
AcDbEntity
8
1
62
256
6
ByLayer
370
18
48
1
60
0
100
AcDbLine
10
19.196159
20
19.636073
30
0
11
19.057058
21
19.621453
31
0
39
0
210
0
220
0
230
1
0
LINE
5
15B
100
AcDbEntity
8
1
62
256
6
ByLayer
370
18
48
1
60
0
100
AcDbLine
10
18.095681
20
30.095933
30
0
11
17.956882
21
30.078686
31
0
39
0
210
0
220
0
230
1
0
LINE
5
15C
100
AcDbEntity
8
1
62
256
6
ByLayer
370
18
48
1
60
0
100
AcDbLine
10
19.222162
20
19.337154
30
0
11
19.082635
21
19.327397
31
0
39
0
210
0
220
0
230
1
0
LINE
5
15D
100
AcDbEntity
8
1
62
256
6
ByLayer
370
18
48
1
60
0
100
AcDbLine
10
6.653423
20
18.317778
30
0
11
6.791465
21
18.332287
31
0
39
0
210
0
220
0
230
1
0
LINE
5
15E
100
AcDbEntity
8
1
62
256
6
ByLayer
370
18
48
1
60
0
100
AcDbLine
10
5.555125
20
28.777867
30
0
11
5.693419
21
28.789744
31
0
39
0
210
0
220
0
230
1
0
LINE
5
15F
100
AcDbEntity
8
1
62
256
6
ByLayer
370
18
48
1
60
0
100
AcDbLine
10
18.184813
20
18.382286
30
0
11
18.169664
21
18.52133
31
0
39
0
210
0
220
0
230
1
0
LINE
5
160
100
AcDbEntity
8
1
62
256
6
ByLayer
370
18
48
1
60
0
100
AcDbLine
10
15.125209
20
27.797333
30
0
11
12.549291
21
27.526593
31
0
39
0
210
0
220
0
230
1
0
LINE
5
161
100
AcDbEntity
8
1
62
256
6
ByLayer
370
18
48
1
60
0
100
AcDbLine
10
18.986344
20
20.294256
30
0
11
19.057058
21
19.621453
31
0
39
0
210
0
220
0
230
1
0
LINE
5
162
100
AcDbEntity
8
1
62
256
6
ByLayer
370
18
48
1
60
0
100
AcDbLine
10
7.903346
20
17.30166
30
0
11
18.184813
21
18.382286
31
0
39
0
210
0
220
0
230
1
0
LINE
5
163
100
AcDbEntity
8
1
62
256
6
ByLayer
370
18
48
1
60
0
100
AcDbLine
10
13.25963
20
20.730649
30
0
11
15.835547
21
21.001389
31
0
39
0
210
0
220
0
230
1
0
LINE
5
164
100
AcDbEntity
8
1
62
256
6
ByLayer
370
18
48
1
60
0
100
AcDbLine
10
15.731704
20
23.932987
30
0
11
16.003478
21
21.34723
31
0
39
0
210
0
220
0
230
1
0
LINE
5
165
100
AcDbEntity
8
1
62
256
6
ByLayer
370
18
48
1
60
0
100
AcDbLine
10
19.205261
20
19.545524
30
0
11
19.066033
21
19.53217
31
0
39
0
210
0
220
0
230
1
0
LINE
5
166
100
AcDbEntity
8
1
62
256
6
ByLayer
370
18
48
1
60
0
100
AcDbLine
10
5.568669
20
28.638519
30
0
11
5.706711
21
28.653028
31
0
39
0
210
0
220
0
230
1
0
LINE
5
167
100
AcDbEntity
8
1
62
256
6
ByLayer
370
18
48
1
60
0
100
AcDbLine
10
16.124799
20
21.359981
30
0
11
15.853025
21
23.945738
31
0
39
0
210
0
220
0
230
1
0
LINE
5
168
100
AcDbEntity
8
1
62
256
6
ByLayer
370
18
48
1
60
0
100
AcDbLine
10
8.699809
20
26.920895
30
0
11
8.971583
21
24.335138
31
0
39
0
210
0
220
0
230
1
0
LINE
5
169
100
AcDbEntity
8
1
62
256
6
ByLayer
370
18
48
1
60
0
100
AcDbLine
10
-5.912052
20
-10.739127
30
0
11
-5.912052
21
-10.258212
31
0
39
0
210
0
220
0
230
1
0
LINE
5
16A
100
AcDbEntity
8
1
62
256
6
ByLayer
370
18
48
1
60
0
100
AcDbLine
10
-5.912052
20
-10.739127
30
0
11
-5.11165
21
-10.44318
31
0
39
0
210
0
220
0
230
1
0
LINE
5
16B
100
AcDbEntity
8
1
62
256
6
ByLayer
370
18
48
1
60
0
100
AcDbLine
10
-5.11165
20
-10.44318
30
0
11
-5.109915
21
-10.431463
31
0
39
0
210
0
220
0
230
1
0
LINE
5
16C
100
AcDbEntity
8
1
62
256
6
ByLayer
370
18
48
1
60
0
100
AcDbLine
10
-5.11165
20
-10.44318
30
0
11
-5.11165
21
-10.430647
31
0
39
0
210
0
220
0
230
1
0
LINE
5
16D
100
AcDbEntity
8
1
62
256
6
ByLayer
370
18
48
1
60
0
100
AcDbLine
10
-6.464809
20
-10.358835
30
0
11
-5.912052
21
-10.739127
31
0
39
0
210
0
220
0
230
1
0
LINE
5
16E
100
AcDbEntity
8
1
62
256
6
ByLayer
370
18
48
1
60
0
100
AcDbLine
10
9.343925
20
17.229737
30
0
11
17.638126
21
18.101492
31
0
39
0
210
0
220
0
230
1
0
LINE
5
16F
100
AcDbEntity
8
SK1
62
256
6
ByLayer
370
18
48
1
60
0
100
AcDbLine
10
-7.998238
20
3.491525
30
0
11
-7.998238
21
6.407319
31
0
39
0
210
0
220
0
230
1
0
LINE
5
170
100
AcDbEntity
8
1
62
256
6
ByLayer
370
18
48
1
60
0
100
AcDbLine
10
18.559782
20
18.025475
30
0
11
18.601762
21
17.136831
31
0
39
0
210
0
220
0
230
1
0
LINE
5
171
100
AcDbEntity
8
1
62
256
6
ByLayer
370
18
48
1
60
0
100
AcDbLine
10
18.517749
20
18.425399
30
0
11
18.559782
21
18.025475
31
0
39
0
210
0
220
0
230
1
0
LINE
5
172
100
AcDbEntity
8
1
62
256
6
ByLayer
370
18
48
1
60
0
100
AcDbLine
10
18.559782
20
18.025475
30
0
11
18.194758
21
17.98711
31
0
39
0
210
0
220
0
230
1
0
LINE
5
173
100
AcDbEntity
8
1
62
256
6
ByLayer
370
18
48
1
60
0
100
AcDbLine
10
6.396005
20
20.421113
30
0
11
6.431959
21
20.424892
31
0
39
0
210
0
220
0
230
1
0
LINE
5
174
100
AcDbEntity
8
1
62
256
6
ByLayer
370
18
48
1
60
0
100
AcDbLine
10
5.927771
20
18.627419
30
0
11
5.901837
21
18.87607
31
0
39
0
210
0
220
0
230
1
0
LINE
5
175
100
AcDbEntity
8
1
62
256
6
ByLayer
370
18
48
1
60
0
100
AcDbLine
10
4.873019
20
28.552277
30
0
11
5.365195
21
28.604007
31
0
39
0
210
0
220
0
230
1
0
LINE
5
176
100
AcDbEntity
8
SK1
62
256
6
ByLayer
370
18
48
1
60
0
100
AcDbLine
10
-7.998238
20
19.388109
30
0
11
-7.998238
21
6.407319
31
0
39
0
210
0
220
0
230
1
0
LINE
5
177
100
AcDbEntity
8
1
62
256
6
ByLayer
370
18
48
1
60
0
100
AcDbLine
10
1.501762
20
28.197944
30
0
11
-7.998238
21
27.199454
31
0
39
0
210
0
220
0
230
1
0
LINE
5
178
100
AcDbEntity
8
1
62
256
6
ByLayer
370
18
48
1
60
0
100
AcDbLine
10
6.587164
20
18.948101
30
0
11
6.195796
21
18.906966
31
0
39
0
210
0
220
0
230
1
0
LINE
5
179
100
AcDbEntity
8
1
62
256
6
ByLayer
370
18
48
1
60
0
100
AcDbLine
10
1.501762
20
13.689473
30
0
11
1.501762
21
28.197944
31
0
39
0
210
0
220
0
230
1
0
LINE
5
17A
100
AcDbEntity
8
1
62
256
6
ByLayer
370
18
48
1
60
0
100
AcDbLine
10
18.601762
20
14.819123
30
0
11
18.601762
21
17.136831
31
0
39
0
210
0
220
0
230
1
0
LINE
5
17B
100
AcDbEntity
8
1
62
256
6
ByLayer
370
18
48
1
60
0
100
AcDbLine
10
5.570028
20
28.625536
30
0
11
5.365195
21
28.604007
31
0
39
0
210
0
220
0
230
1
0
LINE
5
17C
100
AcDbEntity
8
1
62
256
6
ByLayer
370
18
48
1
60
0
100
AcDbLine
10
18.181858
20
18.110792
30
0
11
18.194758
21
17.98711
31
0
39
0
210
0
220
0
230
1
0
LINE
5
17D
100
AcDbEntity
8
1
62
256
6
ByLayer
370
18
48
1
60
0
100
AcDbLine
10
6.221928
20
18.658336
30
0
11
6.195796
21
18.906966
31
0
39
0
210
0
220
0
230
1
0
LINE
5
17E
100
AcDbEntity
8
1
62
256
6
ByLayer
370
18
48
1
60
0
100
AcDbLine
10
5.901837
20
18.87607
30
0
11
6.195796
21
18.906966
31
0
39
0
210
0
220
0
230
1
0
LINE
5
17F
100
AcDbEntity
8
1
62
256
6
ByLayer
370
18
48
1
60
0
100
AcDbLine
10
6.613296
20
18.69947
30
0
11
6.221928
21
18.658336
31
0
39
0
210
0
220
0
230
1
0
LINE
5
180
100
AcDbEntity
8
1
62
256
6
ByLayer
370
18
48
1
60
0
100
AcDbLine
10
14.791661
20
12.772118
30
0
11
18.193191
21
14.010173
31
0
39
0
210
0
220
0
230
1
0
LINE
5
181
100
AcDbEntity
8
1
62
256
6
ByLayer
370
18
48
1
60
0
100
AcDbLine
10
5.927771
20
18.627419
30
0
11
6.221928
21
18.658336
31
0
39
0
210
0
220
0
230
1
0
LINE
5
182
100
AcDbEntity
8
1
62
256
6
ByLayer
370
18
48
1
60
0
100
AcDbLine
10
1.501762
20
28.197944
30
0
11
4.873019
21
28.552277
31
0
39
0
210
0
220
0
230
1
0
LINE
5
183
100
AcDbEntity
8
1
62
256
6
ByLayer
370
18
48
1
60
0
100
AcDbLine
10
18.587134
20
14.153557
30
0
11
18.193191
21
14.010173
31
0
39
0
210
0
220
0
230
1
0
LINE
5
184
100
AcDbEntity
8
1
62
256
6
ByLayer
370
18
48
1
60
0
100
AcDbLine
10
18.194758
20
17.98711
30
0
11
18.193191
21
14.010173
31
0
39
0
210
0
220
0
230
1
0
LINE
5
185
100
AcDbEntity
8
SK1
62
256
6
ByLayer
370
18
48
1
60
0
100
AcDbLine
10
-7.998238
20
6.407319
30
0
11
-1.716808
21
6.407319
31
0
39
0
210
0
220
0
230
1
0
LINE
5
186
100
AcDbEntity
8
1
62
256
6
ByLayer
370
18
48
1
60
0
100
AcDbLine
10
4.873019
20
13.689345
30
0
11
4.873019
21
28.552277
31
0
39
0
210
0
220
0
230
1
0
LINE
5
187
100
AcDbEntity
8
1
62
256
6
ByLayer
370
18
48
1
60
0
100
AcDbLine
10
19.217287
20
-9.611418
30
0
11
19.216275
21
-9.6198
31
0
39
0
210
0
220
0
230
1
0
LINE
5
188
100
AcDbEntity
8
1
62
256
6
ByLayer
370
18
48
1
60
0
100
AcDbLine
10
19.183992
20
-9.887147
30
0
11
19.120459
21
-10.413283
31
0
39
0
210
0
220
0
230
1
0
LINE
5
189
100
AcDbEntity
8
1
62
256
6
ByLayer
370
18
48
1
60
0
100
AcDbLine
10
19.208959
20
-9.777063
30
0
11
19.1199
21
-10.481568
31
0
39
0
210
0
220
0
230
1
0
LINE
5
18A
100
AcDbEntity
8
1
62
256
6
ByLayer
370
18
48
1
60
0
100
AcDbLine
10
17.796647
20
-18.090743
30
0
11
18.833148
21
-12.647736
31
0
39
0
210
0
220
0
230
1
0
LINE
5
18B
100
AcDbEntity
8
1
62
256
6
ByLayer
370
18
48
1
60
0
100
AcDbLine
10
-7.998238
20
27.199454
30
0
11
-7.998238
21
19.388109
31
0
39
0
210
0
220
0
230
1
0
LINE
5
18C
100
AcDbEntity
8
1
62
256
6
ByLayer
370
18
48
1
60
0
100
AcDbLine
10
-2.321646
20
-8.092148
30
0
11
-2.321646
21
-6.47026
31
0
39
0
210
0
220
0
230
1
0
LINE
5
18D
100
AcDbEntity
8
1
62
256
6
ByLayer
370
18
48
1
60
0
100
AcDbLine
10
-2.092498
20
-8.248743
30
0
11
-2.092498
21
-6.475579
31
0
39
0
210
0
220
0
230
1
0
LINE
5
18E
100
AcDbEntity
8
1
62
256
6
ByLayer
370
18
48
1
60
0
100
AcDbLine
10
-7.998238
20
-7.840652
30
0
11
-7.998238
21
-6.337552
31
0
39
0
210
0
220
0
230
1
0
MTEXT
5
2DF
100
AcDbEntity
8
SK6
62
256
6
ByLayer
370
18
48
1
60
0
100
AcDbMText
10
23.817461
20
36.377512
30
0
210
0
220
0
230
1
1
\W0.7704;3X R820C-BR18SSYP12
40
3
41
0
44
1.084337
50
0
71
7
72
5
7
iso_b_vert
0
MTEXT
5
2E3
100
AcDbEntity
8
2
62
256
6
ByLayer
370
18
48
1
60
0
100
AcDbMText
10
49.472386
20
-16.852858
30
0
210
0
220
0
230
1
1
\W0.7889;Dc = 62.0 - 70.0
40
3
41
0
44
1.084337
50
89.9999999999995
71
7
72
5
7
iso_b_vert
0
DIMENSION
5
2EE
100
AcDbEntity
8
2
62
256
6
ByLayer
370
13
48
1
60
0
100
AcDbDimension
2
DimnDraft3D1
10
50.222386
20
-31
30
0
11
50.222386
21
-0.434211
31
0
70
32
71
5
72
1
41
1
210
0
220
0
230
1
3
Standard
100
AcDbAlignedDimension
13
20
23
31
33
0
14
19.966895
24
-31
34
0
50
90
100
AcDbRotatedDimension
1001
ACAD
1000
DSTYLE
1002
{
1070
    74
1070
     0
1070
   279
1070
     0
1070
   172
1070
     1
1070
   173
1070
     1
1070
   340
1005
2E0
1070
    77
1070
     1
1070
    73
1070
     0
1070
   171
1070
     4
1070
   274
1070
     4
1070
   177
1070
     7
1070
   176
1070
     7
1070
   178
1070
     7
1070
    78
1070
     8
1070
    41
1041
3.175
1070
   147
1041
1.5
1070
    42
1041
2.0
1070
    44
1041
2.0
1070
   140
1041
3.0
1070
   343
1005
0
1070
   344
1005
0
1002
}
0
DIMENSION
5
2F8
100
AcDbEntity
8
2
62
256
6
ByLayer
370
13
48
1
60
0
100
AcDbDimension
2
DimnDraft3D2
10
18
20
43.5
30
0
11
5.932895
21
43.5
31
0
70
32
71
5
72
1
41
1
210
0
220
0
230
1
3
Standard
100
AcDbAlignedDimension
13
0
23
2
33
0
14
18
24
33
34
0
50
0
100
AcDbRotatedDimension
1001
ACAD
1000
DSTYLE
1002
{
1070
   279
1070
     0
1070
   172
1070
     1
1070
   173
1070
     1
1070
   340
1005
2E0
1070
   271
1070
     1
1070
    77
1070
     1
1070
    73
1070
     0
1070
   171
1070
     4
1070
   274
1070
     4
1070
   177
1070
     7
1070
   176
1070
     7
1070
   178
1070
     7
1070
    41
1041
3.175
1070
   147
1041
1.5
1070
    42
1041
2.0
1070
    44
1041
2.0
1070
   140
1041
3.0
1070
   343
1005
0
1070
   344
1005
0
1002
}
0
DIMENSION
5
302
100
AcDbEntity
8
2
62
256
6
ByLayer
370
13
48
1
60
0
100
AcDbDimension
2
DimnDraft3D3
10
19
20
31
30
0
11
30.099525
21
20.107126
31
0
70
34
71
5
72
1
41
1
210
0
220
0
230
1
3
Standard
100
AcDb2LineAngularDimension
13
19.196159
23
19.636073
33
0
14
18.111405
24
29.956814
34
0
15
18
25
31
35
0
16
32.328959
26
18.099734
36
0
40
0
0
ENDSEC
0
SECTION
2
OBJECTS
0
DICTIONARY
5
372
330
0
100
AcDbDictionary
280
0
281
1
3
ACAD_GROUP
350
373
3
ACAD_GROUP
350
374
3
ACAD_MLINESTYLE
350
375
0
DICTIONARY
5
373
330
0
100
AcDbDictionary
280
0
281
1
0
DICTIONARY
5
374
330
0
100
AcDbDictionary
280
0
281
1
3
_DC
350
30E
3
_DC_3
350
30C
3
_DC_55
350
30D
3
<200933438NDI000_00>
350
30F
3
<200934007MOD000_00>
350
30B
0
DICTIONARY
5
375
330
0
100
AcDbDictionary
280
0
281
1
3
Standard
350
18
0
GROUP
5
30E
330
374
100
AcDbGroup
300

70
0
71
1
340
2E3
0
GROUP
5
30C
330
374
100
AcDbGroup
300

70
0
71
1
340
2E3
340
2E3
340
2E3
340
2E3
0
GROUP
5
30D
330
374
100
AcDbGroup
300

70
0
71
1
340
2E3
340
2E3
0
GROUP
5
30F
330
374
100
AcDbGroup
300

70
0
71
1
340
79
340
7A
340
7B
340
7C
340
7D
340
7E
340
7F
340
80
340
81
340
82
340
83
340
84
340
85
340
86
340
87
340
88
340
89
340
8B
340
8C
340
8D
340
8E
340
8F
340
90
340
91
340
92
340
93
340
94
340
95
340
96
340
97
340
98
340
99
340
9A
340
9B
340
9C
340
9D
340
9E
340
9F
340
A0
340
A1
340
A2
340
A3
340
A4
340
A5
340
A6
340
A7
340
A8
340
A9
340
AA
340
AB
340
AC
340
AD
340
AE
340
AF
340
B0
340
B1
340
B2
340
B3
340
B4
340
B5
340
B6
340
B7
340
B8
340
B9
340
BA
340
BB
340
BC
340
BD
340
BE
340
BF
340
C0
340
C1
340
C2
340
C3
340
C4
340
C5
340
C6
340
C7
340
C8
340
C9
340
CA
340
CB
340
CC
340
CD
340
CE
340
CF
340
D0
340
D1
340
D2
340
D3
340
D4
340
D5
340
D6
340
D7
340
D8
340
D9
340
DA
340
DB
340
DC
340
DD
340
DE
340
DF
340
E0
340
E1
340
E2
340
E3
340
E4
340
E5
340
E6
340
E7
340
E8
340
E9
340
EA
340
EB
340
EC
340
ED
340
EE
340
EF
340
F0
340
F1
340
F2
340
F3
340
F4
340
F5
340
F6
340
F7
340
F8
340
F9
340
FA
340
FB
340
FC
340
FD
340
FE
340
FF
340
100
340
101
340
102
340
103
340
104
340
105
340
106
340
107
340
108
340
109
340
10A
340
10B
340
10C
340
10D
340
10E
340
10F
340
110
340
111
340
112
340
113
340
114
340
115
340
116
340
117
340
118
340
119
340
11A
340
11B
340
11C
340
11D
340
11E
340
11F
340
120
340
121
340
122
340
123
340
124
340
125
340
126
340
127
340
128
340
129
340
12A
340
12B
340
12C
340
12D
340
12E
340
12F
340
130
340
131
340
132
340
133
340
134
340
135
340
136
340
137
340
138
340
139
340
13A
340
13B
340
13C
340
13D
340
13E
340
13F
340
140
340
141
340
142
340
143
340
144
340
145
340
146
340
147
340
148
340
149
340
14A
340
14B
340
14C
340
14D
340
14E
340
14F
340
150
340
151
340
152
340
153
340
154
340
155
340
156
340
157
340
158
340
159
340
15A
340
15B
340
15C
340
15D
340
15E
340
15F
340
160
340
161
340
162
340
163
340
164
340
165
340
166
340
167
340
168
340
169
340
16A
340
16B
340
16C
340
16D
340
16E
340
16F
340
170
340
171
340
172
340
173
340
174
340
175
340
176
340
177
340
178
340
179
340
17A
340
17B
340
17C
340
17D
340
17E
340
17F
340
180
340
181
340
182
340
183
340
184
340
185
340
186
340
187
340
188
340
189
340
18A
340
190
340
191
340
192
340
193
340
194
340
195
340
196
340
197
340
198
340
199
340
19A
340
19B
340
19C
340
19D
340
19E
340
19F
340
1A0
340
1A1
340
1A2
340
1A3
340
1A4
340
1A5
340
1A6
340
1A7
340
1A8
340
1A9
340
1AA
340
1AB
340
1AC
340
1AD
340
1AE
340
1AF
340
1B0
340
1B1
340
1B2
340
1B3
340
1B4
340
1B5
340
1B6
340
1B7
340
1B8
340
1B9
340
1BA
340
1BB
340
1BC
340
1BD
340
1BE
340
1BF
340
1C0
340
1C1
340
1C2
340
1C3
340
1C4
340
1C5
340
1C6
340
1C7
340
1C8
340
1C9
340
1CA
340
1CB
340
1CC
340
1CD
340
1CE
340
1CF
340
1D0
340
1D1
340
1D2
340
1D3
340
1D4
340
1D5
340
1D6
340
1D7
340
1D8
340
1D9
340
1DA
340
1DB
340
1DC
340
1DD
340
1DE
340
1DF
340
1E0
340
1E1
340
1E2
340
1E3
340
1E4
340
1E5
340
1E6
340
1E7
340
1E8
340
1E9
340
1EA
340
1EB
340
1EC
340
1ED
340
1EE
340
1EF
340
1F0
340
1F1
340
1F2
340
1F3
340
1F4
340
1F5
340
1F6
340
1F7
340
1F8
340
1F9
340
1FA
340
1FB
340
1FC
340
1FD
340
1FE
340
1FF
340
200
340
201
340
202
340
203
340
204
340
205
340
206
340
207
340
208
340
209
340
20A
340
20B
340
20C
340
20D
340
20E
340
20F
340
210
340
211
340
212
340
213
340
214
340
215
340
216
340
217
340
218
340
219
340
21A
340
21B
340
21C
340
21D
340
21E
340
21F
340
220
340
221
340
222
340
223
340
224
340
225
340
226
340
227
340
228
340
229
340
22A
340
22B
340
22C
340
22D
340
22E
340
22F
340
230
340
231
340
232
340
233
340
234
340
235
340
236
340
237
340
238
340
239
340
23A
340
23B
340
23C
340
23D
340
23E
340
23F
340
240
340
241
340
242
340
243
340
244
340
245
340
246
340
247
340
248
340
249
340
24A
340
24B
340
24C
340
24D
340
24E
340
24F
340
250
340
251
340
252
340
253
340
254
340
255
340
256
340
257
340
258
340
259
340
25A
340
25B
340
25C
340
25D
340
25E
340
25F
340
260
340
261
340
262
340
263
340
264
340
265
340
266
340
267
340
268
340
269
340
26A
340
26B
340
26C
340
26D
340
26E
340
26F
340
270
340
271
340
272
340
273
340
274
340
275
340
276
340
277
340
278
340
279
340
27A
340
27D
340
27E
340
27F
340
280
340
281
340
282
340
283
340
284
340
285
340
286
340
287
340
288
340
289
340
28A
340
28B
340
28C
340
28D
340
28E
340
28F
340
290
340
291
340
292
340
293
340
294
340
295
340
296
340
297
340
298
340
299
340
29A
340
29B
340
29C
340
29D
340
29E
340
29F
340
2A0
340
2A1
340
2A2
340
2A3
340
2A4
340
2A5
340
2A6
340
2A7
340
2A8
340
2A9
340
2AA
340
2AB
340
2AC
340
2AD
340
2AE
340
2AF
340
2B0
340
2B1
340
2B2
340
2B3
340
2B4
340
2B5
340
2B6
340
2B7
340
2B8
340
2B9
340
2BA
340
2BB
340
2BC
340
2BD
340
2BE
340
2BF
340
2C0
340
2C1
340
2C2
340
2C3
340
2C4
340
2C5
340
2C6
340
2C7
340
2C8
340
2C9
340
2CA
340
2CB
340
2CC
340
2CD
340
2CE
340
2CF
340
2D0
340
2D1
340
2D2
340
2D3
340
2D4
340
2D5
340
2D6
340
2D7
340
2D8
340
2D9
340
2DA
340
2DB
340
2DC
340
2DD
340
2DE
0
GROUP
5
30B
330
374
100
AcDbGroup
300

70
0
71
1
340
6C
340
6E
340
70
340
71
340
73
340
74
340
75
340
77
340
79
340
7A
340
7B
340
7C
340
7D
340
7E
340
7F
340
80
340
81
340
82
340
83
340
84
340
85
340
86
340
87
340
88
340
89
340
8B
340
8C
340
8D
340
8E
340
8F
340
90
340
91
340
92
340
93
340
94
340
95
340
96
340
97
340
98
340
99
340
9A
340
9B
340
9C
340
9D
340
9E
340
9F
340
A0
340
A1
340
A2
340
A3
340
A4
340
A5
340
A6
340
A7
340
A8
340
A9
340
AA
340
AB
340
AC
340
AD
340
AE
340
AF
340
B0
340
B1
340
B2
340
B3
340
B4
340
B5
340
B6
340
B7
340
B8
340
B9
340
BA
340
BB
340
BC
340
BD
340
BE
340
BF
340
C0
340
C1
340
C2
340
C3
340
C4
340
C5
340
C6
340
C7
340
C8
340
C9
340
CA
340
CB
340
CC
340
CD
340
CE
340
CF
340
D0
340
D1
340
D2
340
D3
340
D4
340
D5
340
D6
340
D7
340
D8
340
D9
340
DA
340
DB
340
DC
340
DD
340
DE
340
DF
340
E0
340
E1
340
E2
340
E3
340
E4
340
E5
340
E6
340
E7
340
E8
340
E9
340
EA
340
EB
340
EC
340
ED
340
EE
340
EF
340
F0
340
F1
340
F2
340
F3
340
F4
340
F5
340
F6
340
F7
340
F8
340
F9
340
FA
340
FB
340
FC
340
FD
340
FE
340
FF
340
100
340
101
340
102
340
103
340
104
340
105
340
106
340
107
340
108
340
109
340
10A
340
10B
340
10C
340
10D
340
10E
340
10F
340
110
340
111
340
112
340
113
340
114
340
115
340
116
340
117
340
118
340
119
340
11A
340
11B
340
11C
340
11D
340
11E
340
11F
340
120
340
121
340
122
340
123
340
124
340
125
340
126
340
127
340
128
340
129
340
12A
340
12B
340
12C
340
12D
340
12E
340
12F
340
130
340
131
340
132
340
133
340
134
340
135
340
136
340
137
340
138
340
139
340
13A
340
13B
340
13C
340
13D
340
13E
340
13F
340
140
340
141
340
142
340
143
340
144
340
145
340
146
340
147
340
148
340
149
340
14A
340
14B
340
14C
340
14D
340
14E
340
14F
340
150
340
151
340
152
340
153
340
154
340
155
340
156
340
157
340
158
340
159
340
15A
340
15B
340
15C
340
15D
340
15E
340
15F
340
160
340
161
340
162
340
163
340
164
340
165
340
166
340
167
340
168
340
169
340
16A
340
16B
340
16C
340
16D
340
16E
340
16F
340
170
340
171
340
172
340
173
340
174
340
175
340
176
340
177
340
178
340
179
340
17A
340
17B
340
17C
340
17D
340
17E
340
17F
340
180
340
181
340
182
340
183
340
184
340
185
340
186
340
187
340
188
340
189
340
18A
340
18B
340
18C
340
18D
340
18E
340
18F
340
190
340
191
340
192
340
193
340
194
340
195
340
196
340
197
340
198
340
199
340
19A
340
19B
340
19C
340
19D
340
19E
340
19F
340
1A0
340
1A1
340
1A2
340
1A3
340
1A4
340
1A5
340
1A6
340
1A7
340
1A8
340
1A9
340
1AA
340
1AB
340
1AC
340
1AD
340
1AE
340
1AF
340
1B0
340
1B1
340
1B2
340
1B3
340
1B4
340
1B5
340
1B6
340
1B7
340
1B8
340
1B9
340
1BA
340
1BB
340
1BC
340
1BD
340
1BE
340
1BF
340
1C0
340
1C1
340
1C2
340
1C3
340
1C4
340
1C5
340
1C6
340
1C7
340
1C8
340
1C9
340
1CA
340
1CB
340
1CC
340
1CD
340
1CE
340
1CF
340
1D0
340
1D1
340
1D2
340
1D3
340
1D4
340
1D5
340
1D6
340
1D7
340
1D8
340
1D9
340
1DA
340
1DB
340
1DC
340
1DD
340
1DE
340
1DF
340
1E0
340
1E1
340
1E2
340
1E3
340
1E4
340
1E5
340
1E6
340
1E7
340
1E8
340
1E9
340
1EA
340
1EB
340
1EC
340
1ED
340
1EE
340
1EF
340
1F0
340
1F1
340
1F2
340
1F3
340
1F4
340
1F5
340
1F6
340
1F7
340
1F8
340
1F9
340
1FA
340
1FB
340
1FC
340
1FD
340
1FE
340
1FF
340
200
340
201
340
202
340
203
340
204
340
205
340
206
340
207
340
208
340
209
340
20A
340
20B
340
20C
340
20D
340
20E
340
20F
340
210
340
211
340
212
340
213
340
214
340
215
340
216
340
217
340
218
340
219
340
21A
340
21B
340
21C
340
21D
340
21E
340
21F
340
220
340
221
340
222
340
223
340
224
340
225
340
226
340
227
340
228
340
229
340
22A
340
22B
340
22C
340
22D
340
22E
340
22F
340
230
340
231
340
232
340
233
340
234
340
235
340
236
340
237
340
238
340
239
340
23A
340
23B
340
23C
340
23D
340
23E
340
23F
340
240
340
241
340
242
340
243
340
244
340
245
340
246
340
247
340
248
340
249
340
24A
340
24B
340
24C
340
24D
340
24E
340
24F
340
250
340
251
340
252
340
253
340
254
340
255
340
256
340
257
340
258
340
259
340
25A
340
25B
340
25C
340
25D
340
25E
340
25F
340
260
340
261
340
262
340
263
340
264
340
265
340
266
340
267
340
268
340
269
340
26A
340
26B
340
26C
340
26D
340
26E
340
26F
340
270
340
271
340
272
340
273
340
274
340
275
340
276
340
277
340
278
340
279
340
27A
340
27B
340
27C
340
27D
340
27E
340
27F
340
280
340
281
340
282
340
283
340
284
340
285
340
286
340
287
340
288
340
289
340
28A
340
28B
340
28C
340
28D
340
28E
340
28F
340
290
340
291
340
292
340
293
340
294
340
295
340
296
340
297
340
298
340
299
340
29A
340
29B
340
29C
340
29D
340
29E
340
29F
340
2A0
340
2A1
340
2A2
340
2A3
340
2A4
340
2A5
340
2A6
340
2A7
340
2A8
340
2A9
340
2AA
340
2AB
340
2AC
340
2AD
340
2AE
340
2AF
340
2B0
340
2B1
340
2B2
340
2B3
340
2B4
340
2B5
340
2B6
340
2B7
340
2B8
340
2B9
340
2BA
340
2BB
340
2BC
340
2BD
340
2BE
340
2BF
340
2C0
340
2C1
340
2C2
340
2C3
340
2C4
340
2C5
340
2C6
340
2C7
340
2C8
340
2C9
340
2CA
340
2CB
340
2CC
340
2CD
340
2CE
340
2CF
340
2D0
340
2D1
340
2D2
340
2D3
340
2D4
340
2D5
340
2D6
340
2D7
340
2D8
340
2D9
340
2DA
340
2DB
340
2DC
340
2DD
340
2DE
340
2E3
340
2E3
340
2E3
340
2E3
340
2E3
340
2E3
340
2E3
340
79
340
7A
340
7B
340
7C
340
7D
340
7E
340
7F
340
80
340
81
340
82
340
83
340
84
340
85
340
86
340
87
340
88
340
89
340
8B
340
8C
340
8D
340
8E
340
8F
340
90
340
91
340
92
340
93
340
94
340
95
340
96
340
97
340
98
340
99
340
9A
340
9B
340
9C
340
9D
340
9E
340
9F
340
A0
340
A1
340
A2
340
A3
340
A4
340
A5
340
A6
340
A7
340
A8
340
A9
340
AA
340
AB
340
AC
340
AD
340
AE
340
AF
340
B0
340
B1
340
B2
340
B3
340
B4
340
B5
340
B6
340
B7
340
B8
340
B9
340
BA
340
BB
340
BC
340
BD
340
BE
340
BF
340
C0
340
C1
340
C2
340
C3
340
C4
340
C5
340
C6
340
C7
340
C8
340
C9
340
CA
340
CB
340
CC
340
CD
340
CE
340
CF
340
D0
340
D1
340
D2
340
D3
340
D4
340
D5
340
D6
340
D7
340
D8
340
D9
340
DA
340
DB
340
DC
340
DD
340
DE
340
DF
340
E0
340
E1
340
E2
340
E3
340
E4
340
E5
340
E6
340
E7
340
E8
340
E9
340
EA
340
EB
340
EC
340
ED
340
EE
340
EF
340
F0
340
F1
340
F2
340
F3
340
F4
340
F5
340
F6
340
F7
340
F8
340
F9
340
FA
340
FB
340
FC
340
FD
340
FE
340
FF
340
100
340
101
340
102
340
103
340
104
340
105
340
106
340
107
340
108
340
109
340
10A
340
10B
340
10C
340
10D
340
10E
340
10F
340
110
340
111
340
112
340
113
340
114
340
115
340
116
340
117
340
118
340
119
340
11A
340
11B
340
11C
340
11D
340
11E
340
11F
340
120
340
121
340
122
340
123
340
124
340
125
340
126
340
127
340
128
340
129
340
12A
340
12B
340
12C
340
12D
340
12E
340
12F
340
130
340
131
340
132
340
133
340
134
340
135
340
136
340
137
340
138
340
139
340
13A
340
13B
340
13C
340
13D
340
13E
340
13F
340
140
340
141
340
142
340
143
340
144
340
145
340
146
340
147
340
148
340
149
340
14A
340
14B
340
14C
340
14D
340
14E
340
14F
340
150
340
151
340
152
340
153
340
154
340
155
340
156
340
157
340
158
340
159
340
15A
340
15B
340
15C
340
15D
340
15E
340
15F
340
160
340
161
340
162
340
163
340
164
340
165
340
166
340
167
340
168
340
169
340
16A
340
16B
340
16C
340
16D
340
16E
340
16F
340
170
340
171
340
172
340
173
340
174
340
175
340
176
340
177
340
178
340
179
340
17A
340
17B
340
17C
340
17D
340
17E
340
17F
340
180
340
181
340
182
340
183
340
184
340
185
340
186
340
187
340
188
340
189
340
18A
340
190
340
191
340
192
340
193
340
194
340
195
340
196
340
197
340
198
340
199
340
19A
340
19B
340
19C
340
19D
340
19E
340
19F
340
1A0
340
1A1
340
1A2
340
1A3
340
1A4
340
1A5
340
1A6
340
1A7
340
1A8
340
1A9
340
1AA
340
1AB
340
1AC
340
1AD
340
1AE
340
1AF
340
1B0
340
1B1
340
1B2
340
1B3
340
1B4
340
1B5
340
1B6
340
1B7
340
1B8
340
1B9
340
1BA
340
1BB
340
1BC
340
1BD
340
1BE
340
1BF
340
1C0
340
1C1
340
1C2
340
1C3
340
1C4
340
1C5
340
1C6
340
1C7
340
1C8
340
1C9
340
1CA
340
1CB
340
1CC
340
1CD
340
1CE
340
1CF
340
1D0
340
1D1
340
1D2
340
1D3
340
1D4
340
1D5
340
1D6
340
1D7
340
1D8
340
1D9
340
1DA
340
1DB
340
1DC
340
1DD
340
1DE
340
1DF
340
1E0
340
1E1
340
1E2
340
1E3
340
1E4
340
1E5
340
1E6
340
1E7
340
1E8
340
1E9
340
1EA
340
1EB
340
1EC
340
1ED
340
1EE
340
1EF
340
1F0
340
1F1
340
1F2
340
1F3
340
1F4
340
1F5
340
1F6
340
1F7
340
1F8
340
1F9
340
1FA
340
1FB
340
1FC
340
1FD
340
1FE
340
1FF
340
200
340
201
340
202
340
203
340
204
340
205
340
206
340
207
340
208
340
209
340
20A
340
20B
340
20C
340
20D
340
20E
340
20F
340
210
340
211
340
212
340
213
340
214
340
215
340
216
340
217
340
218
340
219
340
21A
340
21B
340
21C
340
21D
340
21E
340
21F
340
220
340
221
340
222
340
223
340
224
340
225
340
226
340
227
340
228
340
229
340
22A
340
22B
340
22C
340
22D
340
22E
340
22F
340
230
340
231
340
232
340
233
340
234
340
235
340
236
340
237
340
238
340
239
340
23A
340
23B
340
23C
340
23D
340
23E
340
23F
340
240
340
241
340
242
340
243
340
244
340
245
340
246
340
247
340
248
340
249
340
24A
340
24B
340
24C
340
24D
340
24E
340
24F
340
250
340
251
340
252
340
253
340
254
340
255
340
256
340
257
340
258
340
259
340
25A
340
25B
340
25C
340
25D
340
25E
340
25F
340
260
340
261
340
262
340
263
340
264
340
265
340
266
340
267
340
268
340
269
340
26A
340
26B
340
26C
340
26D
340
26E
340
26F
340
270
340
271
340
272
340
273
340
274
340
275
340
276
340
277
340
278
340
279
340
27A
340
27D
340
27E
340
27F
340
280
340
281
340
282
340
283
340
284
340
285
340
286
340
287
340
288
340
289
340
28A
340
28B
340
28C
340
28D
340
28E
340
28F
340
290
340
291
340
292
340
293
340
294
340
295
340
296
340
297
340
298
340
299
340
29A
340
29B
340
29C
340
29D
340
29E
340
29F
340
2A0
340
2A1
340
2A2
340
2A3
340
2A4
340
2A5
340
2A6
340
2A7
340
2A8
340
2A9
340
2AA
340
2AB
340
2AC
340
2AD
340
2AE
340
2AF
340
2B0
340
2B1
340
2B2
340
2B3
340
2B4
340
2B5
340
2B6
340
2B7
340
2B8
340
2B9
340
2BA
340
2BB
340
2BC
340
2BD
340
2BE
340
2BF
340
2C0
340
2C1
340
2C2
340
2C3
340
2C4
340
2C5
340
2C6
340
2C7
340
2C8
340
2C9
340
2CA
340
2CB
340
2CC
340
2CD
340
2CE
340
2CF
340
2D0
340
2D1
340
2D2
340
2D3
340
2D4
340
2D5
340
2D6
340
2D7
340
2D8
340
2D9
340
2DA
340
2DB
340
2DC
340
2DD
340
2DE
340
2DF
340
2E3
340
2EE
340
2F8
340
302
0
MLINESTYLE
5
18
330
375
100
AcDbMlineStyle
2
Standard
70
0
3

62
256
51
90
52
90
71
2
49
-0.5
62
256
6
ByLayer
49
0.5
62
256
6
ByLayer
0
RASTERVARIABLES
5
360
330

100
AcDbRasterVariables
90
0
70
1
71
1
72
1
0
ENDSEC
0
EOF
