0
SECTION
2
HEADER
9
$ACADVER
1
AC1015
9
$DWGCODEPAGE
3
ANSI_1252
9
$HANDSEED
5
39a
9
$ANGBASE
50
0
9
$ANGDIR
70
0
9
$ATTMODE
70
1
9
$AUNITS
70
0
9
$AUPREC
70
0
9
$CECOLOR
62
256
9
$CELTSCALE
40
1
9
$CELTYPE
6
ByLayer
9
$CELWEIGHT
370
18
9
$CLAYER
8
0
9
$CMLJUST
70
0
9
$CMLSCALE
40
1
9
$CMLSTYLE
2
Standard
9
$DIMSTYLE
2
Standard
9
$TEXTSIZE
40
0.2
9
$TEXTSTYLE
7
Standard
9
$LUNITS
70
2
9
$LUPREC
70
4
9
$EXTNAMES
290
1
9
$INSUNITS
70
4
9
$LTSCALE
40
1
9
$LWDISPLAY
290
1
9
$PDMODE
70
0
9
$PDSIZE
40
0
9
$PLINEGEN
70
0
0
ENDSEC
0
SECTION
2
CLASSES
0
CLASS
1
RASTERVARIABLES
2
AcDbRasterVariables
3
ISM
90
0
280
0
281
0
0
ENDSEC
0
SECTION
2
TABLES
0
TABLE
2
VPORT
5
390
100
AcDbSymbolTable
0
VPORT
5
1
100
AcDbSymbolTableRecord
100
AcDbViewportTableRecord
2
*Active
70
0
10
0
20
0
11
1
21
1
12
-1
22
1
13
0
23
0
14
0.5
24
0.5
15
10
25
10
16
0
26
0
36
1
17
0
27
0
37
0
0
ENDTAB
0
TABLE
2
LTYPE
5
391
100
AcDbSymbolTable
0
LTYPE
5
14
100
AcDbSymbolTableRecord
100
AcDbLinetypeTableRecord
70
0
2
ByBlock
3

72
65
73
0
40
0
0
LTYPE
5
15
100
AcDbSymbolTableRecord
100
AcDbLinetypeTableRecord
70
0
2
ByLayer
3

72
65
73
0
40
0
0
LTYPE
5
16
100
AcDbSymbolTableRecord
100
AcDbLinetypeTableRecord
70
0
2
CONTINUOUS
3
Solid line
72
65
73
0
40
0
0
LTYPE
5
6A
100
AcDbSymbolTableRecord
100
AcDbLinetypeTableRecord
70
0
2
CENTER
3
____ _ ____ _ ____ _ ____
72
65
73
4
40
47.5
49
22
74
0
49
-8.5
74
0
49
8.5
74
0
49
-8.5
74
0
0
LTYPE
5
6B
100
AcDbSymbolTableRecord
100
AcDbLinetypeTableRecord
70
0
2
DASHED
3
__ __ __ __ __ __ __ __ __
72
65
73
2
40
25.72
49
12.86
74
0
49
-12.86
74
0
0
ENDTAB
0
TABLE
2
LAYER
5
392
100
AcDbSymbolTable
0
LAYER
5
10
100
AcDbSymbolTableRecord
100
AcDbLayerTableRecord
2
0
70
0
62
7
6
CONTINUOUS
290
1
370
-3
390
0
0
LAYER
5
6D
100
AcDbSymbolTableRecord
100
AcDbLayerTableRecord
2
81
70
0
62
-3
6
CONTINUOUS
290
1
370
-3
390
0
0
LAYER
5
6F
100
AcDbSymbolTableRecord
100
AcDbLayerTableRecord
2
80
70
0
62
-6
6
CONTINUOUS
290
1
370
-3
390
0
0
LAYER
5
72
100
AcDbSymbolTableRecord
100
AcDbLayerTableRecord
2
4
70
0
62
-2
6
CENTER
290
1
370
-3
390
0
0
LAYER
5
74
100
AcDbSymbolTableRecord
100
AcDbLayerTableRecord
2
1
70
0
62
4
6
CONTINUOUS
290
1
370
-3
390
0
0
LAYER
5
2FF
100
AcDbSymbolTableRecord
100
AcDbLayerTableRecord
2
2
70
0
62
7
6
CONTINUOUS
290
1
370
-3
390
0
0
LAYER
5
37b
100
AcDbSymbolTableRecord
100
AcDbLayerTableRecord
2
SK4
70
0
62
2
6
CENTER
290
1
370
-3
390
0
0
LAYER
5
37c
100
AcDbSymbolTableRecord
100
AcDbLayerTableRecord
2
SK1
70
0
62
4
6
CONTINUOUS
290
1
370
-3
390
0
0
LAYER
5
37d
100
AcDbSymbolTableRecord
100
AcDbLayerTableRecord
2
SK6
70
0
62
5
6
CONTINUOUS
290
1
370
-3
390
0
0
ENDTAB
0
TABLE
2
STYLE
5
393
100
AcDbSymbolTable
0
STYLE
5
11
100
AcDbSymbolTableRecord
100
AcDbTextStyleTableRecord
2
Standard
3
txt
70
0
71
0
40
0
41
1
42
0
50
0
0
STYLE
5
2FB
100
AcDbSymbolTableRecord
100
AcDbTextStyleTableRecord
2
iso_b_vert
3
simplex.shx
70
0
71
0
40
0
41
1
42
0
50
0
0
STYLE
5
2FC
100
AcDbSymbolTableRecord
100
AcDbTextStyleTableRecord
2
DWGDirectTextStyle
3
simplex
70
0
71
0
40
0
41
1
42
0
50
0
0
ENDTAB
0
TABLE
2
DIMSTYLE
5
394
100
AcDbSymbolTable
100
AcDbDimStyleTable
0
DIMSTYLE
105
27
100
AcDbSymbolTableRecord
100
AcDbDimStyleTableRecord
2
Standard
70
0
3
<>
41
0.18
42
0.0625
44
0.18
140
0.18
147
0.09
73
0
74
0
77
1
271
2
275
0
278
52
280
0
340
11
0
ENDTAB
0
TABLE
2
VIEW
5
395
100
AcDbSymbolTable
0
ENDTAB
0
TABLE
2
UCS
5
396
100
AcDbSymbolTable
0
ENDTAB
0
TABLE
2
APPID
5
397
100
AcDbSymbolTable
0
APPID
5
12
100
AcDbSymbolTableRecord
100
AcDbRegAppTableRecord
2
ACAD
70
0
0
ENDTAB
0
TABLE
2
BLOCK_RECORD
5
398
100
AcDbSymbolTable
0
BLOCK_RECORD
5
1F
100
AcDbSymbolTableRecord
100
AcDbBlockTableRecord
2
*Model_Space
340
0
70
0
0
BLOCK_RECORD
5
1B
100
AcDbSymbolTableRecord
100
AcDbBlockTableRecord
2
*Paper_Space
340
0
70
0
0
BLOCK_RECORD
5
23
100
AcDbSymbolTableRecord
100
AcDbBlockTableRecord
2
*Paper_Space0
340
0
70
0
0
BLOCK_RECORD
5
300
100
AcDbSymbolTableRecord
100
AcDbBlockTableRecord
2
DimnDraft3D1
340
0
70
0
0
BLOCK_RECORD
5
30A
100
AcDbSymbolTableRecord
100
AcDbBlockTableRecord
2
DimnDraft3D2
340
0
70
0
0
BLOCK_RECORD
5
314
100
AcDbSymbolTableRecord
100
AcDbBlockTableRecord
2
DimnDraft3D3
340
0
70
0
0
ENDTAB
0
ENDSEC
0
SECTION
2
BLOCKS
0
BLOCK
5
20
100
AcDbEntity
8
0
100
AcDbBlockBegin
2
*Model_Space
70
0
10
0
20
0
30
0
3
*Model_Space
0
ENDBLK
5
21
100
AcDbEntity
8
0
100
AcDbBlockEnd
0
BLOCK
5
1C
100
AcDbEntity
8
0
100
AcDbBlockBegin
2
*Paper_Space
70
0
10
0
20
0
30
0
3
*Paper_Space
0
ENDBLK
5
1D
100
AcDbEntity
8
0
100
AcDbBlockEnd
0
BLOCK
5
24
100
AcDbEntity
8
0
100
AcDbBlockBegin
2
*Paper_Space0
70
0
10
0
20
0
30
0
3
*Paper_Space0
0
ENDBLK
5
25
100
AcDbEntity
8
0
100
AcDbBlockEnd
0
BLOCK
5
307
100
AcDbEntity
8
0
100
AcDbBlockBegin
2
DimnDraft3D1
70
0
10
0
20
0
30
0
3
DimnDraft3D1
0
MTEXT
5
301
100
AcDbEntity
8
2
62
256
6
ByLayer
370
18
48
1
60
0
100
AcDbMText
10
40.854751
20
0.368421
30
0
210
0
220
0
230
1
1
\W0.3160; 
40
3.5
41
0
44
1.084337
50
90
71
7
72
5
7
iso_b_vert
0
LINE
5
302
100
AcDbEntity
8
2
62
256
6
ByLayer
370
13
48
1
60
0
100
AcDbLine
10
20
20
34.5
30
0
11
43.729751
21
34.5
31
0
39
0
210
0
220
0
230
1
0
LINE
5
303
100
AcDbEntity
8
2
62
256
6
ByLayer
370
13
48
1
60
0
100
AcDbLine
10
19.884806
20
-34.5
30
0
11
43.729751
21
-34.5
31
0
39
0
210
0
220
0
230
1
0
LINE
5
304
100
AcDbEntity
8
2
62
256
6
ByLayer
370
13
48
1
60
0
100
AcDbLine
10
41.729751
20
34.5
30
0
11
41.729751
21
-34.5
31
0
39
0
210
0
220
0
230
1
0
SOLID
5
305
100
AcDbEntity
8
2
62
256
6
ByLayer
370
13
48
1
60
0
100
AcDbTrace
10
41.729751
20
34.5
30
0
11
42.147748
21
31.325002
31
0
12
41.311754
22
31.324998
32
0
13
41.729751
23
34.5
33
0
39
0
210
0
220
0
230
1
0
SOLID
5
306
100
AcDbEntity
8
2
62
256
6
ByLayer
370
13
48
1
60
0
100
AcDbTrace
10
41.729751
20
-34.5
30
0
11
41.311754
21
-31.325002
31
0
12
42.147748
22
-31.324998
32
0
13
41.729751
23
-34.5
33
0
39
0
210
0
220
0
230
1
0
ENDBLK
5
308
100
AcDbEntity
8
0
100
AcDbBlockEnd
0
BLOCK
5
311
100
AcDbEntity
8
0
100
AcDbBlockBegin
2
DimnDraft3D2
70
0
10
0
20
0
30
0
3
DimnDraft3D2
0
MTEXT
5
30B
100
AcDbEntity
8
2
62
256
6
ByLayer
370
18
48
1
60
0
100
AcDbMText
10
6.682895
20
59.25
30
0
210
0
220
0
230
1
1
\W0.6576;18.0
40
3
41
0
44
1.084337
50
0
71
7
72
5
7
iso_b_vert
0
LINE
5
30C
100
AcDbEntity
8
2
62
256
6
ByLayer
370
13
48
1
60
0
100
AcDbLine
10
18
20
36.5
30
0
11
18
21
60.5
31
0
39
0
210
0
220
0
230
1
0
LINE
5
30D
100
AcDbEntity
8
2
62
256
6
ByLayer
370
13
48
1
60
0
100
AcDbLine
10
0
20
2
30
0
11
0
21
60.5
31
0
39
0
210
0
220
0
230
1
0
LINE
5
30E
100
AcDbEntity
8
2
62
256
6
ByLayer
370
13
48
1
60
0
100
AcDbLine
10
18
20
58.5
30
0
11
0
21
58.5
31
0
39
0
210
0
220
0
230
1
0
SOLID
5
30F
100
AcDbEntity
8
2
62
256
6
ByLayer
370
13
48
1
60
0
100
AcDbTrace
10
18
20
58.5
30
0
11
14.825002
21
58.082003
31
0
12
14.824998
22
58.917997
32
0
13
18
23
58.5
33
0
39
0
210
0
220
0
230
1
0
SOLID
5
310
100
AcDbEntity
8
2
62
256
6
ByLayer
370
13
48
1
60
0
100
AcDbTrace
10
0
20
58.5
30
0
11
3.174998
21
58.917997
31
0
12
3.175002
22
58.082003
32
0
13
0
23
58.5
33
0
39
0
210
0
220
0
230
1
0
ENDBLK
5
312
100
AcDbEntity
8
0
100
AcDbBlockEnd
0
BLOCK
5
31B
100
AcDbEntity
8
0
100
AcDbBlockBegin
2
DimnDraft3D3
70
0
10
0
20
0
30
0
3
DimnDraft3D3
0
MTEXT
5
315
100
AcDbEntity
8
2
62
256
6
ByLayer
370
18
48
1
60
0
100
AcDbMText
10
27.782341
20
22.849107
30
0
210
0
220
0
230
1
1
\W0.6258;84%%d
40
3
41
0
44
1.084337
50
48.0000000000003
71
7
72
5
7
iso_b_vert
0
LINE
5
316
100
AcDbEntity
8
2
62
256
6
ByLayer
370
13
48
1
60
0
100
AcDbLine
10
19.405216
20
21.147029
30
0
11
19.863869
21
16.783233
31
0
39
0
210
0
220
0
230
1
0
LINE
5
317
100
AcDbEntity
8
2
62
256
6
ByLayer
370
13
48
1
60
0
100
AcDbLine
10
20
20
34.5
30
0
11
35.816118
21
34.5
31
0
39
0
210
0
220
0
230
1
0
ARC
5
318
100
AcDbEntity
8
2
62
256
6
ByLayer
370
13
48
1
60
0
100
AcDbCircle
39
0
10
18.001762
20
34.5
30
0
40
15.8143556935264
210
0
220
0
230
1
100
AcDbArc
50
276
51
0
0
SOLID
5
319
100
AcDbEntity
8
2
62
256
6
ByLayer
370
13
48
1
60
0
100
AcDbTrace
10
19.654812
20
18.772277
30
0
11
22.727448
21
19.674632
31
0
12
22.856301
22
18.848629
32
0
13
19.654812
23
18.772277
33
0
39
0
210
0
220
0
230
1
0
SOLID
5
31A
100
AcDbEntity
8
2
62
256
6
ByLayer
370
13
48
1
60
0
100
AcDbTrace
10
33.816118
20
34.5
30
0
11
34.074831
21
31.308072
31
0
12
33.239883
22
31.349871
32
0
13
33.816118
23
34.5
33
0
39
0
210
0
220
0
230
1
0
ENDBLK
5
31C
100
AcDbEntity
8
0
100
AcDbBlockEnd
0
ENDSEC
0
SECTION
2
ENTITIES
0
ARC
5
1A5
100
AcDbEntity
8
1
62
256
6
ByLayer
370
13
48
0.05
60
0
100
AcDbCircle
39
0
10
17.206
20
-33.706
30
0
40
0.794000000000056
210
0
220
0
230
1
100
AcDbArc
50
264
51
354
0
ARC
5
1A6
100
AcDbEntity
8
1
62
256
6
ByLayer
370
18
48
1
60
0
100
AcDbCircle
39
0
10
-15.501762
20
10.578878
30
0
40
4.99999999999766
210
0
220
0
230
-1
100
AcDbArc
50
11.98313
51
70
0
ARC
5
1A8
100
AcDbEntity
8
1
62
256
6
ByLayer
370
18
48
1
60
0
100
AcDbCircle
39
0
10
-2.998238
20
29.578878
30
0
40
0.897927405783631
210
0
220
0
230
1
100
AcDbArc
50
9.279246
51
354.279246
0
ARC
5
1A9
100
AcDbEntity
8
1
62
256
6
ByLayer
370
18
48
1
60
0
100
AcDbCircle
39
0
10
2.998238
20
29.578878
30
0
40
0.7
210
0
220
0
230
-1
100
AcDbArc
50
185.720754
51
170.720754
0
CIRCLE
5
1A7
100
AcDbEntity
8
1
62
256
6
ByLayer
370
18
48
1
60
0
100
AcDbCircle
10
2.998238
20
29.578878
30
0
40
1.025
39
0
210
0
220
0
230
-1
0
ELLIPSE
5
1AA
100
AcDbEntity
8
1
62
256
6
ByLayer
370
18
48
1
60
0
100
AcDbEllipse
10
16.595992
20
-17.603434
30
0
11
3.38038220902815
21
6.44283841922556
31
0
210
0
220
0
230
-1
40
0.254449
41
1.63928960641544
42
2.4990669450848
0
ELLIPSE
5
1AB
100
AcDbEntity
8
1
62
256
6
ByLayer
370
18
48
1
60
0
100
AcDbEllipse
10
18.36891
20
-17.603434
30
0
11
0.952252831917474
21
6.49994744297147
31
0
210
0
220
0
230
-1
40
0.027449
41
-1.77602877847941
42
-1.24801744507724
0
ELLIPSE
5
1AC
100
AcDbEntity
8
1
62
256
6
ByLayer
370
18
48
1
60
0
100
AcDbEllipse
10
15.501762
20
-17.273448
30
0
11
4.78152377995732
21
4.78152377995732
31
0
210
0
220
0
230
-1
40
0.305731
41
2.86478552200986
42
-2.84488668075521
0
ELLIPSE
5
1AD
100
AcDbEntity
8
1
62
256
6
ByLayer
370
18
48
1
60
0
100
AcDbEllipse
10
13.607235
20
-28.300391
30
0
11
1.66267676265216
21
1.72538489034276
31
0
210
0
220
0
230
-1
40
0.324691
41
-2.31310661287202
42
-1.14148223050974
0
ELLIPSE
5
1AE
100
AcDbEntity
8
1
62
256
6
ByLayer
370
18
48
1
60
0
100
AcDbEllipse
10
15.501762
20
-20.755406
30
0
11
5
21
0
31
0
210
0
220
0
230
1
40
0.559193
41
3.14159265358979
42
-2.56807954916671
0
ELLIPSE
5
1AF
100
AcDbEntity
8
SK1
62
256
6
ByLayer
370
18
48
1
60
0
100
AcDbEllipse
10
-2.998238
20
-20.519679
30
0
11
-1.025
21
1.25522151266794E-16
31
0
210
0
220
0
230
1
40
0.559193
41
-2.29173395933219
42
2.29173395933219
0
ELLIPSE
5
1B0
100
AcDbEntity
8
1
62
256
6
ByLayer
370
18
48
1
60
0
100
AcDbEllipse
10
17.801762
20
-17.603434
30
0
11
6.21598091376769
21
6.21598091376769
31
0
210
0
220
0
230
-1
40
0.305731
41
2.33507878566009
42
-2.84488668075096
0
ELLIPSE
5
1B1
100
AcDbEntity
8
1
62
256
6
ByLayer
370
18
48
1
60
0
100
AcDbEllipse
10
18.090094
20
-14.583608
30
0
11
-0.745952868288391
21
-0.0778095000133077
31
0
210
0
220
0
230
1
40
0.549512
41
2.97921946794997
42
-2.24353076934617
0
ELLIPSE
5
1B2
100
AcDbEntity
8
1
62
256
6
ByLayer
370
18
48
1
60
0
100
AcDbEllipse
10
18.725271
20
-11.626825
30
0
11
-0.497301912192263
21
-0.051873000008872
31
0
210
0
220
0
230
1
40
0.549512
41
3.01412605298984
42
-3.04216645143054
0
ELLIPSE
5
1B3
100
AcDbEntity
8
1
62
256
6
ByLayer
370
18
48
1
60
0
100
AcDbEllipse
10
18.233254
20
-11.705568
30
0
11
-0.994603824384522
21
-0.103746000017744
31
0
210
0
220
0
230
1
40
0.549512
41
-3.0421664514305
42
-2.88384347434394
0
ELLIPSE
5
1B4
100
AcDbEntity
8
1
62
256
6
ByLayer
370
18
48
1
60
0
100
AcDbEllipse
10
17.053594
20
-20.09817
30
0
11
-0.745952868288391
21
-0.0778095000133077
31
0
210
0
220
0
230
1
40
0.549512
41
2.91101179734039
42
2.97921946794998
0
ELLIPSE
5
1B5
100
AcDbEntity
8
1
62
256
6
ByLayer
370
18
48
1
60
0
100
AcDbEllipse
10
12.35181
20
27.63408
30
0
11
-0.147353774668422
21
1.40197751590065
31
0
210
0
220
0
230
1
40
0.996195
41
0.523598775598294
42
1.5707963267949
0
ELLIPSE
5
1B6
100
AcDbEntity
8
1
62
256
6
ByLayer
370
18
48
1
60
0
100
AcDbEllipse
10
11.338272
20
28.151973
30
0
11
0.133173354414591
21
0.301374772919223
31
0
210
0
220
0
230
-1
40
0.507214
41
0.319332365949451
42
1.57305112799564
0
ELLIPSE
5
1B7
100
AcDbEntity
8
1
62
256
6
ByLayer
370
18
48
1
60
0
100
AcDbEllipse
10
12.35181
20
27.63408
30
0
11
-0.147353774668422
21
1.40197751590065
31
0
210
0
220
0
230
1
40
0.996195
41
1.5707963267949
42
2.6179938779915
0
ELLIPSE
5
1B8
100
AcDbEntity
8
1
62
256
6
ByLayer
370
18
48
1
60
0
100
AcDbEllipse
10
12.35181
20
27.63408
30
0
11
-0.147353774668422
21
1.40197751590065
31
0
210
0
220
0
230
1
40
0.996195
41
-2.61799387799147
42
-1.57079632679489
0
ELLIPSE
5
1B9
100
AcDbEntity
8
1
62
256
6
ByLayer
370
18
48
1
60
0
100
AcDbEllipse
10
12.468825
20
27.646378
30
0
11
-0.112305380934775
21
1.06851432438367
31
0
210
0
220
0
230
1
40
0.996195
41
-1.89899478131321
42
-1.22592464552857
0
ELLIPSE
5
1BA
100
AcDbEntity
8
1
62
256
6
ByLayer
370
18
48
1
60
0
100
AcDbEllipse
10
12.42982
20
27.642279
30
0
11
0.250868311842372
21
-2.38685254888386
31
0
210
0
220
0
230
1
40
0.996195
41
3.55980384351423E-05
42
3.14153014702201
0
ELLIPSE
5
1BB
100
AcDbEntity
8
1
62
256
6
ByLayer
370
18
48
1
60
0
100
AcDbEllipse
10
12.35181
20
27.63408
30
0
11
-0.147353774668422
21
1.40197751590065
31
0
210
0
220
0
230
1
40
0.996195
41
-0.523598775598364
42
0.523598775598294
0
ELLIPSE
5
1BC
100
AcDbEntity
8
1
62
256
6
ByLayer
370
18
48
1
60
0
100
AcDbEllipse
10
12.468825
20
27.646378
30
0
11
-0.112305380934775
21
1.06851432438367
31
0
210
0
220
0
230
1
40
0.996195
41
0.128314548408074
42
1.04719755119665
0
ELLIPSE
5
1BD
100
AcDbEntity
8
1
62
256
6
ByLayer
370
18
48
1
60
0
100
AcDbEllipse
10
12.468825
20
27.646378
30
0
11
-0.112305380934775
21
1.06851432438367
31
0
210
0
220
0
230
1
40
0.996195
41
1.0471975511966
42
2.09439510239321
0
ELLIPSE
5
1BE
100
AcDbEntity
8
1
62
256
6
ByLayer
370
18
48
1
60
0
100
AcDbEllipse
10
11.338272
20
28.151973
30
0
11
0.13317335441737
21
0.301374772911647
31
0
210
0
220
0
230
-1
40
0.507214
41
1.57305112795681
42
2.82676989002029
0
ELLIPSE
5
1BF
100
AcDbEntity
8
1
62
256
6
ByLayer
370
18
48
1
60
0
100
AcDbEllipse
10
11.965968
20
26.511911
30
0
11
0.300051635635537
21
-0.13460240324719
31
0
210
0
220
0
230
-1
40
0.509152
41
0.706725092708296
42
-2.93304503394638
0
ELLIPSE
5
1C0
100
AcDbEntity
8
1
62
256
6
ByLayer
370
18
48
1
60
0
100
AcDbEllipse
10
12.468825
20
27.646378
30
0
11
0.112305380934769
21
-1.06851432438367
31
0
210
0
220
0
230
1
40
0.996195
41
0
42
0.781013460241086
0
ELLIPSE
5
1C1
100
AcDbEntity
8
1
62
256
6
ByLayer
370
18
48
1
60
0
100
AcDbEllipse
10
12.357694
20
27.634698
30
0
11
0.250868311842372
21
-2.38685254888386
31
0
210
0
220
0
230
1
40
0.996195
41
0
42
6.28318530717959
0
ELLIPSE
5
1C2
100
AcDbEntity
8
1
62
256
6
ByLayer
370
18
48
1
60
0
100
AcDbEllipse
10
11.741088
20
28.651505
30
0
11
0.265509374245945
21
0.194045260686854
31
0
210
0
220
0
230
-1
40
0.509152
41
2.93304503394627
42
-0.612689599861895
0
ELLIPSE
5
1C3
100
AcDbEntity
8
1
62
256
6
ByLayer
370
18
48
1
60
0
100
AcDbEllipse
10
12.339001
20
28.881575
30
0
11
0.32674520748209
21
0.0343423051589712
31
0
210
0
220
0
230
-1
40
0.510128
41
0.317077564755008
42
1.5707963267949
0
ELLIPSE
5
1C4
100
AcDbEntity
8
1
62
256
6
ByLayer
370
18
48
1
60
0
100
AcDbEllipse
10
11.468097
20
26.916777
30
0
11
0.192922535711547
21
-0.267100713762083
31
0
210
0
220
0
230
-1
40
0.507214
41
-2.82676989002341
42
-1.57305112797509
0
ELLIPSE
5
1C5
100
AcDbEntity
8
1
62
256
6
ByLayer
370
18
48
1
60
0
100
AcDbEllipse
10
12.468825
20
27.646378
30
0
11
-0.112305380934775
21
1.06851432438367
31
0
210
0
220
0
230
1
40
0.996195
41
2.09439510239313
42
3.14159265358974
0
ELLIPSE
5
1C6
100
AcDbEntity
8
1
62
256
6
ByLayer
370
18
48
1
60
0
100
AcDbEllipse
10
12.59865
20
26.411182
30
0
11
0.326745207481942
21
0.0343423051593017
31
0
210
0
220
0
230
-1
40
0.510128
41
-1.5707963267949
42
-0.317077564753291
0
ELLIPSE
5
1C7
100
AcDbEntity
8
1
62
256
6
ByLayer
370
18
48
1
60
0
100
AcDbEllipse
10
13.196563
20
26.641251
30
0
11
0.265509374245891
21
0.194045260686859
31
0
210
0
220
0
230
-1
40
0.509152
41
2.52890196913079
42
-2.92850617208826
0
ELLIPSE
5
1C8
100
AcDbEntity
8
1
62
256
6
ByLayer
370
18
48
1
60
0
100
AcDbEllipse
10
12.468825
20
27.646378
30
0
11
-0.112305380934775
21
1.06851432438367
31
0
210
0
220
0
230
1
40
0.996195
41
-0.782387088380208
42
-5.310920904078E-14
0
ELLIPSE
5
1C9
100
AcDbEntity
8
1
62
256
6
ByLayer
370
18
48
1
60
0
100
AcDbEllipse
10
12.35181
20
27.63408
30
0
11
-0.147353774668422
21
1.40197751590065
31
0
210
0
220
0
230
1
40
0.996195
41
-1.57079632679489
42
-0.523598775598364
0
ELLIPSE
5
1CA
100
AcDbEntity
8
1
62
256
6
ByLayer
370
18
48
1
60
0
100
AcDbEllipse
10
12.971682
20
28.780846
30
0
11
0.300051635635563
21
-0.134602403247197
31
0
210
0
220
0
230
-1
40
0.509152
41
2.92850617208822
42
-2.43486654220557
0
ELLIPSE
5
1CB
100
AcDbEntity
8
1
62
256
6
ByLayer
370
18
48
1
60
0
100
AcDbEllipse
10
11.468097
20
26.916777
30
0
11
0.192922535699951
21
-0.267100713759988
31
0
210
0
220
0
230
-1
40
0.507214
41
-1.57305112802967
42
-0.319332365954411
0
ELLIPSE
5
1CC
100
AcDbEntity
8
1
62
256
6
ByLayer
370
18
48
1
60
0
100
AcDbEllipse
10
12.35181
20
27.63408
30
0
11
-0.147353774668422
21
1.40197751590065
31
0
210
0
220
0
230
1
40
0.996195
41
2.6179938779915
42
-2.61799387799147
0
ELLIPSE
5
1CD
100
AcDbEntity
8
1
62
256
6
ByLayer
370
18
48
1
60
0
100
AcDbEllipse
10
11.23823
20
27.517038
30
0
11
0.0344734871856554
21
-0.327993321092432
31
0
210
0
220
0
230
-1
40
0.506253
41
0.210870490724082
42
2.93072648561015
0
ELLIPSE
5
1CE
100
AcDbEntity
8
1
62
256
6
ByLayer
370
18
48
1
60
0
100
AcDbEllipse
10
12.35181
20
27.63408
30
0
11
0.156792694901484
21
-1.49178284305241
31
0
210
0
220
0
230
1
40
0.996195
41
0
42
6.28318530717959
0
ELLIPSE
5
1CF
100
AcDbEntity
8
1
62
256
6
ByLayer
370
18
48
1
60
0
100
AcDbEllipse
10
18.096683
20
22.409188
30
0
11
0.0839421959876495
21
-0.798656645777124
31
0
210
0
220
0
230
-1
40
0.086824
41
-0.895664793965072
42
-0.00894402720515886
0
ELLIPSE
5
1D0
100
AcDbEntity
8
1
62
256
6
ByLayer
370
18
48
1
60
0
100
AcDbEllipse
10
-5.298238
20
31.699529
30
0
11
2.09999995200469
21
0.0738931146368576
31
0
210
0
220
0
230
-1
40
0.006076
41
0
42
6.28318530717959
0
ELLIPSE
5
1D1
100
AcDbEntity
8
1
62
256
6
ByLayer
370
18
48
1
60
0
100
AcDbEllipse
10
5.087212
20
32.040081
30
0
11
3.09999992913593
21
0.109080312082549
31
0
210
0
220
0
230
-1
40
0.006076
41
-3.04445296910497
42
-1.71287010354988
0
ELLIPSE
5
1D2
100
AcDbEntity
8
1
62
256
6
ByLayer
370
18
48
1
60
0
100
AcDbEllipse
10
7.414219
20
19.693576
30
0
11
8.80763169902523
21
-86.8874035480984
31
0
210
0
220
0
230
-1
40
0.009125
41
1.61792702338879
42
1.71504289170661
0
ELLIPSE
5
1D3
100
AcDbEntity
8
1
62
256
6
ByLayer
370
18
48
1
60
0
100
AcDbEllipse
10
-1.265502
20
31.873595
30
0
11
1.50000011705873
21
0.0527808016872255
31
0
210
0
220
0
230
-1
40
0.006076
41
1.5997234669766
42
1.74111967805696
0
ELLIPSE
5
1D4
100
AcDbEntity
8
1
62
256
6
ByLayer
370
18
48
1
60
0
100
AcDbEllipse
10
8.302477
20
22.37701
30
0
11
-0.219509772862089
21
2.08849598027337
31
0
210
0
220
0
230
1
40
0.996195
41
1.5707963267949
42
3.0703300060311
0
ELLIPSE
5
1D5
100
AcDbEntity
8
SK1
62
256
6
ByLayer
370
18
48
1
60
0
100
AcDbEllipse
10
-1.265502
20
2.172512
30
0
11
1.49999999999997
21
1.51595858262351E-15
31
0
210
0
220
0
230
-1
40
0.57735
41
-2.15475469657957
42
-1.83892243144174
0
ELLIPSE
5
1D6
100
AcDbEntity
8
1
62
256
6
ByLayer
370
18
48
1
60
0
100
AcDbEllipse
10
8.007692
20
22.346027
30
0
11
0.00234239984109355
21
-2.1000858559063
31
0
210
0
220
0
230
-1
40
0.996112
41
-0.691287505333091
42
1.46759190743315
0
ELLIPSE
5
1D7
100
AcDbEntity
8
1
62
256
6
ByLayer
370
18
48
1
60
0
100
AcDbEllipse
10
17.587832
20
22.400475
30
0
11
0.0487528218740013
21
-0.799276649385648
31
0
210
0
220
0
230
-1
40
0.08699
41
-0.767644440367973
42
-0.0133014049680793
0
ELLIPSE
5
1D8
100
AcDbEntity
8
1
62
256
6
ByLayer
370
18
48
1
60
0
100
AcDbEllipse
10
7.981759
20
22.594679
30
0
11
0.00234239683146938
21
-2.10008585585213
31
0
210
0
220
0
230
-1
40
0.996112
41
1.46759190599167
42
2.13001079618136
0
ELLIPSE
5
1D9
100
AcDbEntity
8
1
62
256
6
ByLayer
370
18
48
1
60
0
100
AcDbEllipse
10
8.276345
20
22.625641
30
0
11
-0.21950977286209
21
2.08849598027338
31
0
210
0
220
0
230
1
40
0.996195
41
0.947386744149122
42
1.57079632679491
0
ELLIPSE
5
1DA
100
AcDbEntity
8
1
62
256
6
ByLayer
370
18
48
1
60
0
100
AcDbEllipse
10
15.80143
20
24.825994
30
0
11
0.0341172799593296
21
-0.324604235719799
31
0
210
0
220
0
230
1
40
0.996195
41
0
42
1.57079632679486
0
ELLIPSE
5
1DB
100
AcDbEntity
8
1
62
256
6
ByLayer
370
18
48
1
60
0
100
AcDbEllipse
10
15.476044
20
33.179826
30
0
11
1.04528463267656
21
-9.94521895368274
31
0
210
0
220
0
230
1
40
0.996195
41
-1.57989695571309
42
-1.5707963267949
0
ELLIPSE
5
1DC
100
AcDbEntity
8
1
62
256
6
ByLayer
370
18
48
1
60
0
100
AcDbEllipse
10
16.560268
20
22.85903
30
0
11
-1.0306645761301
21
9.80611840735786
31
0
210
0
220
0
230
1
40
0.996195
41
1.5707963267949
42
1.57989695571309
0
ELLIPSE
5
1DD
100
AcDbEntity
8
1
62
256
6
ByLayer
370
18
48
1
60
0
100
AcDbEllipse
10
15.515871
20
27.42716
30
0
11
0.199601851976567
21
-0.0126135121011011
31
0
210
0
220
0
230
1
40
0.014613
41
1.48475903989614
42
2.16884027169022
0
ELLIPSE
5
1DE
100
AcDbEntity
8
1
62
256
6
ByLayer
370
18
48
1
60
0
100
AcDbEllipse
10
9.288255
20
22.09471
30
0
11
-1.0306645761301
21
9.80611840735786
31
0
210
0
220
0
230
1
40
0.996195
41
-1.57989695571309
42
-1.5707963267949
0
ELLIPSE
5
1DF
100
AcDbEntity
8
1
62
256
6
ByLayer
370
18
48
1
60
0
100
AcDbEllipse
10
17.906238
20
24.527658
30
0
11
-1.0306645761301
21
9.80611840735786
31
0
210
0
220
0
230
1
40
0.996195
41
-0.00910062891819123
42
-6.51036850584558E-15
0
ELLIPSE
5
1E0
100
AcDbEntity
8
1
62
256
6
ByLayer
370
18
48
1
60
0
100
AcDbEllipse
10
17.138999
20
31.827449
30
0
11
-1.0306645761301
21
9.80611840735786
31
0
210
0
220
0
230
1
40
0.996195
41
3.14159265358979
42
-3.1324920246716
0
ELLIPSE
5
1E1
100
AcDbEntity
8
1
62
256
6
ByLayer
370
18
48
1
60
0
100
AcDbEllipse
10
12.351643
20
27.634062
30
0
11
0.334491082456496
21
-3.18247006517848
31
0
210
0
220
0
230
1
40
0.996195
41
-1.40233808471402
42
-0.168458242080875
0
ELLIPSE
5
1E2
100
AcDbEntity
8
1
62
256
6
ByLayer
370
18
48
1
60
0
100
AcDbEllipse
10
7.67324
20
23.452817
30
0
11
-1.03066457613012
21
9.80611840735804
31
0
210
0
220
0
230
1
40
0.996195
41
0.0189006220049952
42
0.0349065850398791
0
ELLIPSE
5
1E3
100
AcDbEntity
8
1
62
256
6
ByLayer
370
18
48
1
60
0
100
AcDbEllipse
10
12.531956
20
31.024771
30
0
11
-0.0209056926535323
21
0.198904379073654
31
0
210
0
220
0
230
1
40
0.087156
41
-1.57079632679493
42
-0.886715094999597
0
ELLIPSE
5
1E4
100
AcDbEntity
8
1
62
256
6
ByLayer
370
18
48
1
60
0
100
AcDbEllipse
10
6.35235
20
32.860495
30
0
11
-0.0376441750873326
21
0.358160401359421
31
0
210
0
220
0
230
1
40
0.996195
41
0.0349065850399247
42
0.261799387799051
0
ELLIPSE
5
1E5
100
AcDbEntity
8
1
62
256
6
ByLayer
370
18
48
1
60
0
100
AcDbEllipse
10
15.808901
20
24.625677
30
0
11
0.020905692653531
21
-0.198904379073655
31
0
210
0
220
0
230
1
40
0.087156
41
0.88671509499957
42
1.5707963267949
0
ELLIPSE
5
1E6
100
AcDbEntity
8
1
62
256
6
ByLayer
370
18
48
1
60
0
100
AcDbEllipse
10
11.611542
20
22.293145
30
0
11
-0.508022259791793
21
4.8335089305165
31
0
210
0
220
0
230
1
40
0.996195
41
1.57989695571309
42
1.5896969487999
0
ELLIPSE
5
1E7
100
AcDbEntity
8
1
62
256
6
ByLayer
370
18
48
1
60
0
100
AcDbEllipse
10
10.517276
20
32.704392
30
0
11
-0.508022259791793
21
4.83350893051649
31
0
210
0
220
0
230
1
40
0.996195
41
1.5518957047899
42
1.56169569787671
0
ELLIPSE
5
1E8
100
AcDbEntity
8
1
62
256
6
ByLayer
370
18
48
1
60
0
100
AcDbEllipse
10
17.858154
20
24.523294
30
0
11
1.04528463267656
21
-9.94521895368276
31
0
210
0
220
0
230
1
40
0.996195
41
3.10668606854992
42
3.1226920315848
0
ELLIPSE
5
1E9
100
AcDbEntity
8
1
62
256
6
ByLayer
370
18
48
1
60
0
100
AcDbEllipse
10
17.70723
20
26.859839
30
0
11
0.522642316338259
21
-4.97260947684118
31
0
210
0
220
0
230
1
40
0.996195
41
0.00910062891819695
42
0.0189006220049931
0
ELLIPSE
5
1EA
100
AcDbEntity
8
1
62
256
6
ByLayer
370
18
48
1
60
0
100
AcDbEllipse
10
17.194213
20
34.000021
30
0
11
0.052264231633828
21
-0.497260947684138
31
0
210
0
220
0
230
1
40
0.996195
41
2.8797932657907
42
3.1066860685498
0
ELLIPSE
5
1EB
100
AcDbEntity
8
1
62
256
6
ByLayer
370
18
48
1
60
0
100
AcDbEllipse
10
18.232725
20
22.880828
30
0
11
-0.0899084067211656
21
0.855421349043578
31
0
210
0
220
0
230
1
40
0.996195
41
-2.87979326579053
42
-1.83259571459403
0
ELLIPSE
5
1EC
100
AcDbEntity
8
1
62
256
6
ByLayer
370
18
48
1
60
0
100
AcDbEllipse
10
15.146114
20
31.098429
30
0
11
0.0209056926535312
21
-0.198904379073655
31
0
210
0
220
0
230
1
40
0.996195
41
1.57079632679486
42
3.14159265358951
0
ELLIPSE
5
1ED
100
AcDbEntity
8
1
62
256
6
ByLayer
370
18
48
1
60
0
100
AcDbEllipse
10
11.612072
20
22.2932
30
0
11
0.522642316338259
21
-4.97260947684118
31
0
210
0
220
0
230
1
40
0.996195
41
-1.56169569787671
42
-1.5518957047899
0
ELLIPSE
5
1EE
100
AcDbEntity
8
1
62
256
6
ByLayer
370
18
48
1
60
0
100
AcDbEllipse
10
6.858061
20
30.746879
30
0
11
1.04528463267656
21
-9.94521895368274
31
0
210
0
220
0
230
1
40
0.996195
41
-0.00910062891820266
42
-3.56628338708837E-16
0
ELLIPSE
5
1EF
100
AcDbEntity
8
1
62
256
6
ByLayer
370
18
48
1
60
0
100
AcDbEllipse
10
12.555844
20
30.926731
30
0
11
0.0236644336325639
21
-0.225152046182971
31
0
210
0
220
0
230
1
40
0.996195
41
3.14159265358979
42
-0.16845824208095
0
ELLIPSE
5
1F0
100
AcDbEntity
8
1
62
256
6
ByLayer
370
18
48
1
60
0
100
AcDbEllipse
10
12.559744
20
30.927141
30
0
11
0.0104528463267655
21
-0.0994521895368271
31
0
210
0
220
0
230
1
40
0.996195
41
3.14159265358922
42
-0.168458242080639
0
ELLIPSE
5
1F1
100
AcDbEntity
8
1
62
256
6
ByLayer
370
18
48
1
60
0
100
AcDbEllipse
10
17.580919
20
33.685164
30
0
11
-0.0376441750873326
21
0.358160401359421
31
0
210
0
220
0
230
1
40
0.996195
41
-1.535889741755
42
-1.30899693899586
0
ELLIPSE
5
1F2
100
AcDbEntity
8
1
62
256
6
ByLayer
370
18
48
1
60
0
100
AcDbEllipse
10
18.411419
20
22.413986
30
0
11
-0.0376441750873326
21
0.358160401359421
31
0
210
0
220
0
230
1
40
0.996195
41
-3.10668606855003
42
-2.8797932657906
0
ELLIPSE
5
1F3
100
AcDbEntity
8
1
62
256
6
ByLayer
370
18
48
1
60
0
100
AcDbEllipse
10
12.536102
20
30.825529
30
0
11
-0.0128650708014692
21
-0.199585795970738
31
0
210
0
220
0
230
1
40
0.085922
41
0.901382621222447
42
1.5854638530163
0
ELLIPSE
5
1F4
100
AcDbEntity
8
1
62
256
6
ByLayer
370
18
48
1
60
0
100
AcDbEllipse
10
11.473001
20
30.713792
30
0
11
-0.0540801584411734
21
0.192549568846512
31
0
210
0
220
0
230
1
40
0.085922
41
-2.26954508481028
42
-1.58546385301627
0
ELLIPSE
5
1F5
100
AcDbEntity
8
1
62
256
6
ByLayer
370
18
48
1
60
0
100
AcDbEllipse
10
7.057069
20
28.414698
30
0
11
-0.508022259791793
21
4.8335089305165
31
0
210
0
220
0
230
1
40
0.996195
41
0.00910062891820844
42
0.0189006220049988
0
ELLIPSE
5
1F6
100
AcDbEntity
8
1
62
256
6
ByLayer
370
18
48
1
60
0
100
AcDbEllipse
10
9.264908
20
26.770157
30
0
11
-0.192617575984812
21
-0.0538374351333268
31
0
210
0
220
0
230
1
40
0.014613
41
1.65683361369351
42
2.34091484548801
0
ELLIPSE
5
1F7
100
AcDbEntity
8
1
62
256
6
ByLayer
370
18
48
1
60
0
100
AcDbEllipse
10
9.070656
20
27.845551
30
0
11
0.0104528463267655
21
-0.0994521895368265
31
0
210
0
220
0
230
1
40
0.996195
41
-1.5707963267949
42
1.40233808471399
0
ELLIPSE
5
1F8
100
AcDbEntity
8
1
62
256
6
ByLayer
370
18
48
1
60
0
100
AcDbEllipse
10
8.894056
20
30.441311
30
0
11
0.0341172799593296
21
-0.324604235719799
31
0
210
0
220
0
230
1
40
0.996195
41
3.14159265358962
42
-1.57079632679491
0
ELLIPSE
5
1F9
100
AcDbEntity
8
1
62
256
6
ByLayer
370
18
48
1
60
0
100
AcDbEllipse
10
12.392247
20
27.63833
30
0
11
-0.278364087565418
21
2.64845738006431
31
0
210
0
220
0
230
1
40
0.996195
41
-0.926046936998003
42
0
0
ELLIPSE
5
1FA
100
AcDbEntity
8
1
62
256
6
ByLayer
370
18
48
1
60
0
100
AcDbEllipse
10
12.392247
20
27.63833
30
0
11
-0.278364087565418
21
2.64845738006431
31
0
210
0
220
0
230
1
40
0.996195
41
0
42
-2.2155727204214
0
ELLIPSE
5
1FB
100
AcDbEntity
8
1
62
256
6
ByLayer
370
18
48
1
60
0
100
AcDbEllipse
10
15.403708
20
28.494323
30
0
11
-0.192617575984812
21
-0.0538374351333268
31
0
210
0
220
0
230
1
40
0.014613
41
0.972752381897357
42
1.65683361369424
0
ELLIPSE
5
1FC
100
AcDbEntity
8
1
62
256
6
ByLayer
370
18
48
1
60
0
100
AcDbEllipse
10
12.347743
20
27.633652
30
0
11
-0.321279495150718
21
3.05677020853233
31
0
210
0
220
0
230
1
40
0.996195
41
-1.40233808471402
42
-0.168458242080882
0
ELLIPSE
5
1FD
100
AcDbEntity
8
1
62
256
6
ByLayer
370
18
48
1
60
0
100
AcDbEllipse
10
12.347743
20
27.633652
30
0
11
-0.282116967194866
21
2.68416364461171
31
0
210
0
220
0
230
1
40
0.996195
41
0
42
6.28318530717959
0
ELLIPSE
5
1FE
100
AcDbEntity
8
1
62
256
6
ByLayer
370
18
48
1
60
0
100
AcDbEllipse
10
17.428698
20
29.5048
30
0
11
-0.508022259791793
21
4.83350893051649
31
0
210
0
220
0
230
1
40
0.996195
41
-0.0189006220049753
42
-0.00910062891819819
0
ELLIPSE
5
1FF
100
AcDbEntity
8
1
62
256
6
ByLayer
370
18
48
1
60
0
100
AcDbEllipse
10
13.239866
20
24.456211
30
0
11
-0.0104528463267661
21
0.0994521895368264
31
0
210
0
220
0
230
1
40
0.996195
41
0.168458242079555
42
-3.14159265358922
0
ELLIPSE
5
200
100
AcDbEntity
8
1
62
256
6
ByLayer
370
18
48
1
60
0
100
AcDbEllipse
10
6.857532
20
30.746823
30
0
11
-1.0306645761301
21
9.80611840735786
31
0
210
0
220
0
230
1
40
0.996195
41
3.1324920246716
42
-3.14159265358979
0
ELLIPSE
5
201
100
AcDbEntity
8
1
62
256
6
ByLayer
370
18
48
1
60
0
100
AcDbEllipse
10
9.288785
20
22.094766
30
0
11
1.04528463267656
21
-9.94521895368274
31
0
210
0
220
0
230
1
40
0.996195
41
1.5616956978767
42
1.5707963267949
0
ELLIPSE
5
202
100
AcDbEntity
8
1
62
256
6
ByLayer
370
18
48
1
60
0
100
AcDbEllipse
10
12.418643
20
27.641104
30
0
11
-0.264604505792574
21
2.51754370433981
31
0
210
0
220
0
230
1
40
0.996195
41
0
42
6.28318530717959
0
ELLIPSE
5
203
100
AcDbEntity
8
1
62
256
6
ByLayer
370
18
48
1
60
0
100
AcDbEllipse
10
13.232983
20
24.354937
30
0
11
0.020905692653531
21
-0.198904379073655
31
0
210
0
220
0
230
1
40
0.087156
41
0.886715094998222
42
1.5707963267949
0
ELLIPSE
5
204
100
AcDbEntity
8
1
62
256
6
ByLayer
370
18
48
1
60
0
100
AcDbEllipse
10
15.516962
20
28.523085
30
0
11
0.0104528463267655
21
-0.0994521895368265
31
0
210
0
220
0
230
1
40
0.996195
41
-1.40233808471388
42
1.57079632679483
0
ELLIPSE
5
205
100
AcDbEntity
8
1
62
256
6
ByLayer
370
18
48
1
60
0
100
AcDbEllipse
10
17.115956
20
33.506172
30
0
11
-0.0899084067211656
21
0.855421349043578
31
0
210
0
220
0
230
1
40
0.996195
41
-1.30899693899575
42
-0.261799387799146
0
ELLIPSE
5
206
100
AcDbEntity
8
1
62
256
6
ByLayer
370
18
48
1
60
0
100
AcDbEllipse
10
11.435632
20
30.909543
30
0
11
0.020905692653531
21
-0.198904379073655
31
0
210
0
220
0
230
1
40
0.087156
41
1.5707963267949
42
2.25487755859219
0
ELLIPSE
5
207
100
AcDbEntity
8
1
62
256
6
ByLayer
370
18
48
1
60
0
100
AcDbEllipse
10
12.139642
20
24.340573
30
0
11
0.0236644336325639
21
-0.225152046182971
31
0
210
0
220
0
230
1
40
0.996195
41
0
42
2.9731344115091
0
ELLIPSE
5
208
100
AcDbEntity
8
1
62
256
6
ByLayer
370
18
48
1
60
0
100
AcDbEllipse
10
17.429228
20
29.504856
30
0
11
0.522642316338259
21
-4.97260947684118
31
0
210
0
220
0
230
1
40
0.996195
41
3.12269203158478
42
3.13249202467161
0
ELLIPSE
5
209
100
AcDbEntity
8
1
62
256
6
ByLayer
370
18
48
1
60
0
100
AcDbEllipse
10
6.531045
20
32.393653
30
0
11
-0.0899084067211656
21
0.855421349043578
31
0
210
0
220
0
230
1
40
0.996195
41
0.261799387799198
42
1.30899693899575
0
ELLIPSE
5
20A
100
AcDbEntity
8
1
62
256
6
ByLayer
370
18
48
1
60
0
100
AcDbEllipse
10
9.283814
20
22.143508
30
0
11
-1.03066457613012
21
9.80611840735804
31
0
210
0
220
0
230
1
40
0.996195
41
-1.60570291183478
42
-1.58969694879989
0
ELLIPSE
5
20B
100
AcDbEntity
8
1
62
256
6
ByLayer
370
18
48
1
60
0
100
AcDbEllipse
10
17.581448
20
33.68522
30
0
11
0.052264231633828
21
-0.497260947684138
31
0
210
0
220
0
230
1
40
0.996195
41
1.60570291183478
42
1.832595714594
0
ELLIPSE
5
20C
100
AcDbEntity
8
1
62
256
6
ByLayer
370
18
48
1
60
0
100
AcDbEllipse
10
15.513062
20
28.522675
30
0
11
0.0236644336325639
21
-0.225152046182971
31
0
210
0
220
0
230
1
40
0.996195
41
-1.40233808471401
42
1.57079632679488
0
ELLIPSE
5
20D
100
AcDbEntity
8
1
62
256
6
ByLayer
370
18
48
1
60
0
100
AcDbEllipse
10
12.347743
20
27.633652
30
0
11
-0.321279495150718
21
3.05677020853233
31
0
210
0
220
0
230
1
40
0.996195
41
0.168458242080878
42
1.40233808471402
0
ELLIPSE
5
20E
100
AcDbEntity
8
1
62
256
6
ByLayer
370
18
48
1
60
0
100
AcDbEllipse
10
16.560797
20
22.859085
30
0
11
1.04528463267656
21
-9.94521895368274
31
0
210
0
220
0
230
1
40
0.996195
41
-1.5707963267949
42
-1.5616956978767
0
ELLIPSE
5
20F
100
AcDbEntity
8
1
62
256
6
ByLayer
370
18
48
1
60
0
100
AcDbEllipse
10
9.182424
20
26.744629
30
0
11
0.0236644336325639
21
-0.225152046182971
31
0
210
0
220
0
230
1
40
0.996195
41
1.73925456887579
42
-1.57079632679494
0
ELLIPSE
5
210
100
AcDbEntity
8
1
62
256
6
ByLayer
370
18
48
1
60
0
100
AcDbEllipse
10
15.63263
20
27.422573
30
0
11
-0.0104528463267661
21
0.0994521895368271
31
0
210
0
220
0
230
1
40
0.996195
41
-1.57079632679497
42
1.40233808471388
0
ELLIPSE
5
211
100
AcDbEntity
8
1
62
256
6
ByLayer
370
18
48
1
60
0
100
AcDbEllipse
10
7.335071
20
25.769681
30
0
11
-0.508022259791793
21
4.83350893051649
31
0
210
0
220
0
230
1
40
0.996195
41
3.12269203158482
42
3.13249202467161
0
ELLIPSE
5
212
100
AcDbEntity
8
1
62
256
6
ByLayer
370
18
48
1
60
0
100
AcDbEllipse
10
6.039557
20
32.472118
30
0
11
0.052264231633828
21
-0.497260947684138
31
0
210
0
220
0
230
1
40
0.996195
41
-1.83259571459397
42
-1.60570291183476
0
ELLIPSE
5
213
100
AcDbEntity
8
1
62
256
6
ByLayer
370
18
48
1
60
0
100
AcDbEllipse
10
11.463421
20
30.811913
30
0
11
0.0104528463267655
21
-0.0994521895368271
31
0
210
0
220
0
230
1
40
0.996195
41
0.168458242081217
42
3.14159265358922
0
ELLIPSE
5
214
100
AcDbEntity
8
1
62
256
6
ByLayer
370
18
48
1
60
0
100
AcDbEllipse
10
7.335601
20
25.769737
30
0
11
0.522642316338259
21
-4.97260947684118
31
0
210
0
220
0
230
1
40
0.996195
41
-0.0189006220049924
42
-0.00910062891819837
0
ELLIPSE
5
215
100
AcDbEntity
8
1
62
256
6
ByLayer
370
18
48
1
60
0
100
AcDbEllipse
10
9.186325
20
26.745039
30
0
11
-0.0104528463267661
21
0.0994521895368264
31
0
210
0
220
0
230
1
40
0.996195
41
-1.40233808471406
42
1.5707963267949
0
ELLIPSE
5
216
100
AcDbEntity
8
1
62
256
6
ByLayer
370
18
48
1
60
0
100
AcDbEllipse
10
8.897956
20
30.441721
30
0
11
0.0209056926535312
21
-0.198904379073655
31
0
210
0
220
0
230
1
40
0.996195
41
-3.14159265358922
42
-1.57079632679491
0
ELLIPSE
5
217
100
AcDbEntity
8
1
62
256
6
ByLayer
370
18
48
1
60
0
100
AcDbEllipse
10
9.557172
20
24.169696
30
0
11
-0.0209056926535323
21
0.198904379073655
31
0
210
0
220
0
230
1
40
0.996195
41
1.57079632679488
42
-3.14159265358951
0
ELLIPSE
5
218
100
AcDbEntity
8
1
62
256
6
ByLayer
370
18
48
1
60
0
100
AcDbEllipse
10
15.480486
20
33.131028
30
0
11
1.04528463267656
21
-9.94521895368276
31
0
210
0
220
0
230
1
40
0.996195
41
-1.60570291183478
42
-1.58969694879989
0
ELLIPSE
5
219
100
AcDbEntity
8
1
62
256
6
ByLayer
370
18
48
1
60
0
100
AcDbEllipse
10
8.204031
20
32.415507
30
0
11
1.04528463267656
21
-9.94521895368274
31
0
210
0
220
0
230
1
40
0.996195
41
1.5707963267949
42
1.57989695571309
0
ELLIPSE
5
21A
100
AcDbEntity
8
1
62
256
6
ByLayer
370
18
48
1
60
0
100
AcDbEllipse
10
7.648343
20
21.768364
30
0
11
0.104528463267656
21
-0.994521895368273
31
0
210
0
220
0
230
1
40
0.996195
41
-1.30899693899574
42
-0.261799387799108
0
ELLIPSE
5
21B
100
AcDbEntity
8
1
62
256
6
ByLayer
370
18
48
1
60
0
100
AcDbEllipse
10
9.152745
20
27.83732
30
0
11
-0.199601851976567
21
0.0126135121011009
31
0
210
0
220
0
230
1
40
0.014613
41
-2.34091484548968
42
-1.6568336136937
0
ELLIPSE
5
21C
100
AcDbEntity
8
1
62
256
6
ByLayer
370
18
48
1
60
0
100
AcDbEllipse
10
12.143543
20
24.340983
30
0
11
-0.0104528463267661
21
0.0994521895368271
31
0
210
0
220
0
230
1
40
0.996195
41
3.14159265358979
42
-0.168458242081794
0
ELLIPSE
5
21D
100
AcDbEntity
8
1
62
256
6
ByLayer
370
18
48
1
60
0
100
AcDbEllipse
10
18.724742
20
22.802419
30
0
11
-0.0376441750873326
21
0.358160401359421
31
0
210
0
220
0
230
1
40
0.996195
41
-1.83259571459397
42
-1.60570291183475
0
ELLIPSE
5
21E
100
AcDbEntity
8
1
62
256
6
ByLayer
370
18
48
1
60
0
100
AcDbEllipse
10
7.570086
20
21.274516
30
0
11
-0.0376441750873326
21
0.358160401359421
31
0
210
0
220
0
230
1
40
0.996195
41
2.87979326579076
42
3.10668606854987
0
ELLIPSE
5
21F
100
AcDbEntity
8
1
62
256
6
ByLayer
370
18
48
1
60
0
100
AcDbEllipse
10
8.209832
20
32.366852
30
0
11
1.04528463267656
21
-9.94521895368276
31
0
210
0
220
0
230
1
40
0.996195
41
1.58969694879989
42
1.60570291183478
0
ELLIPSE
5
220
100
AcDbEntity
8
1
62
256
6
ByLayer
370
18
48
1
60
0
100
AcDbEllipse
10
13.152757
20
32.981392
30
0
11
0.522642316338259
21
-4.97260947684118
31
0
210
0
220
0
230
1
40
0.996195
41
1.57989695571309
42
1.58969694879989
0
ELLIPSE
5
221
100
AcDbEntity
8
1
62
256
6
ByLayer
370
18
48
1
60
0
100
AcDbEllipse
10
7.6253
20
23.447088
30
0
11
1.04528463267656
21
-9.94521895368274
31
0
210
0
220
0
230
1
40
0.996195
41
3.14159265358978
42
-3.13249202467161
0
ELLIPSE
5
222
100
AcDbEntity
8
1
62
256
6
ByLayer
370
18
48
1
60
0
100
AcDbEllipse
10
6.906145
20
30.751243
30
0
11
-1.03066457613012
21
9.80611840735804
31
0
210
0
220
0
230
1
40
0.996195
41
3.1066860685499
42
3.1226920315848
0
ELLIPSE
5
223
100
AcDbEntity
8
1
62
256
6
ByLayer
370
18
48
1
60
0
100
AcDbEllipse
10
6.531574
20
32.393709
30
0
11
0.104528463267656
21
-0.994521895368273
31
0
210
0
220
0
230
1
40
0.996195
41
-2.87979326579063
42
-1.83259571459402
0
ELLIPSE
5
224
100
AcDbEntity
8
1
62
256
6
ByLayer
370
18
48
1
60
0
100
AcDbEllipse
10
8.203502
20
32.415451
30
0
11
-1.0306645761301
21
9.80611840735786
31
0
210
0
220
0
230
1
40
0.996195
41
-1.5707963267949
42
-1.5616956978767
0
ELLIPSE
5
225
100
AcDbEntity
8
1
62
256
6
ByLayer
370
18
48
1
60
0
100
AcDbEllipse
10
8.209303
20
32.366796
30
0
11
-1.03066457613012
21
9.80611840735804
31
0
210
0
220
0
230
1
40
0.996195
41
-1.5518957047899
42
-1.53588974175501
0
ELLIPSE
5
226
100
AcDbEntity
8
1
62
256
6
ByLayer
370
18
48
1
60
0
100
AcDbEllipse
10
9.560743
20
23.968969
30
0
11
0.020905692653531
21
-0.198904379073655
31
0
210
0
220
0
230
1
40
0.087156
41
0.886715095001758
42
1.57079632679486
0
ELLIPSE
5
227
100
AcDbEntity
8
1
62
256
6
ByLayer
370
18
48
1
60
0
100
AcDbEllipse
10
18.233254
20
22.880884
30
0
11
0.104528463267656
21
-0.994521895368273
31
0
210
0
220
0
230
1
40
0.996195
41
0.261799387799223
42
1.30899693899576
0
ELLIPSE
5
228
100
AcDbEntity
8
1
62
256
6
ByLayer
370
18
48
1
60
0
100
AcDbEllipse
10
13.195615
20
24.550688
30
0
11
0.0540801584411731
21
-0.192549568846512
31
0
210
0
220
0
230
1
40
0.085922
41
1.5561288005735
42
2.2402100323674
0
ELLIPSE
5
229
100
AcDbEntity
8
1
62
256
6
ByLayer
370
18
48
1
60
0
100
AcDbEllipse
10
17.906767
20
24.527714
30
0
11
1.04528463267656
21
-9.94521895368274
31
0
210
0
220
0
230
1
40
0.996195
41
3.13249202467161
42
3.14159265358979
0
ELLIPSE
5
22A
100
AcDbEntity
8
1
62
256
6
ByLayer
370
18
48
1
60
0
100
AcDbEllipse
10
17.857625
20
24.523239
30
0
11
-1.03066457613012
21
9.80611840735804
31
0
210
0
220
0
230
1
40
0.996195
41
-0.034906585039891
42
-0.0189006220049959
0
ELLIPSE
5
22B
100
AcDbEntity
8
1
62
256
6
ByLayer
370
18
48
1
60
0
100
AcDbEllipse
10
12.347743
20
27.633652
30
0
11
-0.321279495150718
21
3.05677020853233
31
0
210
0
220
0
230
1
40
0.996195
41
-2.9731344115089
42
-1.73925456887578
0
ELLIPSE
5
22C
100
AcDbEntity
8
1
62
256
6
ByLayer
370
18
48
1
60
0
100
AcDbEllipse
10
12.347743
20
27.633652
30
0
11
-0.321279495150718
21
3.05677020853233
31
0
210
0
220
0
230
1
40
0.996195
41
1.73925456887577
42
2.97313441150889
0
ELLIPSE
5
22D
100
AcDbEntity
8
1
62
256
6
ByLayer
370
18
48
1
60
0
100
AcDbEllipse
10
15.479956
20
33.130973
30
0
11
-1.03066457613012
21
9.80611840735804
31
0
210
0
220
0
230
1
40
0.996195
41
1.53588974175501
42
1.5518957047899
0
ELLIPSE
5
22E
100
AcDbEntity
8
1
62
256
6
ByLayer
370
18
48
1
60
0
100
AcDbEllipse
10
18.725271
20
22.802474
30
0
11
0.052264231633828
21
-0.497260947684138
31
0
210
0
220
0
230
1
40
0.996195
41
1.3089969389958
42
1.53588974175504
0
ELLIPSE
5
22F
100
AcDbEntity
8
1
62
256
6
ByLayer
370
18
48
1
60
0
100
AcDbEllipse
10
17.091059
20
31.82172
30
0
11
1.04528463267656
21
-9.94521895368276
31
0
210
0
220
0
230
1
40
0.996195
41
0.0189006220049923
42
0.0349065850398784
0
ELLIPSE
5
230
100
AcDbEntity
8
1
62
256
6
ByLayer
370
18
48
1
60
0
100
AcDbEllipse
10
8.859715
20
30.638803
30
0
11
-0.0209056926535323
21
0.198904379073654
31
0
210
0
220
0
230
1
40
0.087156
41
-1.5707963267949
42
-0.886715094999577
0
ELLIPSE
5
231
100
AcDbEntity
8
1
62
256
6
ByLayer
370
18
48
1
60
0
100
AcDbEllipse
10
17.706701
20
26.859784
30
0
11
-0.508022259791793
21
4.8335089305165
31
0
210
0
220
0
230
1
40
0.996195
41
-3.13249202467161
42
-3.12269203158479
0
ELLIPSE
5
232
100
AcDbEntity
8
1
62
256
6
ByLayer
370
18
48
1
60
0
100
AcDbEllipse
10
9.066756
20
27.845141
30
0
11
0.0236644336325639
21
-0.225152046182971
31
0
210
0
220
0
230
1
40
0.996195
41
-1.57079632679493
42
1.40233808471404
0
ELLIPSE
5
233
100
AcDbEntity
8
1
62
256
6
ByLayer
370
18
48
1
60
0
100
AcDbEllipse
10
17.139528
20
31.827504
30
0
11
1.04528463267656
21
-9.94521895368274
31
0
210
0
220
0
230
1
40
0.996195
41
0
42
0.00910062891818483
0
ELLIPSE
5
234
100
AcDbEntity
8
1
62
256
6
ByLayer
370
18
48
1
60
0
100
AcDbEllipse
10
12.132513
20
24.438951
30
0
11
-0.0128650708014692
21
-0.199585795970738
31
0
210
0
220
0
230
1
40
0.085922
41
1.58546385301628
42
2.26954508480807
0
ELLIPSE
5
235
100
AcDbEntity
8
1
62
256
6
ByLayer
370
18
48
1
60
0
100
AcDbEllipse
10
16.554996
20
22.907741
30
0
11
1.04528463267656
21
-9.94521895368276
31
0
210
0
220
0
230
1
40
0.996195
41
-1.5518957047899
42
-1.53588974175501
0
ELLIPSE
5
236
100
AcDbEntity
8
1
62
256
6
ByLayer
370
18
48
1
60
0
100
AcDbEllipse
10
18.411949
20
22.414042
30
0
11
0.052264231633828
21
-0.497260947684138
31
0
210
0
220
0
230
1
40
0.996195
41
0.0349065850397755
42
0.261799387798886
0
ELLIPSE
5
237
100
AcDbEntity
8
1
62
256
6
ByLayer
370
18
48
1
60
0
100
AcDbEllipse
10
10.517805
20
32.704448
30
0
11
0.522642316338259
21
-4.97260947684118
31
0
210
0
220
0
230
1
40
0.996195
41
-1.58969694879989
42
-1.57989695571309
0
ELLIPSE
5
238
100
AcDbEntity
8
1
62
256
6
ByLayer
370
18
48
1
60
0
100
AcDbEllipse
10
12.351643
20
27.634062
30
0
11
-0.334491082456517
21
3.18247006517847
31
0
210
0
220
0
230
1
40
0.996195
41
0.168458242080891
42
1.40233808471403
0
ELLIPSE
5
239
100
AcDbEntity
8
1
62
256
6
ByLayer
370
18
48
1
60
0
100
AcDbEllipse
10
15.142214
20
31.098019
30
0
11
0.0341172799593296
21
-0.324604235719799
31
0
210
0
220
0
230
1
40
0.996195
41
1.57079632679491
42
3.14159265358962
0
ELLIPSE
5
23A
100
AcDbEntity
8
1
62
256
6
ByLayer
370
18
48
1
60
0
100
AcDbEllipse
10
13.152227
20
32.981337
30
0
11
-0.508022259791793
21
4.8335089305165
31
0
210
0
220
0
230
1
40
0.996195
41
-1.5616956978767
42
-1.5518957047899
0
ELLIPSE
5
23B
100
AcDbEntity
8
1
62
256
6
ByLayer
370
18
48
1
60
0
100
AcDbEllipse
10
14.247023
20
22.570145
30
0
11
0.522642316338259
21
-4.97260947684118
31
0
210
0
220
0
230
1
40
0.996195
41
1.5518957047899
42
1.56169569787671
0
ELLIPSE
5
23C
100
AcDbEntity
8
1
62
256
6
ByLayer
370
18
48
1
60
0
100
AcDbEllipse
10
6.35288
20
32.860551
30
0
11
0.052264231633828
21
-0.497260947684138
31
0
210
0
220
0
230
1
40
0.996195
41
-3.10668606854991
42
-2.8797932657908
0
ELLIPSE
5
23D
100
AcDbEntity
8
1
62
256
6
ByLayer
370
18
48
1
60
0
100
AcDbEllipse
10
7.057598
20
28.414753
30
0
11
0.522642316338259
21
-4.97260947684118
31
0
210
0
220
0
230
1
40
0.996195
41
-3.13249202467161
42
-3.12269203158482
0
ELLIPSE
5
23E
100
AcDbEntity
8
1
62
256
6
ByLayer
370
18
48
1
60
0
100
AcDbEllipse
10
7.673769
20
23.452872
30
0
11
1.04528463267656
21
-9.94521895368276
31
0
210
0
220
0
230
1
40
0.996195
41
-3.1226920315848
42
-3.1066860685499
0
ELLIPSE
5
23F
100
AcDbEntity
8
1
62
256
6
ByLayer
370
18
48
1
60
0
100
AcDbEllipse
10
7.18338
20
21.589373
30
0
11
0.052264231633828
21
-0.497260947684138
31
0
210
0
220
0
230
1
40
0.996195
41
-1.53588974175501
42
-1.30899693899586
0
ELLIPSE
5
240
100
AcDbEntity
8
1
62
256
6
ByLayer
370
18
48
1
60
0
100
AcDbEllipse
10
17.09053
20
31.821665
30
0
11
-1.03066457613012
21
9.80611840735804
31
0
210
0
220
0
230
1
40
0.996195
41
-3.12269203158479
42
-3.10668606854991
0
ELLIPSE
5
241
100
AcDbEntity
8
1
62
256
6
ByLayer
370
18
48
1
60
0
100
AcDbEllipse
10
12.351643
20
27.634062
30
0
11
0.334491082456496
21
-3.18247006517848
31
0
210
0
220
0
230
1
40
0.996195
41
0.168458242080909
42
1.40233808471402
0
ELLIPSE
5
242
100
AcDbEntity
8
1
62
256
6
ByLayer
370
18
48
1
60
0
100
AcDbEllipse
10
14.246494
20
22.570089
30
0
11
-0.508022259791793
21
4.83350893051649
31
0
210
0
220
0
230
1
40
0.996195
41
-1.58969694879989
42
-1.57989695571309
0
ELLIPSE
5
243
100
AcDbEntity
8
1
62
256
6
ByLayer
370
18
48
1
60
0
100
AcDbEllipse
10
7.570615
20
21.274572
30
0
11
0.052264231633828
21
-0.497260947684138
31
0
210
0
220
0
230
1
40
0.996195
41
-0.261799387798996
42
-0.0349065850397756
0
ELLIPSE
5
244
100
AcDbEntity
8
1
62
256
6
ByLayer
370
18
48
1
60
0
100
AcDbEllipse
10
11.45952
20
30.811503
30
0
11
0.0236644336325639
21
-0.225152046182971
31
0
210
0
220
0
230
1
40
0.996195
41
0.168458242080694
42
-3.14159265358954
0
ELLIPSE
5
245
100
AcDbEntity
8
1
62
256
6
ByLayer
370
18
48
1
60
0
100
AcDbEllipse
10
9.284343
20
22.143564
30
0
11
1.04528463267656
21
-9.94521895368276
31
0
210
0
220
0
230
1
40
0.996195
41
1.53588974175501
42
1.5518957047899
0
ELLIPSE
5
246
100
AcDbEntity
8
1
62
256
6
ByLayer
370
18
48
1
60
0
100
AcDbEllipse
10
7.182851
20
21.589317
30
0
11
-0.0376441750873326
21
0.358160401359421
31
0
210
0
220
0
230
1
40
0.996195
41
1.60570291183483
42
1.83259571459406
0
ELLIPSE
5
247
100
AcDbEntity
8
1
62
256
6
ByLayer
370
18
48
1
60
0
100
AcDbEllipse
10
6.039028
20
32.472063
30
0
11
-0.0376441750873326
21
0.358160401359421
31
0
210
0
220
0
230
1
40
0.996195
41
1.30899693899584
42
1.53588974175504
0
ELLIPSE
5
248
100
AcDbEntity
8
1
62
256
6
ByLayer
370
18
48
1
60
0
100
AcDbEllipse
10
17.116486
20
33.506228
30
0
11
0.104528463267656
21
-0.994521895368273
31
0
210
0
220
0
230
1
40
0.996195
41
1.83259571459403
42
2.87979326579063
0
ELLIPSE
5
249
100
AcDbEntity
8
1
62
256
6
ByLayer
370
18
48
1
60
0
100
AcDbEllipse
10
15.475514
20
33.179771
30
0
11
-1.0306645761301
21
9.80611840735786
31
0
210
0
220
0
230
1
40
0.996195
41
1.5616956978767
42
1.5707963267949
0
ELLIPSE
5
24A
100
AcDbEntity
8
1
62
256
6
ByLayer
370
18
48
1
60
0
100
AcDbEllipse
10
6.906674
20
30.751298
30
0
11
1.04528463267656
21
-9.94521895368276
31
0
210
0
220
0
230
1
40
0.996195
41
-0.0349065850398841
42
-0.0189006220049988
0
ELLIPSE
5
24B
100
AcDbEntity
8
1
62
256
6
ByLayer
370
18
48
1
60
0
100
AcDbEllipse
10
7.647813
20
21.768309
30
0
11
-0.0899084067211656
21
0.855421349043578
31
0
210
0
220
0
230
1
40
0.996195
41
1.83259571459408
42
2.87979326579072
0
ELLIPSE
5
24C
100
AcDbEntity
8
1
62
256
6
ByLayer
370
18
48
1
60
0
100
AcDbEllipse
10
12.351643
20
27.634062
30
0
11
-0.334491082456517
21
3.18247006517847
31
0
210
0
220
0
230
1
40
0.996195
41
-1.40233808471402
42
-0.168458242080857
0
ELLIPSE
5
24D
100
AcDbEntity
8
1
62
256
6
ByLayer
370
18
48
1
60
0
100
AcDbEllipse
10
7.624771
20
23.447032
30
0
11
-1.0306645761301
21
9.80611840735786
31
0
210
0
220
0
230
1
40
0.996195
41
0
42
0.00910062891819629
0
ELLIPSE
5
24E
100
AcDbEntity
8
1
62
256
6
ByLayer
370
18
48
1
60
0
100
AcDbEllipse
10
17.193684
20
33.999965
30
0
11
-0.0376441750873326
21
0.358160401359421
31
0
210
0
220
0
230
1
40
0.996195
41
-0.261799387799194
42
-0.0349065850400834
0
ELLIPSE
5
24F
100
AcDbEntity
8
1
62
256
6
ByLayer
370
18
48
1
60
0
100
AcDbEllipse
10
15.62873
20
27.422164
30
0
11
0.0236644336325639
21
-0.225152046182971
31
0
210
0
220
0
230
1
40
0.996195
41
1.5707963267949
42
-1.73925456887586
0
ELLIPSE
5
250
100
AcDbEntity
8
1
62
256
6
ByLayer
370
18
48
1
60
0
100
AcDbEllipse
10
13.235966
20
24.455801
30
0
11
0.0236644336325639
21
-0.225152046182971
31
0
210
0
220
0
230
1
40
0.996195
41
-2.97313441150884
42
0
0
ELLIPSE
5
251
100
AcDbEntity
8
1
62
256
6
ByLayer
370
18
48
1
60
0
100
AcDbEllipse
10
16.554467
20
22.907685
30
0
11
-1.03066457613012
21
9.80611840735804
31
0
210
0
220
0
230
1
40
0.996195
41
1.58969694879989
42
1.60570291183478
0
ELLIPSE
5
252
100
AcDbEntity
8
1
62
256
6
ByLayer
370
18
48
1
60
0
100
AcDbEllipse
10
9.553272
20
24.169286
30
0
11
0.0341172799593296
21
-0.324604235719799
31
0
210
0
220
0
230
1
40
0.996195
41
-1.57079632679491
42
0
0
ELLIPSE
5
253
100
AcDbEntity
8
1
62
256
6
ByLayer
370
18
48
1
60
0
100
AcDbEllipse
10
12.13666
20
24.239709
30
0
11
-0.0209056926535323
21
0.198904379073654
31
0
210
0
220
0
230
1
40
0.087156
41
-2.25487755859022
42
-1.5707963267949
0
ELLIPSE
5
254
100
AcDbEntity
8
1
62
256
6
ByLayer
370
18
48
1
60
0
100
AcDbEllipse
10
15.107873
20
31.295511
30
0
11
0.020905692653531
21
-0.198904379073655
31
0
210
0
220
0
230
1
40
0.087156
41
1.57079632679483
42
2.25487755859021
0
ELLIPSE
5
255
100
AcDbEntity
8
1
62
256
6
ByLayer
370
18
48
1
60
0
100
AcDbEllipse
10
15.805331
20
24.826403
30
0
11
-0.0209056926535323
21
0.198904379073655
31
0
210
0
220
0
230
1
40
0.996195
41
3.14159265358979
42
-1.57079632679491
0
ELLIPSE
5
256
100
AcDbEntity
8
1
62
256
6
ByLayer
370
18
48
1
60
0
100
AcDbEllipse
10
-5.298238
20
-11.890419
30
0
11
-2
21
2.44921270764475E-16
31
0
210
0
220
0
230
1
40
0.898794
41
0.339586783350991
42
2.21433192848712
0
ELLIPSE
5
257
100
AcDbEntity
8
1
62
256
6
ByLayer
370
18
48
1
60
0
100
AcDbEllipse
10
-5.298238
20
-12.021931
30
0
11
1.7
21
0
31
0
210
0
220
0
230
1
40
0.898794
41
-3.02427393921815
42
-0.787165505475392
0
ELLIPSE
5
258
100
AcDbEntity
8
1
62
256
6
ByLayer
370
18
48
1
60
0
100
AcDbEllipse
10
-1.265502
20
-8.669579
30
0
11
1.49636405320037
21
-0.116615886103455
31
0
210
0
220
0
230
-1
40
0.895051
41
1.52986857298779
42
1.67126479885583
0
ELLIPSE
5
259
100
AcDbEntity
8
1
62
256
6
ByLayer
370
18
48
1
60
0
100
AcDbEllipse
10
15.501762
20
7.676003
30
0
11
4.87185032407554
21
-4.87185032407554
31
0
210
0
220
0
230
-1
40
0.230868
41
2.34118674641915
42
2.91469985083034
0
ELLIPSE
5
25A
100
AcDbEntity
8
SK1
62
256
6
ByLayer
370
18
48
1
60
0
100
AcDbEllipse
10
-2.998238
20
-8.652315
30
0
11
1.025
21
0
31
0
210
0
220
0
230
1
40
0.438371
41
0.849858694257602
42
-0.849858694257605
0
ELLIPSE
5
25B
100
AcDbEntity
8
1
62
256
6
ByLayer
370
18
48
1
60
0
100
AcDbEllipse
10
13.607235
20
1.965658
30
0
11
1.70113919759937
21
-1.72669037020099
31
0
210
0
220
0
230
-1
40
0.248736
41
-2.88540070023786
42
-1.71377631786407
0
ELLIPSE
5
25C
100
AcDbEntity
8
1
62
256
6
ByLayer
370
18
48
1
60
0
100
AcDbEllipse
10
5.087212
20
-17.169655
30
0
11
3.09248572448507
21
-0.241006163059544
31
0
210
0
220
0
230
-1
40
0.895051
41
-3.11430784363087
42
-1.78272497807826
0
ELLIPSE
5
25D
100
AcDbEntity
8
1
62
256
6
ByLayer
370
18
48
1
60
0
100
AcDbEllipse
10
-5.298238
20
-13.346097
30
0
11
2.09490968433138
21
-0.163262239504947
31
0
210
0
220
0
230
-1
40
0.895051
41
0
42
6.28318530717959
0
ELLIPSE
5
25E
100
AcDbEntity
8
1
62
256
6
ByLayer
370
18
48
1
60
0
100
AcDbEllipse
10
18.36891
20
3.855293
30
0
11
0.324338890125339
21
-6.499840368004
31
0
210
0
220
0
230
-1
40
0.140453
41
0.203806942843478
42
0.731818276216703
0
ELLIPSE
5
25F
100
AcDbEntity
8
SK1
62
256
6
ByLayer
370
18
48
1
60
0
100
AcDbEllipse
10
-2.998238
20
-8.250447
30
0
11
1.00229349429496
21
-0.689375505769289
31
0
210
0
220
0
230
-1
40
0.311227
41
0.276318818057382
42
0.638979745229816
0
ELLIPSE
5
260
100
AcDbEntity
8
1
62
256
6
ByLayer
370
18
48
1
60
0
100
AcDbEllipse
10
16.595992
20
3.855293
30
0
11
3.52456531485848
21
-6.46115449366454
31
0
210
0
220
0
230
-1
40
0.20132
41
0.834191711812996
42
1.69396905048125
0
ELLIPSE
5
261
100
AcDbEntity
8
SK1
62
256
6
ByLayer
370
18
48
1
60
0
100
AcDbEllipse
10
-1.265502
20
4.350518
30
0
11
-1.05795678939199E-16
21
1.72783161885414
31
0
210
0
220
0
230
-1
40
0.86814
41
-2.90064482834079
42
-2.55763428380512
0
ELLIPSE
5
262
100
AcDbEntity
8
1
62
256
6
ByLayer
370
18
48
1
60
0
100
AcDbEllipse
10
18.327597
20
-8.414835
30
0
11
0.0995488499138844
21
0.794394502322532
31
0
210
0
220
0
230
-1
40
0.055513
41
-0.463348631865239
42
1.10744769490861
0
ELLIPSE
5
263
100
AcDbEntity
8
1
62
256
6
ByLayer
370
18
48
1
60
0
100
AcDbEllipse
10
-1.265502
20
-8.554329
30
0
11
1.48590652782247
21
-0.211113227223412
31
0
210
0
220
0
230
-1
40
0.971699
41
-0.862227476400222
42
1.46232074303262
0
ELLIPSE
5
264
100
AcDbEntity
8
1
62
256
6
ByLayer
370
18
48
1
60
0
100
AcDbEllipse
10
7.057093
20
-11.648464
30
0
11
0.777956144166401
21
-0.186519625128589
31
0
210
0
220
0
230
-1
40
0.893867
41
3.01774232027229
42
-1.69464666011202
0
ELLIPSE
5
265
100
AcDbEntity
8
1
62
256
6
ByLayer
370
18
48
1
60
0
100
AcDbEllipse
10
4.35787
20
-17.391441
30
0
11
1.61284950129477
21
13.7347171155065
31
0
210
0
220
0
230
-1
40
0.433796
41
-0.0333037023192076
42
0.0375828711916496
0
ELLIPSE
5
266
100
AcDbEntity
8
SK1
62
256
6
ByLayer
370
18
48
1
60
0
100
AcDbEllipse
10
-2.998238
20
-8.250447
30
0
11
1.00229349396664
21
-0.689375505542492
31
0
210
0
220
0
230
-1
40
0.311227
41
-1.06073764329434
42
-0.698076716045928
0
ELLIPSE
5
267
100
AcDbEntity
8
1
62
256
6
ByLayer
370
18
48
1
60
0
100
AcDbEllipse
10
6.137882
20
-14.62311
30
0
11
0.777956144185515
21
-0.186519625205195
31
0
210
0
220
0
230
-1
40
0.893867
41
-3.12116269129507
42
-2.36977819314593
0
ELLIPSE
5
268
100
AcDbEntity
8
1
62
256
6
ByLayer
370
18
48
1
60
0
100
AcDbEllipse
10
-1.265502
20
-8.554329
30
0
11
1.48590652812675
21
-0.21111322610597
31
0
210
0
220
0
230
-1
40
0.971699
41
1.60371696902995
42
2.01756579013744
0
ELLIPSE
5
269
100
AcDbEntity
8
1
62
256
6
ByLayer
370
18
48
1
60
0
100
AcDbEllipse
10
17.801762
20
3.855293
30
0
11
6.33340542109803
21
-6.33340542109803
31
0
210
0
220
0
230
-1
40
0.230868
41
1.81148001006071
42
2.91469985083097
0
ELLIPSE
5
26A
100
AcDbEntity
8
1
62
256
6
ByLayer
370
18
48
1
60
0
100
AcDbEllipse
10
5.087212
20
-17.18487
30
0
11
3.03729276976083
21
-0.697522535932002
31
0
210
0
220
0
230
-1
40
0.889383
41
-1.77792580867335
42
-1.68452969690798
0
ELLIPSE
5
26B
100
AcDbEntity
8
1
62
256
6
ByLayer
370
18
48
1
60
0
100
AcDbEllipse
10
13.287818
20
-1.31915
30
0
11
-1.44319283768191
21
0.140336856397832
31
0
210
0
220
0
230
1
40
0.444891
41
0
42
6.28318530717959
0
ELLIPSE
5
26C
100
AcDbEntity
8
1
62
256
6
ByLayer
370
18
48
1
60
0
100
AcDbEllipse
10
13.628336
20
2.182662
30
0
11
0.353317671577006
21
3.22307997266488
31
0
210
0
220
0
230
-1
40
0.585904
41
-1.52981883659643
42
-1.13064689203624
0
ELLIPSE
5
26D
100
AcDbEntity
8
1
62
256
6
ByLayer
370
18
48
1
60
0
100
AcDbEllipse
10
13.287818
20
-1.31915
30
0
11
1.89108027006595
21
-0.183889673900604
31
0
210
0
220
0
230
1
40
0.444891
41
1.50891400303778
42
3.07971032983265
0
ELLIPSE
5
26E
100
AcDbEntity
8
1
62
256
6
ByLayer
370
18
48
1
60
0
100
AcDbEllipse
10
7.673769
20
-10.640887
30
0
11
9.95305405297875
21
-0.967840388950554
31
0
210
0
220
0
230
1
40
0.444891
41
-1.66758523559193
42
-1.65157927255704
0
ELLIPSE
5
26F
100
AcDbEntity
8
1
62
256
6
ByLayer
370
18
48
1
60
0
100
AcDbEllipse
10
17.60204
20
-12.217523
30
0
11
-0.388976021298205
21
0.0932612183869494
31
0
210
0
220
0
230
1
40
0.89387
41
0.788534068376983
42
1.69465130222062
0
ELLIPSE
5
270
100
AcDbEntity
8
1
62
256
6
ByLayer
370
18
48
1
60
0
100
AcDbEllipse
10
6.039557
20
-14.540997
30
0
11
0.497652702648937
21
-0.0483920194475276
31
0
210
0
220
0
230
1
40
0.444891
41
3.11461691487256
42
-2.94167558954782
0
ELLIPSE
5
271
100
AcDbEntity
8
1
62
256
6
ByLayer
370
18
48
1
60
0
100
AcDbEllipse
10
14.247023
20
-10.76072
30
0
11
4.97652702648918
21
-0.483920194475258
31
0
210
0
220
0
230
1
40
0.444891
41
-0.0527816948389592
42
-0.0429817017521566
0
ELLIPSE
5
272
100
AcDbEntity
8
1
62
256
6
ByLayer
370
18
48
1
60
0
100
AcDbEllipse
10
9.284343
20
-10.182114
30
0
11
9.95305405297875
21
-0.967840388950554
31
0
210
0
220
0
230
1
40
0.444891
41
-0.0429817017521521
42
-0.0269757387172665
0
ELLIPSE
5
273
100
AcDbEntity
8
1
62
256
6
ByLayer
370
18
48
1
60
0
100
AcDbEllipse
10
17.378172
20
-8.681394
30
0
11
-1.09483594582766
21
0.106462442784562
31
0
210
0
220
0
230
1
40
0.444891
41
3.07971032983267
42
-2.40575590212903
0
ELLIPSE
5
274
100
AcDbEntity
8
1
62
256
6
ByLayer
370
18
48
1
60
0
100
AcDbEllipse
10
7.861088
20
-11.492476
30
0
11
0.0496694232795387
21
0.396904205559828
31
0
210
0
220
0
230
1
40
0.055385
41
-2.67977599660083
42
-1.77365876275708
0
ELLIPSE
5
275
100
AcDbEntity
8
1
62
256
6
ByLayer
370
18
48
1
60
0
100
AcDbEllipse
10
18.725271
20
-11.214691
30
0
11
0.497652702648937
21
-0.0483920194475276
31
0
210
0
220
0
230
1
40
0.444891
41
-0.0269757387172066
42
0.0967092152110579
0
ELLIPSE
5
276
100
AcDbEntity
8
1
62
256
6
ByLayer
370
18
48
1
60
0
100
AcDbEllipse
10
8.209832
20
-14.663709
30
0
11
9.95305405297875
21
-0.967840388950554
31
0
210
0
220
0
230
1
40
0.444891
41
-0.0967889087970332
42
-0.080782945762142
0
ELLIPSE
5
277
100
AcDbEntity
8
1
62
256
6
ByLayer
370
18
48
1
60
0
100
AcDbEllipse
10
7.941398
20
-11.369461
30
0
11
-1.09483594582766
21
0.106462442784562
31
0
210
0
220
0
230
1
40
0.444891
41
-0.0618823237571495
42
1.50891400303777
0
ELLIPSE
5
278
100
AcDbEntity
8
1
62
256
6
ByLayer
370
18
48
1
60
0
100
AcDbEllipse
10
8.204031
20
-14.684984
30
0
11
9.95305405297873
21
-0.967840388950552
31
0
210
0
220
0
230
1
40
0.444891
41
-0.0709829526753405
42
-0.0618823237571515
0
ELLIPSE
5
279
100
AcDbEntity
8
1
62
256
6
ByLayer
370
18
48
1
60
0
100
AcDbEllipse
10
9.288785
20
-10.160669
30
0
11
9.95305405297873
21
-0.967840388950552
31
0
210
0
220
0
230
1
40
0.444891
41
-0.0618823237571475
42
-0.0527816948389528
0
ELLIPSE
5
27A
100
AcDbEntity
8
1
62
256
6
ByLayer
370
18
48
1
60
0
100
AcDbEllipse
10
17.429228
20
-14.106557
30
0
11
4.97652702648918
21
-0.483920194475258
31
0
210
0
220
0
230
1
40
0.444891
41
-1.62357802163386
42
-1.61377802854703
0
ELLIPSE
5
27B
100
AcDbEntity
8
1
62
256
6
ByLayer
370
18
48
1
60
0
100
AcDbEllipse
10
15.476044
20
-15.595019
30
0
11
9.95305405297873
21
-0.967840388950552
31
0
210
0
220
0
230
1
40
0.444891
41
3.07971032983264
42
3.08881095875084
0
ELLIPSE
5
27C
100
AcDbEntity
8
1
62
256
6
ByLayer
370
18
48
1
60
0
100
AcDbEllipse
10
16.477558
20
-12.437694
30
0
11
-1.09483594582766
21
0.106462442784562
31
0
210
0
220
0
230
1
40
0.444891
41
1.50891400303777
42
3.07971032983266
0
ELLIPSE
5
27D
100
AcDbEntity
8
1
62
256
6
ByLayer
370
18
48
1
60
0
100
AcDbEllipse
10
17.858154
20
-11.915382
30
0
11
9.95305405297875
21
-0.967840388950554
31
0
210
0
220
0
230
1
40
0.444891
41
-1.61377802854705
42
-1.59777206551217
0
ELLIPSE
5
27E
100
AcDbEntity
8
1
62
256
6
ByLayer
370
18
48
1
60
0
100
AcDbEllipse
10
15.480486
20
-15.573574
30
0
11
9.95305405297875
21
-0.967840388950554
31
0
210
0
220
0
230
1
40
0.444891
41
3.09861095183764
42
3.11461691487253
0
ELLIPSE
5
27F
100
AcDbEntity
8
1
62
256
6
ByLayer
370
18
48
1
60
0
100
AcDbEllipse
10
16.490844
20
-12.301066
30
0
11
-0.781468114454084
21
0.0759903844407787
31
0
210
0
220
0
230
1
40
0.444891
41
1.50891400303776
42
3.07971032983263
0
ELLIPSE
5
280
100
AcDbEntity
8
1
62
256
6
ByLayer
370
18
48
1
60
0
100
AcDbEllipse
10
7.057598
20
-12.80863
30
0
11
4.97652702648918
21
-0.483920194475258
31
0
210
0
220
0
230
1
40
0.444891
41
-1.65157927255703
42
-1.64177927947023
0
ELLIPSE
5
281
100
AcDbEntity
8
1
62
256
6
ByLayer
370
18
48
1
60
0
100
AcDbEllipse
10
17.581448
20
-15.985373
30
0
11
0.497652702648937
21
-0.0483920194475276
31
0
210
0
220
0
230
1
40
0.444891
41
-0.323681711556342
42
-0.0967889087971067
0
ELLIPSE
5
282
100
AcDbEntity
8
1
62
256
6
ByLayer
370
18
48
1
60
0
100
AcDbEllipse
10
17.116486
20
-15.869075
30
0
11
0.995305405297871
21
-0.096784038895055
31
0
210
0
220
0
230
1
40
0.444891
41
-1.37087926275281
42
-0.323681711556296
0
ELLIPSE
5
283
100
AcDbEntity
8
1
62
256
6
ByLayer
370
18
48
1
60
0
100
AcDbEllipse
10
17.053594
20
-12.801663
30
0
11
0.746479053973403
21
-0.0725880291712912
31
0
210
0
220
0
230
1
40
0.444891
41
-1.63267865055205
42
-0.0618823237571016
0
ELLIPSE
5
284
100
AcDbEntity
8
1
62
256
6
ByLayer
370
18
48
1
60
0
100
AcDbEllipse
10
6.886258
20
-10.876528
30
0
11
0.388976021298205
21
-0.0932612183869495
31
0
210
0
220
0
230
1
40
0.89387
41
-1.44694135136889
42
-0.540824117525435
0
ELLIPSE
5
285
100
AcDbEntity
8
1
62
256
6
ByLayer
370
18
48
1
60
0
100
AcDbEllipse
10
17.906767
20
-11.921157
30
0
11
9.95305405297873
21
-0.967840388950552
31
0
210
0
220
0
230
1
40
0.444891
41
-1.63267865055205
42
-1.62357802163386
0
ELLIPSE
5
286
100
AcDbEntity
8
1
62
256
6
ByLayer
370
18
48
1
60
0
100
AcDbEllipse
10
18.502654
20
-8.461223
30
0
11
-0.388976021298205
21
0.0932612183869494
31
0
210
0
220
0
230
1
40
0.89387
41
0.78853406837697
42
1.69465130222062
0
ELLIPSE
5
287
100
AcDbEntity
8
1
62
256
6
ByLayer
370
18
48
1
60
0
100
AcDbEllipse
10
10.517805
20
-14.994968
30
0
11
4.97652702648918
21
-0.483920194475258
31
0
210
0
220
0
230
1
40
0.444891
41
3.08881095875084
42
3.09861095183764
0
ELLIPSE
5
288
100
AcDbEntity
8
1
62
256
6
ByLayer
370
18
48
1
60
0
100
AcDbEllipse
10
16.397248
20
-12.560709
30
0
11
0.0496694232795387
21
0.396904205559828
31
0
210
0
220
0
230
1
40
0.055385
41
-2.67977599660074
42
-1.77365876275806
0
ELLIPSE
5
289
100
AcDbEntity
8
1
62
256
6
ByLayer
370
18
48
1
60
0
100
AcDbEllipse
10
6.35288
20
-14.73897
30
0
11
0.497652702648937
21
-0.0483920194475276
31
0
210
0
220
0
230
1
40
0.444891
41
-1.89447803835118
42
-1.66758523559193
0
ELLIPSE
5
28A
100
AcDbEntity
8
1
62
256
6
ByLayer
370
18
48
1
60
0
100
AcDbEllipse
10
13.152757
20
-15.324711
30
0
11
4.97652702648918
21
-0.483920194475258
31
0
210
0
220
0
230
1
40
0.444891
41
-0.0807829457621444
42
-0.0709829526753424
0
ELLIPSE
5
28B
100
AcDbEntity
8
1
62
256
6
ByLayer
370
18
48
1
60
0
100
AcDbEllipse
10
7.954684
20
-11.232833
30
0
11
-0.781468114454084
21
0.0759903844407787
31
0
210
0
220
0
230
1
40
0.444891
41
-0.0618823237571511
42
1.50891400303776
0
ELLIPSE
5
28C
100
AcDbEntity
8
1
62
256
6
ByLayer
370
18
48
1
60
0
100
AcDbEllipse
10
17.194213
20
-16.095677
30
0
11
0.497652702648937
21
-0.0483920194475276
31
0
210
0
220
0
230
1
40
0.444891
41
-1.59777206551218
42
-1.37087926275315
0
ELLIPSE
5
28D
100
AcDbEntity
8
1
62
256
6
ByLayer
370
18
48
1
60
0
100
AcDbEllipse
10
6.531574
20
-14.544457
30
0
11
0.995305405297871
21
-0.096784038895055
31
0
210
0
220
0
230
1
40
0.444891
41
-2.94167558954779
42
-1.89447803835119
0
ELLIPSE
5
28E
100
AcDbEntity
8
1
62
256
6
ByLayer
370
18
48
1
60
0
100
AcDbEllipse
10
18.090094
20
-8.478602
30
0
11
0.746479053973403
21
-0.0725880291712912
31
0
210
0
220
0
230
1
40
0.444891
41
-0.0618823237571444
42
1.35068063938121
0
ELLIPSE
5
28F
100
AcDbEntity
8
1
62
256
6
ByLayer
370
18
48
1
60
0
100
AcDbEllipse
10
7.229475
20
-11.572252
30
0
11
0.746479053973403
21
-0.0725880291712912
31
0
210
0
220
0
230
1
40
0.444891
41
3.07971032983263
42
-1.63267865055205
0
ELLIPSE
5
290
100
AcDbEntity
8
1
62
256
6
ByLayer
370
18
48
1
60
0
100
AcDbEllipse
10
7.6253
20
-10.634513
30
0
11
9.95305405297873
21
-0.967840388950552
31
0
210
0
220
0
230
1
40
0.444891
41
-1.64177927947023
42
-1.63267865055203
0
POINT
5
6C
100
AcDbEntity
8
81
62
256
6
ByLayer
370
13
48
1
60
0
100
AcDbPoint
10
18
20
34.5
30
0
39
0
210
0
220
0
230
1
50
360
0
POINT
5
6E
100
AcDbEntity
8
80
62
256
6
ByLayer
370
13
48
1
60
0
100
AcDbPoint
10
0
20
0
30
0
39
0
210
0
220
0
230
1
50
360
0
SPLINE
5
291
100
AcDbEntity
8
1
62
256
6
ByLayer
370
18
48
1
60
0
100
AcDbSpline
70
4
71
3
72
15
73
11
40
0
40
0
40
0
40
0
40
0.050567427115008
40
0.163598201657607
40
0.27660145001346
40
0.392050873500096
40
0.517148754089527
40
0.709061059636843
40
0.9552842126738
40
1
40
1
40
1
40
1
41
1
10
-4.0908780600621
20
-13.905314720291
30
0
41
1
10
-4.09610749896126
20
-13.9283669320757
30
0
41
1
10
-4.10414095077943
20
-13.9978297247616
30
0
41
1
10
-4.06681875028608
20
-14.0839770611279
30
0
41
1
10
-3.94417336352012
20
-14.1192341156417
30
0
41
1
10
-3.76798191930368
20
-14.0676337129751
30
0
41
1
10
-3.54148516672672
20
-13.8975147338555
30
0
41
1
10
-3.29974366478098
20
-13.5414743458413
30
0
41
1
10
-3.20560674256558
20
-13.1596652597294
30
0
41
1
10
-3.19824739658179
20
-12.9267945137436
30
0
41
1
10
-3.19823786396205
20
-12.8906357221107
30
0
0
SPLINE
5
292
100
AcDbEntity
8
1
62
256
6
ByLayer
370
18
48
1
60
0
100
AcDbSpline
70
4
71
3
72
8
73
4
40
0
40
0
40
0
40
0
40
1
40
1
40
1
40
1
41
1
10
19.0476722515946
20
-12.9735280131193
30
0
41
1
10
19.0723471147526
20
-12.7860765521189
30
0
41
1
10
19.0962882681972
20
-12.600281603412
30
0
41
1
10
19.1198996418665
20
-12.4143129637651
30
0
0
SPLINE
5
293
100
AcDbEntity
8
1
62
256
6
ByLayer
370
18
48
1
60
0
100
AcDbSpline
70
4
71
3
72
14
73
10
40
0
40
0
40
0
40
0
40
0.245528183333878
40
0.245528183333878
40
0.489152000828654
40
0.489152000828654
40
0.945333942975711
40
0.945333942975711
40
1
40
1
40
1
40
1
41
1
10
19.1204590785921
20
-12.3456691239566
30
0
41
1
10
19.1149650873664
20
-12.3592124751497
30
0
41
1
10
19.1084165066753
20
-12.3678893975225
30
0
41
1
10
19.0924678234882
20
-12.3736403336148
30
0
41
1
10
19.0828873058215
20
-12.3711610810525
30
0
41
1
10
19.0509155158518
20
-12.3555378450572
30
0
41
1
10
19.0239433201581
20
-12.3358190382704
30
0
41
1
10
18.9878708050835
20
-12.3121881818848
30
0
41
1
10
18.9839009783135
20
-12.3096063758988
30
0
41
1
10
18.9798521974809
20
-12.3069938985235
30
0
0
SPLINE
5
294
100
AcDbEntity
8
1
62
256
6
ByLayer
370
18
48
1
60
0
100
AcDbSpline
70
4
71
3
72
8
73
4
40
0
40
0
40
0
40
0
40
1
40
1
40
1
40
1
41
1
10
19.0233216580826
20
-13.1566272672522
30
0
41
1
10
19.0243592093057
20
-13.148885431941
30
0
41
1
10
19.0253960809091
20
-13.1411435574015
30
0
41
1
10
19.026432274042
20
-13.1334016444195
30
0
0
SPLINE
5
295
100
AcDbEntity
8
1
62
256
6
ByLayer
370
18
48
1
60
0
100
AcDbSpline
70
4
71
3
72
8
73
4
40
0
40
0
40
0
40
0
40
1
40
1
40
1
40
1
41
1
10
19.0264322740386
20
-13.1334016444454
30
0
41
1
10
19.0335202057158
20
-13.0804441903501
30
0
41
1
10
19.040628391873
20
-13.0270392235919
30
0
41
1
10
19.0476722515941
20
-12.9735280131201
30
0
0
SPLINE
5
296
100
AcDbEntity
8
1
62
256
6
ByLayer
370
18
48
1
60
0
100
AcDbSpline
70
4
71
3
72
22
73
18
40
0
40
0
40
0
40
0
40
0.247648061031881
40
0.247648061031881
40
0.499630853098184
40
0.499630853098184
40
0.554937524731885
40
0.554937524731885
40
0.599939125431246
40
0.599939125431246
40
0.64535633140466
40
0.64535633140466
40
0.69579626347118
40
0.69579626347118
40
0.780049574066862
40
0.780049574066862
40
1
40
1
40
1
40
1
41
1
10
19.1198996418792
20
-12.4143129637963
30
0
41
1
10
19.1211378405312
20
-12.404560624854
30
0
41
1
10
19.1223652472086
20
-12.394671121388
30
0
41
1
10
19.1247206461239
20
-12.3744198308541
30
0
41
1
10
19.1259365993656
20
-12.3636798283748
30
0
41
1
10
19.1268849153728
20
-12.3509989848306
30
0
41
1
10
19.127032619715
20
-12.3486761338908
30
0
41
1
10
19.1271961010647
20
-12.3447663994323
30
0
41
1
10
19.1272309979105
20
-12.3430934627207
30
0
41
1
10
19.12718716477
20
-12.3402578813825
30
0
41
1
10
19.1271052763393
20
-12.3390708677035
30
0
41
1
10
19.1268259734372
20
-12.3372765897531
30
0
41
1
10
19.1266152140836
20
-12.3367067061989
30
0
41
1
10
19.1259710869824
20
-12.3359445633274
30
0
41
1
10
19.1254756646479
20
-12.3361941840211
30
0
41
1
10
19.1236050761947
20
-12.3382445292371
30
0
41
1
10
19.1220455068246
20
-12.3417583869685
30
0
41
1
10
19.1204590785921
20
-12.3456691239559
30
0
0
SPLINE
5
297
100
AcDbEntity
8
1
62
256
6
ByLayer
370
18
48
1
60
0
100
AcDbSpline
70
4
71
3
72
8
73
4
40
0
40
0
40
0
40
0
40
1
40
1
40
1
40
1
41
1
10
11.912493365603
20
28.8011179339776
30
0
41
1
10
11.9169840570707
20
28.7959526029165
30
0
41
1
10
11.9214753187416
20
28.7907863017914
30
0
41
1
10
11.9259671765908
20
28.7856189855312
30
0
0
SPLINE
5
298
100
AcDbEntity
8
1
62
256
6
ByLayer
370
18
48
1
60
0
100
AcDbSpline
70
4
71
3
72
26
73
22
40
0
40
0
40
0
40
0
40
0.0286869624045607
40
0.0286869624045607
40
0.141758577072922
40
0.141758577072922
40
0.254859186747177
40
0.254859186747177
40
0.368025661656554
40
0.368025661656554
40
0.48133613614359
40
0.48133613614359
40
0.594988764681313
40
0.594988764681313
40
0.731770501834068
40
0.731770501834068
40
0.814572892185904
40
0.814572892185904
40
0.903908109635028
40
0.903908109635028
40
1
40
1
40
1
40
1
41
1
10
12.9225187156492
20
28.921624244668
30
0
41
1
10
12.9264733166831
20
28.9198557068749
30
0
41
1
10
12.9304116565147
20
28.918047357179
30
0
41
1
10
12.949778596281
20
28.9089208026136
30
0
41
1
10
12.9649700133157
20
28.9010254974411
30
0
41
1
10
12.994660813028
20
28.8840372257068
30
0
41
1
10
13.0091897743393
20
28.8749275594042
30
0
41
1
10
13.0373678427584
20
28.8554720501429
30
0
41
1
10
13.0510524242527
20
28.8451021413451
30
0
41
1
10
13.0772402648678
20
28.8230414708936
30
0
41
1
10
13.0897918163497
20
28.811310203771
30
0
41
1
10
13.1131887374845
20
28.7864069889438
30
0
41
1
10
13.1241073314454
20
28.773152354603
30
0
41
1
10
13.1450665950115
20
28.7424593335115
30
0
41
1
10
13.1547296130898
20
28.7243434525945
30
0
41
1
10
13.1643167918303
20
28.6944494701339
30
0
41
1
10
13.1665951403296
20
28.6827835355768
30
0
41
1
10
13.167443379306
20
28.6592961776685
30
0
41
1
10
13.1656668854428
20
28.6472393614111
30
0
41
1
10
13.157426480085
20
28.6249407224359
30
0
41
1
10
13.1505224342114
20
28.6145677179833
30
0
41
1
10
13.1420516501387
20
28.6060749905765
30
0
0
SPLINE
5
299
100
AcDbEntity
8
1
62
256
6
ByLayer
370
18
48
1
60
0
100
AcDbSpline
70
4
71
3
72
8
73
4
40
0
40
0
40
0
40
0
40
1
40
1
40
1
40
1
41
1
10
13.1420516501387
20
28.6060749905765
30
0
41
1
10
13.139973352301
20
28.599885418699
30
0
41
1
10
13.1378944244468
20
28.5936946896186
30
0
41
1
10
13.1358148368499
20
28.5875027495789
30
0
0
SPLINE
5
29A
100
AcDbEntity
8
1
62
256
6
ByLayer
370
18
48
1
60
0
100
AcDbSpline
70
4
71
3
72
8
73
4
40
0
40
0
40
0
40
0
40
1
40
1
40
1
40
1
41
1
10
13.5706341041555
20
27.4369068501006
30
0
41
1
10
13.5768879731506
20
27.4378980952498
30
0
41
1
10
13.5831403846233
20
27.4388891233861
30
0
41
1
10
13.5893914036818
20
27.4398799441828
30
0
0
SPLINE
5
29B
100
AcDbEntity
8
1
62
256
6
ByLayer
370
18
48
1
60
0
100
AcDbSpline
70
4
71
3
72
30
73
26
40
0
40
0
40
0
40
0
40
0.075448690821289
40
0.075448690821289
40
0.134142567439344
40
0.134142567439344
40
0.208789318447153
40
0.208789318447153
40
0.300864837338282
40
0.300864837338282
40
0.400373451416022
40
0.400373451416022
40
0.499841523429528
40
0.499841523429528
40
0.644794997236263
40
0.644794997236263
40
0.711843600985123
40
0.711843600985123
40
0.778927202841202
40
0.778927202841202
40
0.846083321820503
40
0.846083321820503
40
0.913400043300364
40
0.913400043300364
40
1
40
1
40
1
40
1
41
1
10
11.9259671765908
20
28.7856189855312
30
0
41
1
10
11.9366236643934
20
28.7733600395562
30
0
41
1
10
11.949823292123
20
28.7627576859024
30
0
41
1
10
11.975275492709
20
28.7467353626746
30
0
41
1
10
11.9872466199331
20
28.7405904093559
30
0
41
1
10
12.0154065560765
20
28.7284065330007
30
0
41
1
10
12.0319762050166
20
28.7227939541694
30
0
41
1
10
12.0697885215455
20
28.7125580857169
30
0
41
1
10
12.0913818064219
20
28.7084260916648
30
0
41
1
10
12.1367477791725
20
28.7025539916769
30
0
41
1
10
12.1607240556925
20
28.7010154486539
30
0
41
1
10
12.2085675329745
20
28.7006715526287
30
0
41
1
10
12.2325828285908
20
28.7018664386709
30
0
41
1
10
12.2907109054001
20
28.7079759457314
30
0
41
1
10
12.3248402727511
20
28.7143648284103
30
0
41
1
10
12.3724984246414
20
28.7277682844264
30
0
41
1
10
12.3873427094874
20
28.7326371987169
30
0
41
1
10
12.4161654690146
20
28.7436501651526
30
0
41
1
10
12.4301930815897
20
28.7498126833531
30
0
41
1
10
12.4570766666342
20
28.7635311189444
30
0
41
1
10
12.4699917967685
20
28.7711171933534
30
0
41
1
10
12.4941745161555
20
28.7878669323049
30
0
41
1
10
12.5055202387784
20
28.7970876949355
30
0
41
1
10
12.5284995033139
20
28.8201244450435
30
0
41
1
10
12.5395884036102
20
28.8347905329477
30
0
41
1
10
12.5468815280556
20
28.8508797136074
30
0
0
SPLINE
5
29C
100
AcDbEntity
8
1
62
256
6
ByLayer
370
18
48
1
60
0
100
AcDbSpline
70
4
71
3
72
8
73
4
40
0
40
0
40
0
40
0
40
1
40
1
40
1
40
1
41
1
10
11.2185675393557
20
27.1896946925133
30
0
41
1
10
11.2116090880461
20
27.1892972668409
30
0
41
1
10
11.2046517043252
20
27.1888998895553
30
0
41
1
10
11.19769534131
20
27.1885025585593
30
0
0
SPLINE
5
29D
100
AcDbEntity
8
1
62
256
6
ByLayer
370
18
48
1
60
0
100
AcDbSpline
70
4
71
3
72
26
73
22
40
0
40
0
40
0
40
0
40
0.0286869624047458
40
0.0286869624047458
40
0.141758577073004
40
0.141758577073004
40
0.254859186747301
40
0.254859186747301
40
0.368025661656659
40
0.368025661656659
40
0.481336136143632
40
0.481336136143632
40
0.594988764681336
40
0.594988764681336
40
0.731770501834067
40
0.731770501834067
40
0.814572892185882
40
0.814572892185882
40
0.903908109635021
40
0.903908109635021
40
1
40
1
40
1
40
1
41
1
10
11.5258761474651
20
28.7748311955996
30
0
41
1
10
11.5293766312953
20
28.7773832943862
30
0
41
1
10
11.5329040418652
20
28.7799003628324
30
0
41
1
10
11.5504555169066
20
28.7921562358952
30
0
41
1
10
11.5648691511102
20
28.8013860049802
30
0
41
1
10
11.5944073207193
20
28.8186124285798
30
0
41
1
10
11.6095610730618
20
28.8266263789676
30
0
41
1
10
11.640522949235
20
28.8412330639722
30
0
41
1
10
11.6563696484262
20
28.8478444496662
30
0
41
1
10
11.6886473949141
20
28.8593312717161
30
0
41
1
10
11.7051377558648
20
28.8642280575756
30
0
41
1
10
11.738556973462
20
28.8717517242635
30
0
41
1
10
11.7555945176312
20
28.8743997740163
30
0
41
1
10
11.7929449007756
20
28.8766944707251
30
0
41
1
10
11.813673269585
20
28.8756466217209
30
0
41
1
10
11.8448066231265
20
28.8682480437512
30
0
41
1
10
11.8562496791271
20
28.8640559946478
30
0
41
1
10
11.8774889468323
20
28.8522728013207
30
0
41
1
10
11.887327454142
20
28.844245915908
30
0
41
1
10
11.9031446371018
20
28.8249618799836
30
0
41
1
10
11.9090284984533
20
28.8132402047403
30
0
41
1
10
11.9124933656032
20
28.8011179339776
30
0
0
SPLINE
5
29E
100
AcDbEntity
8
1
62
256
6
ByLayer
370
18
48
1
60
0
100
AcDbSpline
70
4
71
3
72
8
73
4
40
0
40
0
40
0
40
0
40
1
40
1
40
1
40
1
41
1
10
11.1302748346108
20
27.8299658309851
30
0
41
1
10
11.1371617941629
20
27.8310234918211
30
0
41
1
10
11.1440497617405
20
27.8320813195956
30
0
41
1
10
11.1509387836372
20
27.833139322005
30
0
0
SPLINE
5
29F
100
AcDbEntity
8
1
62
256
6
ByLayer
370
18
48
1
60
0
100
AcDbSpline
70
4
71
3
72
8
73
4
40
0
40
0
40
0
40
0
40
1
40
1
40
1
40
1
41
1
10
12.5468815280556
20
28.8508797136074
30
0
41
1
10
12.5495657296713
20
28.8568012641099
30
0
41
1
10
12.552249155992
20
28.8627216553296
30
0
41
1
10
12.5549318418683
20
28.8686409387307
30
0
0
SPLINE
5
2A0
100
AcDbEntity
8
1
62
256
6
ByLayer
370
18
48
1
60
0
100
AcDbSpline
70
4
71
3
72
26
73
22
40
0
40
0
40
0
40
0
40
0.0341747429583109
40
0.0341747429583109
40
0.118717554180352
40
0.118717554180352
40
0.203116442115647
40
0.203116442115647
40
0.327045140900973
40
0.327045140900973
40
0.402980231179046
40
0.402980231179046
40
0.505547228462778
40
0.505547228462778
40
0.607904869128977
40
0.607904869128977
40
0.710165947508032
40
0.710165947508032
40
0.915602886218634
40
0.915602886218634
40
1
40
1
40
1
40
1
41
1
10
12.5549318418683
20
28.8686409387307
30
0
41
1
10
12.5547975669458
20
28.873133116345
30
0
41
1
10
12.5549622873405
20
28.8776175940938
30
0
41
1
10
12.5566571027563
20
28.8928564055528
30
0
41
1
10
12.5599250378052
20
28.9035064647012
30
0
41
1
10
12.570469803444
20
28.9225475338904
30
0
41
1
10
12.5778633703275
20
28.931169201535
30
0
41
1
10
12.5992543754942
20
28.9487769211045
30
0
41
1
10
12.6150517870917
20
28.9564952122961
30
0
41
1
10
12.6418431490956
20
28.964982346892
30
0
41
1
10
12.652535387114
20
28.9673638213866
30
0
41
1
10
12.6780311769286
20
28.9712891907823
30
0
41
1
10
12.6930712034127
20
28.9722721457099
30
0
41
1
10
12.7232024399082
20
28.9722998318433
30
0
41
1
10
12.7383763205321
20
28.9713463529361
30
0
41
1
10
12.7685899296184
20
28.9679061438981
30
0
41
1
10
12.7836788161168
20
28.9654135802542
30
0
41
1
10
12.8286527579328
20
28.9559938716025
30
0
41
1
10
12.8583513316044
20
28.9471108268448
30
0
41
1
10
12.8991169944099
20
28.9316832532122
30
0
41
1
10
12.9108918537518
20
28.9268238955317
30
0
41
1
10
12.9225187156492
20
28.921624244668
30
0
0
SPLINE
5
2A1
100
AcDbEntity
8
1
62
256
6
ByLayer
370
18
48
1
60
0
100
AcDbSpline
70
4
71
3
72
26
73
22
40
0
40
0
40
0
40
0
40
0.0369679839399244
40
0.0369679839399244
40
0.140366078223072
40
0.140366078223072
40
0.298318733654472
40
0.298318733654472
40
0.500628765508233
40
0.500628765508233
40
0.645354084681093
40
0.645354084681093
40
0.712297154914724
40
0.712297154914724
40
0.779275168169092
40
0.779275168169092
40
0.846325584405815
40
0.846325584405815
40
0.913536350357209
40
0.913536350357209
40
1
40
1
40
1
40
1
41
1
10
13.3169102642756
20
26.864494852041
30
0
41
1
10
13.3129982290906
20
26.8711190191594
30
0
41
1
10
13.3096644693077
20
26.8782189403398
30
0
41
1
10
13.299075634392
20
26.9060101135692
30
0
41
1
10
13.2951222957563
20
26.9288376796347
30
0
41
1
10
13.2915926427209
20
26.987247992743
30
0
41
1
10
13.295243730114
20
27.0243884354123
30
0
41
1
10
13.3116669962543
20
27.1074534461711
30
0
41
1
10
13.3270323702316
20
27.1543722936166
30
0
41
1
10
13.3606490871277
20
27.230213066388
30
0
41
1
10
13.3771166724057
20
27.2609958125405
30
0
41
1
10
13.4041611869345
20
27.3028701359594
30
0
41
1
10
13.4132122047333
20
27.315740517193
30
0
41
1
10
13.4322006918347
20
27.3403362522264
30
0
41
1
10
13.4421702398802
20
27.3521036336106
30
0
41
1
10
13.4630144567331
20
27.3741634428258
30
0
41
1
10
13.4739349449319
20
27.3845044500514
30
0
41
1
10
13.4967093570519
20
27.4031992959608
30
0
41
1
10
13.5086395685557
20
27.4116127820735
30
0
41
1
10
13.5367998161194
20
27.4274937314743
30
0
41
1
10
13.5536419957466
20
27.4342135821332
30
0
41
1
10
13.5706341041555
20
27.4369068501006
30
0
0
SPLINE
5
2A2
100
AcDbEntity
8
1
62
256
6
ByLayer
370
18
48
1
60
0
100
AcDbSpline
70
4
71
3
72
30
73
26
40
0
40
0
40
0
40
0
40
0.0754486908211638
40
0.0754486908211638
40
0.134142567439243
40
0.134142567439243
40
0.208789318447058
40
0.208789318447058
40
0.300864837338211
40
0.300864837338211
40
0.400373451415949
40
0.400373451415949
40
0.499841523429521
40
0.499841523429521
40
0.644794997236263
40
0.644794997236263
40
0.711843600985091
40
0.711843600985091
40
0.778927202841184
40
0.778927202841184
40
0.846083321820502
40
0.846083321820502
40
0.913400043300359
40
0.913400043300359
40
1
40
1
40
1
40
1
41
1
10
11.1509387836372
20
27.833139322005
30
0
41
1
10
11.1672823056899
20
27.8356493279199
30
0
41
1
10
11.1834466557109
20
27.8412266085328
30
0
41
1
10
11.210671822987
20
27.8543726786341
30
0
41
1
10
11.2222362116235
20
27.8613081618273
30
0
41
1
10
11.2474083723264
20
27.8788585389054
30
0
41
1
10
11.2608278920285
20
27.8900325325699
30
0
41
1
10
11.2891407262011
20
27.916946130238
30
0
41
1
10
11.3037698789642
20
27.9332576828146
30
0
41
1
10
11.3319656940315
20
27.9690929645783
30
0
41
1
10
11.3454528863464
20
27.9889045513486
30
0
41
1
10
11.3698889591493
20
28.0299749200371
30
0
41
1
10
11.380912320903
20
28.0513615302905
30
0
41
1
10
11.4046651602729
20
28.1049489671271
30
0
41
1
10
11.4160600159493
20
28.1380002895374
30
0
41
1
10
11.4279059726343
20
28.1866715625646
30
0
41
1
10
11.4309663498425
20
28.2022210191838
30
0
41
1
10
11.4355000765961
20
28.2332810700222
30
0
41
1
10
11.4369814217639
20
28.2488444620423
30
0
41
1
10
11.4381034353255
20
28.2797242411068
30
0
41
1
10
11.4377465795073
20
28.2951085912463
30
0
41
1
10
11.4347964538695
20
28.3253077120107
30
0
41
1
10
11.4321909605599
20
28.3402217131163
30
0
41
1
10
11.4230146259955
20
28.372799961687
30
0
41
1
10
11.4154131238427
20
28.3904512753838
30
0
41
1
10
11.4046626235149
20
28.4055513200679
30
0
0
SPLINE
5
2A3
100
AcDbEntity
8
1
62
256
6
ByLayer
370
18
48
1
60
0
100
AcDbSpline
70
4
71
3
72
26
73
22
40
0
40
0
40
0
40
0
40
0.0341747429582824
40
0.0341747429582824
40
0.118717554180306
40
0.118717554180306
40
0.203116442115698
40
0.203116442115698
40
0.327045140900948
40
0.327045140900948
40
0.402980231179087
40
0.402980231179087
40
0.505547228462738
40
0.505547228462738
40
0.607904869129002
40
0.607904869129002
40
0.710165947508022
40
0.710165947508022
40
0.915602886218735
40
0.915602886218735
40
1
40
1
40
1
40
1
41
1
10
11.19769534131
20
27.1885025585593
30
0
41
1
10
11.1935303898256
20
27.1863021839104
30
0
41
1
10
11.1892191491404
20
27.184367003351
30
0
41
1
10
11.1739863173996
20
27.1787841296504
30
0
41
1
10
11.1622712178241
20
27.176705115776
30
0
41
1
10
11.1389078894167
20
27.1771039570325
30
0
41
1
10
11.126981937616
20
27.1795771777916
30
0
41
1
10
11.0993751341913
20
27.1901421110266
30
0
41
1
10
11.0839545095196
20
27.2004012392257
30
0
41
1
10
11.0620979685807
20
27.2199529571004
30
0
41
1
10
11.0543140020707
20
27.2282262502558
30
0
41
1
10
11.0373806967243
20
27.2487780763249
30
0
41
1
10
11.0286287523094
20
27.2615280249393
30
0
41
1
10
11.0128832543905
20
27.2879902355347
30
0
41
1
10
11.0058450828085
20
27.3017742182414
30
0
41
1
10
10.9932408210708
20
27.3299544628433
30
0
41
1
10
10.9876545380708
20
27.3443966429204
30
0
41
1
10
10.9728135949126
20
27.3883955817592
30
0
41
1
10
10.9654331197256
20
27.4187251388101
30
0
41
1
10
10.9582211109376
20
27.4619144970455
30
0
41
1
10
10.9565021186106
20
27.4745834893642
30
0
41
1
10
10.9551669755795
20
27.4872865267608
30
0
0
SPLINE
5
2A4
100
AcDbEntity
8
1
62
256
6
ByLayer
370
18
48
1
60
0
100
AcDbSpline
70
4
71
3
72
26
73
22
40
0
40
0
40
0
40
0
40
0.0286869624046205
40
0.0286869624046205
40
0.141758577072886
40
0.141758577072886
40
0.254859186747174
40
0.254859186747174
40
0.368025661656545
40
0.368025661656545
40
0.481336136143601
40
0.481336136143601
40
0.594988764681304
40
0.594988764681304
40
0.73177050183409
40
0.73177050183409
40
0.814572892185914
40
0.814572892185914
40
0.903908109635039
40
0.903908109635039
40
1
40
1
40
1
40
1
41
1
10
11.7811003718779
20
26.3465349069905
30
0
41
1
10
11.7771457708441
20
26.3483034447836
30
0
41
1
10
11.7732097861706
20
26.3501120420166
30
0
41
1
10
11.7538661482367
20
26.3592410457033
30
0
41
1
10
11.7387297513517
20
26.3671421337266
30
0
41
1
10
11.7092271107679
20
26.3841501817822
30
0
41
1
10
11.6948314215304
20
26.3932738555442
30
0
41
1
10
11.6670116123775
20
26.4127670193716
30
0
41
1
10
11.6535523510777
20
26.4231606102762
30
0
41
1
10
11.6279320445981
20
26.445280930969
30
0
41
1
10
11.6157235607438
20
26.4570482559522
30
0
41
1
10
11.5931730573172
20
26.4820404328653
30
0
41
1
10
11.5827604629927
20
26.495348249911
30
0
41
1
10
11.5631645995721
20
26.5261845701322
30
0
41
1
10
11.554425109671
20
26.544397517772
30
0
41
1
10
11.5467107182046
20
26.5744883381068
30
0
41
1
10
11.5452442238006
20
26.5862396019678
30
0
41
1
10
11.546258740676
20
26.6099227434054
30
0
41
1
10
11.5491272357444
20
26.6220943336143
30
0
41
1
10
11.5597093771499
20
26.644639098966
30
0
41
1
10
11.5679029531315
20
26.6551476384945
30
0
41
1
10
11.5776145881539
20
26.6637707845914
30
0
0
SPLINE
5
2A5
100
AcDbEntity
8
1
62
256
6
ByLayer
370
18
48
1
60
0
100
AcDbSpline
70
4
71
3
72
8
73
4
40
0
40
0
40
0
40
0
40
1
40
1
40
1
40
1
41
1
10
12.8071728726893
20
26.4687278411903
30
0
41
1
10
12.8033181217156
20
26.4739600122907
30
0
41
1
10
12.7994624161495
20
26.4791931130541
30
0
41
1
10
12.7956057112019
20
26.4844271865743
30
0
0
SPLINE
5
2A6
100
AcDbEntity
8
1
62
256
6
ByLayer
370
18
48
1
60
0
100
AcDbSpline
70
4
71
3
72
26
73
22
40
0
40
0
40
0
40
0
40
0.0341747429583097
40
0.0341747429583097
40
0.118717554180375
40
0.118717554180375
40
0.203116442115668
40
0.203116442115668
40
0.327045140900967
40
0.327045140900967
40
0.402980231179038
40
0.402980231179038
40
0.505547228462718
40
0.505547228462718
40
0.607904869128943
40
0.607904869128943
40
0.710165947507915
40
0.710165947507915
40
0.915602886218621
40
0.915602886218621
40
1
40
1
40
1
40
1
41
1
10
13.3268721742604
20
26.8476251654618
30
0
41
1
10
13.3304996759621
20
26.845262761385
30
0
41
1
10
13.3339683829317
20
26.8426422231448
30
0
41
1
10
13.3451759882506
20
26.8327413493198
30
0
41
1
10
13.3519453620498
20
26.8239939611346
30
0
41
1
10
13.3616439106679
20
26.8042261239875
30
0
41
1
10
13.3646958733405
20
26.7929756369359
30
0
41
1
10
13.367698140795
20
26.7644652284337
30
0
41
1
10
13.3657157253648
20
26.7463190506871
30
0
41
1
10
13.3586699863381
20
26.7180583317983
30
0
41
1
10
13.3550533322989
20
26.7073291101441
30
0
41
1
10
13.3450183600278
20
26.6826971499749
30
0
41
1
10
13.3380261472723
20
26.6688902393156
30
0
41
1
10
13.3224427476214
20
26.6422744633355
30
0
41
1
10
13.3138103379019
20
26.629391754191
30
0
41
1
10
13.2953622123742
20
26.6045635594881
30
0
41
1
10
13.2855163753002
20
26.5925778677524
30
0
41
1
10
13.2545342167999
20
26.5579093872694
30
0
41
1
10
13.2318860061218
20
26.5364281787866
30
0
41
1
10
13.198120958793
20
26.5086441758515
30
0
41
1
10
13.1880346589282
20
26.5008313425919
30
0
41
1
10
13.177742940062
20
26.4933279560589
30
0
0
SPLINE
5
2A7
100
AcDbEntity
8
1
62
256
6
ByLayer
370
18
48
1
60
0
100
AcDbSpline
70
4
71
3
72
8
73
4
40
0
40
0
40
0
40
0
40
1
40
1
40
1
40
1
41
1
10
11.4046626235149
20
28.4055513200679
30
0
41
1
10
11.400705950272
20
28.4111088235281
30
0
41
1
10
11.3967497709241
20
28.4166652372813
30
0
41
1
10
11.3927940640322
20
28.4222206097061
30
0
0
SPLINE
5
2A8
100
AcDbEntity
8
1
62
256
6
ByLayer
370
18
48
1
60
0
100
AcDbSpline
70
4
71
3
72
26
73
22
40
0
40
0
40
0
40
0
40
0.0246840387502222
40
0.0246840387502222
40
0.108402719804379
40
0.108402719804379
40
0.19210305254761
40
0.19210305254761
40
0.309485195483532
40
0.309485195483532
40
0.380199874143334
40
0.380199874143334
40
0.476666438094152
40
0.476666438094152
40
0.587023534816817
40
0.587023534816817
40
0.697229101300181
40
0.697229101300181
40
0.807364565734767
40
0.807364565734767
40
1
40
1
40
1
40
1
41
1
10
13.5893914036818
20
27.4398799441828
30
0
41
1
10
13.5923418847637
20
27.4389165256713
30
0
41
1
10
13.5953347113036
20
27.4381042475989
30
0
41
1
10
13.6084783926517
20
27.4352971371316
30
0
41
1
10
13.619113260348
20
27.4350527031572
30
0
41
1
10
13.6397316688328
20
27.4389720227102
30
0
41
1
10
13.6499565514821
20
27.4431883232417
30
0
41
1
10
13.6723060216948
20
27.4574082979769
30
0
41
1
10
13.684005300549
20
27.4692252626042
30
0
41
1
10
13.6997627800715
20
27.4905868899512
30
0
41
1
10
13.7051396208
20
27.4993203692462
30
0
41
1
10
13.7165330189248
20
27.520799708807
30
0
41
1
10
13.7221278187374
20
27.5339401071337
30
0
41
1
10
13.7323351297143
20
27.562823916967
30
0
41
1
10
13.7367270980483
20
27.578769748405
30
0
41
1
10
13.743748716035
20
27.6110545033454
30
0
41
1
10
13.7463931699933
20
27.6274617622118
30
0
41
1
10
13.7501868578643
20
27.6604468283765
30
0
41
1
10
13.7513408116805
20
27.6770696513635
30
0
41
1
10
13.7526713235773
20
27.722737707332
30
0
41
1
10
13.751492594438
20
27.7519443663673
30
0
41
1
10
13.7484521119476
20
27.7808726248978
30
0
0
SPLINE
5
2A9
100
AcDbEntity
8
1
62
256
6
ByLayer
370
18
48
1
60
0
100
AcDbSpline
70
4
71
3
72
30
73
26
40
0
40
0
40
0
40
0
40
0.0754486908211957
40
0.0754486908211957
40
0.134142567439248
40
0.134142567439248
40
0.208789318447072
40
0.208789318447072
40
0.300864837338268
40
0.300864837338268
40
0.400373451415955
40
0.400373451415955
40
0.499841523429541
40
0.499841523429541
40
0.644794997236265
40
0.644794997236265
40
0.711843600985101
40
0.711843600985101
40
0.778927202841172
40
0.778927202841172
40
0.84608332182051
40
0.84608332182051
40
0.913400043300328
40
0.913400043300328
40
1
40
1
40
1
40
1
41
1
10
11.5857580509428
20
26.6825434225266
30
0
41
1
10
11.5921985038644
20
26.6973915619098
30
0
41
1
10
11.5958833579139
20
26.7136468850743
30
0
41
1
10
11.5988272413599
20
26.7429383467134
30
0
41
1
10
11.5989027122532
20
26.7560694654842
30
0
41
1
10
11.5969282609427
20
26.7859102235752
30
0
41
1
10
11.5942913890678
20
26.8027507415936
30
0
41
1
10
11.5858083670823
20
26.8400070420042
30
0
41
1
10
11.5793215002213
20
26.8605007512323
30
0
41
1
10
11.5629588081955
20
26.9022930010442
30
0
41
1
10
11.5527877228176
20
26.9236765538611
30
0
41
1
10
11.5298038488554
20
26.9651353334259
30
0
41
1
10
11.5169187009727
20
26.9853382812959
30
0
41
1
10
11.4825434635331
20
27.032816211072
30
0
41
1
10
11.4595822620146
20
27.0594548247408
30
0
41
1
10
11.4231175599873
20
27.0946540605212
30
0
41
1
10
11.4110788787796
20
27.1053078250687
30
0
41
1
10
11.3861880971899
20
27.1252916631223
30
0
41
1
10
11.3732938280367
20
27.1346559604845
30
0
41
1
10
11.3467458980077
20
27.1517346543441
30
0
41
1
10
11.3330337917312
20
27.1594866715645
30
0
41
1
10
11.3049317152777
20
27.1728341830493
30
0
41
1
10
11.2904480532932
20
27.1784714591891
30
0
41
1
10
11.2569835687254
20
27.1878753882457
30
0
41
1
10
11.2374740369332
20
27.1907745200752
30
0
41
1
10
11.2185675393557
20
27.1896946925133
30
0
0
SPLINE
5
2AA
100
AcDbEntity
8
1
62
256
6
ByLayer
370
18
48
1
60
0
100
AcDbSpline
70
4
71
3
72
30
73
26
40
0
40
0
40
0
40
0
40
0.0754486908211938
40
0.0754486908211938
40
0.134142567439235
40
0.134142567439235
40
0.208789318447065
40
0.208789318447065
40
0.300864837338282
40
0.300864837338282
40
0.400373451415949
40
0.400373451415949
40
0.499841523429527
40
0.499841523429527
40
0.64479499723631
40
0.64479499723631
40
0.71184360098512
40
0.71184360098512
40
0.778927202841156
40
0.778927202841156
40
0.846083321820494
40
0.846083321820494
40
0.913400043300338
40
0.913400043300338
40
1
40
1
40
1
40
1
41
1
10
12.7956057112019
20
26.4844271865743
30
0
41
1
10
12.7864560607425
20
26.496844507536
30
0
41
1
10
12.774696696529
20
26.5075982389853
30
0
41
1
10
12.7515863294545
20
26.5238666988333
30
0
41
1
10
12.7405796211926
20
26.5301130166696
30
0
41
1
10
12.7144463333093
20
26.5425099023403
30
0
41
1
10
12.6989031990954
20
26.5482303722169
30
0
41
1
10
12.6631238033078
20
26.5586799092493
30
0
41
1
10
12.642485048936
20
26.5629122285001
30
0
41
1
10
12.5987340075005
20
26.5689540646088
30
0
41
1
10
12.5753937286347
20
26.5705594536789
30
0
41
1
10
12.5283973123867
20
26.5709923794063
30
0
41
1
10
12.5045955887303
20
26.5698199406817
30
0
41
1
10
12.446467511921
20
26.5637104336212
30
0
41
1
10
12.4118847648816
20
26.5572738988169
30
0
41
1
10
12.3629215993471
20
26.5437332803397
30
0
41
1
10
12.3475677673615
20
26.5388108104866
30
0
41
1
10
12.3175415102021
20
26.5276713513527
30
0
41
1
10
12.3028178941353
20
26.5214356802374
30
0
41
1
10
12.2743615919986
20
26.5075519454189
30
0
41
1
10
12.2605662212163
20
26.4998733539897
30
0
41
1
10
12.2344450389718
20
26.482919874382
30
0
41
1
10
12.2220344242451
20
26.4735871870812
30
0
41
1
10
12.1964373887739
20
26.4502752981609
30
0
41
1
10
12.1837102297916
20
26.4354370223304
30
0
41
1
10
12.1746913597371
20
26.4191664584982
30
0
0
SPLINE
5
2AB
100
AcDbEntity
8
1
62
256
6
ByLayer
370
18
48
1
60
0
100
AcDbSpline
70
4
71
3
72
26
73
22
40
0
40
0
40
0
40
0
40
0.0286869624046621
40
0.0286869624046621
40
0.141758577072943
40
0.141758577072943
40
0.254859186747208
40
0.254859186747208
40
0.368025661656601
40
0.368025661656601
40
0.481336136143611
40
0.481336136143611
40
0.594988764681347
40
0.594988764681347
40
0.731770501834078
40
0.731770501834078
40
0.81457289218598
40
0.81457289218598
40
0.903908109635011
40
0.903908109635011
40
1
40
1
40
1
40
1
41
1
10
10.9551669755795
20
27.4872865267608
30
0
41
1
10
10.9547128583758
20
27.4916071633406
30
0
41
1
10
10.9543031066933
20
27.4959327052513
30
0
41
1
10
10.9524992928843
20
27.5173163574401
30
0
41
1
10
10.9517490201281
20
27.5344443231229
30
0
41
1
10
10.9516904695893
20
27.5686689066175
30
0
41
1
10
10.9523818966574
20
27.5857995270376
30
0
41
1
10
10.9553448340446
20
27.6198805485866
30
0
41
1
10
10.9576196118387
20
27.6368736841318
30
0
41
1
10
10.9639932847794
20
27.6704510017537
30
0
41
1
10
10.9681036280617
20
27.6870970836663
30
0
41
1
10
10.9785491333785
20
27.7195684462242
30
0
41
1
10
10.984921083405
20
27.7354977216703
30
0
41
1
10
11.001993903056
20
27.7685570890355
30
0
41
1
10
11.0135210178756
20
27.7856736543097
30
0
41
1
10
11.0360035863136
20
27.8082674777377
30
0
41
1
10
11.0455742208627
20
27.8157840278433
30
0
41
1
10
11.0668966275173
20
27.8275860841891
30
0
41
1
10
11.0790576292927
20
27.8316734020096
30
0
41
1
10
11.1042860856344
20
27.8348110682485
30
0
41
1
10
11.1177187579133
20
27.833530164996
30
0
41
1
10
11.1302748346108
20
27.8299658309851
30
0
0
SPLINE
5
2AC
100
AcDbEntity
8
1
62
256
6
ByLayer
370
18
48
1
60
0
100
AcDbSpline
70
4
71
3
72
8
73
4
40
0
40
0
40
0
40
0
40
1
40
1
40
1
40
1
41
1
10
12.1746913597371
20
26.4191664584982
30
0
41
1
10
12.1713720052198
20
26.4131781507356
30
0
41
1
10
12.1680530227944
20
26.4071909598775
30
0
41
1
10
12.1647343964241
20
26.4012048364371
30
0
0
SPLINE
5
2AD
100
AcDbEntity
8
1
62
256
6
ByLayer
370
18
48
1
60
0
100
AcDbSpline
70
4
71
3
72
8
73
4
40
0
40
0
40
0
40
0
40
1
40
1
40
1
40
1
41
1
10
13.3169102642777
20
26.8644948520376
30
0
41
1
10
13.3202317846192
20
26.8588705913175
30
0
41
1
10
13.3235524078624
20
26.8532473779259
30
0
41
1
10
13.3268721742604
20
26.8476251654618
30
0
0
SPLINE
5
2AE
100
AcDbEntity
8
1
62
256
6
ByLayer
370
18
48
1
60
0
100
AcDbSpline
70
4
71
3
72
26
73
22
40
0
40
0
40
0
40
0
40
0.0753632465605435
40
0.0753632465605435
40
0.133990653438513
40
0.133990653438513
40
0.208552868369791
40
0.208552868369791
40
0.300524113423236
40
0.300524113423236
40
0.399920035818932
40
0.399920035818932
40
0.499275462063602
40
0.499275462063602
40
0.577746029348543
40
0.577746029348543
40
0.777160361616573
40
0.777160361616573
40
0.913864695659914
40
0.913864695659914
40
1
40
1
40
1
40
1
41
1
10
13.5030053484369
20
28.0803514795922
30
0
41
1
10
13.4880039493231
20
28.0795670015385
30
0
41
1
10
13.4724735108066
20
28.0818130256402
30
0
41
1
10
13.445451890605
20
28.0892575286278
30
0
41
1
10
13.4336626625314
20
28.093738447796
30
0
41
1
10
13.407418293622
20
28.1058847298492
30
0
41
1
10
13.3929953334282
20
28.114132360955
30
0
41
1
10
13.3617384717563
20
28.1347849312967
30
0
41
1
10
13.3449921691122
20
28.1477987906277
30
0
41
1
10
13.3115768575462
20
28.1771584820427
30
0
41
1
10
13.2949013298943
20
28.1937998391975
30
0
41
1
10
13.263307295148
20
28.2289812062802
30
0
41
1
10
13.2482918659581
20
28.2476310293243
30
0
41
1
10
13.2231939682856
20
28.2822954072886
30
0
41
1
10
13.2126915222004
20
28.2981074999467
30
0
41
1
10
13.1782765991037
20
28.3548880550891
30
0
41
1
10
13.1575801905306
20
28.3984954376004
30
0
41
1
10
13.1347714171977
20
28.4724867890126
30
0
41
1
10
13.1286387515167
20
28.5034947132409
30
0
41
1
10
13.1280372642477
20
28.5520050621911
30
0
41
1
10
13.1301644821785
20
28.5706789055725
30
0
41
1
10
13.1358148368499
20
28.5875027495789
30
0
0
SPLINE
5
2AF
100
AcDbEntity
8
1
62
256
6
ByLayer
370
18
48
1
60
0
100
AcDbSpline
70
4
71
3
72
26
73
22
40
0
40
0
40
0
40
0
40
0.028698839565869
40
0.028698839565869
40
0.141769071600787
40
0.141769071600787
40
0.254868298287115
40
0.254868298287115
40
0.368033389403155
40
0.368033389403155
40
0.481342478336057
40
0.481342478336057
40
0.594993717135819
40
0.594993717135819
40
0.731773781728603
40
0.731773781728603
40
0.814575159577667
40
0.814575159577667
40
0.903909284641051
40
0.903909284641051
40
1
40
1
40
1
40
1
41
1
10
13.7484521119476
20
27.7808726248978
30
0
41
1
10
13.747997994744
20
27.7851932614779
30
0
41
1
10
13.747501816795
20
27.7895097196223
30
0
41
1
10
13.7448436034942
20
27.8108035708063
30
0
41
1
10
13.7420713968349
20
27.8277190226725
30
0
41
1
10
13.7352011360106
20
27.8612276665665
30
0
41
1
10
13.7310964341004
20
27.8778541935181
30
0
41
1
10
13.7214706604551
20
27.9106120882209
30
0
41
1
10
13.7159378406652
20
27.9267846121928
30
0
41
1
10
13.703289865026
20
27.9583626739871
30
0
41
1
10
13.6961514951971
20
27.9738264685102
30
0
41
1
10
13.6800294910489
20
28.0035054733029
30
0
41
1
10
13.6709909004635
20
28.0178150356629
30
0
41
1
10
13.6487811340634
20
28.0467456368616
30
0
41
1
10
13.6348707085092
20
28.0611886089077
30
0
41
1
10
13.6100547053766
20
28.0788111521415
30
0
41
1
10
13.5999422876088
20
28.0842589300857
30
0
41
1
10
13.5784947970592
20
28.0915656890935
30
0
41
1
10
13.5668417423962
20
28.0931500487234
30
0
41
1
10
13.5438539669103
20
28.0912199847888
30
0
41
1
10
13.5322706756183
20
28.0873097978156
30
0
41
1
10
13.5219708969825
20
28.0813432166086
30
0
0
SPLINE
5
2B0
100
AcDbEntity
8
1
62
256
6
ByLayer
370
18
48
1
60
0
100
AcDbSpline
70
4
71
3
72
8
73
4
40
0
40
0
40
0
40
0
40
1
40
1
40
1
40
1
41
1
10
13.5219708969825
20
28.0813432166086
30
0
41
1
10
13.5156504744612
20
28.0810127256519
30
0
41
1
10
13.509328646845
20
28.0806821480046
30
0
41
1
10
13.5030053484369
20
28.0803514795922
30
0
0
SPLINE
5
2B1
100
AcDbEntity
8
1
62
256
6
ByLayer
370
18
48
1
60
0
100
AcDbSpline
70
4
71
3
72
26
73
22
40
0
40
0
40
0
40
0
40
0.028686962404557
40
0.028686962404557
40
0.141758577072854
40
0.141758577072854
40
0.254859186747111
40
0.254859186747111
40
0.368025661656489
40
0.368025661656489
40
0.481336136143512
40
0.481336136143512
40
0.594988764681214
40
0.594988764681214
40
0.731770501834063
40
0.731770501834063
40
0.814572892185868
40
0.814572892185868
40
0.903908109634997
40
0.903908109634997
40
1
40
1
40
1
40
1
41
1
10
13.177742940062
20
26.4933279560589
30
0
41
1
10
13.1742424562317
20
26.4907758572723
30
0
41
1
10
13.17071740082
20
26.4882590363632
30
0
41
1
10
13.1531892276112
20
26.4760056124216
30
0
41
1
10
13.1388306135573
20
26.4667816261874
30
0
41
1
10
13.1094806030765
20
26.4495749789092
30
0
41
1
10
13.0944601228077
20
26.4415750359807
30
0
41
1
10
13.0638565059008
20
26.4270060055423
30
0
41
1
10
13.0482351269043
20
26.420418301955
30
0
41
1
10
13.0165249145517
20
26.4089911301465
30
0
41
1
10
13.0003776212288
20
26.4041304021476
30
0
41
1
10
12.9678048213398
20
26.3966956975457
30
0
41
1
10
12.9512732768069
20
26.3941008304977
30
0
41
1
10
12.9152862938081
20
26.3919494329186
30
0
41
1
10
12.8954814531758
20
26.3930943486455
30
0
41
1
10
12.8662208869085
20
26.4006897644895
30
0
41
1
10
12.8555896850032
20
26.4049671428968
30
0
41
1
10
12.8362131731496
20
26.4169461197532
30
0
41
1
10
12.8274666670452
20
26.4250877791175
30
0
41
1
10
12.8139912201332
20
26.4446179414184
30
0
41
1
10
12.8093968888895
20
26.4564751517374
30
0
41
1
10
12.8071728726893
20
26.4687278411903
30
0
0
SPLINE
5
2B2
100
AcDbEntity
8
1
62
256
6
ByLayer
370
18
48
1
60
0
100
AcDbSpline
70
4
71
3
72
26
73
22
40
0
40
0
40
0
40
0
40
0.034174742958306
40
0.034174742958306
40
0.118717554180373
40
0.118717554180373
40
0.203116442115664
40
0.203116442115664
40
0.327045140900959
40
0.327045140900959
40
0.402980231178986
40
0.402980231178986
40
0.50554722846276
40
0.50554722846276
40
0.607904869128982
40
0.607904869128982
40
0.710165947508041
40
0.710165947508041
40
0.915602886218718
40
0.915602886218718
40
1
40
1
40
1
40
1
41
1
10
12.1647343964241
20
26.4012048364372
30
0
41
1
10
12.1644208548764
20
26.3966655914153
30
0
41
1
10
12.1638042589346
20
26.3921336196326
30
0
41
1
10
12.1605558361814
20
26.3767315174626
30
0
41
1
10
12.1561693739809
20
26.3659638963733
30
0
41
1
10
12.1435445989084
20
26.3467042093832
30
0
41
1
10
12.1351640838618
20
26.3379788093066
30
0
41
1
10
12.1116307248261
20
26.3201459192721
30
0
41
1
10
12.0947628942256
20
26.3123151225098
30
0
41
1
10
12.0665642535807
20
26.3036800769685
30
0
41
1
10
12.0553997605418
20
26.3012489664711
30
0
41
1
10
12.0289223121919
20
26.2972204206058
30
0
41
1
10
12.0134128652503
20
26.2961881276
30
0
41
1
10
11.9824831880385
20
26.2960765219656
30
0
41
1
10
11.9669781736297
20
26.2969951973096
30
0
41
1
10
11.9362053790906
20
26.3003766335882
30
0
41
1
10
11.9208876702084
20
26.3028451470305
30
0
41
1
10
11.8753476218308
20
26.3122053554849
30
0
41
1
10
11.8454289733635
20
26.3210652694495
30
0
41
1
10
11.8045223816837
20
26.3364780308606
30
0
41
1
10
11.7927272337753
20
26.3413352561268
30
0
41
1
10
11.7811003718779
20
26.3465349069905
30
0
0
SPLINE
5
2B3
100
AcDbEntity
8
1
62
256
6
ByLayer
370
18
48
1
60
0
100
AcDbSpline
70
4
71
3
72
8
73
4
40
0
40
0
40
0
40
0
40
1
40
1
40
1
40
1
41
1
10
11.5776145881539
20
26.6637707845914
30
0
41
1
10
11.5803288264853
20
26.6700271965081
30
0
41
1
10
11.5830433104444
20
26.676284725227
30
0
41
1
10
11.5857580509428
20
26.6825434225266
30
0
0
SPLINE
5
2B4
100
AcDbEntity
8
1
62
256
6
ByLayer
370
18
48
1
60
0
100
AcDbSpline
70
4
71
3
72
26
73
22
40
0
40
0
40
0
40
0
40
0.0341747429583156
40
0.0341747429583156
40
0.118717554180427
40
0.118717554180427
40
0.203116442115718
40
0.203116442115718
40
0.327045140901049
40
0.327045140901049
40
0.40298023117911
40
0.40298023117911
40
0.505547228462847
40
0.505547228462847
40
0.607904869129083
40
0.607904869129083
40
0.710165947508077
40
0.710165947508077
40
0.91560288621887
40
0.91560288621887
40
1
40
1
40
1
40
1
41
1
10
11.3927940640322
20
28.4222206097061
30
0
41
1
10
11.3887187458604
20
28.4245359463753
30
0
41
1
10
11.3847981633435
20
28.4271089905816
30
0
41
1
10
11.3720369506871
20
28.4368465736956
30
0
41
1
10
11.3641490497363
20
28.4454763999399
30
0
41
1
10
11.3523704916845
20
28.4650256192861
30
0
41
1
10
11.3483315808488
20
28.4761723739058
30
0
41
1
10
11.3431869595254
20
28.5044576119429
30
0
41
1
10
11.3440989559526
20
28.5224912841188
30
0
41
1
10
11.3497374163383
20
28.5506040920622
30
0
41
1
10
11.3528818153568
20
28.5612836777136
30
0
41
1
10
11.3619351290927
20
28.5858124614132
30
0
41
1
10
11.3684579213906
20
28.5995700339943
30
0
41
1
10
11.3832428803254
20
28.6261018904735
30
0
41
1
10
11.3915441562597
20
28.6389497960547
30
0
41
1
10
11.4094330963348
20
28.6637192179983
30
0
41
1
10
11.4190501110251
20
28.6756808595323
30
0
41
1
10
11.4494661629637
20
28.7102898398181
30
0
41
1
10
11.4718942988461
20
28.7317479175077
30
0
41
1
10
11.5055184173009
20
28.7595171082213
30
0
41
1
10
11.5155844285988
20
28.7673278090666
30
0
41
1
10
11.5258761474651
20
28.7748311955996
30
0
0
SPLINE
5
2B5
100
AcDbEntity
8
1
62
256
6
ByLayer
370
18
48
1
60
0
100
AcDbSpline
70
4
71
3
72
8
73
4
40
0
40
0
40
0
40
0
40
1
40
1
40
1
40
1
41
1
10
5.42706644936197
20
32.1105099287634
30
0
41
1
10
5.28879698621881
20
32.0959772225792
30
0
41
1
10
5.14997116332665
20
32.0862909743709
30
0
41
1
10
5.01109997092453
20
32.0814862959452
30
0
0
SPLINE
5
2B6
100
AcDbEntity
8
1
62
256
6
ByLayer
370
18
48
1
60
0
100
AcDbSpline
70
4
71
3
72
14
73
10
40
0
40
0
40
0
40
0
40
0.122040348549998
40
0.122040348549998
40
0.60619762986924
40
0.60619762986924
40
0.918061832229864
40
0.918061832229864
40
1
40
1
40
1
40
1
41
1
10
6.39600485047776
20
23.9211126830769
30
0
41
1
10
6.38448624879481
20
23.908274148056
30
0
41
1
10
6.37334182631639
20
23.895643874552
30
0
41
1
10
6.32043889820761
20
23.8348961737054
30
0
41
1
10
6.28378825304003
20
23.7900296518174
30
0
41
1
10
6.23801709669578
20
23.7362241619606
30
0
41
1
10
6.22349384949075
20
23.7200334660089
30
0
41
1
10
6.21133297589949
20
23.7095828781004
30
0
41
1
10
6.20912066771723
20
23.7079317040973
30
0
41
1
10
6.20725317199162
20
23.7068392251041
30
0
0
SPLINE
5
2B7
100
AcDbEntity
8
1
62
256
6
ByLayer
370
18
48
1
60
0
100
AcDbSpline
70
4
71
2
72
6
73
3
40
0
40
0
40
0
40
1
40
1
40
1
41
0.499957934464559
10
17.637505554904
20
21.6013253373816
30
0
41
0.500042065535442
10
17.9093723027131
20
21.6059768687259
30
0
41
0.499957934464559
10
18.1812417544708
20
21.61062856513
30
0
0
SPLINE
5
2B8
100
AcDbEntity
8
1
62
256
6
ByLayer
370
18
48
1
60
0
100
AcDbSpline
70
4
71
3
72
8
73
4
40
0
40
0
40
0
40
0
40
1
40
1
40
1
40
1
41
1
10
4.6476072426941
20
32.0432816707199
30
0
41
1
10
4.78751595723906
20
32.0483264153196
30
0
41
1
10
4.92904248960712
20
32.0581655013294
30
0
41
1
10
5.06969255809667
20
32.0729484192181
30
0
0
SPLINE
5
2B9
100
AcDbEntity
8
1
62
256
6
ByLayer
370
18
48
1
60
0
100
AcDbSpline
70
4
71
3
72
12
73
8
40
0
40
0
40
0
40
0
40
0.205791695165696
40
0.205791695165696
40
0.448978358446545
40
0.448978358446545
40
1
40
1
40
1
40
1
41
1
10
9.3431584611576
20
20.7295543290652
30
0
41
1
10
9.34824268506622
20
20.7305748527525
30
0
41
1
10
9.36042938379932
20
20.7374351067941
30
0
41
1
10
9.39787530812827
20
20.7626457730528
30
0
41
1
10
9.42532193521083
20
20.7830380882946
30
0
41
1
10
9.52304088290338
20
20.8625291498742
30
0
41
1
10
9.60557239388117
20
20.9397842988407
30
0
41
1
10
9.68337971356993
20
21.0290453975249
30
0
0
SPLINE
5
2BA
100
AcDbEntity
8
1
62
256
6
ByLayer
370
18
48
1
60
0
100
AcDbSpline
70
4
71
3
72
20
73
16
40
0
40
0
40
0
40
0
40
0.332431012821216
40
0.664862025642431
40
0.831077532053039
40
0.914185285258343
40
0.955739161860994
40
0.97651610016232
40
0.986255289991067
40
0.995690130137665
40
0.995994479819813
40
0.99664375914173
40
0.997293038463646
40
0.999890155751312
40
1
40
1
40
1
40
1
41
1
10
13.0289299938837
20
21.4810175694725
30
0
41
1
10
13.5243067099364
20
21.5330837603817
30
0
41
1
10
14.5150601420415
20
21.6372161422
30
0
41
1
10
15.7535025244929
20
21.7673761809024
30
0
41
1
10
16.6204102967853
20
21.8585056114194
30
0
41
1
10
17.0538671445308
20
21.9040431338258
30
0
41
1
10
17.2705909594146
20
21.9268542139051
30
0
41
1
10
17.3779918507389
20
21.9380982285966
30
0
41
1
10
17.4375255562236
20
21.9443534927926
30
0
41
1
10
17.4665506325018
20
21.9474126100323
30
0
41
1
10
17.4820303317094
20
21.9490473157674
30
0
41
1
10
17.4844187957304
20
21.9492995940636
30
0
41
1
10
17.4902228268988
20
21.94992027789
30
0
41
1
10
17.4952195765186
20
21.950487201495
30
0
41
1
10
17.4992476776163
20
21.9509622866889
30
0
41
1
10
17.4994111284891
20
21.950981592849
30
0
0
SPLINE
5
2BB
100
AcDbEntity
8
1
62
256
6
ByLayer
370
18
48
1
60
0
100
AcDbSpline
70
4
71
3
72
21
73
17
40
0
40
0
40
0
40
0
40
0.0592792738439046
40
0.122239377580493
40
0.185199481317079
40
0.248159585053669
40
0.311119688790259
40
0.374079792526845
40
0.500000000000022
40
0.625920207473198
40
0.751840414946374
40
0.814800518682962
40
0.87776062241955
40
0.909240674287844
40
0.940720726156138
40
1
40
1
40
1
40
1
41
1
10
15.593312424569
20
31.8258743443757
30
0
41
1
10
15.597824123417
20
31.8262908077931
30
0
41
1
10
15.6067730279319
20
31.8268938025856
30
0
41
1
10
15.6198079735707
20
31.8264965186125
30
0
41
1
10
15.6340907202268
20
31.824737223551
30
0
41
1
10
15.6487368214989
20
31.8215243250518
30
0
41
1
10
15.6631208998408
20
31.8167583347679
30
0
41
1
10
15.681757993881
20
31.8083595448793
30
0
41
1
10
15.7036781296987
20
31.7940782763179
30
0
41
1
10
15.7258449225735
20
31.771811566085
30
0
41
1
10
15.7397844681236
20
31.7504054346486
30
0
41
1
10
15.7480185750701
20
31.7321201170399
30
0
41
1
10
15.7519216808234
20
31.7207372760334
30
0
41
1
10
15.7542816944938
20
31.7119756853419
30
0
41
1
10
15.7561273813907
20
31.7034480972523
30
0
41
1
10
15.7570726019294
20
31.6968305163095
30
0
41
1
10
15.7576048658254
20
31.6923135874235
30
0
0
SPLINE
5
2BC
100
AcDbEntity
8
1
62
256
6
ByLayer
370
18
48
1
60
0
100
AcDbSpline
70
4
71
1
72
4
73
2
40
0
40
0
40
1
40
1
41
1
10
6.82291893361946
20
21.6587059904374
30
0
41
1
10
6.72084398413449
20
22.5050996757616
30
0
0
SPLINE
5
2BD
100
AcDbEntity
8
1
62
256
6
ByLayer
370
18
48
1
60
0
100
AcDbSpline
70
4
71
3
72
20
73
16
40
0
40
0
40
0
40
0
40
0.332431012821213
40
0.664862025642427
40
0.831077532053033
40
0.914185285258337
40
0.955739161860989
40
0.976516100162314
40
0.986255289991061
40
0.995690130137659
40
0.995994479819807
40
0.996643759141724
40
0.99729303846364
40
0.999890155751306
40
1
40
1
40
1
40
1
41
1
10
18.5146816419772
20
28.2818235347522
30
0
41
1
10
18.4624165666773
20
28.7790925093829
30
0
41
1
10
18.3578864160775
20
29.7736304586443
30
0
41
1
10
18.2272291456864
20
31.0168034854431
30
0
41
1
10
18.135751719265
20
31.8870227154916
30
0
41
1
10
18.0900400953474
20
32.3221352816263
30
0
41
1
10
18.0671421256764
20
32.539686972028
30
0
41
1
10
18.0558548267696
20
32.6474980822144
30
0
41
1
10
18.0495756535449
20
32.7072591952125
30
0
41
1
10
18.046504914769
20
32.736395149272
30
0
41
1
10
18.0448640229749
20
32.7519339845381
30
0
41
1
10
18.0446107903731
20
32.7543315730871
30
0
41
1
10
18.0439878159979
20
32.7601577831581
30
0
41
1
10
18.0434190416631
20
32.7651736526392
30
0
41
1
10
18.0429425317444
20
32.7692171814219
30
0
41
1
10
18.0429231678777
20
32.7693812583363
30
0
0
SPLINE
5
2BE
100
AcDbEntity
8
1
62
256
6
ByLayer
370
18
48
1
60
0
100
AcDbSpline
70
4
71
3
72
41
73
37
40
0
40
0
40
0
40
0
40
0.0078125
40
0.01171875
40
0.013671875
40
0.015625
40
0.03125
40
0.0625
40
0.09375
40
0.125
40
0.1328125
40
0.140625
40
0.15625
40
0.1875
40
0.25
40
0.3125
40
0.375
40
0.4375
40
0.46875
40
0.4765625
40
0.484375
40
0.5
40
0.5625
40
0.625
40
0.6875
40
0.71875
40
0.734375
40
0.7421875
40
0.75
40
0.78125
40
0.8125
40
0.875
40
0.90625
40
0.921875
40
0.9375
40
1
40
1
40
1
40
1
41
1
10
16.1422672722592
20
28.0324727366897
30
0
41
1
10
16.148580148822
20
28.0331362467531
30
0
41
1
10
16.1585192557078
20
28.0341808889816
30
0
41
1
10
16.1689109466638
20
28.0352730997126
30
0
41
1
10
16.1744164564411
20
28.0358517521075
30
0
41
1
10
16.1883710429864
20
28.0373184382548
30
0
41
1
10
16.2231863332751
20
28.0409776727161
30
0
41
1
10
16.2789423023007
20
28.0468378612021
30
0
41
1
10
16.3458337929267
20
28.0538684401701
30
0
41
1
10
16.3960081470659
20
28.0591419772918
30
0
41
1
10
16.4294365652245
20
28.0626554456186
30
0
41
1
10
16.4516755441703
20
28.0649928564938
30
0
41
1
10
16.4904706128968
20
28.0690703825244
30
0
41
1
10
16.5705314388836
20
28.0774851144144
30
0
41
1
10
16.6898568314198
20
28.0900267185447
30
0
41
1
10
16.8392908204517
20
28.1057328636846
30
0
41
1
10
16.9924067975235
20
28.1218260013617
30
0
41
1
10
17.1210114521376
20
28.1353428952365
30
0
41
1
10
17.204136231325
20
28.1440796615847
30
0
41
1
10
17.2422455333717
20
28.1480851106328
30
0
41
1
10
17.2678099593075
20
28.1507720400707
30
0
41
1
10
17.3386676126212
20
28.158219479535
30
0
41
1
10
17.4543473554909
20
28.1703779104451
30
0
41
1
10
17.6086786278954
20
28.1865987808088
30
0
41
1
10
17.7372822930101
20
28.200115570683
30
0
41
1
10
17.8273212630909
20
28.2095790477774
30
0
41
1
10
17.8723152186276
20
28.2143081030657
30
0
41
1
10
17.8980675742543
20
28.2170147847101
30
0
41
1
10
17.9365729919601
20
28.2210618671917
30
0
41
1
10
17.9942323213838
20
28.2271221069167
30
0
41
1
10
18.0965392235797
20
28.2378749956344
30
0
41
1
10
18.1978273895826
20
28.2485208108636
30
0
41
1
10
18.2844775533806
20
28.2576281100652
30
0
41
1
10
18.333309302078
20
28.2627605336688
30
0
41
1
10
18.4057294479582
20
28.2703721977193
30
0
41
1
10
18.4662942196576
20
28.2767378117328
30
0
41
1
10
18.5146816419772
20
28.2818235347522
30
0
0
SPLINE
5
2BF
100
AcDbEntity
8
1
62
256
6
ByLayer
370
18
48
1
60
0
100
AcDbSpline
70
4
71
3
72
20
73
16
40
0
40
0
40
0
40
0
40
0.332431012821214
40
0.664862025642427
40
0.831077532053034
40
0.914185285258337
40
0.955739161860989
40
0.976516100162315
40
0.986255289991061
40
0.995690130137659
40
0.995994479819808
40
0.996643759141724
40
0.99729303846364
40
0.999890155751306
40
1
40
1
40
1
40
1
41
1
10
6.24908811391458
20
26.9926577069055
30
0
41
1
10
6.30135318921452
20
26.4953887322748
30
0
41
1
10
6.40588333981429
20
25.5008507830134
30
0
41
1
10
6.53654061020552
20
24.2576777562147
30
0
41
1
10
6.62801803662682
20
23.3874585261661
30
0
41
1
10
6.67372966054449
20
22.9523459600315
30
0
41
1
10
6.69662763021551
20
22.7347942696297
30
0
41
1
10
6.70791492912224
20
22.6269831594433
30
0
41
1
10
6.71419410234693
20
22.5672220464452
30
0
41
1
10
6.71726484112287
20
22.5380860923857
30
0
41
1
10
6.71890573291693
20
22.5225472571196
30
0
41
1
10
6.71915896551877
20
22.5201496685706
30
0
41
1
10
6.719781939894
20
22.5143234584996
30
0
41
1
10
6.72035071422863
20
22.5093075890185
30
0
41
1
10
6.72082722414757
20
22.5052640602358
30
0
41
1
10
6.72084658801418
20
22.5050999833214
30
0
0
SPLINE
5
2C0
100
AcDbEntity
8
1
62
256
6
ByLayer
370
18
48
1
60
0
100
AcDbSpline
70
4
71
3
72
46
73
42
40
0
40
0
40
0
40
0
40
0.0002356819181379
40
0.0012435088516881
40
0.0022513357852384
40
0.0026922600686666
40
0.0093061243200902
40
0.0163609128549421
40
0.0324861437917463
40
0.0486113747285505
40
0.0647366056653548
40
0.0687679133995558
40
0.0707835672666564
40
0.0727992211337569
40
0.076830528867958
40
0.0788461827350585
40
0.080861836602159
40
0.0848931443363601
40
0.0889244520705611
40
0.0969870675389632
40
0.129237529412572
40
0.16148799128618
40
0.193738453159789
40
0.209863684096593
40
0.217926299564995
40
0.219941953432095
40
0.221957607299196
40
0.222965434232746
40
0.223973261166297
40
0.225988915033397
40
0.226492828500172
40
0.226996741966947
40
0.227232951404498
40
0.234555443968574
40
0.242114145970201
40
0.258239376907005
40
0.290489838780614
40
0.354990762527831
40
0.483992610022265
40
0.741996305011132
40
1
40
1
40
1
40
1
41
1
10
8.93788089363954
20
23.5749907170089
30
0
41
1
10
8.93784784375998
20
23.5752711868222
30
0
41
1
10
8.93767519670177
20
23.5767549664013
30
0
41
1
10
8.93737800059216
20
23.5794800099867
30
0
41
1
10
8.9370670403938
20
23.5824870346398
30
0
41
1
10
8.9360451868572
20
23.5923530564567
30
0
41
1
10
8.93424648998007
20
23.6095922820825
30
0
41
1
10
8.93042627578006
20
23.6459391922742
30
0
41
1
10
8.92538650059873
20
23.6938894501171
30
0
41
1
10
8.91918370037558
20
23.7529051520775
30
0
41
1
10
8.91453160020819
20
23.7971669285478
30
0
41
1
10
8.91168865010581
20
23.8242157919463
30
0
41
1
10
8.91065485006856
20
23.8340517422731
30
0
41
1
10
8.90962105003143
20
23.8438876925998
30
0
41
1
10
8.90858724999418
20
23.8537236429266
30
0
41
1
10
8.90755344995705
20
23.8635595932533
30
0
41
1
10
8.9065196499198
20
23.87339554358
30
0
41
1
10
8.90522739987329
20
23.8856904814884
30
0
41
1
10
8.90315979979891
20
23.9053623821419
30
0
41
1
10
8.89747389959427
20
23.959460108939
30
0
41
1
10
8.88816969925938
20
24.0479836618796
30
0
41
1
10
8.87576409881308
20
24.1660150658005
30
0
41
1
10
8.86542609844093
20
24.2643745690678
30
0
41
1
10
8.85818949818053
20
24.333226221355
30
0
41
1
10
8.85482964805965
20
24.3651930599169
30
0
41
1
10
8.85327894800389
20
24.379946985407
30
0
41
1
10
8.85263282298058
20
24.3860944543612
30
0
41
1
10
8.85211592296195
20
24.3910124295246
30
0
41
1
10
8.85159902294344
20
24.395930404688
30
0
41
1
10
8.85114673542716
20
24.4002336329559
30
0
41
1
10
8.85075906041311
20
24.4039221143284
30
0
41
1
10
8.85059954829807
20
24.4054397707265
30
0
41
1
10
8.84956574826083
20
24.4152757210532
30
0
41
1
10
8.84762737319101
20
24.4337181279159
30
0
41
1
10
8.84365168515739
20
24.4715442728248
30
0
41
1
10
8.83647969739922
20
24.5397811782165
30
0
41
1
10
8.82200649687843
20
24.6774844827909
30
0
41
1
10
8.79306009583683
20
24.9528910919395
30
0
41
1
10
8.73516729375342
20
25.5037043102368
30
0
41
1
10
8.65246329077717
20
26.2905803363758
30
0
41
1
10
8.58630008839623
20
26.9200811572871
30
0
41
1
10
8.55321848720564
20
27.2348315677427
30
0
0
SPLINE
5
2C1
100
AcDbEntity
8
1
62
256
6
ByLayer
370
18
48
1
60
0
100
AcDbSpline
70
4
71
1
72
4
73
2
40
0
40
0
40
1
40
1
41
1
10
6.42119581338283
20
33.2217168252037
30
0
41
1
10
7.26435831892354
20
33.3235022626616
30
0
0
SPLINE
5
2C2
100
AcDbEntity
8
1
62
256
6
ByLayer
370
18
48
1
60
0
100
AcDbSpline
70
4
71
3
72
41
73
37
40
0
40
0
40
0
40
0
40
0.0078125
40
0.01171875
40
0.013671875
40
0.015625
40
0.03125
40
0.0625
40
0.09375
40
0.125
40
0.1328125
40
0.140625
40
0.15625
40
0.1875
40
0.25
40
0.3125
40
0.375
40
0.4375
40
0.46875
40
0.4765625
40
0.484375
40
0.5
40
0.5625
40
0.625
40
0.6875
40
0.71875
40
0.734375
40
0.7421875
40
0.75
40
0.78125
40
0.8125
40
0.875
40
0.90625
40
0.921875
40
0.9375
40
1
40
1
40
1
40
1
41
1
10
11.9473988654173
20
31.4426710114767
30
0
41
1
10
11.9467328208532
20
31.4490080022023
30
0
41
1
10
11.9458672103192
20
31.4588362879522
30
0
41
1
10
11.9452828502551
20
31.4688514270381
30
0
41
1
10
11.9450631972661
20
31.4740843232125
30
0
41
1
10
11.944477246481
20
31.4873716698692
30
0
41
1
10
11.9430309890495
20
31.5205095566941
30
0
41
1
10
11.9407035036593
20
31.5735884125689
30
0
41
1
10
11.9379146210111
20
31.6372653188302
30
0
41
1
10
11.9358201701373
20
31.6850305318267
30
0
41
1
10
11.9344328381977
20
31.7168472982321
30
0
41
1
10
11.9335039155993
20
31.7380189442285
30
0
41
1
10
11.931807251593
20
31.7750140313638
30
0
41
1
10
11.9279160749842
20
31.8516771435725
30
0
41
1
10
11.9210502616753
20
31.9668052869526
30
0
41
1
10
11.9107605414323
20
32.112358060159
30
0
41
1
10
11.8986064599585
20
32.2628067041034
30
0
41
1
10
11.8870830028743
20
32.3902400784055
30
0
41
1
10
11.8790170385723
20
32.4731099249754
30
0
41
1
10
11.8752037364859
20
32.5111961552124
30
0
41
1
10
11.8726116945029
20
32.5367727510256
30
0
41
1
10
11.865435743282
20
32.6076572373171
30
0
41
1
10
11.8537165755505
20
32.7233840053014
30
0
41
1
10
11.8380829647468
20
32.8777770172621
30
0
41
1
10
11.8250548934434
20
33.006432652112
30
0
41
1
10
11.8159354219365
20
33.0965065116158
30
0
41
1
10
11.8113754085396
20
33.1415202297294
30
0
41
1
10
11.8087701381874
20
33.1672801082353
30
0
41
1
10
11.8048718786051
20
33.2057990580337
30
0
41
1
10
11.7988727172715
20
33.2636101643656
30
0
41
1
10
11.7877075070355
20
33.3666096659736
30
0
41
1
10
11.7758813796222
20
33.46921120683
30
0
41
1
10
11.7650712790957
20
33.5575483633302
30
0
41
1
10
11.7587858993759
20
33.6074879937419
30
0
41
1
10
11.7492291413083
20
33.6817423910804
30
0
41
1
10
11.7412290147861
20
33.7438475122605
30
0
41
1
10
11.7348397620082
20
33.7934636721851
30
0
0
SPLINE
5
2C3
100
AcDbEntity
8
1
62
256
6
ByLayer
370
18
48
1
60
0
100
AcDbSpline
70
4
71
1
72
4
73
2
40
0
40
0
40
1
40
1
41
1
10
5.77751927330905
20
31.4802346671719
30
0
41
1
10
5.70138843332483
20
32.3293559167669
30
0
0
SPLINE
5
2C4
100
AcDbEntity
8
1
62
256
6
ByLayer
370
18
48
1
60
0
100
AcDbSpline
70
4
71
3
72
45
73
41
40
0
40
0
40
0
40
0
40
0.0011565097570576
40
0.0196321945810327
40
0.0288700369930203
40
0.0381078794050078
40
0.0565835642289829
40
0.130486303524883
40
0.204389042820784
40
0.278291782116684
40
0.31062423055864
40
0.340935900972974
40
0.342956679000597
40
0.347575600206591
40
0.352194521412584
40
0.370670206236559
40
0.379908048648547
40
0.389145891060534
40
0.407621575884509
40
0.426097260708485
40
0.463048630356435
40
0.500000000004384
40
0.536951369652335
40
0.55542705447631
40
0.573902739300285
40
0.592378424124261
40
0.610854108948235
40
0.62932979377221
40
0.647805478596185
40
0.652424399802179
40
0.657043321008173
40
0.68937576945013
40
0.721708217892085
40
0.795610957187986
40
0.869513696483886
40
0.943416435779786
40
0.961892120603762
40
0.980367805427737
40
0.998843490251714
40
1
40
1
40
1
40
1
41
1
10
17.9408466747102
20
33.615774732574
30
0
41
1
10
17.9407891048752
20
33.6162356817272
30
0
41
1
10
17.9398093841944
20
33.6240546612732
30
0
41
1
10
17.9383015938893
20
33.6354092973626
30
0
41
1
10
17.9360806144443
20
33.649725230185
30
0
41
1
10
17.9336656410487
20
33.6639597328505
30
0
41
1
10
17.9262246128501
20
33.7030298566427
30
0
41
1
10
17.9094806226186
20
33.7678924107823
30
0
41
1
10
17.8768675776516
20
33.8540798547651
30
0
41
1
10
17.8416155023638
20
33.9225136640115
30
0
41
1
10
17.8102816015521
20
33.9726446233995
30
0
41
1
10
17.7941738703398
20
33.9957917710106
30
0
41
1
10
17.7846005342234
20
34.0088141218392
30
0
41
1
10
17.7816605973693
20
34.0127689449329
30
0
41
1
10
17.7743450247232
20
34.0224586664788
30
0
41
1
10
17.7655808470765
20
34.0336286140601
30
0
41
1
10
17.7552601162583
20
34.0461962512886
30
0
41
1
10
17.7447397001124
20
34.0586274611066
30
0
41
1
10
17.7312210196915
20
34.0739023920273
30
0
41
1
10
17.7088323881169
20
34.0977435801334
30
0
41
1
10
17.6794739537221
20
34.126356260547
30
0
41
1
10
17.6422075942085
20
34.1585774225936
30
0
41
1
10
17.6095887574494
20
34.1834900398414
30
0
41
1
10
17.5826754622799
20
34.2022006040625
30
0
41
1
10
17.5621113521557
20
34.2156096327142
30
0
41
1
10
17.5411980774187
20
34.2283806371259
30
0
41
1
10
17.5199656122028
20
34.2404994875721
30
0
41
1
10
17.4984439306422
20
34.2519520543271
30
0
41
1
10
17.4821082378138
20
34.2600311693307
30
0
41
1
10
17.4711461296542
20
34.2652002012677
30
0
41
1
10
17.4546614435699
20
34.2728235681432
30
0
41
1
10
17.4269199005896
20
34.2846616114626
30
0
41
1
10
17.3707411898286
20
34.3053086917722
30
0
41
1
10
17.2967338738325
20
34.3256967838404
30
0
41
1
10
17.2059771326184
20
34.339802219441
30
0
41
1
10
17.1392975161904
20
34.3427584886623
30
0
41
1
10
17.0960814187097
20
34.3418679268599
30
0
41
1
10
17.0745413403426
20
34.3408401214847
30
0
41
1
10
17.0595242020231
20
34.3396783038832
30
0
41
1
10
17.0517021438995
20
34.3390146884621
30
0
41
1
10
17.0512410521899
20
34.3389753827425
30
0
0
SPLINE
5
2C5
100
AcDbEntity
8
1
62
256
6
ByLayer
370
18
48
1
60
0
100
AcDbSpline
70
4
71
1
72
4
73
2
40
0
40
0
40
1
40
1
41
1
10
16.2053402120155
20
34.2632373382489
30
0
41
1
10
17.0512406951855
20
34.3389795633454
30
0
0
SPLINE
5
2C6
100
AcDbEntity
8
1
62
256
6
ByLayer
370
18
48
1
60
0
100
AcDbSpline
70
4
71
1
72
4
73
2
40
0
40
0
40
1
40
1
41
1
10
8.5584295438764
20
21.0112439034088
30
0
41
1
10
7.71252906070651
20
20.9355016783123
30
0
0
SPLINE
5
2C7
100
AcDbEntity
8
1
62
256
6
ByLayer
370
18
48
1
60
0
100
AcDbSpline
70
4
71
3
72
45
73
41
40
0
40
0
40
0
40
0
40
0.0011565097570429
40
0.0196321945810183
40
0.028870036993006
40
0.0381078794049937
40
0.056583564228969
40
0.130486303524871
40
0.204389042820772
40
0.278291782116673
40
0.31062423055863
40
0.340935900972965
40
0.342956679000587
40
0.347575600206581
40
0.352194521412575
40
0.37067020623655
40
0.379908048648538
40
0.389145891060526
40
0.407621575884501
40
0.426097260708476
40
0.463048630356427
40
0.500000000004378
40
0.536951369652329
40
0.555427054476303
40
0.573902739300279
40
0.592378424124256
40
0.61085410894823
40
0.629329793772205
40
0.647805478596181
40
0.652424399802174
40
0.657043321008168
40
0.689375769450126
40
0.721708217892082
40
0.795610957187984
40
0.869513696483885
40
0.943416435779787
40
0.961892120603762
40
0.980367805427737
40
0.998843490251714
40
1
40
1
40
1
40
1
41
1
10
6.42119633338643
20
33.221712661733
30
0
41
1
10
6.42073714551486
20
33.2216552421709
30
0
41
1
10
6.41294804472056
20
33.2206780586722
30
0
41
1
10
6.40163686564369
20
33.219173635041
30
0
41
1
10
6.38737597707427
20
33.216955704776
30
0
41
1
10
6.37319636935421
20
33.2145429911495
30
0
41
1
10
6.33427756243645
20
33.2071051293926
30
0
41
1
10
6.26966969854197
20
33.190349989952
30
0
41
1
10
6.18382889483837
20
33.157683404443
30
0
41
1
10
6.11567773895444
20
33.1223538549014
30
0
41
1
10
6.06575820408966
20
33.0909426119247
30
0
41
1
10
6.04270997812796
20
33.0747930420227
30
0
41
1
10
6.02974368490549
20
33.0651942574371
30
0
41
1
10
6.025805912039
20
33.0622464703397
30
0
41
1
10
6.01615805441372
20
33.05491124371
30
0
41
1
10
6.00503662841367
20
33.0461231726751
30
0
41
1
10
5.9925239487959
20
33.0357738402885
30
0
41
1
10
5.98014734709363
20
33.025223968302
30
0
41
1
10
5.96493998524249
20
33.0116668831096
30
0
41
1
10
5.94120528072665
20
32.9892134942624
30
0
41
1
10
5.91272236814916
20
32.9597680420173
30
0
41
1
10
5.88065067310117
20
32.9223879768668
30
0
41
1
10
5.85585663654694
20
32.8896670067287
30
0
41
1
10
5.83723704639555
20
32.8626679808419
30
0
41
1
10
5.82389422670303
20
32.8420376614715
30
0
41
1
10
5.81118733330686
20
32.8210563670787
30
0
41
1
10
5.79913041958229
20
32.7997541725962
30
0
41
1
10
5.78773753890413
20
32.778161152957
30
0
41
1
10
5.77970144321193
20
32.7617708255597
30
0
41
1
10
5.77456033977034
20
32.7507718545997
30
0
41
1
10
5.76697841402074
20
32.734231615968
30
0
41
1
10
5.75520642186359
20
32.706395799808
30
0
41
1
10
5.73468072135938
20
32.6500235424425
30
0
41
1
10
5.71442717748516
20
32.5757558575412
30
0
41
1
10
5.7004461830038
20
32.4846711826742
30
0
41
1
10
5.69755377243427
20
32.4177447596451
30
0
41
1
10
5.69847527601791
20
32.3743664782612
30
0
41
1
10
5.69951633025618
20
32.3527451001613
30
0
41
1
10
5.70068572733885
20
32.3376709290009
30
0
41
1
10
5.70135307316309
20
32.329819117538
30
0
41
1
10
5.70139259808445
20
32.3293562717915
30
0
0
SPLINE
5
2C8
100
AcDbEntity
8
1
62
256
6
ByLayer
370
18
48
1
60
0
100
AcDbSpline
70
4
71
3
72
21
73
17
40
0
40
0
40
0
40
0
40
0.0592792738438947
40
0.122239377580484
40
0.185199481317071
40
0.248159585053662
40
0.311119688790253
40
0.37407979252684
40
0.500000000000018
40
0.625920207473196
40
0.751840414946374
40
0.814800518682963
40
0.877760622419552
40
0.909240674287847
40
0.940720726156141
40
1
40
1
40
1
40
1
41
1
10
8.16855139775145
20
30.8946719262712
30
0
41
1
10
8.16813290808227
20
30.8992008133103
30
0
41
1
10
8.16752506403122
20
30.9081836336002
30
0
41
1
10
8.16791053680572
20
30.9212669697047
30
0
41
1
10
8.16965196217552
20
30.9356016896286
30
0
41
1
10
8.17284129266511
20
30.9502999696126
30
0
41
1
10
8.17757814204992
20
30.96473401651
30
0
41
1
10
8.18593089853141
20
30.9834340909602
30
0
41
1
10
8.20014163677558
20
31.0054248114411
30
0
41
1
10
8.22230789945263
20
31.0276567807367
30
0
41
1
10
8.24362330795384
20
31.0416314435641
30
0
41
1
10
8.26183404083383
20
31.0498818230811
30
0
41
1
10
8.27317142113611
20
31.0537904899563
30
0
41
1
10
8.28189853056062
20
31.0561523767552
30
0
41
1
10
8.29039291603362
20
31.057998200475
30
0
41
1
10
8.29698511716355
20
31.0589417072431
30
0
41
1
10
8.3014848121802
20
31.0594723794865
30
0
0
SPLINE
5
2C9
100
AcDbEntity
8
1
62
256
6
ByLayer
370
18
48
1
60
0
100
AcDbSpline
70
4
71
3
72
42
73
38
40
0
40
0
40
0
40
0
40
0.258003694988867
40
0.516007389977735
40
0.645009237472169
40
0.709510161219386
40
0.741760623092994
40
0.749823238561396
40
0.757885854029798
40
0.765444556031425
40
0.769223907032239
40
0.773003258033052
40
0.773507171499827
40
0.774011084966603
40
0.776026738833703
40
0.778042392700804
40
0.782073700435005
40
0.790136315903407
40
0.806261546840211
40
0.83851200871382
40
0.870762470587428
40
0.903012932461036
40
0.911075547929439
40
0.91510685566364
40
0.919138163397841
40
0.923169471132042
40
0.927200778866243
40
0.931232086600444
40
0.935263394334645
40
0.951388625271449
40
0.967513856208253
40
0.983639087145058
40
0.990693875679909
40
0.997748664214761
40
0.998756491148312
40
0.999764318081862
40
1
40
1
40
1
40
1
41
1
10
16.1422672722592
20
28.0324727366897
30
0
41
1
10
16.1753488734497
20
27.7177223262341
30
0
41
1
10
16.2415120758308
20
27.0882215053228
30
0
41
1
10
16.324216078807
20
26.3013454791838
30
0
41
1
10
16.3821088808902
20
25.7505322608865
30
0
41
1
10
16.411055281932
20
25.4751256517378
30
0
41
1
10
16.4244946824156
20
25.3472582974902
30
0
41
1
10
16.4306974826388
20
25.2882425955298
30
0
41
1
10
16.4337342702481
20
25.259349491445
30
0
41
1
10
16.4362218515876
20
25.2356817359713
30
0
41
1
10
16.4381602266574
20
25.2172393291087
30
0
41
1
10
16.4391940266946
20
25.2074033787819
30
0
41
1
10
16.4398078454667
20
25.2015632832754
30
0
41
1
10
16.4401955204806
20
25.1978748019029
30
0
41
1
10
16.4407770330016
20
25.1923420798441
30
0
41
1
10
16.4418108330387
20
25.1825061295174
30
0
41
1
10
16.4436199831039
20
25.1652932164456
30
0
41
1
10
16.4472382832341
20
25.130867390302
30
0
41
1
10
16.4544748834945
20
25.0620157380148
30
0
41
1
10
16.4648128838666
20
24.9636562347475
30
0
41
1
10
16.477218484313
20
24.8456248308266
30
0
41
1
10
16.4865226846477
20
24.757101277886
30
0
41
1
10
16.4922085848525
20
24.7030035510889
30
0
41
1
10
16.4942761849268
20
24.6833316504354
30
0
41
1
10
16.4958268849825
20
24.6685777249453
30
0
41
1
10
16.4973775850384
20
24.6538237994552
30
0
41
1
10
16.4989282850943
20
24.6390698739651
30
0
41
1
10
16.50047898515
20
24.624315948475
30
0
41
1
10
16.5035803852617
20
24.5948080974947
30
0
41
1
10
16.5082324854291
20
24.5505463210244
30
0
41
1
10
16.5144352856523
20
24.491530619064
30
0
41
1
10
16.5194750608336
20
24.4435803612212
30
0
41
1
10
16.5233518109732
20
24.4066955474959
30
0
41
1
10
16.5253075450641
20
24.3882270788215
30
0
41
1
10
16.5264928888475
20
24.3771281266602
30
0
41
1
10
16.5267687556055
20
24.3744008412695
30
0
41
1
10
16.5269083764208
20
24.3729135904925
30
0
41
1
10
16.5269343617135
20
24.3726323781612
30
0
0
SPLINE
5
2CA
100
AcDbEntity
8
1
62
256
6
ByLayer
370
18
48
1
60
0
100
AcDbSpline
70
4
71
1
72
4
73
2
40
0
40
0
40
1
40
1
41
1
10
18.342573942509
20
22.052764416454
30
0
41
1
10
17.4994114369683
20
21.9509789789961
30
0
0
SPLINE
5
2CB
100
AcDbEntity
8
1
62
256
6
ByLayer
370
18
48
1
60
0
100
AcDbSpline
70
4
71
3
72
21
73
17
40
0
40
0
40
0
40
0
40
0.0001096836879301
40
0.0027068013926367
40
0.0033560808188137
40
0.0040053602449901
40
0.0088749559413146
40
0.0137445516376401
40
0.0234837430302901
40
0.033872213849117
40
0.0442606846679435
40
0.0858145679432503
40
0.168922334493864
40
0.335137867595091
40
0.667568933797546
40
1
40
1
40
1
40
1
41
1
10
18.9862478698213
20
23.7942463337771
30
0
41
1
10
18.9862327191317
20
23.79441061068
30
0
41
1
10
18.9858581404253
20
23.7984646100374
30
0
41
1
10
18.9853716510485
20
23.803488885173
30
0
41
1
10
18.9847696747521
20
23.8093173022311
30
0
41
1
10
18.9838046177969
20
23.8185444545548
30
0
41
1
10
18.9821774527516
20
23.8340847361431
30
0
41
1
10
18.9791211714396
20
23.8632222162491
30
0
41
1
10
18.9751898614266
20
23.900614387845
30
0
41
1
10
18.9703793952817
20
23.9462608397784
30
0
41
1
10
18.9605505282678
20
24.0394958189005
30
0
41
1
10
18.9393475786928
20
24.2415143513795
30
0
41
1
10
18.8935953046324
20
24.6766226450119
30
0
41
1
10
18.8021449783062
20
25.5468447233953
30
0
41
1
10
18.671476867877
20
26.7900166108602
30
0
41
1
10
18.5669467172772
20
27.7845545601215
30
0
41
1
10
18.5146816419772
20
28.2818235347522
30
0
0
SPLINE
5
2CC
100
AcDbEntity
8
1
62
256
6
ByLayer
370
18
48
1
60
0
100
AcDbSpline
70
4
71
3
72
42
73
38
40
0
40
0
40
0
40
0
40
0.258003694988868
40
0.516007389977737
40
0.645009237472171
40
0.709510161219388
40
0.741760623092996
40
0.749823238561398
40
0.757885854029801
40
0.765444556031428
40
0.769223907032241
40
0.773003258033055
40
0.77350717149983
40
0.774011084966605
40
0.776026738833705
40
0.778042392700806
40
0.782073700435007
40
0.790136315903409
40
0.806261546840213
40
0.838512008713822
40
0.87076247058743
40
0.903012932461039
40
0.911075547929441
40
0.915106855663643
40
0.919138163397843
40
0.923169471132044
40
0.927200778866245
40
0.931232086600446
40
0.935263394334648
40
0.951388625271452
40
0.967513856208256
40
0.98363908714506
40
0.990693875679912
40
0.997748664214764
40
0.998756491148314
40
0.999764318081865
40
1
40
1
40
1
40
1
41
1
10
11.9473988654173
20
31.4426710114767
30
0
41
1
10
12.2609515555354
20
31.475626727187
30
0
41
1
10
12.8880569357716
20
31.5415381586077
30
0
41
1
10
13.6719386610669
20
31.6239274478836
30
0
41
1
10
14.2206558687735
20
31.6815999503768
30
0
41
1
10
14.4950144726267
20
31.7104362016233
30
0
41
1
10
14.6223952529872
20
31.7238244611307
30
0
41
1
10
14.6811863823843
20
31.7300036578264
30
0
41
1
10
14.709969539485
20
31.733028889542
30
0
41
1
10
14.7335472320037
20
31.7355070048834
30
0
41
1
10
14.7519194599403
20
31.7374380038508
30
0
41
1
10
14.7617179815065
20
31.7384678699668
30
0
41
1
10
14.7675358536865
20
31.7390793529731
30
0
41
1
10
14.7712102992737
20
31.7394655527666
30
0
41
1
10
14.7767219676547
20
31.7400448524569
30
0
41
1
10
14.7865204892209
20
31.7410747185728
30
0
41
1
10
14.8036679019617
20
31.7428769842757
30
0
41
1
10
14.8379627274434
20
31.7464815156815
30
0
41
1
10
14.9065523784068
20
31.7536905784932
30
0
41
1
10
15.0045375940687
20
31.7639892396527
30
0
41
1
10
15.1221198528629
20
31.776347633044
30
0
41
1
10
15.2103065469587
20
31.7856164280876
30
0
41
1
10
15.2641984155727
20
31.7912806917253
30
0
41
1
10
15.2837954587051
20
31.7933404239572
30
0
41
1
10
15.2984932410543
20
31.7948852231311
30
0
41
1
10
15.3131910234036
20
31.796430022305
30
0
41
1
10
15.3278888057529
20
31.797974821479
30
0
41
1
10
15.3425865881022
20
31.7995196206529
30
0
41
1
10
15.3719821528007
20
31.8026092190008
30
0
41
1
10
15.4160754998486
20
31.8072436165225
30
0
41
1
10
15.4748666292457
20
31.8134228132182
30
0
41
1
10
15.5226344218809
20
31.8184434105335
30
0
41
1
10
15.5593788777542
20
31.8223054084682
30
0
41
1
10
15.5777770567406
20
31.8242538106606
30
0
41
1
10
15.5888337591382
20
31.8254347856161
30
0
41
1
10
15.5915506749316
20
31.8257095212981
30
0
41
1
10
15.5930322795046
20
31.8258484848991
30
0
41
1
10
15.593312424569
20
31.8258743443757
30
0
0
SPLINE
5
2CD
100
AcDbEntity
8
1
62
256
6
ByLayer
370
18
48
1
60
0
100
AcDbSpline
70
4
71
3
72
46
73
42
40
0
40
0
40
0
40
0
40
0.0002356819181857
40
0.001243508851736
40
0.0022513357852862
40
0.0026922600687144
40
0.0093061243201377
40
0.0163609128549892
40
0.0324861437917927
40
0.0486113747285961
40
0.0647366056653996
40
0.0687679133996004
40
0.0707835672667009
40
0.0727992211338013
40
0.0768305288680022
40
0.0788461827351026
40
0.080861836602203
40
0.0848931443364039
40
0.0889244520706047
40
0.0969870675390065
40
0.129237529412613
40
0.16148799128622
40
0.193738453159827
40
0.209863684096631
40
0.217926299565032
40
0.219941953432133
40
0.221957607299233
40
0.222965434232784
40
0.223973261166334
40
0.225988915033434
40
0.226492828500209
40
0.226996741966984
40
0.227232951404535
40
0.234555443968611
40
0.242114145970238
40
0.258239376907041
40
0.290489838780648
40
0.354990762527862
40
0.483992610022289
40
0.741996305011145
40
1
40
1
40
1
40
1
41
1
10
16.3940009472849
20
24.207831924946
30
0
41
1
10
16.3937215475748
20
24.207798973897
30
0
41
1
10
16.3922434274591
20
24.207626857898
30
0
41
1
10
16.3895287620342
20
24.2073307113897
30
0
41
1
10
16.3865331759823
20
24.2070209728829
30
0
41
1
10
16.376704685382
20
24.206003121743
30
0
41
1
10
16.3595310497362
20
24.204211369144
30
0
41
1
10
16.3233224505111
20
24.2004056920125
30
0
41
1
10
16.275554657876
20
24.1953850946972
30
0
41
1
10
16.2167635284789
20
24.1892058980015
30
0
41
1
10
16.1726701814309
20
24.1845715004797
30
0
41
1
10
16.145724247124
20
24.1817393686609
30
0
41
1
10
16.1359257255579
20
24.180709502545
30
0
41
1
10
16.1261272039917
20
24.179679636429
30
0
41
1
10
16.1163286824253
20
24.1786497703131
30
0
41
1
10
16.1065301608592
20
24.1776199041971
30
0
41
1
10
16.096731639293
20
24.1765900380812
30
0
41
1
10
16.0844834873353
20
24.1753027054362
30
0
41
1
10
16.0648864442029
20
24.1732429732043
30
0
41
1
10
16.0109945755889
20
24.1675787095666
30
0
41
1
10
15.9228078814931
20
24.1583099145231
30
0
41
1
10
15.8052256226988
20
24.1459515211317
30
0
41
1
10
15.7072404070369
20
24.1356528599722
30
0
41
1
10
15.6386507560737
20
24.1284437971606
30
0
41
1
10
15.6068055609835
20
24.1250967322837
30
0
41
1
10
15.5921077786343
20
24.1235519331098
30
0
41
1
10
15.5859837026553
20
24.1229082667873
30
0
41
1
10
15.5810844418722
20
24.1223933337293
30
0
41
1
10
15.5761851810891
20
24.1218784006714
30
0
41
1
10
15.5718983279039
20
24.1214278342456
30
0
41
1
10
15.5682238823166
20
24.1210416344522
30
0
41
1
10
15.5667120010594
20
24.1208827293288
30
0
41
1
10
15.5569134794931
20
24.1198528632129
30
0
41
1
10
15.5385412515566
20
24.1179218642455
30
0
41
1
10
15.5008590465491
20
24.113961304905
30
0
41
1
10
15.4328818031836
20
24.1068166087256
30
0
41
1
10
15.295702501257
20
24.0923984831024
30
0
41
1
10
15.0213438974036
20
24.0635622318558
30
0
41
1
10
14.4726266896971
20
24.0058897293627
30
0
41
1
10
13.6887449644019
20
23.9235004400868
30
0
41
1
10
13.0616395841657
20
23.8575890086661
30
0
41
1
10
12.7480868940476
20
23.8246332929557
30
0
0
SPLINE
5
2CE
100
AcDbEntity
8
1
62
256
6
ByLayer
370
18
48
1
60
0
100
AcDbSpline
70
4
71
3
72
45
73
41
40
0
40
0
40
0
40
0
40
0.0011565097570555
40
0.0196321945810309
40
0.0288700369930186
40
0.0381078794050063
40
0.0565835642289816
40
0.130486303524883
40
0.204389042820784
40
0.278291782116686
40
0.310624230558643
40
0.340935900972977
40
0.3429566790006
40
0.347575600206594
40
0.352194521412587
40
0.370670206236563
40
0.37990804864855
40
0.389145891060538
40
0.407621575884513
40
0.426097260708489
40
0.46304863035644
40
0.50000000000439
40
0.53695136965234
40
0.555427054476316
40
0.573902739300291
40
0.592378424124268
40
0.610854108948242
40
0.629329793772217
40
0.647805478596193
40
0.652424399802186
40
0.65704332100818
40
0.689375769450138
40
0.721708217892094
40
0.795610957187996
40
0.869513696483897
40
0.943416435779798
40
0.961892120603774
40
0.980367805427749
40
0.998843490251727
40
1
40
1
40
1
40
1
41
1
10
6.82292308118155
20
21.6587065090837
30
0
41
1
10
6.82298065101667
20
21.6582455599305
30
0
41
1
10
6.82396037169746
20
21.6504265803845
30
0
41
1
10
6.8254681620026
20
21.6390719442951
30
0
41
1
10
6.82768914144753
20
21.6247560114727
30
0
41
1
10
6.83010411484315
20
21.6105215088072
30
0
41
1
10
6.83754514304189
20
21.5714513850151
30
0
41
1
10
6.85428913327314
20
21.5065888308755
30
0
41
1
10
6.88690217824023
20
21.4204013868926
30
0
41
1
10
6.9221542535281
20
21.3519675776462
30
0
41
1
10
6.95348815433976
20
21.3018366182582
30
0
41
1
10
6.96959588555205
20
21.278689470647
30
0
41
1
10
6.97916922166848
20
21.2656671198185
30
0
41
1
10
6.98210915852257
20
21.2617122967248
30
0
41
1
10
6.98942473116869
20
21.2520225751789
30
0
41
1
10
6.99818890881533
20
21.2408526275976
30
0
41
1
10
7.00850963963341
20
21.2282849903691
30
0
41
1
10
7.01903005577946
20
21.2158537805512
30
0
41
1
10
7.03254873620039
20
21.2005788496305
30
0
41
1
10
7.05493736777498
20
21.1767376615243
30
0
41
1
10
7.08429580216977
20
21.1481249811107
30
0
41
1
10
7.12156216168341
20
21.1159038190642
30
0
41
1
10
7.15418099844259
20
21.0909912018163
30
0
41
1
10
7.18109429361197
20
21.0722806375951
30
0
41
1
10
7.20165840373613
20
21.0588716089435
30
0
41
1
10
7.22257167847317
20
21.0461006045318
30
0
41
1
10
7.24380414368897
20
21.0339817540856
30
0
41
1
10
7.26532582524964
20
21.0225291873306
30
0
41
1
10
7.28166151807806
20
21.0144500723271
30
0
41
1
10
7.29262362623762
20
21.00928104039
30
0
41
1
10
7.30910831232199
20
21.0016576735146
30
0
41
1
10
7.33684985530226
20
20.9898196301951
30
0
41
1
10
7.39302856606332
20
20.9691725498856
30
0
41
1
10
7.46703588205935
20
20.9487844578173
30
0
41
1
10
7.55779262327359
20
20.9346790222167
30
0
41
1
10
7.62447223970139
20
20.9317227529954
30
0
41
1
10
7.6676883371822
20
20.9326133147978
30
0
41
1
10
7.68922841554922
20
20.933641120173
30
0
41
1
10
7.70424555386876
20
20.9348029377745
30
0
41
1
10
7.71206761199255
20
20.9354665531956
30
0
41
1
10
7.71252870370199
20
20.9355058589152
30
0
0
SPLINE
5
2CF
100
AcDbEntity
8
1
62
256
6
ByLayer
370
18
48
1
60
0
100
AcDbSpline
70
4
71
1
72
4
73
2
40
0
40
0
40
1
40
1
41
1
10
18.9862504825827
20
23.7942465744858
30
0
41
1
10
19.062381322567
20
22.9451253248908
30
0
0
SPLINE
5
2D0
100
AcDbEntity
8
1
62
256
6
ByLayer
370
18
48
1
60
0
100
AcDbSpline
70
4
71
3
72
21
73
17
40
0
40
0
40
0
40
0
40
0.000109683687925
40
0.0027068013926317
40
0.0033560808188087
40
0.0040053602449851
40
0.0088749559413097
40
0.0137445516376352
40
0.0234837430302852
40
0.0338722138491121
40
0.0442606846679387
40
0.0858145679432458
40
0.16892233449386
40
0.335137867595088
40
0.667568933797544
40
1
40
1
40
1
40
1
41
1
10
8.55842930199242
20
21.0112465261237
30
0
41
1
10
8.55859295544905
20
21.0112616032056
30
0
41
1
10
8.56263156894886
20
21.0116343680189
30
0
41
1
10
8.56763675816296
20
21.0121186925433
30
0
41
1
10
8.57344300474869
20
21.0127182980815
30
0
41
1
10
8.58263504874185
20
21.013679646836
30
0
41
1
10
8.59811619976915
20
21.0153005733855
30
0
41
1
10
8.62714280787429
20
21.0183451779311
30
0
41
1
10
8.66439268998965
20
21.0222615374322
30
0
41
1
10
8.7098654332218
20
21.0270537950684
30
0
41
1
10
8.80274560173507
20
21.0368454825773
30
0
41
1
10
9.00399541652996
20
21.0579675218675
30
0
41
1
10
9.43744797545309
20
21.1035458496936
30
0
41
1
10
10.3043586069605
20
21.1946480765975
30
0
41
1
10
11.5427998457258
20
21.3248189967452
30
0
41
1
10
12.5335532778311
20
21.4289513785634
30
0
41
1
10
13.0289299938837
20
21.4810175694725
30
0
0
SPLINE
5
2D1
100
AcDbEntity
8
1
62
256
6
ByLayer
370
18
48
1
60
0
100
AcDbSpline
70
4
71
3
72
21
73
17
40
0
40
0
40
0
40
0
40
0.0592792738436889
40
0.122239377580291
40
0.185199481316892
40
0.248159585053496
40
0.3111196887901
40
0.3740797925267
40
0.499999999999905
40
0.62592020747311
40
0.751840414946314
40
0.814800518682917
40
0.877760622419519
40
0.90924067428782
40
0.940720726156121
40
1
40
1
40
1
40
1
41
1
10
9.10217333489572
20
23.4414299600566
30
0
41
1
10
9.09766163604797
20
23.4410134966392
30
0
41
1
10
9.08871273153295
20
23.4404105018468
30
0
41
1
10
9.07567778589418
20
23.4408077858199
30
0
41
1
10
9.06139503923805
20
23.4425670808814
30
0
41
1
10
9.04674893796595
20
23.4457799793806
30
0
41
1
10
9.03236485962406
20
23.4505459696645
30
0
41
1
10
9.013727765584
20
23.458944759553
30
0
41
1
10
8.9918076297663
20
23.4732260281145
30
0
41
1
10
8.96964083689135
20
23.4954927383474
30
0
41
1
10
8.95570129134125
20
23.5168988697837
30
0
41
1
10
8.94746718439478
20
23.5351841873925
30
0
41
1
10
8.94356407864143
20
23.546567028399
30
0
41
1
10
8.94120406497109
20
23.5553286190904
30
0
41
1
10
8.9393583780743
20
23.56385620718
30
0
41
1
10
8.93841315753548
20
23.5704737881229
30
0
41
1
10
8.93788089363943
20
23.5749907170089
30
0
0
SPLINE
5
2D2
100
AcDbEntity
8
1
62
256
6
ByLayer
370
18
48
1
60
0
100
AcDbSpline
70
4
71
3
72
41
73
37
40
0
40
0
40
0
40
0
40
0.0625
40
0.078125
40
0.09375
40
0.125
40
0.1875
40
0.21875
40
0.25
40
0.2578125
40
0.265625
40
0.28125
40
0.3125
40
0.375
40
0.4375
40
0.5
40
0.515625
40
0.5234375
40
0.53125
40
0.5625
40
0.625
40
0.6875
40
0.75
40
0.8125
40
0.84375
40
0.859375
40
0.8671875
40
0.875
40
0.90625
40
0.9375
40
0.96875
40
0.984375
40
0.986328125
40
0.98828125
40
0.9921875
40
1
40
1
40
1
40
1
41
1
10
6.24908811391458
20
26.9926577069056
30
0
41
1
10
6.29979864158576
20
26.9979875981363
30
0
41
1
10
6.36327646361746
20
27.0046593860773
30
0
41
1
10
6.43916293023858
20
27.0126353751186
30
0
41
1
10
6.49004505475045
20
27.017983301904
30
0
41
1
10
6.57971286539873
20
27.0274077685702
30
0
41
1
10
6.68306279713033
20
27.0382702841096
30
0
41
1
10
6.78604133263343
20
27.0490937643324
30
0
41
1
10
6.84354828379014
20
27.0551379884562
30
0
41
1
10
6.88175649435447
20
27.0591538332085
30
0
41
1
10
6.9073066793826
20
27.0618392658667
30
0
41
1
10
6.95196213623671
20
27.0665327435098
30
0
41
1
10
7.04131335857073
20
27.0759239354033
30
0
41
1
10
7.16893946110167
20
27.0893379793097
30
0
41
1
10
7.32209621104118
20
27.1054354023879
30
0
41
1
10
7.43689724943715
20
27.1175014777362
30
0
41
1
10
7.50721228004363
20
27.1248918852558
30
0
41
1
10
7.53258647432812
20
27.1275588205415
30
0
41
1
10
7.57032047822258
20
27.1315248241644
30
0
41
1
10
7.65217131542351
20
27.1401276938142
30
0
41
1
10
7.77707618070314
20
27.1532557241604
30
0
41
1
10
7.92295469293765
20
27.1685881736305
30
0
41
1
10
8.06248114419986
20
27.1832529945898
30
0
41
1
10
8.17145164190924
20
27.194706255418
30
0
41
1
10
8.24327063228611
20
27.2022547354792
30
0
41
1
10
8.27773024172779
20
27.2058765863771
30
0
41
1
10
8.29740493396639
20
27.2079444798589
30
0
41
1
10
8.32696262177273
20
27.211051118032
30
0
41
1
10
8.37134916268678
20
27.2157163314708
30
0
41
1
10
8.43051830158515
20
27.2219352585661
30
0
41
1
10
8.47984266557955
20
27.2271194581237
30
0
41
1
10
8.51062911245662
20
27.2303552440792
30
0
41
1
10
8.52298020143166
20
27.2316533958407
30
0
41
1
10
8.52783223695064
20
27.2321633653234
30
0
41
1
10
8.53729761386421
20
27.2331582165254
30
0
41
1
10
8.54690561064296
20
27.2341680576792
30
0
41
1
10
8.55321848720564
20
27.2348315677427
30
0
0
SPLINE
5
2D3
100
AcDbEntity
8
1
62
256
6
ByLayer
370
18
48
1
60
0
100
AcDbSpline
70
4
71
3
72
41
73
37
40
0
40
0
40
0
40
0
40
0.0078125
40
0.01171875
40
0.013671875
40
0.015625
40
0.03125
40
0.0625
40
0.09375
40
0.125
40
0.1328125
40
0.140625
40
0.15625
40
0.1875
40
0.25
40
0.3125
40
0.375
40
0.4375
40
0.46875
40
0.4765625
40
0.484375
40
0.5
40
0.5625
40
0.625
40
0.6875
40
0.71875
40
0.734375
40
0.7421875
40
0.75
40
0.78125
40
0.8125
40
0.875
40
0.90625
40
0.921875
40
0.9375
40
1
40
1
40
1
40
1
41
1
10
12.7480868940476
20
23.8246332929557
30
0
41
1
10
12.7487529386117
20
23.81829630223
30
0
41
1
10
12.7499496592527
20
23.8085028175548
30
0
41
1
10
12.7514603333593
20
23.7985850379979
30
0
41
1
10
12.7523334606066
20
23.7934208247357
30
0
41
1
10
12.7545229089619
20
23.7803020124649
30
0
41
1
10
12.759998009805
20
23.7475875741457
30
0
41
1
10
12.7687571002265
20
23.6951847071993
30
0
41
1
10
12.7792683346022
20
23.6323194528108
30
0
41
1
10
12.7871505987014
20
23.5851625634971
30
0
41
1
10
12.792408660993
20
23.5537526272454
30
0
41
1
10
12.7959018702986
20
23.5328504986424
30
0
41
1
10
12.8019339935899
20
23.4963110866397
30
0
41
1
10
12.8140670058086
20
23.42051422626
30
0
41
1
10
12.8312877139443
20
23.3064744261819
30
0
41
1
10
12.851484971957
20
23.1619629771561
30
0
41
1
10
12.870876518268
20
23.0122750214186
30
0
41
1
10
12.8860997646868
20
22.8852305106453
30
0
41
1
10
12.8954396709753
20
22.8024945607736
30
0
41
1
10
12.8996282712139
20
22.764447775962
30
0
41
1
10
12.9024105448483
20
22.7388911743009
30
0
41
1
10
12.9101291187762
20
22.6680637199541
30
0
41
1
10
12.9227269909815
20
22.5524293075315
30
0
41
1
10
12.9395351242503
20
22.3981597428564
30
0
41
1
10
12.9535407581376
20
22.2696068539743
30
0
41
1
10
12.9633479773911
20
22.1796052796715
30
0
41
1
10
12.9682464894705
20
22.134627139203
30
0
41
1
10
12.9710539304215
20
22.1088885096833
30
0
41
1
10
12.9752493971453
20
22.0704007976142
30
0
41
1
10
12.9814009367458
20
22.0126057068835
30
0
41
1
10
12.9918945136746
20
21.9095356137704
30
0
41
1
10
13.0016588753592
20
21.8067173726038
30
0
41
1
10
13.0094513290355
20
21.7180630486391
30
0
41
1
10
13.0136863329407
20
21.6679079150454
30
0
41
1
10
13.0197767702673
20
21.5932891927163
30
0
41
1
10
13.0248638464571
20
21.5308778976087
30
0
41
1
10
13.0289299938837
20
21.4810175694725
30
0
0
SPLINE
5
2D4
100
AcDbEntity
8
1
62
256
6
ByLayer
370
18
48
1
60
0
100
AcDbSpline
70
4
71
3
72
45
73
41
40
0
40
0
40
0
40
0
40
0.0011565097570314
40
0.0196321945810067
40
0.0288700369929944
40
0.0381078794049821
40
0.0565835642289574
40
0.130486303524859
40
0.20438904282076
40
0.278291782116661
40
0.310624230558618
40
0.340935900972953
40
0.342956679000575
40
0.347575600206569
40
0.352194521412563
40
0.370670206236538
40
0.379908048648526
40
0.389145891060514
40
0.407621575884489
40
0.426097260708464
40
0.463048630356415
40
0.500000000004366
40
0.536951369652317
40
0.555427054476291
40
0.573902739300267
40
0.592378424124243
40
0.610854108948218
40
0.629329793772193
40
0.647805478596169
40
0.652424399802162
40
0.657043321008156
40
0.689375769450113
40
0.72170821789207
40
0.795610957187971
40
0.869513696483873
40
0.943416435779774
40
0.96189212060375
40
0.980367805427725
40
0.9988434902517
40
1
40
1
40
1
40
1
41
1
10
18.3425734225054
20
22.0527685799248
30
0
41
1
10
18.343032610377
20
22.0528259994868
30
0
41
1
10
18.3508217111713
20
22.0538031829855
30
0
41
1
10
18.3621328902482
20
22.0553076066167
30
0
41
1
10
18.3763937788176
20
22.0575255368818
30
0
41
1
10
18.3905733865377
20
22.0599382505082
30
0
41
1
10
18.4294921934554
20
22.0673761122651
30
0
41
1
10
18.4941000573499
20
22.0841312517057
30
0
41
1
10
18.5799408610535
20
22.1167978372147
30
0
41
1
10
18.6480920169373
20
22.1521273867564
30
0
41
1
10
18.6980115518022
20
22.183538629733
30
0
41
1
10
18.7210597777639
20
22.199688199635
30
0
41
1
10
18.7340260709864
20
22.2092869842206
30
0
41
1
10
18.7379638438529
20
22.212234771318
30
0
41
1
10
18.7476117014781
20
22.2195699979477
30
0
41
1
10
18.7587331274781
20
22.2283580689826
30
0
41
1
10
18.7712458070958
20
22.2387074013692
30
0
41
1
10
18.7836224087981
20
22.2492572733557
30
0
41
1
10
18.7988297706495
20
22.2628143585481
30
0
41
1
10
18.8225644751652
20
22.2852677473953
30
0
41
1
10
18.8510473877427
20
22.3147131996404
30
0
41
1
10
18.8831190827906
20
22.3520932647909
30
0
41
1
10
18.9079131193448
20
22.3848142349291
30
0
41
1
10
18.9265327094963
20
22.4118132608158
30
0
41
1
10
18.9398755291888
20
22.4324435801862
30
0
41
1
10
18.952582422585
20
22.4534248745791
30
0
41
1
10
18.9646393363096
20
22.4747270690615
30
0
41
1
10
18.9760322169877
20
22.4963200887007
30
0
41
1
10
18.9840683126799
20
22.512710416098
30
0
41
1
10
18.9892094161216
20
22.5237093870581
30
0
41
1
10
18.9967913418711
20
22.5402496256897
30
0
41
1
10
19.0085633340284
20
22.5680854418497
30
0
41
1
10
19.0290890345325
20
22.6244576992151
30
0
41
1
10
19.0493425784066
20
22.6987253841165
30
0
41
1
10
19.0633235728881
20
22.7898100589835
30
0
41
1
10
19.0662159834576
20
22.8567364820127
30
0
41
1
10
19.0652944798738
20
22.9001147633965
30
0
41
1
10
19.0642534256356
20
22.9217361414964
30
0
41
1
10
19.063084028553
20
22.9368103126568
30
0
41
1
10
19.0624166827288
20
22.9446621241197
30
0
41
1
10
19.0623771578073
20
22.9451249698663
30
0
0
SPLINE
5
2D5
100
AcDbEntity
8
1
62
256
6
ByLayer
370
18
48
1
60
0
100
AcDbSpline
70
4
71
3
72
42
73
38
40
0
40
0
40
0
40
0
40
0.258003694988865
40
0.516007389977729
40
0.645009237472161
40
0.709510161219377
40
0.741760623092985
40
0.749823238561387
40
0.757885854029789
40
0.765444556031416
40
0.76922390703223
40
0.773003258033043
40
0.773507171499818
40
0.774011084966594
40
0.776026738833694
40
0.778042392700795
40
0.782073700434996
40
0.790136315903398
40
0.806261546840202
40
0.83851200871381
40
0.870762470587418
40
0.903012932461026
40
0.911075547929428
40
0.915106855663629
40
0.91913816339783
40
0.923169471132031
40
0.927200778866232
40
0.931232086600433
40
0.935263394334634
40
0.951388625271438
40
0.967513856208242
40
0.983639087145046
40
0.990693875679898
40
0.997748664214749
40
0.9987564911483
40
0.99976431808185
40
1
40
1
40
1
40
1
41
1
10
12.7480868940476
20
23.8246332929557
30
0
41
1
10
12.4345342039294
20
23.7916775772453
30
0
41
1
10
11.8074288236933
20
23.7257661458246
30
0
41
1
10
11.0235470983981
20
23.6433768565487
30
0
41
1
10
10.4748298906915
20
23.5857043540556
30
0
41
1
10
10.2004712868381
20
23.5568681028091
30
0
41
1
10
10.0730905064777
20
23.5434798433017
30
0
41
1
10
10.0142993770805
20
23.5373006466061
30
0
41
1
10
9.9855162199799
20
23.5342754148904
30
0
41
1
10
9.96193852746114
20
23.5317972995489
30
0
41
1
10
9.9435662995246
20
23.5298663005815
30
0
41
1
10
9.93376777795833
20
23.5288364344656
30
0
41
1
10
9.9279499057784
20
23.5282249514593
30
0
41
1
10
9.92427546019121
20
23.5278387516657
30
0
41
1
10
9.91876379181019
20
23.5272594519755
30
0
41
1
10
9.90896527024392
20
23.5262295858596
30
0
41
1
10
9.89181785750315
20
23.5244273201567
30
0
41
1
10
9.8575230320215
20
23.5208227887509
30
0
41
1
10
9.78893338105808
20
23.5136137259392
30
0
41
1
10
9.69094816539632
20
23.5033150647797
30
0
41
1
10
9.57336590660202
20
23.4909566713883
30
0
41
1
10
9.48517921250629
20
23.4816878763448
30
0
41
1
10
9.43128734389222
20
23.4760236127071
30
0
41
1
10
9.4116903007598
20
23.4739638804752
30
0
41
1
10
9.39699251841057
20
23.4724190813013
30
0
41
1
10
9.38229473606122
20
23.4708742821273
30
0
41
1
10
9.36759695371199
20
23.4693294829534
30
0
41
1
10
9.35289917136265
20
23.4677846837795
30
0
41
1
10
9.32350360666419
20
23.4646950854317
30
0
41
1
10
9.27941025961627
20
23.4600606879099
30
0
41
1
10
9.22061913021912
20
23.4538814912142
30
0
41
1
10
9.172851337584
20
23.4488608938989
30
0
41
1
10
9.1361068817107
20
23.4449988959641
30
0
41
1
10
9.11770870272425
20
23.4430504937717
30
0
41
1
10
9.10665200032667
20
23.4418695188163
30
0
41
1
10
9.10393508453319
20
23.4415947831343
30
0
41
1
10
9.1024534799601
20
23.4414558195333
30
0
41
1
10
9.10217333489572
20
23.4414299600566
30
0
0
SPLINE
5
2D6
100
AcDbEntity
8
1
62
256
6
ByLayer
370
18
48
1
60
0
100
AcDbSpline
70
4
71
3
72
42
73
38
40
0
40
0
40
0
40
0
40
0.258003694988868
40
0.516007389977736
40
0.64500923747217
40
0.709510161219387
40
0.741760623092996
40
0.749823238561398
40
0.7578858540298
40
0.765444556031427
40
0.769223907032241
40
0.773003258033054
40
0.773507171499829
40
0.774011084966604
40
0.776026738833705
40
0.778042392700805
40
0.782073700435006
40
0.790136315903408
40
0.806261546840213
40
0.838512008713821
40
0.87076247058743
40
0.903012932461038
40
0.91107554792944
40
0.915106855663642
40
0.919138163397842
40
0.923169471132043
40
0.927200778866245
40
0.931232086600446
40
0.935263394334647
40
0.951388625271451
40
0.967513856208255
40
0.983639087145059
40
0.990693875679911
40
0.997748664214763
40
0.998756491148314
40
0.999764318081864
40
1
40
1
40
1
40
1
41
1
10
8.55321848720564
20
27.2348315677427
30
0
41
1
10
8.52013688601516
20
27.5495819781983
30
0
41
1
10
8.4539736836341
20
28.1790827991095
30
0
41
1
10
8.37126968065797
20
28.9659588252486
30
0
41
1
10
8.31337687857467
20
29.5167720435459
30
0
41
1
10
8.28443047753285
20
29.7921786526946
30
0
41
1
10
8.2709910770493
20
29.9200460069422
30
0
41
1
10
8.26478827682604
20
29.9790617089026
30
0
41
1
10
8.26175148921675
20
30.0079548129874
30
0
41
1
10
8.25926390787731
20
30.0316225684611
30
0
41
1
10
8.2573255328075
20
30.0500649753237
30
0
41
1
10
8.25629173277025
20
30.0599009256505
30
0
41
1
10
8.25567791399817
20
30.0657410211569
30
0
41
1
10
8.25529023898434
20
30.0694295025295
30
0
41
1
10
8.25470872646337
20
30.0749622245883
30
0
41
1
10
8.25367492642613
20
30.084798174915
30
0
41
1
10
8.251865776361
20
30.1020110879868
30
0
41
1
10
8.24824747623074
20
30.1364369141304
30
0
41
1
10
8.24101087597034
20
30.2052885664175
30
0
41
1
10
8.23067287559831
20
30.3036480696849
30
0
41
1
10
8.2182672751519
20
30.4216794736058
30
0
41
1
10
8.20896307481712
20
30.5102030265464
30
0
41
1
10
8.20327717461248
20
30.5643007533435
30
0
41
1
10
8.20120957453809
20
30.5839726539969
30
0
41
1
10
8.19965887448233
20
30.5987265794871
30
0
41
1
10
8.19810817442646
20
30.6134805049772
30
0
41
1
10
8.19655747437059
20
30.6282344304673
30
0
41
1
10
8.19500677431483
20
30.6429883559574
30
0
41
1
10
8.19190537420331
20
30.6724962069376
30
0
41
1
10
8.18725327403581
20
30.7167579834079
30
0
41
1
10
8.18105047381254
20
30.7757736853684
30
0
41
1
10
8.17601069863121
20
30.8237239432112
30
0
41
1
10
8.1721339484917
20
30.8606087569365
30
0
41
1
10
8.17017821440072
20
30.8790772256109
30
0
41
1
10
8.16899287061733
20
30.8901761777722
30
0
41
1
10
8.16871700385945
20
30.8929034631629
30
0
41
1
10
8.16857738304418
20
30.8943907139399
30
0
41
1
10
8.16855139775145
20
30.8946719262712
30
0
0
SPLINE
5
2D7
100
AcDbEntity
8
1
62
256
6
ByLayer
370
18
48
1
60
0
100
AcDbSpline
70
4
71
1
72
4
73
2
40
0
40
0
40
1
40
1
41
1
10
17.9408508222725
20
33.6157752512203
30
0
41
1
10
18.0429257717574
20
32.7693815658961
30
0
0
SPLINE
5
2D8
100
AcDbEntity
8
1
62
256
6
ByLayer
370
18
48
1
60
0
100
AcDbSpline
70
4
71
3
72
21
73
17
40
0
40
0
40
0
40
0
40
0.0001096836879249
40
0.0027068013926316
40
0.0033560808188085
40
0.0040053602449849
40
0.0088749559413095
40
0.013744551637635
40
0.0234837430302851
40
0.033872213849112
40
0.0442606846679386
40
0.0858145679432456
40
0.16892233449386
40
0.335137867595088
40
0.667568933797544
40
1
40
1
40
1
40
1
41
1
10
16.2053404538992
20
34.2632347155341
30
0
41
1
10
16.2051768004428
20
34.2632196384521
30
0
41
1
10
16.2011381869429
20
34.2628468736389
30
0
41
1
10
16.1961329977289
20
34.2623625491144
30
0
41
1
10
16.1903267511432
20
34.2617629435762
30
0
41
1
10
16.18113470715
20
34.2608015948217
30
0
41
1
10
16.1656535561226
20
34.2591806682722
30
0
41
1
10
16.1366269480177
20
34.2561360637266
30
0
41
1
10
16.0993770659022
20
34.2522197042255
30
0
41
1
10
16.0539043226702
20
34.2474274465894
30
0
41
1
10
15.9610241541568
20
34.2376357590804
30
0
41
1
10
15.7597743393619
20
34.2165137197903
30
0
41
1
10
15.3263217804388
20
34.1709353919641
30
0
41
1
10
14.4594111489315
20
34.0798331650602
30
0
41
1
10
13.2209699101661
20
33.9496622449126
30
0
41
1
10
12.2302164780608
20
33.8455298630943
30
0
41
1
10
11.7348397620083
20
33.7934636721851
30
0
0
SPLINE
5
2D9
100
AcDbEntity
8
1
62
256
6
ByLayer
370
18
48
1
60
0
100
AcDbSpline
70
4
71
3
72
21
73
17
40
0
40
0
40
0
40
0
40
0.0592792738438755
40
0.122239377580478
40
0.185199481317079
40
0.248159585053684
40
0.311119688790288
40
0.374079792526889
40
0.500000000000095
40
0.6259202074733
40
0.751840414946506
40
0.814800518683109
40
0.877760622419711
40
0.909240674288013
40
0.940720726156314
40
1
40
1
40
1
40
1
41
1
10
16.5269343617135
20
24.3726323781612
30
0
41
1
10
16.5273528513826
20
24.3681034911221
30
0
41
1
10
16.5279606954338
20
24.3591206708322
30
0
41
1
10
16.5275752226591
20
24.3460373347277
30
0
41
1
10
16.5258337972894
20
24.3317026148037
30
0
41
1
10
16.5226444667998
20
24.3170043348198
30
0
41
1
10
16.5179076174149
20
24.3025702879224
30
0
41
1
10
16.5095548609336
20
24.2838702134722
30
0
41
1
10
16.4953441226893
20
24.2618794929913
30
0
41
1
10
16.4731778600121
20
24.2396475236957
30
0
41
1
10
16.4518624515111
20
24.2256728608682
30
0
41
1
10
16.433651718631
20
24.2174224813513
30
0
41
1
10
16.4223143383288
20
24.2135138144761
30
0
41
1
10
16.4135872289042
20
24.2111519276772
30
0
41
1
10
16.4050928434312
20
24.2093061039574
30
0
41
1
10
16.3985006423013
20
24.2083625971893
30
0
41
1
10
16.3940009472847
20
24.207831924946
30
0
0
SPLINE
5
2DA
100
AcDbEntity
8
1
62
256
6
ByLayer
370
18
48
1
60
0
100
AcDbSpline
70
4
71
3
72
20
73
16
40
0
40
0
40
0
40
0
40
0.332431012821207
40
0.664862025642415
40
0.831077532053018
40
0.91418528525832
40
0.955739161860971
40
0.976516100162297
40
0.986255289991043
40
0.995690130137641
40
0.995994479819789
40
0.996643759141706
40
0.997293038463622
40
0.999890155751288
40
1
40
1
40
1
40
1
41
1
10
11.7348397620082
20
33.7934636721851
30
0
41
1
10
11.2394630459555
20
33.7413974812761
30
0
41
1
10
10.2487096138503
20
33.6372650994578
30
0
41
1
10
9.01026723139887
20
33.5071050607553
30
0
41
1
10
8.14335945910659
20
33.4159756302383
30
0
41
1
10
7.70990261136091
20
33.3704381078319
30
0
41
1
10
7.49317879647731
20
33.3476270277526
30
0
41
1
10
7.38577790515296
20
33.3363830130611
30
0
41
1
10
7.32624419966828
20
33.3301277488652
30
0
41
1
10
7.29721912338993
20
33.3270686316254
30
0
41
1
10
7.28173942418243
20
33.3254339258903
30
0
41
1
10
7.27935096016142
20
33.3251816475941
30
0
41
1
10
7.27354692899302
20
33.3245609637677
30
0
41
1
10
7.26855017937327
20
33.3239940401627
30
0
41
1
10
7.26452207827537
20
33.3235189549688
30
0
41
1
10
7.26435862740265
20
33.3234996488087
30
0
0
SPLINE
5
2DB
100
AcDbEntity
8
1
62
256
6
ByLayer
370
18
48
1
60
0
100
AcDbSpline
70
4
71
3
72
46
73
42
40
0
40
0
40
0
40
0
40
0.0002356819181358
40
0.0012435088516861
40
0.0022513357852363
40
0.0026922600686646
40
0.0093061243200882
40
0.0163609128549401
40
0.0324861437917443
40
0.0486113747285486
40
0.0647366056653529
40
0.0687679133995539
40
0.0707835672666545
40
0.072799221133755
40
0.076830528867956
40
0.0788461827350566
40
0.0808618366021571
40
0.0848931443363582
40
0.0889244520705592
40
0.0969870675389614
40
0.12923752941257
40
0.161487991286178
40
0.193738453159787
40
0.209863684096591
40
0.217926299564993
40
0.219941953432094
40
0.221957607299194
40
0.222965434232745
40
0.223973261166295
40
0.225988915033395
40
0.226492828500171
40
0.226996741966946
40
0.227232951404497
40
0.234555443968573
40
0.2421141459702
40
0.258239376907004
40
0.290489838780613
40
0.35499076252783
40
0.483992610022264
40
0.741996305011132
40
1
40
1
40
1
40
1
41
1
10
15.7576048658254
20
31.6923135874234
30
0
41
1
10
15.7576379157049
20
31.6920331176101
30
0
41
1
10
15.7578105627632
20
31.6905493380311
30
0
41
1
10
15.7581077588727
20
31.6878242944456
30
0
41
1
10
15.7584187190712
20
31.6848172697926
30
0
41
1
10
15.7594405726077
20
31.6749512479757
30
0
41
1
10
15.7612392694848
20
31.65771202235
30
0
41
1
10
15.7650594836848
20
31.6213651121582
30
0
41
1
10
15.7700992588661
20
31.5734148543153
30
0
41
1
10
15.7763020590894
20
31.5143991523549
30
0
41
1
10
15.7809541592567
20
31.4701373758846
30
0
41
1
10
15.783797109359
20
31.443088512486
30
0
41
1
10
15.7848309093963
20
31.4332525621593
30
0
41
1
10
15.7858647094334
20
31.4234166118326
30
0
41
1
10
15.7868985094707
20
31.4135806615059
30
0
41
1
10
15.7879323095078
20
31.4037447111791
30
0
41
1
10
15.7889661095451
20
31.3939087608523
30
0
41
1
10
15.7902583595917
20
31.381613822944
30
0
41
1
10
15.792325959666
20
31.3619419222904
30
0
41
1
10
15.7980118598706
20
31.3078441954934
30
0
41
1
10
15.8073160602055
20
31.2193206425527
30
0
41
1
10
15.8197216606519
20
31.1012892386319
30
0
41
1
10
15.8300596610238
20
31.0029297353645
30
0
41
1
10
15.8372962612843
20
30.9340780830774
30
0
41
1
10
15.8406561114052
20
30.9021112445155
30
0
41
1
10
15.842206811461
20
30.8873573190253
30
0
41
1
10
15.8428529364843
20
30.8812098500712
30
0
41
1
10
15.8433698365029
20
30.8762918749078
30
0
41
1
10
15.8438867365215
20
30.8713738997444
30
0
41
1
10
15.8443390240377
20
30.8670706714765
30
0
41
1
10
15.8447266990518
20
30.8633821901039
30
0
41
1
10
15.8448862111668
20
30.8618645337059
30
0
41
1
10
15.845920011204
20
30.8520285833791
30
0
41
1
10
15.8478583862739
20
30.8335861765165
30
0
41
1
10
15.8518340743075
20
30.7957600316076
30
0
41
1
10
15.8590060620656
20
30.7275231262159
30
0
41
1
10
15.8734792625864
20
30.5898198216415
30
0
41
1
10
15.9024256636282
20
30.3144132124928
30
0
41
1
10
15.9603184657115
20
29.7635999941955
30
0
41
1
10
16.0430224686877
20
28.9767239680565
30
0
41
1
10
16.1091856710686
20
28.3472231471453
30
0
41
1
10
16.1422672722592
20
28.0324727366897
30
0
0
SPLINE
5
2DC
100
AcDbEntity
8
1
62
256
6
ByLayer
370
18
48
1
60
0
100
AcDbSpline
70
4
71
3
72
21
73
17
40
0
40
0
40
0
40
0
40
0.0001096836879318
40
0.0027068013926385
40
0.0033560808188155
40
0.0040053602449918
40
0.0088749559413164
40
0.0137445516376418
40
0.0234837430302919
40
0.0338722138491187
40
0.0442606846679452
40
0.085814567943252
40
0.168922334493865
40
0.335137867595092
40
0.667568933797546
40
1
40
1
40
1
40
1
41
1
10
5.77752188607041
20
31.4802349078806
30
0
41
1
10
5.77753703676012
20
31.4800706309778
30
0
41
1
10
5.77791161546656
20
31.4760166316203
30
0
41
1
10
5.7783981048434
20
31.4709923564846
30
0
41
1
10
5.77900008113988
20
31.4651639394266
30
0
41
1
10
5.77996513809512
20
31.4559367871029
30
0
41
1
10
5.7815923031402
20
31.4403965055147
30
0
41
1
10
5.78464858445227
20
31.4112590254086
30
0
41
1
10
5.7885798944651
20
31.3738668538127
30
0
41
1
10
5.79339036061026
20
31.3282204018794
30
0
41
1
10
5.80321922762391
20
31.2349854227572
30
0
41
1
10
5.82442217719904
20
31.0329668902782
30
0
41
1
10
5.87017445125946
20
30.5978585966458
30
0
41
1
10
5.96162477758571
20
29.7276365182625
30
0
41
1
10
6.09229288801486
20
28.4844646307976
30
0
41
1
10
6.19682303861464
20
27.4899266815362
30
0
41
1
10
6.24908811391458
20
26.9926577069056
30
0
0
SPLINE
5
2DD
100
AcDbEntity
8
1
62
256
6
ByLayer
370
18
48
1
60
0
100
AcDbSpline
70
4
71
3
72
46
73
42
40
0
40
0
40
0
40
0
40
0.0002356819181358
40
0.0012435088516861
40
0.0022513357852363
40
0.0026922600686646
40
0.0093061243200882
40
0.0163609128549401
40
0.0324861437917443
40
0.0486113747285486
40
0.0647366056653529
40
0.0687679133995539
40
0.0707835672666545
40
0.072799221133755
40
0.076830528867956
40
0.0788461827350566
40
0.0808618366021571
40
0.0848931443363582
40
0.0889244520705592
40
0.0969870675389614
40
0.12923752941257
40
0.161487991286178
40
0.193738453159787
40
0.209863684096591
40
0.217926299564993
40
0.219941953432094
40
0.221957607299194
40
0.222965434232745
40
0.223973261166295
40
0.225988915033395
40
0.226492828500171
40
0.226996741966946
40
0.227232951404497
40
0.234555443968573
40
0.2421141459702
40
0.258239376907004
40
0.290489838780613
40
0.35499076252783
40
0.483992610022264
40
0.741996305011132
40
1
40
1
40
1
40
1
41
1
10
8.3014848121802
20
31.0594723794865
30
0
41
1
10
8.30176421189026
20
31.0595053305354
30
0
41
1
10
8.30324233200588
20
31.0596774465344
30
0
41
1
10
8.30595699743071
20
31.0599735930427
30
0
41
1
10
8.30895258348255
20
31.0602833315494
30
0
41
1
10
8.31878107408295
20
31.0613011826894
30
0
41
1
10
8.33595470972864
20
31.0630929352883
30
0
41
1
10
8.37216330895376
20
31.0668986124199
30
0
41
1
10
8.41993110158887
20
31.0719192097352
30
0
41
1
10
8.47872223098602
20
31.0780984064308
30
0
41
1
10
8.52281557803394
20
31.0827328039526
30
0
41
1
10
8.54976151234086
20
31.0855649357715
30
0
41
1
10
8.55956003390702
20
31.0865948018874
30
0
41
1
10
8.56935855547328
20
31.0876246680034
30
0
41
1
10
8.57915707703944
20
31.0886545341193
30
0
41
1
10
8.5889555986057
20
31.0896844002353
30
0
41
1
10
8.59875412017186
20
31.0907142663512
30
0
41
1
10
8.61100227212955
20
31.0920015989961
30
0
41
1
10
8.63059931526197
20
31.0940613312281
30
0
41
1
10
8.68449118387593
20
31.0997255948658
30
0
41
1
10
8.77267787797177
20
31.1089943899093
30
0
41
1
10
8.89026013676607
20
31.1213527833007
30
0
41
1
10
8.98824535242784
20
31.1316514444602
30
0
41
1
10
9.05683500339125
20
31.1388605072718
30
0
41
1
10
9.08868019848137
20
31.1422075721486
30
0
41
1
10
9.1033779808306
20
31.1437523713226
30
0
41
1
10
9.10950205680956
20
31.144396037645
30
0
41
1
10
9.11440131759263
20
31.144910970703
30
0
41
1
10
9.11930057837571
20
31.145425903761
30
0
41
1
10
9.12358743156096
20
31.1458764701867
30
0
41
1
10
9.12726187714827
20
31.1462626699802
30
0
41
1
10
9.12877375840548
20
31.1464215751036
30
0
41
1
10
9.13857227997164
20
31.1474514412195
30
0
41
1
10
9.15694450790829
20
31.1493824401869
30
0
41
1
10
9.1946267129158
20
31.1533429995273
30
0
41
1
10
9.26260395628128
20
31.1604876957067
30
0
41
1
10
9.39978325820789
20
31.17490582133
30
0
41
1
10
9.67414186206133
20
31.2037420725766
30
0
41
1
10
10.2228590697679
20
31.2614145750697
30
0
41
1
10
11.006740795063
20
31.3438038643456
30
0
41
1
10
11.6338461752993
20
31.4097152957663
30
0
41
1
10
11.9473988654173
20
31.4426710114767
30
0
0
SPLINE
5
2DE
100
AcDbEntity
8
SK1
62
256
6
ByLayer
370
18
48
1
60
0
100
AcDbSpline
70
4
71
3
72
14
73
10
40
0
40
0
40
0
40
0
40
0.298404065669854
40
0.298404065669854
40
0.596520286127751
40
0.596520286127751
40
0.897449849916886
40
0.897449849916886
40
1
40
1
40
1
40
1
41
1
10
-2.09249846306603
20
-8.99877468383637
30
0
41
1
10
-2.04771204876693
20
-8.98831807426025
30
0
41
1
10
-2.01315385275507
20
-8.96421683988292
30
0
41
1
10
-1.97380303485648
20
-8.89832408561416
30
0
41
1
10
-1.96837921643794
20
-8.85577310578704
30
0
41
1
10
-1.98739099669138
20
-8.75892377527209
30
0
41
1
10
-2.01241216751373
20
-8.70309728101053
30
0
41
1
10
-2.0625518903654
20
-8.6217841761174
30
0
41
1
10
-2.07690840385226
20
-8.60022487827145
30
0
41
1
10
-2.09249846306603
20
-8.57806522128551
30
0
0
SPLINE
5
2DF
100
AcDbEntity
8
1
62
256
6
ByLayer
370
18
48
1
60
0
100
AcDbSpline
70
4
71
3
72
18
73
14
40
0
40
0
40
0
40
0
40
0.065315103899615
40
0.065315103899615
40
0.343413786197927
40
0.343413786197927
40
0.545039913432477
40
0.545039913432477
40
0.712056858771151
40
0.712056858771151
40
0.880135361503489
40
0.880135361503489
40
1
40
1
40
1
40
1
41
1
10
-3.27370667528487
20
-13.3505133448639
30
0
41
1
10
-3.2843645775813
20
-13.384096488784
30
0
41
1
10
-3.29611783976884
20
-13.4171013589076
30
0
41
1
10
-3.36376227395658
20
-13.5874229454468
30
0
41
1
10
-3.4398266254683
20
-13.7156032149522
30
0
41
1
10
-3.59174190378463
20
-13.8894573808493
30
0
41
1
10
-3.66330101985182
20
-13.949274357716
30
0
41
1
10
-3.78906923882028
20
-14.0192918369368
30
0
41
1
10
-3.84521125903803
20
-14.0367872401647
30
0
41
1
10
-3.93831396030453
20
-14.0396877713522
30
0
41
1
10
-3.97626065453006
20
-14.0250168983228
30
0
41
1
10
-4.01458260994469
20
-13.9769137689945
30
0
41
1
10
-4.02297645271154
20
-13.9496637139979
30
0
41
1
10
-4.02319037135851
20
-13.9170053806705
30
0
0
SPLINE
5
2E0
100
AcDbEntity
8
1
62
256
6
ByLayer
370
18
48
1
60
0
100
AcDbSpline
70
4
71
2
72
6
73
3
40
0
40
0
40
0
40
1
40
1
40
1
41
0.500000008701652
10
5.43026035142217
20
-10.723097275022
30
0
41
0.499999991298348
10
5.42866318407051
20
-10.7228974021556
30
0
41
0.500000008701652
10
5.42706644936212
20
-10.7226930824401
30
0
0
SPLINE
5
2E1
100
AcDbEntity
8
1
62
256
6
ByLayer
370
18
48
1
60
0
100
AcDbSpline
70
4
71
3
72
8
73
4
40
0
40
0
40
0
40
0
40
1
40
1
40
1
40
1
41
1
10
5.42706644936197
20
-10.7226930824401
30
0
41
1
10
5.28879698621881
20
-10.7049999883896
30
0
41
1
10
5.14997116332665
20
-10.6890424751303
30
0
41
1
10
5.01109997092453
20
-10.6748762200472
30
0
0
SPLINE
5
2E2
100
AcDbEntity
8
1
62
256
6
ByLayer
370
18
48
1
60
0
100
AcDbSpline
70
4
71
3
72
8
73
4
40
0
40
0
40
0
40
0
40
1
40
1
40
1
40
1
41
1
10
4.6476072426941
20
-14.4129541234354
30
0
41
1
10
4.78751595723906
20
-14.3971513213434
30
0
41
1
10
4.92904248960712
20
-14.3920802647044
30
0
41
1
10
5.06969255809667
20
-14.3978462352696
30
0
0
SPLINE
5
2E3
100
AcDbEntity
8
1
62
256
6
ByLayer
370
18
48
1
60
0
100
AcDbSpline
70
4
71
2
72
6
73
3
40
0
40
0
40
0
40
1
40
1
40
1
41
0.500000007023253
10
5.01109997092463
20
-10.6748762200471
30
0
41
0.499999992976747
10
5.00950420079219
20
-10.6747134354814
30
0
41
0.500000007023253
10
5.00790892024192
20
-10.6745462430543
30
0
0
SPLINE
5
2E4
100
AcDbEntity
8
1
62
256
6
ByLayer
370
18
48
1
60
0
100
AcDbSpline
70
4
71
3
72
22
73
18
40
0
40
0
40
0
40
0
40
0.104611531529245
40
0.104611531529245
40
0.208411675036481
40
0.208411675036481
40
0.402775886004061
40
0.402775886004061
40
0.50003149039155
40
0.50003149039155
40
0.699792640385689
40
0.699792640385689
40
0.846184360106917
40
0.846184360106917
40
0.950335564350917
40
0.950335564350917
40
1
40
1
40
1
40
1
41
1
10
5.80484815581064
20
-13.7136172508805
30
0
41
1
10
5.81494378034062
20
-13.697914303884
30
0
41
1
10
5.82563066944885
20
-13.6868479641202
30
0
41
1
10
5.84807514292515
20
-13.6766227400137
30
0
41
1
10
5.8601272391345
20
-13.6769907316563
30
0
41
1
10
5.89743308745551
20
-13.6876447534115
30
0
41
1
10
5.92604862712312
20
-13.7053337314177
30
0
41
1
10
5.9757236249053
20
-13.7361317096778
30
0
41
1
10
5.99357972942448
20
-13.7474081109296
30
0
41
1
10
6.05100604476706
20
-13.783693026757
30
0
41
1
10
6.09463007693489
20
-13.8107720645551
30
0
41
1
10
6.17297059923953
20
-13.8648596816636
30
0
41
1
10
6.2077124454745
20
-13.8905552883633
30
0
41
1
10
6.26134491755328
20
-13.9435050914984
30
0
41
1
10
6.28209319531765
20
-13.9689108830733
30
0
41
1
10
6.30606174365368
20
-14.0100192879158
30
0
41
1
10
6.31290847588866
20
-14.0240151974614
30
0
41
1
10
6.3187336306612
20
-14.038316669408
30
0
0
SPLINE
5
2E5
100
AcDbEntity
8
1
62
256
6
ByLayer
370
18
48
1
60
0
100
AcDbSpline
70
4
71
3
72
22
73
18
40
0
40
0
40
0
40
0
40
0.247648061032145
40
0.247648061032145
40
0.499630853098361
40
0.499630853098361
40
0.554937524732003
40
0.554937524732003
40
0.599939125431394
40
0.599939125431394
40
0.645356331404705
40
0.645356331404705
40
0.695796263471253
40
0.695796263471253
40
0.780049574067002
40
0.780049574067002
40
1
40
1
40
1
40
1
41
1
10
6.3925466383273
20
-14.0181741705735
30
0
41
1
10
6.3888183029868
20
-14.0274571504961
30
0
41
1
10
6.3847802643977
20
-14.0366344297057
30
0
41
1
10
6.37525578047393
20
-14.0542637231765
30
0
41
1
10
6.36984055210428
20
-14.063282306433
30
0
41
1
10
6.36018972247825
20
-14.0708725912732
30
0
41
1
10
6.35825149541665
20
-14.0721027049761
30
0
41
1
10
6.35446116663729
20
-14.0736743117283
30
0
41
1
10
6.35262221573953
20
-14.0741416223672
30
0
41
1
10
6.34889279781236
20
-14.0743528394944
30
0
41
1
10
6.34695480712548
20
-14.0740837937508
30
0
41
1
10
6.34313035745503
20
-14.0728256793869
30
0
41
1
10
6.34121464067891
20
-14.0717590708246
30
0
41
1
10
6.3366055641693
20
-14.0683818603087
30
0
41
1
10
6.33412608768912
20
-14.0656863373357
30
0
41
1
10
6.32628290650666
20
-14.0554705402963
30
0
41
1
10
6.32223080508561
20
-14.046902663066
30
0
41
1
10
6.31873363066074
20
-14.0383166694086
30
0
0
SPLINE
5
2E6
100
AcDbEntity
8
1
62
256
6
ByLayer
370
18
48
1
60
0
100
AcDbSpline
70
4
71
3
72
22
73
18
40
0
40
0
40
0
40
0
40
0.247648061032159
40
0.247648061032159
40
0.499630853098609
40
0.499630853098609
40
0.554937524732197
40
0.554937524732197
40
0.599939125431626
40
0.599939125431626
40
0.645356331405001
40
0.645356331405001
40
0.695796263471513
40
0.695796263471513
40
0.780049574067404
40
0.780049574067404
40
1
40
1
40
1
40
1
41
1
10
17.2555486628576
20
-15.377592987721
30
0
41
1
10
17.2571789923688
20
-15.3875465621826
30
0
41
1
10
17.2591379319285
20
-15.3974743157936
30
0
41
1
10
17.2646457911838
20
-15.4169847881629
30
0
41
1
10
17.2679978571282
20
-15.4271005289859
30
0
41
1
10
17.2758549016301
20
-15.4368817858506
30
0
41
1
10
17.2774982615674
20
-15.4385601068492
30
0
41
1
10
17.2808977637214
20
-15.4410314640978
30
0
41
1
10
17.2826128697648
20
-15.4419435368634
30
0
41
1
10
17.2862556837568
20
-15.4430773305281
30
0
41
1
10
17.2882333268483
20
-15.4432982953937
30
0
41
1
10
17.2922990437012
20
-15.4430275729881
30
0
41
1
10
17.2944334717561
20
-15.4424678080298
30
0
41
1
10
17.2997512565921
20
-15.4403328657264
30
0
41
1
10
17.3028097768162
20
-15.4383303792559
30
0
41
1
10
17.3128668837355
20
-15.4303546617473
30
0
41
1
10
17.3188075732398
20
-15.4230373032952
30
0
41
1
10
17.3242074844528
20
-15.4155647095623
30
0
0
SPLINE
5
2E7
100
AcDbEntity
8
1
62
256
6
ByLayer
370
18
48
1
60
0
100
AcDbSpline
70
4
71
3
72
10
73
6
40
0
40
0
40
0
40
0
40
0.295368028639107
40
0.295368028639107
40
1
40
1
40
1
40
1
41
1
10
6.79535386343138
20
-13.0296878805893
30
0
41
1
10
6.78332026638122
20
-13.0600067938077
30
0
41
1
10
6.77128518363702
20
-13.0903217632413
30
0
41
1
10
6.7305592491391
20
-13.1929528856529
30
0
41
1
10
6.70188233459907
20
-13.2652588376985
30
0
41
1
10
6.67322640329393
20
-13.3375541830233
30
0
0
SPLINE
5
2E8
100
AcDbEntity
8
1
62
256
6
ByLayer
370
18
48
1
60
0
100
AcDbSpline
70
4
71
3
72
22
73
18
40
0
40
0
40
0
40
0
40
0.247648061031851
40
0.247648061031851
40
0.499630853098192
40
0.499630853098192
40
0.55493752473189
40
0.55493752473189
40
0.599939125431258
40
0.599939125431258
40
0.645356331404682
40
0.645356331404682
40
0.695796263471223
40
0.695796263471223
40
0.780049574066841
40
0.780049574066841
40
1
40
1
40
1
40
1
41
1
10
5.81139766327214
20
-13.650974194094
30
0
41
1
10
5.80844406733854
20
-13.6607466944394
30
0
41
1
10
5.80550987863409
20
-13.6706214430916
30
0
41
1
10
5.79981940837228
20
-13.6906732646695
30
0
41
1
10
5.79688100800626
20
-13.7012568359475
30
0
41
1
10
5.79431481909978
20
-13.7133235631756
30
0
41
1
10
5.79389251816906
20
-13.7155115174038
30
0
41
1
10
5.79333431839052
20
-13.7191253504079
30
0
41
1
10
5.79315827071423
20
-13.7206433692989
30
0
41
1
10
5.79304116673506
20
-13.7231370331888
30
0
41
1
10
5.79310386603265
20
-13.7241321268428
30
0
41
1
10
5.793468652015
20
-13.7255209882101
30
0
41
1
10
5.79379623992417
20
-13.7258718155602
30
0
41
1
10
5.7948585373839
20
-13.7260780724124
30
0
41
1
10
5.79572741595075
20
-13.7254982133177
30
0
41
1
10
5.79906335541068
20
-13.7223459628271
30
0
41
1
10
5.80193297391065
20
-13.7181515861985
30
0
41
1
10
5.80484815581042
20
-13.7136172508812
30
0
0
SPLINE
5
2E9
100
AcDbEntity
8
1
62
256
6
ByLayer
370
18
48
1
60
0
100
AcDbSpline
70
4
71
3
72
8
73
4
40
0
40
0
40
0
40
0
40
1
40
1
40
1
40
1
41
1
10
17.9348219005224
20
-14.5871892762804
30
0
41
1
10
17.947698823599
20
-14.7830527883692
30
0
41
1
10
17.9609605685615
20
-14.9779945164789
30
0
41
1
10
17.9737908313248
20
-15.1730015394882
30
0
0
SPLINE
5
2EA
100
AcDbEntity
8
1
62
256
6
ByLayer
370
18
48
1
60
0
100
AcDbSpline
70
4
71
3
72
8
73
4
40
0
40
0
40
0
40
0
40
1
40
1
40
1
40
1
41
1
10
19.0476722515946
20
-9.9456875958672
30
0
41
1
10
19.0723471147527
20
-10.0923439898018
30
0
41
1
10
19.0962882681972
20
-10.242743796918
30
0
41
1
10
19.1198996418666
20
-10.3927847161394
30
0
0
SPLINE
5
2EB
100
AcDbEntity
8
1
62
256
6
ByLayer
370
18
48
1
60
0
100
AcDbSpline
70
4
71
3
72
22
73
18
40
0
40
0
40
0
40
0
40
0.247648061032024
40
0.247648061032024
40
0.499630853098355
40
0.499630853098355
40
0.554937524732075
40
0.554937524732075
40
0.599939125431498
40
0.599939125431498
40
0.645356331404942
40
0.645356331404942
40
0.695796263471295
40
0.695796263471295
40
0.780049574067022
40
0.780049574067022
40
1
40
1
40
1
40
1
41
1
10
17.9737908313577
20
-15.173001539473
30
0
41
1
10
17.9744636602357
20
-15.1832278582119
30
0
41
1
10
17.9750583514376
20
-15.193544218284
30
0
41
1
10
17.9758277522171
20
-15.2144044416489
30
0
41
1
10
17.9761187057916
20
-15.2253921410404
30
0
41
1
10
17.9752198409967
20
-15.2376675206986
30
0
41
1
10
17.9749896674368
20
-15.2398795181483
30
0
41
1
10
17.9743945805233
20
-15.2434887350191
30
0
41
1
10
17.9740545040456
20
-15.2449862270024
30
0
41
1
10
17.9732328582952
20
-15.24739172306
30
0
41
1
10
17.9727378481176
20
-15.2483170237827
30
0
41
1
10
17.9716260875443
20
-15.2495211070226
30
0
41
1
10
17.9709880147589
20
-15.2497510895714
30
0
41
1
10
17.9692965470401
20
-15.2496127344837
30
0
41
1
10
17.968216834396
20
-15.2487890246052
30
0
41
1
10
17.9644576632236
20
-15.244748877115
30
0
41
1
10
17.9618437972882
20
-15.2398682857635
30
0
41
1
10
17.959318675662
20
-15.2346531394726
30
0
0
SPLINE
5
2EC
100
AcDbEntity
8
1
62
256
6
ByLayer
370
18
48
1
60
0
100
AcDbSpline
70
4
71
3
72
22
73
18
40
0
40
0
40
0
40
0
40
0.247648061032014
40
0.247648061032014
40
0.499630853098336
40
0.499630853098336
40
0.554937524732021
40
0.554937524732021
40
0.599939125431376
40
0.599939125431376
40
0.64535633140482
40
0.64535633140482
40
0.695796263471345
40
0.695796263471345
40
0.780049574066973
40
0.780049574066973
40
1
40
1
40
1
40
1
41
1
10
19.1198996418793
20
-10.3927847162081
30
0
41
1
10
19.1211378405312
20
-10.4006529777713
30
0
41
1
10
19.1223652472088
20
-10.4083303936757
30
0
41
1
10
19.124720646124
20
-10.4225756997651
30
0
41
1
10
19.1259365993656
20
-10.4297053894019
30
0
41
1
10
19.1268849153728
20
-10.4342765051507
30
0
41
1
10
19.127032619715
20
-10.4349124408094
30
0
41
1
10
19.1271961010648
20
-10.4353578038296
30
0
41
1
10
19.1272309979106
20
-10.4352913485042
30
0
41
1
10
19.12718716477
20
-10.4344527259502
30
0
41
1
10
19.1271052763393
20
-10.4336549690485
30
0
41
1
10
19.1268259734372
20
-10.4313870188056
30
0
41
1
10
19.1266152140836
20
-10.4298347527262
30
0
41
1
10
19.1259710869824
20
-10.4253281254519
30
0
41
1
10
19.1254756646479
20
-10.4220674441954
30
0
41
1
10
19.1236050761948
20
-10.4101503527321
30
0
41
1
10
19.1220455068246
20
-10.4008724771692
30
0
41
1
10
19.1204590785923
20
-10.3917422070158
30
0
0
SPLINE
5
2ED
100
AcDbEntity
8
1
62
256
6
ByLayer
370
18
48
1
60
0
100
AcDbSpline
70
4
71
3
72
8
73
4
40
0
40
0
40
0
40
0
40
1
40
1
40
1
40
1
41
1
10
6.67322640329746
20
-13.3375541829928
30
0
41
1
10
6.653122952908
20
-13.3882726842603
30
0
41
1
10
6.63178698698493
20
-13.4384833833534
30
0
41
1
10
6.61013948271068
20
-13.4885216891772
30
0
0
SPLINE
5
2EE
100
AcDbEntity
8
1
62
256
6
ByLayer
370
18
48
1
60
0
100
AcDbSpline
70
4
71
3
72
8
73
4
40
0
40
0
40
0
40
0
40
1
40
1
40
1
40
1
41
1
10
17.923276898159
20
-14.4198062824524
30
0
41
1
10
17.9273358536225
20
-14.4754126354577
30
0
41
1
10
17.931145963629
20
-14.5312767026279
30
0
41
1
10
17.9348219005212
20
-14.5871892762788
30
0
0
SPLINE
5
2EF
100
AcDbEntity
8
1
62
256
6
ByLayer
370
18
48
1
60
0
100
AcDbSpline
70
4
71
3
72
8
73
4
40
0
40
0
40
0
40
0
40
1
40
1
40
1
40
1
41
1
10
17.1291089264408
20
-14.6460252133533
30
0
41
1
10
17.1377145954998
20
-14.7003364339366
30
0
41
1
10
17.1476383211295
20
-14.7544590362789
30
0
41
1
10
17.1579125263579
20
-14.8084920916642
30
0
0
SPLINE
5
2F0
100
AcDbEntity
8
1
62
256
6
ByLayer
370
18
48
1
60
0
100
AcDbSpline
70
4
71
3
72
8
73
4
40
0
40
0
40
0
40
0
40
1
40
1
40
1
40
1
41
1
10
6.61013948271374
20
-13.488521689181
30
0
41
1
10
6.5343075912732
20
-13.6638074554692
30
0
41
1
10
6.4636427573713
20
-13.8411558000189
30
0
41
1
10
6.39254663823681
20
-14.0181741705269
30
0
0
SPLINE
5
2F1
100
AcDbEntity
8
1
62
256
6
ByLayer
370
18
48
1
60
0
100
AcDbSpline
70
4
71
3
72
8
73
4
40
0
40
0
40
0
40
0
40
1
40
1
40
1
40
1
41
1
10
5.98152130028177
20
-13.0913282126173
30
0
41
1
10
5.92439151874191
20
-13.2784309391178
30
0
41
1
10
5.86772017434202
20
-13.4646210940063
30
0
41
1
10
5.81139766328942
20
-13.6509741941156
30
0
0
SPLINE
5
2F2
100
AcDbEntity
8
1
62
256
6
ByLayer
370
18
48
1
60
0
100
AcDbSpline
70
4
71
3
72
10
73
6
40
0
40
0
40
0
40
0
40
0.295368028639103
40
0.295368028639103
40
1
40
1
40
1
40
1
41
1
10
17.0768212409838
20
-14.3163322344586
30
0
41
1
10
17.0819723740489
20
-14.3488016807832
30
0
41
1
10
17.0871271206797
20
-14.381267821455
30
0
41
1
10
17.1045646508146
20
-14.4911776416072
30
0
41
1
10
17.1168422032317
20
-14.568608721394
30
0
41
1
10
17.1291089264375
20
-14.6460252133837
30
0
0
SPLINE
5
2F3
100
AcDbEntity
8
1
62
256
6
ByLayer
370
18
48
1
60
0
100
AcDbSpline
70
4
71
3
72
8
73
4
40
0
40
0
40
0
40
0
40
1
40
1
40
1
40
1
41
1
10
6.03064382735465
20
-12.9315372804422
30
0
41
1
10
6.01421924470901
20
-12.9845802806023
30
0
41
1
10
5.99782996892622
20
-13.0379165543435
30
0
41
1
10
5.98152130028256
20
-13.091328212616
30
0
0
SPLINE
5
2F4
100
AcDbEntity
8
1
62
256
6
ByLayer
370
18
48
1
60
0
100
AcDbSpline
70
4
71
3
72
8
73
4
40
0
40
0
40
0
40
0
40
1
40
1
40
1
40
1
41
1
10
17.157912526354
20
-14.8084920916671
30
0
41
1
10
17.1939033918918
20
-14.9977715918861
30
0
41
1
10
17.2244596941472
20
-15.1877869613407
30
0
41
1
10
17.2555486629581
20
-15.3775929876983
30
0
0
SPLINE
5
2F5
100
AcDbEntity
8
1
62
256
6
ByLayer
370
18
48
1
60
0
100
AcDbSpline
70
4
71
3
72
10
73
6
40
0
40
0
40
0
40
0
40
0.295368028639117
40
0.295368028639117
40
1
40
1
40
1
40
1
41
1
10
6.13069713140566
20
-12.6097233846635
30
0
41
1
10
6.120809065613
20
-12.6413979554862
30
0
41
1
10
6.11093194221734
20
-12.6730764352348
30
0
41
1
10
6.07752949660846
20
-12.7803349166599
30
0
41
1
10
6.05405581398827
20
-12.8559285397167
30
0
41
1
10
6.03064382734578
20
-12.9315372804692
30
0
0
SPLINE
5
2F6
100
AcDbEntity
8
1
62
256
6
ByLayer
370
18
48
1
60
0
100
AcDbSpline
70
4
71
3
72
22
73
18
40
0
40
0
40
0
40
0
40
0.104611531529239
40
0.104611531529239
40
0.208411675036495
40
0.208411675036495
40
0.402775886004098
40
0.402775886004098
40
0.50003149039161
40
0.50003149039161
40
0.699792640385731
40
0.699792640385731
40
0.846184360106983
40
0.846184360106983
40
0.950335564350934
40
0.950335564350934
40
1
40
1
40
1
40
1
41
1
10
17.3242074844527
20
-15.4155647095616
30
0
41
1
10
17.3429080245825
20
-15.3896862212934
30
0
41
1
10
17.3662628692958
20
-15.3662015769878
30
0
41
1
10
17.4178778467412
20
-15.3279611994737
30
0
41
1
10
17.4464070975739
20
-15.3125288580214
30
0
41
1
10
17.5280119215458
20
-15.2757197263599
30
0
41
1
10
17.5823186589603
20
-15.2589746977723
30
0
41
1
10
17.6575300200013
20
-15.2363417650038
30
0
41
1
10
17.6819695299063
20
-15.2292599281415
30
0
41
1
10
17.7529427278832
20
-15.2090431962401
30
0
41
1
10
17.796595627216
20
-15.1966605116184
30
0
41
1
10
17.8616710179581
20
-15.1838672787712
30
0
41
1
10
17.8864358276146
20
-15.1811256973102
30
0
41
1
10
17.9218587457699
20
-15.1900098034413
30
0
41
1
10
17.9347731978431
20
-15.1982231616288
30
0
41
1
10
17.9504725289825
20
-15.2182354017662
30
0
41
1
10
17.9551126445908
20
-15.2259664025194
30
0
41
1
10
17.959318675662
20
-15.2346531394718
30
0
0
SPLINE
5
2F7
100
AcDbEntity
8
1
62
256
6
ByLayer
370
18
48
1
60
0
100
AcDbSpline
70
4
71
3
72
10
73
6
40
0
40
0
40
0
40
0
40
0.295368028639107
40
0.295368028639107
40
1
40
1
40
1
40
1
41
1
10
17.898270667911
20
-14.0823421747152
30
0
41
1
10
17.9007701383404
20
-14.1155669477564
30
0
41
1
10
17.9032578624547
20
-14.1487927904107
30
0
41
1
10
17.911644290778
20
-14.2612808190126
30
0
41
1
10
17.9174911675208
20
-14.3405436782564
30
0
41
1
10
17.9232768981624
20
-14.419806282481
30
0
0
SPLINE
5
2F8
100
AcDbEntity
8
1
62
256
6
ByLayer
370
18
48
1
60
0
100
AcDbSpline
70
4
71
3
72
8
73
4
40
0
40
0
40
0
40
0
40
1
40
1
40
1
40
1
41
1
10
19.0264322740386
20
-9.81874062616829
30
0
41
1
10
19.0335202057158
20
-9.8617136559488
30
0
41
1
10
19.040628391873
20
-9.90382203172597
30
0
41
1
10
19.0476722515942
20
-9.94568759586259
30
0
0
SPLINE
5
2F9
100
AcDbEntity
8
1
62
256
6
ByLayer
370
18
48
1
60
0
100
AcDbSpline
70
4
71
3
72
10
73
6
40
0
40
0
40
0
40
0
40
0.295368028639111
40
0.295368028639111
40
1
40
1
40
1
40
1
41
1
10
18.9830242489095
20
-9.5580271451275
30
0
41
1
10
18.9873368066003
20
-9.58368985237742
30
0
41
1
10
18.9916381559769
20
-9.6093513853332
30
0
41
1
10
19.006161162303
20
-9.69624483413959
30
0
41
1
10
19.0163289694205
20
-9.75748585821351
30
0
41
1
10
19.026432274042
20
-9.81874062619683
30
0
0
LINE
5
70
100
AcDbEntity
8
80
62
256
6
ByLayer
370
13
48
0.05
60
0
100
AcDbLine
10
0
20
0
30
0
11
-16.173227
21
0
31
0
39
0
210
0
220
0
230
1
0
LINE
5
71
100
AcDbEntity
8
4
62
256
6
ByLayer
370
13
48
0.05
60
0
100
AcDbLine
10
0
20
0
30
0
11
18
21
0
31
0
39
0
210
0
220
0
230
1
0
LINE
5
73
100
AcDbEntity
8
1
62
256
6
ByLayer
370
13
48
0.05
60
0
100
AcDbLine
10
17.123004
20
-34.49565
30
0
11
9.107714
21
-33.653209
31
0
39
0
210
0
220
0
230
1
0
LINE
5
75
100
AcDbEntity
8
1
62
256
6
ByLayer
370
13
48
0.05
60
0
100
AcDbLine
10
18.838091
20
-25.773705
30
0
11
17.99565
21
-33.788996
31
0
39
0
210
0
220
0
230
1
0
LINE
5
76
100
AcDbEntity
8
81
62
256
6
ByLayer
370
13
48
0.05
60
0
100
AcDbLine
10
18
20
34.5
30
0
11
22.189439
21
34.5
31
0
39
0
210
0
220
0
230
1
0
LINE
5
77
100
AcDbEntity
8
SK4
62
256
6
ByLayer
370
13
48
0.05
60
0
100
AcDbLine
10
-10
20
0
30
0
11
19.907123
21
0
31
0
39
0
210
0
220
0
230
1
0
LINE
5
79
100
AcDbEntity
8
1
62
256
6
ByLayer
370
18
48
1
60
1
100
AcDbLine
10
0
20
0
30
0
11
0
21
841
31
0
39
0
210
0
220
0
230
1
0
LINE
5
7A
100
AcDbEntity
8
1
62
256
6
ByLayer
370
18
48
1
60
1
100
AcDbLine
10
1189
20
841
30
0
11
0
21
841
31
0
39
0
210
0
220
0
230
1
0
LINE
5
7B
100
AcDbEntity
8
1
62
256
6
ByLayer
370
18
48
1
60
1
100
AcDbLine
10
1189
20
841
30
0
11
1189
21
0
31
0
39
0
210
0
220
0
230
1
0
LINE
5
7C
100
AcDbEntity
8
1
62
256
6
ByLayer
370
18
48
1
60
1
100
AcDbLine
10
0
20
0
30
0
11
1189
21
0
31
0
39
0
210
0
220
0
230
1
0
LINE
5
7D
100
AcDbEntity
8
1
62
256
6
ByLayer
370
18
48
1
60
0
100
AcDbLine
10
12.256284
20
28.704358
30
0
11
12.35652
21
28.714893
31
0
39
0
210
0
220
0
230
1
0
LINE
5
7E
100
AcDbEntity
8
1
62
256
6
ByLayer
370
18
48
1
60
0
100
AcDbLine
10
12.608562
20
25.247845
30
0
11
12.680688
21
25.255426
31
0
39
0
210
0
220
0
230
1
0
LINE
5
7F
100
AcDbEntity
8
1
62
256
6
ByLayer
370
18
48
1
60
0
100
AcDbLine
10
12.178952
20
30.029131
30
0
11
12.106825
21
30.021551
31
0
39
0
210
0
220
0
230
1
0
LINE
5
80
100
AcDbEntity
8
1
62
256
6
ByLayer
370
18
48
1
60
0
100
AcDbLine
10
12.581131
20
26.577864
30
0
11
12.480895
21
26.567329
31
0
39
0
210
0
220
0
230
1
0
LINE
5
81
100
AcDbEntity
8
1
62
256
6
ByLayer
370
18
48
1
60
0
100
AcDbLine
10
-4.098238
20
-11.82025
30
0
11
-4.098238
21
-13.965362
31
0
39
0
210
0
220
0
230
1
0
LINE
5
82
100
AcDbEntity
8
1
62
256
6
ByLayer
370
18
48
1
60
0
100
AcDbLine
10
6.030443
20
-12.919625
30
0
11
5.677611
21
-14.015401
31
0
39
0
210
0
220
0
230
1
0
LINE
5
83
100
AcDbEntity
8
1
62
256
6
ByLayer
370
18
48
1
60
0
100
AcDbLine
10
6.030443
20
-12.919625
30
0
11
5.677611
21
-14.015401
31
0
39
0
210
0
220
0
230
1
0
LINE
5
84
100
AcDbEntity
8
1
62
256
6
ByLayer
370
18
48
1
60
0
100
AcDbLine
10
19.122942
20
-10.405422
30
0
11
18.835158
21
-8.511331
31
0
39
0
210
0
220
0
230
1
0
LINE
5
85
100
AcDbEntity
8
1
62
256
6
ByLayer
370
18
48
1
60
0
100
AcDbLine
10
19.222677
20
-11.241479
30
0
11
19.127016
21
-10.432935
31
0
39
0
210
0
220
0
230
1
0
LINE
5
86
100
AcDbEntity
8
1
62
256
6
ByLayer
370
18
48
1
60
0
100
AcDbLine
10
18.835079
20
-14.561225
30
0
11
19.023322
21
-13.156627
31
0
39
0
210
0
220
0
230
1
0
LINE
5
87
100
AcDbEntity
8
1
62
256
6
ByLayer
370
18
48
1
60
0
100
AcDbLine
10
19.120783
20
-12.407363
30
0
11
19.22208
21
-11.61076
31
0
39
0
210
0
220
0
230
1
0
LINE
5
88
100
AcDbEntity
8
1
62
256
6
ByLayer
370
18
48
1
60
0
100
AcDbLine
10
16.380931
20
-24.140548
30
0
11
14.80538
21
-26.309184
31
0
39
0
210
0
220
0
230
1
0
LINE
5
89
100
AcDbEntity
8
1
62
256
6
ByLayer
370
18
48
1
60
0
100
AcDbLine
10
8.301762
20
-30.717663
30
0
11
8.301762
21
-19.850108
31
0
39
0
210
0
220
0
230
1
0
LINE
5
8A
100
AcDbEntity
8
1
62
256
6
ByLayer
370
18
48
1
60
0
100
AcDbLine
10
-2.321646
20
-21.749177
30
0
11
-2.321646
21
-20.950239
31
0
39
0
210
0
220
0
230
1
0
LINE
5
8B
100
AcDbEntity
8
SK1
62
256
6
ByLayer
370
18
48
1
60
0
100
AcDbLine
10
-7.998238
20
-21.666655
30
0
11
-5.312786
21
-21.719493
31
0
39
0
210
0
220
0
230
1
0
LINE
5
8D
100
AcDbEntity
8
SK1
62
256
6
ByLayer
370
18
48
1
60
0
100
AcDbLine
10
-5.312786
20
-21.719493
30
0
11
-2.321646
21
-21.749177
31
0
39
0
210
0
220
0
230
1
0
LINE
5
8E
100
AcDbEntity
8
1
62
256
6
ByLayer
370
18
48
1
60
0
100
AcDbLine
10
-2.321646
20
-20.089119
30
0
11
-2.321646
21
-16.786324
31
0
39
0
210
0
220
0
230
1
0
LINE
5
8F
100
AcDbEntity
8
1
62
256
6
ByLayer
370
18
48
1
60
0
100
AcDbLine
10
8.301762
20
-19.850108
30
0
11
-2.28482
21
-19.850108
31
0
39
0
210
0
220
0
230
1
0
LINE
5
90
100
AcDbEntity
8
1
62
256
6
ByLayer
370
18
48
1
60
0
100
AcDbLine
10
-2.28482
20
-30.717663
30
0
11
-2.28482
21
-19.850108
31
0
39
0
210
0
220
0
230
1
0
LINE
5
91
100
AcDbEntity
8
1
62
256
6
ByLayer
370
18
48
1
60
0
100
AcDbLine
10
-2.28482
20
-19.850108
30
0
11
-1.907873
21
-16.79287
31
0
39
0
210
0
220
0
230
1
0
LINE
5
92
100
AcDbEntity
8
1
62
256
6
ByLayer
370
18
48
1
60
0
100
AcDbLine
10
18.000171
20
-18.902498
30
0
11
16.700937
21
-26.389697
31
0
39
0
210
0
220
0
230
1
0
LINE
5
93
100
AcDbEntity
8
1
62
256
6
ByLayer
370
18
48
1
60
0
100
AcDbLine
10
11.301762
20
-22.272459
30
0
11
11.301762
21
-22.992178
31
0
39
0
210
0
220
0
230
1
0
LINE
5
94
100
AcDbEntity
8
1
62
256
6
ByLayer
370
18
48
1
60
0
100
AcDbLine
10
8.301762
20
-30.717663
30
0
11
12.07045
21
-29.068913
31
0
39
0
210
0
220
0
230
1
0
LINE
5
95
100
AcDbEntity
8
1
62
256
6
ByLayer
370
18
48
1
60
0
100
AcDbLine
10
16.380931
20
-26.660875
30
0
11
16.380931
21
-24.140548
31
0
39
0
210
0
220
0
230
1
0
LINE
5
96
100
AcDbEntity
8
1
62
256
6
ByLayer
370
18
48
1
60
0
100
AcDbLine
10
10.501762
20
-17.315955
30
0
11
10.501762
21
-21.418636
31
0
39
0
210
0
220
0
230
1
0
LINE
5
97
100
AcDbEntity
8
1
62
256
6
ByLayer
370
18
48
1
60
0
100
AcDbLine
10
13.789942
20
-27.091339
30
0
11
14.80538
21
-26.309184
31
0
39
0
210
0
220
0
230
1
0
LINE
5
98
100
AcDbEntity
8
1
62
256
6
ByLayer
370
18
48
1
60
0
100
AcDbLine
10
-2.284818
20
-21.731663
30
0
11
-2.321646
21
-21.749177
31
0
39
0
210
0
220
0
230
1
0
LINE
5
99
100
AcDbEntity
8
1
62
256
6
ByLayer
370
18
48
1
60
0
100
AcDbLine
10
14.872055
20
-23.276882
30
0
11
14.80538
21
-26.309184
31
0
39
0
210
0
220
0
230
1
0
LINE
5
9A
100
AcDbEntity
8
1
62
256
6
ByLayer
370
18
48
1
60
0
100
AcDbLine
10
8.301762
20
-30.717663
30
0
11
-2.28482
21
-30.717663
31
0
39
0
210
0
220
0
230
1
0
LINE
5
9B
100
AcDbEntity
8
1
62
256
6
ByLayer
370
18
48
1
60
0
100
AcDbLine
10
14.242377
20
-26.742804
30
0
11
16.380931
21
-26.660875
31
0
39
0
210
0
220
0
230
1
0
LINE
5
9C
100
AcDbEntity
8
1
62
256
6
ByLayer
370
18
48
1
60
0
100
AcDbLine
10
10.501762
20
-15.484944
30
0
11
10.501762
21
-17.315955
31
0
39
0
210
0
220
0
230
1
0
LINE
5
9D
100
AcDbEntity
8
1
62
256
6
ByLayer
370
18
48
1
60
0
100
AcDbLine
10
18.501762
20
-15.516841
30
0
11
18.501762
21
-14.296728
31
0
39
0
210
0
220
0
230
1
0
LINE
5
9E
100
AcDbEntity
8
1
62
256
6
ByLayer
370
18
48
1
60
0
100
AcDbLine
10
16.700937
20
-26.389697
30
0
11
16.666875
21
-26.443036
31
0
39
0
210
0
220
0
230
1
0
LINE
5
9F
100
AcDbEntity
8
1
62
256
6
ByLayer
370
18
48
1
60
0
100
AcDbLine
10
16.666875
20
-26.443036
30
0
11
16.380931
21
-26.660875
31
0
39
0
210
0
220
0
230
1
0
LINE
5
A0
100
AcDbEntity
8
1
62
256
6
ByLayer
370
18
48
1
60
0
100
AcDbLine
10
-2.092498
20
-18.290278
30
0
11
-2.092498
21
-16.789939
31
0
39
0
210
0
220
0
230
1
0
LINE
5
A1
100
AcDbEntity
8
SK1
62
256
6
ByLayer
370
18
48
1
60
0
100
AcDbLine
10
-7.998238
20
-21.666655
30
0
11
-7.998238
21
-16.698753
31
0
39
0
210
0
220
0
230
1
0
LINE
5
A2
100
AcDbEntity
8
1
62
256
6
ByLayer
370
18
48
1
60
0
100
AcDbLine
10
8.301762
20
-19.850108
30
0
11
10.501762
21
-17.315955
31
0
39
0
210
0
220
0
230
1
0
LINE
5
A3
100
AcDbEntity
8
1
62
256
6
ByLayer
370
18
48
1
60
0
100
AcDbLine
10
19.217287
20
-11.548083
30
0
11
19.120459
21
-12.345669
31
0
39
0
210
0
220
0
230
1
0
LINE
5
A4
100
AcDbEntity
8
1
62
256
6
ByLayer
370
18
48
1
60
0
100
AcDbLine
10
19.222162
20
-11.610112
30
0
11
19.1199
21
-12.414313
31
0
39
0
210
0
220
0
230
1
0
LINE
5
A5
100
AcDbEntity
8
1
62
256
6
ByLayer
370
18
48
1
60
0
100
AcDbLine
10
17.796647
20
-20.087651
30
0
11
18.833148
21
-14.573088
31
0
39
0
210
0
220
0
230
1
0
LINE
5
A6
100
AcDbEntity
8
1
62
256
6
ByLayer
370
18
48
1
60
0
100
AcDbLine
10
13.589391
20
27.43988
30
0
11
13.652966
21
27.446562
31
0
39
0
210
0
220
0
230
1
0
LINE
5
A7
100
AcDbEntity
8
1
62
256
6
ByLayer
370
18
48
1
60
0
100
AcDbLine
10
13.521971
20
28.081343
30
0
11
13.586768
21
28.088154
31
0
39
0
210
0
220
0
230
1
0
LINE
5
A8
100
AcDbEntity
8
1
62
256
6
ByLayer
370
18
48
1
60
0
100
AcDbLine
10
11.404663
20
28.405551
30
0
11
11.512701
21
28.416907
31
0
39
0
210
0
220
0
230
1
0
LINE
5
A9
100
AcDbEntity
8
1
62
256
6
ByLayer
370
18
48
1
60
0
100
AcDbLine
10
11.258978
20
27.844495
30
0
11
11.239267
21
27.841421
31
0
39
0
210
0
220
0
230
1
0
LINE
5
AA
100
AcDbEntity
8
1
62
256
6
ByLayer
370
18
48
1
60
0
100
AcDbLine
10
11.585758
20
26.682543
30
0
11
11.693797
21
26.693899
31
0
39
0
210
0
220
0
230
1
0
LINE
5
AB
100
AcDbEntity
8
1
62
256
6
ByLayer
370
18
48
1
60
0
100
AcDbLine
10
11.306687
20
27.199958
30
0
11
11.326606
21
27.20105
31
0
39
0
210
0
220
0
230
1
0
LINE
5
AC
100
AcDbEntity
8
1
62
256
6
ByLayer
370
18
48
1
60
0
100
AcDbLine
10
12.546882
20
28.85088
30
0
11
12.65492
21
28.862235
31
0
39
0
210
0
220
0
230
1
0
LINE
5
AD
100
AcDbEntity
8
1
62
256
6
ByLayer
370
18
48
1
60
0
100
AcDbLine
10
11.501786
20
28.433676
30
0
11
11.512701
21
28.416907
31
0
39
0
210
0
220
0
230
1
0
LINE
5
AE
100
AcDbEntity
8
1
62
256
6
ByLayer
370
18
48
1
60
0
100
AcDbLine
10
12.663924
20
28.880096
30
0
11
12.65492
21
28.862235
31
0
39
0
210
0
220
0
230
1
0
LINE
5
AF
100
AcDbEntity
8
1
62
256
6
ByLayer
370
18
48
1
60
0
100
AcDbLine
10
12.554932
20
28.868641
30
0
11
12.663924
21
28.880096
31
0
39
0
210
0
220
0
230
1
0
LINE
5
B0
100
AcDbEntity
8
1
62
256
6
ByLayer
370
18
48
1
60
0
100
AcDbLine
10
12.903645
20
26.495783
30
0
11
12.916165
21
26.480183
31
0
39
0
210
0
220
0
230
1
0
LINE
5
B1
100
AcDbEntity
8
1
62
256
6
ByLayer
370
18
48
1
60
0
100
AcDbLine
10
12.807173
20
26.468728
30
0
11
12.916165
21
26.480183
31
0
39
0
210
0
220
0
230
1
0
LINE
5
B2
100
AcDbEntity
8
1
62
256
6
ByLayer
370
18
48
1
60
0
100
AcDbLine
10
11.392794
20
28.422221
30
0
11
11.501786
21
28.433676
31
0
39
0
210
0
220
0
230
1
0
LINE
5
B3
100
AcDbEntity
8
1
62
256
6
ByLayer
370
18
48
1
60
0
100
AcDbLine
10
11.693797
20
26.693899
30
0
11
11.686607
21
26.675226
31
0
39
0
210
0
220
0
230
1
0
LINE
5
B4
100
AcDbEntity
8
1
62
256
6
ByLayer
370
18
48
1
60
0
100
AcDbLine
10
11.150939
20
27.833139
30
0
11
11.258978
21
27.844495
31
0
39
0
210
0
220
0
230
1
0
LINE
5
B5
100
AcDbEntity
8
1
62
256
6
ByLayer
370
18
48
1
60
0
100
AcDbLine
10
11.218568
20
27.189695
30
0
11
11.326606
21
27.20105
31
0
39
0
210
0
220
0
230
1
0
LINE
5
B6
100
AcDbEntity
8
1
62
256
6
ByLayer
370
18
48
1
60
0
100
AcDbLine
10
11.577615
20
26.663771
30
0
11
11.686607
21
26.675226
31
0
39
0
210
0
220
0
230
1
0
LINE
5
B7
100
AcDbEntity
8
1
62
256
6
ByLayer
370
18
48
1
60
0
100
AcDbLine
10
12.795606
20
26.484427
30
0
11
12.903645
21
26.495783
31
0
39
0
210
0
220
0
230
1
0
LINE
5
B8
100
AcDbEntity
8
1
62
256
6
ByLayer
370
18
48
1
60
0
100
AcDbLine
10
2.001762
20
16.807074
30
0
11
2.001762
21
31.933342
31
0
39
0
210
0
220
0
230
1
0
LINE
5
B9
100
AcDbEntity
8
1
62
256
6
ByLayer
370
18
48
1
60
0
100
AcDbLine
10
13.791661
20
15.277341
30
0
11
18.192315
21
16.879048
31
0
39
0
210
0
220
0
230
1
0
LINE
5
BA
100
AcDbEntity
8
1
62
256
6
ByLayer
370
18
48
1
60
0
100
AcDbLine
10
-7.998238
20
31.630005
30
0
11
-5.312786
21
31.724495
31
0
39
0
210
0
220
0
230
1
0
LINE
5
BB
100
AcDbEntity
8
1
62
256
6
ByLayer
370
18
48
1
60
0
100
AcDbLine
10
18.501762
20
16.991678
30
0
11
18.501762
21
21.519377
31
0
39
0
210
0
220
0
230
1
0
LINE
5
BC
100
AcDbEntity
8
1
62
256
6
ByLayer
370
18
48
1
60
0
100
AcDbLine
10
5.90121
20
22.376004
30
0
11
6.195796
21
22.406966
31
0
39
0
210
0
220
0
230
1
0
LINE
5
BD
100
AcDbEntity
8
1
62
256
6
ByLayer
370
18
48
1
60
0
100
AcDbLine
10
5.069693
20
32.072948
30
0
11
5.358872
21
32.103342
31
0
39
0
210
0
220
0
230
1
0
LINE
5
BE
100
AcDbEntity
8
1
62
256
6
ByLayer
370
18
48
1
60
0
100
AcDbLine
10
6.587164
20
22.448101
30
0
11
6.195796
21
22.406966
31
0
39
0
210
0
220
0
230
1
0
LINE
5
BF
100
AcDbEntity
8
1
62
256
6
ByLayer
370
18
48
1
60
0
100
AcDbLine
10
18.181242
20
21.610629
30
0
11
18.194131
21
21.487044
31
0
39
0
210
0
220
0
230
1
0
LINE
5
C0
100
AcDbEntity
8
SK1
62
256
6
ByLayer
370
18
48
1
60
0
100
AcDbLine
10
-7.998238
20
7.412543
30
0
11
-2.181832
21
7.412543
31
0
39
0
210
0
220
0
230
1
0
LINE
5
C1
100
AcDbEntity
8
1
62
256
6
ByLayer
370
18
48
1
60
0
100
AcDbLine
10
5.007909
20
32.081376
30
0
11
-1.308567
21
31.862958
31
0
39
0
210
0
220
0
230
1
0
LINE
5
C2
100
AcDbEntity
8
1
62
256
6
ByLayer
370
18
48
1
60
0
100
AcDbLine
10
18.194131
20
21.487044
30
0
11
18.192315
21
16.879048
31
0
39
0
210
0
220
0
230
1
0
LINE
5
C3
100
AcDbEntity
8
1
62
256
6
ByLayer
370
18
48
1
60
0
100
AcDbLine
10
6.396005
20
23.921113
30
0
11
6.431959
21
23.924892
31
0
39
0
210
0
220
0
230
1
0
LINE
5
C4
100
AcDbEntity
8
1
62
256
6
ByLayer
370
18
48
1
60
0
100
AcDbLine
10
18.501762
20
16.991678
30
0
11
18.192315
21
16.879048
31
0
39
0
210
0
220
0
230
1
0
LINE
5
C5
100
AcDbEntity
8
SK1
62
256
6
ByLayer
370
18
48
1
60
0
100
AcDbLine
10
-7.998238
20
23.590627
30
0
11
-7.998238
21
7.412543
31
0
39
0
210
0
220
0
230
1
0
LINE
5
C6
100
AcDbEntity
8
1
62
256
6
ByLayer
370
18
48
1
60
0
100
AcDbLine
10
9.343158
20
20.729554
30
0
11
17.637506
21
21.601325
31
0
39
0
210
0
220
0
230
1
0
LINE
5
C7
100
AcDbEntity
8
1
62
256
6
ByLayer
370
18
48
1
60
0
100
AcDbLine
10
18.501762
20
21.922184
30
0
11
18.501762
21
21.519377
31
0
39
0
210
0
220
0
230
1
0
LINE
5
C8
100
AcDbEntity
8
SK1
62
256
6
ByLayer
370
18
48
1
60
0
100
AcDbLine
10
-1.902144
20
2.956617
30
0
11
-1.854072
21
2.761195
31
0
39
0
210
0
220
0
230
1
0
LINE
5
C9
100
AcDbEntity
8
1
62
256
6
ByLayer
370
18
48
1
60
0
100
AcDbLine
10
-1.519438
20
31.855666
30
0
11
-5.312786
21
31.724495
31
0
39
0
210
0
220
0
230
1
0
LINE
5
CA
100
AcDbEntity
8
SK1
62
256
6
ByLayer
370
18
48
1
60
0
100
AcDbLine
10
-7.998238
20
3.083462
30
0
11
-7.998238
21
7.412543
31
0
39
0
210
0
220
0
230
1
0
LINE
5
CB
100
AcDbEntity
8
1
62
256
6
ByLayer
370
18
48
1
60
0
100
AcDbLine
10
18.501762
20
21.519377
30
0
11
18.194131
21
21.487044
31
0
39
0
210
0
220
0
230
1
0
LINE
5
CC
100
AcDbEntity
8
1
62
256
6
ByLayer
370
18
48
1
60
0
100
AcDbLine
10
6.221928
20
22.158336
30
0
11
6.195796
21
22.406966
31
0
39
0
210
0
220
0
230
1
0
LINE
5
CD
100
AcDbEntity
8
1
62
256
6
ByLayer
370
18
48
1
60
0
100
AcDbLine
10
5.570028
20
32.125536
30
0
11
5.363494
21
32.103828
31
0
39
0
210
0
220
0
230
1
0
LINE
5
CE
100
AcDbEntity
8
1
62
256
6
ByLayer
370
18
48
1
60
0
100
AcDbLine
10
2.001762
20
31.933342
30
0
11
-7.998238
21
31.581483
31
0
39
0
210
0
220
0
230
1
0
LINE
5
CF
100
AcDbEntity
8
1
62
256
6
ByLayer
370
18
48
1
60
0
100
AcDbLine
10
4.647607
20
32.043282
30
0
11
5.0111
21
32.081486
31
0
39
0
210
0
220
0
230
1
0
LINE
5
D0
100
AcDbEntity
8
1
62
256
6
ByLayer
370
18
48
1
60
0
100
AcDbLine
10
5.358872
20
32.103342
30
0
11
5.363494
21
32.103828
31
0
39
0
210
0
220
0
230
1
0
LINE
5
D1
100
AcDbEntity
8
1
62
256
6
ByLayer
370
18
48
1
60
0
100
AcDbLine
10
5.927144
20
22.127353
30
0
11
5.90121
21
22.376004
31
0
39
0
210
0
220
0
230
1
0
LINE
5
D2
100
AcDbEntity
8
1
62
256
6
ByLayer
370
18
48
1
60
0
100
AcDbLine
10
6.613296
20
22.19947
30
0
11
6.221928
21
22.158336
31
0
39
0
210
0
220
0
230
1
0
LINE
5
D3
100
AcDbEntity
8
1
62
256
6
ByLayer
370
18
48
1
60
0
100
AcDbLine
10
5.358872
20
16.807139
30
0
11
5.358872
21
32.103342
31
0
39
0
210
0
220
0
230
1
0
LINE
5
D4
100
AcDbEntity
8
1
62
256
6
ByLayer
370
18
48
1
60
0
100
AcDbLine
10
-7.998238
20
31.581483
30
0
11
-7.998238
21
31.630005
31
0
39
0
210
0
220
0
230
1
0
LINE
5
D5
100
AcDbEntity
8
1
62
256
6
ByLayer
370
18
48
1
60
0
100
AcDbLine
10
5.927144
20
22.127353
30
0
11
6.221928
21
22.158336
31
0
39
0
210
0
220
0
230
1
0
LINE
5
D6
100
AcDbEntity
8
1
62
256
6
ByLayer
370
18
48
1
60
0
100
AcDbLine
10
12.153996
20
24.241531
30
0
11
9.578078
21
23.970791
31
0
39
0
210
0
220
0
230
1
0
LINE
5
D7
100
AcDbEntity
8
1
62
256
6
ByLayer
370
18
48
1
60
0
100
AcDbLine
10
16.003478
20
24.84723
30
0
11
16.124799
21
24.859981
31
0
39
0
210
0
220
0
230
1
0
LINE
5
D8
100
AcDbEntity
8
1
62
256
6
ByLayer
370
18
48
1
60
0
100
AcDbLine
10
6.718418
20
21.410381
30
0
11
6.847954
21
21.460395
31
0
39
0
210
0
220
0
230
1
0
LINE
5
D9
100
AcDbEntity
8
1
62
256
6
ByLayer
370
18
48
1
60
0
100
AcDbLine
10
16.124799
20
24.859981
30
0
11
15.853025
21
27.445738
31
0
39
0
210
0
220
0
230
1
0
LINE
5
DA
100
AcDbEntity
8
1
62
256
6
ByLayer
370
18
48
1
60
0
100
AcDbLine
10
19.209703
20
22.996726
30
0
11
19.070351
21
22.984737
31
0
39
0
210
0
220
0
230
1
0
LINE
5
DB
100
AcDbEntity
8
1
62
256
6
ByLayer
370
18
48
1
60
0
100
AcDbLine
10
5.547541
20
32.550528
30
0
11
5.684645
21
32.528538
31
0
39
0
210
0
220
0
230
1
0
LINE
5
DC
100
AcDbEntity
8
1
62
256
6
ByLayer
370
18
48
1
60
0
100
AcDbLine
10
8.971583
20
27.835138
30
0
11
8.842461
21
27.821566
31
0
39
0
210
0
220
0
230
1
0
LINE
5
DD
100
AcDbEntity
8
1
62
256
6
ByLayer
370
18
48
1
60
0
100
AcDbLine
10
6.489897
20
33.382419
30
0
11
6.505248
21
33.243401
31
0
39
0
210
0
220
0
230
1
0
LINE
5
DE
100
AcDbEntity
8
1
62
256
6
ByLayer
370
18
48
1
60
0
100
AcDbLine
10
5.568669
20
32.138519
30
0
11
5.706711
21
32.153028
31
0
39
0
210
0
220
0
230
1
0
LINE
5
DF
100
AcDbEntity
8
1
62
256
6
ByLayer
370
18
48
1
60
0
100
AcDbLine
10
7.764527
20
20.788176
30
0
11
7.752
21
20.927471
31
0
39
0
210
0
220
0
230
1
0
LINE
5
E0
100
AcDbEntity
8
1
62
256
6
ByLayer
370
18
48
1
60
0
100
AcDbLine
10
6.283359
20
33.355692
30
0
11
6.302277
21
33.217128
31
0
39
0
210
0
220
0
230
1
0
LINE
5
E1
100
AcDbEntity
8
1
62
256
6
ByLayer
370
18
48
1
60
0
100
AcDbLine
10
18.184813
20
21.882286
30
0
11
18.169664
21
22.02133
31
0
39
0
210
0
220
0
230
1
0
LINE
5
E2
100
AcDbEntity
8
1
62
256
6
ByLayer
370
18
48
1
60
0
100
AcDbLine
10
8.958129
20
26.721055
30
0
11
9.229903
21
24.135298
31
0
39
0
210
0
220
0
230
1
0
LINE
5
E3
100
AcDbEntity
8
1
62
256
6
ByLayer
370
18
48
1
60
0
100
AcDbLine
10
6.580015
20
33.392307
30
0
11
6.594106
21
33.253151
31
0
39
0
210
0
220
0
230
1
0
LINE
5
E4
100
AcDbEntity
8
1
62
256
6
ByLayer
370
18
48
1
60
0
100
AcDbLine
10
7.903346
20
20.80166
30
0
11
7.888196
21
20.940705
31
0
39
0
210
0
220
0
230
1
0
LINE
5
E5
100
AcDbEntity
8
1
62
256
6
ByLayer
370
18
48
1
60
0
100
AcDbLine
10
18.590643
20
21.9472
30
0
11
18.540127
21
22.077736
31
0
39
0
210
0
220
0
230
1
0
LINE
5
E6
100
AcDbEntity
8
1
62
256
6
ByLayer
370
18
48
1
60
0
100
AcDbLine
10
6.653423
20
21.817778
30
0
11
6.791465
21
21.832287
31
0
39
0
210
0
220
0
230
1
0
LINE
5
E7
100
AcDbEntity
8
1
62
256
6
ByLayer
370
18
48
1
60
0
100
AcDbLine
10
19.217287
20
22.724065
30
0
11
19.079125
21
22.745943
31
0
39
0
210
0
220
0
230
1
0
LINE
5
E8
100
AcDbEntity
8
1
62
256
6
ByLayer
370
18
48
1
60
0
100
AcDbLine
10
11.452968
20
30.911365
30
0
11
8.87705
21
30.640625
31
0
39
0
210
0
220
0
230
1
0
LINE
5
E9
100
AcDbEntity
8
1
62
256
6
ByLayer
370
18
48
1
60
0
100
AcDbLine
10
17.972305
20
33.442194
30
0
11
18.043019
21
32.769391
31
0
39
0
210
0
220
0
230
1
0
LINE
5
EA
100
AcDbEntity
8
1
62
256
6
ByLayer
370
18
48
1
60
0
100
AcDbLine
10
15.616036
20
28.533498
30
0
11
15.344262
21
31.119255
31
0
39
0
210
0
220
0
230
1
0
LINE
5
EB
100
AcDbEntity
8
1
62
256
6
ByLayer
370
18
48
1
60
0
100
AcDbLine
10
18.274932
20
21.892174
30
0
11
18.258522
21
22.03108
31
0
39
0
210
0
220
0
230
1
0
LINE
5
EC
100
AcDbEntity
8
1
62
256
6
ByLayer
370
18
48
1
60
0
100
AcDbLine
10
16.861483
20
34.472933
30
0
11
16.875573
21
34.333777
31
0
39
0
210
0
220
0
230
1
0
LINE
5
ED
100
AcDbEntity
8
1
62
256
6
ByLayer
370
18
48
1
60
0
100
AcDbLine
10
7.605559
20
20.775797
30
0
11
7.595255
21
20.915265
31
0
39
0
210
0
220
0
230
1
0
LINE
5
EE
100
AcDbEntity
8
1
62
256
6
ByLayer
370
18
48
1
60
0
100
AcDbLine
10
6.663346
20
21.727315
30
0
11
6.801249
21
21.743089
31
0
39
0
210
0
220
0
230
1
0
LINE
5
EF
100
AcDbEntity
8
1
62
256
6
ByLayer
370
18
48
1
60
0
100
AcDbLine
10
15.731704
20
27.432987
30
0
11
16.003478
21
24.84723
31
0
39
0
210
0
220
0
230
1
0
LINE
5
F0
100
AcDbEntity
8
1
62
256
6
ByLayer
370
18
48
1
60
0
100
AcDbLine
10
15.853025
20
27.445738
30
0
11
15.731704
21
27.432987
31
0
39
0
210
0
220
0
230
1
0
LINE
5
F1
100
AcDbEntity
8
1
62
256
6
ByLayer
370
18
48
1
60
0
100
AcDbLine
10
7.903346
20
20.80166
30
0
11
18.184813
21
21.882286
31
0
39
0
210
0
220
0
230
1
0
LINE
5
F2
100
AcDbEntity
8
1
62
256
6
ByLayer
370
18
48
1
60
0
100
AcDbLine
10
18.074691
20
33.754608
30
0
11
17.936185
21
33.735142
31
0
39
0
210
0
220
0
230
1
0
LINE
5
F3
100
AcDbEntity
8
1
62
256
6
ByLayer
370
18
48
1
60
0
100
AcDbLine
10
15.128022
20
31.096527
30
0
11
15.465583
21
31.132006
31
0
39
0
210
0
220
0
230
1
0
LINE
5
F4
100
AcDbEntity
8
1
62
256
6
ByLayer
370
18
48
1
60
0
100
AcDbLine
10
6.441427
20
33.376635
30
0
11
6.458134
21
33.237779
31
0
39
0
210
0
220
0
230
1
0
LINE
5
F5
100
AcDbEntity
8
1
62
256
6
ByLayer
370
18
48
1
60
0
100
AcDbLine
10
18.095681
20
33.595933
30
0
11
17.956882
21
33.578686
31
0
39
0
210
0
220
0
230
1
0
LINE
5
F6
100
AcDbEntity
8
1
62
256
6
ByLayer
370
18
48
1
60
0
100
AcDbLine
10
5.568669
20
32.138519
30
0
11
6.653423
21
21.817778
31
0
39
0
210
0
220
0
230
1
0
LINE
5
F7
100
AcDbEntity
8
1
62
256
6
ByLayer
370
18
48
1
60
0
100
AcDbLine
10
5.559567
20
32.229069
30
0
11
5.697736
21
32.242311
31
0
39
0
210
0
220
0
230
1
0
LINE
5
F8
100
AcDbEntity
8
1
62
256
6
ByLayer
370
18
48
1
60
0
100
AcDbLine
10
16.951688
20
34.481997
30
0
11
16.964517
21
34.342714
31
0
39
0
210
0
220
0
230
1
0
LINE
5
F9
100
AcDbEntity
8
1
62
256
6
ByLayer
370
18
48
1
60
0
100
AcDbLine
10
19.205261
20
23.045524
30
0
11
19.066033
21
23.03217
31
0
39
0
210
0
220
0
230
1
0
LINE
5
FA
100
AcDbEntity
8
1
62
256
6
ByLayer
370
18
48
1
60
0
100
AcDbLine
10
8.699809
20
30.420895
30
0
11
8.971583
21
27.835138
31
0
39
0
210
0
220
0
230
1
0
LINE
5
FB
100
AcDbEntity
8
1
62
256
6
ByLayer
370
18
48
1
60
0
100
AcDbLine
10
17.271941
20
34.493813
30
0
11
17.249668
21
34.355627
31
0
39
0
210
0
220
0
230
1
0
LINE
5
FC
100
AcDbEntity
8
1
62
256
6
ByLayer
370
18
48
1
60
0
100
AcDbLine
10
6.594106
20
33.253151
30
0
11
7.264348
21
33.323596
31
0
39
0
210
0
220
0
230
1
0
LINE
5
FD
100
AcDbEntity
8
1
62
256
6
ByLayer
370
18
48
1
60
0
100
AcDbLine
10
8.570687
20
30.407323
30
0
11
8.842461
21
27.821566
31
0
39
0
210
0
220
0
230
1
0
LINE
5
FE
100
AcDbEntity
8
1
62
256
6
ByLayer
370
18
48
1
60
0
100
AcDbLine
10
9.587389
20
23.844681
30
0
11
12.163307
21
24.115421
31
0
39
0
210
0
220
0
230
1
0
LINE
5
FF
100
AcDbEntity
8
1
62
256
6
ByLayer
370
18
48
1
60
0
100
AcDbLine
10
7.492888
20
20.780779
30
0
11
7.514101
21
20.918854
31
0
39
0
210
0
220
0
230
1
0
LINE
5
100
100
AcDbEntity
8
1
62
256
6
ByLayer
370
18
48
1
60
0
100
AcDbLine
10
5.777426
20
31.480226
30
0
11
5.706711
21
32.153028
31
0
39
0
210
0
220
0
230
1
0
LINE
5
101
100
AcDbEntity
8
1
62
256
6
ByLayer
370
18
48
1
60
0
100
AcDbLine
10
7.81314
20
20.792595
30
0
11
7.799253
21
20.931767
31
0
39
0
210
0
220
0
230
1
0
LINE
5
102
100
AcDbEntity
8
1
62
256
6
ByLayer
370
18
48
1
60
0
100
AcDbLine
10
17.000301
20
34.486417
30
0
11
17.01177
21
34.34701
31
0
39
0
210
0
220
0
230
1
0
LINE
5
103
100
AcDbEntity
8
1
62
256
6
ByLayer
370
18
48
1
60
0
100
AcDbLine
10
19.196159
20
23.136073
30
0
11
19.057058
21
23.121453
31
0
39
0
210
0
220
0
230
1
0
LINE
5
104
100
AcDbEntity
8
1
62
256
6
ByLayer
370
18
48
1
60
0
100
AcDbLine
10
19.222162
20
22.837154
30
0
11
19.082635
21
22.827397
31
0
39
0
210
0
220
0
230
1
0
LINE
5
105
100
AcDbEntity
8
1
62
256
6
ByLayer
370
18
48
1
60
0
100
AcDbLine
10
18.111405
20
33.456814
30
0
11
17.972305
21
33.442194
31
0
39
0
210
0
220
0
230
1
0
LINE
5
106
100
AcDbEntity
8
1
62
256
6
ByLayer
370
18
48
1
60
0
100
AcDbLine
10
13.25963
20
24.230649
30
0
11
15.835547
21
24.501389
31
0
39
0
210
0
220
0
230
1
0
LINE
5
107
100
AcDbEntity
8
1
62
256
6
ByLayer
370
18
48
1
60
0
100
AcDbLine
10
6.174185
20
33.327392
30
0
11
6.223643
21
33.196745
31
0
39
0
210
0
220
0
230
1
0
LINE
5
108
100
AcDbEntity
8
1
62
256
6
ByLayer
370
18
48
1
60
0
100
AcDbLine
10
15.125209
20
31.297333
30
0
11
12.549291
21
31.026593
31
0
39
0
210
0
220
0
230
1
0
LINE
5
109
100
AcDbEntity
8
1
62
256
6
ByLayer
370
18
48
1
60
0
100
AcDbLine
10
15.826236
20
24.627499
30
0
11
13.250319
21
24.356759
31
0
39
0
210
0
220
0
230
1
0
LINE
5
10A
100
AcDbEntity
8
1
62
256
6
ByLayer
370
18
48
1
60
0
100
AcDbLine
10
8.699809
20
30.420895
30
0
11
8.570687
21
30.407323
31
0
39
0
210
0
220
0
230
1
0
LINE
5
10B
100
AcDbEntity
8
1
62
256
6
ByLayer
370
18
48
1
60
0
100
AcDbLine
10
16.861483
20
34.472933
30
0
11
6.580015
21
33.392307
31
0
39
0
210
0
220
0
230
1
0
LINE
5
10C
100
AcDbEntity
8
1
62
256
6
ByLayer
370
18
48
1
60
0
100
AcDbLine
10
6.669147
20
21.67866
30
0
11
6.806888
21
21.695795
31
0
39
0
210
0
220
0
230
1
0
LINE
5
10D
100
AcDbEntity
8
1
62
256
6
ByLayer
370
18
48
1
60
0
100
AcDbLine
10
11.435856
20
31.036655
30
0
11
8.859938
21
30.765915
31
0
39
0
210
0
220
0
230
1
0
LINE
5
10E
100
AcDbEntity
8
1
62
256
6
ByLayer
370
18
48
1
60
0
100
AcDbLine
10
6.690137
20
21.519985
30
0
11
6.827584
21
21.539339
31
0
39
0
210
0
220
0
230
1
0
LINE
5
10F
100
AcDbEntity
8
1
62
256
6
ByLayer
370
18
48
1
60
0
100
AcDbLine
10
18.046411
20
33.864212
30
0
11
17.915816
21
33.814086
31
0
39
0
210
0
220
0
230
1
0
LINE
5
110
100
AcDbEntity
8
1
62
256
6
ByLayer
370
18
48
1
60
0
100
AcDbLine
10
15.737357
20
28.546249
30
0
11
15.616036
21
28.533498
31
0
39
0
210
0
220
0
230
1
0
LINE
5
111
100
AcDbEntity
8
1
62
256
6
ByLayer
370
18
48
1
60
0
100
AcDbLine
10
18.323401
20
21.897958
30
0
11
18.305636
21
22.036703
31
0
39
0
210
0
220
0
230
1
0
LINE
5
112
100
AcDbEntity
8
1
62
256
6
ByLayer
370
18
48
1
60
0
100
AcDbLine
10
9.359025
20
24.148869
30
0
11
9.087251
21
26.734626
31
0
39
0
210
0
220
0
230
1
0
LINE
5
113
100
AcDbEntity
8
1
62
256
6
ByLayer
370
18
48
1
60
0
100
AcDbLine
10
18.101483
20
33.547277
30
0
11
17.962521
21
33.531392
31
0
39
0
210
0
220
0
230
1
0
LINE
5
114
100
AcDbEntity
8
1
62
256
6
ByLayer
370
18
48
1
60
0
100
AcDbLine
10
8.558439
20
21.01115
30
0
11
7.888196
21
20.940705
31
0
39
0
210
0
220
0
230
1
0
LINE
5
115
100
AcDbEntity
8
1
62
256
6
ByLayer
370
18
48
1
60
0
100
AcDbLine
10
5.555125
20
32.277867
30
0
11
5.693419
21
32.289744
31
0
39
0
210
0
220
0
230
1
0
LINE
5
116
100
AcDbEntity
8
1
62
256
6
ByLayer
370
18
48
1
60
0
100
AcDbLine
10
15.737357
20
28.546249
30
0
11
15.465583
21
31.132006
31
0
39
0
210
0
220
0
230
1
0
LINE
5
117
100
AcDbEntity
8
1
62
256
6
ByLayer
370
18
48
1
60
0
100
AcDbLine
10
18.986344
20
23.794256
30
0
11
19.057058
21
23.121453
31
0
39
0
210
0
220
0
230
1
0
LINE
5
118
100
AcDbEntity
8
1
62
256
6
ByLayer
370
18
48
1
60
0
100
AcDbLine
10
9.359025
20
24.148869
30
0
11
9.229903
21
24.135298
31
0
39
0
210
0
220
0
230
1
0
LINE
5
119
100
AcDbEntity
8
1
62
256
6
ByLayer
370
18
48
1
60
0
100
AcDbLine
10
19.196159
20
23.136073
30
0
11
18.111405
21
33.456814
31
0
39
0
210
0
220
0
230
1
0
LINE
5
11A
100
AcDbEntity
8
1
62
256
6
ByLayer
370
18
48
1
60
0
100
AcDbLine
10
6.791465
20
21.832287
30
0
11
6.720751
21
22.50509
31
0
39
0
210
0
220
0
230
1
0
LINE
5
11B
100
AcDbEntity
8
1
62
256
6
ByLayer
370
18
48
1
60
0
100
AcDbLine
10
18.481469
20
21.918901
30
0
11
18.461493
21
22.057353
31
0
39
0
210
0
220
0
230
1
0
LINE
5
11C
100
AcDbEntity
8
1
62
256
6
ByLayer
370
18
48
1
60
0
100
AcDbLine
10
16.205331
20
34.263331
30
0
11
16.875573
21
34.333777
31
0
39
0
210
0
220
0
230
1
0
LINE
5
11D
100
AcDbEntity
8
1
62
256
6
ByLayer
370
18
48
1
60
0
100
AcDbLine
10
15.108097
20
31.422623
30
0
11
12.532179
21
31.151883
31
0
39
0
210
0
220
0
230
1
0
LINE
5
11E
100
AcDbEntity
8
1
62
256
6
ByLayer
370
18
48
1
60
0
100
AcDbLine
10
18.169664
20
22.02133
30
0
11
17.499421
21
21.950885
31
0
39
0
210
0
220
0
230
1
0
LINE
5
11F
100
AcDbEntity
8
1
62
256
6
ByLayer
370
18
48
1
60
0
100
AcDbLine
10
9.087251
20
26.734626
30
0
11
8.958129
21
26.721055
31
0
39
0
210
0
220
0
230
1
0
LINE
5
120
100
AcDbEntity
8
1
62
256
6
ByLayer
370
18
48
1
60
0
100
AcDbLine
10
5.542667
20
32.437439
30
0
11
5.681134
21
32.447084
31
0
39
0
210
0
220
0
230
1
0
LINE
5
121
100
AcDbEntity
8
1
62
256
6
ByLayer
370
18
48
1
60
0
100
AcDbLine
10
17.159269
20
34.498796
30
0
11
17.168515
21
34.359216
31
0
39
0
210
0
220
0
230
1
0
LINE
5
122
100
AcDbEntity
8
1
62
256
6
ByLayer
370
18
48
1
60
0
100
AcDbLine
10
-2.301724
20
29.509102
30
0
11
-2.104783
21
29.489373
31
0
39
0
210
0
220
0
230
1
0
LINE
5
123
100
AcDbEntity
8
1
62
256
6
ByLayer
370
18
48
1
60
0
100
AcDbLine
10
-1.986651
20
29.744156
30
0
11
-2.112061
21
29.723666
31
0
39
0
210
0
220
0
230
1
0
LINE
5
124
100
AcDbEntity
8
1
62
256
6
ByLayer
370
18
48
1
60
0
100
AcDbLine
10
-2.112061
20
29.723666
30
0
11
-2.307398
21
29.691751
31
0
39
0
210
0
220
0
230
1
0
LINE
5
125
100
AcDbEntity
8
1
62
256
6
ByLayer
370
18
48
1
60
0
100
AcDbLine
10
-2.104783
20
29.489373
30
0
11
-1.978343
21
29.476706
31
0
39
0
210
0
220
0
230
1
0
LINE
5
126
100
AcDbEntity
8
1
62
256
6
ByLayer
370
18
48
1
60
0
100
AcDbLine
10
-4.5773
20
-11.589733
30
0
11
-5.298238
21
-11.963841
31
0
39
0
210
0
220
0
230
1
0
LINE
5
127
100
AcDbEntity
8
1
62
256
6
ByLayer
370
18
48
1
60
0
100
AcDbLine
10
-5.298238
20
-13.059769
30
0
11
-5.298238
21
-11.963841
31
0
39
0
210
0
220
0
230
1
0
LINE
5
128
100
AcDbEntity
8
1
62
256
6
ByLayer
370
18
48
1
60
0
100
AcDbLine
10
-6.298238
20
-12.54085
30
0
11
-5.298238
21
-13.059769
31
0
39
0
210
0
220
0
230
1
0
LINE
5
129
100
AcDbEntity
8
1
62
256
6
ByLayer
370
18
48
1
60
0
100
AcDbLine
10
-6.298238
20
-11.675877
30
0
11
-6.298238
21
-12.54085
31
0
39
0
210
0
220
0
230
1
0
LINE
5
12A
100
AcDbEntity
8
1
62
256
6
ByLayer
370
18
48
1
60
0
100
AcDbLine
10
-5.298238
20
-11.963841
30
0
11
-6.045722
21
-11.575957
31
0
39
0
210
0
220
0
230
1
0
LINE
5
12B
100
AcDbEntity
8
1
62
256
6
ByLayer
370
18
48
1
60
0
100
AcDbLine
10
-4.298238
20
-12.54085
30
0
11
-4.298238
21
-11.70672
31
0
39
0
210
0
220
0
230
1
0
LINE
5
12C
100
AcDbEntity
8
1
62
256
6
ByLayer
370
18
48
1
60
0
100
AcDbLine
10
-5.298238
20
-13.059769
30
0
11
-4.298238
21
-12.54085
31
0
39
0
210
0
220
0
230
1
0
LINE
5
12D
100
AcDbEntity
8
1
62
256
6
ByLayer
370
18
48
1
60
0
100
AcDbLine
10
5.007909
20
-10.674546
30
0
11
5.771436
21
-3.641044
31
0
39
0
210
0
220
0
230
1
0
LINE
5
12E
100
AcDbEntity
8
1
62
256
6
ByLayer
370
18
48
1
60
0
100
AcDbLine
10
18.501762
20
-7.264536
30
0
11
18.501762
21
-2.519242
31
0
39
0
210
0
220
0
230
1
0
LINE
5
12F
100
AcDbEntity
8
1
62
256
6
ByLayer
370
18
48
1
60
0
100
AcDbLine
10
13.789942
20
2.630517
30
0
11
14.80538
21
1.671061
31
0
39
0
210
0
220
0
230
1
0
LINE
5
130
100
AcDbEntity
8
SK1
62
256
6
ByLayer
370
18
48
1
60
0
100
AcDbLine
10
-7.998238
20
-8.894257
30
0
11
-7.998238
21
3.083442
31
0
39
0
210
0
220
0
230
1
0
LINE
5
131
100
AcDbEntity
8
1
62
256
6
ByLayer
370
18
48
1
60
0
100
AcDbLine
10
-0.324939
20
-7.394003
30
0
11
-0.911486
21
-3.37196
31
0
39
0
210
0
220
0
230
1
0
LINE
5
132
100
AcDbEntity
8
1
62
256
6
ByLayer
370
18
48
1
60
0
100
AcDbLine
10
16.95925
20
-12.165859
30
0
11
17.354716
21
-12.048664
31
0
39
0
210
0
220
0
230
1
0
LINE
5
133
100
AcDbEntity
8
1
62
256
6
ByLayer
370
18
48
1
60
0
100
AcDbLine
10
11.105029
20
-2.336449
30
0
11
16.380931
21
-2.893517
31
0
39
0
210
0
220
0
230
1
0
LINE
5
134
100
AcDbEntity
8
1
62
256
6
ByLayer
370
18
48
1
60
0
100
AcDbLine
10
18.411539
20
-8.064727
30
0
11
18.311956
21
-8.056178
31
0
39
0
210
0
220
0
230
1
0
LINE
5
135
100
AcDbEntity
8
1
62
256
6
ByLayer
370
18
48
1
60
0
100
AcDbLine
10
16.380931
20
-2.893517
30
0
11
16.380931
21
-0.853032
31
0
39
0
210
0
220
0
230
1
0
LINE
5
136
100
AcDbEntity
8
1
62
256
6
ByLayer
370
18
48
1
60
0
100
AcDbLine
10
-5.312786
20
-9.592892
30
0
11
-2.321646
21
-9.616163
31
0
39
0
210
0
220
0
230
1
0
LINE
5
137
100
AcDbEntity
8
1
62
256
6
ByLayer
370
18
48
1
60
0
100
AcDbLine
10
6.193449
20
-3.692712
30
0
11
5.43026
21
-10.723097
31
0
39
0
210
0
220
0
230
1
0
LINE
5
138
100
AcDbEntity
8
1
62
256
6
ByLayer
370
18
48
1
60
0
100
AcDbLine
10
16.700937
20
-3.543238
30
0
11
17.251198
21
-11.184613
31
0
39
0
210
0
220
0
230
1
0
LINE
5
139
100
AcDbEntity
8
1
62
256
6
ByLayer
370
18
48
1
60
0
100
AcDbLine
10
2.001762
20
-16.853226
30
0
11
-7.998238
21
-16.698981
31
0
39
0
210
0
220
0
230
1
0
LINE
5
13A
100
AcDbEntity
8
1
62
256
6
ByLayer
370
18
48
1
60
0
100
AcDbLine
10
-2.28482
20
8.28729
30
0
11
-0.911486
21
-3.37196
31
0
39
0
210
0
220
0
230
1
0
LINE
5
13B
100
AcDbEntity
8
1
62
256
6
ByLayer
370
18
48
1
60
0
100
AcDbLine
10
-2.092498
20
-9.765252
30
0
11
-2.092498
21
-8.998775
31
0
39
0
210
0
220
0
230
1
0
LINE
5
13C
100
AcDbEntity
8
1
62
256
6
ByLayer
370
18
48
1
60
0
100
AcDbLine
10
11.755981
20
2.521535
30
0
11
11.105029
21
-2.336449
31
0
39
0
210
0
220
0
230
1
0
LINE
5
13D
100
AcDbEntity
8
1
62
256
6
ByLayer
370
18
48
1
60
0
100
AcDbLine
10
11.105029
20
-2.336449
30
0
11
11.405417
21
-1.083582
31
0
39
0
210
0
220
0
230
1
0
LINE
5
13E
100
AcDbEntity
8
1
62
256
6
ByLayer
370
18
48
1
60
0
100
AcDbLine
10
15.956086
20
-5.705821
30
0
11
16.666875
21
-3.493896
31
0
39
0
210
0
220
0
230
1
0
LINE
5
13F
100
AcDbEntity
8
1
62
256
6
ByLayer
370
18
48
1
60
0
100
AcDbLine
10
8.301762
20
8.28729
30
0
11
8.301762
21
16.806752
31
0
39
0
210
0
220
0
230
1
0
LINE
5
140
100
AcDbEntity
8
1
62
256
6
ByLayer
370
18
48
1
60
0
100
AcDbLine
10
10.501762
20
15.386211
30
0
11
10.501762
21
12.169974
31
0
39
0
210
0
220
0
230
1
0
LINE
5
141
100
AcDbEntity
8
1
62
256
6
ByLayer
370
18
48
1
60
0
100
AcDbLine
10
-2.092498
20
-9.765252
30
0
11
-2.321646
21
-9.616163
31
0
39
0
210
0
220
0
230
1
0
LINE
5
142
100
AcDbEntity
8
1
62
256
6
ByLayer
370
18
48
1
60
0
100
AcDbLine
10
14.872055
20
3.94493
30
0
11
14.80538
21
1.671061
31
0
39
0
210
0
220
0
230
1
0
LINE
5
143
100
AcDbEntity
8
1
62
256
6
ByLayer
370
18
48
1
60
0
100
AcDbLine
10
6.2645
20
-11.549278
30
0
11
6.177821
21
-12.440658
31
0
39
0
210
0
220
0
230
1
0
LINE
5
144
100
AcDbEntity
8
1
62
256
6
ByLayer
370
18
48
1
60
0
100
AcDbLine
10
8.301762
20
16.806752
30
0
11
10.501762
21
15.386211
31
0
39
0
210
0
220
0
230
1
0
LINE
5
145
100
AcDbEntity
8
1
62
256
6
ByLayer
370
18
48
1
60
0
100
AcDbLine
10
11.301762
20
10.261667
30
0
11
11.301762
21
9.697454
31
0
39
0
210
0
220
0
230
1
0
LINE
5
146
100
AcDbEntity
8
SK1
62
256
6
ByLayer
370
18
48
1
60
0
100
AcDbLine
10
-2.092498
20
-8.578065
30
0
11
-2.092498
21
2.909011
31
0
39
0
210
0
220
0
230
1
0
LINE
5
147
100
AcDbEntity
8
SK1
62
256
6
ByLayer
370
18
48
1
60
0
100
AcDbLine
10
-2.321646
20
3.083442
30
0
11
-7.998238
21
3.083442
31
0
39
0
210
0
220
0
230
1
0
LINE
5
148
100
AcDbEntity
8
1
62
256
6
ByLayer
370
18
48
1
60
0
100
AcDbLine
10
6.302743
20
-11.385114
30
0
11
6.2645
21
-11.549278
31
0
39
0
210
0
220
0
230
1
0
LINE
5
149
100
AcDbEntity
8
1
62
256
6
ByLayer
370
18
48
1
60
0
100
AcDbLine
10
18.501762
20
-7.264536
30
0
11
18.501762
21
-7.61921
31
0
39
0
210
0
220
0
230
1
0
LINE
5
14A
100
AcDbEntity
8
1
62
256
6
ByLayer
370
18
48
1
60
0
100
AcDbLine
10
18.501762
20
-7.61921
30
0
11
18.444192
21
-8.211249
31
0
39
0
210
0
220
0
230
1
0
LINE
5
14B
100
AcDbEntity
8
1
62
256
6
ByLayer
370
18
48
1
60
0
100
AcDbLine
10
18.39862
20
-8.197585
30
0
11
18.411539
21
-8.064727
31
0
39
0
210
0
220
0
230
1
0
LINE
5
14C
100
AcDbEntity
8
1
62
256
6
ByLayer
370
18
48
1
60
0
100
AcDbLine
10
7.126436
20
-10.93536
30
0
11
5.43026
21
-10.723097
31
0
39
0
210
0
220
0
230
1
0
LINE
5
14D
100
AcDbEntity
8
1
62
256
6
ByLayer
370
18
48
1
60
0
100
AcDbLine
10
16.380931
20
-0.853032
30
0
11
14.80538
21
1.671061
31
0
39
0
210
0
220
0
230
1
0
LINE
5
14E
100
AcDbEntity
8
1
62
256
6
ByLayer
370
18
48
1
60
0
100
AcDbLine
10
-2.321646
20
-9.616163
30
0
11
-2.321646
21
-8.989847
31
0
39
0
210
0
220
0
230
1
0
LINE
5
14F
100
AcDbEntity
8
SK1
62
256
6
ByLayer
370
18
48
1
60
0
100
AcDbLine
10
-2.321646
20
-8.314784
30
0
11
-2.321646
21
3.083442
31
0
39
0
210
0
220
0
230
1
0
LINE
5
150
100
AcDbEntity
8
1
62
256
6
ByLayer
370
18
48
1
60
0
100
AcDbLine
10
5.427066
20
-10.722693
30
0
11
5.069693
21
-14.397846
31
0
39
0
210
0
220
0
230
1
0
LINE
5
151
100
AcDbEntity
8
1
62
256
6
ByLayer
370
18
48
1
60
0
100
AcDbLine
10
-1.519438
20
-9.990452
30
0
11
-5.312786
21
-9.592892
31
0
39
0
210
0
220
0
230
1
0
LINE
5
152
100
AcDbEntity
8
1
62
256
6
ByLayer
370
18
48
1
60
0
100
AcDbLine
10
8.301762
20
16.806752
30
0
11
-2.28482
21
16.806752
31
0
39
0
210
0
220
0
230
1
0
LINE
5
153
100
AcDbEntity
8
1
62
256
6
ByLayer
370
18
48
1
60
0
100
AcDbLine
10
5.358872
20
-14.421845
30
0
11
5.363494
21
-14.422423
31
0
39
0
210
0
220
0
230
1
0
LINE
5
154
100
AcDbEntity
8
1
62
256
6
ByLayer
370
18
48
1
60
0
100
AcDbLine
10
-2.28482
20
8.28729
30
0
11
-2.28482
21
16.806752
31
0
39
0
210
0
220
0
230
1
0
LINE
5
155
100
AcDbEntity
8
1
62
256
6
ByLayer
370
18
48
1
60
0
100
AcDbLine
10
17.251198
20
-11.184613
30
0
11
17.354716
21
-12.048664
31
0
39
0
210
0
220
0
230
1
0
LINE
5
156
100
AcDbEntity
8
1
62
256
6
ByLayer
370
18
48
1
60
0
100
AcDbLine
10
17.059606
20
-11.241391
30
0
11
17.251198
21
-11.184613
31
0
39
0
210
0
220
0
230
1
0
LINE
5
157
100
AcDbEntity
8
SK1
62
256
6
ByLayer
370
18
48
1
60
0
100
AcDbLine
10
-2.321646
20
3.083442
30
0
11
-2.092498
21
2.909011
31
0
39
0
210
0
220
0
230
1
0
LINE
5
158
100
AcDbEntity
8
1
62
256
6
ByLayer
370
18
48
1
60
0
100
AcDbLine
10
13.789942
20
2.630517
30
0
11
13.486422
21
-0.490807
31
0
39
0
210
0
220
0
230
1
0
LINE
5
159
100
AcDbEntity
8
1
62
256
6
ByLayer
370
18
48
1
60
0
100
AcDbLine
10
17.059606
20
-11.241391
30
0
11
16.95925
21
-12.165859
31
0
39
0
210
0
220
0
230
1
0
LINE
5
15A
100
AcDbEntity
8
1
62
256
6
ByLayer
370
18
48
1
60
0
100
AcDbLine
10
-7.998238
20
-9.55147
30
0
11
-5.312786
21
-9.592892
31
0
39
0
210
0
220
0
230
1
0
LINE
5
15B
100
AcDbEntity
8
1
62
256
6
ByLayer
370
18
48
1
60
0
100
AcDbLine
10
17.354716
20
-12.048664
30
0
11
18.39694
21
-7.701731
31
0
39
0
210
0
220
0
230
1
0
LINE
5
15C
100
AcDbEntity
8
1
62
256
6
ByLayer
370
18
48
1
60
0
100
AcDbLine
10
16.380931
20
-0.853032
30
0
11
13.486422
21
-0.490807
31
0
39
0
210
0
220
0
230
1
0
LINE
5
15D
100
AcDbEntity
8
1
62
256
6
ByLayer
370
18
48
1
60
0
100
AcDbLine
10
6.484904
20
-11.122468
30
0
11
6.177821
21
-12.440658
31
0
39
0
210
0
220
0
230
1
0
LINE
5
15E
100
AcDbEntity
8
1
62
256
6
ByLayer
370
18
48
1
60
0
100
AcDbLine
10
4.647607
20
-14.412954
30
0
11
5.0111
21
-10.674876
31
0
39
0
210
0
220
0
230
1
0
LINE
5
15F
100
AcDbEntity
8
1
62
256
6
ByLayer
370
18
48
1
60
0
100
AcDbLine
10
18.000171
20
-1.010773
30
0
11
16.700937
21
-3.543238
31
0
39
0
210
0
220
0
230
1
0
LINE
5
160
100
AcDbEntity
8
1
62
256
6
ByLayer
370
18
48
1
60
0
100
AcDbLine
10
8.301762
20
8.28729
30
0
11
-2.28482
21
8.28729
31
0
39
0
210
0
220
0
230
1
0
LINE
5
161
100
AcDbEntity
8
1
62
256
6
ByLayer
370
18
48
1
60
0
100
AcDbLine
10
-0.911486
20
-3.37196
30
0
11
5.771436
21
-3.641044
31
0
39
0
210
0
220
0
230
1
0
LINE
5
162
100
AcDbEntity
8
1
62
256
6
ByLayer
370
18
48
1
60
0
100
AcDbLine
10
15.956086
20
-5.705821
30
0
11
17.059606
21
-11.241391
31
0
39
0
210
0
220
0
230
1
0
LINE
5
163
100
AcDbEntity
8
1
62
256
6
ByLayer
370
18
48
1
60
0
100
AcDbLine
10
7.126436
20
-10.93536
30
0
11
16.95925
21
-12.165859
31
0
39
0
210
0
220
0
230
1
0
LINE
5
164
100
AcDbEntity
8
1
62
256
6
ByLayer
370
18
48
1
60
0
100
AcDbLine
10
6.193449
20
-3.692712
30
0
11
15.956086
21
-5.705821
31
0
39
0
210
0
220
0
230
1
0
LINE
5
165
100
AcDbEntity
8
1
62
256
6
ByLayer
370
18
48
1
60
0
100
AcDbLine
10
16.700937
20
-3.543238
30
0
11
16.666875
21
-3.493896
31
0
39
0
210
0
220
0
230
1
0
LINE
5
166
100
AcDbEntity
8
1
62
256
6
ByLayer
370
18
48
1
60
0
100
AcDbLine
10
-0.324939
20
-7.394003
30
0
11
-0.142792
21
-7.595401
31
0
39
0
210
0
220
0
230
1
0
LINE
5
167
100
AcDbEntity
8
1
62
256
6
ByLayer
370
18
48
1
60
0
100
AcDbLine
10
-7.998238
20
-16.698981
30
0
11
-7.998238
21
-9.55147
31
0
39
0
210
0
220
0
230
1
0
LINE
5
168
100
AcDbEntity
8
1
62
256
6
ByLayer
370
18
48
1
60
0
100
AcDbLine
10
16.666875
20
-3.493896
30
0
11
16.380931
21
-2.893517
31
0
39
0
210
0
220
0
230
1
0
LINE
5
169
100
AcDbEntity
8
1
62
256
6
ByLayer
370
18
48
1
60
0
100
AcDbLine
10
5.007909
20
-10.674546
30
0
11
-1.308567
21
-10.012552
31
0
39
0
210
0
220
0
230
1
0
LINE
5
16A
100
AcDbEntity
8
1
62
256
6
ByLayer
370
18
48
1
60
0
100
AcDbLine
10
18.39694
20
-7.701731
30
0
11
18.501762
21
-7.264536
31
0
39
0
210
0
220
0
230
1
0
LINE
5
16B
100
AcDbEntity
8
1
62
256
6
ByLayer
370
18
48
1
60
0
100
AcDbLine
10
11.405417
20
-1.083582
30
0
11
11.755981
21
2.521535
31
0
39
0
210
0
220
0
230
1
0
LINE
5
16C
100
AcDbEntity
8
1
62
256
6
ByLayer
370
18
48
1
60
0
100
AcDbLine
10
8.301762
20
8.28729
30
0
11
12.07045
21
3.743214
31
0
39
0
210
0
220
0
230
1
0
LINE
5
16D
100
AcDbEntity
8
1
62
256
6
ByLayer
370
18
48
1
60
0
100
AcDbLine
10
6.030438
20
-12.919643
30
0
11
6.177821
21
-12.440658
31
0
39
0
210
0
220
0
230
1
0
LINE
5
16E
100
AcDbEntity
8
1
62
256
6
ByLayer
370
18
48
1
60
0
100
AcDbLine
10
6.610139
20
-13.488522
30
0
11
6.441427
21
-14.976373
31
0
39
0
210
0
220
0
230
1
0
LINE
5
16F
100
AcDbEntity
8
1
62
256
6
ByLayer
370
18
48
1
60
0
100
AcDbLine
10
6.795354
20
-13.029688
30
0
11
6.580015
21
-14.99421
31
0
39
0
210
0
220
0
230
1
0
LINE
5
170
100
AcDbEntity
8
1
62
256
6
ByLayer
370
18
48
1
60
0
100
AcDbLine
10
17.042896
20
-13.919838
30
0
11
17.076821
21
-14.316332
31
0
39
0
210
0
220
0
230
1
0
LINE
5
171
100
AcDbEntity
8
1
62
256
6
ByLayer
370
18
48
1
60
0
100
AcDbLine
10
6.392547
20
-14.018174
30
0
11
6.283359
21
-14.954658
31
0
39
0
210
0
220
0
230
1
0
LINE
5
172
100
AcDbEntity
8
1
62
256
6
ByLayer
370
18
48
1
60
0
100
AcDbLine
10
19.209703
20
-11.339326
30
0
11
19.047672
21
-9.945688
31
0
39
0
210
0
220
0
230
1
0
LINE
5
173
100
AcDbEntity
8
1
62
256
6
ByLayer
370
18
48
1
60
0
100
AcDbLine
10
17.923277
20
-14.419806
30
0
11
18.101483
21
-15.964438
31
0
39
0
210
0
220
0
230
1
0
LINE
5
174
100
AcDbEntity
8
1
62
256
6
ByLayer
370
18
48
1
60
0
100
AcDbLine
10
19.222162
20
-11.269037
30
0
11
19.1199
21
-10.392785
31
0
39
0
210
0
220
0
230
1
0
LINE
5
175
100
AcDbEntity
8
1
62
256
6
ByLayer
370
18
48
1
60
0
100
AcDbLine
10
16.951688
20
-16.291957
30
0
11
17.129109
21
-14.646025
31
0
39
0
210
0
220
0
230
1
0
LINE
5
176
100
AcDbEntity
8
1
62
256
6
ByLayer
370
18
48
1
60
0
100
AcDbLine
10
17.271941
20
-16.322279
30
0
11
17.324207
21
-15.415565
31
0
39
0
210
0
220
0
230
1
0
LINE
5
177
100
AcDbEntity
8
1
62
256
6
ByLayer
370
18
48
1
60
0
100
AcDbLine
10
17.973791
20
-15.173002
30
0
11
18.074691
21
-16.054934
31
0
39
0
210
0
220
0
230
1
0
LINE
5
178
100
AcDbEntity
8
1
62
256
6
ByLayer
370
18
48
1
60
0
100
AcDbLine
10
18.046411
20
-16.101671
30
0
11
17.959319
21
-15.234653
31
0
39
0
210
0
220
0
230
1
0
LINE
5
179
100
AcDbEntity
8
1
62
256
6
ByLayer
370
18
48
1
60
0
100
AcDbLine
10
19.196159
20
-11.400499
30
0
11
18.111405
21
-15.924814
31
0
39
0
210
0
220
0
230
1
0
LINE
5
17A
100
AcDbEntity
8
1
62
256
6
ByLayer
370
18
48
1
60
0
100
AcDbLine
10
7.151079
20
-11.89923
30
0
11
16.975197
21
-13.12864
31
0
39
0
210
0
220
0
230
1
0
LINE
5
17B
100
AcDbEntity
8
1
62
256
6
ByLayer
370
18
48
1
60
0
100
AcDbLine
10
6.486422
20
-11.479265
30
0
11
6.249451
21
-12.232336
31
0
39
0
210
0
220
0
230
1
0
LINE
5
17C
100
AcDbEntity
8
1
62
256
6
ByLayer
370
18
48
1
60
0
100
AcDbLine
10
16.408773
20
-12.643369
30
0
11
16.482224
21
-12.106169
31
0
39
0
210
0
220
0
230
1
0
LINE
5
17D
100
AcDbEntity
8
1
62
256
6
ByLayer
370
18
48
1
60
0
100
AcDbLine
10
17.864345
20
-13.685848
30
0
11
17.898271
21
-14.082342
31
0
39
0
210
0
220
0
230
1
0
LINE
5
17E
100
AcDbEntity
8
1
62
256
6
ByLayer
370
18
48
1
60
0
100
AcDbLine
10
18.93299
20
-9.228719
30
0
11
18.983024
21
-9.558027
31
0
39
0
210
0
220
0
230
1
0
LINE
5
17F
100
AcDbEntity
8
1
62
256
6
ByLayer
370
18
48
1
60
0
100
AcDbLine
10
16.861483
20
-16.280854
30
0
11
6.580015
21
-14.99421
31
0
39
0
210
0
220
0
230
1
0
LINE
5
180
100
AcDbEntity
8
1
62
256
6
ByLayer
370
18
48
1
60
0
100
AcDbLine
10
17.796647
20
-12.89465
30
0
11
17.864345
21
-13.685848
31
0
39
0
210
0
220
0
230
1
0
LINE
5
181
100
AcDbEntity
8
1
62
256
6
ByLayer
370
18
48
1
60
0
100
AcDbLine
10
16.408773
20
-12.643369
30
0
11
7.872613
21
-11.575136
31
0
39
0
210
0
220
0
230
1
0
LINE
5
182
100
AcDbEntity
8
1
62
256
6
ByLayer
370
18
48
1
60
0
100
AcDbLine
10
17.159269
20
-16.315693
30
0
11
17.255549
21
-15.377593
31
0
39
0
210
0
220
0
230
1
0
LINE
5
183
100
AcDbEntity
8
1
62
256
6
ByLayer
370
18
48
1
60
0
100
AcDbLine
10
17.898271
20
-14.082342
30
0
11
18.111405
21
-15.924814
31
0
39
0
210
0
220
0
230
1
0
LINE
5
184
100
AcDbEntity
8
1
62
256
6
ByLayer
370
18
48
1
60
0
100
AcDbLine
10
5.542667
20
-14.48665
30
0
11
5.811398
21
-13.650974
31
0
39
0
210
0
220
0
230
1
0
LINE
5
185
100
AcDbEntity
8
1
62
256
6
ByLayer
370
18
48
1
60
0
100
AcDbLine
10
17.796647
20
-12.89465
30
0
11
18.833148
21
-8.57159
31
0
39
0
210
0
220
0
230
1
0
LINE
5
186
100
AcDbEntity
8
1
62
256
6
ByLayer
370
18
48
1
60
0
100
AcDbLine
10
7.176802
20
-11.135487
30
0
11
7.362214
21
-10.964861
31
0
39
0
210
0
220
0
230
1
0
LINE
5
187
100
AcDbEntity
8
1
62
256
6
ByLayer
370
18
48
1
60
0
100
AcDbLine
10
6.249451
20
-12.232336
30
0
11
6.130697
21
-12.609723
31
0
39
0
210
0
220
0
230
1
0
LINE
5
188
100
AcDbEntity
8
1
62
256
6
ByLayer
370
18
48
1
60
0
100
AcDbLine
10
17.352426
20
-12.04931
30
0
11
17.268725
21
-12.398411
31
0
39
0
210
0
220
0
230
1
0
LINE
5
189
100
AcDbEntity
8
1
62
256
6
ByLayer
370
18
48
1
60
0
100
AcDbLine
10
6.673226
20
-13.337554
30
0
11
6.489897
21
-14.982746
31
0
39
0
210
0
220
0
230
1
0
LINE
5
18A
100
AcDbEntity
8
1
62
256
6
ByLayer
370
18
48
1
60
0
100
AcDbLine
10
17.934822
20
-14.587189
30
0
11
18.095681
21
-15.985713
31
0
39
0
210
0
220
0
230
1
0
LINE
5
18B
100
AcDbEntity
8
1
62
256
6
ByLayer
370
18
48
1
60
0
100
AcDbLine
10
18.467983
20
-8.817775
30
0
11
17.567369
21
-12.574075
31
0
39
0
210
0
220
0
230
1
0
LINE
5
18C
100
AcDbEntity
8
1
62
256
6
ByLayer
370
18
48
1
60
0
100
AcDbLine
10
5.568669
20
-14.355189
30
0
11
6.130697
21
-12.609723
31
0
39
0
210
0
220
0
230
1
0
LINE
5
18D
100
AcDbEntity
8
1
62
256
6
ByLayer
370
18
48
1
60
0
100
AcDbLine
10
5.559567
20
-14.394916
30
0
11
6.030644
21
-12.931537
31
0
39
0
210
0
220
0
230
1
0
LINE
5
18E
100
AcDbEntity
8
1
62
256
6
ByLayer
370
18
48
1
60
0
100
AcDbLine
10
5.568669
20
-14.355189
30
0
11
5.645263
21
-14.03573
31
0
39
0
210
0
220
0
230
1
0
LINE
5
18F
100
AcDbEntity
8
1
62
256
6
ByLayer
370
18
48
1
60
0
100
AcDbLine
10
6.174185
20
-14.933482
30
0
11
6.318734
21
-14.038317
31
0
39
0
210
0
220
0
230
1
0
LINE
5
190
100
AcDbEntity
8
1
62
256
6
ByLayer
370
18
48
1
60
0
100
AcDbLine
10
5.555125
20
-14.416362
30
0
11
5.981521
21
-13.091328
31
0
39
0
210
0
220
0
230
1
0
LINE
5
191
100
AcDbEntity
8
1
62
256
6
ByLayer
370
18
48
1
60
0
100
AcDbLine
10
6.923425
20
-10.933456
30
0
11
6.851587
21
-11.23308
31
0
39
0
210
0
220
0
230
1
0
LINE
5
192
100
AcDbEntity
8
1
62
256
6
ByLayer
370
18
48
1
60
0
100
AcDbLine
10
6.523158
20
-11.090753
30
0
11
6.249451
21
-12.232336
31
0
39
0
210
0
220
0
230
1
0
LINE
5
193
100
AcDbEntity
8
1
62
256
6
ByLayer
370
18
48
1
60
0
100
AcDbLine
10
16.362577
20
-12.917261
30
0
11
7.826417
21
-11.849028
31
0
39
0
210
0
220
0
230
1
0
LINE
5
194
100
AcDbEntity
8
1
62
256
6
ByLayer
370
18
48
1
60
0
100
AcDbLine
10
17.268725
20
-12.398411
30
0
11
17.081249
21
-12.129702
31
0
39
0
210
0
220
0
230
1
0
LINE
5
195
100
AcDbEntity
8
1
62
256
6
ByLayer
370
18
48
1
60
0
100
AcDbLine
10
16.975197
20
-13.12864
30
0
11
17.042896
21
-13.919838
31
0
39
0
210
0
220
0
230
1
0
LINE
5
196
100
AcDbEntity
8
1
62
256
6
ByLayer
370
18
48
1
60
0
100
AcDbLine
10
7.151079
20
-11.89923
30
0
11
6.914108
21
-12.6523
31
0
39
0
210
0
220
0
230
1
0
LINE
5
197
100
AcDbEntity
8
1
62
256
6
ByLayer
370
18
48
1
60
0
100
AcDbLine
10
6.914108
20
-12.6523
30
0
11
17.042896
21
-13.919838
31
0
39
0
210
0
220
0
230
1
0
LINE
5
198
100
AcDbEntity
8
1
62
256
6
ByLayer
370
18
48
1
60
0
100
AcDbLine
10
18.833148
20
-8.57159
30
0
11
18.93299
21
-9.228719
31
0
39
0
210
0
220
0
230
1
0
LINE
5
199
100
AcDbEntity
8
1
62
256
6
ByLayer
370
18
48
1
60
0
100
AcDbLine
10
5.547541
20
-14.537536
30
0
11
5.804848
21
-13.713617
31
0
39
0
210
0
220
0
230
1
0
LINE
5
19A
100
AcDbEntity
8
1
62
256
6
ByLayer
370
18
48
1
60
0
100
AcDbLine
10
19.205261
20
-11.360772
30
0
11
19.026432
21
-9.818741
31
0
39
0
210
0
220
0
230
1
0
LINE
5
19B
100
AcDbEntity
8
1
62
256
6
ByLayer
370
18
48
1
60
0
100
AcDbLine
10
16.861483
20
-16.280854
30
0
11
17.076821
21
-14.316332
31
0
39
0
210
0
220
0
230
1
0
LINE
5
19C
100
AcDbEntity
8
1
62
256
6
ByLayer
370
18
48
1
60
0
100
AcDbLine
10
17.864345
20
-13.685848
30
0
11
18.93299
21
-9.228719
31
0
39
0
210
0
220
0
230
1
0
LINE
5
19D
100
AcDbEntity
8
1
62
256
6
ByLayer
370
18
48
1
60
0
100
AcDbLine
10
19.196159
20
-11.400499
30
0
11
18.983024
21
-9.558027
31
0
39
0
210
0
220
0
230
1
0
LINE
5
19E
100
AcDbEntity
8
1
62
256
6
ByLayer
370
18
48
1
60
0
100
AcDbLine
10
6.486422
20
-11.479265
30
0
11
6.590687
21
-11.044392
31
0
39
0
210
0
220
0
230
1
0
LINE
5
19F
100
AcDbEntity
8
1
62
256
6
ByLayer
370
18
48
1
60
0
100
AcDbLine
10
6.914108
20
-12.6523
30
0
11
6.795354
21
-13.029688
31
0
39
0
210
0
220
0
230
1
0
LINE
5
1A0
100
AcDbEntity
8
1
62
256
6
ByLayer
370
18
48
1
60
0
100
AcDbLine
10
7.872613
20
-11.575136
30
0
11
7.946064
21
-11.037936
31
0
39
0
210
0
220
0
230
1
0
LINE
5
1A1
100
AcDbEntity
8
1
62
256
6
ByLayer
370
18
48
1
60
0
100
AcDbLine
10
7.221931
20
-10.947261
30
0
11
7.176802
21
-11.135487
31
0
39
0
210
0
220
0
230
1
0
LINE
5
1A2
100
AcDbEntity
8
1
62
256
6
ByLayer
370
18
48
1
60
0
100
AcDbLine
10
17.000301
20
-16.297732
30
0
11
17.157913
21
-14.808492
31
0
39
0
210
0
220
0
230
1
0
LINE
5
1A3
100
AcDbEntity
8
1
62
256
6
ByLayer
370
18
48
1
60
0
100
AcDbLine
10
-7.998238
20
31.581483
30
0
11
-7.998238
21
23.590627
31
0
39
0
210
0
220
0
230
1
0
LINE
5
1A4
100
AcDbEntity
8
1
62
256
6
ByLayer
370
18
48
1
60
0
100
AcDbLine
10
-7.998238
20
-9.55147
30
0
11
-7.998238
21
-8.894257
31
0
39
0
210
0
220
0
230
1
0
MTEXT
5
2FA
100
AcDbEntity
8
SK6
62
256
6
ByLayer
370
18
48
1
60
0
100
AcDbMText
10
28.274684
20
43.113742
30
0
210
0
220
0
230
1
1
\W0.7967;3X R820D-AR18SSYP12
40
3
41
0
44
1.084337
50
0
71
7
72
5
7
iso_b_vert
0
MTEXT
5
2FE
100
AcDbEntity
8
2
62
256
6
ByLayer
370
18
48
1
60
0
100
AcDbMText
10
40.729751
20
-17.547842
30
0
210
0
220
0
230
1
1
\W0.7889;Dc = 69.0 - 78.5
40
3
41
0
44
1.084337
50
89.9999999999996
71
7
72
5
7
iso_b_vert
0
DIMENSION
5
309
100
AcDbEntity
8
2
62
256
6
ByLayer
370
13
48
1
60
0
100
AcDbDimension
2
DimnDraft3D1
10
41.729751
20
-34.5
30
0
11
41.729751
21
-0.506579
31
0
70
32
71
5
72
1
41
1
210
0
220
0
230
1
3
Standard
100
AcDbAlignedDimension
13
20
23
34.5
33
0
14
19.884806
24
-34.5
34
0
50
90
100
AcDbRotatedDimension
1001
ACAD
1000
DSTYLE
1002
{
1070
    74
1070
     0
1070
   279
1070
     0
1070
   172
1070
     1
1070
   173
1070
     1
1070
   340
1005
2FB
1070
    77
1070
     1
1070
    73
1070
     0
1070
   171
1070
     4
1070
   274
1070
     4
1070
   177
1070
     7
1070
   176
1070
     7
1070
   178
1070
     7
1070
    78
1070
     8
1070
    41
1041
3.175
1070
   147
1041
1.75
1070
    42
1041
2.0
1070
    44
1041
2.0
1070
   140
1041
3.5
1070
   343
1005
0
1070
   344
1005
0
1002
}
0
DIMENSION
5
313
100
AcDbEntity
8
2
62
256
6
ByLayer
370
13
48
1
60
0
100
AcDbDimension
2
DimnDraft3D2
10
0
20
58.5
30
0
11
5.932895
21
58.5
31
0
70
32
71
5
72
1
41
1
210
0
220
0
230
1
3
Standard
100
AcDbAlignedDimension
13
18
23
36.5
33
0
14
0
24
2
34
0
50
0
100
AcDbRotatedDimension
1001
ACAD
1000
DSTYLE
1002
{
1070
   279
1070
     0
1070
   172
1070
     1
1070
   173
1070
     1
1070
   340
1005
2FB
1070
   271
1070
     1
1070
    77
1070
     1
1070
    73
1070
     0
1070
   171
1070
     4
1070
   274
1070
     4
1070
   177
1070
     7
1070
   176
1070
     7
1070
   178
1070
     7
1070
    41
1041
3.175
1070
   147
1041
1.5
1070
    42
1041
2.0
1070
    44
1041
2.0
1070
   140
1041
3.0
1070
   343
1005
0
1070
   344
1005
0
1002
}
0
DIMENSION
5
31D
100
AcDbEntity
8
2
62
256
6
ByLayer
370
13
48
1
60
0
100
AcDbDimension
2
DimnDraft3D3
10
19
20
34.5
30
0
11
27.524684
21
25.925522
31
0
70
34
71
5
72
1
41
1
210
0
220
0
230
1
3
Standard
100
AcDb2LineAngularDimension
13
19.196159
23
23.136073
33
0
14
18.111405
24
33.456814
34
0
15
18
25
34.5
35
0
16
29.754119
26
23.918131
36
0
40
0
0
ENDSEC
0
SECTION
2
OBJECTS
0
DICTIONARY
5
38c
330
0
100
AcDbDictionary
280
0
281
1
3
ACAD_GROUP
350
38d
3
ACAD_GROUP
350
38e
3
ACAD_MLINESTYLE
350
38f
0
DICTIONARY
5
38d
330
0
100
AcDbDictionary
280
0
281
1
0
DICTIONARY
5
38e
330
0
100
AcDbDictionary
280
0
281
1
3
_DC
350
328
3
_DC_55
350
327
3
<200932448MOD000_00>
350
326
3
<200933438NDI000_00>
350
329
0
DICTIONARY
5
38f
330
0
100
AcDbDictionary
280
0
281
1
3
Standard
350
18
0
GROUP
5
328
330
38e
100
AcDbGroup
300

70
0
71
1
340
2FE
0
GROUP
5
327
330
38e
100
AcDbGroup
300

70
0
71
1
340
2FE
340
2FE
0
GROUP
5
326
330
38e
100
AcDbGroup
300

70
0
71
1
340
6C
340
6E
340
70
340
71
340
73
340
75
340
76
340
77
340
79
340
7A
340
7B
340
7C
340
7D
340
7E
340
7F
340
80
340
81
340
82
340
83
340
84
340
85
340
86
340
87
340
88
340
89
340
8A
340
8B
340
8D
340
8E
340
8F
340
90
340
91
340
92
340
93
340
94
340
95
340
96
340
97
340
98
340
99
340
9A
340
9B
340
9C
340
9D
340
9E
340
9F
340
A0
340
A1
340
A2
340
A3
340
A4
340
A5
340
A6
340
A7
340
A8
340
A9
340
AA
340
AB
340
AC
340
AD
340
AE
340
AF
340
B0
340
B1
340
B2
340
B3
340
B4
340
B5
340
B6
340
B7
340
B8
340
B9
340
BA
340
BB
340
BC
340
BD
340
BE
340
BF
340
C0
340
C1
340
C2
340
C3
340
C4
340
C5
340
C6
340
C7
340
C8
340
C9
340
CA
340
CB
340
CC
340
CD
340
CE
340
CF
340
D0
340
D1
340
D2
340
D3
340
D4
340
D5
340
D6
340
D7
340
D8
340
D9
340
DA
340
DB
340
DC
340
DD
340
DE
340
DF
340
E0
340
E1
340
E2
340
E3
340
E4
340
E5
340
E6
340
E7
340
E8
340
E9
340
EA
340
EB
340
EC
340
ED
340
EE
340
EF
340
F0
340
F1
340
F2
340
F3
340
F4
340
F5
340
F6
340
F7
340
F8
340
F9
340
FA
340
FB
340
FC
340
FD
340
FE
340
FF
340
100
340
101
340
102
340
103
340
104
340
105
340
106
340
107
340
108
340
109
340
10A
340
10B
340
10C
340
10D
340
10E
340
10F
340
110
340
111
340
112
340
113
340
114
340
115
340
116
340
117
340
118
340
119
340
11A
340
11B
340
11C
340
11D
340
11E
340
11F
340
120
340
121
340
122
340
123
340
124
340
125
340
126
340
127
340
128
340
129
340
12A
340
12B
340
12C
340
12D
340
12E
340
12F
340
130
340
131
340
132
340
133
340
134
340
135
340
136
340
137
340
138
340
139
340
13A
340
13B
340
13C
340
13D
340
13E
340
13F
340
140
340
141
340
142
340
143
340
144
340
145
340
146
340
147
340
148
340
149
340
14A
340
14B
340
14C
340
14D
340
14E
340
14F
340
150
340
151
340
152
340
153
340
154
340
155
340
156
340
157
340
158
340
159
340
15A
340
15B
340
15C
340
15D
340
15E
340
15F
340
160
340
161
340
162
340
163
340
164
340
165
340
166
340
167
340
168
340
169
340
16A
340
16B
340
16C
340
16D
340
16E
340
16F
340
170
340
171
340
172
340
173
340
174
340
175
340
176
340
177
340
178
340
179
340
17A
340
17B
340
17C
340
17D
340
17E
340
17F
340
180
340
181
340
182
340
183
340
184
340
185
340
186
340
187
340
188
340
189
340
18A
340
18B
340
18C
340
18D
340
18E
340
18F
340
190
340
191
340
192
340
193
340
194
340
195
340
196
340
197
340
198
340
199
340
19A
340
19B
340
19C
340
19D
340
19E
340
19F
340
1A0
340
1A1
340
1A2
340
1A3
340
1A4
340
1A5
340
1A6
340
1A7
340
1A8
340
1A9
340
1AA
340
1AB
340
1AC
340
1AD
340
1AE
340
1AF
340
1B0
340
1B1
340
1B2
340
1B3
340
1B4
340
1B5
340
1B6
340
1B7
340
1B8
340
1B9
340
1BA
340
1BB
340
1BC
340
1BD
340
1BE
340
1BF
340
1C0
340
1C1
340
1C2
340
1C3
340
1C4
340
1C5
340
1C6
340
1C7
340
1C8
340
1C9
340
1CA
340
1CB
340
1CC
340
1CD
340
1CE
340
1CF
340
1D0
340
1D1
340
1D2
340
1D3
340
1D4
340
1D5
340
1D6
340
1D7
340
1D8
340
1D9
340
1DA
340
1DB
340
1DC
340
1DD
340
1DE
340
1DF
340
1E0
340
1E1
340
1E2
340
1E3
340
1E4
340
1E5
340
1E6
340
1E7
340
1E8
340
1E9
340
1EA
340
1EB
340
1EC
340
1ED
340
1EE
340
1EF
340
1F0
340
1F1
340
1F2
340
1F3
340
1F4
340
1F5
340
1F6
340
1F7
340
1F8
340
1F9
340
1FA
340
1FB
340
1FC
340
1FD
340
1FE
340
1FF
340
200
340
201
340
202
340
203
340
204
340
205
340
206
340
207
340
208
340
209
340
20A
340
20B
340
20C
340
20D
340
20E
340
20F
340
210
340
211
340
212
340
213
340
214
340
215
340
216
340
217
340
218
340
219
340
21A
340
21B
340
21C
340
21D
340
21E
340
21F
340
220
340
221
340
222
340
223
340
224
340
225
340
226
340
227
340
228
340
229
340
22A
340
22B
340
22C
340
22D
340
22E
340
22F
340
230
340
231
340
232
340
233
340
234
340
235
340
236
340
237
340
238
340
239
340
23A
340
23B
340
23C
340
23D
340
23E
340
23F
340
240
340
241
340
242
340
243
340
244
340
245
340
246
340
247
340
248
340
249
340
24A
340
24B
340
24C
340
24D
340
24E
340
24F
340
250
340
251
340
252
340
253
340
254
340
255
340
256
340
257
340
258
340
259
340
25A
340
25B
340
25C
340
25D
340
25E
340
25F
340
260
340
261
340
262
340
263
340
264
340
265
340
266
340
267
340
268
340
269
340
26A
340
26B
340
26C
340
26D
340
26E
340
26F
340
270
340
271
340
272
340
273
340
274
340
275
340
276
340
277
340
278
340
279
340
27A
340
27B
340
27C
340
27D
340
27E
340
27F
340
280
340
281
340
282
340
283
340
284
340
285
340
286
340
287
340
288
340
289
340
28A
340
28B
340
28C
340
28D
340
28E
340
28F
340
290
340
291
340
292
340
293
340
294
340
295
340
296
340
297
340
298
340
299
340
29A
340
29B
340
29C
340
29D
340
29E
340
29F
340
2A0
340
2A1
340
2A2
340
2A3
340
2A4
340
2A5
340
2A6
340
2A7
340
2A8
340
2A9
340
2AA
340
2AB
340
2AC
340
2AD
340
2AE
340
2AF
340
2B0
340
2B1
340
2B2
340
2B3
340
2B4
340
2B5
340
2B6
340
2B7
340
2B8
340
2B9
340
2BA
340
2BB
340
2BC
340
2BD
340
2BE
340
2BF
340
2C0
340
2C1
340
2C2
340
2C3
340
2C4
340
2C5
340
2C6
340
2C7
340
2C8
340
2C9
340
2CA
340
2CB
340
2CC
340
2CD
340
2CE
340
2CF
340
2D0
340
2D1
340
2D2
340
2D3
340
2D4
340
2D5
340
2D6
340
2D7
340
2D8
340
2D9
340
2DA
340
2DB
340
2DC
340
2DD
340
2DE
340
2DF
340
2E0
340
2E1
340
2E2
340
2E3
340
2E4
340
2E5
340
2E6
340
2E7
340
2E8
340
2E9
340
2EA
340
2EB
340
2EC
340
2ED
340
2EE
340
2EF
340
2F0
340
2F1
340
2F2
340
2F3
340
2F4
340
2F5
340
2F6
340
2F7
340
2F8
340
2F9
340
2FE
340
2FE
340
2FE
340
79
340
7A
340
7B
340
7C
340
7D
340
7E
340
7F
340
80
340
81
340
82
340
83
340
84
340
85
340
86
340
87
340
88
340
89
340
8A
340
8B
340
8D
340
8E
340
8F
340
90
340
91
340
92
340
93
340
94
340
95
340
96
340
97
340
98
340
99
340
9A
340
9B
340
9C
340
9D
340
9E
340
9F
340
A0
340
A1
340
A2
340
A3
340
A4
340
A5
340
A6
340
A7
340
A8
340
A9
340
AA
340
AB
340
AC
340
AD
340
AE
340
AF
340
B0
340
B1
340
B2
340
B3
340
B4
340
B5
340
B6
340
B7
340
B8
340
B9
340
BA
340
BB
340
BC
340
BD
340
BE
340
BF
340
C0
340
C1
340
C2
340
C3
340
C4
340
C5
340
C6
340
C7
340
C8
340
C9
340
CA
340
CB
340
CC
340
CD
340
CE
340
CF
340
D0
340
D1
340
D2
340
D3
340
D4
340
D5
340
D6
340
D7
340
D8
340
D9
340
DA
340
DB
340
DC
340
DD
340
DE
340
DF
340
E0
340
E1
340
E2
340
E3
340
E4
340
E5
340
E6
340
E7
340
E8
340
E9
340
EA
340
EB
340
EC
340
ED
340
EE
340
EF
340
F0
340
F1
340
F2
340
F3
340
F4
340
F5
340
F6
340
F7
340
F8
340
F9
340
FA
340
FB
340
FC
340
FD
340
FE
340
FF
340
100
340
101
340
102
340
103
340
104
340
105
340
106
340
107
340
108
340
109
340
10A
340
10B
340
10C
340
10D
340
10E
340
10F
340
110
340
111
340
112
340
113
340
114
340
115
340
116
340
117
340
118
340
119
340
11A
340
11B
340
11C
340
11D
340
11E
340
11F
340
120
340
121
340
122
340
123
340
124
340
125
340
126
340
127
340
128
340
129
340
12A
340
12B
340
12C
340
12D
340
12E
340
12F
340
130
340
131
340
132
340
133
340
134
340
135
340
136
340
137
340
138
340
139
340
13A
340
13B
340
13C
340
13D
340
13E
340
13F
340
140
340
141
340
142
340
143
340
144
340
145
340
146
340
147
340
148
340
149
340
14A
340
14B
340
14C
340
14D
340
14E
340
14F
340
150
340
151
340
152
340
153
340
154
340
155
340
156
340
157
340
158
340
159
340
15A
340
15B
340
15C
340
15D
340
15E
340
15F
340
160
340
161
340
162
340
163
340
164
340
165
340
166
340
167
340
168
340
169
340
16A
340
16B
340
16C
340
16D
340
16E
340
16F
340
170
340
171
340
172
340
173
340
174
340
175
340
176
340
177
340
178
340
179
340
17A
340
17B
340
17C
340
17D
340
17E
340
17F
340
180
340
181
340
182
340
183
340
184
340
185
340
186
340
187
340
188
340
189
340
18A
340
18B
340
18C
340
18D
340
18E
340
18F
340
190
340
191
340
192
340
193
340
194
340
195
340
196
340
197
340
198
340
199
340
19A
340
19B
340
19C
340
19D
340
19E
340
19F
340
1A0
340
1A1
340
1A2
340
1A6
340
1A7
340
1A8
340
1A9
340
1AA
340
1AB
340
1AC
340
1AD
340
1AE
340
1AF
340
1B0
340
1B1
340
1B2
340
1B3
340
1B4
340
1B5
340
1B6
340
1B7
340
1B8
340
1B9
340
1BA
340
1BB
340
1BC
340
1BD
340
1BE
340
1BF
340
1C0
340
1C1
340
1C2
340
1C3
340
1C4
340
1C5
340
1C6
340
1C7
340
1C8
340
1C9
340
1CA
340
1CB
340
1CC
340
1CD
340
1CE
340
1CF
340
1D0
340
1D1
340
1D2
340
1D3
340
1D4
340
1D5
340
1D6
340
1D7
340
1D8
340
1D9
340
1DA
340
1DB
340
1DC
340
1DD
340
1DE
340
1DF
340
1E0
340
1E1
340
1E2
340
1E3
340
1E4
340
1E5
340
1E6
340
1E7
340
1E8
340
1E9
340
1EA
340
1EB
340
1EC
340
1ED
340
1EE
340
1EF
340
1F0
340
1F1
340
1F2
340
1F3
340
1F4
340
1F5
340
1F6
340
1F7
340
1F8
340
1F9
340
1FA
340
1FB
340
1FC
340
1FD
340
1FE
340
1FF
340
200
340
201
340
202
340
203
340
204
340
205
340
206
340
207
340
208
340
209
340
20A
340
20B
340
20C
340
20D
340
20E
340
20F
340
210
340
211
340
212
340
213
340
214
340
215
340
216
340
217
340
218
340
219
340
21A
340
21B
340
21C
340
21D
340
21E
340
21F
340
220
340
221
340
222
340
223
340
224
340
225
340
226
340
227
340
228
340
229
340
22A
340
22B
340
22C
340
22D
340
22E
340
22F
340
230
340
231
340
232
340
233
340
234
340
235
340
236
340
237
340
238
340
239
340
23A
340
23B
340
23C
340
23D
340
23E
340
23F
340
240
340
241
340
242
340
243
340
244
340
245
340
246
340
247
340
248
340
249
340
24A
340
24B
340
24C
340
24D
340
24E
340
24F
340
250
340
251
340
252
340
253
340
254
340
255
340
256
340
257
340
258
340
259
340
25A
340
25B
340
25C
340
25D
340
25E
340
25F
340
260
340
261
340
262
340
263
340
264
340
265
340
266
340
267
340
268
340
269
340
26A
340
26B
340
26C
340
26D
340
26E
340
26F
340
270
340
271
340
272
340
273
340
274
340
275
340
276
340
277
340
278
340
279
340
27A
340
27B
340
27C
340
27D
340
27E
340
27F
340
280
340
281
340
282
340
283
340
284
340
285
340
286
340
287
340
288
340
289
340
28A
340
28B
340
28C
340
28D
340
28E
340
28F
340
290
340
291
340
292
340
293
340
294
340
295
340
296
340
297
340
298
340
299
340
29A
340
29B
340
29C
340
29D
340
29E
340
29F
340
2A0
340
2A1
340
2A2
340
2A3
340
2A4
340
2A5
340
2A6
340
2A7
340
2A8
340
2A9
340
2AA
340
2AB
340
2AC
340
2AD
340
2AE
340
2AF
340
2B0
340
2B1
340
2B2
340
2B3
340
2B4
340
2B5
340
2B6
340
2B7
340
2B8
340
2B9
340
2BA
340
2BB
340
2BC
340
2BD
340
2BE
340
2BF
340
2C0
340
2C1
340
2C2
340
2C3
340
2C4
340
2C5
340
2C6
340
2C7
340
2C8
340
2C9
340
2CA
340
2CB
340
2CC
340
2CD
340
2CE
340
2CF
340
2D0
340
2D1
340
2D2
340
2D3
340
2D4
340
2D5
340
2D6
340
2D7
340
2D8
340
2D9
340
2DA
340
2DB
340
2DC
340
2DD
340
2DE
340
2DF
340
2E0
340
2E1
340
2E2
340
2E3
340
2E4
340
2E5
340
2E6
340
2E7
340
2E8
340
2E9
340
2EA
340
2EB
340
2EC
340
2ED
340
2EE
340
2EF
340
2F0
340
2F1
340
2F2
340
2F3
340
2F4
340
2F5
340
2F6
340
2F7
340
2F8
340
2F9
340
2FA
340
2FE
340
309
340
313
340
31D
0
GROUP
5
329
330
38e
100
AcDbGroup
300

70
0
71
1
340
79
340
7A
340
7B
340
7C
340
7D
340
7E
340
7F
340
80
340
81
340
82
340
83
340
84
340
85
340
86
340
87
340
88
340
89
340
8A
340
8B
340
8D
340
8E
340
8F
340
90
340
91
340
92
340
93
340
94
340
95
340
96
340
97
340
98
340
99
340
9A
340
9B
340
9C
340
9D
340
9E
340
9F
340
A0
340
A1
340
A2
340
A3
340
A4
340
A5
340
A6
340
A7
340
A8
340
A9
340
AA
340
AB
340
AC
340
AD
340
AE
340
AF
340
B0
340
B1
340
B2
340
B3
340
B4
340
B5
340
B6
340
B7
340
B8
340
B9
340
BA
340
BB
340
BC
340
BD
340
BE
340
BF
340
C0
340
C1
340
C2
340
C3
340
C4
340
C5
340
C6
340
C7
340
C8
340
C9
340
CA
340
CB
340
CC
340
CD
340
CE
340
CF
340
D0
340
D1
340
D2
340
D3
340
D4
340
D5
340
D6
340
D7
340
D8
340
D9
340
DA
340
DB
340
DC
340
DD
340
DE
340
DF
340
E0
340
E1
340
E2
340
E3
340
E4
340
E5
340
E6
340
E7
340
E8
340
E9
340
EA
340
EB
340
EC
340
ED
340
EE
340
EF
340
F0
340
F1
340
F2
340
F3
340
F4
340
F5
340
F6
340
F7
340
F8
340
F9
340
FA
340
FB
340
FC
340
FD
340
FE
340
FF
340
100
340
101
340
102
340
103
340
104
340
105
340
106
340
107
340
108
340
109
340
10A
340
10B
340
10C
340
10D
340
10E
340
10F
340
110
340
111
340
112
340
113
340
114
340
115
340
116
340
117
340
118
340
119
340
11A
340
11B
340
11C
340
11D
340
11E
340
11F
340
120
340
121
340
122
340
123
340
124
340
125
340
126
340
127
340
128
340
129
340
12A
340
12B
340
12C
340
12D
340
12E
340
12F
340
130
340
131
340
132
340
133
340
134
340
135
340
136
340
137
340
138
340
139
340
13A
340
13B
340
13C
340
13D
340
13E
340
13F
340
140
340
141
340
142
340
143
340
144
340
145
340
146
340
147
340
148
340
149
340
14A
340
14B
340
14C
340
14D
340
14E
340
14F
340
150
340
151
340
152
340
153
340
154
340
155
340
156
340
157
340
158
340
159
340
15A
340
15B
340
15C
340
15D
340
15E
340
15F
340
160
340
161
340
162
340
163
340
164
340
165
340
166
340
167
340
168
340
169
340
16A
340
16B
340
16C
340
16D
340
16E
340
16F
340
170
340
171
340
172
340
173
340
174
340
175
340
176
340
177
340
178
340
179
340
17A
340
17B
340
17C
340
17D
340
17E
340
17F
340
180
340
181
340
182
340
183
340
184
340
185
340
186
340
187
340
188
340
189
340
18A
340
18B
340
18C
340
18D
340
18E
340
18F
340
190
340
191
340
192
340
193
340
194
340
195
340
196
340
197
340
198
340
199
340
19A
340
19B
340
19C
340
19D
340
19E
340
19F
340
1A0
340
1A1
340
1A2
340
1A6
340
1A7
340
1A8
340
1A9
340
1AA
340
1AB
340
1AC
340
1AD
340
1AE
340
1AF
340
1B0
340
1B1
340
1B2
340
1B3
340
1B4
340
1B5
340
1B6
340
1B7
340
1B8
340
1B9
340
1BA
340
1BB
340
1BC
340
1BD
340
1BE
340
1BF
340
1C0
340
1C1
340
1C2
340
1C3
340
1C4
340
1C5
340
1C6
340
1C7
340
1C8
340
1C9
340
1CA
340
1CB
340
1CC
340
1CD
340
1CE
340
1CF
340
1D0
340
1D1
340
1D2
340
1D3
340
1D4
340
1D5
340
1D6
340
1D7
340
1D8
340
1D9
340
1DA
340
1DB
340
1DC
340
1DD
340
1DE
340
1DF
340
1E0
340
1E1
340
1E2
340
1E3
340
1E4
340
1E5
340
1E6
340
1E7
340
1E8
340
1E9
340
1EA
340
1EB
340
1EC
340
1ED
340
1EE
340
1EF
340
1F0
340
1F1
340
1F2
340
1F3
340
1F4
340
1F5
340
1F6
340
1F7
340
1F8
340
1F9
340
1FA
340
1FB
340
1FC
340
1FD
340
1FE
340
1FF
340
200
340
201
340
202
340
203
340
204
340
205
340
206
340
207
340
208
340
209
340
20A
340
20B
340
20C
340
20D
340
20E
340
20F
340
210
340
211
340
212
340
213
340
214
340
215
340
216
340
217
340
218
340
219
340
21A
340
21B
340
21C
340
21D
340
21E
340
21F
340
220
340
221
340
222
340
223
340
224
340
225
340
226
340
227
340
228
340
229
340
22A
340
22B
340
22C
340
22D
340
22E
340
22F
340
230
340
231
340
232
340
233
340
234
340
235
340
236
340
237
340
238
340
239
340
23A
340
23B
340
23C
340
23D
340
23E
340
23F
340
240
340
241
340
242
340
243
340
244
340
245
340
246
340
247
340
248
340
249
340
24A
340
24B
340
24C
340
24D
340
24E
340
24F
340
250
340
251
340
252
340
253
340
254
340
255
340
256
340
257
340
258
340
259
340
25A
340
25B
340
25C
340
25D
340
25E
340
25F
340
260
340
261
340
262
340
263
340
264
340
265
340
266
340
267
340
268
340
269
340
26A
340
26B
340
26C
340
26D
340
26E
340
26F
340
270
340
271
340
272
340
273
340
274
340
275
340
276
340
277
340
278
340
279
340
27A
340
27B
340
27C
340
27D
340
27E
340
27F
340
280
340
281
340
282
340
283
340
284
340
285
340
286
340
287
340
288
340
289
340
28A
340
28B
340
28C
340
28D
340
28E
340
28F
340
290
340
291
340
292
340
293
340
294
340
295
340
296
340
297
340
298
340
299
340
29A
340
29B
340
29C
340
29D
340
29E
340
29F
340
2A0
340
2A1
340
2A2
340
2A3
340
2A4
340
2A5
340
2A6
340
2A7
340
2A8
340
2A9
340
2AA
340
2AB
340
2AC
340
2AD
340
2AE
340
2AF
340
2B0
340
2B1
340
2B2
340
2B3
340
2B4
340
2B5
340
2B6
340
2B7
340
2B8
340
2B9
340
2BA
340
2BB
340
2BC
340
2BD
340
2BE
340
2BF
340
2C0
340
2C1
340
2C2
340
2C3
340
2C4
340
2C5
340
2C6
340
2C7
340
2C8
340
2C9
340
2CA
340
2CB
340
2CC
340
2CD
340
2CE
340
2CF
340
2D0
340
2D1
340
2D2
340
2D3
340
2D4
340
2D5
340
2D6
340
2D7
340
2D8
340
2D9
340
2DA
340
2DB
340
2DC
340
2DD
340
2DE
340
2DF
340
2E0
340
2E1
340
2E2
340
2E3
340
2E4
340
2E5
340
2E6
340
2E7
340
2E8
340
2E9
340
2EA
340
2EB
340
2EC
340
2ED
340
2EE
340
2EF
340
2F0
340
2F1
340
2F2
340
2F3
340
2F4
340
2F5
340
2F6
340
2F7
340
2F8
340
2F9
0
MLINESTYLE
5
18
330
38f
100
AcDbMlineStyle
2
Standard
70
0
3

62
256
51
90
52
90
71
2
49
-0.5
62
256
6
ByLayer
49
0.5
62
256
6
ByLayer
0
RASTERVARIABLES
5
37a
330

100
AcDbRasterVariables
90
0
70
1
71
1
72
1
0
ENDSEC
0
EOF
