0
SECTION
2
HEADER
9
$ACADVER
1
AC1015
9
$DWGCODEPAGE
3
ANSI_1252
9
$HANDSEED
5
1cd
9
$ANGBASE
50
0
9
$ANGDIR
70
0
9
$ATTMODE
70
1
9
$AUNITS
70
0
9
$AUPREC
70
0
9
$CECOLOR
62
256
9
$CELTSCALE
40
1
9
$CELTYPE
6
ByLayer
9
$CELWEIGHT
370
18
9
$CLAYER
8
0
9
$CMLJUST
70
0
9
$CMLSCALE
40
1
9
$CMLSTYLE
2
Standard
9
$DIMSTYLE
2
Standard
9
$TEXTSIZE
40
0.2
9
$TEXTSTYLE
7
Standard
9
$LUNITS
70
2
9
$LUPREC
70
4
9
$EXTNAMES
290
1
9
$INSUNITS
70
4
9
$LTSCALE
40
1
9
$LWDISPLAY
290
1
9
$PDMODE
70
0
9
$PDSIZE
40
0
9
$PLINEGEN
70
0
0
ENDSEC
0
SECTION
2
CLASSES
0
CLASS
1
RASTERVARIABLES
2
AcDbRasterVariables
3
ISM
90
0
280
0
281
0
0
ENDSEC
0
SECTION
2
TABLES
0
TABLE
2
VPORT
5
1c3
100
AcDbSymbolTable
0
VPORT
5
1
100
AcDbSymbolTableRecord
100
AcDbViewportTableRecord
2
*Active
70
0
10
0
20
0
11
1
21
1
12
-1
22
1
13
0
23
0
14
0.5
24
0.5
15
10
25
10
16
0
26
0
36
1
17
0
27
0
37
0
0
ENDTAB
0
TABLE
2
LTYPE
5
1c4
100
AcDbSymbolTable
0
LTYPE
5
14
100
AcDbSymbolTableRecord
100
AcDbLinetypeTableRecord
70
0
2
ByBlock
3

72
65
73
0
40
0
0
LTYPE
5
15
100
AcDbSymbolTableRecord
100
AcDbLinetypeTableRecord
70
0
2
ByLayer
3

72
65
73
0
40
0
0
LTYPE
5
16
100
AcDbSymbolTableRecord
100
AcDbLinetypeTableRecord
70
0
2
CONTINUOUS
3
Solid line
72
65
73
0
40
0
0
LTYPE
5
6A
100
AcDbSymbolTableRecord
100
AcDbLinetypeTableRecord
70
0
2
CENTER
3
____ _ ____ _ ____ _ ____
72
65
73
4
40
47.5
49
22
74
0
49
-8.5
74
0
49
8.5
74
0
49
-8.5
74
0
0
LTYPE
5
6B
100
AcDbSymbolTableRecord
100
AcDbLinetypeTableRecord
70
0
2
DASHED
3
__ __ __ __ __ __ __ __ __
72
65
73
2
40
25.72
49
12.86
74
0
49
-12.86
74
0
0
ENDTAB
0
TABLE
2
LAYER
5
1c5
100
AcDbSymbolTable
0
LAYER
5
10
100
AcDbSymbolTableRecord
100
AcDbLayerTableRecord
2
0
70
0
62
7
6
CONTINUOUS
290
1
370
-3
390
0
0
LAYER
5
6D
100
AcDbSymbolTableRecord
100
AcDbLayerTableRecord
2
80
70
0
62
-6
6
CONTINUOUS
290
1
370
-3
390
0
0
LAYER
5
6F
100
AcDbSymbolTableRecord
100
AcDbLayerTableRecord
2
81
70
0
62
-3
6
CONTINUOUS
290
1
370
-3
390
0
0
LAYER
5
75
100
AcDbSymbolTableRecord
100
AcDbLayerTableRecord
2
1
70
0
62
4
6
CONTINUOUS
290
1
370
-3
390
0
0
LAYER
5
E1
100
AcDbSymbolTableRecord
100
AcDbLayerTableRecord
2
4
70
0
62
-2
6
CENTER
290
1
370
-3
390
0
0
LAYER
5
14A
100
AcDbSymbolTableRecord
100
AcDbLayerTableRecord
2
2
70
0
62
7
6
CONTINUOUS
290
1
370
-3
390
0
0
LAYER
5
1ad
100
AcDbSymbolTableRecord
100
AcDbLayerTableRecord
2
SK1
70
0
62
4
6
CONTINUOUS
290
1
370
-3
390
0
0
LAYER
5
1ae
100
AcDbSymbolTableRecord
100
AcDbLayerTableRecord
2
SK4
70
0
62
2
6
CENTER
290
1
370
-3
390
0
0
LAYER
5
1af
100
AcDbSymbolTableRecord
100
AcDbLayerTableRecord
2
SK6
70
0
62
5
6
CONTINUOUS
290
1
370
-3
390
0
0
LAYER
5
1b0
100
AcDbSymbolTableRecord
100
AcDbLayerTableRecord
2
SK2
70
0
62
7
6
CONTINUOUS
290
1
370
-3
390
0
0
ENDTAB
0
TABLE
2
STYLE
5
1c6
100
AcDbSymbolTable
0
STYLE
5
11
100
AcDbSymbolTableRecord
100
AcDbTextStyleTableRecord
2
Standard
3
txt
70
0
71
0
40
0
41
1
42
0
50
0
0
STYLE
5
139
100
AcDbSymbolTableRecord
100
AcDbTextStyleTableRecord
2
iso_b_vert
3
simplex.shx
70
0
71
0
40
0
41
1
42
0
50
0
0
STYLE
5
13A
100
AcDbSymbolTableRecord
100
AcDbTextStyleTableRecord
2
DWGDirectTextStyle
3
simplex
70
0
71
0
40
0
41
1
42
0
50
0
0
ENDTAB
0
TABLE
2
DIMSTYLE
5
1c7
100
AcDbSymbolTable
100
AcDbDimStyleTable
0
DIMSTYLE
105
27
100
AcDbSymbolTableRecord
100
AcDbDimStyleTableRecord
2
Standard
70
0
3
<>
41
0.18
42
0.0625
44
0.18
140
0.18
147
0.09
73
0
74
0
77
1
271
2
275
0
278
52
280
0
340
11
0
ENDTAB
0
TABLE
2
VIEW
5
1c8
100
AcDbSymbolTable
0
ENDTAB
0
TABLE
2
UCS
5
1c9
100
AcDbSymbolTable
0
ENDTAB
0
TABLE
2
APPID
5
1ca
100
AcDbSymbolTable
0
APPID
5
12
100
AcDbSymbolTableRecord
100
AcDbRegAppTableRecord
2
ACAD
70
0
0
ENDTAB
0
TABLE
2
BLOCK_RECORD
5
1cb
100
AcDbSymbolTable
0
BLOCK_RECORD
5
1F
100
AcDbSymbolTableRecord
100
AcDbBlockTableRecord
2
*Model_Space
340
0
70
0
0
BLOCK_RECORD
5
1B
100
AcDbSymbolTableRecord
100
AcDbBlockTableRecord
2
*Paper_Space
340
0
70
0
0
BLOCK_RECORD
5
23
100
AcDbSymbolTableRecord
100
AcDbBlockTableRecord
2
*Paper_Space0
340
0
70
0
0
BLOCK_RECORD
5
13C
100
AcDbSymbolTableRecord
100
AcDbBlockTableRecord
2
DimnDraft3D1
340
0
70
0
0
BLOCK_RECORD
5
148
100
AcDbSymbolTableRecord
100
AcDbBlockTableRecord
2
DimnDraft3D2
340
0
70
0
0
ENDTAB
0
ENDSEC
0
SECTION
2
BLOCKS
0
BLOCK
5
20
100
AcDbEntity
8
0
100
AcDbBlockBegin
2
*Model_Space
70
0
10
0
20
0
30
0
3
*Model_Space
0
ENDBLK
5
21
100
AcDbEntity
8
0
100
AcDbBlockEnd
0
BLOCK
5
1C
100
AcDbEntity
8
0
100
AcDbBlockBegin
2
*Paper_Space
70
0
10
0
20
0
30
0
3
*Paper_Space
0
ENDBLK
5
1D
100
AcDbEntity
8
0
100
AcDbBlockEnd
0
BLOCK
5
24
100
AcDbEntity
8
0
100
AcDbBlockBegin
2
*Paper_Space0
70
0
10
0
20
0
30
0
3
*Paper_Space0
0
ENDBLK
5
25
100
AcDbEntity
8
0
100
AcDbBlockEnd
0
BLOCK
5
145
100
AcDbEntity
8
0
100
AcDbBlockBegin
2
DimnDraft3D1
70
0
10
0
20
0
30
0
3
DimnDraft3D1
0
MTEXT
5
13D
100
AcDbEntity
8
SK2
62
256
6
ByLayer
370
18
48
1
60
0
100
AcDbMText
10
-66.847843
20
-2.139474
30
0
210
0
220
0
230
1
1
\W0.8132;%%c 80
40
3
41
0
44
1.084337
50
90
71
7
72
5
7
iso_b_vert
0
MTEXT
5
13F
100
AcDbEntity
8
SK2
62
256
6
ByLayer
370
18
48
1
60
0
100
AcDbMText
10
-66.847843
20
-4.507895
30
0
210
0
220
0
230
1
1
\W0.3160; 
40
3
41
0
44
1.084337
50
90
71
7
72
5
7
iso_b_vert
0
LINE
5
140
100
AcDbEntity
8
SK2
62
256
6
ByLayer
370
13
48
1
60
0
100
AcDbLine
10
-1.7
20
39.9925
30
0
11
-68.097843
21
39.9925
31
0
39
0
210
0
220
0
230
1
0
LINE
5
141
100
AcDbEntity
8
SK2
62
256
6
ByLayer
370
13
48
1
60
0
100
AcDbLine
10
-1.7
20
-39.9925
30
0
11
-68.097843
21
-39.9925
31
0
39
0
210
0
220
0
230
1
0
LINE
5
142
100
AcDbEntity
8
SK2
62
256
6
ByLayer
370
13
48
1
60
0
100
AcDbLine
10
-66.097843
20
39.9925
30
0
11
-66.097843
21
-39.9925
31
0
39
0
210
0
220
0
230
1
0
SOLID
5
143
100
AcDbEntity
8
SK2
62
256
6
ByLayer
370
13
48
1
60
0
100
AcDbTrace
10
-66.097843
20
39.9925
30
0
11
-65.679846
21
36.817502
31
0
12
-66.51584
22
36.817498
32
0
13
-66.097843
23
39.9925
33
0
39
0
210
0
220
0
230
1
0
SOLID
5
144
100
AcDbEntity
8
SK2
62
256
6
ByLayer
370
13
48
1
60
0
100
AcDbTrace
10
-66.097843
20
-39.9925
30
0
11
-66.51584
21
-36.817502
31
0
12
-65.679846
22
-36.817498
32
0
13
-66.097843
23
-39.9925
33
0
39
0
210
0
220
0
230
1
0
ENDBLK
5
146
100
AcDbEntity
8
0
100
AcDbBlockEnd
0
BLOCK
5
150
100
AcDbEntity
8
0
100
AcDbBlockBegin
2
DimnDraft3D2
70
0
10
0
20
0
30
0
3
DimnDraft3D2
0
MTEXT
5
149
100
AcDbEntity
8
2
62
256
6
ByLayer
370
18
48
1
60
0
100
AcDbMText
10
33.307895
20
74.25
30
0
210
0
220
0
230
1
1
\W0.6961;72.0
40
3
41
0
44
1.084337
50
0
71
7
72
5
7
iso_b_vert
0
LINE
5
14B
100
AcDbEntity
8
2
62
256
6
ByLayer
370
13
48
1
60
0
100
AcDbLine
10
0
20
41.6925
30
0
11
0
21
75.5
31
0
39
0
210
0
220
0
230
1
0
LINE
5
14C
100
AcDbEntity
8
2
62
256
6
ByLayer
370
13
48
1
60
0
100
AcDbLine
10
72
20
2
30
0
11
72
21
75.5
31
0
39
0
210
0
220
0
230
1
0
LINE
5
14D
100
AcDbEntity
8
2
62
256
6
ByLayer
370
13
48
1
60
0
100
AcDbLine
10
0
20
73.5
30
0
11
72
21
73.5
31
0
39
0
210
0
220
0
230
1
0
SOLID
5
14E
100
AcDbEntity
8
2
62
256
6
ByLayer
370
13
48
1
60
0
100
AcDbTrace
10
0
20
73.5
30
0
11
3.174998
21
73.917997
31
0
12
3.175002
22
73.082003
32
0
13
0
23
73.5
33
0
39
0
210
0
220
0
230
1
0
SOLID
5
14F
100
AcDbEntity
8
2
62
256
6
ByLayer
370
13
48
1
60
0
100
AcDbTrace
10
72
20
73.5
30
0
11
68.825002
21
73.082003
31
0
12
68.824998
22
73.917997
32
0
13
72
23
73.5
33
0
39
0
210
0
220
0
230
1
0
ENDBLK
5
151
100
AcDbEntity
8
0
100
AcDbBlockEnd
0
ENDSEC
0
SECTION
2
ENTITIES
0
ARC
5
EB
100
AcDbEntity
8
SK1
62
256
6
ByLayer
370
18
48
1
60
0
100
AcDbCircle
39
0
10
89.8
20
22.6325
30
0
40
0.799999999999949
210
0
220
0
230
1
100
AcDbArc
50
0
51
90
0
ARC
5
EC
100
AcDbEntity
8
SK1
62
256
6
ByLayer
370
18
48
1
60
0
100
AcDbCircle
39
0
10
89.8
20
8.39083
30
0
40
0.799999999999992
210
0
220
0
230
1
100
AcDbArc
50
0
51
90
0
ARC
5
ED
100
AcDbEntity
8
SK1
62
256
6
ByLayer
370
18
48
1
60
0
100
AcDbCircle
39
0
10
-0.6
20
29.6
30
0
40
1.00000000013804
210
0
220
0
230
1
100
AcDbArc
50
293.578178
51
306.869898
0
ARC
5
EE
100
AcDbEntity
8
SK1
62
256
6
ByLayer
370
18
48
1
60
0
100
AcDbCircle
39
0
10
89.8
20
11.3675
30
0
40
0.799999999999948
210
0
220
0
230
1
100
AcDbArc
50
270
51
0
0
ARC
5
EF
100
AcDbEntity
8
SK1
62
256
6
ByLayer
370
18
48
1
60
0
100
AcDbCircle
39
0
10
89.8
20
-2.87417
30
0
40
0.799999999999982
210
0
220
0
230
1
100
AcDbArc
50
270
51
0
0
ARC
5
F0
100
AcDbEntity
8
SK1
62
256
6
ByLayer
370
18
48
1
60
0
100
AcDbCircle
39
0
10
89.8
20
-25.39083
30
0
40
0.799999999999949
210
0
220
0
230
1
100
AcDbArc
50
270
51
0
0
ARC
5
F1
100
AcDbEntity
8
SK1
62
256
6
ByLayer
370
18
48
1
60
0
100
AcDbCircle
39
0
10
89.8
20
-14.12583
30
0
40
0.799999999999992
210
0
220
0
230
1
100
AcDbArc
50
0
51
90
0
ARC
5
F2
100
AcDbEntity
8
SK1
62
256
6
ByLayer
370
18
48
1
60
0
100
AcDbCircle
39
0
10
-0.6
20
-29.6
30
0
40
0.99999999997421
210
0
220
0
230
1
100
AcDbArc
50
53.130102
51
66.421822
0
ELLIPSE
5
F3
100
AcDbEntity
8
SK1
62
256
6
ByLayer
370
18
48
1
60
0
100
AcDbEllipse
10
71.02659
20
2.75833
30
0
11
-0.496102706906344
21
4.09985903665677
31
0
210
0
220
0
230
1
40
0.068531
41
0.515306429700084
42
3.13330030769159
0
ELLIPSE
5
F4
100
AcDbEntity
8
SK1
62
256
6
ByLayer
370
18
48
1
60
0
100
AcDbEllipse
10
71.02659
20
2.75833
30
0
11
-0.496102707057879
21
4.09985903783499
31
0
210
0
220
0
230
1
40
0.068531
41
3.1333003076927
42
-2.92857055717112
0
ELLIPSE
5
F5
100
AcDbEntity
8
SK1
62
256
6
ByLayer
370
18
48
1
60
0
100
AcDbEllipse
10
71.02659
20
-19.75833
30
0
11
0.496102707021679
21
4.09985903755176
31
0
210
0
220
0
230
1
40
0.068531
41
-0.213022096426077
42
0.00829234589738768
0
ELLIPSE
5
F6
100
AcDbEntity
8
1
62
256
6
ByLayer
370
18
48
1
60
0
100
AcDbEllipse
10
134.227964
20
0
30
0
11
92.553019407218
21
31.9708195070112
31
0
210
0
220
0
230
1
40
0.17285
41
2.67127444959454
42
-2.70580911564269
0
ELLIPSE
5
F7
100
AcDbEntity
8
1
62
256
6
ByLayer
370
18
48
1
60
0
100
AcDbEllipse
10
66.160185
20
26.184435
30
0
11
-1.62419439035405
21
0.559384051216628
31
0
210
0
220
0
230
1
40
0.426073
41
-0.265986817930369
42
2.87560583565944
0
ELLIPSE
5
F8
100
AcDbEntity
8
SK1
62
256
6
ByLayer
370
18
48
1
60
0
100
AcDbEllipse
10
66.160185
20
-19.274096
30
0
11
1.61319968852014
21
0.774031360292664
31
0
210
0
220
0
230
1
40
0.392714
41
-2.86019744861528
42
0.133139575993811
0
ELLIPSE
5
F9
100
AcDbEntity
8
1
62
256
6
ByLayer
370
18
48
1
60
0
100
AcDbEllipse
10
66.160185
20
26.184435
30
0
11
-1.62419439035406
21
0.559384051216611
31
0
210
0
220
0
230
1
40
0.426073
41
-2.67650576912788
42
-0.265986817930392
0
ELLIPSE
5
FA
100
AcDbEntity
8
SK1
62
256
6
ByLayer
370
18
48
1
60
0
100
AcDbEllipse
10
72.834351
20
0
30
0
11
-4.6827255505489
21
38.6986694434975
31
0
210
0
220
0
230
1
40
0.068531
41
1.38333427020886
42
1.87944663140115
0
ELLIPSE
5
FB
100
AcDbEntity
8
1
62
256
6
ByLayer
370
18
48
1
60
0
100
AcDbEllipse
10
338.444947
20
68.192444
30
0
11
293.605251346397
21
99.7630055221526
31
0
210
0
220
0
230
1
40
0.124503
41
-2.92995075765658
42
-2.85845502782777
0
ELLIPSE
5
FC
100
AcDbEntity
8
1
62
256
6
ByLayer
370
18
48
1
60
0
100
AcDbEllipse
10
134.227964
20
0
30
0
11
-92.5530154948894
21
31.9706933349632
31
0
210
0
220
0
230
1
40
0.172853
41
-0.351043106268137
42
0.555058635674221
0
ELLIPSE
5
FD
100
AcDbEntity
8
SK1
62
256
6
ByLayer
370
18
48
1
60
0
100
AcDbEllipse
10
66.160185
20
-19.274096
30
0
11
1.61319969048054
21
0.774031361506249
31
0
210
0
220
0
230
1
40
0.392714
41
0.133139575857387
42
0.281395204740651
0
ELLIPSE
5
FE
100
AcDbEntity
8
SK1
62
256
6
ByLayer
370
18
48
1
60
0
100
AcDbEllipse
10
71.02659
20
-19.75833
30
0
11
0.496102706885842
21
4.0998590365088
31
0
210
0
220
0
230
1
40
0.068531
41
2.62628622388016
42
-3.13330030769131
0
ELLIPSE
5
FF
100
AcDbEntity
8
1
62
256
6
ByLayer
370
18
48
1
60
0
100
AcDbEllipse
10
134.227964
20
0
30
0
11
100.190261547959
21
34.6089710370605
31
0
210
0
220
0
230
1
40
0.17285
41
-2.4628394800548
42
-2.33320630525438
0
ELLIPSE
5
100
100
AcDbEntity
8
1
62
256
6
ByLayer
370
18
48
1
60
0
100
AcDbEllipse
10
134.227965
20
0
30
0
11
-100.190257366817
21
34.6088344705025
31
0
210
0
220
0
230
1
40
0.172853
41
0.798028271094444
42
0.927661445847601
0
ELLIPSE
5
101
100
AcDbEntity
8
1
62
256
6
ByLayer
370
18
48
1
60
0
100
AcDbEllipse
10
338.444946
20
-68.192105
30
0
11
-293.605244524617
21
99.7625619912213
31
0
210
0
220
0
230
1
40
0.124505
41
0.296200974874297
42
0.367696704808664
0
ELLIPSE
5
102
100
AcDbEntity
8
1
62
256
6
ByLayer
370
18
48
1
60
0
100
AcDbEllipse
10
66.160185
20
26.184435
30
0
11
-1.62419439034835
21
0.559384051214639
31
0
210
0
220
0
230
1
40
0.426073
41
2.87560583565899
42
-2.67650576912705
0
ELLIPSE
5
103
100
AcDbEntity
8
SK1
62
256
6
ByLayer
370
18
48
1
60
0
100
AcDbEllipse
10
71.02659
20
2.75833
30
0
11
-0.496102707255609
21
4.09985903972993
31
0
210
0
220
0
230
1
40
0.068531
41
-0.229606788159294
42
-0.00829234589492869
0
ELLIPSE
5
104
100
AcDbEntity
8
SK1
62
256
6
ByLayer
370
18
48
1
60
0
100
AcDbEllipse
10
71.02659
20
-19.75833
30
0
11
0.496102706906344
21
4.09985903665677
31
0
210
0
220
0
230
1
40
0.068531
41
0.00829234589824556
42
2.62628622388971
0
ELLIPSE
5
105
100
AcDbEntity
8
1
62
256
6
ByLayer
370
18
48
1
60
0
100
AcDbEllipse
10
-6.763884
20
0
30
0
11
-18.7313229778563
21
39.4760951495644
31
0
210
0
220
0
230
1
40
0.341999
41
-2.98011822712809
42
-2.05402130765317
0
ELLIPSE
5
106
100
AcDbEntity
8
SK1
62
256
6
ByLayer
370
18
48
1
60
0
100
AcDbEllipse
10
71.02659
20
-19.75833
30
0
11
0.496102707315217
21
4.09985904026631
31
0
210
0
220
0
230
1
40
0.068531
41
-3.13330030769541
42
-2.91198586544563
0
ELLIPSE
5
107
100
AcDbEntity
8
SK1
62
256
6
ByLayer
370
18
48
1
60
0
100
AcDbEllipse
10
66.160185
20
-19.274096
30
0
11
1.61319968852015
21
0.774031360292659
31
0
210
0
220
0
230
1
40
0.392714
41
0.281395204974665
42
-2.86019744861524
0
ELLIPSE
5
108
100
AcDbEntity
8
1
62
256
6
ByLayer
370
18
48
1
60
0
100
AcDbEllipse
10
-656.899423
20
0
30
0
11
-738.439467172044
21
19.3899006988573
31
0
210
0
220
0
230
1
40
0.045355
41
-2.97410535651018
42
-2.89827240229913
0
ELLIPSE
5
109
100
AcDbEntity
8
1
62
256
6
ByLayer
370
18
48
1
60
0
100
AcDbEllipse
10
30.763884
20
0
30
0
11
-18.7313229778592
21
39.4760951495686
31
0
210
0
220
0
230
1
40
0.341999
41
0.1614744264617
42
1.08757134593654
0
ELLIPSE
5
10A
100
AcDbEntity
8
SK1
62
256
6
ByLayer
370
18
48
1
60
0
100
AcDbEllipse
10
72.834351
20
0
30
0
11
4.68272555058364
21
38.6986694439184
31
0
210
0
220
0
230
1
40
0.068531
41
-2.78887124278124
42
-2.26773202761566
0
ELLIPSE
5
10B
100
AcDbEntity
8
1
62
256
6
ByLayer
370
18
48
1
60
0
100
AcDbEllipse
10
65.7766
20
3.8E-05
30
0
11
32.1713805618867
21
37.7492778047452
31
0
210
0
220
0
230
1
40
0.265008
41
-1.7059762233343
42
-1.6906433363906
0
ELLIPSE
5
10C
100
AcDbEntity
8
SK1
62
256
6
ByLayer
370
18
48
1
60
0
100
AcDbEllipse
10
71.02659
20
2.75833
30
0
11
-0.4961027069491
21
4.09985903696805
31
0
210
0
220
0
230
1
40
0.068531
41
-0.00829234589780461
42
0.515306429679926
0
ELLIPSE
5
10D
100
AcDbEntity
8
1
62
256
6
ByLayer
370
18
48
1
60
0
100
AcDbEllipse
10
-6.763884
20
0
30
0
11
18.7313229778567
21
39.476095149565
31
0
210
0
220
0
230
1
40
0.341999
41
-1.08757134593661
42
-0.1614744264617
0
ELLIPSE
5
10E
100
AcDbEntity
8
1
62
256
6
ByLayer
370
18
48
1
60
0
100
AcDbEllipse
10
30.763884
20
0
30
0
11
18.7313229778589
21
39.4760951495683
31
0
210
0
220
0
230
1
40
0.341999
41
2.05402130765324
42
2.98011822712809
0
ELLIPSE
5
10F
100
AcDbEntity
8
SK1
62
256
6
ByLayer
370
18
48
1
60
0
100
AcDbEllipse
10
65.776616
20
-9E-06
30
0
11
5.41230447436651E-06
21
38.7000088093673
31
0
210
0
220
0
230
1
40
0.870564
41
-0.181629128774372
42
-0.166296221372436
0
ELLIPSE
5
110
100
AcDbEntity
8
1
62
256
6
ByLayer
370
18
48
1
60
0
100
AcDbEllipse
10
72.834351
20
0
30
0
11
-4.6827255505489
21
38.6986694434975
31
0
210
0
220
0
230
1
40
0.068531
41
1.87944663140115
42
1.90447348537816
0
POINT
5
6C
100
AcDbEntity
8
80
62
256
6
ByLayer
370
13
48
1
60
0
100
AcDbPoint
10
0
20
0
30
0
39
0
210
0
220
0
230
1
50
360
0
POINT
5
6E
100
AcDbEntity
8
81
62
256
6
ByLayer
370
13
48
1
60
0
100
AcDbPoint
10
72
20
0
30
0
39
0
210
0
220
0
230
1
50
360
0
SPLINE
5
111
100
AcDbEntity
8
SK1
62
256
6
ByLayer
370
18
48
1
60
0
100
AcDbSpline
70
4
71
3
72
16
73
12
40
0
40
0
40
0
40
0
40
0.0449620914812451
40
0.0903368815019423
40
0.123287996773751
40
0.156195942313692
40
0.206380327128441
40
0.302189466870412
40
0.465199895219244
40
0.628992158827555
40
1
40
1
40
1
40
1
41
1
10
-0.400000000000063
20
-5.67060688490521
30
0
41
1
10
-0.420927174634212
20
-5.6923944636843
30
0
41
1
10
-0.467485467566112
20
-5.72851688005115
30
0
41
1
10
-0.544757012788323
20
-5.76392327686637
30
0
41
1
10
-0.622034972988132
20
-5.76840721477473
30
0
41
1
10
-0.699252754045661
20
-5.74775039259256
30
0
41
1
10
-0.800267140719386
20
-5.68134988910837
30
0
41
1
10
-0.926677638040221
20
-5.52279599491436
30
0
41
1
10
-1.04851005422595
20
-5.27936518655821
30
0
41
1
10
-1.18854873195445
20
-4.85450503712925
30
0
41
1
10
-1.26941082007026
20
-4.51991257098303
30
0
41
1
10
-1.30710678118653
20
-4.28124408565431
30
0
0
SPLINE
5
112
100
AcDbEntity
8
1
62
256
6
ByLayer
370
18
48
1
60
0
100
AcDbSpline
70
4
71
1
72
4
73
2
40
0
40
0
40
1
40
1
41
1
10
52.6576951545867
20
-21.0768177021706
30
0
41
1
10
54
20
-21.751683896006
30
0
0
SPLINE
5
113
100
AcDbEntity
8
1
62
256
6
ByLayer
370
18
48
1
60
0
100
AcDbSpline
70
4
71
2
72
6
73
3
40
0
40
0
40
0
40
1
40
1
40
1
41
1
10
49.2196817447843
20
-21.2498433536252
30
0
41
1
10
49.3587978072312
20
-21.1592828623637
30
0
41
1
10
49.5313754354553
20
-21.1259250249783
30
0
0
SPLINE
5
114
100
AcDbEntity
8
1
62
256
6
ByLayer
370
18
48
1
60
0
100
AcDbSpline
70
4
71
3
72
12
73
8
40
0
40
0
40
0
40
0
40
0.106742997811912
40
0.241985171610099
40
0.454433221959782
40
0.861478427805876
40
1
40
1
40
1
40
1
41
1
10
10.5386751345948
20
-12.1446403114075
30
0
41
1
10
10.5112364996942
20
-12.1454115878452
30
0
41
1
10
10.4521607149726
20
-12.1545508068589
30
0
41
1
10
10.352142739667
20
-12.2104755139878
30
0
41
1
10
10.2280098701648
20
-12.347282282376
30
0
41
1
10
10.1524322703844
20
-12.5147376151139
30
0
41
1
10
10.1139798301423
20
-12.6376481385747
30
0
41
1
10
10.1056624327026
20
-12.6694685140526
30
0
0
SPLINE
5
115
100
AcDbEntity
8
1
62
256
6
ByLayer
370
18
48
1
60
0
100
AcDbSpline
70
4
71
3
72
13
73
9
40
0
40
0
40
0
40
0
40
0.256179750755171
40
0.595676712017661
40
0.75660597345367
40
0.892417389203993
40
0.999476617244255
40
1
40
1
40
1
40
1
41
1
10
10.1056624327026
20
-37.9326327035368
30
0
41
1
10
10.1204268812368
20
-37.9524750905403
30
0
41
1
10
10.1670413450507
20
-37.9964180156297
30
0
41
1
10
10.2531633980643
20
-38.0492718146392
30
0
41
1
10
10.3628214176911
20
-38.0847708831672
30
0
41
1
10
10.4509117955286
20
-38.1005338786363
30
0
41
1
10
10.511797636111
20
-38.1039008327498
30
0
41
1
10
10.5385449943024
20
-38.1039075148344
30
0
41
1
10
10.5386751345948
20
-38.1039075155887
30
0
0
SPLINE
5
116
100
AcDbEntity
8
SK1
62
256
6
ByLayer
370
18
48
1
60
0
100
AcDbSpline
70
4
71
2
72
6
73
3
40
0
40
0
40
0
40
1
40
1
40
1
41
1
10
-46.5004731678958
20
-26.4071167016237
30
0
41
1
10
-24.7502365839479
20
-26.9535583508345
30
0
41
1
10
-3
20
-27.5000000000453
30
0
0
SPLINE
5
117
100
AcDbEntity
8
1
62
256
6
ByLayer
370
18
48
1
60
0
100
AcDbSpline
70
4
71
3
72
12
73
8
40
0
40
0
40
0
40
0
40
0.106742997811888
40
0.241985171610085
40
0.454433221959731
40
0.861478427805721
40
1
40
1
40
1
40
1
41
1
10
13.4613248654052
20
-38.1039075155887
30
0
41
1
10
13.4887635003057
20
-38.1036661882911
30
0
41
1
10
13.5478392850273
20
-38.1007480768789
30
0
41
1
10
13.6478572603329
20
-38.082891717752
30
0
41
1
10
13.7719901298351
20
-38.0388923492386
30
0
41
1
10
13.8475677296156
20
-37.9841511057365
30
0
41
1
10
13.8860201698577
20
-37.9432556809471
30
0
41
1
10
13.8943375672974
20
-37.9326327035368
30
0
0
SPLINE
5
118
100
AcDbEntity
8
SK1
62
256
6
ByLayer
370
18
48
1
60
0
100
AcDbSpline
70
4
71
2
72
6
73
3
40
0
40
0
40
0
40
1
40
1
40
1
41
1
10
-0.400000000000023
20
27.3251512814302
30
0
41
1
10
-1.20000000000001
20
27.3251512814302
30
0
41
1
10
-2
20
27.3251512814302
30
0
0
SPLINE
5
119
100
AcDbEntity
8
1
62
256
6
ByLayer
370
18
48
1
60
0
100
AcDbSpline
70
4
71
3
72
13
73
9
40
0
40
0
40
0
40
0
40
0.256179750755337
40
0.595676712017709
40
0.756605973453681
40
0.892417389203969
40
0.999476617244253
40
1
40
1
40
1
40
1
41
1
10
13.8943375672974
20
-12.6694685140526
30
0
41
1
10
13.8795731187632
20
-12.6099918085695
30
0
41
1
10
13.8329586549493
20
-12.477501204735
30
0
41
1
10
13.7468366019356
20
-12.3150520411531
30
0
41
1
10
13.6371785823091
20
-12.2045845939391
30
0
41
1
10
13.5490882044709
20
-12.1552314453523
30
0
41
1
10
13.4882023638898
20
-12.1446612657818
30
0
41
1
10
13.4614550056976
20
-12.1446403138355
30
0
41
1
10
13.4613248654052
20
-12.1446403114075
30
0
0
SPLINE
5
11A
100
AcDbEntity
8
1
62
256
6
ByLayer
370
18
48
1
60
0
100
AcDbSpline
70
4
71
1
72
4
73
2
40
0
40
0
40
1
40
1
41
1
10
54
20
36.8955939611367
30
0
41
1
10
55.6642599447528
20
37.3438801407595
30
0
0
SPLINE
5
11B
100
AcDbEntity
8
SK1
62
256
6
ByLayer
370
18
48
1
60
0
100
AcDbSpline
70
4
71
2
72
6
73
3
40
0
40
0
40
0
40
1
40
1
40
1
41
1
10
-46.5004657229078
20
26.4070723719183
30
0
41
1
10
-47.2502328425843
20
25.948716264935
30
0
41
1
10
-48
20
25.49035990838
30
0
0
SPLINE
5
11C
100
AcDbEntity
8
1
62
256
6
ByLayer
370
18
48
1
60
0
100
AcDbSpline
70
4
71
3
72
10
73
6
40
0
40
0
40
0
40
0
40
0.166326143743685
40
0.628934631321595
40
1
40
1
40
1
40
1
41
1
10
49.5313754354553
20
-21.1259250249783
30
0
41
1
10
49.5587453948385
20
-21.1200416732259
30
0
41
1
10
49.6626492886151
20
-21.0997879891866
30
0
41
1
10
49.8319116441793
20
-21.0814889503745
30
0
41
1
10
49.9733382883102
20
-21.0765915112382
30
0
41
1
10
50.0366440983492
20
-21.0768177021699
30
0
0
SPLINE
5
11D
100
AcDbEntity
8
1
62
256
6
ByLayer
370
18
48
1
60
0
100
AcDbSpline
70
4
71
2
72
6
73
3
40
0
40
0
40
0
40
1
40
1
40
1
41
1
10
54
20
16.5559128157679
30
0
41
1
10
53.2825138942292
20
17.6531700749225
30
0
41
1
10
52.6576951545867
20
18.7400615064683
30
0
0
SPLINE
5
11E
100
AcDbEntity
8
SK1
62
256
6
ByLayer
370
18
48
1
60
0
100
AcDbSpline
70
4
71
3
72
16
73
12
40
0
40
0
40
0
40
0
40
0.0316164998116628
40
0.0560460207738062
40
0.0756171221987377
40
0.0951959244131065
40
0.122531021195027
40
0.171855515565494
40
0.328145741064575
40
0.663365227866927
40
1
40
1
40
1
40
1
41
1
10
-0.400000000000062
20
5.67060691171689
30
0
41
1
10
-0.394038052578522
20
5.66431914550421
30
0
41
1
10
-0.382312554508222
20
5.65553431284061
30
0
41
1
10
-0.363502762487242
20
5.64766784076189
30
0
41
1
10
-0.346198557899655
20
5.64729821251078
30
0
41
1
10
-0.328895214687272
20
5.65334439405915
30
0
41
1
10
-0.30792599449198
20
5.67013463423577
30
0
41
1
10
-0.271956932242407
20
5.7244001890264
30
0
41
1
10
-0.230624220443553
20
5.86926111680978
30
0
41
1
10
-0.203282826745883
20
6.09335430168501
30
0
41
1
10
-0.197092167151639
20
6.27443245898657
30
0
41
1
10
-0.20000000000063
20
6.36525211459042
30
0
0
SPLINE
5
11F
100
AcDbEntity
8
SK1
62
256
6
ByLayer
370
18
48
1
60
0
100
AcDbSpline
70
4
71
3
72
16
73
12
40
0
40
0
40
0
40
0
40
0.0721970668560741
40
0.19511995078129
40
0.317828301303899
40
0.440532154257065
40
0.563232677489317
40
0.685930681727617
40
0.808626752139643
40
0.93132134212991
40
1
40
1
40
1
40
1
41
1
10
-2.19993682588037
20
-27.5201003717167
30
0
41
1
10
-2.19994139324855
20
-27.5198835533974
30
0
41
1
10
-2.19995287134114
20
-27.5059026437411
30
0
41
1
10
-2.19996732554009
20
-27.4216127677619
30
0
41
1
10
-2.19997951574158
20
-27.2438017794422
30
0
41
1
10
-2.19998803453222
20
-26.9910044540957
30
0
41
1
10
-2.19999374010091
20
-26.6679419456381
30
0
41
1
10
-2.19999729067714
20
-26.2783671939303
30
0
41
1
10
-2.19999923971755
20
-25.8255283842756
30
0
41
1
10
-2.19999990245835
20
-25.3873584266318
30
0
41
1
10
-2.20000000900744
20
-25.0968894776193
30
0
41
1
10
-2.20000000000004
20
-24.9895674792699
30
0
0
SPLINE
5
120
100
AcDbEntity
8
1
62
256
6
ByLayer
370
18
48
1
60
0
100
AcDbSpline
70
4
71
1
72
4
73
2
40
0
40
0
40
1
40
1
41
1
10
54
20
-21.751683896006
30
0
41
1
10
55.6642599447528
20
-21.9758269858173
30
0
0
SPLINE
5
121
100
AcDbEntity
8
1
62
256
6
ByLayer
370
18
48
1
60
0
100
AcDbSpline
70
2053
71
3
72
45
73
41
40
0
40
0
40
0
40
0
40
0.0285155346376958
40
0.0570354294326422
40
0.0856086135511996
40
0.11418225690601
40
0.143296315521389
40
0.172406901112764
40
0.201261825337321
40
0.230108120815475
40
0.257817110886401
40
0.285515553368703
40
0.3114160390873
40
0.337311670528783
40
0.361755525581935
40
0.386201737243386
40
0.410413652686923
40
0.434631547646094
40
0.459830973316475
40
0.485036789063909
40
0.511843581623272
40
0.538654900910639
40
0.566911519478075
40
0.595169672932489
40
0.624198291403404
40
0.653224896926942
40
0.68225564880753
40
0.711279460318004
40
0.739466756065618
40
0.767643322051559
40
0.794160074282424
40
0.820669478570927
40
0.845483154415261
40
0.870297130628453
40
0.894433692997352
40
0.918575453307843
40
0.943345101554201
40
0.968121297604423
40
0.98406023747877
40
1
40
1
40
1
40
1
41
1
10
8.97403185287431
20
-4.40649694338736
30
0
41
1
10
9.25350233420321
20
-4.57482182674778
30
0
41
1
10
9.83146681729677
20
-4.86044094146671
30
0
41
1
10
10.7666686657525
20
-5.1422456694525
30
0
41
1
10
11.7345948316422
20
-5.26379156159649
30
0
41
1
10
12.7169823745775
20
-5.22851628895431
30
0
41
1
10
13.6851690559229
20
-5.02737318031563
30
0
41
1
10
14.6094006776306
20
-4.66806330549577
30
0
41
1
10
15.4535969022285
20
-4.15492888667989
30
0
41
1
10
16.185350809231
20
-3.51509708756818
30
0
41
1
10
16.780619659532
20
-2.76347541874959
30
0
41
1
10
17.2191224647745
20
-1.94753319886003
30
0
41
1
10
17.4937205738478
20
-1.08437125398278
30
0
41
1
10
17.6100236734099
20
-0.22274918264479
30
0
41
1
10
17.5715227081836
20
0.628783705164344
30
0
41
1
10
17.3974038757776
20
1.44327097524426
30
0
41
1
10
17.0893340539869
20
2.21354317124378
30
0
41
1
10
16.659702345437
20
2.932305103418
30
0
41
1
10
16.1117880727793
20
3.58012484284531
30
0
41
1
10
15.4481472337315
20
4.1542214619087
30
0
41
1
10
14.6846586807375
20
4.62412367104551
30
0
41
1
10
13.8249332722105
20
4.9826537399746
30
0
41
1
10
12.9012703367383
20
5.20070602577237
30
0
41
1
10
11.9292331030562
20
5.27089259030163
30
0
41
1
10
10.9500966006444
20
5.17741331195271
30
0
41
1
10
9.99126503591414
20
4.92301540921543
30
0
41
1
10
9.0911698151777
20
4.50759301174641
30
0
41
1
10
8.28251047156191
20
3.95129026463488
30
0
41
1
10
7.59384009375643
20
3.26606581804938
30
0
41
1
10
7.05160061424785
20
2.49361160319445
30
0
41
1
10
6.66866212962647
20
1.65175878420873
30
0
41
1
10
6.44802548618543
20
0.792074363581038
30
0
41
1
10
6.38803705842785
20
-0.0737456418393862
30
0
41
1
10
6.47130377274804
20
-0.910466488520342
30
0
41
1
10
6.69502287210109
20
-1.71232057855427
30
0
41
1
10
7.04326889049336
20
-2.46709057007814
30
0
41
1
10
7.51450203300508
20
-3.16009529548955
30
0
41
1
10
8.02361792753571
20
-3.70300270675186
30
0
41
1
10
8.51970170550924
20
-4.1115379489061
30
0
41
1
10
8.81886830900721
20
-4.31304204504165
30
0
41
1
10
8.97403185287431
20
-4.40649694338736
30
0
0
SPLINE
5
122
100
AcDbEntity
8
SK1
62
256
6
ByLayer
370
18
48
1
60
0
100
AcDbSpline
70
4
71
3
72
17
73
13
40
0
40
0
40
0
40
0
40
0.0083774336733044
40
0.13107307489976
40
0.253870259918073
40
0.376665276734196
40
0.499365626719947
40
0.622068631448149
40
0.744775141329333
40
0.86765865800172
40
0.990532709220672
40
1
40
1
40
1
40
1
41
1
10
-2.20000000000004
20
24.9895663958005
30
0
41
1
10
-2.2000000000886
20
25.0026504115115
30
0
41
1
10
-2.19999999188588
20
25.2066545141932
30
0
41
1
10
-2.19999974186018
20
25.5807389761762
30
0
41
1
10
-2.19999842588539
20
26.0639264373314
30
0
41
1
10
-2.19999571070134
20
26.4851114987927
30
0
41
1
10
-2.19999113986927
20
26.8412797098066
30
0
41
1
10
-2.19998409090049
20
27.1290100323353
30
0
41
1
10
-2.19997381330887
20
27.344257886706
30
0
41
1
10
-2.19995942401597
20
27.4819415537373
30
0
41
1
10
-2.19994578268366
20
27.5188252678245
30
0
41
1
10
-2.19993743127942
20
27.5200970097762
30
0
41
1
10
-2.19993682792658
20
27.5201003716316
30
0
0
SPLINE
5
123
100
AcDbEntity
8
SK1
62
256
6
ByLayer
370
18
48
1
60
0
100
AcDbSpline
70
4
71
3
72
16
73
12
40
0
40
0
40
0
40
0
40
0.34311842282875
40
0.537367149428758
40
0.729775833568636
40
0.819562957589123
40
0.856762937236356
40
0.894277255197613
40
0.927696580960605
40
0.97610589537855
40
1
40
1
40
1
40
1
41
1
10
-1.30710678118653
20
4.2812448052843
30
0
41
1
10
-1.27125472986791
20
4.5015594829067
30
0
41
1
10
-1.19107721931311
20
4.83813364123108
30
0
41
1
10
-1.05190662903441
20
5.28466896893454
30
0
41
1
10
-0.909980941480553
20
5.55804744815943
30
0
41
1
10
-0.76378469251409
20
5.71273487789639
30
0
41
1
10
-0.662860730515555
20
5.76100180217995
30
0
41
1
10
-0.58780420306817
20
5.76985675523793
30
0
41
1
10
-0.507628486343787
20
5.75082457326449
30
0
41
1
10
-0.446883466155755
20
5.71269814454737
30
0
41
1
10
-0.41115480724073
20
5.68172562296964
30
0
41
1
10
-0.400000000000065
20
5.67060691171686
30
0
0
SPLINE
5
124
100
AcDbEntity
8
1
62
256
6
ByLayer
370
18
48
1
60
0
100
AcDbSpline
70
4
71
1
72
4
73
2
40
0
40
0
40
1
40
1
41
1
10
53.0506089646431
20
-36.1429137948215
30
0
41
1
10
52.6576951545867
20
-35.7358124797512
30
0
0
SPLINE
5
125
100
AcDbEntity
8
SK1
62
256
6
ByLayer
370
18
48
1
60
0
100
AcDbSpline
70
4
71
2
72
6
73
3
40
0
40
0
40
0
40
1
40
1
40
1
41
1
10
-3
20
-27.5000000000453
30
0
41
1
10
-2.59744067185469
20
-27.5101136915598
30
0
41
1
10
-2.19488134370937
20
-27.5202273830743
30
0
0
SPLINE
5
126
100
AcDbEntity
8
1
62
256
6
ByLayer
370
18
48
1
60
0
100
AcDbSpline
70
4
71
3
72
12
73
8
40
0
40
0
40
0
40
0
40
0.106742997811889
40
0.241985171610066
40
0.45443322195969
40
0.861478427805638
40
1
40
1
40
1
40
1
41
1
10
13.4613248654052
20
12.1446403114075
30
0
41
1
10
13.4887635003057
20
12.1454115878452
30
0
41
1
10
13.5478392850273
20
12.1545508068588
30
0
41
1
10
13.6478572603329
20
12.2104755139878
30
0
41
1
10
13.7719901298351
20
12.3472822823759
30
0
41
1
10
13.8475677296156
20
12.5147376151138
30
0
41
1
10
13.8860201698577
20
12.6376481385746
30
0
41
1
10
13.8943375672974
20
12.6694685140526
30
0
0
SPLINE
5
127
100
AcDbEntity
8
1
62
256
6
ByLayer
370
18
48
1
60
0
100
AcDbSpline
70
4
71
2
72
6
73
3
40
0
40
0
40
0
40
1
40
1
40
1
41
1
10
54
20
-37.0234886204961
30
0
41
1
10
53.5034549702557
20
-36.5954114970473
30
0
41
1
10
53.0506089646431
20
-36.1429137948215
30
0
0
SPLINE
5
128
100
AcDbEntity
8
SK1
62
256
6
ByLayer
370
18
48
1
60
0
100
AcDbSpline
70
4
71
3
72
13
73
9
40
0
40
0
40
0
40
0
40
0.239468190909075
40
0.368375774873997
40
0.50001647112755
40
0.631654429480293
40
0.760554462869735
40
1
40
1
40
1
40
1
41
1
10
-2
20
27.3251512814302
30
0
41
1
10
-2.02607195688124
20
27.32540435647
30
0
41
1
10
-2.06363514552148
20
27.3325216078568
30
0
41
1
10
-2.11047804957901
20
27.3567471636424
30
0
41
1
10
-2.14242236365003
20
27.3827224769008
30
0
41
1
10
-2.16840047364593
20
27.4146634923699
30
0
41
1
10
-2.19262861825256
20
27.4615013561305
30
0
41
1
10
-2.19974657432198
20
27.4990612074137
30
0
41
1
10
-2.20000000000002
20
27.5251310238059
30
0
0
SPLINE
5
129
100
AcDbEntity
8
1
62
256
6
ByLayer
370
18
48
1
60
0
100
AcDbSpline
70
4
71
3
72
13
73
9
40
0
40
0
40
0
40
0
40
0.256179750755171
40
0.595676712017661
40
0.75660597345367
40
0.892417389203993
40
0.999476617244255
40
1
40
1
40
1
40
1
41
1
10
10.1056624327026
20
12.6694685140526
30
0
41
1
10
10.1204268812368
20
12.6099918085696
30
0
41
1
10
10.1670413450507
20
12.4775012047353
30
0
41
1
10
10.2531633980643
20
12.3150520411523
30
0
41
1
10
10.362821417691
20
12.2045845939404
30
0
41
1
10
10.4509117955286
20
12.1552314453488
30
0
41
1
10
10.511797636111
20
12.1446612657879
30
0
41
1
10
10.5385449943024
20
12.1446403138355
30
0
41
1
10
10.5386751345948
20
12.1446403114074
30
0
0
SPLINE
5
12A
100
AcDbEntity
8
1
62
256
6
ByLayer
370
18
48
1
60
0
100
AcDbSpline
70
4
71
1
72
4
73
2
40
0
40
0
40
1
40
1
41
1
10
52.6576951545867
20
35.5458615734659
30
0
41
1
10
54
20
36.8955939611367
30
0
0
SPLINE
5
12B
100
AcDbEntity
8
1
62
256
6
ByLayer
370
18
48
1
60
0
100
AcDbSpline
70
4
71
3
72
12
73
8
40
0
40
0
40
0
40
0
40
0.106742997811873
40
0.241985171610081
40
0.454433221959723
40
0.861478427805749
40
1
40
1
40
1
40
1
41
1
10
10.5386751345948
20
38.1039075155887
30
0
41
1
10
10.5112364996943
20
38.1036661882911
30
0
41
1
10
10.4521607149727
20
38.1007480768789
30
0
41
1
10
10.3521427396671
20
38.082891717752
30
0
41
1
10
10.2280098701649
20
38.0388923492385
30
0
41
1
10
10.1524322703844
20
37.9841511057364
30
0
41
1
10
10.1139798301423
20
37.9432556809471
30
0
41
1
10
10.1056624327026
20
37.9326327035368
30
0
0
SPLINE
5
12C
100
AcDbEntity
8
SK1
62
256
6
ByLayer
370
18
48
1
60
0
100
AcDbSpline
70
4
71
3
72
16
73
12
40
0
40
0
40
0
40
0
40
0.182423135116527
40
0.274927839727614
40
0.367413177569415
40
0.458890948559807
40
0.550361533595071
40
0.644312928040867
40
0.738283918026196
40
0.869115426195095
40
1
40
1
40
1
40
1
41
1
10
-1.30710678118653
20
4.2812448052843
30
0
41
1
10
-1.39984244998149
20
3.78091146535471
30
0
41
1
10
-1.51936157709913
20
3.01487294384333
30
0
41
1
10
-1.64273765962471
20
1.9660273301255
30
0
41
1
10
-1.7082830887209
20
1.16601786654827
30
0
41
1
10
-1.74138123653412
20
0.361357969502696
30
0
41
1
10
-1.73997208525282
20
-0.450146638532749
30
0
41
1
10
-1.70175288596251
20
-1.26571156427087
30
0
41
1
10
-1.62194802782224
20
-2.18661124795037
30
0
41
1
10
-1.49131767885389
20
-3.19698451441523
30
0
41
1
10
-1.37296890675467
20
-3.92257879145559
30
0
41
1
10
-1.30710678118652
20
-4.28124408565431
30
0
0
SPLINE
5
12D
100
AcDbEntity
8
SK1
62
256
6
ByLayer
370
18
48
1
60
0
100
AcDbSpline
70
4
71
3
72
13
73
9
40
0
40
0
40
0
40
0
40
0.239445542786723
40
0.368345579137717
40
0.49998353965132
40
0.631624236626216
40
0.760531819312439
40
1
40
1
40
1
40
1
41
1
10
-2.20000000000002
20
-27.5251310239642
30
0
41
1
10
-2.19974657432782
20
-27.4990612076283
30
0
41
1
10
-2.19262861824384
20
-27.4615013564006
30
0
41
1
10
-2.16840047371738
20
-27.4146634928512
30
0
41
1
10
-2.14242236380985
20
-27.3827224774726
30
0
41
1
10
-2.11047804983015
20
-27.3567471642878
30
0
41
1
10
-2.06363514647053
20
-27.3325216086764
30
0
41
1
10
-2.02607195733614
20
-27.3254043572623
30
0
41
1
10
-2
20
-27.3251512819252
30
0
0
SPLINE
5
12E
100
AcDbEntity
8
1
62
256
6
ByLayer
370
18
48
1
60
0
100
AcDbSpline
70
4
71
3
72
11
73
7
40
0
40
0
40
0
40
0
40
0.238186910010718
40
0.505287395015069
40
0.779805119495606
40
1
40
1
40
1
40
1
41
1
10
49.2196817447844
20
35.5223109593215
30
0
41
1
10
49.2743951445759
20
35.5271552424763
30
0
41
1
10
49.3967102337753
20
35.5357459166716
30
0
41
1
10
49.6155564052412
20
35.5420165936245
30
0
41
1
10
49.8316968030459
20
35.5452698632005
30
0
41
1
10
49.9733382883094
20
35.5458939321155
30
0
41
1
10
50.036644098348
20
35.545861573466
30
0
0
SPLINE
5
12F
100
AcDbEntity
8
1
62
256
6
ByLayer
370
18
48
1
60
0
100
AcDbSpline
70
4
71
3
72
13
73
9
40
0
40
0
40
0
40
0
40
0.256179750755309
40
0.595676712017696
40
0.75660597345371
40
0.892417389204024
40
0.999476617244279
40
1
40
1
40
1
40
1
41
1
10
13.8943375672974
20
37.9326327035368
30
0
41
1
10
13.8795731187632
20
37.9524750905403
30
0
41
1
10
13.8329586549492
20
37.9964180156299
30
0
41
1
10
13.7468366019359
20
38.0492718146389
30
0
41
1
10
13.6371785823086
20
38.0847708831677
30
0
41
1
10
13.5490882044723
20
38.1005338786346
30
0
41
1
10
13.4882023638873
20
38.1039008327526
30
0
41
1
10
13.4614550056976
20
38.1039075148343
30
0
41
1
10
13.4613248654052
20
38.1039075155887
30
0
0
SPLINE
5
130
100
AcDbEntity
8
SK1
62
256
6
ByLayer
370
18
48
1
60
0
100
AcDbSpline
70
4
71
2
72
6
73
3
40
0
40
0
40
0
40
1
40
1
40
1
41
1
10
-3
20
27.500000000101
30
0
41
1
10
-24.7502365839479
20
26.9535583508891
30
0
41
1
10
-46.5004731678958
20
26.4071167016772
30
0
0
SPLINE
5
131
100
AcDbEntity
8
SK1
62
256
6
ByLayer
370
18
48
1
60
0
100
AcDbSpline
70
4
71
2
72
6
73
3
40
0
40
0
40
0
40
1
40
1
40
1
41
1
10
-2
20
-27.3251512819252
30
0
41
1
10
-1.20000000000001
20
-27.3251512819252
30
0
41
1
10
-0.400000000000023
20
-27.3251512819252
30
0
0
SPLINE
5
132
100
AcDbEntity
8
SK1
62
256
6
ByLayer
370
18
48
1
60
0
100
AcDbSpline
70
4
71
2
72
6
73
3
40
0
40
0
40
0
40
1
40
1
40
1
41
1
10
-48
20
-25.4903372289617
30
0
41
1
10
-47.2502396776065
20
-25.9486795491991
30
0
41
1
10
-46.5004793682357
20
-26.407021856008
30
0
0
SPLINE
5
133
100
AcDbEntity
8
SK1
62
256
6
ByLayer
370
18
48
1
60
0
100
AcDbSpline
70
4
71
2
72
6
73
3
40
0
40
0
40
0
40
1
40
1
40
1
41
1
10
-0.400000000000023
20
-27.3251512818931
30
0
41
1
10
-0.214629265596418
20
-27.3447858171552
30
0
41
1
10
-0.200000000000023
20
-27.5127479889025
30
0
0
SPLINE
5
134
100
AcDbEntity
8
SK1
62
256
6
ByLayer
370
18
48
1
60
0
100
AcDbSpline
70
4
71
2
72
6
73
3
40
0
40
0
40
0
40
1
40
1
40
1
41
1
10
-0.200000000000023
20
27.5127419688873
30
0
41
1
10
-0.214628642458859
20
27.3447861394389
30
0
41
1
10
-0.400000000000023
20
27.3251512814162
30
0
0
SPLINE
5
135
100
AcDbEntity
8
1
62
256
6
ByLayer
370
18
48
1
60
0
100
AcDbSpline
70
4
71
3
72
21
73
17
40
0
40
0
40
0
40
0
40
0.093061111698649
40
0.186173835297252
40
0.279155256049235
40
0.349747193720596
40
0.420583341035946
40
0.491278292488596
40
0.561676952226828
40
0.624547379712948
40
0.687592405669327
40
0.750416544726524
40
0.813280767043066
40
0.876362077175296
40
0.939285238458962
40
1
40
1
40
1
40
1
41
1
10
60
20
-10.7496054088753
30
0
41
1
10
59.6555113749168
20
-11.008635737001
30
0
41
1
10
58.9852681696315
20
-11.5433933446981
30
0
41
1
10
58.0302009073796
20
-12.391568354645
30
0
41
1
10
57.2167765509825
20
-13.223201337259
30
0
41
1
10
56.5398374906781
20
-14.0280515403085
30
0
41
1
10
55.9914299777475
20
-14.7951431270154
30
0
41
1
10
55.5216223099672
20
-15.6012645728809
30
0
41
1
10
55.1602846668845
20
-16.4145749354774
30
0
41
1
10
54.9146065786324
20
-17.2282450711191
30
0
41
1
10
54.7777206493032
20
-18.0306900583888
30
0
41
1
10
54.7465518197431
20
-18.8444411951069
30
0
41
1
10
54.8304742136487
20
-19.6585428276242
30
0
41
1
10
55.0171765458458
20
-20.462294473854
30
0
41
1
10
55.2965320466598
20
-21.2385491968465
30
0
41
1
10
55.5341511791437
20
-21.7354908640673
30
0
41
1
10
55.6642599447528
20
-21.9758269858173
30
0
0
SPLINE
5
136
100
AcDbEntity
8
SK1
62
256
6
ByLayer
370
18
48
1
60
0
100
AcDbSpline
70
4
71
3
72
16
73
12
40
0
40
0
40
0
40
0
40
0.484362133143251
40
0.672654027085994
40
0.809095459552826
40
0.877752097826651
40
0.901320737247328
40
0.925121024104531
40
0.94599539984818
40
0.971882270190054
40
1
40
1
40
1
40
1
41
1
10
-0.200000000000061
20
-6.36525122554052
30
0
41
1
10
-0.195581000847972
20
-6.2340777624133
30
0
41
1
10
-0.206768985511109
20
-6.05285286800125
30
0
41
1
10
-0.240576655278756
20
-5.83412744354334
30
0
41
1
10
-0.271009924337311
20
-5.73008961132426
30
0
41
1
10
-0.303428989102254
20
-5.67425820640277
30
0
41
1
10
-0.328239388270793
20
-5.6537617093485
30
0
41
1
10
-0.346004555757753
20
-5.64702125526236
30
0
41
1
10
-0.365212764831182
20
-5.64796013775803
30
0
41
1
10
-0.383525191647765
20
-5.65644060486822
30
0
41
1
10
-0.394703386845375
20
-5.66509105982019
30
0
41
1
10
-0.400000000000064
20
-5.67060688490521
30
0
0
SPLINE
5
137
100
AcDbEntity
8
SK1
62
256
6
ByLayer
370
18
48
1
60
0
100
AcDbSpline
70
4
71
2
72
6
73
3
40
0
40
0
40
0
40
1
40
1
40
1
41
1
10
-2.19488134370937
20
27.52022738313
30
0
41
1
10
-2.59744067185469
20
27.5101136916156
30
0
41
1
10
-3
20
27.500000000101
30
0
0
LINE
5
70
100
AcDbEntity
8
SK1
62
256
6
ByLayer
370
18
48
1
60
0
100
AcDbLine
10
71.445727
20
-1.24167
30
0
11
82
21
-1.24167
31
0
39
0
210
0
220
0
230
1
0
LINE
5
72
100
AcDbEntity
8
SK1
62
256
6
ByLayer
370
18
48
1
60
0
100
AcDbLine
10
82.6
20
25
30
0
11
82
21
25
31
0
39
0
210
0
220
0
230
1
0
LINE
5
73
100
AcDbEntity
8
SK1
62
256
6
ByLayer
370
18
48
1
60
0
100
AcDbLine
10
71.862267
20
13
30
0
11
82
21
13
31
0
39
0
210
0
220
0
230
1
0
LINE
5
74
100
AcDbEntity
8
1
62
256
6
ByLayer
370
18
48
1
60
0
100
AcDbLine
10
32.449409
20
35.75
30
0
11
30
21
39.9925
31
0
39
0
210
0
220
0
230
1
0
LINE
5
76
100
AcDbEntity
8
1
62
256
6
ByLayer
370
18
48
1
60
0
100
AcDbLine
10
30
20
-39.9925
30
0
11
32.449409
21
-35.75
31
0
39
0
210
0
220
0
230
1
0
LINE
5
77
100
AcDbEntity
8
1
62
256
6
ByLayer
370
18
48
1
60
0
100
AcDbLine
10
30
20
-39.9925
30
0
11
30
21
39.9925
31
0
39
0
210
0
220
0
230
1
0
LINE
5
78
100
AcDbEntity
8
SK1
62
256
6
ByLayer
370
18
48
1
60
0
100
AcDbLine
10
82
20
10.75833
30
0
11
82
21
25
31
0
39
0
210
0
220
0
230
1
0
LINE
5
79
100
AcDbEntity
8
1
62
256
6
ByLayer
370
18
48
1
60
0
100
AcDbLine
10
69.356045
20
26.075908
30
0
11
61.5
21
29.573645
31
0
39
0
210
0
220
0
230
1
0
LINE
5
7A
100
AcDbEntity
8
1
62
256
6
ByLayer
370
18
48
1
60
0
100
AcDbLine
10
54
20
36.895594
30
0
11
54
21
37.092305
31
0
39
0
210
0
220
0
230
1
0
LINE
5
7B
100
AcDbEntity
8
SK1
62
256
6
ByLayer
370
18
48
1
60
0
100
AcDbLine
10
89.8
20
-13.32583
30
0
11
82.6
21
-13.32583
31
0
39
0
210
0
220
0
230
1
0
LINE
5
7C
100
AcDbEntity
8
SK1
62
256
6
ByLayer
370
18
48
1
60
0
100
AcDbLine
10
69.489384
20
-16.205864
30
0
11
69.356045
21
-17.248309
31
0
39
0
210
0
220
0
230
1
0
LINE
5
7D
100
AcDbEntity
8
SK1
62
256
6
ByLayer
370
18
48
1
60
0
100
AcDbLine
10
71
20
38.147592
30
0
11
62
21
37.675922
31
0
39
0
210
0
220
0
230
1
0
LINE
5
7E
100
AcDbEntity
8
1
62
256
6
ByLayer
370
18
48
1
60
0
100
AcDbLine
10
52.657695
20
35.545862
30
0
11
52.657695
21
35.75
31
0
39
0
210
0
220
0
230
1
0
LINE
5
7F
100
AcDbEntity
8
SK1
62
256
6
ByLayer
370
18
48
1
60
0
100
AcDbLine
10
-2.2
20
-12.864564
30
0
11
-2.2
21
12.864565
31
0
39
0
210
0
220
0
230
1
0
LINE
5
80
100
AcDbEntity
8
1
62
256
6
ByLayer
370
18
48
1
60
0
100
AcDbLine
10
61.5
20
30.442047
30
0
11
61.5
21
37.649718
31
0
39
0
210
0
220
0
230
1
0
LINE
5
81
100
AcDbEntity
8
1
62
256
6
ByLayer
370
18
48
1
60
0
100
AcDbLine
10
13.894338
20
12.669469
30
0
11
13.894338
21
37.932633
31
0
39
0
210
0
220
0
230
1
0
LINE
5
82
100
AcDbEntity
8
1
62
256
6
ByLayer
370
18
48
1
60
0
100
AcDbLine
10
52.657695
20
-21.076818
30
0
11
52.657695
21
18.740062
31
0
39
0
210
0
220
0
230
1
0
LINE
5
83
100
AcDbEntity
8
1
62
256
6
ByLayer
370
18
48
1
60
0
100
AcDbLine
10
60
20
-10.749605
30
0
11
60
21
11.761641
31
0
39
0
210
0
220
0
230
1
0
LINE
5
84
100
AcDbEntity
8
SK1
62
256
6
ByLayer
370
18
48
1
60
0
100
AcDbLine
10
-2.2
20
12.864565
30
0
11
-2.2
21
24.989566
31
0
39
0
210
0
220
0
230
1
0
LINE
5
85
100
AcDbEntity
8
1
62
256
6
ByLayer
370
18
48
1
60
0
100
AcDbLine
10
69.489384
20
25.457543
30
0
11
70.328847
21
18.486893
31
0
39
0
210
0
220
0
230
1
0
LINE
5
86
100
AcDbEntity
8
SK1
62
256
6
ByLayer
370
18
48
1
60
0
100
AcDbLine
10
-1.307107
20
4.281245
30
0
11
-1.307107
21
-4.281244
31
0
39
0
210
0
220
0
230
1
0
LINE
5
87
100
AcDbEntity
8
1
62
256
6
ByLayer
370
18
48
1
60
0
100
AcDbLine
10
10.538675
20
12.14464
30
0
11
10.538675
21
38.103908
31
0
39
0
210
0
220
0
230
1
0
LINE
5
88
100
AcDbEntity
8
SK1
62
256
6
ByLayer
370
18
48
1
60
0
100
AcDbLine
10
92
20
4.469352
30
0
11
90.6
21
4.84448
31
0
39
0
210
0
220
0
230
1
0
LINE
5
89
100
AcDbEntity
8
SK1
62
256
6
ByLayer
370
18
48
1
60
0
100
AcDbLine
10
82.6
20
-26.19083
30
0
11
89.8
21
-26.19083
31
0
39
0
210
0
220
0
230
1
0
LINE
5
8A
100
AcDbEntity
8
SK1
62
256
6
ByLayer
370
18
48
1
60
0
100
AcDbLine
10
82
20
6.75833
30
0
11
70.482301
21
6.75833
31
0
39
0
210
0
220
0
230
1
0
LINE
5
8B
100
AcDbEntity
8
SK1
62
256
6
ByLayer
370
18
48
1
60
0
100
AcDbLine
10
82
20
-27.75833
30
0
11
82.6
21
-27.75833
31
0
39
0
210
0
220
0
230
1
0
LINE
5
8C
100
AcDbEntity
8
1
62
256
6
ByLayer
370
18
48
1
60
0
100
AcDbLine
10
32.449409
20
-35.75
30
0
11
32.449409
21
35.75
31
0
39
0
210
0
220
0
230
1
0
LINE
5
8D
100
AcDbEntity
8
SK1
62
256
6
ByLayer
370
18
48
1
60
0
100
AcDbLine
10
89.8
20
-3.67417
30
0
11
89.8
21
9.19083
31
0
39
0
210
0
220
0
230
1
0
LINE
5
8E
100
AcDbEntity
8
SK1
62
256
6
ByLayer
370
18
48
1
60
0
100
AcDbLine
10
82.6
20
-5.24167
30
0
11
82.6
21
10.75833
31
0
39
0
210
0
220
0
230
1
0
LINE
5
8F
100
AcDbEntity
8
SK1
62
256
6
ByLayer
370
18
48
1
60
0
100
AcDbLine
10
71
20
12.913842
30
0
11
71
21
38.147592
31
0
39
0
210
0
220
0
230
1
0
LINE
5
90
100
AcDbEntity
8
SK1
62
256
6
ByLayer
370
18
48
1
60
0
100
AcDbLine
10
69.356045
20
-17.248309
30
0
11
62
21
-18.88587
31
0
39
0
210
0
220
0
230
1
0
LINE
5
91
100
AcDbEntity
8
1
62
256
6
ByLayer
370
18
48
1
60
0
100
AcDbLine
10
50.036644
20
35.545862
30
0
11
61.5
21
30.442047
31
0
39
0
210
0
220
0
230
1
0
LINE
5
92
100
AcDbEntity
8
1
62
256
6
ByLayer
370
18
48
1
60
0
100
AcDbLine
10
52.657695
20
-35.75
30
0
11
52.657695
21
-35.735812
31
0
39
0
210
0
220
0
230
1
0
LINE
5
93
100
AcDbEntity
8
1
62
256
6
ByLayer
370
18
48
1
60
0
100
AcDbLine
10
10.105662
20
-37.932633
30
0
11
10.105662
21
-12.669469
31
0
39
0
210
0
220
0
230
1
0
LINE
5
94
100
AcDbEntity
8
1
62
256
6
ByLayer
370
18
48
1
60
0
100
AcDbLine
10
71.35349
20
-13.535259
30
0
11
71
21
-13.877644
31
0
39
0
210
0
220
0
230
1
0
LINE
5
95
100
AcDbEntity
8
1
62
256
6
ByLayer
370
18
48
1
60
0
100
AcDbLine
10
0
20
-39.6925
30
0
11
0
21
39.6925
31
0
39
0
210
0
220
0
230
1
0
LINE
5
96
100
AcDbEntity
8
SK1
62
256
6
ByLayer
370
18
48
1
60
0
100
AcDbLine
10
71.862267
20
-12.977782
30
0
11
71.862267
21
-1.24167
31
0
39
0
210
0
220
0
230
1
0
LINE
5
97
100
AcDbEntity
8
1
62
256
6
ByLayer
370
18
48
1
60
0
100
AcDbLine
10
61.5
20
30.054761
30
0
11
49.219682
21
35.522311
31
0
39
0
210
0
220
0
230
1
0
LINE
5
98
100
AcDbEntity
8
SK1
62
256
6
ByLayer
370
18
48
1
60
0
100
AcDbLine
10
82.6
20
10.75833
30
0
11
82
21
10.75833
31
0
39
0
210
0
220
0
230
1
0
LINE
5
99
100
AcDbEntity
8
SK1
62
256
6
ByLayer
370
18
48
1
60
0
100
AcDbLine
10
82.6
20
-27.75833
30
0
11
82.6
21
-11.75833
31
0
39
0
210
0
220
0
230
1
0
LINE
5
9A
100
AcDbEntity
8
SK1
62
256
6
ByLayer
370
18
48
1
60
0
100
AcDbLine
10
82
20
21
30
0
11
71.862267
21
21
31
0
39
0
210
0
220
0
230
1
0
LINE
5
9B
100
AcDbEntity
8
SK1
62
256
6
ByLayer
370
18
48
1
60
0
100
AcDbLine
10
82.6
20
-3.67417
30
0
11
89.8
21
-3.67417
31
0
39
0
210
0
220
0
230
1
0
LINE
5
9C
100
AcDbEntity
8
SK1
62
256
6
ByLayer
370
18
48
1
60
0
100
AcDbLine
10
89.8
20
23.4325
30
0
11
82.6
21
23.4325
31
0
39
0
210
0
220
0
230
1
0
LINE
5
9D
100
AcDbEntity
8
SK1
62
256
6
ByLayer
370
18
48
1
60
0
100
AcDbLine
10
82
20
-27.75833
30
0
11
82
21
-11.75833
31
0
39
0
210
0
220
0
230
1
0
LINE
5
9E
100
AcDbEntity
8
SK1
62
256
6
ByLayer
370
18
48
1
60
0
100
AcDbLine
10
69.356045
20
-17.248309
30
0
11
69.356069
21
-36.427087
31
0
39
0
210
0
220
0
230
1
0
LINE
5
9F
100
AcDbEntity
8
1
62
256
6
ByLayer
370
18
48
1
60
0
100
AcDbLine
10
10.538675
20
-38.103908
30
0
11
10.538675
21
-12.14464
31
0
39
0
210
0
220
0
230
1
0
LINE
5
A0
100
AcDbEntity
8
1
62
256
6
ByLayer
370
18
48
1
60
0
100
AcDbLine
10
10.105662
20
12.669469
30
0
11
10.105662
21
37.932633
31
0
39
0
210
0
220
0
230
1
0
LINE
5
A1
100
AcDbEntity
8
SK1
62
256
6
ByLayer
370
18
48
1
60
0
100
AcDbLine
10
71.862267
20
38.063412
30
0
11
71.862267
21
6.75833
31
0
39
0
210
0
220
0
230
1
0
LINE
5
A2
100
AcDbEntity
8
1
62
256
6
ByLayer
370
18
48
1
60
0
100
AcDbLine
10
13.894338
20
-37.932633
30
0
11
13.894338
21
-12.669469
31
0
39
0
210
0
220
0
230
1
0
LINE
5
A3
100
AcDbEntity
8
SK1
62
256
6
ByLayer
370
18
48
1
60
0
100
AcDbLine
10
71.862267
20
-15.75833
30
0
11
71.862267
21
-12.977782
31
0
39
0
210
0
220
0
230
1
0
LINE
5
A4
100
AcDbEntity
8
SK1
62
256
6
ByLayer
370
18
48
1
60
0
100
AcDbLine
10
90
20
-5.00525
30
0
11
90
21
-3.648766
31
0
39
0
210
0
220
0
230
1
0
LINE
5
A5
100
AcDbEntity
8
1
62
256
6
ByLayer
370
18
48
1
60
0
100
AcDbLine
10
55.66426
20
-21.975827
30
0
11
61.5
21
-22.128746
31
0
39
0
210
0
220
0
230
1
0
LINE
5
A6
100
AcDbEntity
8
SK1
62
256
6
ByLayer
370
18
48
1
60
0
100
AcDbLine
10
82
20
-5.24167
30
0
11
82
21
10.75833
31
0
39
0
210
0
220
0
230
1
0
LINE
5
A7
100
AcDbEntity
8
SK1
62
256
6
ByLayer
370
18
48
1
60
0
100
AcDbLine
10
-3
20
-27.5
30
0
11
-3
21
27.5
31
0
39
0
210
0
220
0
230
1
0
LINE
5
A8
100
AcDbEntity
8
SK1
62
256
6
ByLayer
370
18
48
1
60
0
100
AcDbLine
10
82
20
-15.75833
30
0
11
71.445727
21
-15.75833
31
0
39
0
210
0
220
0
230
1
0
LINE
5
A9
100
AcDbEntity
8
SK1
62
256
6
ByLayer
370
18
48
1
60
0
100
AcDbLine
10
82.6
20
10.75833
30
0
11
82.6
21
25
31
0
39
0
210
0
220
0
230
1
0
LINE
5
AA
100
AcDbEntity
8
SK1
62
256
6
ByLayer
370
18
48
1
60
0
100
AcDbLine
10
71.862267
20
-5.00525
30
0
11
82
21
-5.00525
31
0
39
0
210
0
220
0
230
1
0
LINE
5
AB
100
AcDbEntity
8
SK1
62
256
6
ByLayer
370
18
48
1
60
0
100
AcDbLine
10
92
20
4.469352
30
0
11
92
21
-4.469352
31
0
39
0
210
0
220
0
230
1
0
LINE
5
AC
100
AcDbEntity
8
SK1
62
256
6
ByLayer
370
18
48
1
60
0
100
AcDbLine
10
70.482301
20
-23.75833
30
0
11
82
21
-23.75833
31
0
39
0
210
0
220
0
230
1
0
LINE
5
AD
100
AcDbEntity
8
SK1
62
256
6
ByLayer
370
18
48
1
60
0
100
AcDbLine
10
82.6
20
10.5675
30
0
11
89.8
21
10.5675
31
0
39
0
210
0
220
0
230
1
0
LINE
5
AE
100
AcDbEntity
8
SK1
62
256
6
ByLayer
370
18
48
1
60
0
100
AcDbLine
10
82.6
20
-11.75833
30
0
11
82
21
-11.75833
31
0
39
0
210
0
220
0
230
1
0
LINE
5
AF
100
AcDbEntity
8
SK1
62
256
6
ByLayer
370
18
48
1
60
0
100
AcDbLine
10
90.6
20
8.39083
30
0
11
90.6
21
-2.87417
31
0
39
0
210
0
220
0
230
1
0
LINE
5
B0
100
AcDbEntity
8
1
62
256
6
ByLayer
370
18
48
1
60
0
100
AcDbLine
10
61.5
20
29.573645
30
0
11
61.5
21
30.054761
31
0
39
0
210
0
220
0
230
1
0
LINE
5
B1
100
AcDbEntity
8
1
62
256
6
ByLayer
370
18
48
1
60
0
100
AcDbLine
10
54.762522
20
37.296622
30
0
11
55.66426
21
37.34388
31
0
39
0
210
0
220
0
230
1
0
LINE
5
B2
100
AcDbEntity
8
SK1
62
256
6
ByLayer
370
18
48
1
60
0
100
AcDbLine
10
-0.4
20
27.32511
30
0
11
-0.4
21
5.670607
31
0
39
0
210
0
220
0
230
1
0
LINE
5
B3
100
AcDbEntity
8
1
62
256
6
ByLayer
370
18
48
1
60
0
100
AcDbLine
10
54
20
37.092305
30
0
11
52.657695
21
35.75
31
0
39
0
210
0
220
0
230
1
0
LINE
5
B4
100
AcDbEntity
8
1
62
256
6
ByLayer
370
18
48
1
60
0
100
AcDbLine
10
52.657695
20
35.75
30
0
11
32.449409
21
35.75
31
0
39
0
210
0
220
0
230
1
0
LINE
5
B5
100
AcDbEntity
8
1
62
256
6
ByLayer
370
18
48
1
60
0
100
AcDbLine
10
61.5
20
30.442047
30
0
11
61.5
21
30.054761
31
0
39
0
210
0
220
0
230
1
0
LINE
5
B6
100
AcDbEntity
8
1
62
256
6
ByLayer
370
18
48
1
60
0
100
AcDbLine
10
32.449409
20
-35.75
30
0
11
52.657695
21
-35.75
31
0
39
0
210
0
220
0
230
1
0
LINE
5
B7
100
AcDbEntity
8
1
62
256
6
ByLayer
370
18
48
1
60
0
100
AcDbLine
10
69.489384
20
25.457543
30
0
11
69.356045
21
26.075908
31
0
39
0
210
0
220
0
230
1
0
LINE
5
B8
100
AcDbEntity
8
1
62
256
6
ByLayer
370
18
48
1
60
0
100
AcDbLine
10
61.5
20
-17.984415
30
0
11
62
21
-17.873108
31
0
39
0
210
0
220
0
230
1
0
LINE
5
B9
100
AcDbEntity
8
SK1
62
256
6
ByLayer
370
18
48
1
60
0
100
AcDbLine
10
89.8
20
-26.19083
30
0
11
89.8
21
-13.32583
31
0
39
0
210
0
220
0
230
1
0
LINE
5
BA
100
AcDbEntity
8
1
62
256
6
ByLayer
370
18
48
1
60
0
100
AcDbLine
10
10.538675
20
-12.14464
30
0
11
13.461325
21
-12.14464
31
0
39
0
210
0
220
0
230
1
0
LINE
5
BB
100
AcDbEntity
8
SK1
62
256
6
ByLayer
370
18
48
1
60
0
100
AcDbLine
10
90.6
20
22.6325
30
0
11
90.6
21
11.3675
31
0
39
0
210
0
220
0
230
1
0
LINE
5
BC
100
AcDbEntity
8
1
62
256
6
ByLayer
370
18
48
1
60
0
100
AcDbLine
10
54.7652
20
37.29734
30
0
11
54
21
37.092305
31
0
39
0
210
0
220
0
230
1
0
LINE
5
BD
100
AcDbEntity
8
1
62
256
6
ByLayer
370
18
48
1
60
0
100
AcDbLine
10
71
20
-13.877644
30
0
11
61.5
21
-13.628707
31
0
39
0
210
0
220
0
230
1
0
LINE
5
BE
100
AcDbEntity
8
1
62
256
6
ByLayer
370
18
48
1
60
0
100
AcDbLine
10
13.461325
20
-38.103908
30
0
11
10.538675
21
-38.103908
31
0
39
0
210
0
220
0
230
1
0
LINE
5
BF
100
AcDbEntity
8
SK1
62
256
6
ByLayer
370
18
48
1
60
0
100
AcDbLine
10
71.35349
20
38.166118
30
0
11
71
21
38.147592
31
0
39
0
210
0
220
0
230
1
0
LINE
5
C0
100
AcDbEntity
8
SK1
62
256
6
ByLayer
370
18
48
1
60
0
100
AcDbLine
10
71.862267
20
-25.08563
30
0
11
71.862267
21
-23.75833
31
0
39
0
210
0
220
0
230
1
0
LINE
5
C1
100
AcDbEntity
8
1
62
256
6
ByLayer
370
18
48
1
60
0
100
AcDbLine
10
0.3
20
39.9925
30
0
11
0
21
39.6925
31
0
39
0
210
0
220
0
230
1
0
LINE
5
C2
100
AcDbEntity
8
1
62
256
6
ByLayer
370
18
48
1
60
0
100
AcDbLine
10
50.036644
20
35.545862
30
0
11
52.657695
21
35.545862
31
0
39
0
210
0
220
0
230
1
0
LINE
5
C3
100
AcDbEntity
8
1
62
256
6
ByLayer
370
18
48
1
60
0
100
AcDbLine
10
52.657695
20
-35.75
30
0
11
53.051893
21
-36.144198
31
0
39
0
210
0
220
0
230
1
0
LINE
5
C4
100
AcDbEntity
8
1
62
256
6
ByLayer
370
18
48
1
60
0
100
AcDbLine
10
69.356045
20
26.075908
30
0
11
69.356069
21
6.896829
31
0
39
0
210
0
220
0
230
1
0
LINE
5
C5
100
AcDbEntity
8
1
62
256
6
ByLayer
370
18
48
1
60
0
100
AcDbLine
10
13.461325
20
-38.103908
30
0
11
13.461325
21
-12.14464
31
0
39
0
210
0
220
0
230
1
0
LINE
5
C6
100
AcDbEntity
8
1
62
256
6
ByLayer
370
18
48
1
60
0
100
AcDbLine
10
49.990086
20
-21.07834
30
0
11
49.219682
21
-21.249843
31
0
39
0
210
0
220
0
230
1
0
LINE
5
C7
100
AcDbEntity
8
1
62
256
6
ByLayer
370
18
48
1
60
0
100
AcDbLine
10
13.461325
20
12.14464
30
0
11
10.538675
21
12.14464
31
0
39
0
210
0
220
0
230
1
0
LINE
5
C8
100
AcDbEntity
8
SK1
62
256
6
ByLayer
370
18
48
1
60
0
100
AcDbLine
10
89.8
20
9.19083
30
0
11
82.6
21
9.19083
31
0
39
0
210
0
220
0
230
1
0
LINE
5
C9
100
AcDbEntity
8
SK1
62
256
6
ByLayer
370
18
48
1
60
0
100
AcDbLine
10
82.6
20
-5.00525
30
0
11
90
21
-5.00525
31
0
39
0
210
0
220
0
230
1
0
LINE
5
CA
100
AcDbEntity
8
1
62
256
6
ByLayer
370
18
48
1
60
0
100
AcDbLine
10
10.538675
20
38.103908
30
0
11
13.461325
21
38.103908
31
0
39
0
210
0
220
0
230
1
0
LINE
5
CB
100
AcDbEntity
8
1
62
256
6
ByLayer
370
18
48
1
60
0
100
AcDbLine
10
55.66426
20
37.34388
30
0
11
61.5
21
37.649718
31
0
39
0
210
0
220
0
230
1
0
LINE
5
CC
100
AcDbEntity
8
SK1
62
256
6
ByLayer
370
18
48
1
60
0
100
AcDbLine
10
90
20
-5.00525
30
0
11
92
21
-4.469352
31
0
39
0
210
0
220
0
230
1
0
LINE
5
CD
100
AcDbEntity
8
SK1
62
256
6
ByLayer
370
18
48
1
60
0
100
AcDbLine
10
-48
20
25.499074
30
0
11
-48
21
-25.498396
31
0
39
0
210
0
220
0
230
1
0
LINE
5
CE
100
AcDbEntity
8
1
62
256
6
ByLayer
370
18
48
1
60
0
100
AcDbLine
10
61.5
20
-13.628707
30
0
11
61.5
21
-22.128746
31
0
39
0
210
0
220
0
230
1
0
LINE
5
CF
100
AcDbEntity
8
SK1
62
256
6
ByLayer
370
18
48
1
60
0
100
AcDbLine
10
-0.4
20
-5.670607
30
0
11
-0.4
21
-27.325111
31
0
39
0
210
0
220
0
230
1
0
LINE
5
D0
100
AcDbEntity
8
SK1
62
256
6
ByLayer
370
18
48
1
60
0
100
AcDbLine
10
-0.2
20
28.683485
30
0
11
-0.2
21
6.365252
31
0
39
0
210
0
220
0
230
1
0
LINE
5
D1
100
AcDbEntity
8
1
62
256
6
ByLayer
370
18
48
1
60
0
100
AcDbLine
10
13.461325
20
12.14464
30
0
11
13.461325
21
38.103908
31
0
39
0
210
0
220
0
230
1
0
LINE
5
D2
100
AcDbEntity
8
1
62
256
6
ByLayer
370
18
48
1
60
0
100
AcDbLine
10
0.3
20
-39.9925
30
0
11
30
21
-39.9925
31
0
39
0
210
0
220
0
230
1
0
LINE
5
D3
100
AcDbEntity
8
SK1
62
256
6
ByLayer
370
18
48
1
60
0
100
AcDbLine
10
90.6
20
-14.12583
30
0
11
90.6
21
-25.39083
31
0
39
0
210
0
220
0
230
1
0
LINE
5
D4
100
AcDbEntity
8
SK1
62
256
6
ByLayer
370
18
48
1
60
0
100
AcDbLine
10
82
20
-5.24167
30
0
11
82.6
21
-5.24167
31
0
39
0
210
0
220
0
230
1
0
LINE
5
D5
100
AcDbEntity
8
SK1
62
256
6
ByLayer
370
18
48
1
60
0
100
AcDbLine
10
89.8
20
10.5675
30
0
11
89.8
21
23.4325
31
0
39
0
210
0
220
0
230
1
0
LINE
5
D6
100
AcDbEntity
8
1
62
256
6
ByLayer
370
18
48
1
60
0
100
AcDbLine
10
30
20
39.9925
30
0
11
0.3
21
39.9925
31
0
39
0
210
0
220
0
230
1
0
LINE
5
D7
100
AcDbEntity
8
1
62
256
6
ByLayer
370
18
48
1
60
0
100
AcDbLine
10
0.3
20
39.9925
30
0
11
0.3
21
-39.9925
31
0
39
0
210
0
220
0
230
1
0
LINE
5
D8
100
AcDbEntity
8
SK1
62
256
6
ByLayer
370
18
48
1
60
0
100
AcDbLine
10
-2
20
27.325145
30
0
11
-2
21
-27.325145
31
0
39
0
210
0
220
0
230
1
0
LINE
5
D9
100
AcDbEntity
8
SK1
62
256
6
ByLayer
370
18
48
1
60
0
100
AcDbLine
10
-46.500473
20
26.407117
30
0
11
-46.500473
21
-26.407117
31
0
39
0
210
0
220
0
230
1
0
LINE
5
DA
100
AcDbEntity
8
SK1
62
256
6
ByLayer
370
18
48
1
60
0
100
AcDbLine
10
69.489384
20
-16.205864
30
0
11
69.944467
21
-14.316429
31
0
39
0
210
0
220
0
230
1
0
LINE
5
DB
100
AcDbEntity
8
1
62
256
6
ByLayer
370
18
48
1
60
0
100
AcDbLine
10
50.036644
20
-21.076818
30
0
11
52.657695
21
-21.076818
31
0
39
0
210
0
220
0
230
1
0
LINE
5
DC
100
AcDbEntity
8
1
62
256
6
ByLayer
370
18
48
1
60
0
100
AcDbLine
10
0
20
-39.6925
30
0
11
0.3
21
-39.9925
31
0
39
0
210
0
220
0
230
1
0
LINE
5
DD
100
AcDbEntity
8
1
62
256
6
ByLayer
370
18
48
1
60
0
100
AcDbLine
10
54
20
-21.751684
30
0
11
54
21
16.555913
31
0
39
0
210
0
220
0
230
1
0
LINE
5
DE
100
AcDbEntity
8
SK1
62
256
6
ByLayer
370
18
48
1
60
0
100
AcDbLine
10
-0.2
20
-6.365251
30
0
11
-0.2
21
-28.683485
31
0
39
0
210
0
220
0
230
1
0
LINE
5
DF
100
AcDbEntity
8
SK1
62
256
6
ByLayer
370
18
48
1
60
0
100
AcDbLine
10
-2.2
20
-24.989567
30
0
11
-2.2
21
-12.864564
31
0
39
0
210
0
220
0
230
1
0
LINE
5
E0
100
AcDbEntity
8
4
62
256
6
ByLayer
370
13
48
0.05
60
0
100
AcDbLine
10
0
20
0
30
0
11
72
21
0
31
0
39
0
210
0
220
0
230
1
0
LINE
5
E2
100
AcDbEntity
8
SK4
62
256
6
ByLayer
370
13
48
0.05
60
0
100
AcDbLine
10
-56.128812
20
0.000339
30
0
11
100.315008
21
0.000339
31
0
39
0
210
0
220
0
230
1
0
LINE
5
E4
100
AcDbEntity
8
1
62
256
6
ByLayer
370
18
48
1
60
0
100
AcDbLine
10
62
20
37.675922
30
0
11
61.5
21
37.649718
31
0
39
0
210
0
220
0
230
1
0
LINE
5
E5
100
AcDbEntity
8
SK1
62
256
6
ByLayer
370
18
48
1
60
0
100
AcDbLine
10
70.328847
20
18.486893
30
0
11
71.741297
21
6.75833
31
0
39
0
210
0
220
0
230
1
0
LINE
5
E6
100
AcDbEntity
8
SK1
62
256
6
ByLayer
370
18
48
1
60
0
100
AcDbLine
10
62
20
-17.873108
30
0
11
69.489384
21
-16.205864
31
0
39
0
210
0
220
0
230
1
0
LINE
5
E7
100
AcDbEntity
8
1
62
256
6
ByLayer
370
18
48
1
60
0
100
AcDbLine
10
62
20
-18.88587
30
0
11
61.5
21
-18.997177
31
0
39
0
210
0
220
0
230
1
0
LINE
5
E8
100
AcDbEntity
8
1
62
256
6
ByLayer
370
18
48
1
60
0
100
AcDbLine
10
69.944467
20
-14.316429
30
0
11
70.056108
21
-13.85291
31
0
39
0
210
0
220
0
230
1
0
LINE
5
E9
100
AcDbEntity
8
81
62
256
6
ByLayer
370
13
48
1
60
0
100
AcDbLine
10
72
20
0
30
0
11
98.4819
21
0
31
0
39
0
210
0
220
0
230
1
0
LINE
5
EA
100
AcDbEntity
8
80
62
256
6
ByLayer
370
13
48
1
60
0
100
AcDbLine
10
0
20
0
30
0
11
-54.9974
21
0
31
0
39
0
210
0
220
0
230
1
0
MTEXT
5
138
100
AcDbEntity
8
SK6
62
256
6
ByLayer
370
18
48
1
60
0
100
AcDbMText
10
6.299483
20
-18.265637
30
0
210
0
220
0
230
1
1
\W0.7459;C8-R820E-AA3072B
40
3
41
0
44
1.084337
50
90
71
7
72
5
7
iso_b_vert
0
DIMENSION
5
147
100
AcDbEntity
8
SK2
62
256
6
ByLayer
370
13
48
1
60
0
100
AcDbDimension
2
DimnDraft3D1
10
-68.097843
20
-39.9925
30
0
11
-67.597843
21
-2.889474
31
0
70
33
71
5
72
1
41
1
210
0
220
0
230
1
3
Standard
100
AcDbAlignedDimension
13
-1.7
23
39.9925
33
0
14
-1.7
24
-39.9925
34
0
1001
ACAD
1000
DSTYLE
1002
{
1070
   279
1070
     0
1070
    74
1070
     0
1070
   173
1070
     1
1070
   340
1005
139
1070
   271
1070
     0
1070
   272
1070
     3
1070
    77
1070
     1
1070
    73
1070
     0
1070
   171
1070
     4
1070
   274
1070
     4
1070
   177
1070
     7
1070
   176
1070
     7
1070
   178
1070
     7
1070
    78
1070
     8
1070
    41
1041
3.175
1070
   147
1041
1.5
1070
    42
1041
2.0
1070
    44
1041
2.0
1070
   140
1041
3.0
1070
   343
1005
0
1070
   344
1005
0
1002
}
0
DIMENSION
5
152
100
AcDbEntity
8
2
62
256
6
ByLayer
370
13
48
1
60
0
100
AcDbDimension
2
DimnDraft3D2
10
72
20
73.5
30
0
11
32.557895
21
73.5
31
0
70
32
71
5
72
1
41
1
210
0
220
0
230
1
3
Standard
100
AcDbAlignedDimension
13
0
23
41.6925
33
0
14
72
24
2
34
0
50
0
100
AcDbRotatedDimension
1001
ACAD
1000
DSTYLE
1002
{
1070
   279
1070
     0
1070
   172
1070
     1
1070
   173
1070
     1
1070
   340
1005
139
1070
   271
1070
     1
1070
   272
1070
     3
1070
    77
1070
     1
1070
    73
1070
     0
1070
   171
1070
     4
1070
   274
1070
     4
1070
   177
1070
     7
1070
   176
1070
     7
1070
   178
1070
     7
1070
    41
1041
3.175
1070
   147
1041
1.5
1070
    42
1041
2.0
1070
    44
1041
2.0
1070
   140
1041
3.0
1070
   343
1005
0
1070
   344
1005
0
1002
}
0
ENDSEC
0
SECTION
2
OBJECTS
0
DICTIONARY
5
1bf
330
0
100
AcDbDictionary
280
0
281
1
3
ACAD_GROUP
350
1c0
3
ACAD_GROUP
350
1c1
3
ACAD_MLINESTYLE
350
1c2
0
DICTIONARY
5
1c0
330
0
100
AcDbDictionary
280
0
281
1
0
DICTIONARY
5
1c1
330
0
100
AcDbDictionary
280
0
281
1
3
<200932442MOD000_00>
350
15B
0
DICTIONARY
5
1c2
330
0
100
AcDbDictionary
280
0
281
1
3
Standard
350
18
0
GROUP
5
15B
330
1c1
100
AcDbGroup
300

70
0
71
1
340
6C
340
6E
340
70
340
72
340
73
340
74
340
76
340
77
340
78
340
79
340
7A
340
7B
340
7C
340
7D
340
7E
340
7F
340
80
340
81
340
82
340
83
340
84
340
85
340
86
340
87
340
88
340
89
340
8A
340
8B
340
8C
340
8D
340
8E
340
8F
340
90
340
91
340
92
340
93
340
94
340
95
340
96
340
97
340
98
340
99
340
9A
340
9B
340
9C
340
9D
340
9E
340
9F
340
A0
340
A1
340
A2
340
A3
340
A4
340
A5
340
A6
340
A7
340
A8
340
A9
340
AA
340
AB
340
AC
340
AD
340
AE
340
AF
340
B0
340
B1
340
B2
340
B3
340
B4
340
B5
340
B6
340
B7
340
B8
340
B9
340
BA
340
BB
340
BC
340
BD
340
BE
340
BF
340
C0
340
C1
340
C2
340
C3
340
C4
340
C5
340
C6
340
C7
340
C8
340
C9
340
CA
340
CB
340
CC
340
CD
340
CE
340
CF
340
D0
340
D1
340
D2
340
D3
340
D4
340
D5
340
D6
340
D7
340
D8
340
D9
340
DA
340
DB
340
DC
340
DD
340
DE
340
DF
340
E0
340
E2
340
E4
340
E5
340
E6
340
E7
340
E8
340
E9
340
EA
340
EB
340
EC
340
ED
340
EE
340
EF
340
F0
340
F1
340
F2
340
F3
340
F4
340
F5
340
F6
340
F7
340
F8
340
F9
340
FA
340
FB
340
FC
340
FD
340
FE
340
FF
340
100
340
101
340
102
340
103
340
104
340
105
340
106
340
107
340
108
340
109
340
10A
340
10B
340
10C
340
10D
340
10E
340
10F
340
110
340
111
340
112
340
113
340
114
340
115
340
116
340
117
340
118
340
119
340
11A
340
11B
340
11C
340
11D
340
11E
340
11F
340
120
340
121
340
122
340
123
340
124
340
125
340
126
340
127
340
128
340
129
340
12A
340
12B
340
12C
340
12D
340
12E
340
12F
340
130
340
131
340
132
340
133
340
134
340
135
340
136
340
137
340
138
340
147
340
152
0
MLINESTYLE
5
18
330
1c2
100
AcDbMlineStyle
2
Standard
70
0
3

62
256
51
90
52
90
71
2
49
-0.5
62
256
6
ByLayer
49
0.5
62
256
6
ByLayer
0
RASTERVARIABLES
5
1ac
330

100
AcDbRasterVariables
90
0
70
1
71
1
72
1
0
ENDSEC
0
EOF
