0
SECTION
2
HEADER
9
$ACADVER
1
AC1015
9
$DWGCODEPAGE
3
ANSI_1252
9
$HANDSEED
5
358
9
$ANGBASE
50
0
9
$ANGDIR
70
0
9
$ATTMODE
70
1
9
$AUNITS
70
0
9
$AUPREC
70
0
9
$CECOLOR
62
256
9
$CELTSCALE
40
1
9
$CELTYPE
6
ByLayer
9
$CELWEIGHT
370
18
9
$CLAYER
8
0
9
$CMLJUST
70
0
9
$CMLSCALE
40
1
9
$CMLSTYLE
2
Standard
9
$DIMSTYLE
2
Standard
9
$TEXTSIZE
40
0.2
9
$TEXTSTYLE
7
Standard
9
$LUNITS
70
2
9
$LUPREC
70
4
9
$EXTNAMES
290
1
9
$INSUNITS
70
4
9
$LTSCALE
40
1
9
$LWDISPLAY
290
1
9
$PDMODE
70
0
9
$PDSIZE
40
0
9
$PLINEGEN
70
0
0
ENDSEC
0
SECTION
2
CLASSES
0
CLASS
1
RASTERVARIABLES
2
AcDbRasterVariables
3
ISM
90
0
280
0
281
0
0
ENDSEC
0
SECTION
2
TABLES
0
TABLE
2
VPORT
5
34e
100
AcDbSymbolTable
0
VPORT
5
1
100
AcDbSymbolTableRecord
100
AcDbViewportTableRecord
2
*Active
70
0
10
0
20
0
11
1
21
1
12
-1
22
1
13
0
23
0
14
0.5
24
0.5
15
10
25
10
16
0
26
0
36
1
17
0
27
0
37
0
0
ENDTAB
0
TABLE
2
LTYPE
5
34f
100
AcDbSymbolTable
0
LTYPE
5
14
100
AcDbSymbolTableRecord
100
AcDbLinetypeTableRecord
70
0
2
ByBlock
3

72
65
73
0
40
0
0
LTYPE
5
15
100
AcDbSymbolTableRecord
100
AcDbLinetypeTableRecord
70
0
2
ByLayer
3

72
65
73
0
40
0
0
LTYPE
5
16
100
AcDbSymbolTableRecord
100
AcDbLinetypeTableRecord
70
0
2
CONTINUOUS
3
Solid line
72
65
73
0
40
0
0
LTYPE
5
6A
100
AcDbSymbolTableRecord
100
AcDbLinetypeTableRecord
70
0
2
CENTER
3
____ _ ____ _ ____ _ ____
72
65
73
4
40
47.5
49
22
74
0
49
-8.5
74
0
49
8.5
74
0
49
-8.5
74
0
0
LTYPE
5
6B
100
AcDbSymbolTableRecord
100
AcDbLinetypeTableRecord
70
0
2
DASHED
3
__ __ __ __ __ __ __ __ __
72
65
73
2
40
25.72
49
12.86
74
0
49
-12.86
74
0
0
ENDTAB
0
TABLE
2
LAYER
5
350
100
AcDbSymbolTable
0
LAYER
5
10
100
AcDbSymbolTableRecord
100
AcDbLayerTableRecord
2
0
70
0
62
7
6
CONTINUOUS
290
1
370
-3
390
0
0
LAYER
5
6D
100
AcDbSymbolTableRecord
100
AcDbLayerTableRecord
2
80
70
0
62
-6
6
CONTINUOUS
290
1
370
-3
390
0
0
LAYER
5
6F
100
AcDbSymbolTableRecord
100
AcDbLayerTableRecord
2
81
70
0
62
-3
6
CONTINUOUS
290
1
370
-3
390
0
0
LAYER
5
F0
100
AcDbSymbolTableRecord
100
AcDbLayerTableRecord
2
1
70
0
62
4
6
CONTINUOUS
290
1
370
-3
390
0
0
LAYER
5
FB
100
AcDbSymbolTableRecord
100
AcDbLayerTableRecord
2
4
70
0
62
-2
6
CENTER
290
1
370
-3
390
0
0
LAYER
5
2C9
100
AcDbSymbolTableRecord
100
AcDbLayerTableRecord
2
2
70
0
62
7
6
CONTINUOUS
290
1
370
-3
390
0
0
LAYER
5
338
100
AcDbSymbolTableRecord
100
AcDbLayerTableRecord
2
SK1
70
0
62
4
6
CONTINUOUS
290
1
370
-3
390
0
0
LAYER
5
339
100
AcDbSymbolTableRecord
100
AcDbLayerTableRecord
2
SK4
70
0
62
2
6
CENTER
290
1
370
-3
390
0
0
LAYER
5
33a
100
AcDbSymbolTableRecord
100
AcDbLayerTableRecord
2
SK6
70
0
62
5
6
CONTINUOUS
290
1
370
-3
390
0
0
LAYER
5
33b
100
AcDbSymbolTableRecord
100
AcDbLayerTableRecord
2
SK2
70
0
62
7
6
CONTINUOUS
290
1
370
-3
390
0
0
ENDTAB
0
TABLE
2
STYLE
5
351
100
AcDbSymbolTable
0
STYLE
5
11
100
AcDbSymbolTableRecord
100
AcDbTextStyleTableRecord
2
Standard
3
txt
70
0
71
0
40
0
41
1
42
0
50
0
0
STYLE
5
2C4
100
AcDbSymbolTableRecord
100
AcDbTextStyleTableRecord
2
iso_b_vert
3
simplex.shx
70
0
71
0
40
0
41
1
42
0
50
0
0
STYLE
5
2C5
100
AcDbSymbolTableRecord
100
AcDbTextStyleTableRecord
2
DWGDirectTextStyle
3
simplex
70
0
71
0
40
0
41
1
42
0
50
0
0
ENDTAB
0
TABLE
2
DIMSTYLE
5
352
100
AcDbSymbolTable
100
AcDbDimStyleTable
0
DIMSTYLE
105
27
100
AcDbSymbolTableRecord
100
AcDbDimStyleTableRecord
2
Standard
70
0
3
<>
41
0.18
42
0.0625
44
0.18
140
0.18
147
0.09
73
0
74
0
77
1
271
2
275
0
278
52
280
0
340
11
0
ENDTAB
0
TABLE
2
VIEW
5
353
100
AcDbSymbolTable
0
ENDTAB
0
TABLE
2
UCS
5
354
100
AcDbSymbolTable
0
ENDTAB
0
TABLE
2
APPID
5
355
100
AcDbSymbolTable
0
APPID
5
12
100
AcDbSymbolTableRecord
100
AcDbRegAppTableRecord
2
ACAD
70
0
0
ENDTAB
0
TABLE
2
BLOCK_RECORD
5
356
100
AcDbSymbolTable
0
BLOCK_RECORD
5
1F
100
AcDbSymbolTableRecord
100
AcDbBlockTableRecord
2
*Model_Space
340
0
70
0
0
BLOCK_RECORD
5
1B
100
AcDbSymbolTableRecord
100
AcDbBlockTableRecord
2
*Paper_Space
340
0
70
0
0
BLOCK_RECORD
5
23
100
AcDbSymbolTableRecord
100
AcDbBlockTableRecord
2
*Paper_Space0
340
0
70
0
0
BLOCK_RECORD
5
2C7
100
AcDbSymbolTableRecord
100
AcDbBlockTableRecord
2
DimnDraft3D1
340
0
70
0
0
BLOCK_RECORD
5
2D2
100
AcDbSymbolTableRecord
100
AcDbBlockTableRecord
2
DimnDraft3D2
340
0
70
0
0
ENDTAB
0
ENDSEC
0
SECTION
2
BLOCKS
0
BLOCK
5
20
100
AcDbEntity
8
0
100
AcDbBlockBegin
2
*Model_Space
70
0
10
0
20
0
30
0
3
*Model_Space
0
ENDBLK
5
21
100
AcDbEntity
8
0
100
AcDbBlockEnd
0
BLOCK
5
1C
100
AcDbEntity
8
0
100
AcDbBlockBegin
2
*Paper_Space
70
0
10
0
20
0
30
0
3
*Paper_Space
0
ENDBLK
5
1D
100
AcDbEntity
8
0
100
AcDbBlockEnd
0
BLOCK
5
24
100
AcDbEntity
8
0
100
AcDbBlockBegin
2
*Paper_Space0
70
0
10
0
20
0
30
0
3
*Paper_Space0
0
ENDBLK
5
25
100
AcDbEntity
8
0
100
AcDbBlockEnd
0
BLOCK
5
2CF
100
AcDbEntity
8
0
100
AcDbBlockBegin
2
DimnDraft3D1
70
0
10
0
20
0
30
0
3
DimnDraft3D1
0
MTEXT
5
2C8
100
AcDbEntity
8
2
62
256
6
ByLayer
370
18
48
1
60
0
100
AcDbMText
10
41.807895
20
104.25
30
0
210
0
220
0
230
1
1
\W0.6961;89.0
40
3
41
0
44
1.084337
50
0
71
7
72
5
7
iso_b_vert
0
LINE
5
2CA
100
AcDbEntity
8
2
62
256
6
ByLayer
370
13
48
1
60
0
100
AcDbLine
10
0
20
41.7
30
0
11
0
21
105.5
31
0
39
0
210
0
220
0
230
1
0
LINE
5
2CB
100
AcDbEntity
8
2
62
256
6
ByLayer
370
13
48
1
60
0
100
AcDbLine
10
89
20
2
30
0
11
89
21
105.5
31
0
39
0
210
0
220
0
230
1
0
LINE
5
2CC
100
AcDbEntity
8
2
62
256
6
ByLayer
370
13
48
1
60
0
100
AcDbLine
10
0
20
103.5
30
0
11
89
21
103.5
31
0
39
0
210
0
220
0
230
1
0
SOLID
5
2CD
100
AcDbEntity
8
2
62
256
6
ByLayer
370
13
48
1
60
0
100
AcDbTrace
10
0
20
103.5
30
0
11
3.174998
21
103.917997
31
0
12
3.175002
22
103.082003
32
0
13
0
23
103.5
33
0
39
0
210
0
220
0
230
1
0
SOLID
5
2CE
100
AcDbEntity
8
2
62
256
6
ByLayer
370
13
48
1
60
0
100
AcDbTrace
10
89
20
103.5
30
0
11
85.825002
21
103.082003
31
0
12
85.824998
22
103.917997
32
0
13
89
23
103.5
33
0
39
0
210
0
220
0
230
1
0
ENDBLK
5
2D0
100
AcDbEntity
8
0
100
AcDbBlockEnd
0
BLOCK
5
2DA
100
AcDbEntity
8
0
100
AcDbBlockBegin
2
DimnDraft3D2
70
0
10
0
20
0
30
0
3
DimnDraft3D2
0
MTEXT
5
2D3
100
AcDbEntity
8
SK2
62
256
6
ByLayer
370
18
48
1
60
0
100
AcDbMText
10
-74.25
20
-3.323684
30
0
210
0
220
0
230
1
1
\W0.8132;%%c 80
40
3
41
0
44
1.084337
50
90
71
7
72
5
7
iso_b_vert
0
LINE
5
2D5
100
AcDbEntity
8
SK2
62
256
6
ByLayer
370
13
48
1
60
0
100
AcDbLine
10
-1.7
20
40
30
0
11
-75.5
21
40
31
0
39
0
210
0
220
0
230
1
0
LINE
5
2D6
100
AcDbEntity
8
SK2
62
256
6
ByLayer
370
13
48
1
60
0
100
AcDbLine
10
-1.7
20
-40
30
0
11
-75.5
21
-40
31
0
39
0
210
0
220
0
230
1
0
LINE
5
2D7
100
AcDbEntity
8
SK2
62
256
6
ByLayer
370
13
48
1
60
0
100
AcDbLine
10
-73.5
20
40
30
0
11
-73.5
21
-40
31
0
39
0
210
0
220
0
230
1
0
SOLID
5
2D8
100
AcDbEntity
8
SK2
62
256
6
ByLayer
370
13
48
1
60
0
100
AcDbTrace
10
-73.5
20
40
30
0
11
-73.082003
21
36.825002
31
0
12
-73.917997
22
36.824998
32
0
13
-73.5
23
40
33
0
39
0
210
0
220
0
230
1
0
SOLID
5
2D9
100
AcDbEntity
8
SK2
62
256
6
ByLayer
370
13
48
1
60
0
100
AcDbTrace
10
-73.5
20
-40
30
0
11
-73.917997
21
-36.825002
31
0
12
-73.082003
22
-36.824998
32
0
13
-73.5
23
-40
33
0
39
0
210
0
220
0
230
1
0
ENDBLK
5
2DB
100
AcDbEntity
8
0
100
AcDbBlockEnd
0
ENDSEC
0
SECTION
2
ENTITIES
0
ARC
5
18C
100
AcDbEntity
8
SK1
62
256
6
ByLayer
370
18
48
1
60
0
100
AcDbCircle
39
0
10
116.7
20
24.4675
30
0
40
1.19999999999997
210
0
220
0
230
1
100
AcDbArc
50
270
51
0
0
ARC
5
18D
100
AcDbEntity
8
SK1
62
256
6
ByLayer
370
18
48
1
60
0
100
AcDbCircle
39
0
10
116.7
20
9.819033
30
0
40
1.19999999999997
210
0
220
0
230
1
100
AcDbArc
50
0
51
90
0
ARC
5
18E
100
AcDbEntity
8
SK1
62
256
6
ByLayer
370
18
48
1
60
0
100
AcDbCircle
39
0
10
116.7
20
9.819033
30
0
40
1.19999999999997
210
0
220
0
230
1
100
AcDbArc
50
0
51
90
0
ARC
5
18F
100
AcDbEntity
8
SK1
62
256
6
ByLayer
370
18
48
1
60
0
100
AcDbCircle
39
0
10
116.7
20
39.9325
30
0
40
1.19999999999988
210
0
220
0
230
1
100
AcDbArc
50
0
51
90
0
ARC
5
190
100
AcDbEntity
8
SK1
62
256
6
ByLayer
370
18
48
1
60
0
100
AcDbCircle
39
0
10
110.3
20
52.7
30
0
40
0.500000000000172
210
0
220
0
230
1
100
AcDbArc
50
0
51
90
0
ARC
5
191
100
AcDbEntity
8
SK1
62
256
6
ByLayer
370
18
48
1
60
0
100
AcDbCircle
39
0
10
116.7
20
39.9325
30
0
40
1.19999999999988
210
0
220
0
230
1
100
AcDbArc
50
0
51
90
0
ARC
5
192
100
AcDbEntity
8
SK1
62
256
6
ByLayer
370
18
48
1
60
0
100
AcDbCircle
39
0
10
-0.6
20
29.6
30
0
40
1.00000000013804
210
0
220
0
230
1
100
AcDbArc
50
293.578178
51
306.869898
0
ARC
5
193
100
AcDbEntity
8
SK1
62
256
6
ByLayer
370
18
48
1
60
0
100
AcDbCircle
39
0
10
116.7
20
24.4675
30
0
40
1.19999999999997
210
0
220
0
230
1
100
AcDbArc
50
270
51
0
0
ARC
5
194
100
AcDbEntity
8
SK1
62
256
6
ByLayer
370
18
48
1
60
0
100
AcDbCircle
39
0
10
110.3
20
52.7
30
0
40
0.500000000000172
210
0
220
0
230
1
100
AcDbArc
50
0
51
90
0
ARC
5
195
100
AcDbEntity
8
SK1
62
256
6
ByLayer
370
18
48
1
60
0
100
AcDbCircle
39
0
10
-0.6
20
29.6
30
0
40
1.00000000013804
210
0
220
0
230
1
100
AcDbArc
50
293.578178
51
306.869898
0
ARC
5
196
100
AcDbEntity
8
SK1
62
256
6
ByLayer
370
18
48
1
60
0
100
AcDbCircle
39
0
10
116.7
20
-42.019033
30
0
40
1.19999999999994
210
0
220
0
230
1
100
AcDbArc
50
270
51
0
0
ARC
5
197
100
AcDbEntity
8
SK1
62
256
6
ByLayer
370
18
48
1
60
0
100
AcDbCircle
39
0
10
-0.6
20
-29.6
30
0
40
0.99999999997421
210
0
220
0
230
1
100
AcDbArc
50
53.130102
51
66.421822
0
ARC
5
198
100
AcDbEntity
8
SK1
62
256
6
ByLayer
370
18
48
1
60
0
100
AcDbCircle
39
0
10
110.3
20
-47.420508
30
0
40
0.500000000000172
210
0
220
0
230
1
100
AcDbArc
50
270
51
0
0
ARC
5
199
100
AcDbEntity
8
SK1
62
256
6
ByLayer
370
18
48
1
60
0
100
AcDbCircle
39
0
10
116.7
20
-42.019033
30
0
40
1.19999999999994
210
0
220
0
230
1
100
AcDbArc
50
270
51
0
0
ARC
5
19A
100
AcDbEntity
8
SK1
62
256
6
ByLayer
370
18
48
1
60
0
100
AcDbCircle
39
0
10
110.3
20
-47.420508
30
0
40
0.500000000000172
210
0
220
0
230
1
100
AcDbArc
50
270
51
0
0
ARC
5
19B
100
AcDbEntity
8
SK1
62
256
6
ByLayer
370
18
48
1
60
0
100
AcDbCircle
39
0
10
110.3
20
2.220508
30
0
40
0.500000000000129
210
0
220
0
230
1
100
AcDbArc
50
0
51
90
0
ARC
5
19C
100
AcDbEntity
8
SK1
62
256
6
ByLayer
370
18
48
1
60
0
100
AcDbCircle
39
0
10
116.7
20
-26.554033
30
0
40
1.19999999999997
210
0
220
0
230
1
100
AcDbArc
50
0
51
90
0
ARC
5
19D
100
AcDbEntity
8
SK1
62
256
6
ByLayer
370
18
48
1
60
0
100
AcDbCircle
39
0
10
116.7
20
-5.645967
30
0
40
1.19999999999996
210
0
220
0
230
1
100
AcDbArc
50
270
51
0
0
ARC
5
19E
100
AcDbEntity
8
SK1
62
256
6
ByLayer
370
18
48
1
60
0
100
AcDbCircle
39
0
10
116.7
20
-5.645967
30
0
40
1.19999999999996
210
0
220
0
230
1
100
AcDbArc
50
270
51
0
0
ARC
5
19F
100
AcDbEntity
8
SK1
62
256
6
ByLayer
370
18
48
1
60
0
100
AcDbCircle
39
0
10
110.3
20
2.220508
30
0
40
0.500000000000129
210
0
220
0
230
1
100
AcDbArc
50
0
51
90
0
ARC
5
1A0
100
AcDbEntity
8
SK1
62
256
6
ByLayer
370
18
48
1
60
0
100
AcDbCircle
39
0
10
-0.6
20
-29.6
30
0
40
0.99999999997421
210
0
220
0
230
1
100
AcDbArc
50
53.130102
51
66.421822
0
ARC
5
1A1
100
AcDbEntity
8
SK1
62
256
6
ByLayer
370
18
48
1
60
0
100
AcDbCircle
39
0
10
116.7
20
-26.554033
30
0
40
1.19999999999997
210
0
220
0
230
1
100
AcDbArc
50
0
51
90
0
ARC
5
1A2
100
AcDbEntity
8
SK1
62
256
6
ByLayer
370
18
48
1
60
0
100
AcDbCircle
39
0
10
110.3
20
-12.779492
30
0
40
0.500000000000137
210
0
220
0
230
1
100
AcDbArc
50
270
51
0
0
ARC
5
1A3
100
AcDbEntity
8
SK1
62
256
6
ByLayer
370
18
48
1
60
0
100
AcDbCircle
39
0
10
110.3
20
-12.779492
30
0
40
0.500000000000137
210
0
220
0
230
1
100
AcDbArc
50
270
51
0
0
ARC
5
1A4
100
AcDbEntity
8
SK1
62
256
6
ByLayer
370
18
48
1
60
0
100
AcDbCircle
39
0
10
-110.3
20
37.7
30
0
40
0.500000000000172
210
0
220
0
230
-1
100
AcDbArc
50
180
51
270
0
ARC
5
1A5
100
AcDbEntity
8
SK1
62
256
6
ByLayer
370
18
48
1
60
0
100
AcDbCircle
39
0
10
91.098587
20
-46.821843
30
0
40
4.49861154878913
210
0
220
0
230
1
100
AcDbArc
50
154.998038
51
155.930265
0
ARC
5
1A6
100
AcDbEntity
8
SK1
62
256
6
ByLayer
370
18
48
1
60
0
100
AcDbCircle
39
0
10
86.939607
20
-44.964077
30
0
40
0.0564310684435885
210
0
220
0
230
1
100
AcDbArc
50
270
51
335.930265
0
ARC
5
1A7
100
AcDbEntity
8
SK1
62
256
6
ByLayer
370
18
48
1
60
0
100
AcDbCircle
39
0
10
86.178395
20
-39.991598
30
0
40
0.659834601572798
210
0
220
0
230
1
100
AcDbArc
50
330.211006
51
333.44967
0
ARC
5
1A8
100
AcDbEntity
8
SK1
62
256
6
ByLayer
370
18
48
1
60
0
100
AcDbCircle
39
0
10
86.498545
20
-40.174868
30
0
40
0.290938987111764
210
0
220
0
230
1
100
AcDbArc
50
322.873968
51
330.211006
0
ARC
5
1A9
100
AcDbEntity
8
SK1
62
256
6
ByLayer
370
18
48
1
60
0
100
AcDbCircle
39
0
10
86.564808
20
-40.22503
30
0
40
0.207831233100418
210
0
220
0
230
1
100
AcDbArc
50
313.776143
51
322.873968
0
ARC
5
1AA
100
AcDbEntity
8
SK1
62
256
6
ByLayer
370
18
48
1
60
0
100
AcDbCircle
39
0
10
86.68012
20
-40.345376
30
0
40
0.0411573770367748
210
0
220
0
230
1
100
AcDbArc
50
270
51
313.776143
0
ARC
5
1AB
100
AcDbEntity
8
SK1
62
256
6
ByLayer
370
18
48
1
60
0
100
AcDbCircle
39
0
10
114.496116
20
-39.569288
30
0
40
27.929640909246
210
0
220
0
230
1
100
AcDbArc
50
173.94472
51
180
0
ARC
5
1AC
100
AcDbEntity
8
SK1
62
256
6
ByLayer
370
18
48
1
60
0
100
AcDbCircle
39
0
10
227.216998
20
-51.526699
30
0
40
141.28296817282
210
0
220
0
230
1
100
AcDbArc
50
172.746605
51
173.94472
0
ARC
5
1AD
100
AcDbEntity
8
SK1
62
256
6
ByLayer
370
18
48
1
60
0
100
AcDbCircle
39
0
10
180.069547
20
-45.525946
30
0
40
93.75517447538
210
0
220
0
230
1
100
AcDbArc
50
171.533508
51
172.746605
0
ARC
5
1AE
100
AcDbEntity
8
SK1
62
256
6
ByLayer
370
18
48
1
60
0
100
AcDbCircle
39
0
10
129.21339
20
-37.955847
30
0
40
42.3386878877949
210
0
220
0
230
1
100
AcDbArc
50
168.847608
51
171.533508
0
ARC
5
1AF
100
AcDbEntity
8
SK1
62
256
6
ByLayer
370
18
48
1
60
0
100
AcDbCircle
39
0
10
17.008381
20
-15.835528
30
0
40
72.0259591902277
210
0
220
0
230
1
100
AcDbArc
50
348.847608
51
349.458973
0
ARC
5
1B0
100
AcDbEntity
8
SK1
62
256
6
ByLayer
370
18
48
1
60
0
100
AcDbCircle
39
0
10
90.551523
20
-29.520422
30
0
40
2.77958888152831
210
0
220
0
230
1
100
AcDbArc
50
153.716646
51
169.458973
0
ARC
5
1B1
100
AcDbEntity
8
SK1
62
256
6
ByLayer
370
18
48
1
60
0
100
AcDbCircle
39
0
10
96.19582
20
-32.307967
30
0
40
9.07470582161202
210
0
220
0
230
1
100
AcDbArc
50
153.231482
51
153.716646
0
ARC
5
1B2
100
AcDbEntity
8
SK1
62
256
6
ByLayer
370
18
48
1
60
0
100
AcDbCircle
39
0
10
88.149345
20
-28.248948
30
0
40
0.062414362691311
210
0
220
0
230
1
100
AcDbArc
50
90
51
153.231482
0
ARC
5
1B3
100
AcDbEntity
8
SK1
62
256
6
ByLayer
370
18
48
1
60
0
100
AcDbCircle
39
0
10
88.167975
20
-10.280699
30
0
40
0.0987928149091914
210
0
220
0
230
1
100
AcDbArc
50
189.448654
51
270
0
ARC
5
1B4
100
AcDbEntity
8
SK1
62
256
6
ByLayer
370
18
48
1
60
0
100
AcDbCircle
39
0
10
87.040407
20
-10.468351
30
0
40
1.04428281555237
210
0
220
0
230
1
100
AcDbArc
50
9.448654
51
18.61478
0
ARC
5
1B5
100
AcDbEntity
8
SK1
62
256
6
ByLayer
370
18
48
1
60
0
100
AcDbCircle
39
0
10
96.006841
20
-7.448237
30
0
40
8.41711328510028
210
0
220
0
230
1
100
AcDbArc
50
188.676708
51
198.61478
0
ARC
5
1B6
100
AcDbEntity
8
SK1
62
256
6
ByLayer
370
18
48
1
60
0
100
AcDbCircle
39
0
10
638.361347
20
75.318041
30
0
40
557.050566937996
210
0
220
0
230
1
100
AcDbArc
50
188.526165
51
188.676708
0
ARC
5
1B7
100
AcDbEntity
8
SK1
62
256
6
ByLayer
370
18
48
1
60
0
100
AcDbCircle
39
0
10
161.889121
20
3.886324
30
0
40
75.2536469655298
210
0
220
0
230
1
100
AcDbArc
50
186.526772
51
188.526165
0
ARC
5
1B8
100
AcDbEntity
8
SK1
62
256
6
ByLayer
370
18
48
1
60
0
100
AcDbCircle
39
0
10
138.897128
20
1.255834
30
0
40
52.1116677247409
210
0
220
0
230
1
100
AcDbArc
50
183.639797
51
186.526772
0
ARC
5
1B9
100
AcDbEntity
8
SK1
62
256
6
ByLayer
370
18
48
1
60
0
100
AcDbCircle
39
0
10
119.856901
20
0.044647
30
0
40
33.0329570013754
210
0
220
0
230
1
100
AcDbArc
50
182.607047
51
183.639797
0
ARC
5
1BA
100
AcDbEntity
8
SK1
62
256
6
ByLayer
370
18
48
1
60
0
100
AcDbCircle
39
0
10
99.928294
20
-0.862762
30
0
40
13.0837020997169
210
0
220
0
230
1
100
AcDbArc
50
180
51
182.607047
0
ARC
5
1BB
100
AcDbEntity
8
SK1
62
256
6
ByLayer
370
18
48
1
60
0
100
AcDbCircle
39
0
10
83.694072
20
-9.257618
30
0
40
4.64551994647749
210
0
220
0
230
1
100
AcDbArc
50
346.447941
51
347.292742
0
ARC
5
1BC
100
AcDbEntity
8
SK1
62
256
6
ByLayer
370
18
48
1
60
0
100
AcDbCircle
39
0
10
88.167975
20
-10.336007
30
0
40
0.0434848477332526
210
0
220
0
230
1
100
AcDbArc
50
270
51
346.447941
0
ARC
5
1BD
100
AcDbEntity
8
SK1
62
256
6
ByLayer
370
18
48
1
60
0
100
AcDbCircle
39
0
10
88.167975
20
-10.280699
30
0
40
0.0987928149091914
210
0
220
0
230
1
100
AcDbArc
50
189.448654
51
270
0
ARC
5
1BE
100
AcDbEntity
8
SK1
62
256
6
ByLayer
370
18
48
1
60
0
100
AcDbCircle
39
0
10
87.040407
20
-10.468351
30
0
40
1.04428281555237
210
0
220
0
230
1
100
AcDbArc
50
9.448654
51
18.61478
0
ARC
5
1BF
100
AcDbEntity
8
SK1
62
256
6
ByLayer
370
18
48
1
60
0
100
AcDbCircle
39
0
10
96.006841
20
-7.448237
30
0
40
8.41711328510028
210
0
220
0
230
1
100
AcDbArc
50
188.676708
51
198.61478
0
ARC
5
1C0
100
AcDbEntity
8
SK1
62
256
6
ByLayer
370
18
48
1
60
0
100
AcDbCircle
39
0
10
638.361347
20
75.318041
30
0
40
557.050566937996
210
0
220
0
230
1
100
AcDbArc
50
188.526165
51
188.676708
0
ARC
5
1C1
100
AcDbEntity
8
SK1
62
256
6
ByLayer
370
18
48
1
60
0
100
AcDbCircle
39
0
10
161.889121
20
3.886324
30
0
40
75.2536469655298
210
0
220
0
230
1
100
AcDbArc
50
186.526772
51
188.526165
0
ARC
5
1C2
100
AcDbEntity
8
SK1
62
256
6
ByLayer
370
18
48
1
60
0
100
AcDbCircle
39
0
10
138.897128
20
1.255834
30
0
40
52.1116677247409
210
0
220
0
230
1
100
AcDbArc
50
183.639797
51
186.526772
0
ARC
5
1C3
100
AcDbEntity
8
SK1
62
256
6
ByLayer
370
18
48
1
60
0
100
AcDbCircle
39
0
10
119.856901
20
0.044647
30
0
40
33.0329570013754
210
0
220
0
230
1
100
AcDbArc
50
182.607047
51
183.639797
0
ARC
5
1C4
100
AcDbEntity
8
SK1
62
256
6
ByLayer
370
18
48
1
60
0
100
AcDbCircle
39
0
10
99.928294
20
-0.862762
30
0
40
13.0837020997169
210
0
220
0
230
1
100
AcDbArc
50
180
51
182.607047
0
ARC
5
1C5
100
AcDbEntity
8
SK1
62
256
6
ByLayer
370
18
48
1
60
0
100
AcDbCircle
39
0
10
108.014764
20
-44.337238
30
0
40
21.170171277765
210
0
220
0
230
1
100
AcDbArc
50
174.500995
51
180
0
ARC
5
1C6
100
AcDbEntity
8
SK1
62
256
6
ByLayer
370
18
48
1
60
0
100
AcDbCircle
39
0
10
193.798519
20
-52.59577
30
0
40
107.350540593386
210
0
220
0
230
1
100
AcDbArc
50
173.415758
51
174.500995
0
ARC
5
1C7
100
AcDbEntity
8
SK1
62
256
6
ByLayer
370
18
48
1
60
0
100
AcDbCircle
39
0
10
86.939607
20
-44.993324
30
0
40
0.0271841729037323
210
0
220
0
230
1
100
AcDbArc
50
222.731528
51
270
0
ARC
5
1C8
100
AcDbEntity
8
SK1
62
256
6
ByLayer
370
18
48
1
60
0
100
AcDbCircle
39
0
10
86.989228
20
-44.947484
30
0
40
0.0947384208206541
210
0
220
0
230
1
100
AcDbArc
50
208.417761
51
222.731528
0
ARC
5
1C9
100
AcDbEntity
8
SK1
62
256
6
ByLayer
370
18
48
1
60
0
100
AcDbCircle
39
0
10
87.43026
20
-44.708842
30
0
40
0.59619505648277
210
0
220
0
230
1
100
AcDbArc
50
176.754537
51
208.417761
0
ARC
5
1CA
100
AcDbEntity
8
SK1
62
256
6
ByLayer
370
18
48
1
60
0
100
AcDbCircle
39
0
10
80.876925
20
-44.337238
30
0
40
5.96766728321616
210
0
220
0
230
1
100
AcDbArc
50
356.754537
51
360
0
ARC
5
1CB
100
AcDbEntity
8
SK1
62
256
6
ByLayer
370
18
48
1
60
0
100
AcDbCircle
39
0
10
91.098587
20
1.621843
30
0
40
4.4986115490182
210
0
220
0
230
1
100
AcDbArc
50
204.069735
51
205.001962
0
ARC
5
1CC
100
AcDbEntity
8
SK1
62
256
6
ByLayer
370
18
48
1
60
0
100
AcDbCircle
39
0
10
86.939607
20
-0.235923
30
0
40
0.0564310684439542
210
0
220
0
230
1
100
AcDbArc
50
24.069735
51
90
0
ARC
5
1CD
100
AcDbEntity
8
SK1
62
256
6
ByLayer
370
18
48
1
60
0
100
AcDbCircle
39
0
10
83.694072
20
-9.257618
30
0
40
4.64551994647749
210
0
220
0
230
1
100
AcDbArc
50
346.447941
51
347.292742
0
ARC
5
1CE
100
AcDbEntity
8
SK1
62
256
6
ByLayer
370
18
48
1
60
0
100
AcDbCircle
39
0
10
88.167975
20
-10.336007
30
0
40
0.0434848477332526
210
0
220
0
230
1
100
AcDbArc
50
270
51
346.447941
0
ARC
5
1CF
100
AcDbEntity
8
SK1
62
256
6
ByLayer
370
18
48
1
60
0
100
AcDbCircle
39
0
10
91.098587
20
1.621843
30
0
40
4.4986115490182
210
0
220
0
230
1
100
AcDbArc
50
204.069735
51
205.001962
0
ARC
5
1D0
100
AcDbEntity
8
SK1
62
256
6
ByLayer
370
18
48
1
60
0
100
AcDbCircle
39
0
10
86.939607
20
-0.235923
30
0
40
0.0564310684439542
210
0
220
0
230
1
100
AcDbArc
50
24.069735
51
90
0
ARC
5
1D1
100
AcDbEntity
8
SK1
62
256
6
ByLayer
370
18
48
1
60
0
100
AcDbCircle
39
0
10
114.496116
20
-39.569288
30
0
40
27.929640909246
210
0
220
0
230
1
100
AcDbArc
50
173.94472
51
180
0
ARC
5
1D2
100
AcDbEntity
8
SK1
62
256
6
ByLayer
370
18
48
1
60
0
100
AcDbCircle
39
0
10
227.216998
20
-51.526699
30
0
40
141.28296817282
210
0
220
0
230
1
100
AcDbArc
50
172.746605
51
173.94472
0
ARC
5
1D3
100
AcDbEntity
8
SK1
62
256
6
ByLayer
370
18
48
1
60
0
100
AcDbCircle
39
0
10
180.069547
20
-45.525946
30
0
40
93.75517447538
210
0
220
0
230
1
100
AcDbArc
50
171.533508
51
172.746605
0
ARC
5
1D4
100
AcDbEntity
8
SK1
62
256
6
ByLayer
370
18
48
1
60
0
100
AcDbCircle
39
0
10
129.21339
20
-37.955847
30
0
40
42.3386878877949
210
0
220
0
230
1
100
AcDbArc
50
168.847608
51
171.533508
0
ARC
5
1D5
100
AcDbEntity
8
SK1
62
256
6
ByLayer
370
18
48
1
60
0
100
AcDbCircle
39
0
10
17.008381
20
-15.835528
30
0
40
72.0259591902277
210
0
220
0
230
1
100
AcDbArc
50
348.847608
51
349.458973
0
ARC
5
1D6
100
AcDbEntity
8
SK1
62
256
6
ByLayer
370
18
48
1
60
0
100
AcDbCircle
39
0
10
90.551523
20
-29.520422
30
0
40
2.77958888152831
210
0
220
0
230
1
100
AcDbArc
50
153.716646
51
169.458973
0
ARC
5
1D7
100
AcDbEntity
8
SK1
62
256
6
ByLayer
370
18
48
1
60
0
100
AcDbCircle
39
0
10
96.19582
20
-32.307967
30
0
40
9.07470582161202
210
0
220
0
230
1
100
AcDbArc
50
153.231482
51
153.716646
0
ARC
5
1D8
100
AcDbEntity
8
SK1
62
256
6
ByLayer
370
18
48
1
60
0
100
AcDbCircle
39
0
10
88.149345
20
-28.248948
30
0
40
0.062414362691311
210
0
220
0
230
1
100
AcDbArc
50
90
51
153.231482
0
ARC
5
1D9
100
AcDbEntity
8
SK1
62
256
6
ByLayer
370
18
48
1
60
0
100
AcDbCircle
39
0
10
91.098587
20
-46.821843
30
0
40
4.49861154878913
210
0
220
0
230
1
100
AcDbArc
50
154.998038
51
155.930265
0
ARC
5
1DA
100
AcDbEntity
8
SK1
62
256
6
ByLayer
370
18
48
1
60
0
100
AcDbCircle
39
0
10
86.939607
20
-44.964077
30
0
40
0.0564310684435885
210
0
220
0
230
1
100
AcDbArc
50
270
51
335.930265
0
ARC
5
1DB
100
AcDbEntity
8
SK1
62
256
6
ByLayer
370
18
48
1
60
0
100
AcDbCircle
39
0
10
86.939607
20
-0.206676
30
0
40
0.0271841729037402
210
0
220
0
230
1
100
AcDbArc
50
90
51
137.268472
0
ARC
5
1DC
100
AcDbEntity
8
SK1
62
256
6
ByLayer
370
18
48
1
60
0
100
AcDbCircle
39
0
10
86.989228
20
-0.252516
30
0
40
0.0947384208206246
210
0
220
0
230
1
100
AcDbArc
50
137.268472
51
151.582239
0
ARC
5
1DD
100
AcDbEntity
8
SK1
62
256
6
ByLayer
370
18
48
1
60
0
100
AcDbCircle
39
0
10
87.43026
20
-0.491158
30
0
40
0.596195056482779
210
0
220
0
230
1
100
AcDbArc
50
151.582239
51
183.245463
0
ARC
5
1DE
100
AcDbEntity
8
SK1
62
256
6
ByLayer
370
18
48
1
60
0
100
AcDbCircle
39
0
10
80.876925
20
-0.862762
30
0
40
5.96766728321607
210
0
220
0
230
1
100
AcDbArc
50
360
51
3.245463
0
ARC
5
1DF
100
AcDbEntity
8
SK1
62
256
6
ByLayer
370
18
48
1
60
0
100
AcDbCircle
39
0
10
86.178395
20
-39.991598
30
0
40
0.659834601572798
210
0
220
0
230
1
100
AcDbArc
50
330.211006
51
333.44967
0
ARC
5
1E0
100
AcDbEntity
8
SK1
62
256
6
ByLayer
370
18
48
1
60
0
100
AcDbCircle
39
0
10
86.498545
20
-40.174868
30
0
40
0.290938987111764
210
0
220
0
230
1
100
AcDbArc
50
322.873968
51
330.211006
0
ARC
5
1E1
100
AcDbEntity
8
SK1
62
256
6
ByLayer
370
18
48
1
60
0
100
AcDbCircle
39
0
10
86.564808
20
-40.22503
30
0
40
0.207831233100418
210
0
220
0
230
1
100
AcDbArc
50
313.776143
51
322.873968
0
ARC
5
1E2
100
AcDbEntity
8
SK1
62
256
6
ByLayer
370
18
48
1
60
0
100
AcDbCircle
39
0
10
86.68012
20
-40.345376
30
0
40
0.0411573770367748
210
0
220
0
230
1
100
AcDbArc
50
270
51
313.776143
0
ARC
5
1E3
100
AcDbEntity
8
SK1
62
256
6
ByLayer
370
18
48
1
60
0
100
AcDbCircle
39
0
10
86.939607
20
-44.993324
30
0
40
0.0271841729037323
210
0
220
0
230
1
100
AcDbArc
50
222.731528
51
270
0
ARC
5
1E4
100
AcDbEntity
8
SK1
62
256
6
ByLayer
370
18
48
1
60
0
100
AcDbCircle
39
0
10
86.989228
20
-44.947484
30
0
40
0.0947384208206541
210
0
220
0
230
1
100
AcDbArc
50
208.417761
51
222.731528
0
ARC
5
1E5
100
AcDbEntity
8
SK1
62
256
6
ByLayer
370
18
48
1
60
0
100
AcDbCircle
39
0
10
87.43026
20
-44.708842
30
0
40
0.59619505648277
210
0
220
0
230
1
100
AcDbArc
50
176.754537
51
208.417761
0
ARC
5
1E6
100
AcDbEntity
8
SK1
62
256
6
ByLayer
370
18
48
1
60
0
100
AcDbCircle
39
0
10
80.876925
20
-44.337238
30
0
40
5.96766728321616
210
0
220
0
230
1
100
AcDbArc
50
356.754537
51
360
0
ARC
5
1E7
100
AcDbEntity
8
SK1
62
256
6
ByLayer
370
18
48
1
60
0
100
AcDbCircle
39
0
10
86.68012
20
-40.304217
30
0
40
0.0823162705355622
210
0
220
0
230
1
100
AcDbArc
50
178.891367
51
270
0
ARC
5
1E8
100
AcDbEntity
8
SK1
62
256
6
ByLayer
370
18
48
1
60
0
100
AcDbCircle
39
0
10
85.339354
20
-40.278271
30
0
40
1.25870125294709
210
0
220
0
230
1
100
AcDbArc
50
358.891367
51
6.520535
0
ARC
5
1E9
100
AcDbEntity
8
SK1
62
256
6
ByLayer
370
18
48
1
60
0
100
AcDbCircle
39
0
10
89.7919
20
-39.769351
30
0
40
3.22283478330661
210
0
220
0
230
1
100
AcDbArc
50
181.483188
51
186.520535
0
ARC
5
1EA
100
AcDbEntity
8
SK1
62
256
6
ByLayer
370
18
48
1
60
0
100
AcDbCircle
39
0
10
97.518618
20
-39.569288
30
0
40
10.9521430886457
210
0
220
0
230
1
100
AcDbArc
50
180
51
181.483188
0
ARC
5
1EB
100
AcDbEntity
8
SK1
62
256
6
ByLayer
370
18
48
1
60
0
100
AcDbCircle
39
0
10
86.68012
20
-40.304217
30
0
40
0.0823162705355622
210
0
220
0
230
1
100
AcDbArc
50
178.891367
51
270
0
ARC
5
1EC
100
AcDbEntity
8
SK1
62
256
6
ByLayer
370
18
48
1
60
0
100
AcDbCircle
39
0
10
85.339354
20
-40.278271
30
0
40
1.25870125294709
210
0
220
0
230
1
100
AcDbArc
50
358.891367
51
6.520535
0
ARC
5
1ED
100
AcDbEntity
8
SK1
62
256
6
ByLayer
370
18
48
1
60
0
100
AcDbCircle
39
0
10
89.7919
20
-39.769351
30
0
40
3.22283478330661
210
0
220
0
230
1
100
AcDbArc
50
181.483188
51
186.520535
0
ARC
5
1EE
100
AcDbEntity
8
SK1
62
256
6
ByLayer
370
18
48
1
60
0
100
AcDbCircle
39
0
10
97.518618
20
-39.569288
30
0
40
10.9521430886457
210
0
220
0
230
1
100
AcDbArc
50
180
51
181.483188
0
ARC
5
1EF
100
AcDbEntity
8
SK1
62
256
6
ByLayer
370
18
48
1
60
0
100
AcDbCircle
39
0
10
86.939607
20
-0.206676
30
0
40
0.0271841729037402
210
0
220
0
230
1
100
AcDbArc
50
90
51
137.268472
0
ARC
5
1F0
100
AcDbEntity
8
SK1
62
256
6
ByLayer
370
18
48
1
60
0
100
AcDbCircle
39
0
10
86.989228
20
-0.252516
30
0
40
0.0947384208206246
210
0
220
0
230
1
100
AcDbArc
50
137.268472
51
151.582239
0
ARC
5
1F1
100
AcDbEntity
8
SK1
62
256
6
ByLayer
370
18
48
1
60
0
100
AcDbCircle
39
0
10
87.43026
20
-0.491158
30
0
40
0.596195056482779
210
0
220
0
230
1
100
AcDbArc
50
151.582239
51
183.245463
0
ARC
5
1F2
100
AcDbEntity
8
SK1
62
256
6
ByLayer
370
18
48
1
60
0
100
AcDbCircle
39
0
10
80.876925
20
-0.862762
30
0
40
5.96766728321607
210
0
220
0
230
1
100
AcDbArc
50
360
51
3.245463
0
ARC
5
1F3
100
AcDbEntity
8
SK1
62
256
6
ByLayer
370
18
48
1
60
0
100
AcDbCircle
39
0
10
108.014764
20
-44.337238
30
0
40
21.170171277765
210
0
220
0
230
1
100
AcDbArc
50
174.500995
51
180
0
ARC
5
1F4
100
AcDbEntity
8
SK1
62
256
6
ByLayer
370
18
48
1
60
0
100
AcDbCircle
39
0
10
193.798519
20
-52.59577
30
0
40
107.350540593386
210
0
220
0
230
1
100
AcDbArc
50
173.415758
51
174.500995
0
ARC
5
1F5
100
AcDbEntity
8
SK1
62
256
6
ByLayer
370
18
48
1
60
0
100
AcDbCircle
39
0
10
86.933931
20
-28.617788
30
0
40
1.32202629326077
210
0
220
0
230
1
100
AcDbArc
50
14.510997
51
17.52493
0
ARC
5
1F6
100
AcDbEntity
8
SK1
62
256
6
ByLayer
370
18
48
1
60
0
100
AcDbCircle
39
0
10
88.149345
20
-28.233988
30
0
40
0.0474546580384198
210
0
220
0
230
1
100
AcDbArc
50
17.52493
51
90
0
ARC
5
1F7
100
AcDbEntity
8
SK1
62
256
6
ByLayer
370
18
48
1
60
0
100
AcDbCircle
39
0
10
86.933931
20
-28.617788
30
0
40
1.32202629326077
210
0
220
0
230
1
100
AcDbArc
50
14.510997
51
17.52493
0
ARC
5
1F8
100
AcDbEntity
8
SK1
62
256
6
ByLayer
370
18
48
1
60
0
100
AcDbCircle
39
0
10
88.149345
20
-28.233988
30
0
40
0.0474546580384198
210
0
220
0
230
1
100
AcDbArc
50
17.52493
51
90
0
ARC
5
1F9
100
AcDbEntity
8
SK1
62
256
6
ByLayer
370
18
48
1
60
0
100
AcDbCircle
39
0
10
86.68012
20
8.104217
30
0
40
0.0823162705353296
210
0
220
0
230
1
100
AcDbArc
50
90
51
181.108633
0
ARC
5
1FA
100
AcDbEntity
8
SK1
62
256
6
ByLayer
370
18
48
1
60
0
100
AcDbCircle
39
0
10
85.339354
20
8.078271
30
0
40
1.25870125294184
210
0
220
0
230
1
100
AcDbArc
50
353.479465
51
1.108633
0
ARC
5
1FB
100
AcDbEntity
8
SK1
62
256
6
ByLayer
370
18
48
1
60
0
100
AcDbCircle
39
0
10
89.7919
20
7.569351
30
0
40
3.22283478330523
210
0
220
0
230
1
100
AcDbArc
50
173.479465
51
178.516812
0
ARC
5
1FC
100
AcDbEntity
8
SK1
62
256
6
ByLayer
370
18
48
1
60
0
100
AcDbCircle
39
0
10
97.518618
20
7.369288
30
0
40
10.9521430885139
210
0
220
0
230
1
100
AcDbArc
50
178.516812
51
180
0
ARC
5
1FD
100
AcDbEntity
8
SK1
62
256
6
ByLayer
370
18
48
1
60
0
100
AcDbCircle
39
0
10
86.178395
20
7.791598
30
0
40
0.659834601579425
210
0
220
0
230
1
100
AcDbArc
50
26.55033
51
29.788994
0
ARC
5
1FE
100
AcDbEntity
8
SK1
62
256
6
ByLayer
370
18
48
1
60
0
100
AcDbCircle
39
0
10
86.498545
20
7.974868
30
0
40
0.290938987108843
210
0
220
0
230
1
100
AcDbArc
50
29.788994
51
37.126032
0
ARC
5
1FF
100
AcDbEntity
8
SK1
62
256
6
ByLayer
370
18
48
1
60
0
100
AcDbCircle
39
0
10
86.564808
20
8.02503
30
0
40
0.20783123310299
210
0
220
0
230
1
100
AcDbArc
50
37.126032
51
46.223857
0
ARC
5
200
100
AcDbEntity
8
SK1
62
256
6
ByLayer
370
18
48
1
60
0
100
AcDbCircle
39
0
10
86.68012
20
8.145376
30
0
40
0.0411573770366277
210
0
220
0
230
1
100
AcDbArc
50
46.223857
51
90
0
ARC
5
201
100
AcDbEntity
8
SK1
62
256
6
ByLayer
370
18
48
1
60
0
100
AcDbCircle
39
0
10
174.215708
20
12.729385
30
0
40
87.8752030573703
210
0
220
0
230
1
100
AcDbArc
50
186.584195
51
188.513248
0
ARC
5
202
100
AcDbEntity
8
SK1
62
256
6
ByLayer
370
18
48
1
60
0
100
AcDbCircle
39
0
10
154.370109
20
10.438719
30
0
40
67.8978415975269
210
0
220
0
230
1
100
AcDbArc
50
184.087722
51
186.584195
0
ARC
5
203
100
AcDbEntity
8
SK1
62
256
6
ByLayer
370
18
48
1
60
0
100
AcDbCircle
39
0
10
134.731852
20
9.035261
30
0
40
48.2094995773535
210
0
220
0
230
1
100
AcDbArc
50
183.034199
51
184.087722
0
ARC
5
204
100
AcDbEntity
8
SK1
62
256
6
ByLayer
370
18
48
1
60
0
100
AcDbCircle
39
0
10
103.302156
20
7.369288
30
0
40
16.7356806727214
210
0
220
0
230
1
100
AcDbArc
50
180
51
183.034199
0
ARC
5
205
100
AcDbEntity
8
SK1
62
256
6
ByLayer
370
18
48
1
60
0
100
AcDbCircle
39
0
10
174.215708
20
12.729385
30
0
40
87.8752030573703
210
0
220
0
230
1
100
AcDbArc
50
186.584195
51
188.513248
0
ARC
5
206
100
AcDbEntity
8
SK1
62
256
6
ByLayer
370
18
48
1
60
0
100
AcDbCircle
39
0
10
154.370109
20
10.438719
30
0
40
67.8978415975269
210
0
220
0
230
1
100
AcDbArc
50
184.087722
51
186.584195
0
ARC
5
207
100
AcDbEntity
8
SK1
62
256
6
ByLayer
370
18
48
1
60
0
100
AcDbCircle
39
0
10
134.731852
20
9.035261
30
0
40
48.2094995773535
210
0
220
0
230
1
100
AcDbArc
50
183.034199
51
184.087722
0
ARC
5
208
100
AcDbEntity
8
SK1
62
256
6
ByLayer
370
18
48
1
60
0
100
AcDbCircle
39
0
10
103.302156
20
7.369288
30
0
40
16.7356806727214
210
0
220
0
230
1
100
AcDbArc
50
180
51
183.034199
0
ARC
5
209
100
AcDbEntity
8
SK1
62
256
6
ByLayer
370
18
48
1
60
0
100
AcDbCircle
39
0
10
86.68012
20
8.104217
30
0
40
0.0823162705353296
210
0
220
0
230
1
100
AcDbArc
50
90
51
181.108633
0
ARC
5
20A
100
AcDbEntity
8
SK1
62
256
6
ByLayer
370
18
48
1
60
0
100
AcDbCircle
39
0
10
85.339354
20
8.078271
30
0
40
1.25870125294184
210
0
220
0
230
1
100
AcDbArc
50
353.479465
51
1.108633
0
ARC
5
20B
100
AcDbEntity
8
SK1
62
256
6
ByLayer
370
18
48
1
60
0
100
AcDbCircle
39
0
10
89.7919
20
7.569351
30
0
40
3.22283478330523
210
0
220
0
230
1
100
AcDbArc
50
173.479465
51
178.516812
0
ARC
5
20C
100
AcDbEntity
8
SK1
62
256
6
ByLayer
370
18
48
1
60
0
100
AcDbCircle
39
0
10
97.518618
20
7.369288
30
0
40
10.9521430885139
210
0
220
0
230
1
100
AcDbArc
50
178.516812
51
180
0
ARC
5
20D
100
AcDbEntity
8
SK1
62
256
6
ByLayer
370
18
48
1
60
0
100
AcDbCircle
39
0
10
86.178395
20
7.791598
30
0
40
0.659834601579425
210
0
220
0
230
1
100
AcDbArc
50
26.55033
51
29.788994
0
ARC
5
20E
100
AcDbEntity
8
SK1
62
256
6
ByLayer
370
18
48
1
60
0
100
AcDbCircle
39
0
10
86.498545
20
7.974868
30
0
40
0.290938987108843
210
0
220
0
230
1
100
AcDbArc
50
29.788994
51
37.126032
0
ARC
5
20F
100
AcDbEntity
8
SK1
62
256
6
ByLayer
370
18
48
1
60
0
100
AcDbCircle
39
0
10
86.564808
20
8.02503
30
0
40
0.20783123310299
210
0
220
0
230
1
100
AcDbArc
50
37.126032
51
46.223857
0
ARC
5
210
100
AcDbEntity
8
SK1
62
256
6
ByLayer
370
18
48
1
60
0
100
AcDbCircle
39
0
10
86.68012
20
8.145376
30
0
40
0.0411573770366277
210
0
220
0
230
1
100
AcDbArc
50
46.223857
51
90
0
ARC
5
211
100
AcDbEntity
8
SK1
62
256
6
ByLayer
370
18
48
1
60
0
100
AcDbCircle
39
0
10
-0.487973
20
27.537824
30
0
40
0.289063584008275
210
0
220
0
230
1
100
AcDbArc
50
348.804444
51
355.022205
0
ARC
5
212
100
AcDbEntity
8
SK1
62
256
6
ByLayer
370
18
48
1
60
0
100
AcDbCircle
39
0
10
-0.41841
20
27.524056
30
0
40
0.218150811965225
210
0
220
0
230
1
100
AcDbArc
50
340.571618
51
348.804444
0
ARC
5
213
100
AcDbEntity
8
SK1
62
256
6
ByLayer
370
18
48
1
60
0
100
AcDbCircle
39
0
10
-0.396305
20
27.516259
30
0
40
0.194710996909961
210
0
220
0
230
1
100
AcDbArc
50
333.308396
51
340.571618
0
ARC
5
214
100
AcDbEntity
8
SK1
62
256
6
ByLayer
370
18
48
1
60
0
100
AcDbCircle
39
0
10
-0.374364
20
27.505228
30
0
40
0.170153317368484
210
0
220
0
230
1
100
AcDbArc
50
325.000335
51
333.308396
0
ARC
5
215
100
AcDbEntity
8
SK1
62
256
6
ByLayer
370
18
48
1
60
0
100
AcDbCircle
39
0
10
-0.369913
20
27.502111
30
0
40
0.164719350373895
210
0
220
0
230
1
100
AcDbArc
50
316.662919
51
325.000335
0
ARC
5
216
100
AcDbEntity
8
SK1
62
256
6
ByLayer
370
18
48
1
60
0
100
AcDbCircle
39
0
10
-0.372702
20
27.504743
30
0
40
0.168553946490018
210
0
220
0
230
1
100
AcDbArc
50
308.514533
51
316.662919
0
ARC
5
217
100
AcDbEntity
8
SK1
62
256
6
ByLayer
370
18
48
1
60
0
100
AcDbCircle
39
0
10
-0.378736
20
27.512325
30
0
40
0.178244208272269
210
0
220
0
230
1
100
AcDbArc
50
300.412993
51
308.514533
0
ARC
5
218
100
AcDbEntity
8
SK1
62
256
6
ByLayer
370
18
48
1
60
0
100
AcDbCircle
39
0
10
-0.395582
20
27.541022
30
0
40
0.21152029636621
210
0
220
0
230
1
100
AcDbArc
50
293.582679
51
300.412993
0
ARC
5
219
100
AcDbEntity
8
SK1
62
256
6
ByLayer
370
18
48
1
60
0
100
AcDbCircle
39
0
10
-0.410348
20
27.57485
30
0
40
0.248430716030441
210
0
220
0
230
1
100
AcDbArc
50
282.97246
51
293.582679
0
ARC
5
21A
100
AcDbEntity
8
SK1
62
256
6
ByLayer
370
18
48
1
60
0
100
AcDbCircle
39
0
10
-0.440153
20
27.704231
30
0
40
0.381200028051734
210
0
220
0
230
1
100
AcDbArc
50
276.046324
51
282.97246
0
ARC
5
21B
100
AcDbEntity
8
SK1
62
256
6
ByLayer
370
18
48
1
60
0
100
AcDbCircle
39
0
10
-1.977316
20
27.527296
30
0
40
0.222694617214769
210
0
220
0
230
1
100
AcDbArc
50
180.556957
51
186.678043
0
ARC
5
21C
100
AcDbEntity
8
SK1
62
256
6
ByLayer
370
18
48
1
60
0
100
AcDbCircle
39
0
10
-2.000136
20
27.524624
30
0
40
0.199718393027132
210
0
220
0
230
1
100
AcDbArc
50
186.678043
51
193.50174
0
ARC
5
21D
100
AcDbEntity
8
SK1
62
256
6
ByLayer
370
18
48
1
60
0
100
AcDbCircle
39
0
10
-2.003963
20
27.523705
30
0
40
0.195783165430874
210
0
220
0
230
1
100
AcDbArc
50
193.50174
51
200.340207
0
ARC
5
21E
100
AcDbEntity
8
SK1
62
256
6
ByLayer
370
18
48
1
60
0
100
AcDbCircle
39
0
10
-1.999944
20
27.525195
30
0
40
0.200069557356393
210
0
220
0
230
1
100
AcDbArc
50
200.340207
51
207.0325
0
ARC
5
21F
100
AcDbEntity
8
SK1
62
256
6
ByLayer
370
18
48
1
60
0
100
AcDbCircle
39
0
10
-1.999402
20
27.525471
30
0
40
0.20067787221344
210
0
220
0
230
1
100
AcDbArc
50
207.0325
51
213.752916
0
ARC
5
220
100
AcDbEntity
8
SK1
62
256
6
ByLayer
370
18
48
1
60
0
100
AcDbCircle
39
0
10
-2.000569
20
27.524691
30
0
40
0.199273567637455
210
0
220
0
230
1
100
AcDbArc
50
213.752916
51
220.520582
0
ARC
5
221
100
AcDbEntity
8
SK1
62
256
6
ByLayer
370
18
48
1
60
0
100
AcDbCircle
39
0
10
-1.999813
20
27.525338
30
0
40
0.200269053603838
210
0
220
0
230
1
100
AcDbArc
50
220.520582
51
227.245005
0
ARC
5
222
100
AcDbEntity
8
SK1
62
256
6
ByLayer
370
18
48
1
60
0
100
AcDbCircle
39
0
10
-2.000129
20
27.524996
30
0
40
0.199803609397718
210
0
220
0
230
1
100
AcDbArc
50
227.245005
51
233.985057
0
ARC
5
223
100
AcDbEntity
8
SK1
62
256
6
ByLayer
370
18
48
1
60
0
100
AcDbCircle
39
0
10
-2.000245
20
27.524836
30
0
40
0.19960555345007
210
0
220
0
230
1
100
AcDbArc
50
233.985057
51
240.738139
0
ARC
5
224
100
AcDbEntity
8
SK1
62
256
6
ByLayer
370
18
48
1
60
0
100
AcDbCircle
39
0
10
-1.999544
20
27.526087
30
0
40
0.201039423692374
210
0
220
0
230
1
100
AcDbArc
50
240.738139
51
247.443166
0
ARC
5
225
100
AcDbEntity
8
SK1
62
256
6
ByLayer
370
18
48
1
60
0
100
AcDbCircle
39
0
10
-2.00198
20
27.520224
30
0
40
0.194690646729771
210
0
220
0
230
1
100
AcDbArc
50
247.443166
51
259.012855
0
ARC
5
226
100
AcDbEntity
8
SK1
62
256
6
ByLayer
370
18
48
1
60
0
100
AcDbCircle
39
0
10
-1.997903
20
27.541223
30
0
40
0.216081713347334
210
0
220
0
230
1
100
AcDbArc
50
259.012855
51
269.443859
0
ARC
5
227
100
AcDbEntity
8
SK1
62
256
6
ByLayer
370
18
48
1
60
0
100
AcDbCircle
39
0
10
-0.672568
20
27.245983
30
0
40
1.55177155640825
210
0
220
0
230
1
100
AcDbArc
50
169.825432
51
185.059825
0
ARC
5
228
100
AcDbEntity
8
SK1
62
256
6
ByLayer
370
18
48
1
60
0
100
AcDbCircle
39
0
10
-6.896075
20
26.694948
30
0
40
4.69608243292288
210
0
220
0
230
1
100
AcDbArc
50
359.999202
51
5.059825
0
ARC
5
229
100
AcDbEntity
8
SK1
62
256
6
ByLayer
370
18
48
1
60
0
100
AcDbCircle
39
0
10
-0.487973
20
27.537824
30
0
40
0.289063584008275
210
0
220
0
230
1
100
AcDbArc
50
348.804444
51
355.022205
0
ARC
5
22A
100
AcDbEntity
8
SK1
62
256
6
ByLayer
370
18
48
1
60
0
100
AcDbCircle
39
0
10
-0.41841
20
27.524056
30
0
40
0.218150811965225
210
0
220
0
230
1
100
AcDbArc
50
340.571618
51
348.804444
0
ARC
5
22B
100
AcDbEntity
8
SK1
62
256
6
ByLayer
370
18
48
1
60
0
100
AcDbCircle
39
0
10
-0.396305
20
27.516259
30
0
40
0.194710996909961
210
0
220
0
230
1
100
AcDbArc
50
333.308396
51
340.571618
0
ARC
5
22C
100
AcDbEntity
8
SK1
62
256
6
ByLayer
370
18
48
1
60
0
100
AcDbCircle
39
0
10
-0.374364
20
27.505228
30
0
40
0.170153317368484
210
0
220
0
230
1
100
AcDbArc
50
325.000335
51
333.308396
0
ARC
5
22D
100
AcDbEntity
8
SK1
62
256
6
ByLayer
370
18
48
1
60
0
100
AcDbCircle
39
0
10
-0.369913
20
27.502111
30
0
40
0.164719350373895
210
0
220
0
230
1
100
AcDbArc
50
316.662919
51
325.000335
0
ARC
5
22E
100
AcDbEntity
8
SK1
62
256
6
ByLayer
370
18
48
1
60
0
100
AcDbCircle
39
0
10
-0.372702
20
27.504743
30
0
40
0.168553946490018
210
0
220
0
230
1
100
AcDbArc
50
308.514533
51
316.662919
0
ARC
5
22F
100
AcDbEntity
8
SK1
62
256
6
ByLayer
370
18
48
1
60
0
100
AcDbCircle
39
0
10
-0.378736
20
27.512325
30
0
40
0.178244208272269
210
0
220
0
230
1
100
AcDbArc
50
300.412993
51
308.514533
0
ARC
5
230
100
AcDbEntity
8
SK1
62
256
6
ByLayer
370
18
48
1
60
0
100
AcDbCircle
39
0
10
-0.395582
20
27.541022
30
0
40
0.21152029636621
210
0
220
0
230
1
100
AcDbArc
50
293.582679
51
300.412993
0
ARC
5
231
100
AcDbEntity
8
SK1
62
256
6
ByLayer
370
18
48
1
60
0
100
AcDbCircle
39
0
10
-0.410348
20
27.57485
30
0
40
0.248430716030441
210
0
220
0
230
1
100
AcDbArc
50
282.97246
51
293.582679
0
ARC
5
232
100
AcDbEntity
8
SK1
62
256
6
ByLayer
370
18
48
1
60
0
100
AcDbCircle
39
0
10
-0.440153
20
27.704231
30
0
40
0.381200028051734
210
0
220
0
230
1
100
AcDbArc
50
276.046324
51
282.97246
0
ARC
5
233
100
AcDbEntity
8
SK1
62
256
6
ByLayer
370
18
48
1
60
0
100
AcDbCircle
39
0
10
-0.672568
20
27.245983
30
0
40
1.55177155640825
210
0
220
0
230
1
100
AcDbArc
50
169.825432
51
185.059825
0
ARC
5
234
100
AcDbEntity
8
SK1
62
256
6
ByLayer
370
18
48
1
60
0
100
AcDbCircle
39
0
10
-6.896075
20
26.694948
30
0
40
4.69608243292288
210
0
220
0
230
1
100
AcDbArc
50
359.999202
51
5.059825
0
ARC
5
235
100
AcDbEntity
8
SK1
62
256
6
ByLayer
370
18
48
1
60
0
100
AcDbCircle
39
0
10
-1.977316
20
27.527296
30
0
40
0.222694617214769
210
0
220
0
230
1
100
AcDbArc
50
180.556957
51
186.678043
0
ARC
5
236
100
AcDbEntity
8
SK1
62
256
6
ByLayer
370
18
48
1
60
0
100
AcDbCircle
39
0
10
-2.000136
20
27.524624
30
0
40
0.199718393027132
210
0
220
0
230
1
100
AcDbArc
50
186.678043
51
193.50174
0
ARC
5
237
100
AcDbEntity
8
SK1
62
256
6
ByLayer
370
18
48
1
60
0
100
AcDbCircle
39
0
10
-2.003963
20
27.523705
30
0
40
0.195783165430874
210
0
220
0
230
1
100
AcDbArc
50
193.50174
51
200.340207
0
ARC
5
238
100
AcDbEntity
8
SK1
62
256
6
ByLayer
370
18
48
1
60
0
100
AcDbCircle
39
0
10
-1.999944
20
27.525195
30
0
40
0.200069557356393
210
0
220
0
230
1
100
AcDbArc
50
200.340207
51
207.0325
0
ARC
5
239
100
AcDbEntity
8
SK1
62
256
6
ByLayer
370
18
48
1
60
0
100
AcDbCircle
39
0
10
-1.999402
20
27.525471
30
0
40
0.20067787221344
210
0
220
0
230
1
100
AcDbArc
50
207.0325
51
213.752916
0
ARC
5
23A
100
AcDbEntity
8
SK1
62
256
6
ByLayer
370
18
48
1
60
0
100
AcDbCircle
39
0
10
-2.000569
20
27.524691
30
0
40
0.199273567637455
210
0
220
0
230
1
100
AcDbArc
50
213.752916
51
220.520582
0
ARC
5
23B
100
AcDbEntity
8
SK1
62
256
6
ByLayer
370
18
48
1
60
0
100
AcDbCircle
39
0
10
-1.999813
20
27.525338
30
0
40
0.200269053603838
210
0
220
0
230
1
100
AcDbArc
50
220.520582
51
227.245005
0
ARC
5
23C
100
AcDbEntity
8
SK1
62
256
6
ByLayer
370
18
48
1
60
0
100
AcDbCircle
39
0
10
-2.000129
20
27.524996
30
0
40
0.199803609397718
210
0
220
0
230
1
100
AcDbArc
50
227.245005
51
233.985057
0
ARC
5
23D
100
AcDbEntity
8
SK1
62
256
6
ByLayer
370
18
48
1
60
0
100
AcDbCircle
39
0
10
-2.000245
20
27.524836
30
0
40
0.19960555345007
210
0
220
0
230
1
100
AcDbArc
50
233.985057
51
240.738139
0
ARC
5
23E
100
AcDbEntity
8
SK1
62
256
6
ByLayer
370
18
48
1
60
0
100
AcDbCircle
39
0
10
-1.999544
20
27.526087
30
0
40
0.201039423692374
210
0
220
0
230
1
100
AcDbArc
50
240.738139
51
247.443166
0
ARC
5
23F
100
AcDbEntity
8
SK1
62
256
6
ByLayer
370
18
48
1
60
0
100
AcDbCircle
39
0
10
-2.00198
20
27.520224
30
0
40
0.194690646729771
210
0
220
0
230
1
100
AcDbArc
50
247.443166
51
259.012855
0
ARC
5
240
100
AcDbEntity
8
SK1
62
256
6
ByLayer
370
18
48
1
60
0
100
AcDbCircle
39
0
10
-1.997903
20
27.541223
30
0
40
0.216081713347334
210
0
220
0
230
1
100
AcDbArc
50
259.012855
51
269.443859
0
ARC
5
241
100
AcDbEntity
8
SK1
62
256
6
ByLayer
370
18
48
1
60
0
100
AcDbCircle
39
0
10
-0.57981
20
5.490213
30
0
40
0.254703509679246
210
0
220
0
230
1
100
AcDbArc
50
45.092852
51
124.390632
0
ARC
5
242
100
AcDbEntity
8
SK1
62
256
6
ByLayer
370
18
48
1
60
0
100
AcDbCircle
39
0
10
-0.267084
20
5.033326
30
0
40
0.808366873477802
210
0
220
0
230
1
100
AcDbArc
50
124.390632
51
153.658537
0
ARC
5
243
100
AcDbEntity
8
SK1
62
256
6
ByLayer
370
18
48
1
60
0
100
AcDbCircle
39
0
10
1.406485
20
4.20469
30
0
40
2.67584450063033
210
0
220
0
230
1
100
AcDbArc
50
153.658537
51
166.048783
0
ARC
5
244
100
AcDbEntity
8
SK1
62
256
6
ByLayer
370
18
48
1
60
0
100
AcDbCircle
39
0
10
5.666248
20
3.146463
30
0
40
7.06508325708044
210
0
220
0
230
1
100
AcDbArc
50
166.048783
51
170.757213
0
ARC
5
245
100
AcDbEntity
8
SK1
62
256
6
ByLayer
370
18
48
1
60
0
100
AcDbCircle
39
0
10
-2.896747
20
-6.274403
30
0
40
2.69827649441072
210
0
220
0
230
1
100
AcDbArc
50
358.070537
51
4.136096
0
ARC
5
246
100
AcDbEntity
8
SK1
62
256
6
ByLayer
370
18
48
1
60
0
100
AcDbCircle
39
0
10
-1.751564
20
-6.19159
30
0
40
1.55010311558755
210
0
220
0
230
1
100
AcDbArc
50
4.136096
51
14.674523
0
ARC
5
247
100
AcDbEntity
8
SK1
62
256
6
ByLayer
370
18
48
1
60
0
100
AcDbCircle
39
0
10
-0.59868
20
-5.889684
30
0
40
0.358345244088589
210
0
220
0
230
1
100
AcDbArc
50
14.674523
51
36.548386
0
ARC
5
248
100
AcDbEntity
8
SK1
62
256
6
ByLayer
370
18
48
1
60
0
100
AcDbCircle
39
0
10
-0.357801
20
-5.711128
30
0
40
0.0585038608586475
210
0
220
0
230
1
100
AcDbArc
50
36.548386
51
136.161458
0
ARC
5
249
100
AcDbEntity
8
SK1
62
256
6
ByLayer
370
18
48
1
60
0
100
AcDbCircle
39
0
10
-0.57981
20
5.490213
30
0
40
0.254703509679246
210
0
220
0
230
1
100
AcDbArc
50
45.092852
51
124.390632
0
ARC
5
24A
100
AcDbEntity
8
SK1
62
256
6
ByLayer
370
18
48
1
60
0
100
AcDbCircle
39
0
10
-0.267084
20
5.033326
30
0
40
0.808366873477802
210
0
220
0
230
1
100
AcDbArc
50
124.390632
51
153.658537
0
ARC
5
24B
100
AcDbEntity
8
SK1
62
256
6
ByLayer
370
18
48
1
60
0
100
AcDbCircle
39
0
10
1.406485
20
4.20469
30
0
40
2.67584450063033
210
0
220
0
230
1
100
AcDbArc
50
153.658537
51
166.048783
0
ARC
5
24C
100
AcDbEntity
8
SK1
62
256
6
ByLayer
370
18
48
1
60
0
100
AcDbCircle
39
0
10
5.666248
20
3.146463
30
0
40
7.06508325708044
210
0
220
0
230
1
100
AcDbArc
50
166.048783
51
170.757213
0
ARC
5
24D
100
AcDbEntity
8
SK1
62
256
6
ByLayer
370
18
48
1
60
0
100
AcDbCircle
39
0
10
-1.980601
20
-27.527264
30
0
40
0.219409378757958
210
0
220
0
230
1
100
AcDbArc
50
171.202061
51
179.443043
0
ARC
5
24E
100
AcDbEntity
8
SK1
62
256
6
ByLayer
370
18
48
1
60
0
100
AcDbCircle
39
0
10
-2.004109
20
-27.523625
30
0
40
0.195620992267255
210
0
220
0
230
1
100
AcDbArc
50
161.963042
51
171.202061
0
ARC
5
24F
100
AcDbEntity
8
SK1
62
256
6
ByLayer
370
18
48
1
60
0
100
AcDbCircle
39
0
10
-2.002281
20
-27.524221
30
0
40
0.197544126921856
210
0
220
0
230
1
100
AcDbArc
50
155.159972
51
161.963042
0
ARC
5
250
100
AcDbEntity
8
SK1
62
256
6
ByLayer
370
18
48
1
60
0
100
AcDbCircle
39
0
10
-1.998537
20
-27.525954
30
0
40
0.201669864270139
210
0
220
0
230
1
100
AcDbArc
50
148.495761
51
155.159972
0
ARC
5
251
100
AcDbEntity
8
SK1
62
256
6
ByLayer
370
18
48
1
60
0
100
AcDbCircle
39
0
10
-2.000723
20
-27.524614
30
0
40
0.199105545756216
210
0
220
0
230
1
100
AcDbArc
50
141.727627
51
148.495761
0
ARC
5
252
100
AcDbEntity
8
SK1
62
256
6
ByLayer
370
18
48
1
60
0
100
AcDbCircle
39
0
10
-1.999882
20
-27.525277
30
0
40
0.200176755530271
210
0
220
0
230
1
100
AcDbArc
50
134.995627
51
141.727627
0
ARC
5
253
100
AcDbEntity
8
SK1
62
256
6
ByLayer
370
18
48
1
60
0
100
AcDbCircle
39
0
10
-1.999879
20
-27.52528
30
0
40
0.200180951151293
210
0
220
0
230
1
100
AcDbArc
50
128.263768
51
134.995627
0
ARC
5
254
100
AcDbEntity
8
SK1
62
256
6
ByLayer
370
18
48
1
60
0
100
AcDbCircle
39
0
10
-2.000531
20
-27.524454
30
0
40
0.199127985235973
210
0
220
0
230
1
100
AcDbArc
50
121.496394
51
128.263768
0
ARC
5
255
100
AcDbEntity
8
SK1
62
256
6
ByLayer
370
18
48
1
60
0
100
AcDbCircle
39
0
10
-1.999186
20
-27.52665
30
0
40
0.201703452616796
210
0
220
0
230
1
100
AcDbArc
50
114.833305
51
121.496394
0
ARC
5
256
100
AcDbEntity
8
SK1
62
256
6
ByLayer
370
18
48
1
60
0
100
AcDbCircle
39
0
10
-2.000911
20
-27.522921
30
0
40
0.19759509124674
210
0
220
0
230
1
100
AcDbArc
50
108.031999
51
114.833305
0
ARC
5
257
100
AcDbEntity
8
SK1
62
256
6
ByLayer
370
18
48
1
60
0
100
AcDbCircle
39
0
10
-2.001538
20
-27.520996
30
0
40
0.195569991402136
210
0
220
0
230
1
100
AcDbArc
50
103.469922
51
108.031999
0
ARC
5
258
100
AcDbEntity
8
SK1
62
256
6
ByLayer
370
18
48
1
60
0
100
AcDbCircle
39
0
10
-2.000286
20
-27.526223
30
0
40
0.200945467403315
210
0
220
0
230
1
100
AcDbArc
50
99.029761
51
103.469922
0
ARC
5
259
100
AcDbEntity
8
SK1
62
256
6
ByLayer
370
18
48
1
60
0
100
AcDbCircle
39
0
10
-1.999321
20
-27.532296
30
0
40
0.207094852066852
210
0
220
0
230
1
100
AcDbArc
50
94.608793
51
99.029761
0
ARC
5
25A
100
AcDbEntity
8
SK1
62
256
6
ByLayer
370
18
48
1
60
0
100
AcDbCircle
39
0
10
-1.997807
20
-27.551075
30
0
40
0.225934119266205
210
0
220
0
230
1
100
AcDbArc
50
90.556141
51
94.608793
0
ARC
5
25B
100
AcDbEntity
8
SK1
62
256
6
ByLayer
370
18
48
1
60
0
100
AcDbCircle
39
0
10
-2.919776
20
6.278171
30
0
40
2.72116937762209
210
0
220
0
230
1
100
AcDbArc
50
355.819548
51
1.83385
0
ARC
5
25C
100
AcDbEntity
8
SK1
62
256
6
ByLayer
370
18
48
1
60
0
100
AcDbCircle
39
0
10
-1.788813
20
6.195507
30
0
40
1.58719001425477
210
0
220
0
230
1
100
AcDbArc
50
345.526577
51
355.819548
0
ARC
5
25D
100
AcDbEntity
8
SK1
62
256
6
ByLayer
370
18
48
1
60
0
100
AcDbCircle
39
0
10
-0.594795
20
5.887303
30
0
40
0.354035747583464
210
0
220
0
230
1
100
AcDbArc
50
323.339766
51
345.526577
0
ARC
5
25E
100
AcDbEntity
8
SK1
62
256
6
ByLayer
370
18
48
1
60
0
100
AcDbCircle
39
0
10
-0.35763
20
5.710782
30
0
40
0.0583887464035217
210
0
220
0
230
1
100
AcDbArc
50
223.476402
51
323.339766
0
ARC
5
25F
100
AcDbEntity
8
SK1
62
256
6
ByLayer
370
18
48
1
60
0
100
AcDbCircle
39
0
10
-0.487996
20
-27.537832
30
0
40
0.28908631051367
210
0
220
0
230
1
100
AcDbArc
50
4.977819
51
11.195315
0
ARC
5
260
100
AcDbEntity
8
SK1
62
256
6
ByLayer
370
18
48
1
60
0
100
AcDbCircle
39
0
10
-0.418425
20
-27.524063
30
0
40
0.218165876548265
210
0
220
0
230
1
100
AcDbArc
50
11.195315
51
19.427869
0
ARC
5
261
100
AcDbEntity
8
SK1
62
256
6
ByLayer
370
18
48
1
60
0
100
AcDbCircle
39
0
10
-0.370735
20
-27.507242
30
0
40
0.16759606117564
210
0
220
0
230
1
100
AcDbArc
50
19.427869
51
59.644092
0
ARC
5
262
100
AcDbEntity
8
SK1
62
256
6
ByLayer
370
18
48
1
60
0
100
AcDbCircle
39
0
10
-0.430007
20
-27.608447
30
0
40
0.284880743694133
210
0
220
0
230
1
100
AcDbArc
50
59.644092
51
83.953754
0
ARC
5
263
100
AcDbEntity
8
SK1
62
256
6
ByLayer
370
18
48
1
60
0
100
AcDbCircle
39
0
10
24.85246
20
-0.567373
30
0
40
26.6051128152128
210
0
220
0
230
1
100
AcDbArc
50
169.499517
51
176.026133
0
ARC
5
264
100
AcDbEntity
8
SK1
62
256
6
ByLayer
370
18
48
1
60
0
100
AcDbCircle
39
0
10
17.354956
20
-0.046532
30
0
40
19.0895390648653
210
0
220
0
230
1
100
AcDbArc
50
176.026133
51
185.11304
0
ARC
5
265
100
AcDbEntity
8
SK1
62
256
6
ByLayer
370
18
48
1
60
0
100
AcDbCircle
39
0
10
23.246878
20
0.480659
30
0
40
25.0050003697771
210
0
220
0
230
1
100
AcDbArc
50
185.11304
51
188.044293
0
ARC
5
266
100
AcDbEntity
8
SK1
62
256
6
ByLayer
370
18
48
1
60
0
100
AcDbCircle
39
0
10
29.355276
20
1.343955
30
0
40
31.1741007785675
210
0
220
0
230
1
100
AcDbArc
50
188.044293
51
190.395659
0
ARC
5
267
100
AcDbEntity
8
SK1
62
256
6
ByLayer
370
18
48
1
60
0
100
AcDbCircle
39
0
10
37.903728
20
-26.6753
30
0
40
40.1125619359266
210
0
220
0
230
1
100
AcDbArc
50
179.399506
51
181.206781
0
ARC
5
268
100
AcDbEntity
8
SK1
62
256
6
ByLayer
370
18
48
1
60
0
100
AcDbCircle
39
0
10
-122.934531
20
-24.989557
30
0
40
120.734531057125
210
0
220
0
230
1
100
AcDbArc
50
359.399506
51
359.999995
0
ARC
5
269
100
AcDbEntity
8
SK1
62
256
6
ByLayer
370
18
48
1
60
0
100
AcDbCircle
39
0
10
-2.896747
20
-6.274403
30
0
40
2.69827649441072
210
0
220
0
230
1
100
AcDbArc
50
358.070537
51
4.136096
0
ARC
5
26A
100
AcDbEntity
8
SK1
62
256
6
ByLayer
370
18
48
1
60
0
100
AcDbCircle
39
0
10
-1.751564
20
-6.19159
30
0
40
1.55010311558755
210
0
220
0
230
1
100
AcDbArc
50
4.136096
51
14.674523
0
ARC
5
26B
100
AcDbEntity
8
SK1
62
256
6
ByLayer
370
18
48
1
60
0
100
AcDbCircle
39
0
10
-0.59868
20
-5.889684
30
0
40
0.358345244088589
210
0
220
0
230
1
100
AcDbArc
50
14.674523
51
36.548386
0
ARC
5
26C
100
AcDbEntity
8
SK1
62
256
6
ByLayer
370
18
48
1
60
0
100
AcDbCircle
39
0
10
-0.357801
20
-5.711128
30
0
40
0.0585038608586475
210
0
220
0
230
1
100
AcDbArc
50
36.548386
51
136.161458
0
ARC
5
26D
100
AcDbEntity
8
SK1
62
256
6
ByLayer
370
18
48
1
60
0
100
AcDbCircle
39
0
10
-1.980601
20
-27.527264
30
0
40
0.219409378757958
210
0
220
0
230
1
100
AcDbArc
50
171.202061
51
179.443043
0
ARC
5
26E
100
AcDbEntity
8
SK1
62
256
6
ByLayer
370
18
48
1
60
0
100
AcDbCircle
39
0
10
-2.004109
20
-27.523625
30
0
40
0.195620992267255
210
0
220
0
230
1
100
AcDbArc
50
161.963042
51
171.202061
0
ARC
5
26F
100
AcDbEntity
8
SK1
62
256
6
ByLayer
370
18
48
1
60
0
100
AcDbCircle
39
0
10
-2.002281
20
-27.524221
30
0
40
0.197544126921856
210
0
220
0
230
1
100
AcDbArc
50
155.159972
51
161.963042
0
ARC
5
270
100
AcDbEntity
8
SK1
62
256
6
ByLayer
370
18
48
1
60
0
100
AcDbCircle
39
0
10
-1.998537
20
-27.525954
30
0
40
0.201669864270139
210
0
220
0
230
1
100
AcDbArc
50
148.495761
51
155.159972
0
ARC
5
271
100
AcDbEntity
8
SK1
62
256
6
ByLayer
370
18
48
1
60
0
100
AcDbCircle
39
0
10
-2.000723
20
-27.524614
30
0
40
0.199105545756216
210
0
220
0
230
1
100
AcDbArc
50
141.727627
51
148.495761
0
ARC
5
272
100
AcDbEntity
8
SK1
62
256
6
ByLayer
370
18
48
1
60
0
100
AcDbCircle
39
0
10
-1.999882
20
-27.525277
30
0
40
0.200176755530271
210
0
220
0
230
1
100
AcDbArc
50
134.995627
51
141.727627
0
ARC
5
273
100
AcDbEntity
8
SK1
62
256
6
ByLayer
370
18
48
1
60
0
100
AcDbCircle
39
0
10
-1.999879
20
-27.52528
30
0
40
0.200180951151293
210
0
220
0
230
1
100
AcDbArc
50
128.263768
51
134.995627
0
ARC
5
274
100
AcDbEntity
8
SK1
62
256
6
ByLayer
370
18
48
1
60
0
100
AcDbCircle
39
0
10
-2.000531
20
-27.524454
30
0
40
0.199127985235973
210
0
220
0
230
1
100
AcDbArc
50
121.496394
51
128.263768
0
ARC
5
275
100
AcDbEntity
8
SK1
62
256
6
ByLayer
370
18
48
1
60
0
100
AcDbCircle
39
0
10
-1.999186
20
-27.52665
30
0
40
0.201703452616796
210
0
220
0
230
1
100
AcDbArc
50
114.833305
51
121.496394
0
ARC
5
276
100
AcDbEntity
8
SK1
62
256
6
ByLayer
370
18
48
1
60
0
100
AcDbCircle
39
0
10
-2.000911
20
-27.522921
30
0
40
0.19759509124674
210
0
220
0
230
1
100
AcDbArc
50
108.031999
51
114.833305
0
ARC
5
277
100
AcDbEntity
8
SK1
62
256
6
ByLayer
370
18
48
1
60
0
100
AcDbCircle
39
0
10
-2.001538
20
-27.520996
30
0
40
0.195569991402136
210
0
220
0
230
1
100
AcDbArc
50
103.469922
51
108.031999
0
ARC
5
278
100
AcDbEntity
8
SK1
62
256
6
ByLayer
370
18
48
1
60
0
100
AcDbCircle
39
0
10
-2.000286
20
-27.526223
30
0
40
0.200945467403315
210
0
220
0
230
1
100
AcDbArc
50
99.029761
51
103.469922
0
ARC
5
279
100
AcDbEntity
8
SK1
62
256
6
ByLayer
370
18
48
1
60
0
100
AcDbCircle
39
0
10
-1.999321
20
-27.532296
30
0
40
0.207094852066852
210
0
220
0
230
1
100
AcDbArc
50
94.608793
51
99.029761
0
ARC
5
27A
100
AcDbEntity
8
SK1
62
256
6
ByLayer
370
18
48
1
60
0
100
AcDbCircle
39
0
10
-1.997807
20
-27.551075
30
0
40
0.225934119266205
210
0
220
0
230
1
100
AcDbArc
50
90.556141
51
94.608793
0
ARC
5
27B
100
AcDbEntity
8
SK1
62
256
6
ByLayer
370
18
48
1
60
0
100
AcDbCircle
39
0
10
-0.579386
20
-5.498305
30
0
40
0.24873104383338
210
0
220
0
230
1
100
AcDbArc
50
235.231095
51
316.153954
0
ARC
5
27C
100
AcDbEntity
8
SK1
62
256
6
ByLayer
370
18
48
1
60
0
100
AcDbCircle
39
0
10
-0.251918
20
-5.026595
30
0
40
0.82296526885055
210
0
220
0
230
1
100
AcDbArc
50
206.320688
51
235.231095
0
ARC
5
27D
100
AcDbEntity
8
SK1
62
256
6
ByLayer
370
18
48
1
60
0
100
AcDbCircle
39
0
10
1.481957
20
-4.168882
30
0
40
2.75738977058865
210
0
220
0
230
1
100
AcDbArc
50
194.293438
51
206.320688
0
ARC
5
27E
100
AcDbEntity
8
SK1
62
256
6
ByLayer
370
18
48
1
60
0
100
AcDbCircle
39
0
10
4.870813
20
-3.305486
30
0
40
6.25450219380672
210
0
220
0
230
1
100
AcDbArc
50
188.975312
51
194.293438
0
ARC
5
27F
100
AcDbEntity
8
SK1
62
256
6
ByLayer
370
18
48
1
60
0
100
AcDbCircle
39
0
10
37.903728
20
-26.6753
30
0
40
40.1125619359266
210
0
220
0
230
1
100
AcDbArc
50
179.399506
51
181.206781
0
ARC
5
280
100
AcDbEntity
8
SK1
62
256
6
ByLayer
370
18
48
1
60
0
100
AcDbCircle
39
0
10
-122.934531
20
-24.989557
30
0
40
120.734531057125
210
0
220
0
230
1
100
AcDbArc
50
359.399506
51
359.999995
0
ARC
5
281
100
AcDbEntity
8
SK1
62
256
6
ByLayer
370
18
48
1
60
0
100
AcDbCircle
39
0
10
-2.919776
20
6.278171
30
0
40
2.72116937762209
210
0
220
0
230
1
100
AcDbArc
50
355.819548
51
1.83385
0
ARC
5
282
100
AcDbEntity
8
SK1
62
256
6
ByLayer
370
18
48
1
60
0
100
AcDbCircle
39
0
10
-1.788813
20
6.195507
30
0
40
1.58719001425477
210
0
220
0
230
1
100
AcDbArc
50
345.526577
51
355.819548
0
ARC
5
283
100
AcDbEntity
8
SK1
62
256
6
ByLayer
370
18
48
1
60
0
100
AcDbCircle
39
0
10
-0.594795
20
5.887303
30
0
40
0.354035747583464
210
0
220
0
230
1
100
AcDbArc
50
323.339766
51
345.526577
0
ARC
5
284
100
AcDbEntity
8
SK1
62
256
6
ByLayer
370
18
48
1
60
0
100
AcDbCircle
39
0
10
-0.35763
20
5.710782
30
0
40
0.0583887464035217
210
0
220
0
230
1
100
AcDbArc
50
223.476402
51
323.339766
0
ARC
5
285
100
AcDbEntity
8
SK1
62
256
6
ByLayer
370
18
48
1
60
0
100
AcDbCircle
39
0
10
-0.579386
20
-5.498305
30
0
40
0.24873104383338
210
0
220
0
230
1
100
AcDbArc
50
235.231095
51
316.153954
0
ARC
5
286
100
AcDbEntity
8
SK1
62
256
6
ByLayer
370
18
48
1
60
0
100
AcDbCircle
39
0
10
-0.251918
20
-5.026595
30
0
40
0.82296526885055
210
0
220
0
230
1
100
AcDbArc
50
206.320688
51
235.231095
0
ARC
5
287
100
AcDbEntity
8
SK1
62
256
6
ByLayer
370
18
48
1
60
0
100
AcDbCircle
39
0
10
1.481957
20
-4.168882
30
0
40
2.75738977058865
210
0
220
0
230
1
100
AcDbArc
50
194.293438
51
206.320688
0
ARC
5
288
100
AcDbEntity
8
SK1
62
256
6
ByLayer
370
18
48
1
60
0
100
AcDbCircle
39
0
10
4.870813
20
-3.305486
30
0
40
6.25450219380672
210
0
220
0
230
1
100
AcDbArc
50
188.975312
51
194.293438
0
ARC
5
289
100
AcDbEntity
8
SK1
62
256
6
ByLayer
370
18
48
1
60
0
100
AcDbCircle
39
0
10
-0.487996
20
-27.537832
30
0
40
0.28908631051367
210
0
220
0
230
1
100
AcDbArc
50
4.977819
51
11.195315
0
ARC
5
28A
100
AcDbEntity
8
SK1
62
256
6
ByLayer
370
18
48
1
60
0
100
AcDbCircle
39
0
10
-0.418425
20
-27.524063
30
0
40
0.218165876548265
210
0
220
0
230
1
100
AcDbArc
50
11.195315
51
19.427869
0
ARC
5
28B
100
AcDbEntity
8
SK1
62
256
6
ByLayer
370
18
48
1
60
0
100
AcDbCircle
39
0
10
-0.370735
20
-27.507242
30
0
40
0.16759606117564
210
0
220
0
230
1
100
AcDbArc
50
19.427869
51
59.644092
0
ARC
5
28C
100
AcDbEntity
8
SK1
62
256
6
ByLayer
370
18
48
1
60
0
100
AcDbCircle
39
0
10
-0.430007
20
-27.608447
30
0
40
0.284880743694133
210
0
220
0
230
1
100
AcDbArc
50
59.644092
51
83.953754
0
ARC
5
28D
100
AcDbEntity
8
SK1
62
256
6
ByLayer
370
18
48
1
60
0
100
AcDbCircle
39
0
10
24.85246
20
-0.567373
30
0
40
26.6051128152128
210
0
220
0
230
1
100
AcDbArc
50
169.499517
51
176.026133
0
ARC
5
28E
100
AcDbEntity
8
SK1
62
256
6
ByLayer
370
18
48
1
60
0
100
AcDbCircle
39
0
10
17.354956
20
-0.046532
30
0
40
19.0895390648653
210
0
220
0
230
1
100
AcDbArc
50
176.026133
51
185.11304
0
ARC
5
28F
100
AcDbEntity
8
SK1
62
256
6
ByLayer
370
18
48
1
60
0
100
AcDbCircle
39
0
10
23.246878
20
0.480659
30
0
40
25.0050003697771
210
0
220
0
230
1
100
AcDbArc
50
185.11304
51
188.044293
0
ARC
5
290
100
AcDbEntity
8
SK1
62
256
6
ByLayer
370
18
48
1
60
0
100
AcDbCircle
39
0
10
29.355276
20
1.343955
30
0
40
31.1741007785675
210
0
220
0
230
1
100
AcDbArc
50
188.044293
51
190.395659
0
ELLIPSE
5
291
100
AcDbEntity
8
1
62
256
6
ByLayer
370
18
48
1
60
0
100
AcDbEllipse
10
1257.82315
20
-297.88609
30
0
11
1245.27162934174
21
-352.290287596081
31
0
210
0
220
0
230
-1
40
0.069402
41
2.81375746275198
42
2.84143118192634
0
ELLIPSE
5
292
100
AcDbEntity
8
SK1
62
256
6
ByLayer
370
18
48
1
60
0
100
AcDbEllipse
10
87.414732
20
4.226045
30
0
11
0.760062324871043
21
-6.09981947936951
31
0
210
0
220
0
230
-1
40
0.061743
41
1.28676880857878
42
2.681537747786
0
ELLIPSE
5
293
100
AcDbEntity
8
SK1
62
256
6
ByLayer
370
18
48
1
60
0
100
AcDbEllipse
10
87.414732
20
4.226045
30
0
11
0.760062324871043
21
-6.09981947936951
31
0
210
0
220
0
230
-1
40
0.061743
41
2.681537747786
42
-1.27137126449922
0
ELLIPSE
5
294
100
AcDbEntity
8
SK1
62
256
6
ByLayer
370
18
48
1
60
0
100
AcDbEllipse
10
87.553791
20
-2.527948
30
0
11
0.635461943744642
21
-5.09984907291549
31
0
210
0
220
0
230
-1
40
0.061743
41
-0.190662989308547
42
2.681537747786
0
ELLIPSE
5
295
100
AcDbEntity
8
SK1
62
256
6
ByLayer
370
18
48
1
60
0
100
AcDbEllipse
10
87.553791
20
-2.527948
30
0
11
0.635461943744642
21
-5.09984907291549
31
0
210
0
220
0
230
-1
40
0.061743
41
2.681537747786
42
-2.9355315407987
0
ELLIPSE
5
296
100
AcDbEntity
8
1
62
256
6
ByLayer
370
18
48
1
60
0
100
AcDbEllipse
10
-2035.810033
20
0
30
0
11
2139.1279017935
21
-33.7132948719658
31
0
210
0
220
0
230
-1
40
0.031162
41
-0.174538701624011
42
-0.12936158693228
0
ELLIPSE
5
297
100
AcDbEntity
8
SK1
62
256
6
ByLayer
370
18
48
1
60
0
100
AcDbEllipse
10
90.334962
20
0
30
0
11
8.75140318378435
21
74.697122723601
31
0
210
0
220
0
230
-1
40
0.074918
41
2.29001739708996
42
2.64181298279538
0
ELLIPSE
5
298
100
AcDbEntity
8
1
62
256
6
ByLayer
370
18
48
1
60
0
100
AcDbEllipse
10
199.35464
20
0
30
0
11
236.692832334697
21
64.2967160482771
31
0
210
0
220
0
230
-1
40
0.160658
41
2.11650048631974
42
2.1869498097207
0
ELLIPSE
5
299
100
AcDbEntity
8
1
62
256
6
ByLayer
370
18
48
1
60
0
100
AcDbEllipse
10
1257.823092
20
279.575069
30
0
11
1245.19446723541
21
331.445804583662
31
0
210
0
220
0
230
-1
40
0.084791
41
2.8559548496443
42
2.88362856948684
0
ELLIPSE
5
29A
100
AcDbEntity
8
SK1
62
256
6
ByLayer
370
18
48
1
60
0
100
AcDbEllipse
10
87.414732
20
-35.176576
30
0
11
0.714639349674441
21
6.09976504160703
31
0
210
0
220
0
230
-1
40
0.074918
41
0
42
6.28318530717959
0
ELLIPSE
5
29B
100
AcDbEntity
8
1
62
256
6
ByLayer
370
18
48
1
60
0
100
AcDbEllipse
10
82.390233
20
46.83842
30
0
11
1.2701682612397
21
-2.17486166586495
31
0
210
0
220
0
230
-1
40
0.242318
41
0
42
6.28318530717959
0
ELLIPSE
5
29C
100
AcDbEntity
8
SK1
62
256
6
ByLayer
370
18
48
1
60
0
100
AcDbEllipse
10
87.553791
20
-41.438183
30
0
11
0.597485357924528
21
5.09980355937633
31
0
210
0
220
0
230
-1
40
0.074918
41
2.93444846969419
42
-2.5726656885108
0
ELLIPSE
5
29D
100
AcDbEntity
8
SK1
62
256
6
ByLayer
370
18
48
1
60
0
100
AcDbEllipse
10
87.553791
20
-41.438183
30
0
11
0.597485357924528
21
5.09980355937633
31
0
210
0
220
0
230
-1
40
0.074918
41
-2.5726656885108
42
0.189579997832534
0
ELLIPSE
5
29E
100
AcDbEntity
8
SK1
62
256
6
ByLayer
370
18
48
1
60
0
100
AcDbEllipse
10
82.295259
20
-31.151153
30
0
11
1.30956235549578
21
2.01131648153423
31
0
210
0
220
0
230
-1
40
0.354639
41
0
42
6.28318530717959
0
ELLIPSE
5
29F
100
AcDbEntity
8
1
62
256
6
ByLayer
370
18
48
1
60
0
100
AcDbEllipse
10
-6.763884
20
0
30
0
11
18.7348357595644
21
39.4834983055009
31
0
210
0
220
0
230
-1
40
0.341999
41
0.161099005228947
42
1.08794676716929
0
ELLIPSE
5
2A0
100
AcDbEntity
8
SK1
62
256
6
ByLayer
370
18
48
1
60
0
100
AcDbEllipse
10
85.27481
20
-29.564907
30
0
11
0.0518162204593263
21
0.413771491304622
31
0
210
0
220
0
230
-1
40
0.077779
41
-0.516291699966116
42
0.555787529922123
0
ELLIPSE
5
2A1
100
AcDbEntity
8
1
62
256
6
ByLayer
370
18
48
1
60
0
100
AcDbEllipse
10
199.354641
20
0
30
0
11
236.749714848134
21
-67.8984934754409
31
0
210
0
220
0
230
-1
40
0.131544
41
2.03517785955901
42
2.10562718286068
0
ELLIPSE
5
2A2
100
AcDbEntity
8
1
62
256
6
ByLayer
370
18
48
1
60
0
100
AcDbEllipse
10
85.27481
20
32.282037
30
0
11
0.0557793381594613
21
-0.443761402436105
31
0
210
0
220
0
230
-1
40
0.055626
41
-1.54292442683033
42
-0.416631458460284
0
ELLIPSE
5
2A3
100
AcDbEntity
8
1
62
256
6
ByLayer
370
18
48
1
60
0
100
AcDbEllipse
10
30.763884
20
0
30
0
11
18.7348357595639
21
39.4834983055003
31
0
210
0
220
0
230
-1
40
0.341999
41
-2.98049364836085
42
-2.05364588642049
0
ELLIPSE
5
2A4
100
AcDbEntity
8
1
62
256
6
ByLayer
370
18
48
1
60
0
100
AcDbEllipse
10
-6.763884
20
0
30
0
11
18.7348357595635
21
-39.4834983054999
31
0
210
0
220
0
230
-1
40
0.341999
41
-1.08794676716931
42
-0.161099005228948
0
ELLIPSE
5
2A5
100
AcDbEntity
8
1
62
256
6
ByLayer
370
18
48
1
60
0
100
AcDbEllipse
10
30.763884
20
0
30
0
11
18.7348357595649
21
-39.4834983055014
31
0
210
0
220
0
230
-1
40
0.341999
41
2.05364588642052
42
2.98049364836085
0
ELLIPSE
5
2A6
100
AcDbEntity
8
SK1
62
256
6
ByLayer
370
18
48
1
60
0
100
AcDbEllipse
10
79.042586
20
-1.2E-05
30
0
11
5.94036997578334E-06
21
74.7000117914278
31
0
210
0
220
0
230
-1
40
0.870564
41
0.12887038557171
42
0.150294024147969
0
ELLIPSE
5
2A7
100
AcDbEntity
8
1
62
256
6
ByLayer
370
18
48
1
60
0
100
AcDbEllipse
10
79.042578
20
2.7E-05
30
0
11
62.6992622034177
21
73.2237081609296
31
0
210
0
220
0
230
-1
40
0.235695
41
1.68910749569766
42
1.71053112395148
0
ELLIPSE
5
2A8
100
AcDbEntity
8
1
62
256
6
ByLayer
370
18
48
1
60
0
100
AcDbEllipse
10
90.334962
20
0
30
0
11
9.30764847016316
21
-74.6977893622883
31
0
210
0
220
0
230
-1
40
0.061743
41
1.2610355262025
42
1.61283111190998
0
POINT
5
6C
100
AcDbEntity
8
80
62
256
6
ByLayer
370
13
48
1
60
0
100
AcDbPoint
10
0
20
0
30
0
39
0
210
0
220
0
230
1
50
360
0
POINT
5
6E
100
AcDbEntity
8
81
62
256
6
ByLayer
370
13
48
1
60
0
100
AcDbPoint
10
89
20
0
30
0
39
0
210
0
220
0
230
1
50
360
0
SPLINE
5
2A9
100
AcDbEntity
8
1
62
256
6
ByLayer
370
18
48
1
60
0
100
AcDbSpline
70
4
71
3
72
12
73
8
40
0
40
0
40
0
40
0
40
0.25
40
0.25
40
0.5
40
0.5
40
1
40
1
40
1
40
1
41
1
10
47.2883817241715
20
45.3174393998859
30
0
41
1
10
46.9817018726476
20
42.9624682465142
30
0
41
1
10
47.1263315411057
20
40.4937486163159
30
0
41
1
10
48.2595652006569
20
35.3435932721009
30
0
41
1
10
49.2482618135856
20
32.6539377100547
30
0
41
1
10
53.1427829411733
20
24.4057520364995
30
0
41
1
10
56.8589518655363
20
18.7771547392287
30
0
41
1
10
61
20
13.0993065293354
30
0
0
SPLINE
5
2AA
100
AcDbEntity
8
1
62
256
6
ByLayer
370
18
48
1
60
0
100
AcDbSpline
70
4
71
3
72
14
73
10
40
0
40
0
40
0
40
0
40
0.25
40
0.25
40
0.5
40
0.5
40
0.75
40
0.75
40
1
40
1
40
1
40
1
41
1
10
67.2844968080931
20
-38.6633017431968
30
0
41
1
10
66.7031119994912
20
-37.2199884918581
30
0
41
1
10
66.3289739240676
20
-35.7422715074551
30
0
41
1
10
66.0780867643581
20
-32.7042691052758
30
0
41
1
10
66.2137366292774
20
-31.1697880819988
30
0
41
1
10
66.9475860261798
20
-28.2347309686998
30
0
41
1
10
67.5532316980247
20
-26.7946980195001
30
0
41
1
10
69.0700576503572
20
-24.1032935206989
30
0
41
1
10
69.9807836105763
20
-22.8363040409927
30
0
41
1
10
71.0000000000001
20
-21.6253805770707
30
0
0
SPLINE
5
2AB
100
AcDbEntity
8
1
62
256
6
ByLayer
370
18
48
1
60
0
100
AcDbSpline
70
4
71
3
72
8
73
4
40
0
40
0
40
0
40
0
40
1
40
1
40
1
40
1
41
1
10
53.6170736973045
20
56.9176568911502
30
0
41
1
10
53.951144348883
20
58.4758951939951
30
0
41
1
10
54.4460938699095
20
59.9781658338789
30
0
41
1
10
55.0808737591426
20
61.4317913101912
30
0
0
SPLINE
5
2AC
100
AcDbEntity
8
1
62
256
6
ByLayer
370
18
48
1
60
0
100
AcDbSpline
70
4
71
3
72
8
73
4
40
0
40
0
40
0
40
0
40
1
40
1
40
1
40
1
41
1
10
55.2352207777468
20
61.7232073298525
30
0
41
1
10
57.1557988909705
20
65.0665833826758
30
0
41
1
10
59.0775331045851
20
68.4092954170284
30
0
41
1
10
61
20
71.7515857628272
30
0
0
SPLINE
5
2AD
100
AcDbEntity
8
1
62
256
6
ByLayer
370
18
48
1
60
0
100
AcDbSpline
70
4
71
3
72
10
73
6
40
0
40
0
40
0
40
0
40
0.401868592020638
40
0.401868592020638
40
1
40
1
40
1
40
1
41
1
10
61
20
71.7515857628272
30
0
41
1
10
61.8418424238652
20
71.9780021922853
30
0
41
1
10
62.6836868511851
20
72.2044111727923
30
0
41
1
10
64.7785168315503
20
72.7677837366105
30
0
41
1
10
66.0315047509979
20
73.104738521261
30
0
41
1
10
67.2844968080939
20
73.4416779186384
30
0
0
SPLINE
5
2AE
100
AcDbEntity
8
1
62
256
6
ByLayer
370
18
48
1
60
0
100
AcDbSpline
70
4
71
3
72
18
73
14
40
0
40
0
40
0
40
0
40
0.160893488427995
40
0.160893488427995
40
0.320024701559063
40
0.320024701559063
40
0.471739101746038
40
0.471739101746038
40
0.616553453947186
40
0.616553453947186
40
0.900651181042575
40
0.900651181042575
40
1
40
1
40
1
40
1
41
1
10
55.0808737591436
20
61.4317913101931
30
0
41
1
10
55.0847484053319
20
61.4406641250169
30
0
41
1
10
55.0894805098149
20
61.450946170314
30
0
41
1
10
55.1004722602059
20
61.4738998271557
30
0
41
1
10
55.1067515568786
20
61.4866209451783
30
0
41
1
10
55.1204202418408
20
61.5136226942277
30
0
41
1
10
55.1277896273977
20
61.5278924117343
30
0
41
1
10
55.1433182014598
20
61.557433195671
30
0
41
1
10
55.1514774828904
20
61.5727265240767
30
0
41
1
10
55.1767306895782
20
61.6194149367575
30
0
41
1
10
55.1954152379965
20
61.6531546251133
30
0
41
1
10
55.2213926129009
20
61.6990464978017
30
0
41
1
10
55.2282942820864
20
61.7111495647652
30
0
41
1
10
55.2352207777468
20
61.7232073298526
30
0
0
SPLINE
5
2AF
100
AcDbEntity
8
1
62
256
6
ByLayer
370
18
48
1
60
0
100
AcDbSpline
70
4
71
3
72
18
73
14
40
0
40
0
40
0
40
0
40
0.185832572047046
40
0.185832572047046
40
0.343075808699627
40
0.343075808699627
40
0.49649747930802
40
0.49649747930802
40
0.645512559688729
40
0.645512559688729
40
0.790377368272771
40
0.790377368272771
40
1
40
1
40
1
40
1
41
1
10
72.4999999999999
20
55.2786245294387
30
0
41
1
10
72.4999999999999
20
55.2906635591886
30
0
41
1
10
72.5000000000001
20
55.3050370415218
30
0
41
1
10
72.5000000000001
20
55.3352515296969
30
0
41
1
10
72.4999999999999
20
55.3506308664093
30
0
41
1
10
72.4999999999999
20
55.3834666145398
30
0
41
1
10
72.5000000000001
20
55.4009739820664
30
0
41
1
10
72.5000000000001
20
55.4373848914306
30
0
41
1
10
72.5000000000001
20
55.4563557879075
30
0
41
1
10
72.5000000000001
20
55.4950810381088
30
0
41
1
10
72.5000000000001
20
55.5149282051563
30
0
41
1
10
72.5000000000001
20
55.5642667372232
30
0
41
1
10
72.5000000000001
20
55.5945237613743
30
0
41
1
10
72.5000000000001
20
55.6245623967753
30
0
0
SPLINE
5
2B0
100
AcDbEntity
8
1
62
256
6
ByLayer
370
18
48
1
60
0
100
AcDbSpline
70
4
71
3
72
8
73
4
40
0
40
0
40
0
40
0
40
1
40
1
40
1
40
1
41
1
10
53.3701719579292
20
-40.0959277494714
30
0
41
1
10
51.4461039883141
20
-38.5313083854631
30
0
41
1
10
49.5321555758416
20
-36.9641920818253
30
0
41
1
10
47.6363268705508
20
-35.3926048498359
30
0
0
SPLINE
5
2B1
100
AcDbEntity
8
1
62
256
6
ByLayer
370
18
48
1
60
0
100
AcDbSpline
70
4
71
3
72
10
73
6
40
0
40
0
40
0
40
0
40
0.5
40
0.5
40
1
40
1
40
1
40
1
41
1
10
47.5008045096383
20
-35.4325647952788
30
0
41
1
10
46.5227027828901
20
-41.8869036898493
30
0
41
1
10
47.5973708869674
20
-47.7324455128928
30
0
41
1
10
52.798489394684
20
-58.4826116337298
30
0
41
1
10
56.6697066246215
20
-63.2673448975865
30
0
41
1
10
61
20
-67.8387906252458
30
0
0
SPLINE
5
2B2
100
AcDbEntity
8
1
62
256
6
ByLayer
370
18
48
1
60
0
100
AcDbSpline
70
4
71
3
72
8
73
4
40
0
40
0
40
0
40
0
40
1
40
1
40
1
40
1
41
1
10
53.3701719579292
20
-40.0959277494714
30
0
41
1
10
53.8138824021284
20
-37.9247241875629
30
0
41
1
10
54.4244269285891
20
-35.7253910989378
30
0
41
1
10
55.1754630377934
20
-33.5023700343508
30
0
0
SPLINE
5
2B3
100
AcDbEntity
8
1
62
256
6
ByLayer
370
18
48
1
60
0
100
AcDbSpline
70
4
71
3
72
18
73
14
40
0
40
0
40
0
40
0
40
0.16788044789102
40
0.16788044789102
40
0.334754700685949
40
0.334754700685949
40
0.493350423335808
40
0.493350423335808
40
0.644478519129058
40
0.644478519129058
40
0.940861047629623
40
0.940861047629623
40
1
40
1
40
1
40
1
41
1
10
55.1755426664911
20
-33.5021347432083
30
0
41
1
10
55.1799343327964
20
-33.4891802997326
30
0
41
1
10
55.1851441203625
20
-33.4775124216716
30
0
41
1
10
55.1970254416923
20
-33.4573707410283
30
0
41
1
10
55.2037278656032
20
-33.4488130185961
30
0
41
1
10
55.2181194244771
20
-33.435508056018
30
0
41
1
10
55.2257906898655
20
-33.4305509999907
30
0
41
1
10
55.2418055915588
20
-33.4242073419973
30
0
41
1
10
55.2501532617251
20
-33.4226445143581
30
0
41
1
10
55.2758144854406
20
-33.4228634553354
30
0
41
1
10
55.2945864290492
20
-33.4293373174977
30
0
41
1
10
55.3175161133499
20
-33.4445358093032
30
0
41
1
10
55.3214008868725
20
-33.4473481035316
30
0
41
1
10
55.3252953388755
20
-33.450404763773
30
0
0
SPLINE
5
2B4
100
AcDbEntity
8
1
62
256
6
ByLayer
370
18
48
1
60
0
100
AcDbSpline
70
4
71
3
72
8
73
4
40
0
40
0
40
0
40
0
40
1
40
1
40
1
40
1
41
1
10
55.3252953388755
20
-33.4504047637727
30
0
41
1
10
57.2158850300066
20
-34.9342824280247
30
0
41
1
10
59.1075871970749
20
-36.4178719911327
30
0
41
1
10
61
20
-37.9012771484454
30
0
0
SPLINE
5
2B5
100
AcDbEntity
8
1
62
256
6
ByLayer
370
18
48
1
60
0
100
AcDbSpline
70
4
71
3
72
8
73
4
40
0
40
0
40
0
40
0
40
1
40
1
40
1
40
1
41
1
10
61
20
-37.9012771484454
30
0
41
1
10
63.0948201489088
20
-38.155305666479
30
0
41
1
10
65.1896526979994
20
-38.4093133974566
30
0
41
1
10
67.2844968080954
20
-38.6633017431963
30
0
0
SPLINE
5
2B6
100
AcDbEntity
8
1
62
256
6
ByLayer
370
18
48
1
60
0
100
AcDbSpline
70
4
71
3
72
16
73
12
40
0
40
0
40
0
40
0
40
0.463076323289495
40
0.463076323289495
40
0.645417922138952
40
0.645417922138952
40
0.830321639273342
40
0.830321639273342
40
0.944651290970198
40
0.944651290970198
40
1
40
1
40
1
40
1
41
1
10
10.1056624327026
20
12.6576002058704
30
0
41
1
10
10.1343124491107
20
12.5522940543948
30
0
41
1
10
10.1735051369363
20
12.4476658274362
30
0
41
1
10
10.2540961394291
20
12.316050897666
30
0
41
1
10
10.2802114910956
20
12.2800720868289
30
0
41
1
10
10.3409361701455
20
12.2151290969611
30
0
41
1
10
10.3764451765787
20
12.1854983827961
30
0
41
1
10
10.4416217638846
20
12.1514192676284
30
0
41
1
10
10.468977488351
20
12.1415603847926
30
0
41
1
10
10.5107386416705
20
12.1343167157599
30
0
41
1
10
10.5247338160839
20
12.1330899674706
30
0
41
1
10
10.5386751345948
20
12.1330899674706
30
0
0
SPLINE
5
2B7
100
AcDbEntity
8
1
62
256
6
ByLayer
370
18
48
1
60
0
100
AcDbSpline
70
4
71
3
72
16
73
12
40
0
40
0
40
0
40
0
40
0.111412770144075
40
0.111412770144075
40
0.248965452398453
40
0.248965452398453
40
0.467123877727669
40
0.467123877727669
40
0.88986693461412
40
0.88986693461412
40
1
40
1
40
1
40
1
41
1
10
10.5386751345948
20
38.1154578595255
30
0
41
1
10
10.5108974058611
20
38.1154578595255
30
0
41
1
10
10.4827743882888
20
38.1138543599703
30
0
41
1
10
10.4244336825547
20
38.1074356116134
30
0
41
1
10
10.3942835753398
20
38.1019214555357
30
0
41
1
10
10.3250538187423
20
38.0851194427551
30
0
41
1
10
10.2893056457258
20
38.0721266199021
30
0
41
1
10
10.2004891336895
20
38.0315976751082
30
0
41
1
10
10.1593775082021
20
38.0009250413257
30
0
41
1
10
10.1200174011447
20
37.9612613686127
30
0
41
1
10
10.1125270066363
20
37.9529177724503
30
0
41
1
10
10.1056624327025
20
37.9445010117191
30
0
0
SPLINE
5
2B8
100
AcDbEntity
8
1
62
256
6
ByLayer
370
18
48
1
60
0
100
AcDbSpline
70
4
71
3
72
16
73
12
40
0
40
0
40
0
40
0
40
0.111412770144068
40
0.111412770144068
40
0.248965452398453
40
0.248965452398453
40
0.46712387772767
40
0.46712387772767
40
0.889866934614038
40
0.889866934614038
40
1
40
1
40
1
40
1
41
1
10
13.4613248654052
20
12.1330899674707
30
0
41
1
10
13.489102594139
20
12.1330899674707
30
0
41
1
10
13.5172256117112
20
12.1381298129189
30
0
41
1
10
13.5755663174453
20
12.1582682733016
30
0
41
1
10
13.6057164246602
20
12.1755507890901
30
0
41
1
10
13.6749461812577
20
12.2280340568692
30
0
41
1
10
13.7106943542742
20
12.2684634146654
30
0
41
1
10
13.7995108663105
20
12.3937525277222
30
0
41
1
10
13.8406224917979
20
12.4875806371415
30
0
41
1
10
13.8799825988554
20
12.6072726192704
30
0
41
1
10
13.8874729933637
20
12.6323687416998
30
0
41
1
10
13.8943375672975
20
12.6576002058703
30
0
0
SPLINE
5
2B9
100
AcDbEntity
8
1
62
256
6
ByLayer
370
18
48
1
60
0
100
AcDbSpline
70
4
71
3
72
16
73
12
40
0
40
0
40
0
40
0
40
0.463076323289429
40
0.463076323289429
40
0.645417922138913
40
0.645417922138913
40
0.830321639273325
40
0.830321639273325
40
0.944651290970197
40
0.944651290970197
40
1
40
1
40
1
40
1
41
1
10
13.8943375672974
20
37.9445010117191
30
0
41
1
10
13.8656875508894
20
37.9796292418725
30
0
41
1
10
13.8264948630637
20
38.0140162383101
30
0
41
1
10
13.7459038605709
20
38.0567528229612
30
0
41
1
10
13.7197885089044
20
38.0683724898051
30
0
41
1
10
13.6590638298545
20
38.0892608704532
30
0
41
1
10
13.6235548234214
20
38.0987416550407
30
0
41
1
10
13.5583782361154
20
38.1096208051146
30
0
41
1
10
13.531022511649
20
38.112760822145
30
0
41
1
10
13.4892613583295
20
38.1150674153361
30
0
41
1
10
13.4752661839161
20
38.1154578595255
30
0
41
1
10
13.4613248654052
20
38.1154578595255
30
0
0
SPLINE
5
2BA
100
AcDbEntity
8
1
62
256
6
ByLayer
370
18
48
1
60
0
100
AcDbSpline
70
4
71
3
72
14
73
10
40
0
40
0
40
0
40
0
40
0.306596477913576
40
0.306596477913576
40
0.613240426087295
40
0.613240426087295
40
0.919563086458862
40
0.919563086458862
40
1
40
1
40
1
40
1
41
1
10
47.5008045096383
20
-35.4325647952788
30
0
41
1
10
47.5045581720495
20
-35.4077949695694
30
0
41
1
10
47.5120860795002
20
-35.3882160804324
30
0
41
1
10
47.5334976518205
20
-35.3627963364776
30
0
41
1
10
47.5476745813186
20
-35.3566111539038
30
0
41
1
10
47.5805430875688
20
-35.3582324350709
30
0
41
1
10
47.5996698384482
20
-35.3660377794904
30
0
41
1
10
47.6252906239791
20
-35.3838192551373
30
0
41
1
10
47.6307742082847
20
-35.3880018532168
30
0
41
1
10
47.6363268705508
20
-35.3926048498359
30
0
0
SPLINE
5
2BB
100
AcDbEntity
8
1
62
256
6
ByLayer
370
18
48
1
60
0
100
AcDbSpline
70
4
71
3
72
14
73
10
40
0
40
0
40
0
40
0
40
0.291471912956367
40
0.291471912956367
40
0.583015259065967
40
0.583015259065967
40
0.873902411559694
40
0.873902411559694
40
1
40
1
40
1
40
1
41
1
10
47.2883817241715
20
45.3174393998859
30
0
41
1
10
47.2908510117175
20
45.336400870329
30
0
41
1
10
47.2970990247806
20
45.361365500626
30
0
41
1
10
47.3161909378355
20
45.419308849506
30
0
41
1
10
47.3292976406268
20
45.4530826079947
30
0
41
1
10
47.3603641966975
20
45.5245221594415
30
0
41
1
10
47.3787282949234
20
45.5631399920853
30
0
41
1
10
47.4070325957006
20
45.6184024429271
30
0
41
1
10
47.4159779996236
20
45.6353489476499
30
0
41
1
10
47.4251027743985
20
45.6521422400941
30
0
0
SPLINE
5
2BC
100
AcDbEntity
8
1
62
256
6
ByLayer
370
18
48
1
60
0
100
AcDbSpline
70
4
71
3
72
16
73
12
40
0
40
0
40
0
40
0
40
0.463076323289435
40
0.463076323289435
40
0.645417922138904
40
0.645417922138904
40
0.830321639273306
40
0.830321639273306
40
0.944651290970179
40
0.944651290970179
40
1
40
1
40
1
40
1
41
1
10
10.1056624327026
20
-37.9445010117191
30
0
41
1
10
10.1343124491107
20
-37.9796292418725
30
0
41
1
10
10.1735051369363
20
-38.0140162383101
30
0
41
1
10
10.2540961394291
20
-38.0567528229612
30
0
41
1
10
10.2802114910956
20
-38.0683724898051
30
0
41
1
10
10.3409361701455
20
-38.0892608704532
30
0
41
1
10
10.3764451765787
20
-38.0987416550407
30
0
41
1
10
10.4416217638846
20
-38.1096208051146
30
0
41
1
10
10.468977488351
20
-38.112760822145
30
0
41
1
10
10.5107386416705
20
-38.1150674153361
30
0
41
1
10
10.5247338160839
20
-38.1154578595255
30
0
41
1
10
10.5386751345948
20
-38.1154578595255
30
0
0
SPLINE
5
2BD
100
AcDbEntity
8
1
62
256
6
ByLayer
370
18
48
1
60
0
100
AcDbSpline
70
4
71
3
72
16
73
12
40
0
40
0
40
0
40
0
40
0.111412770144079
40
0.111412770144079
40
0.248965452398464
40
0.248965452398464
40
0.467123877727682
40
0.467123877727682
40
0.889866934614089
40
0.889866934614089
40
1
40
1
40
1
40
1
41
1
10
10.5386751345948
20
-12.1330899674707
30
0
41
1
10
10.5108974058611
20
-12.1330899674707
30
0
41
1
10
10.4827743882888
20
-12.1381298129189
30
0
41
1
10
10.4244336825547
20
-12.1582682733017
30
0
41
1
10
10.3942835753398
20
-12.1755507890901
30
0
41
1
10
10.3250538187423
20
-12.2280340568692
30
0
41
1
10
10.2893056457258
20
-12.2684634146654
30
0
41
1
10
10.2004891336895
20
-12.3937525277222
30
0
41
1
10
10.1593775082021
20
-12.4875806371415
30
0
41
1
10
10.1200174011447
20
-12.6072726192704
30
0
41
1
10
10.1125270066363
20
-12.6323687416998
30
0
41
1
10
10.1056624327025
20
-12.6576002058703
30
0
0
SPLINE
5
2BE
100
AcDbEntity
8
1
62
256
6
ByLayer
370
18
48
1
60
0
100
AcDbSpline
70
4
71
3
72
16
73
12
40
0
40
0
40
0
40
0
40
0.111412770144064
40
0.111412770144064
40
0.248965452398448
40
0.248965452398448
40
0.467123877727643
40
0.467123877727643
40
0.889866934613992
40
0.889866934613992
40
1
40
1
40
1
40
1
41
1
10
13.4613248654052
20
-38.1154578595255
30
0
41
1
10
13.489102594139
20
-38.1154578595255
30
0
41
1
10
13.5172256117112
20
-38.1138543599703
30
0
41
1
10
13.5755663174453
20
-38.1074356116134
30
0
41
1
10
13.6057164246602
20
-38.1019214555357
30
0
41
1
10
13.6749461812577
20
-38.0851194427551
30
0
41
1
10
13.7106943542742
20
-38.0721266199021
30
0
41
1
10
13.7995108663105
20
-38.0315976751082
30
0
41
1
10
13.8406224917979
20
-38.0009250413257
30
0
41
1
10
13.8799825988553
20
-37.9612613686127
30
0
41
1
10
13.8874729933637
20
-37.9529177724503
30
0
41
1
10
13.8943375672975
20
-37.9445010117191
30
0
0
SPLINE
5
2BF
100
AcDbEntity
8
1
62
256
6
ByLayer
370
18
48
1
60
0
100
AcDbSpline
70
4
71
3
72
16
73
12
40
0
40
0
40
0
40
0
40
0.463076323289524
40
0.463076323289524
40
0.645417922138982
40
0.645417922138982
40
0.830321639273368
40
0.830321639273368
40
0.944651290970226
40
0.944651290970226
40
1
40
1
40
1
40
1
41
1
10
13.8943375672974
20
-12.6576002058704
30
0
41
1
10
13.8656875508894
20
-12.5522940543948
30
0
41
1
10
13.8264948630637
20
-12.4476658274361
30
0
41
1
10
13.7459038605709
20
-12.3160508976659
30
0
41
1
10
13.7197885089044
20
-12.2800720868289
30
0
41
1
10
13.6590638298545
20
-12.2151290969611
30
0
41
1
10
13.6235548234213
20
-12.1854983827961
30
0
41
1
10
13.5583782361154
20
-12.1514192676284
30
0
41
1
10
13.531022511649
20
-12.1415603847926
30
0
41
1
10
13.4892613583295
20
-12.1343167157599
30
0
41
1
10
13.4752661839161
20
-12.1330899674705
30
0
41
1
10
13.4613248654052
20
-12.1330899674705
30
0
0
SPLINE
5
2C0
100
AcDbEntity
8
1
62
256
6
ByLayer
370
18
48
1
60
0
100
AcDbSpline
70
4
71
3
72
8
73
4
40
0
40
0
40
0
40
0
40
1
40
1
40
1
40
1
41
1
10
55.1754630377934
20
-33.5023700343508
30
0
41
1
10
55.1754895446082
20
-33.502291575796
30
0
41
1
10
55.1755160515961
20
-33.5022131172165
30
0
41
1
10
55.1755425587571
20
-33.5021346586123
30
0
0
SPLINE
5
2C1
100
AcDbEntity
8
1
62
256
6
ByLayer
370
18
48
1
60
0
100
AcDbSpline
70
4
71
3
72
10
73
6
40
0
40
0
40
0
40
0
40
0.803866996924829
40
0.803866996924829
40
1
40
1
40
1
40
1
41
1
10
67.284496808093
20
73.4416779186381
30
0
41
1
10
66.7015138081205
20
73.4213197036785
30
0
41
1
10
66.3287419082674
20
73.4083022220907
30
0
41
1
10
66.1730808762358
20
73.4028664190723
30
0
41
1
10
66.1580662977882
20
73.4023420984393
30
0
41
1
10
66.1581399115697
20
73.4023446690892
30
0
0
SPLINE
5
2C2
100
AcDbEntity
8
1
62
256
6
ByLayer
370
18
48
1
60
0
100
AcDbSpline
70
4
71
3
72
8
73
4
40
0
40
0
40
0
40
0
40
1
40
1
40
1
40
1
41
1
10
53.6170736973045
20
56.9176568911502
30
0
41
1
10
51.5383023937706
20
53.1706597935018
30
0
41
1
10
49.4709564184603
20
49.417344054956
30
0
41
1
10
47.4251027743985
20
45.6521422400941
30
0
0
LINE
5
70
100
AcDbEntity
8
SK1
62
256
6
ByLayer
370
18
48
1
60
0
100
AcDbLine
10
117.9
20
39.9325
30
0
11
117.9
21
24.4675
31
0
39
0
210
0
220
0
230
1
0
LINE
5
72
100
AcDbEntity
8
SK1
62
256
6
ByLayer
370
18
48
1
60
0
100
AcDbLine
10
110.3
20
37.2
30
0
11
110.3
21
53.2
31
0
39
0
210
0
220
0
230
1
0
LINE
5
73
100
AcDbEntity
8
SK1
62
256
6
ByLayer
370
18
48
1
60
0
100
AcDbLine
10
100.8
20
35.2
30
0
11
100.8
21
55.2
31
0
39
0
210
0
220
0
230
1
0
LINE
5
74
100
AcDbEntity
8
SK1
62
256
6
ByLayer
370
18
48
1
60
0
100
AcDbLine
10
100
20
50.2
30
0
11
88.779627
21
50.2
31
0
39
0
210
0
220
0
230
1
0
LINE
5
75
100
AcDbEntity
8
SK1
62
256
6
ByLayer
370
18
48
1
60
0
100
AcDbLine
10
105.9
20
23.2675
30
0
11
116.7
21
23.2675
31
0
39
0
210
0
220
0
230
1
0
LINE
5
76
100
AcDbEntity
8
SK1
62
256
6
ByLayer
370
18
48
1
60
0
100
AcDbLine
10
100.8
20
55.2
30
0
11
100
21
55.2
31
0
39
0
210
0
220
0
230
1
0
LINE
5
77
100
AcDbEntity
8
SK1
62
256
6
ByLayer
370
18
48
1
60
0
100
AcDbLine
10
105.9
20
14.586533
30
0
11
105
21
14.586533
31
0
39
0
210
0
220
0
230
1
0
LINE
5
78
100
AcDbEntity
8
SK1
62
256
6
ByLayer
370
18
48
1
60
0
100
AcDbLine
10
105
20
8.086533
30
0
11
86.615681
21
8.086533
31
0
39
0
210
0
220
0
230
1
0
LINE
5
79
100
AcDbEntity
8
SK1
62
256
6
ByLayer
370
18
48
1
60
0
100
AcDbLine
10
110.3
20
53.2
30
0
11
100.8
21
53.2
31
0
39
0
210
0
220
0
230
1
0
LINE
5
7A
100
AcDbEntity
8
SK1
62
256
6
ByLayer
370
18
48
1
60
0
100
AcDbLine
10
116.7
20
41.1325
30
0
11
110.8
21
41.1325
31
0
39
0
210
0
220
0
230
1
0
LINE
5
7B
100
AcDbEntity
8
SK1
62
256
6
ByLayer
370
18
48
1
60
0
100
AcDbLine
10
110.3
20
53.2
30
0
11
100.8
21
53.2
31
0
39
0
210
0
220
0
230
1
0
LINE
5
7C
100
AcDbEntity
8
SK1
62
256
6
ByLayer
370
18
48
1
60
0
100
AcDbLine
10
88.779627
20
26.2
30
0
11
105
21
26.2
31
0
39
0
210
0
220
0
230
1
0
LINE
5
7D
100
AcDbEntity
8
SK1
62
256
6
ByLayer
370
18
48
1
60
0
100
AcDbLine
10
-2.2
20
12.864565
30
0
11
-2.2
21
24.989566
31
0
39
0
210
0
220
0
230
1
0
LINE
5
7E
100
AcDbEntity
8
SK1
62
256
6
ByLayer
370
18
48
1
60
0
100
AcDbLine
10
105
20
8.086533
30
0
11
86.615681
21
8.086533
31
0
39
0
210
0
220
0
230
1
0
LINE
5
7F
100
AcDbEntity
8
SK1
62
256
6
ByLayer
370
18
48
1
60
0
100
AcDbLine
10
100.8
20
55.2
30
0
11
100
21
55.2
31
0
39
0
210
0
220
0
230
1
0
LINE
5
80
100
AcDbEntity
8
SK1
62
256
6
ByLayer
370
18
48
1
60
0
100
AcDbLine
10
116.7
20
23.2675
30
0
11
116.7
21
41.1325
31
0
39
0
210
0
220
0
230
1
0
LINE
5
81
100
AcDbEntity
8
SK1
62
256
6
ByLayer
370
18
48
1
60
0
100
AcDbLine
10
100
20
50.2
30
0
11
88.779627
21
50.2
31
0
39
0
210
0
220
0
230
1
0
LINE
5
82
100
AcDbEntity
8
SK1
62
256
6
ByLayer
370
18
48
1
60
0
100
AcDbLine
10
105.9
20
23.2675
30
0
11
116.7
21
23.2675
31
0
39
0
210
0
220
0
230
1
0
LINE
5
83
100
AcDbEntity
8
SK1
62
256
6
ByLayer
370
18
48
1
60
0
100
AcDbLine
10
110.3
20
37.2
30
0
11
110.3
21
53.2
31
0
39
0
210
0
220
0
230
1
0
LINE
5
84
100
AcDbEntity
8
SK1
62
256
6
ByLayer
370
18
48
1
60
0
100
AcDbLine
10
117.9
20
39.9325
30
0
11
117.9
21
24.4675
31
0
39
0
210
0
220
0
230
1
0
LINE
5
85
100
AcDbEntity
8
SK1
62
256
6
ByLayer
370
18
48
1
60
0
100
AcDbLine
10
105
20
19.7
30
0
11
105.9
21
19.7
31
0
39
0
210
0
220
0
230
1
0
LINE
5
86
100
AcDbEntity
8
SK1
62
256
6
ByLayer
370
18
48
1
60
0
100
AcDbLine
10
100.8
20
4.720508
30
0
11
100
21
4.720508
31
0
39
0
210
0
220
0
230
1
0
LINE
5
87
100
AcDbEntity
8
SK1
62
256
6
ByLayer
370
18
48
1
60
0
100
AcDbLine
10
100
20
35.2
30
0
11
100
21
55.2
31
0
39
0
210
0
220
0
230
1
0
LINE
5
88
100
AcDbEntity
8
SK1
62
256
6
ByLayer
370
18
48
1
60
0
100
AcDbLine
10
116.7
20
11.019033
30
0
11
105.9
21
11.019033
31
0
39
0
210
0
220
0
230
1
0
LINE
5
89
100
AcDbEntity
8
SK1
62
256
6
ByLayer
370
18
48
1
60
0
100
AcDbLine
10
88.779627
20
26.2
30
0
11
105
21
26.2
31
0
39
0
210
0
220
0
230
1
0
LINE
5
8A
100
AcDbEntity
8
SK1
62
256
6
ByLayer
370
18
48
1
60
0
100
AcDbLine
10
110.8
20
52.7
30
0
11
110.8
21
37.7
31
0
39
0
210
0
220
0
230
1
0
LINE
5
8B
100
AcDbEntity
8
SK1
62
256
6
ByLayer
370
18
48
1
60
0
100
AcDbLine
10
116.7
20
23.2675
30
0
11
116.7
21
41.1325
31
0
39
0
210
0
220
0
230
1
0
LINE
5
8C
100
AcDbEntity
8
SK1
62
256
6
ByLayer
370
18
48
1
60
0
100
AcDbLine
10
100
20
35.2
30
0
11
100
21
55.2
31
0
39
0
210
0
220
0
230
1
0
LINE
5
8D
100
AcDbEntity
8
SK1
62
256
6
ByLayer
370
18
48
1
60
0
100
AcDbLine
10
105.9
20
14.586533
30
0
11
105
21
14.586533
31
0
39
0
210
0
220
0
230
1
0
LINE
5
8E
100
AcDbEntity
8
SK1
62
256
6
ByLayer
370
18
48
1
60
0
100
AcDbLine
10
88.779627
20
40.2
30
0
11
100
21
40.2
31
0
39
0
210
0
220
0
230
1
0
LINE
5
8F
100
AcDbEntity
8
SK1
62
256
6
ByLayer
370
18
48
1
60
0
100
AcDbLine
10
100.8
20
35.2
30
0
11
100.8
21
55.2
31
0
39
0
210
0
220
0
230
1
0
LINE
5
90
100
AcDbEntity
8
SK1
62
256
6
ByLayer
370
18
48
1
60
0
100
AcDbLine
10
100
20
38.2
30
0
11
88.779627
21
38.2
31
0
39
0
210
0
220
0
230
1
0
LINE
5
91
100
AcDbEntity
8
SK1
62
256
6
ByLayer
370
18
48
1
60
0
100
AcDbLine
10
110.8
20
52.7
30
0
11
110.8
21
37.7
31
0
39
0
210
0
220
0
230
1
0
LINE
5
92
100
AcDbEntity
8
SK1
62
256
6
ByLayer
370
18
48
1
60
0
100
AcDbLine
10
-2.2
20
12.864565
30
0
11
-2.2
21
24.989566
31
0
39
0
210
0
220
0
230
1
0
LINE
5
93
100
AcDbEntity
8
SK1
62
256
6
ByLayer
370
18
48
1
60
0
100
AcDbLine
10
100
20
38.2
30
0
11
88.779627
21
38.2
31
0
39
0
210
0
220
0
230
1
0
LINE
5
94
100
AcDbEntity
8
SK1
62
256
6
ByLayer
370
18
48
1
60
0
100
AcDbLine
10
88.779627
20
40.2
30
0
11
100
21
40.2
31
0
39
0
210
0
220
0
230
1
0
LINE
5
95
100
AcDbEntity
8
SK1
62
256
6
ByLayer
370
18
48
1
60
0
100
AcDbLine
10
116.7
20
11.019033
30
0
11
105.9
21
11.019033
31
0
39
0
210
0
220
0
230
1
0
LINE
5
96
100
AcDbEntity
8
SK1
62
256
6
ByLayer
370
18
48
1
60
0
100
AcDbLine
10
100.8
20
4.720508
30
0
11
100
21
4.720508
31
0
39
0
210
0
220
0
230
1
0
LINE
5
97
100
AcDbEntity
8
SK1
62
256
6
ByLayer
370
18
48
1
60
0
100
AcDbLine
10
105
20
19.7
30
0
11
105.9
21
19.7
31
0
39
0
210
0
220
0
230
1
0
LINE
5
98
100
AcDbEntity
8
SK1
62
256
6
ByLayer
370
18
48
1
60
0
100
AcDbLine
10
116.7
20
41.1325
30
0
11
110.8
21
41.1325
31
0
39
0
210
0
220
0
230
1
0
LINE
5
99
100
AcDbEntity
8
SK1
62
256
6
ByLayer
370
18
48
1
60
0
100
AcDbLine
10
88.086056
20
-10.279492
30
0
11
100
21
-10.279492
31
0
39
0
210
0
220
0
230
1
0
LINE
5
9A
100
AcDbEntity
8
SK1
62
256
6
ByLayer
370
18
48
1
60
0
100
AcDbLine
10
100
20
-49.920508
30
0
11
100.8
21
-49.920508
31
0
39
0
210
0
220
0
230
1
0
LINE
5
9B
100
AcDbEntity
8
SK1
62
256
6
ByLayer
370
18
48
1
60
0
100
AcDbLine
10
117.9
20
1.079183
30
0
11
117.9
21
-5.645967
31
0
39
0
210
0
220
0
230
1
0
LINE
5
9C
100
AcDbEntity
8
SK1
62
256
6
ByLayer
370
18
48
1
60
0
100
AcDbLine
10
105
20
-28.036533
30
0
11
105
21
-21.786533
31
0
39
0
210
0
220
0
230
1
0
LINE
5
9D
100
AcDbEntity
8
SK1
62
256
6
ByLayer
370
18
48
1
60
0
100
AcDbLine
10
113.5
20
-6.845967
30
0
11
113.5
21
-7.470352
31
0
39
0
210
0
220
0
230
1
0
LINE
5
9E
100
AcDbEntity
8
SK1
62
256
6
ByLayer
370
18
48
1
60
0
100
AcDbLine
10
105.9
20
-28.036533
30
0
11
105.9
21
-21.786533
31
0
39
0
210
0
220
0
230
1
0
LINE
5
9F
100
AcDbEntity
8
SK1
62
256
6
ByLayer
370
18
48
1
60
0
100
AcDbLine
10
111.5
20
-8.00625
30
0
11
111.5
21
-6.845967
31
0
39
0
210
0
220
0
230
1
0
LINE
5
A0
100
AcDbEntity
8
SK1
62
256
6
ByLayer
370
18
48
1
60
0
100
AcDbLine
10
-2.2
20
-24.989567
30
0
11
-2.2
21
-12.864564
31
0
39
0
210
0
220
0
230
1
0
LINE
5
A1
100
AcDbEntity
8
SK1
62
256
6
ByLayer
370
18
48
1
60
0
100
AcDbLine
10
105.9
20
-21.786533
30
0
11
105
21
-21.786533
31
0
39
0
210
0
220
0
230
1
0
LINE
5
A2
100
AcDbEntity
8
SK1
62
256
6
ByLayer
370
18
48
1
60
0
100
AcDbLine
10
100.8
20
-49.920508
30
0
11
100.8
21
-40.286533
31
0
39
0
210
0
220
0
230
1
0
LINE
5
A3
100
AcDbEntity
8
SK1
62
256
6
ByLayer
370
18
48
1
60
0
100
AcDbLine
10
110.8
20
2.220508
30
0
11
110.8
21
-12.779492
31
0
39
0
210
0
220
0
230
1
0
LINE
5
A4
100
AcDbEntity
8
SK1
62
256
6
ByLayer
370
18
48
1
60
0
100
AcDbLine
10
105
20
-28.286533
30
0
11
88.06082
21
-28.286533
31
0
39
0
210
0
220
0
230
1
0
LINE
5
A5
100
AcDbEntity
8
SK1
62
256
6
ByLayer
370
18
48
1
60
0
100
AcDbLine
10
116.7
20
-43.219033
30
0
11
116.7
21
-25.354033
31
0
39
0
210
0
220
0
230
1
0
LINE
5
A6
100
AcDbEntity
8
SK1
62
256
6
ByLayer
370
18
48
1
60
0
100
AcDbLine
10
105
20
-46.786533
30
0
11
105
21
-28.036533
31
0
39
0
210
0
220
0
230
1
0
LINE
5
A7
100
AcDbEntity
8
SK1
62
256
6
ByLayer
370
18
48
1
60
0
100
AcDbLine
10
100
20
-49.920508
30
0
11
100.8
21
-49.920508
31
0
39
0
210
0
220
0
230
1
0
LINE
5
A8
100
AcDbEntity
8
SK1
62
256
6
ByLayer
370
18
48
1
60
0
100
AcDbLine
10
110.3
20
-13.279492
30
0
11
110.3
21
2.720508
31
0
39
0
210
0
220
0
230
1
0
LINE
5
A9
100
AcDbEntity
8
SK1
62
256
6
ByLayer
370
18
48
1
60
0
100
AcDbLine
10
110.8
20
-43.219033
30
0
11
110.8
21
-47.420508
31
0
39
0
210
0
220
0
230
1
0
LINE
5
AA
100
AcDbEntity
8
SK1
62
256
6
ByLayer
370
18
48
1
60
0
100
AcDbLine
10
105
20
-46.786533
30
0
11
105
21
-28.036533
31
0
39
0
210
0
220
0
230
1
0
LINE
5
AB
100
AcDbEntity
8
SK1
62
256
6
ByLayer
370
18
48
1
60
0
100
AcDbLine
10
100
20
-0.279492
30
0
11
86.881774
21
-0.279492
31
0
39
0
210
0
220
0
230
1
0
LINE
5
AC
100
AcDbEntity
8
SK1
62
256
6
ByLayer
370
18
48
1
60
0
100
AcDbLine
10
100
20
-49.920508
30
0
11
100
21
-40.286533
31
0
39
0
210
0
220
0
230
1
0
LINE
5
AD
100
AcDbEntity
8
SK1
62
256
6
ByLayer
370
18
48
1
60
0
100
AcDbLine
10
86.615681
20
-40.286533
30
0
11
105
21
-40.286533
31
0
39
0
210
0
220
0
230
1
0
LINE
5
AE
100
AcDbEntity
8
SK1
62
256
6
ByLayer
370
18
48
1
60
0
100
AcDbLine
10
105
20
-46.786533
30
0
11
105.9
21
-46.786533
31
0
39
0
210
0
220
0
230
1
0
LINE
5
AF
100
AcDbEntity
8
SK1
62
256
6
ByLayer
370
18
48
1
60
0
100
AcDbLine
10
-2.2
20
-24.989567
30
0
11
-2.2
21
-12.864564
31
0
39
0
210
0
220
0
230
1
0
LINE
5
B0
100
AcDbEntity
8
SK1
62
256
6
ByLayer
370
18
48
1
60
0
100
AcDbLine
10
105
20
-28.036533
30
0
11
105
21
-21.786533
31
0
39
0
210
0
220
0
230
1
0
LINE
5
B1
100
AcDbEntity
8
SK1
62
256
6
ByLayer
370
18
48
1
60
0
100
AcDbLine
10
117.9
20
-26.554033
30
0
11
117.9
21
-42.019033
31
0
39
0
210
0
220
0
230
1
0
LINE
5
B2
100
AcDbEntity
8
SK1
62
256
6
ByLayer
370
18
48
1
60
0
100
AcDbLine
10
110.8
20
-8.00625
30
0
11
111.5
21
-8.00625
31
0
39
0
210
0
220
0
230
1
0
LINE
5
B3
100
AcDbEntity
8
SK1
62
256
6
ByLayer
370
18
48
1
60
0
100
AcDbLine
10
111.5
20
-8.00625
30
0
11
113.5
21
-7.470352
31
0
39
0
210
0
220
0
230
1
0
LINE
5
B4
100
AcDbEntity
8
SK1
62
256
6
ByLayer
370
18
48
1
60
0
100
AcDbLine
10
86.881774
20
-44.920508
30
0
11
100
21
-44.920508
31
0
39
0
210
0
220
0
230
1
0
LINE
5
B5
100
AcDbEntity
8
SK1
62
256
6
ByLayer
370
18
48
1
60
0
100
AcDbLine
10
100
20
-15.279492
30
0
11
100.8
21
-15.279492
31
0
39
0
210
0
220
0
230
1
0
LINE
5
B6
100
AcDbEntity
8
SK1
62
256
6
ByLayer
370
18
48
1
60
0
100
AcDbLine
10
110.8
20
-43.219033
30
0
11
110.8
21
-47.420508
31
0
39
0
210
0
220
0
230
1
0
LINE
5
B7
100
AcDbEntity
8
SK1
62
256
6
ByLayer
370
18
48
1
60
0
100
AcDbLine
10
100
20
-49.920508
30
0
11
100
21
-40.286533
31
0
39
0
210
0
220
0
230
1
0
LINE
5
B8
100
AcDbEntity
8
SK1
62
256
6
ByLayer
370
18
48
1
60
0
100
AcDbLine
10
117.9
20
-26.554033
30
0
11
117.9
21
-42.019033
31
0
39
0
210
0
220
0
230
1
0
LINE
5
B9
100
AcDbEntity
8
SK1
62
256
6
ByLayer
370
18
48
1
60
0
100
AcDbLine
10
-0.2
20
-6.365251
30
0
11
-0.2
21
-28.683485
31
0
39
0
210
0
220
0
230
1
0
LINE
5
BA
100
AcDbEntity
8
SK1
62
256
6
ByLayer
370
18
48
1
60
0
100
AcDbLine
10
105.9
20
-46.786533
30
0
11
105.9
21
-28.036533
31
0
39
0
210
0
220
0
230
1
0
LINE
5
BB
100
AcDbEntity
8
SK1
62
256
6
ByLayer
370
18
48
1
60
0
100
AcDbLine
10
116.7
20
-6.845967
30
0
11
116.7
21
0.922853
31
0
39
0
210
0
220
0
230
1
0
LINE
5
BC
100
AcDbEntity
8
SK1
62
256
6
ByLayer
370
18
48
1
60
0
100
AcDbLine
10
100.8
20
-49.920508
30
0
11
100.8
21
-40.286533
31
0
39
0
210
0
220
0
230
1
0
LINE
5
BD
100
AcDbEntity
8
SK1
62
256
6
ByLayer
370
18
48
1
60
0
100
AcDbLine
10
100
20
-0.279492
30
0
11
86.881774
21
-0.279492
31
0
39
0
210
0
220
0
230
1
0
LINE
5
BE
100
AcDbEntity
8
SK1
62
256
6
ByLayer
370
18
48
1
60
0
100
AcDbLine
10
105.9
20
-43.219033
30
0
11
116.7
21
-43.219033
31
0
39
0
210
0
220
0
230
1
0
LINE
5
BF
100
AcDbEntity
8
SK1
62
256
6
ByLayer
370
18
48
1
60
0
100
AcDbLine
10
110.3
20
-47.920508
30
0
11
110.3
21
-43.219033
31
0
39
0
210
0
220
0
230
1
0
LINE
5
C0
100
AcDbEntity
8
SK1
62
256
6
ByLayer
370
18
48
1
60
0
100
AcDbLine
10
110.3
20
-13.279492
30
0
11
110.3
21
2.720508
31
0
39
0
210
0
220
0
230
1
0
LINE
5
C1
100
AcDbEntity
8
SK1
62
256
6
ByLayer
370
18
48
1
60
0
100
AcDbLine
10
116.7
20
-25.354033
30
0
11
105.9
21
-25.354033
31
0
39
0
210
0
220
0
230
1
0
LINE
5
C2
100
AcDbEntity
8
SK1
62
256
6
ByLayer
370
18
48
1
60
0
100
AcDbLine
10
111.5
20
-8.00625
30
0
11
113.5
21
-7.470352
31
0
39
0
210
0
220
0
230
1
0
LINE
5
C3
100
AcDbEntity
8
SK1
62
256
6
ByLayer
370
18
48
1
60
0
100
AcDbLine
10
-0.2
20
-6.365251
30
0
11
-0.2
21
-28.683485
31
0
39
0
210
0
220
0
230
1
0
LINE
5
C4
100
AcDbEntity
8
SK1
62
256
6
ByLayer
370
18
48
1
60
0
100
AcDbLine
10
100.8
20
-13.279492
30
0
11
110.3
21
-13.279492
31
0
39
0
210
0
220
0
230
1
0
LINE
5
C5
100
AcDbEntity
8
SK1
62
256
6
ByLayer
370
18
48
1
60
0
100
AcDbLine
10
100.8
20
-47.920508
30
0
11
110.3
21
-47.920508
31
0
39
0
210
0
220
0
230
1
0
LINE
5
C6
100
AcDbEntity
8
SK1
62
256
6
ByLayer
370
18
48
1
60
0
100
AcDbLine
10
100
20
-15.279492
30
0
11
100.8
21
-15.279492
31
0
39
0
210
0
220
0
230
1
0
LINE
5
C7
100
AcDbEntity
8
SK1
62
256
6
ByLayer
370
18
48
1
60
0
100
AcDbLine
10
110.8
20
2.220508
30
0
11
110.8
21
-12.779492
31
0
39
0
210
0
220
0
230
1
0
LINE
5
C8
100
AcDbEntity
8
SK1
62
256
6
ByLayer
370
18
48
1
60
0
100
AcDbLine
10
105
20
-46.786533
30
0
11
105.9
21
-46.786533
31
0
39
0
210
0
220
0
230
1
0
LINE
5
C9
100
AcDbEntity
8
SK1
62
256
6
ByLayer
370
18
48
1
60
0
100
AcDbLine
10
116.7
20
-43.219033
30
0
11
116.7
21
-25.354033
31
0
39
0
210
0
220
0
230
1
0
LINE
5
CA
100
AcDbEntity
8
SK1
62
256
6
ByLayer
370
18
48
1
60
0
100
AcDbLine
10
105.9
20
-28.036533
30
0
11
105.9
21
-21.786533
31
0
39
0
210
0
220
0
230
1
0
LINE
5
CB
100
AcDbEntity
8
SK1
62
256
6
ByLayer
370
18
48
1
60
0
100
AcDbLine
10
88.086056
20
-10.279492
30
0
11
100
21
-10.279492
31
0
39
0
210
0
220
0
230
1
0
LINE
5
CC
100
AcDbEntity
8
SK1
62
256
6
ByLayer
370
18
48
1
60
0
100
AcDbLine
10
100.8
20
-47.920508
30
0
11
110.3
21
-47.920508
31
0
39
0
210
0
220
0
230
1
0
LINE
5
CD
100
AcDbEntity
8
SK1
62
256
6
ByLayer
370
18
48
1
60
0
100
AcDbLine
10
105.9
20
-43.219033
30
0
11
116.7
21
-43.219033
31
0
39
0
210
0
220
0
230
1
0
LINE
5
CE
100
AcDbEntity
8
SK1
62
256
6
ByLayer
370
18
48
1
60
0
100
AcDbLine
10
113.5
20
-6.845967
30
0
11
113.5
21
-7.470352
31
0
39
0
210
0
220
0
230
1
0
LINE
5
CF
100
AcDbEntity
8
SK1
62
256
6
ByLayer
370
18
48
1
60
0
100
AcDbLine
10
105
20
-28.286533
30
0
11
88.06082
21
-28.286533
31
0
39
0
210
0
220
0
230
1
0
LINE
5
D0
100
AcDbEntity
8
SK1
62
256
6
ByLayer
370
18
48
1
60
0
100
AcDbLine
10
116.7
20
-25.354033
30
0
11
105.9
21
-25.354033
31
0
39
0
210
0
220
0
230
1
0
LINE
5
D1
100
AcDbEntity
8
SK1
62
256
6
ByLayer
370
18
48
1
60
0
100
AcDbLine
10
-1.307107
20
4.281245
30
0
11
-1.307107
21
-4.281244
31
0
39
0
210
0
220
0
230
1
0
LINE
5
D2
100
AcDbEntity
8
SK1
62
256
6
ByLayer
370
18
48
1
60
0
100
AcDbLine
10
100.8
20
-13.279492
30
0
11
110.3
21
-13.279492
31
0
39
0
210
0
220
0
230
1
0
LINE
5
D3
100
AcDbEntity
8
SK1
62
256
6
ByLayer
370
18
48
1
60
0
100
AcDbLine
10
86.881774
20
-44.920508
30
0
11
100
21
-44.920508
31
0
39
0
210
0
220
0
230
1
0
LINE
5
D4
100
AcDbEntity
8
SK1
62
256
6
ByLayer
370
18
48
1
60
0
100
AcDbLine
10
105.9
20
-46.786533
30
0
11
105.9
21
-28.036533
31
0
39
0
210
0
220
0
230
1
0
LINE
5
D5
100
AcDbEntity
8
SK1
62
256
6
ByLayer
370
18
48
1
60
0
100
AcDbLine
10
105.9
20
-21.786533
30
0
11
105
21
-21.786533
31
0
39
0
210
0
220
0
230
1
0
LINE
5
D6
100
AcDbEntity
8
SK1
62
256
6
ByLayer
370
18
48
1
60
0
100
AcDbLine
10
110.8
20
-6.845967
30
0
11
116.7
21
-6.845967
31
0
39
0
210
0
220
0
230
1
0
LINE
5
D7
100
AcDbEntity
8
SK1
62
256
6
ByLayer
370
18
48
1
60
0
100
AcDbLine
10
-0.4
20
-5.670607
30
0
11
-0.4
21
-27.325111
31
0
39
0
210
0
220
0
230
1
0
LINE
5
D8
100
AcDbEntity
8
SK1
62
256
6
ByLayer
370
18
48
1
60
0
100
AcDbLine
10
110.8
20
-8.00625
30
0
11
111.5
21
-8.00625
31
0
39
0
210
0
220
0
230
1
0
LINE
5
D9
100
AcDbEntity
8
SK1
62
256
6
ByLayer
370
18
48
1
60
0
100
AcDbLine
10
116.7
20
-6.845967
30
0
11
116.7
21
0.922853
31
0
39
0
210
0
220
0
230
1
0
LINE
5
DA
100
AcDbEntity
8
SK1
62
256
6
ByLayer
370
18
48
1
60
0
100
AcDbLine
10
-0.4
20
-5.670607
30
0
11
-0.4
21
-27.325111
31
0
39
0
210
0
220
0
230
1
0
LINE
5
DB
100
AcDbEntity
8
SK1
62
256
6
ByLayer
370
18
48
1
60
0
100
AcDbLine
10
117.9
20
1.079183
30
0
11
117.9
21
-5.645967
31
0
39
0
210
0
220
0
230
1
0
LINE
5
DC
100
AcDbEntity
8
SK1
62
256
6
ByLayer
370
18
48
1
60
0
100
AcDbLine
10
86.615681
20
-40.286533
30
0
11
105
21
-40.286533
31
0
39
0
210
0
220
0
230
1
0
LINE
5
DD
100
AcDbEntity
8
SK1
62
256
6
ByLayer
370
18
48
1
60
0
100
AcDbLine
10
110.3
20
-47.920508
30
0
11
110.3
21
-43.219033
31
0
39
0
210
0
220
0
230
1
0
LINE
5
DE
100
AcDbEntity
8
SK1
62
256
6
ByLayer
370
18
48
1
60
0
100
AcDbLine
10
-1.307107
20
4.281245
30
0
11
-1.307107
21
-4.281244
31
0
39
0
210
0
220
0
230
1
0
LINE
5
DF
100
AcDbEntity
8
SK1
62
256
6
ByLayer
370
18
48
1
60
0
100
AcDbLine
10
110.8
20
-6.845967
30
0
11
116.7
21
-6.845967
31
0
39
0
210
0
220
0
230
1
0
LINE
5
E0
100
AcDbEntity
8
SK1
62
256
6
ByLayer
370
18
48
1
60
0
100
AcDbLine
10
111.5
20
-8.00625
30
0
11
111.5
21
-6.845967
31
0
39
0
210
0
220
0
230
1
0
LINE
5
E1
100
AcDbEntity
8
SK1
62
256
6
ByLayer
370
18
48
1
60
0
100
AcDbLine
10
100.8
20
-15.279492
30
0
11
100.8
21
4.720508
31
0
39
0
210
0
220
0
230
1
0
LINE
5
E2
100
AcDbEntity
8
SK1
62
256
6
ByLayer
370
18
48
1
60
0
100
AcDbLine
10
-2.2
20
-12.864564
30
0
11
-2.2
21
12.864565
31
0
39
0
210
0
220
0
230
1
0
LINE
5
E3
100
AcDbEntity
8
SK1
62
256
6
ByLayer
370
18
48
1
60
0
100
AcDbLine
10
116.7
20
0.922853
30
0
11
116.7
21
11.019033
31
0
39
0
210
0
220
0
230
1
0
LINE
5
E4
100
AcDbEntity
8
SK1
62
256
6
ByLayer
370
18
48
1
60
0
100
AcDbLine
10
-2
20
27.325145
30
0
11
-2
21
-27.325145
31
0
39
0
210
0
220
0
230
1
0
LINE
5
E5
100
AcDbEntity
8
SK1
62
256
6
ByLayer
370
18
48
1
60
0
100
AcDbLine
10
-48
20
25.499074
30
0
11
-48
21
-25.498396
31
0
39
0
210
0
220
0
230
1
0
LINE
5
E6
100
AcDbEntity
8
SK1
62
256
6
ByLayer
370
18
48
1
60
0
100
AcDbLine
10
-0.4
20
27.32511
30
0
11
-0.4
21
5.670607
31
0
39
0
210
0
220
0
230
1
0
LINE
5
E7
100
AcDbEntity
8
SK1
62
256
6
ByLayer
370
18
48
1
60
0
100
AcDbLine
10
-3
20
-27.5
30
0
11
-3
21
27.5
31
0
39
0
210
0
220
0
230
1
0
LINE
5
E8
100
AcDbEntity
8
SK1
62
256
6
ByLayer
370
18
48
1
60
0
100
AcDbLine
10
-0.2
20
28.683485
30
0
11
-0.2
21
6.365252
31
0
39
0
210
0
220
0
230
1
0
LINE
5
E9
100
AcDbEntity
8
SK1
62
256
6
ByLayer
370
18
48
1
60
0
100
AcDbLine
10
-3
20
-27.5
30
0
11
-3
21
27.5
31
0
39
0
210
0
220
0
230
1
0
LINE
5
EA
100
AcDbEntity
8
SK1
62
256
6
ByLayer
370
18
48
1
60
0
100
AcDbLine
10
-46.500473
20
26.407117
30
0
11
-46.500473
21
-26.407117
31
0
39
0
210
0
220
0
230
1
0
LINE
5
EB
100
AcDbEntity
8
SK1
62
256
6
ByLayer
370
18
48
1
60
0
100
AcDbLine
10
100.8
20
-15.279492
30
0
11
100.8
21
4.720508
31
0
39
0
210
0
220
0
230
1
0
LINE
5
EC
100
AcDbEntity
8
SK1
62
256
6
ByLayer
370
18
48
1
60
0
100
AcDbLine
10
-48
20
25.499074
30
0
11
-48
21
-25.498396
31
0
39
0
210
0
220
0
230
1
0
LINE
5
ED
100
AcDbEntity
8
SK1
62
256
6
ByLayer
370
18
48
1
60
0
100
AcDbLine
10
-2.2
20
-12.864564
30
0
11
-2.2
21
12.864565
31
0
39
0
210
0
220
0
230
1
0
LINE
5
EE
100
AcDbEntity
8
SK1
62
256
6
ByLayer
370
18
48
1
60
0
100
AcDbLine
10
100
20
-15.279492
30
0
11
100
21
4.720508
31
0
39
0
210
0
220
0
230
1
0
LINE
5
EF
100
AcDbEntity
8
1
62
256
6
ByLayer
370
18
48
1
60
0
100
AcDbLine
10
0
20
-39.6925
30
0
11
0
21
39.6925
31
0
39
0
210
0
220
0
230
1
0
LINE
5
F1
100
AcDbEntity
8
SK1
62
256
6
ByLayer
370
18
48
1
60
0
100
AcDbLine
10
-46.500473
20
26.407117
30
0
11
-46.500473
21
-26.407117
31
0
39
0
210
0
220
0
230
1
0
LINE
5
F2
100
AcDbEntity
8
SK1
62
256
6
ByLayer
370
18
48
1
60
0
100
AcDbLine
10
-2
20
27.325145
30
0
11
-2
21
-27.325145
31
0
39
0
210
0
220
0
230
1
0
LINE
5
F3
100
AcDbEntity
8
SK1
62
256
6
ByLayer
370
18
48
1
60
0
100
AcDbLine
10
-0.2
20
28.683485
30
0
11
-0.2
21
6.365252
31
0
39
0
210
0
220
0
230
1
0
LINE
5
F4
100
AcDbEntity
8
SK1
62
256
6
ByLayer
370
18
48
1
60
0
100
AcDbLine
10
117.9
20
9.819033
30
0
11
117.9
21
1.079183
31
0
39
0
210
0
220
0
230
1
0
LINE
5
F5
100
AcDbEntity
8
SK1
62
256
6
ByLayer
370
18
48
1
60
0
100
AcDbLine
10
-0.4
20
27.32511
30
0
11
-0.4
21
5.670607
31
0
39
0
210
0
220
0
230
1
0
LINE
5
F6
100
AcDbEntity
8
SK1
62
256
6
ByLayer
370
18
48
1
60
0
100
AcDbLine
10
100
20
-15.279492
30
0
11
100
21
4.720508
31
0
39
0
210
0
220
0
230
1
0
LINE
5
F7
100
AcDbEntity
8
SK1
62
256
6
ByLayer
370
18
48
1
60
0
100
AcDbLine
10
117.9
20
9.819033
30
0
11
117.9
21
1.079183
31
0
39
0
210
0
220
0
230
1
0
LINE
5
F8
100
AcDbEntity
8
SK1
62
256
6
ByLayer
370
18
48
1
60
0
100
AcDbLine
10
116.7
20
0.922853
30
0
11
116.7
21
11.019033
31
0
39
0
210
0
220
0
230
1
0
LINE
5
F9
100
AcDbEntity
8
SK1
62
256
6
ByLayer
370
18
48
1
60
0
100
AcDbLine
10
100
20
35.2
30
0
11
100.8
21
35.2
31
0
39
0
210
0
220
0
230
1
0
LINE
5
FA
100
AcDbEntity
8
4
62
256
6
ByLayer
370
13
48
0.05
60
0
100
AcDbLine
10
0
20
0
30
0
11
89
21
0
31
0
39
0
210
0
220
0
230
1
0
LINE
5
FC
100
AcDbEntity
8
SK4
62
256
6
ByLayer
370
13
48
0.05
60
0
100
AcDbLine
10
-56.131884
20
0.000339
30
0
11
127.568228
21
0.000339
31
0
39
0
210
0
220
0
230
1
0
LINE
5
FE
100
AcDbEntity
8
SK1
62
256
6
ByLayer
370
18
48
1
60
0
100
AcDbLine
10
110.3
20
37.2
30
0
11
100.8
21
37.2
31
0
39
0
210
0
220
0
230
1
0
LINE
5
FF
100
AcDbEntity
8
SK1
62
256
6
ByLayer
370
18
48
1
60
0
100
AcDbLine
10
105.9
20
19.7
30
0
11
105.9
21
37.2
31
0
39
0
210
0
220
0
230
1
0
LINE
5
100
100
AcDbEntity
8
SK1
62
256
6
ByLayer
370
18
48
1
60
0
100
AcDbLine
10
105
20
19.7
30
0
11
105
21
37.2
31
0
39
0
210
0
220
0
230
1
0
LINE
5
101
100
AcDbEntity
8
SK1
62
256
6
ByLayer
370
18
48
1
60
0
100
AcDbLine
10
110.3
20
2.720508
30
0
11
100.8
21
2.720508
31
0
39
0
210
0
220
0
230
1
0
LINE
5
102
100
AcDbEntity
8
SK1
62
256
6
ByLayer
370
18
48
1
60
0
100
AcDbLine
10
105
20
14.586533
30
0
11
105
21
2.720508
31
0
39
0
210
0
220
0
230
1
0
LINE
5
103
100
AcDbEntity
8
SK1
62
256
6
ByLayer
370
18
48
1
60
0
100
AcDbLine
10
105.9
20
14.586533
30
0
11
105.9
21
2.720508
31
0
39
0
210
0
220
0
230
1
0
LINE
5
104
100
AcDbEntity
8
SK1
62
256
6
ByLayer
370
18
48
1
60
0
100
AcDbLine
10
-48
20
25.49036
30
0
11
-47.850047
21
25.582031
31
0
39
0
210
0
220
0
230
1
0
LINE
5
105
100
AcDbEntity
8
SK1
62
256
6
ByLayer
370
18
48
1
60
0
100
AcDbLine
10
-47.850047
20
25.582031
30
0
11
-47.700093
21
25.673702
31
0
39
0
210
0
220
0
230
1
0
LINE
5
106
100
AcDbEntity
8
SK1
62
256
6
ByLayer
370
18
48
1
60
0
100
AcDbLine
10
-47.700093
20
25.673702
30
0
11
-47.55014
21
25.765374
31
0
39
0
210
0
220
0
230
1
0
LINE
5
107
100
AcDbEntity
8
SK1
62
256
6
ByLayer
370
18
48
1
60
0
100
AcDbLine
10
-47.55014
20
25.765374
30
0
11
-47.400186
21
25.857045
31
0
39
0
210
0
220
0
230
1
0
LINE
5
108
100
AcDbEntity
8
SK1
62
256
6
ByLayer
370
18
48
1
60
0
100
AcDbLine
10
-47.400186
20
25.857045
30
0
11
-47.250233
21
25.948716
31
0
39
0
210
0
220
0
230
1
0
LINE
5
109
100
AcDbEntity
8
SK1
62
256
6
ByLayer
370
18
48
1
60
0
100
AcDbLine
10
-47.250233
20
25.948716
30
0
11
-47.100279
21
26.040387
31
0
39
0
210
0
220
0
230
1
0
LINE
5
10A
100
AcDbEntity
8
SK1
62
256
6
ByLayer
370
18
48
1
60
0
100
AcDbLine
10
-47.100279
20
26.040387
30
0
11
-46.950326
21
26.132059
31
0
39
0
210
0
220
0
230
1
0
LINE
5
10B
100
AcDbEntity
8
SK1
62
256
6
ByLayer
370
18
48
1
60
0
100
AcDbLine
10
-46.950326
20
26.132059
30
0
11
-46.800373
21
26.22373
31
0
39
0
210
0
220
0
230
1
0
LINE
5
10C
100
AcDbEntity
8
SK1
62
256
6
ByLayer
370
18
48
1
60
0
100
AcDbLine
10
-46.800373
20
26.22373
30
0
11
-46.650419
21
26.315401
31
0
39
0
210
0
220
0
230
1
0
LINE
5
10D
100
AcDbEntity
8
SK1
62
256
6
ByLayer
370
18
48
1
60
0
100
AcDbLine
10
-46.650419
20
26.315401
30
0
11
-46.500466
21
26.407072
31
0
39
0
210
0
220
0
230
1
0
LINE
5
10E
100
AcDbEntity
8
SK1
62
256
6
ByLayer
370
18
48
1
60
0
100
AcDbLine
10
-3
20
27.5
30
0
11
-2.194881
21
27.520227
31
0
39
0
210
0
220
0
230
1
0
LINE
5
10F
100
AcDbEntity
8
SK1
62
256
6
ByLayer
370
18
48
1
60
0
100
AcDbLine
10
-48
20
25.49036
30
0
11
-47.850047
21
25.582031
31
0
39
0
210
0
220
0
230
1
0
LINE
5
110
100
AcDbEntity
8
SK1
62
256
6
ByLayer
370
18
48
1
60
0
100
AcDbLine
10
-47.850047
20
25.582031
30
0
11
-47.700093
21
25.673702
31
0
39
0
210
0
220
0
230
1
0
LINE
5
111
100
AcDbEntity
8
SK1
62
256
6
ByLayer
370
18
48
1
60
0
100
AcDbLine
10
-47.700093
20
25.673702
30
0
11
-47.55014
21
25.765374
31
0
39
0
210
0
220
0
230
1
0
LINE
5
112
100
AcDbEntity
8
SK1
62
256
6
ByLayer
370
18
48
1
60
0
100
AcDbLine
10
-47.55014
20
25.765374
30
0
11
-47.400186
21
25.857045
31
0
39
0
210
0
220
0
230
1
0
LINE
5
113
100
AcDbEntity
8
SK1
62
256
6
ByLayer
370
18
48
1
60
0
100
AcDbLine
10
-47.400186
20
25.857045
30
0
11
-47.250233
21
25.948716
31
0
39
0
210
0
220
0
230
1
0
LINE
5
114
100
AcDbEntity
8
SK1
62
256
6
ByLayer
370
18
48
1
60
0
100
AcDbLine
10
-47.250233
20
25.948716
30
0
11
-47.100279
21
26.040387
31
0
39
0
210
0
220
0
230
1
0
LINE
5
115
100
AcDbEntity
8
SK1
62
256
6
ByLayer
370
18
48
1
60
0
100
AcDbLine
10
-47.100279
20
26.040387
30
0
11
-46.950326
21
26.132059
31
0
39
0
210
0
220
0
230
1
0
LINE
5
116
100
AcDbEntity
8
SK1
62
256
6
ByLayer
370
18
48
1
60
0
100
AcDbLine
10
-46.950326
20
26.132059
30
0
11
-46.800373
21
26.22373
31
0
39
0
210
0
220
0
230
1
0
LINE
5
117
100
AcDbEntity
8
SK1
62
256
6
ByLayer
370
18
48
1
60
0
100
AcDbLine
10
-46.800373
20
26.22373
30
0
11
-46.650419
21
26.315401
31
0
39
0
210
0
220
0
230
1
0
LINE
5
118
100
AcDbEntity
8
SK1
62
256
6
ByLayer
370
18
48
1
60
0
100
AcDbLine
10
-46.650419
20
26.315401
30
0
11
-46.500466
21
26.407072
31
0
39
0
210
0
220
0
230
1
0
LINE
5
119
100
AcDbEntity
8
SK1
62
256
6
ByLayer
370
18
48
1
60
0
100
AcDbLine
10
-2
20
27.325151
30
0
11
-0.4
21
27.325151
31
0
39
0
210
0
220
0
230
1
0
LINE
5
11A
100
AcDbEntity
8
SK1
62
256
6
ByLayer
370
18
48
1
60
0
100
AcDbLine
10
-3
20
27.5
30
0
11
-2.194881
21
27.520227
31
0
39
0
210
0
220
0
230
1
0
LINE
5
11B
100
AcDbEntity
8
SK1
62
256
6
ByLayer
370
18
48
1
60
0
100
AcDbLine
10
-46.500473
20
26.407117
30
0
11
-3
21
27.5
31
0
39
0
210
0
220
0
230
1
0
LINE
5
11C
100
AcDbEntity
8
SK1
62
256
6
ByLayer
370
18
48
1
60
0
100
AcDbLine
10
-2.199993
20
26.694883
30
0
11
-2.2
21
24.989566
31
0
39
0
210
0
220
0
230
1
0
LINE
5
11D
100
AcDbEntity
8
SK1
62
256
6
ByLayer
370
18
48
1
60
0
100
AcDbLine
10
-2
20
27.325151
30
0
11
-0.4
21
27.325151
31
0
39
0
210
0
220
0
230
1
0
LINE
5
11E
100
AcDbEntity
8
SK1
62
256
6
ByLayer
370
18
48
1
60
0
100
AcDbLine
10
-2.199993
20
26.694883
30
0
11
-2.2
21
24.989566
31
0
39
0
210
0
220
0
230
1
0
LINE
5
11F
100
AcDbEntity
8
SK1
62
256
6
ByLayer
370
18
48
1
60
0
100
AcDbLine
10
-46.500473
20
26.407117
30
0
11
-3
21
27.5
31
0
39
0
210
0
220
0
230
1
0
LINE
5
120
100
AcDbEntity
8
SK1
62
256
6
ByLayer
370
18
48
1
60
0
100
AcDbLine
10
-2
20
-27.325151
30
0
11
-0.4
21
-27.325151
31
0
39
0
210
0
220
0
230
1
0
LINE
5
121
100
AcDbEntity
8
SK1
62
256
6
ByLayer
370
18
48
1
60
0
100
AcDbLine
10
-2
20
-27.325151
30
0
11
-0.4
21
-27.325151
31
0
39
0
210
0
220
0
230
1
0
LINE
5
122
100
AcDbEntity
8
SK1
62
256
6
ByLayer
370
18
48
1
60
0
100
AcDbLine
10
-3
20
-27.5
30
0
11
-2.194881
21
-27.520227
31
0
39
0
210
0
220
0
230
1
0
LINE
5
123
100
AcDbEntity
8
SK1
62
256
6
ByLayer
370
18
48
1
60
0
100
AcDbLine
10
-46.500473
20
-26.407117
30
0
11
-3
21
-27.5
31
0
39
0
210
0
220
0
230
1
0
LINE
5
124
100
AcDbEntity
8
SK1
62
256
6
ByLayer
370
18
48
1
60
0
100
AcDbLine
10
-48
20
-25.490337
30
0
11
-47.850048
21
-25.582006
31
0
39
0
210
0
220
0
230
1
0
LINE
5
125
100
AcDbEntity
8
SK1
62
256
6
ByLayer
370
18
48
1
60
0
100
AcDbLine
10
-47.850048
20
-25.582006
30
0
11
-47.700096
21
-25.673674
31
0
39
0
210
0
220
0
230
1
0
LINE
5
126
100
AcDbEntity
8
SK1
62
256
6
ByLayer
370
18
48
1
60
0
100
AcDbLine
10
-47.700096
20
-25.673674
30
0
11
-47.550144
21
-25.765343
31
0
39
0
210
0
220
0
230
1
0
LINE
5
127
100
AcDbEntity
8
SK1
62
256
6
ByLayer
370
18
48
1
60
0
100
AcDbLine
10
-47.550144
20
-25.765343
30
0
11
-47.400192
21
-25.857011
31
0
39
0
210
0
220
0
230
1
0
LINE
5
128
100
AcDbEntity
8
SK1
62
256
6
ByLayer
370
18
48
1
60
0
100
AcDbLine
10
-47.400192
20
-25.857011
30
0
11
-47.25024
21
-25.94868
31
0
39
0
210
0
220
0
230
1
0
LINE
5
129
100
AcDbEntity
8
SK1
62
256
6
ByLayer
370
18
48
1
60
0
100
AcDbLine
10
-47.25024
20
-25.94868
30
0
11
-47.100288
21
-26.040348
31
0
39
0
210
0
220
0
230
1
0
LINE
5
12A
100
AcDbEntity
8
SK1
62
256
6
ByLayer
370
18
48
1
60
0
100
AcDbLine
10
-47.100288
20
-26.040348
30
0
11
-46.950336
21
-26.132016
31
0
39
0
210
0
220
0
230
1
0
LINE
5
12B
100
AcDbEntity
8
SK1
62
256
6
ByLayer
370
18
48
1
60
0
100
AcDbLine
10
-46.950336
20
-26.132016
30
0
11
-46.800383
21
-26.223685
31
0
39
0
210
0
220
0
230
1
0
LINE
5
12C
100
AcDbEntity
8
SK1
62
256
6
ByLayer
370
18
48
1
60
0
100
AcDbLine
10
-46.800383
20
-26.223685
30
0
11
-46.650431
21
-26.315353
31
0
39
0
210
0
220
0
230
1
0
LINE
5
12D
100
AcDbEntity
8
SK1
62
256
6
ByLayer
370
18
48
1
60
0
100
AcDbLine
10
-46.650431
20
-26.315353
30
0
11
-46.500479
21
-26.407022
31
0
39
0
210
0
220
0
230
1
0
LINE
5
12E
100
AcDbEntity
8
SK1
62
256
6
ByLayer
370
18
48
1
60
0
100
AcDbLine
10
-46.500473
20
-26.407117
30
0
11
-3
21
-27.5
31
0
39
0
210
0
220
0
230
1
0
LINE
5
12F
100
AcDbEntity
8
SK1
62
256
6
ByLayer
370
18
48
1
60
0
100
AcDbLine
10
-3
20
-27.5
30
0
11
-2.194881
21
-27.520227
31
0
39
0
210
0
220
0
230
1
0
LINE
5
130
100
AcDbEntity
8
SK1
62
256
6
ByLayer
370
18
48
1
60
0
100
AcDbLine
10
-48
20
-25.490337
30
0
11
-47.850048
21
-25.582006
31
0
39
0
210
0
220
0
230
1
0
LINE
5
131
100
AcDbEntity
8
SK1
62
256
6
ByLayer
370
18
48
1
60
0
100
AcDbLine
10
-47.850048
20
-25.582006
30
0
11
-47.700096
21
-25.673674
31
0
39
0
210
0
220
0
230
1
0
LINE
5
132
100
AcDbEntity
8
SK1
62
256
6
ByLayer
370
18
48
1
60
0
100
AcDbLine
10
-47.700096
20
-25.673674
30
0
11
-47.550144
21
-25.765343
31
0
39
0
210
0
220
0
230
1
0
LINE
5
133
100
AcDbEntity
8
SK1
62
256
6
ByLayer
370
18
48
1
60
0
100
AcDbLine
10
-47.550144
20
-25.765343
30
0
11
-47.400192
21
-25.857011
31
0
39
0
210
0
220
0
230
1
0
LINE
5
134
100
AcDbEntity
8
SK1
62
256
6
ByLayer
370
18
48
1
60
0
100
AcDbLine
10
-47.400192
20
-25.857011
30
0
11
-47.25024
21
-25.94868
31
0
39
0
210
0
220
0
230
1
0
LINE
5
135
100
AcDbEntity
8
SK1
62
256
6
ByLayer
370
18
48
1
60
0
100
AcDbLine
10
-47.25024
20
-25.94868
30
0
11
-47.100288
21
-26.040348
31
0
39
0
210
0
220
0
230
1
0
LINE
5
136
100
AcDbEntity
8
SK1
62
256
6
ByLayer
370
18
48
1
60
0
100
AcDbLine
10
-47.100288
20
-26.040348
30
0
11
-46.950336
21
-26.132016
31
0
39
0
210
0
220
0
230
1
0
LINE
5
137
100
AcDbEntity
8
SK1
62
256
6
ByLayer
370
18
48
1
60
0
100
AcDbLine
10
-46.950336
20
-26.132016
30
0
11
-46.800383
21
-26.223685
31
0
39
0
210
0
220
0
230
1
0
LINE
5
138
100
AcDbEntity
8
SK1
62
256
6
ByLayer
370
18
48
1
60
0
100
AcDbLine
10
-46.800383
20
-26.223685
30
0
11
-46.650431
21
-26.315353
31
0
39
0
210
0
220
0
230
1
0
LINE
5
139
100
AcDbEntity
8
SK1
62
256
6
ByLayer
370
18
48
1
60
0
100
AcDbLine
10
-46.650431
20
-26.315353
30
0
11
-46.500479
21
-26.407022
31
0
39
0
210
0
220
0
230
1
0
LINE
5
13A
100
AcDbEntity
8
81
62
256
6
ByLayer
370
13
48
1
60
0
100
AcDbLine
10
89
20
0
30
0
11
136.1182
21
0
31
0
39
0
210
0
220
0
230
1
0
LINE
5
13B
100
AcDbEntity
8
80
62
256
6
ByLayer
370
13
48
1
60
0
100
AcDbLine
10
0
20
0
30
0
11
-58.1393
21
0
31
0
39
0
210
0
220
0
230
1
0
LINE
5
13C
100
AcDbEntity
8
1
62
256
6
ByLayer
370
18
48
1
60
1
100
AcDbLine
10
0
20
0
30
0
11
0
21
841
31
0
39
0
210
0
220
0
230
1
0
LINE
5
13D
100
AcDbEntity
8
1
62
256
6
ByLayer
370
18
48
1
60
1
100
AcDbLine
10
1189
20
841
30
0
11
0
21
841
31
0
39
0
210
0
220
0
230
1
0
LINE
5
13E
100
AcDbEntity
8
1
62
256
6
ByLayer
370
18
48
1
60
1
100
AcDbLine
10
1189
20
841
30
0
11
1189
21
0
31
0
39
0
210
0
220
0
230
1
0
LINE
5
13F
100
AcDbEntity
8
1
62
256
6
ByLayer
370
18
48
1
60
1
100
AcDbLine
10
0
20
0
30
0
11
1189
21
0
31
0
39
0
210
0
220
0
230
1
0
LINE
5
140
100
AcDbEntity
8
1
62
256
6
ByLayer
370
18
48
1
60
0
100
AcDbLine
10
42.512951
20
-40
30
0
11
51.544047
21
-55.642317
31
0
39
0
210
0
220
0
230
1
0
LINE
5
141
100
AcDbEntity
8
1
62
256
6
ByLayer
370
18
48
1
60
0
100
AcDbLine
10
61
20
72.020508
30
0
11
42.512951
21
40
31
0
39
0
210
0
220
0
230
1
0
LINE
5
142
100
AcDbEntity
8
1
62
256
6
ByLayer
370
18
48
1
60
0
100
AcDbLine
10
0
20
-39.7
30
0
11
0.3
21
-40
31
0
39
0
210
0
220
0
230
1
0
LINE
5
143
100
AcDbEntity
8
1
62
256
6
ByLayer
370
18
48
1
60
0
100
AcDbLine
10
42.512951
20
40
30
0
11
0.3
21
40
31
0
39
0
210
0
220
0
230
1
0
LINE
5
144
100
AcDbEntity
8
1
62
256
6
ByLayer
370
18
48
1
60
0
100
AcDbLine
10
0.3
20
40
30
0
11
0
21
39.7
31
0
39
0
210
0
220
0
230
1
0
LINE
5
145
100
AcDbEntity
8
1
62
256
6
ByLayer
370
18
48
1
60
0
100
AcDbLine
10
0.3
20
-40
30
0
11
42.512951
21
-40
31
0
39
0
210
0
220
0
230
1
0
LINE
5
146
100
AcDbEntity
8
1
62
256
6
ByLayer
370
18
48
1
60
0
100
AcDbLine
10
66.166093
20
73.404758
30
0
11
61
21
72.020508
31
0
39
0
210
0
220
0
230
1
0
LINE
5
147
100
AcDbEntity
8
1
62
256
6
ByLayer
370
18
48
1
60
0
100
AcDbLine
10
-0.224738
20
-27.367424
30
0
11
-0.223614
21
-27.367099
31
0
39
0
210
0
220
0
230
1
0
LINE
5
148
100
AcDbEntity
8
1
62
256
6
ByLayer
370
18
48
1
60
0
100
AcDbLine
10
87.4
20
-24.832439
30
0
11
85.579808
21
-24.832439
31
0
39
0
210
0
220
0
230
1
0
LINE
5
149
100
AcDbEntity
8
SK1
62
256
6
ByLayer
370
18
48
1
60
0
100
AcDbLine
10
85.303985
20
-29.203079
30
0
11
84.279464
21
-33.042711
31
0
39
0
210
0
220
0
230
1
0
LINE
5
14A
100
AcDbEntity
8
1
62
256
6
ByLayer
370
18
48
1
60
0
100
AcDbLine
10
85.335807
20
2.564802
30
0
11
85.335807
21
31.877491
31
0
39
0
210
0
220
0
230
1
0
LINE
5
14B
100
AcDbEntity
8
1
62
256
6
ByLayer
370
18
48
1
60
0
100
AcDbLine
10
72.5
20
-38.74542
30
0
11
72.5
21
-24.626497
31
0
39
0
210
0
220
0
230
1
0
LINE
5
14C
100
AcDbEntity
8
1
62
256
6
ByLayer
370
18
48
1
60
0
100
AcDbLine
10
72.5
20
-24.626497
30
0
11
85.579808
21
-24.832439
31
0
39
0
210
0
220
0
230
1
0
LINE
5
14D
100
AcDbEntity
8
SK1
62
256
6
ByLayer
370
18
48
1
60
0
100
AcDbLine
10
84.279464
20
-26.745575
30
0
11
84.279464
21
-33.042711
31
0
39
0
210
0
220
0
230
1
0
LINE
5
14E
100
AcDbEntity
8
SK1
62
256
6
ByLayer
370
18
48
1
60
0
100
AcDbLine
10
86.975408
20
23.824646
30
0
11
88.779627
21
9.288764
31
0
39
0
210
0
220
0
230
1
0
LINE
5
14F
100
AcDbEntity
8
1
62
256
6
ByLayer
370
18
48
1
60
0
100
AcDbLine
10
80.496197
20
47.422822
30
0
11
84.183075
21
41.27977
31
0
39
0
210
0
220
0
230
1
0
LINE
5
150
100
AcDbEntity
8
1
62
256
6
ByLayer
370
18
48
1
60
0
100
AcDbLine
10
80.496197
20
47.422822
30
0
11
53.617074
21
56.917657
31
0
39
0
210
0
220
0
230
1
0
LINE
5
151
100
AcDbEntity
8
1
62
256
6
ByLayer
370
18
48
1
60
0
100
AcDbLine
10
85.301039
20
32.272771
30
0
11
84.183075
21
41.27977
31
0
39
0
210
0
220
0
230
1
0
LINE
5
152
100
AcDbEntity
8
1
62
256
6
ByLayer
370
18
48
1
60
0
100
AcDbLine
10
84.183075
20
46.321384
30
0
11
84.183075
21
41.27977
31
0
39
0
210
0
220
0
230
1
0
LINE
5
153
100
AcDbEntity
8
1
62
256
6
ByLayer
370
18
48
1
60
0
100
AcDbLine
10
80.922846
20
51.753555
30
0
11
84.183075
21
46.321384
31
0
39
0
210
0
220
0
230
1
0
LINE
5
154
100
AcDbEntity
8
1
62
256
6
ByLayer
370
18
48
1
60
0
100
AcDbLine
10
80.496197
20
47.422822
30
0
11
80.496197
21
52.211868
31
0
39
0
210
0
220
0
230
1
0
LINE
5
155
100
AcDbEntity
8
1
62
256
6
ByLayer
370
18
48
1
60
0
100
AcDbLine
10
72.5
20
55.624562
30
0
11
72.5
21
73.623807
31
0
39
0
210
0
220
0
230
1
0
LINE
5
156
100
AcDbEntity
8
1
62
256
6
ByLayer
370
18
48
1
60
0
100
AcDbLine
10
72.5
20
55.624562
30
0
11
55.235221
21
61.723207
31
0
39
0
210
0
220
0
230
1
0
LINE
5
157
100
AcDbEntity
8
1
62
256
6
ByLayer
370
18
48
1
60
0
100
AcDbLine
10
55.080874
20
61.431791
30
0
11
72.5
21
55.278625
31
0
39
0
210
0
220
0
230
1
0
LINE
5
158
100
AcDbEntity
8
1
62
256
6
ByLayer
370
18
48
1
60
0
100
AcDbLine
10
80.496197
20
52.211868
30
0
11
72.5
21
55.03646
31
0
39
0
210
0
220
0
230
1
0
LINE
5
159
100
AcDbEntity
8
1
62
256
6
ByLayer
370
18
48
1
60
0
100
AcDbLine
10
72.5
20
55.278625
30
0
11
72.5
21
55.03646
31
0
39
0
210
0
220
0
230
1
0
LINE
5
15A
100
AcDbEntity
8
SK1
62
256
6
ByLayer
370
18
48
1
60
0
100
AcDbLine
10
88.779627
20
-49.703626
30
0
11
88.779627
21
-46.438102
31
0
39
0
210
0
220
0
230
1
0
LINE
5
15B
100
AcDbEntity
8
SK1
62
256
6
ByLayer
370
18
48
1
60
0
100
AcDbLine
10
88.779627
20
-36.438057
30
0
11
88.779627
21
-23.318092
31
0
39
0
210
0
220
0
230
1
0
LINE
5
15C
100
AcDbEntity
8
SK1
62
256
6
ByLayer
370
18
48
1
60
0
100
AcDbLine
10
80.884298
20
-29.017111
30
0
11
84.279464
21
-26.745575
31
0
39
0
210
0
220
0
230
1
0
LINE
5
15D
100
AcDbEntity
8
SK1
62
256
6
ByLayer
370
18
48
1
60
0
100
AcDbLine
10
85.335807
20
-40.94198
30
0
11
85.335807
21
-29.215541
31
0
39
0
210
0
220
0
230
1
0
LINE
5
15E
100
AcDbEntity
8
SK1
62
256
6
ByLayer
370
18
48
1
60
0
100
AcDbLine
10
80.368028
20
-35.659657
30
0
11
80.368028
21
-29.678132
31
0
39
0
210
0
220
0
230
1
0
LINE
5
15F
100
AcDbEntity
8
1
62
256
6
ByLayer
370
18
48
1
60
0
100
AcDbLine
10
0.3
20
-40
30
0
11
0.3
21
40
31
0
39
0
210
0
220
0
230
1
0
LINE
5
160
100
AcDbEntity
8
1
62
256
6
ByLayer
370
18
48
1
60
0
100
AcDbLine
10
0
20
-39.7
30
0
11
0
21
39.7
31
0
39
0
210
0
220
0
230
1
0
LINE
5
161
100
AcDbEntity
8
1
62
256
6
ByLayer
370
18
48
1
60
0
100
AcDbLine
10
55.175463
20
-33.50237
30
0
11
55.354122
21
-33.473013
31
0
39
0
210
0
220
0
230
1
0
LINE
5
162
100
AcDbEntity
8
SK1
62
256
6
ByLayer
370
18
48
1
60
0
100
AcDbLine
10
80.368028
20
-29.678132
30
0
11
73.004783
21
-30.888056
31
0
39
0
210
0
220
0
230
1
0
LINE
5
163
100
AcDbEntity
8
SK1
62
256
6
ByLayer
370
18
48
1
60
0
100
AcDbLine
10
80.884298
20
-29.017111
30
0
11
73.004761
21
-30.311871
31
0
39
0
210
0
220
0
230
1
0
LINE
5
164
100
AcDbEntity
8
SK1
62
256
6
ByLayer
370
18
48
1
60
0
100
AcDbLine
10
80.368028
20
-35.659657
30
0
11
84.279464
21
-33.042711
31
0
39
0
210
0
220
0
230
1
0
LINE
5
165
100
AcDbEntity
8
1
62
256
6
ByLayer
370
18
48
1
60
0
100
AcDbLine
10
10.538675
20
12.13309
30
0
11
13.461325
21
12.13309
31
0
39
0
210
0
220
0
230
1
0
LINE
5
166
100
AcDbEntity
8
1
62
256
6
ByLayer
370
18
48
1
60
0
100
AcDbLine
10
10.105662
20
37.944501
30
0
11
10.105662
21
12.6576
31
0
39
0
210
0
220
0
230
1
0
LINE
5
167
100
AcDbEntity
8
1
62
256
6
ByLayer
370
18
48
1
60
0
100
AcDbLine
10
10.538675
20
38.115458
30
0
11
10.538675
21
12.13309
31
0
39
0
210
0
220
0
230
1
0
LINE
5
168
100
AcDbEntity
8
1
62
256
6
ByLayer
370
18
48
1
60
0
100
AcDbLine
10
13.461325
20
38.115458
30
0
11
13.461325
21
12.13309
31
0
39
0
210
0
220
0
230
1
0
LINE
5
169
100
AcDbEntity
8
1
62
256
6
ByLayer
370
18
48
1
60
0
100
AcDbLine
10
13.894338
20
37.944501
30
0
11
13.894338
21
12.6576
31
0
39
0
210
0
220
0
230
1
0
LINE
5
16A
100
AcDbEntity
8
1
62
256
6
ByLayer
370
18
48
1
60
0
100
AcDbLine
10
10.105662
20
-12.6576
30
0
11
10.105662
21
-37.944501
31
0
39
0
210
0
220
0
230
1
0
LINE
5
16B
100
AcDbEntity
8
1
62
256
6
ByLayer
370
18
48
1
60
0
100
AcDbLine
10
10.538675
20
-12.13309
30
0
11
10.538675
21
-38.115458
31
0
39
0
210
0
220
0
230
1
0
LINE
5
16C
100
AcDbEntity
8
1
62
256
6
ByLayer
370
18
48
1
60
0
100
AcDbLine
10
13.461325
20
-12.13309
30
0
11
13.461325
21
-38.115458
31
0
39
0
210
0
220
0
230
1
0
LINE
5
16D
100
AcDbEntity
8
1
62
256
6
ByLayer
370
18
48
1
60
0
100
AcDbLine
10
13.894338
20
-12.6576
30
0
11
13.894338
21
-37.944501
31
0
39
0
210
0
220
0
230
1
0
LINE
5
16E
100
AcDbEntity
8
1
62
256
6
ByLayer
370
18
48
1
60
0
100
AcDbLine
10
71
20
-21.625381
30
0
11
71
21
7.813552
31
0
39
0
210
0
220
0
230
1
0
LINE
5
16F
100
AcDbEntity
8
1
62
256
6
ByLayer
370
18
48
1
60
0
100
AcDbLine
10
61
20
-37.901277
30
0
11
61
21
13.099307
31
0
39
0
210
0
220
0
230
1
0
LINE
5
170
100
AcDbEntity
8
1
62
256
6
ByLayer
370
18
48
1
60
0
100
AcDbLine
10
61
20
72.020508
30
0
11
61
21
71.751586
31
0
39
0
210
0
220
0
230
1
0
LINE
5
171
100
AcDbEntity
8
1
62
256
6
ByLayer
370
18
48
1
60
0
100
AcDbLine
10
13.461325
20
38.115458
30
0
11
10.538675
21
38.115458
31
0
39
0
210
0
220
0
230
1
0
LINE
5
172
100
AcDbEntity
8
1
62
256
6
ByLayer
370
18
48
1
60
0
100
AcDbLine
10
42.512951
20
-40
30
0
11
42.512951
21
40
31
0
39
0
210
0
220
0
230
1
0
LINE
5
173
100
AcDbEntity
8
SK1
62
256
6
ByLayer
370
18
48
1
60
0
100
AcDbLine
10
85.335807
20
-29.215541
30
0
11
85.298563
21
-29.221661
31
0
39
0
210
0
220
0
230
1
0
LINE
5
174
100
AcDbEntity
8
1
62
256
6
ByLayer
370
18
48
1
60
0
100
AcDbLine
10
47.654509
20
-35.407308
30
0
11
47.500805
21
-35.432565
31
0
39
0
210
0
220
0
230
1
0
LINE
5
175
100
AcDbEntity
8
1
62
256
6
ByLayer
370
18
48
1
60
0
100
AcDbLine
10
85.335807
20
31.877491
30
0
11
47.288382
21
45.317439
31
0
39
0
210
0
220
0
230
1
0
LINE
5
176
100
AcDbEntity
8
1
62
256
6
ByLayer
370
18
48
1
60
0
100
AcDbLine
10
47.425103
20
45.652142
30
0
11
85.301039
21
32.272771
31
0
39
0
210
0
220
0
230
1
0
LINE
5
177
100
AcDbEntity
8
SK1
62
256
6
ByLayer
370
18
48
1
60
0
100
AcDbLine
10
84.279464
20
-26.745575
30
0
11
84.793256
21
-24.820019
31
0
39
0
210
0
220
0
230
1
0
LINE
5
178
100
AcDbEntity
8
SK1
62
256
6
ByLayer
370
18
48
1
60
0
100
AcDbLine
10
80.368028
20
-29.678132
30
0
11
80.884298
21
-29.017111
31
0
39
0
210
0
220
0
230
1
0
LINE
5
179
100
AcDbEntity
8
1
62
256
6
ByLayer
370
18
48
1
60
0
100
AcDbLine
10
10.538675
20
-38.115458
30
0
11
13.461325
21
-38.115458
31
0
39
0
210
0
220
0
230
1
0
LINE
5
17A
100
AcDbEntity
8
1
62
256
6
ByLayer
370
18
48
1
60
0
100
AcDbLine
10
67.284497
20
-38.663302
30
0
11
72.5
21
-38.74542
31
0
39
0
210
0
220
0
230
1
0
LINE
5
17B
100
AcDbEntity
8
1
62
256
6
ByLayer
370
18
48
1
60
0
100
AcDbLine
10
80.922846
20
51.753555
30
0
11
80.496197
21
52.211868
31
0
39
0
210
0
220
0
230
1
0
LINE
5
17C
100
AcDbEntity
8
1
62
256
6
ByLayer
370
18
48
1
60
0
100
AcDbLine
10
67.284497
20
73.441678
30
0
11
72.5
21
73.623807
31
0
39
0
210
0
220
0
230
1
0
LINE
5
17D
100
AcDbEntity
8
SK1
62
256
6
ByLayer
370
18
48
1
60
0
100
AcDbLine
10
87.4
20
20.404866
30
0
11
87.4
21
74.080564
31
0
39
0
210
0
220
0
230
1
0
LINE
5
17E
100
AcDbEntity
8
SK1
62
256
6
ByLayer
370
18
48
1
60
0
100
AcDbLine
10
88.779627
20
73.857913
30
0
11
88.779627
21
9.289627
31
0
39
0
210
0
220
0
230
1
0
LINE
5
17F
100
AcDbEntity
8
SK1
62
256
6
ByLayer
370
18
48
1
60
0
100
AcDbLine
10
87.4
20
74.080564
30
0
11
85.579808
21
74.080564
31
0
39
0
210
0
220
0
230
1
0
LINE
5
180
100
AcDbEntity
8
1
62
256
6
ByLayer
370
18
48
1
60
0
100
AcDbLine
10
13.461325
20
-12.13309
30
0
11
10.538675
21
-12.13309
31
0
39
0
210
0
220
0
230
1
0
LINE
5
181
100
AcDbEntity
8
SK1
62
256
6
ByLayer
370
18
48
1
60
0
100
AcDbLine
10
80.368028
20
-35.659657
30
0
11
73.004363
21
-36.86965
31
0
39
0
210
0
220
0
230
1
0
LINE
5
182
100
AcDbEntity
8
1
62
256
6
ByLayer
370
18
48
1
60
0
100
AcDbLine
10
64.295023
20
-38.300763
30
0
11
53.370172
21
-40.095928
31
0
39
0
210
0
220
0
230
1
0
LINE
5
183
100
AcDbEntity
8
SK1
62
256
6
ByLayer
370
18
48
1
60
0
100
AcDbLine
10
73.004799
20
73.641435
30
0
11
85.579808
21
74.080564
31
0
39
0
210
0
220
0
230
1
0
LINE
5
184
100
AcDbEntity
8
SK1
62
256
6
ByLayer
370
18
48
1
60
0
100
AcDbLine
10
88.779627
20
-23.317524
30
0
11
88.779627
21
-7.527929
31
0
39
0
210
0
220
0
230
1
0
LINE
5
185
100
AcDbEntity
8
SK1
62
256
6
ByLayer
370
18
48
1
60
0
100
AcDbLine
10
88.779627
20
2.472012
30
0
11
88.779627
21
9.288764
31
0
39
0
210
0
220
0
230
1
0
LINE
5
186
100
AcDbEntity
8
1
62
256
6
ByLayer
370
18
48
1
60
0
100
AcDbLine
10
72.5
20
73.623807
30
0
11
73.004799
21
73.641435
31
0
39
0
210
0
220
0
230
1
0
LINE
5
187
100
AcDbEntity
8
1
62
256
6
ByLayer
370
18
48
1
60
0
100
AcDbLine
10
84.183075
20
46.321384
30
0
11
86.975408
21
23.824646
31
0
39
0
210
0
220
0
230
1
0
LINE
5
188
100
AcDbEntity
8
SK1
62
256
6
ByLayer
370
18
48
1
60
0
100
AcDbLine
10
85.335807
20
-65.874982
30
0
11
85.335807
21
-40.94198
31
0
39
0
210
0
220
0
230
1
0
LINE
5
189
100
AcDbEntity
8
1
62
256
6
ByLayer
370
18
48
1
60
0
100
AcDbLine
10
73.004783
20
-30.888056
30
0
11
72.5
21
-30.971001
31
0
39
0
210
0
220
0
230
1
0
LINE
5
18A
100
AcDbEntity
8
1
62
256
6
ByLayer
370
18
48
1
60
0
100
AcDbLine
10
73.004761
20
-30.311871
30
0
11
72.5
21
-30.394813
31
0
39
0
210
0
220
0
230
1
0
LINE
5
18B
100
AcDbEntity
8
1
62
256
6
ByLayer
370
18
48
1
60
0
100
AcDbLine
10
73.004363
20
-36.86965
30
0
11
72.499841
21
-36.952553
31
0
39
0
210
0
220
0
230
1
0
MTEXT
5
2C3
100
AcDbEntity
8
SK6
62
256
6
ByLayer
370
18
48
1
60
0
100
AcDbMText
10
5.715197
20
-18.00603
30
0
210
0
220
0
230
1
1
\W0.7440;C8-R820H-AA3089B
40
3
41
0
44
1.084337
50
90
71
7
72
5
7
iso_b_vert
0
DIMENSION
5
2D1
100
AcDbEntity
8
2
62
256
6
ByLayer
370
13
48
1
60
0
100
AcDbDimension
2
DimnDraft3D1
10
89
20
103.5
30
0
11
41.057895
21
103.5
31
0
70
32
71
5
72
1
41
1
210
0
220
0
230
1
3
Standard
100
AcDbAlignedDimension
13
0
23
41.7
33
0
14
89
24
2
34
0
50
0
100
AcDbRotatedDimension
1001
ACAD
1000
DSTYLE
1002
{
1070
   279
1070
     0
1070
   172
1070
     1
1070
   173
1070
     1
1070
   340
1005
2C4
1070
   271
1070
     0
1070
   272
1070
     3
1070
    77
1070
     1
1070
    73
1070
     0
1070
   171
1070
     4
1070
   274
1070
     4
1070
   177
1070
     7
1070
   176
1070
     7
1070
   178
1070
     7
1070
    78
1070
     8
1070
    41
1041
3.175
1070
   147
1041
1.5
1070
    42
1041
2.0
1070
    44
1041
2.0
1070
   140
1041
3.0
1070
   343
1005
0
1070
   344
1005
0
1002
}
0
DIMENSION
5
2DC
100
AcDbEntity
8
SK2
62
256
6
ByLayer
370
13
48
1
60
0
100
AcDbDimension
2
DimnDraft3D2
10
-73.5
20
-40
30
0
11
-73.5
21
-4.073684
31
0
70
32
71
5
72
1
41
1
210
0
220
0
230
1
3
Standard
100
AcDbAlignedDimension
13
-1.7
23
40
33
0
14
-1.7
24
-40
34
0
50
90
100
AcDbRotatedDimension
1001
ACAD
1000
DSTYLE
1002
{
1070
    74
1070
     0
1070
   279
1070
     0
1070
   172
1070
     1
1070
   173
1070
     1
1070
   340
1005
2C4
1070
   271
1070
     0
1070
   272
1070
     3
1070
    77
1070
     1
1070
    73
1070
     0
1070
   171
1070
     4
1070
   274
1070
     4
1070
   177
1070
     7
1070
   176
1070
     7
1070
   178
1070
     7
1070
    78
1070
     8
1070
    41
1041
3.175
1070
   147
1041
1.5
1070
    42
1041
2.0
1070
    44
1041
2.0
1070
   140
1041
3.0
1070
   343
1005
0
1070
   344
1005
0
1002
}
0
ENDSEC
0
SECTION
2
OBJECTS
0
DICTIONARY
5
34a
330
0
100
AcDbDictionary
280
0
281
1
3
ACAD_GROUP
350
34b
3
ACAD_GROUP
350
34c
3
ACAD_MLINESTYLE
350
34d
0
DICTIONARY
5
34b
330
0
100
AcDbDictionary
280
0
281
1
0
DICTIONARY
5
34c
330
0
100
AcDbDictionary
280
0
281
1
3
<200931852NDI000_00>
350
2E6
3
<200932410MOD000_00>
350
2E5
0
DICTIONARY
5
34d
330
0
100
AcDbDictionary
280
0
281
1
3
Standard
350
18
0
GROUP
5
2E6
330
34c
100
AcDbGroup
300

70
0
71
1
340
13C
340
13D
340
13E
340
13F
340
140
340
141
340
142
340
143
340
144
340
145
340
146
340
147
340
148
340
149
340
14A
340
14B
340
14C
340
14D
340
14E
340
14F
340
150
340
151
340
152
340
153
340
154
340
155
340
156
340
157
340
158
340
159
340
15A
340
15B
340
15C
340
15D
340
15E
340
15F
340
160
340
161
340
162
340
163
340
164
340
165
340
166
340
167
340
168
340
169
340
16A
340
16B
340
16C
340
16D
340
16E
340
16F
340
170
340
171
340
172
340
173
340
174
340
175
340
176
340
177
340
178
340
179
340
17A
340
17B
340
17C
340
17D
340
17E
340
17F
340
180
340
181
340
182
340
183
340
184
340
185
340
291
340
292
340
293
340
294
340
295
340
296
340
297
340
298
340
299
340
29A
340
29B
340
29C
340
29D
340
29E
340
29F
340
2A0
340
2A1
340
2A2
340
2A3
340
2A4
340
2A5
340
2A6
340
2A7
340
2A8
340
2A9
340
2AA
340
2AB
340
2AC
340
2AD
340
2AE
340
2AF
340
2B0
340
2B1
340
2B2
340
2B3
340
2B4
340
2B5
340
2B6
340
2B7
340
2B8
340
2B9
340
2BA
340
2BB
340
2BC
340
2BD
340
2BE
340
2BF
340
2C0
340
2C1
340
2C2
0
GROUP
5
2E5
330
34c
100
AcDbGroup
300

70
0
71
1
340
6C
340
6E
340
70
340
72
340
73
340
74
340
75
340
76
340
77
340
78
340
79
340
7A
340
7B
340
7C
340
7D
340
7E
340
7F
340
80
340
81
340
82
340
83
340
84
340
85
340
86
340
87
340
88
340
89
340
8A
340
8B
340
8C
340
8D
340
8E
340
8F
340
90
340
91
340
92
340
93
340
94
340
95
340
96
340
97
340
98
340
99
340
9A
340
9B
340
9C
340
9D
340
9E
340
9F
340
A0
340
A1
340
A2
340
A3
340
A4
340
A5
340
A6
340
A7
340
A8
340
A9
340
AA
340
AB
340
AC
340
AD
340
AE
340
AF
340
B0
340
B1
340
B2
340
B3
340
B4
340
B5
340
B6
340
B7
340
B8
340
B9
340
BA
340
BB
340
BC
340
BD
340
BE
340
BF
340
C0
340
C1
340
C2
340
C3
340
C4
340
C5
340
C6
340
C7
340
C8
340
C9
340
CA
340
CB
340
CC
340
CD
340
CE
340
CF
340
D0
340
D1
340
D2
340
D3
340
D4
340
D5
340
D6
340
D7
340
D8
340
D9
340
DA
340
DB
340
DC
340
DD
340
DE
340
DF
340
E0
340
E1
340
E2
340
E3
340
E4
340
E5
340
E6
340
E7
340
E8
340
E9
340
EA
340
EB
340
EC
340
ED
340
EE
340
EF
340
F1
340
F2
340
F3
340
F4
340
F5
340
F6
340
F7
340
F8
340
F9
340
FA
340
FC
340
FE
340
FF
340
100
340
101
340
102
340
103
340
104
340
105
340
106
340
107
340
108
340
109
340
10A
340
10B
340
10C
340
10D
340
10E
340
10F
340
110
340
111
340
112
340
113
340
114
340
115
340
116
340
117
340
118
340
119
340
11A
340
11B
340
11C
340
11D
340
11E
340
11F
340
120
340
121
340
122
340
123
340
124
340
125
340
126
340
127
340
128
340
129
340
12A
340
12B
340
12C
340
12D
340
12E
340
12F
340
130
340
131
340
132
340
133
340
134
340
135
340
136
340
137
340
138
340
139
340
13A
340
13B
340
13C
340
13D
340
13E
340
13F
340
140
340
141
340
142
340
143
340
144
340
145
340
146
340
147
340
148
340
149
340
14A
340
14B
340
14C
340
14D
340
14E
340
14F
340
150
340
151
340
152
340
153
340
154
340
155
340
156
340
157
340
158
340
159
340
15A
340
15B
340
15C
340
15D
340
15E
340
15F
340
160
340
161
340
162
340
163
340
164
340
165
340
166
340
167
340
168
340
169
340
16A
340
16B
340
16C
340
16D
340
16E
340
16F
340
170
340
171
340
172
340
173
340
174
340
175
340
176
340
177
340
178
340
179
340
17A
340
17B
340
17C
340
17D
340
17E
340
17F
340
180
340
181
340
182
340
183
340
184
340
185
340
186
340
187
340
188
340
189
340
18A
340
18B
340
18C
340
18D
340
18E
340
18F
340
190
340
191
340
192
340
193
340
194
340
195
340
196
340
197
340
198
340
199
340
19A
340
19B
340
19C
340
19D
340
19E
340
19F
340
1A0
340
1A1
340
1A2
340
1A3
340
1A4
340
1A5
340
1A6
340
1A7
340
1A8
340
1A9
340
1AA
340
1AB
340
1AC
340
1AD
340
1AE
340
1AF
340
1B0
340
1B1
340
1B2
340
1B3
340
1B4
340
1B5
340
1B6
340
1B7
340
1B8
340
1B9
340
1BA
340
1BB
340
1BC
340
1BD
340
1BE
340
1BF
340
1C0
340
1C1
340
1C2
340
1C3
340
1C4
340
1C5
340
1C6
340
1C7
340
1C8
340
1C9
340
1CA
340
1CB
340
1CC
340
1CD
340
1CE
340
1CF
340
1D0
340
1D1
340
1D2
340
1D3
340
1D4
340
1D5
340
1D6
340
1D7
340
1D8
340
1D9
340
1DA
340
1DB
340
1DC
340
1DD
340
1DE
340
1DF
340
1E0
340
1E1
340
1E2
340
1E3
340
1E4
340
1E5
340
1E6
340
1E7
340
1E8
340
1E9
340
1EA
340
1EB
340
1EC
340
1ED
340
1EE
340
1EF
340
1F0
340
1F1
340
1F2
340
1F3
340
1F4
340
1F5
340
1F6
340
1F7
340
1F8
340
1F9
340
1FA
340
1FB
340
1FC
340
1FD
340
1FE
340
1FF
340
200
340
201
340
202
340
203
340
204
340
205
340
206
340
207
340
208
340
209
340
20A
340
20B
340
20C
340
20D
340
20E
340
20F
340
210
340
211
340
212
340
213
340
214
340
215
340
216
340
217
340
218
340
219
340
21A
340
21B
340
21C
340
21D
340
21E
340
21F
340
220
340
221
340
222
340
223
340
224
340
225
340
226
340
227
340
228
340
229
340
22A
340
22B
340
22C
340
22D
340
22E
340
22F
340
230
340
231
340
232
340
233
340
234
340
235
340
236
340
237
340
238
340
239
340
23A
340
23B
340
23C
340
23D
340
23E
340
23F
340
240
340
241
340
242
340
243
340
244
340
245
340
246
340
247
340
248
340
249
340
24A
340
24B
340
24C
340
24D
340
24E
340
24F
340
250
340
251
340
252
340
253
340
254
340
255
340
256
340
257
340
258
340
259
340
25A
340
25B
340
25C
340
25D
340
25E
340
25F
340
260
340
261
340
262
340
263
340
264
340
265
340
266
340
267
340
268
340
269
340
26A
340
26B
340
26C
340
26D
340
26E
340
26F
340
270
340
271
340
272
340
273
340
274
340
275
340
276
340
277
340
278
340
279
340
27A
340
27B
340
27C
340
27D
340
27E
340
27F
340
280
340
281
340
282
340
283
340
284
340
285
340
286
340
287
340
288
340
289
340
28A
340
28B
340
28C
340
28D
340
28E
340
28F
340
290
340
291
340
292
340
293
340
294
340
295
340
296
340
297
340
298
340
299
340
29A
340
29B
340
29C
340
29D
340
29E
340
29F
340
2A0
340
2A1
340
2A2
340
2A3
340
2A4
340
2A5
340
2A6
340
2A7
340
2A8
340
2A9
340
2AA
340
2AB
340
2AC
340
2AD
340
2AE
340
2AF
340
2B0
340
2B1
340
2B2
340
2B3
340
2B4
340
2B5
340
2B6
340
2B7
340
2B8
340
2B9
340
2BA
340
2BB
340
2BC
340
2BD
340
2BE
340
2BF
340
2C0
340
2C1
340
2C2
340
13C
340
13D
340
13E
340
13F
340
140
340
141
340
142
340
143
340
144
340
145
340
146
340
147
340
148
340
149
340
14A
340
14B
340
14C
340
14D
340
14E
340
14F
340
150
340
151
340
152
340
153
340
154
340
155
340
156
340
157
340
158
340
159
340
15A
340
15B
340
15C
340
15D
340
15E
340
15F
340
160
340
161
340
162
340
163
340
164
340
165
340
166
340
167
340
168
340
169
340
16A
340
16B
340
16C
340
16D
340
16E
340
16F
340
170
340
171
340
172
340
173
340
174
340
175
340
176
340
177
340
178
340
179
340
17A
340
17B
340
17C
340
17D
340
17E
340
17F
340
180
340
181
340
182
340
183
340
184
340
185
340
291
340
292
340
293
340
294
340
295
340
296
340
297
340
298
340
299
340
29A
340
29B
340
29C
340
29D
340
29E
340
29F
340
2A0
340
2A1
340
2A2
340
2A3
340
2A4
340
2A5
340
2A6
340
2A7
340
2A8
340
2A9
340
2AA
340
2AB
340
2AC
340
2AD
340
2AE
340
2AF
340
2B0
340
2B1
340
2B2
340
2B3
340
2B4
340
2B5
340
2B6
340
2B7
340
2B8
340
2B9
340
2BA
340
2BB
340
2BC
340
2BD
340
2BE
340
2BF
340
2C0
340
2C1
340
2C2
340
2C3
340
2D1
340
2DC
0
MLINESTYLE
5
18
330
34d
100
AcDbMlineStyle
2
Standard
70
0
3

62
256
51
90
52
90
71
2
49
-0.5
62
256
6
ByLayer
49
0.5
62
256
6
ByLayer
0
RASTERVARIABLES
5
337
330

100
AcDbRasterVariables
90
0
70
1
71
1
72
1
0
ENDSEC
0
EOF
