0
SECTION
2
HEADER
9
$ACADVER
1
AC1015
9
$DWGCODEPAGE
3
ANSI_1252
9
$HANDSEED
5
3ae
9
$ANGBASE
50
0
9
$ANGDIR
70
0
9
$ATTMODE
70
1
9
$AUNITS
70
0
9
$AUPREC
70
0
9
$CECOLOR
62
256
9
$CELTSCALE
40
1
9
$CELTYPE
6
ByLayer
9
$CELWEIGHT
370
18
9
$CLAYER
8
0
9
$CMLJUST
70
0
9
$CMLSCALE
40
1
9
$CMLSTYLE
2
Standard
9
$DIMSTYLE
2
Standard
9
$TEXTSIZE
40
0.2
9
$TEXTSTYLE
7
Standard
9
$LUNITS
70
2
9
$LUPREC
70
4
9
$EXTNAMES
290
1
9
$INSUNITS
70
4
9
$LTSCALE
40
1
9
$LWDISPLAY
290
1
9
$PDMODE
70
0
9
$PDSIZE
40
0
9
$PLINEGEN
70
0
0
ENDSEC
0
SECTION
2
CLASSES
0
CLASS
1
RASTERVARIABLES
2
AcDbRasterVariables
3
ISM
90
0
280
0
281
0
0
ENDSEC
0
SECTION
2
TABLES
0
TABLE
2
VPORT
5
3a4
100
AcDbSymbolTable
0
VPORT
5
1
100
AcDbSymbolTableRecord
100
AcDbViewportTableRecord
2
*Active
70
0
10
0
20
0
11
1
21
1
12
-1
22
1
13
0
23
0
14
0.5
24
0.5
15
10
25
10
16
0
26
0
36
1
17
0
27
0
37
0
0
ENDTAB
0
TABLE
2
LTYPE
5
3a5
100
AcDbSymbolTable
0
LTYPE
5
14
100
AcDbSymbolTableRecord
100
AcDbLinetypeTableRecord
70
0
2
ByBlock
3

72
65
73
0
40
0
0
LTYPE
5
15
100
AcDbSymbolTableRecord
100
AcDbLinetypeTableRecord
70
0
2
ByLayer
3

72
65
73
0
40
0
0
LTYPE
5
16
100
AcDbSymbolTableRecord
100
AcDbLinetypeTableRecord
70
0
2
CONTINUOUS
3
Solid line
72
65
73
0
40
0
0
LTYPE
5
6A
100
AcDbSymbolTableRecord
100
AcDbLinetypeTableRecord
70
0
2
CENTER
3
____ _ ____ _ ____ _ ____
72
65
73
4
40
47.5
49
22
74
0
49
-8.5
74
0
49
8.5
74
0
49
-8.5
74
0
0
LTYPE
5
6B
100
AcDbSymbolTableRecord
100
AcDbLinetypeTableRecord
70
0
2
DASHED
3
__ __ __ __ __ __ __ __ __
72
65
73
2
40
25.72
49
12.86
74
0
49
-12.86
74
0
0
ENDTAB
0
TABLE
2
LAYER
5
3a6
100
AcDbSymbolTable
0
LAYER
5
10
100
AcDbSymbolTableRecord
100
AcDbLayerTableRecord
2
0
70
0
62
7
6
CONTINUOUS
290
1
370
-3
390
0
0
LAYER
5
6D
100
AcDbSymbolTableRecord
100
AcDbLayerTableRecord
2
80
70
0
62
-6
6
CONTINUOUS
290
1
370
-3
390
0
0
LAYER
5
6F
100
AcDbSymbolTableRecord
100
AcDbLayerTableRecord
2
81
70
0
62
-3
6
CONTINUOUS
290
1
370
-3
390
0
0
LAYER
5
71
100
AcDbSymbolTableRecord
100
AcDbLayerTableRecord
2
4
70
0
62
-2
6
CENTER
290
1
370
-3
390
0
0
LAYER
5
75
100
AcDbSymbolTableRecord
100
AcDbLayerTableRecord
2
1
70
0
62
4
6
CONTINUOUS
290
1
370
-3
390
0
0
LAYER
5
313
100
AcDbSymbolTableRecord
100
AcDbLayerTableRecord
2
2
70
0
62
7
6
CONTINUOUS
290
1
370
-3
390
0
0
LAYER
5
38f
100
AcDbSymbolTableRecord
100
AcDbLayerTableRecord
2
SK4
70
0
62
2
6
CENTER
290
1
370
-3
390
0
0
LAYER
5
390
100
AcDbSymbolTableRecord
100
AcDbLayerTableRecord
2
SK1
70
0
62
4
6
CONTINUOUS
290
1
370
-3
390
0
0
LAYER
5
391
100
AcDbSymbolTableRecord
100
AcDbLayerTableRecord
2
SK6
70
0
62
5
6
CONTINUOUS
290
1
370
-3
390
0
0
ENDTAB
0
TABLE
2
STYLE
5
3a7
100
AcDbSymbolTable
0
STYLE
5
11
100
AcDbSymbolTableRecord
100
AcDbTextStyleTableRecord
2
Standard
3
txt
70
0
71
0
40
0
41
1
42
0
50
0
0
STYLE
5
30F
100
AcDbSymbolTableRecord
100
AcDbTextStyleTableRecord
2
iso_b_vert
3
simplex.shx
70
0
71
0
40
0
41
1
42
0
50
0
0
STYLE
5
310
100
AcDbSymbolTableRecord
100
AcDbTextStyleTableRecord
2
DWGDirectTextStyle
3
simplex
70
0
71
0
40
0
41
1
42
0
50
0
0
ENDTAB
0
TABLE
2
DIMSTYLE
5
3a8
100
AcDbSymbolTable
100
AcDbDimStyleTable
0
DIMSTYLE
105
27
100
AcDbSymbolTableRecord
100
AcDbDimStyleTableRecord
2
Standard
70
0
3
<>
41
0.18
42
0.0625
44
0.18
140
0.18
147
0.09
73
0
74
0
77
1
271
2
275
0
278
52
280
0
340
11
0
ENDTAB
0
TABLE
2
VIEW
5
3a9
100
AcDbSymbolTable
0
ENDTAB
0
TABLE
2
UCS
5
3aa
100
AcDbSymbolTable
0
ENDTAB
0
TABLE
2
APPID
5
3ab
100
AcDbSymbolTable
0
APPID
5
12
100
AcDbSymbolTableRecord
100
AcDbRegAppTableRecord
2
ACAD
70
0
0
ENDTAB
0
TABLE
2
BLOCK_RECORD
5
3ac
100
AcDbSymbolTable
0
BLOCK_RECORD
5
1F
100
AcDbSymbolTableRecord
100
AcDbBlockTableRecord
2
*Model_Space
340
0
70
0
0
BLOCK_RECORD
5
1B
100
AcDbSymbolTableRecord
100
AcDbBlockTableRecord
2
*Paper_Space
340
0
70
0
0
BLOCK_RECORD
5
23
100
AcDbSymbolTableRecord
100
AcDbBlockTableRecord
2
*Paper_Space0
340
0
70
0
0
BLOCK_RECORD
5
314
100
AcDbSymbolTableRecord
100
AcDbBlockTableRecord
2
DimnDraft3D1
340
0
70
0
0
BLOCK_RECORD
5
31E
100
AcDbSymbolTableRecord
100
AcDbBlockTableRecord
2
DimnDraft3D2
340
0
70
0
0
BLOCK_RECORD
5
328
100
AcDbSymbolTableRecord
100
AcDbBlockTableRecord
2
DimnDraft3D3
340
0
70
0
0
ENDTAB
0
ENDSEC
0
SECTION
2
BLOCKS
0
BLOCK
5
20
100
AcDbEntity
8
0
100
AcDbBlockBegin
2
*Model_Space
70
0
10
0
20
0
30
0
3
*Model_Space
0
ENDBLK
5
21
100
AcDbEntity
8
0
100
AcDbBlockEnd
0
BLOCK
5
1C
100
AcDbEntity
8
0
100
AcDbBlockBegin
2
*Paper_Space
70
0
10
0
20
0
30
0
3
*Paper_Space
0
ENDBLK
5
1D
100
AcDbEntity
8
0
100
AcDbBlockEnd
0
BLOCK
5
24
100
AcDbEntity
8
0
100
AcDbBlockBegin
2
*Paper_Space0
70
0
10
0
20
0
30
0
3
*Paper_Space0
0
ENDBLK
5
25
100
AcDbEntity
8
0
100
AcDbBlockEnd
0
BLOCK
5
31B
100
AcDbEntity
8
0
100
AcDbBlockBegin
2
DimnDraft3D1
70
0
10
0
20
0
30
0
3
DimnDraft3D1
0
MTEXT
5
315
100
AcDbEntity
8
2
62
256
6
ByLayer
370
18
48
1
60
0
100
AcDbMText
10
10.307895
20
104.25
30
0
210
0
220
0
230
1
1
\W0.6961;26.0
40
3
41
0
44
1.084337
50
0
71
7
72
5
7
iso_b_vert
0
LINE
5
316
100
AcDbEntity
8
2
62
256
6
ByLayer
370
13
48
1
60
0
100
AcDbLine
10
0
20
2
30
0
11
0
21
105.5
31
0
39
0
210
0
220
0
230
1
0
LINE
5
317
100
AcDbEntity
8
2
62
256
6
ByLayer
370
13
48
1
60
0
100
AcDbLine
10
26
20
96.5
30
0
11
26
21
105.5
31
0
39
0
210
0
220
0
230
1
0
LINE
5
318
100
AcDbEntity
8
2
62
256
6
ByLayer
370
13
48
1
60
0
100
AcDbLine
10
0
20
103.5
30
0
11
26
21
103.5
31
0
39
0
210
0
220
0
230
1
0
SOLID
5
319
100
AcDbEntity
8
2
62
256
6
ByLayer
370
13
48
1
60
0
100
AcDbTrace
10
0
20
103.5
30
0
11
3.174998
21
103.917997
31
0
12
3.175002
22
103.082003
32
0
13
0
23
103.5
33
0
39
0
210
0
220
0
230
1
0
SOLID
5
31A
100
AcDbEntity
8
2
62
256
6
ByLayer
370
13
48
1
60
0
100
AcDbTrace
10
26
20
103.5
30
0
11
22.825002
21
103.082003
31
0
12
22.824998
22
103.917997
32
0
13
26
23
103.5
33
0
39
0
210
0
220
0
230
1
0
ENDBLK
5
31C
100
AcDbEntity
8
0
100
AcDbBlockEnd
0
BLOCK
5
325
100
AcDbEntity
8
0
100
AcDbBlockBegin
2
DimnDraft3D2
70
0
10
0
20
0
30
0
3
DimnDraft3D2
0
MTEXT
5
31F
100
AcDbEntity
8
2
62
256
6
ByLayer
370
18
48
1
60
0
100
AcDbMText
10
46.680276
20
0.317964
30
0
210
0
220
0
230
1
1
\W0.3160; 
40
3
41
0
44
1.084337
50
90
71
7
72
5
7
iso_b_vert
0
LINE
5
320
100
AcDbEntity
8
2
62
256
6
ByLayer
370
13
48
1
60
0
100
AcDbLine
10
28
20
94.5
30
0
11
49.430276
21
94.5
31
0
39
0
210
0
220
0
230
1
0
LINE
5
321
100
AcDbEntity
8
2
62
256
6
ByLayer
370
13
48
1
60
0
100
AcDbLine
10
27.202084
20
-94.49565
30
0
11
49.430276
21
-94.49565
31
0
39
0
210
0
220
0
230
1
0
LINE
5
322
100
AcDbEntity
8
2
62
256
6
ByLayer
370
13
48
1
60
0
100
AcDbLine
10
47.430276
20
94.5
30
0
11
47.430276
21
-94.49565
31
0
39
0
210
0
220
0
230
1
0
SOLID
5
323
100
AcDbEntity
8
2
62
256
6
ByLayer
370
13
48
1
60
0
100
AcDbTrace
10
47.430276
20
94.5
30
0
11
47.848273
21
91.325002
31
0
12
47.01228
22
91.324998
32
0
13
47.430276
23
94.5
33
0
39
0
210
0
220
0
230
1
0
SOLID
5
324
100
AcDbEntity
8
2
62
256
6
ByLayer
370
13
48
1
60
0
100
AcDbTrace
10
47.430276
20
-94.49565
30
0
11
47.01228
21
-91.320652
31
0
12
47.848273
22
-91.320649
32
0
13
47.430276
23
-94.49565
33
0
39
0
210
0
220
0
230
1
0
ENDBLK
5
326
100
AcDbEntity
8
0
100
AcDbBlockEnd
0
BLOCK
5
32F
100
AcDbEntity
8
0
100
AcDbBlockBegin
2
DimnDraft3D3
70
0
10
0
20
0
30
0
3
DimnDraft3D3
0
MTEXT
5
329
100
AcDbEntity
8
2
62
256
6
ByLayer
370
18
48
1
60
0
100
AcDbMText
10
36.84639
20
81.893678
30
0
210
0
220
0
230
1
1
\W0.6258;84%%d
40
3
41
0
44
1.084337
50
48.0000000000001
71
7
72
5
7
iso_b_vert
0
LINE
5
32A
100
AcDbEntity
8
2
62
256
6
ByLayer
370
13
48
1
60
0
100
AcDbLine
10
27.408153
20
81.147029
30
0
11
28.016059
21
75.363188
31
0
39
0
210
0
220
0
230
1
0
LINE
5
32B
100
AcDbEntity
8
2
62
256
6
ByLayer
370
13
48
1
60
0
100
AcDbLine
10
28
20
94.5
30
0
11
45.246922
21
94.5
31
0
39
0
210
0
220
0
230
1
0
ARC
5
32C
100
AcDbEntity
8
2
62
256
6
ByLayer
370
13
48
1
60
0
100
AcDbCircle
39
0
10
26.004699
20
94.5
30
0
40
17.2422227076176
210
0
220
0
230
1
100
AcDbArc
50
276
51
0
0
SOLID
5
32D
100
AcDbEntity
8
2
62
256
6
ByLayer
370
13
48
1
60
0
100
AcDbTrace
10
27.807002
20
77.352232
30
0
11
30.883328
21
78.241926
31
0
12
31.008778
22
77.415398
32
0
13
27.807002
23
77.352232
33
0
39
0
210
0
220
0
230
1
0
SOLID
5
32E
100
AcDbEntity
8
2
62
256
6
ByLayer
370
13
48
1
60
0
100
AcDbTrace
10
43.246922
20
94.5
30
0
11
43.518778
21
91.309165
31
0
12
42.683666
22
91.347525
32
0
13
43.246922
23
94.5
33
0
39
0
210
0
220
0
230
1
0
ENDBLK
5
330
100
AcDbEntity
8
0
100
AcDbBlockEnd
0
ENDSEC
0
SECTION
2
ENTITIES
0
ARC
5
1B0
100
AcDbEntity
8
1
62
256
6
ByLayer
370
13
48
0.05
60
0
100
AcDbCircle
39
0
10
-25.285079
20
-93.706
30
0
40
0.793999999999771
210
0
220
0
230
-1
100
AcDbArc
50
186
51
276
0
ARC
5
1B1
100
AcDbEntity
8
1
62
256
6
ByLayer
370
18
48
1
60
0
100
AcDbCircle
39
0
10
-8.495301
20
81.325831
30
0
40
0.95
210
0
220
0
230
1
100
AcDbArc
50
15
51
345
0
ARC
5
1B2
100
AcDbEntity
8
1
62
256
6
ByLayer
370
18
48
1
60
0
100
AcDbCircle
39
0
10
-8.495301
20
81.325831
30
0
40
1.26132486540519
210
0
220
0
230
1
100
AcDbArc
50
15
51
345
0
ARC
5
1B3
100
AcDbEntity
8
1
62
256
6
ByLayer
370
18
48
1
60
0
100
AcDbCircle
39
0
10
-23.004699
20
58.325831
30
0
40
10.0000000000026
210
0
220
0
230
-1
100
AcDbArc
50
0
51
70
0
CIRCLE
5
1B4
100
AcDbEntity
8
1
62
256
6
ByLayer
370
18
48
1
60
0
100
AcDbCircle
10
8.495301
20
81.325831
30
0
40
1.525
39
0
210
0
220
0
230
-1
0
ELLIPSE
5
1B5
100
AcDbEntity
8
1
62
256
6
ByLayer
370
18
48
1
60
0
100
AcDbEllipse
10
-12.295301
20
-35.406436
30
0
11
-3
21
3.67381906146713E-16
31
0
210
0
220
0
230
1
40
0.892586
41
0.80375697797755
42
2.2832508993194
0
ELLIPSE
5
1B6
100
AcDbEntity
8
1
62
256
6
ByLayer
370
18
48
1
60
0
100
AcDbEllipse
10
-12.295301
20
-35.57822
30
0
11
-2.619
21
3.20724404066081E-16
31
0
210
0
220
0
230
1
40
0.892586
41
0.765959641664174
42
2.31505945689613
0
ELLIPSE
5
1B7
100
AcDbEntity
8
1
62
256
6
ByLayer
370
18
48
1
60
0
100
AcDbEllipse
10
26.505591
20
-47.073278
30
0
11
-0.392791286215939
21
0.0755976552072095
31
0
210
0
220
0
230
1
40
0.83313
41
-1.32453692635964
42
-0.554053321732255
0
ELLIPSE
5
1B8
100
AcDbEntity
8
1
62
256
6
ByLayer
370
18
48
1
60
0
100
AcDbEllipse
10
25.381109
20
-46.755237
30
0
11
1.09418325184413
21
0.112973498590612
31
0
210
0
220
0
230
1
40
0.536392
41
-0.160442341652137
42
0.665060663864411
0
ELLIPSE
5
1B9
100
AcDbEntity
8
1
62
256
6
ByLayer
370
18
48
1
60
0
100
AcDbEllipse
10
26.093031
20
-46.39172
30
0
11
-0.74603403534827
21
-0.0770273854026953
31
0
210
0
220
0
230
1
40
0.536392
41
2.98115031193765
42
-1.77615429929969
0
ELLIPSE
5
1BA
100
AcDbEntity
8
1
62
256
6
ByLayer
370
18
48
1
60
0
100
AcDbEllipse
10
26.236191
20
-43.490572
30
0
11
-0.994712047131027
21
-0.102703180536927
31
0
210
0
220
0
230
1
40
0.536392
41
-3.0402356074428
42
-1.99303805624612
0
ELLIPSE
5
1BB
100
AcDbEntity
8
1
62
256
6
ByLayer
370
18
48
1
60
0
100
AcDbEllipse
10
25.093996
20
-48.387939
30
0
11
-9.94712047131031
21
-1.02703180536927
31
0
210
0
220
0
230
1
40
0.536392
41
-1.76614525348695
42
-1.75013929045206
0
ELLIPSE
5
1BC
100
AcDbEntity
8
1
62
256
6
ByLayer
370
18
48
1
60
0
100
AcDbEllipse
10
26.728208
20
-43.412491
30
0
11
-0.497356023565515
21
-0.0513515902684637
31
0
210
0
220
0
230
1
40
0.536392
41
3.0160568969775
42
-3.04023560744293
0
ELLIPSE
5
1BD
100
AcDbEntity
8
1
62
256
6
ByLayer
370
18
48
1
60
0
100
AcDbEllipse
10
26.414886
20
-43.226181
30
0
11
-0.497356023565515
21
-0.0513515902684637
31
0
210
0
220
0
230
1
40
0.536392
41
-1.99303805624606
42
-1.76614525348697
0
ELLIPSE
5
1BE
100
AcDbEntity
8
1
62
256
6
ByLayer
370
18
48
1
60
0
100
AcDbEllipse
10
20.35458
20
87.634062
30
0
11
0.33449108245658
21
-3.18247006517847
31
0
210
0
220
0
230
1
40
0.996195
41
-1.40233808471401
42
-0.168458242080873
0
ELLIPSE
5
1BF
100
AcDbEntity
8
1
62
256
6
ByLayer
370
18
48
1
60
0
100
AcDbEllipse
10
24.557404
20
82.907685
30
0
11
-1.03066457613038
21
9.80611840735802
31
0
210
0
220
0
230
1
40
0.996195
41
1.5896969487999
42
1.60570291183478
0
ELLIPSE
5
1C0
100
AcDbEntity
8
1
62
256
6
ByLayer
370
18
48
1
60
0
100
AcDbEllipse
10
17.073593
20
87.845551
30
0
11
0.0104528463267679
21
-0.0994521895368262
31
0
210
0
220
0
230
1
40
0.996195
41
-1.5707963267949
42
1.40233808471415
0
ELLIPSE
5
1C1
100
AcDbEntity
8
1
62
256
6
ByLayer
370
18
48
1
60
0
100
AcDbEllipse
10
23.811838
20
84.625677
30
0
11
0.0209056926535362
21
-0.198904379073654
31
0
210
0
220
0
230
1
40
0.087156
41
0.886715094999556
42
1.57079632679483
0
ELLIPSE
5
1C2
100
AcDbEntity
8
1
62
256
6
ByLayer
370
18
48
1
60
0
100
AcDbEllipse
10
25.432165
20
89.504856
30
0
11
0.522642316338387
21
-4.97260947684117
31
0
210
0
220
0
230
1
40
0.996195
41
3.1226920315848
42
3.13249202467161
0
ELLIPSE
5
1C3
100
AcDbEntity
8
1
62
256
6
ByLayer
370
18
48
1
60
0
100
AcDbEllipse
10
23.808268
20
84.826403
30
0
11
-0.0209056926535377
21
0.198904379073654
31
0
210
0
220
0
230
1
40
0.996195
41
3.14159265358979
42
-1.57079632679493
0
ELLIPSE
5
1C4
100
AcDbEntity
8
1
62
256
6
ByLayer
370
18
48
1
60
0
100
AcDbEllipse
10
20.13545
20
84.438951
30
0
11
-0.0128650708014692
21
-0.199585795970738
31
0
210
0
220
0
230
1
40
0.085922
41
1.58546385301627
42
2.26954508481447
0
ELLIPSE
5
1C5
100
AcDbEntity
8
1
62
256
6
ByLayer
370
18
48
1
60
0
100
AcDbEllipse
10
17.155681
20
87.83732
30
0
11
-0.199601851976567
21
0.0126135121011043
31
0
210
0
220
0
230
1
40
0.014613
41
-2.34091484549271
42
-1.65683361369323
0
ELLIPSE
5
1C6
100
AcDbEntity
8
1
62
256
6
ByLayer
370
18
48
1
60
0
100
AcDbEllipse
10
20.14648
20
84.340983
30
0
11
-0.0104528463267688
21
0.0994521895368268
31
0
210
0
220
0
230
1
40
0.996195
41
3.14159265358865
42
-0.168458242080713
0
ELLIPSE
5
1C7
100
AcDbEntity
8
1
62
256
6
ByLayer
370
18
48
1
60
0
100
AcDbEllipse
10
25.909704
20
84.527714
30
0
11
1.0452846326768
21
-9.94521895368271
31
0
210
0
220
0
230
1
40
0.996195
41
3.1324920246716
42
3.14159265358979
0
ELLIPSE
5
1C8
100
AcDbEntity
8
1
62
256
6
ByLayer
370
18
48
1
60
0
100
AcDbEllipse
10
23.804367
20
84.825994
30
0
11
0.034117279959338
21
-0.324604235719799
31
0
210
0
220
0
230
1
40
0.996195
41
0
42
1.5707963267949
0
ELLIPSE
5
1C9
100
AcDbEntity
8
1
62
256
6
ByLayer
370
18
48
1
60
0
100
AcDbEllipse
10
25.861091
20
84.523294
30
0
11
1.04528463267682
21
-9.94521895368273
31
0
210
0
220
0
230
1
40
0.996195
41
3.10668606854991
42
3.1226920315848
0
ELLIPSE
5
1CA
100
AcDbEntity
8
1
62
256
6
ByLayer
370
18
48
1
60
0
100
AcDbEllipse
10
25.141936
20
91.827449
30
0
11
-1.03066457613036
21
9.80611840735783
31
0
210
0
220
0
230
1
40
0.996195
41
3.14159265358979
42
-3.1324920246716
0
ELLIPSE
5
1CB
100
AcDbEntity
8
1
62
256
6
ByLayer
370
18
48
1
60
0
100
AcDbEllipse
10
25.19715
20
94.000021
30
0
11
0.0522642316338408
21
-0.497260947684137
31
0
210
0
220
0
230
1
40
0.996195
41
2.87979326579069
42
3.10668606855003
0
ELLIPSE
5
1CC
100
AcDbEntity
8
1
62
256
6
ByLayer
370
18
48
1
60
0
100
AcDbEllipse
10
19.438569
20
90.909543
30
0
11
0.0209056926535362
21
-0.198904379073654
31
0
210
0
220
0
230
1
40
0.087156
41
1.57079632679493
42
2.2548775585902
0
ELLIPSE
5
1CD
100
AcDbEntity
8
1
62
256
6
ByLayer
370
18
48
1
60
0
100
AcDbEllipse
10
16.206968
20
92.415507
30
0
11
1.0452846326768
21
-9.94521895368271
31
0
210
0
220
0
230
1
40
0.996195
41
1.57079632679489
42
1.57989695571309
0
ELLIPSE
5
1CE
100
AcDbEntity
8
1
62
256
6
ByLayer
370
18
48
1
60
0
100
AcDbEllipse
10
21.155694
20
92.981392
30
0
11
0.522642316338387
21
-4.97260947684117
31
0
210
0
220
0
230
1
40
0.996195
41
1.5798969557131
42
1.5896969487999
0
ELLIPSE
5
1CF
100
AcDbEntity
8
1
62
256
6
ByLayer
370
18
48
1
60
0
100
AcDbEllipse
10
25.119423
20
93.506228
30
0
11
0.10452846326768
21
-0.99452189536827
31
0
210
0
220
0
230
1
40
0.996195
41
1.83259571459402
42
2.87979326579063
0
ELLIPSE
5
1D0
100
AcDbEntity
8
1
62
256
6
ByLayer
370
18
48
1
60
0
100
AcDbEllipse
10
16.212769
20
92.366852
30
0
11
1.04528463267682
21
-9.94521895368273
31
0
210
0
220
0
230
1
40
0.996195
41
1.58969694879989
42
1.60570291183478
0
ELLIPSE
5
1D1
100
AcDbEntity
8
1
62
256
6
ByLayer
370
18
48
1
60
0
100
AcDbEllipse
10
20.142579
20
84.340573
30
0
11
0.0236644336325698
21
-0.225152046182971
31
0
210
0
220
0
230
1
40
0.996195
41
0
42
2.97313441150857
0
ELLIPSE
5
1D2
100
AcDbEntity
8
1
62
256
6
ByLayer
370
18
48
1
60
0
100
AcDbEllipse
10
15.338008
20
85.769681
30
0
11
-0.508022259791923
21
4.83350893051648
31
0
210
0
220
0
230
1
40
0.996195
41
3.12269203158481
42
3.1324920246716
0
ELLIPSE
5
1D3
100
AcDbEntity
8
1
62
256
6
ByLayer
370
18
48
1
60
0
100
AcDbEllipse
10
25.909175
20
84.527658
30
0
11
-1.03066457613036
21
9.80611840735783
31
0
210
0
220
0
230
1
40
0.996195
41
-0.00910062891818545
42
0
0
ELLIPSE
5
1D4
100
AcDbEntity
8
1
62
256
6
ByLayer
370
18
48
1
60
0
100
AcDbEllipse
10
25.431635
20
89.5048
30
0
11
-0.508022259791923
21
4.83350893051648
31
0
210
0
220
0
230
1
40
0.996195
41
-0.0189006220049871
42
-0.00910062891818497
0
ELLIPSE
5
1D5
100
AcDbEntity
8
1
62
256
6
ByLayer
370
18
48
1
60
0
100
AcDbEllipse
10
25.860562
20
84.523239
30
0
11
-1.03066457613038
21
9.80611840735802
31
0
210
0
220
0
230
1
40
0.996195
41
-0.0349065850398841
42
-0.0189006220049966
0
ELLIPSE
5
1D6
100
AcDbEntity
8
1
62
256
6
ByLayer
370
18
48
1
60
0
100
AcDbEllipse
10
25.196621
20
93.999965
30
0
11
-0.0376441750873423
21
0.35816040135942
31
0
210
0
220
0
230
1
40
0.996195
41
-0.261799387799338
42
-0.0349065850400834
0
ELLIPSE
5
1D7
100
AcDbEntity
8
1
62
256
6
ByLayer
370
18
48
1
60
0
100
AcDbEllipse
10
19.614479
20
82.293145
30
0
11
-0.508022259791923
21
4.83350893051648
31
0
210
0
220
0
230
1
40
0.996195
41
1.57989695571309
42
1.58969694879989
0
ELLIPSE
5
1D8
100
AcDbEntity
8
1
62
256
6
ByLayer
370
18
48
1
60
0
100
AcDbEllipse
10
25.583856
20
93.685164
30
0
11
-0.0376441750873423
21
0.35816040135942
31
0
210
0
220
0
230
1
40
0.996195
41
-1.53588974175496
42
-1.30899693899574
0
ELLIPSE
5
1D9
100
AcDbEntity
8
1
62
256
6
ByLayer
370
18
48
1
60
0
100
AcDbEllipse
10
16.21224
20
92.366796
30
0
11
-1.03066457613038
21
9.80611840735802
31
0
210
0
220
0
230
1
40
0.996195
41
-1.5518957047899
42
-1.53588974175501
0
ELLIPSE
5
1DA
100
AcDbEntity
8
1
62
256
6
ByLayer
370
18
48
1
60
0
100
AcDbEllipse
10
21.155164
20
92.981337
30
0
11
-0.508022259791923
21
4.83350893051648
31
0
210
0
220
0
230
1
40
0.996195
41
-1.5616956978767
42
-1.5518957047899
0
ELLIPSE
5
1DB
100
AcDbEntity
8
1
62
256
6
ByLayer
370
18
48
1
60
0
100
AcDbEllipse
10
16.206439
20
92.415451
30
0
11
-1.03066457613036
21
9.80611840735783
31
0
210
0
220
0
230
1
40
0.996195
41
-1.5707963267949
42
-1.5616956978767
0
ELLIPSE
5
1DC
100
AcDbEntity
8
1
62
256
6
ByLayer
370
18
48
1
60
0
100
AcDbEllipse
10
17.560109
20
84.169696
30
0
11
-0.0209056926535377
21
0.198904379073654
31
0
210
0
220
0
230
1
40
0.996195
41
1.5707963267949
42
3.14159265358951
0
ELLIPSE
5
1DD
100
AcDbEntity
8
1
62
256
6
ByLayer
370
18
48
1
60
0
100
AcDbEllipse
10
26.414886
20
82.414042
30
0
11
0.0522642316338408
21
-0.497260947684137
31
0
210
0
220
0
230
1
40
0.996195
41
0.0349065850397683
42
0.261799387799108
0
ELLIPSE
5
1DE
100
AcDbEntity
8
1
62
256
6
ByLayer
370
18
48
1
60
0
100
AcDbEllipse
10
20.35458
20
87.634062
30
0
11
-0.334491082456602
21
3.18247006517846
31
0
210
0
220
0
230
1
40
0.996195
41
0.168458242080873
42
1.40233808471402
0
ELLIPSE
5
1DF
100
AcDbEntity
8
1
62
256
6
ByLayer
370
18
48
1
60
0
100
AcDbEllipse
10
14.909081
20
90.751243
30
0
11
-1.03066457613038
21
9.80611840735802
31
0
210
0
220
0
230
1
40
0.996195
41
3.10668606854991
42
3.1226920315848
0
ELLIPSE
5
1E0
100
AcDbEntity
8
1
62
256
6
ByLayer
370
18
48
1
60
0
100
AcDbEllipse
10
20.35458
20
87.634062
30
0
11
-0.334491082456602
21
3.18247006517846
31
0
210
0
220
0
230
1
40
0.996195
41
-1.40233808471402
42
-0.168458242080891
0
ELLIPSE
5
1E1
100
AcDbEntity
8
1
62
256
6
ByLayer
370
18
48
1
60
0
100
AcDbEllipse
10
24.563205
20
82.85903
30
0
11
-1.03066457613036
21
9.80611840735783
31
0
210
0
220
0
230
1
40
0.996195
41
1.5707963267949
42
1.57989695571309
0
ELLIPSE
5
1E2
100
AcDbEntity
8
1
62
256
6
ByLayer
370
18
48
1
60
0
100
AcDbEllipse
10
20.558781
20
90.926731
30
0
11
0.0236644336325698
21
-0.225152046182971
31
0
210
0
220
0
230
1
40
0.996195
41
3.14159265358954
42
-0.168458242080966
0
ELLIPSE
5
1E3
100
AcDbEntity
8
1
62
256
6
ByLayer
370
18
48
1
60
0
100
AcDbEllipse
10
23.145151
20
91.098019
30
0
11
0.034117279959338
21
-0.324604235719799
31
0
210
0
220
0
230
1
40
0.996195
41
1.5707963267949
42
-3.14159265358962
0
ELLIPSE
5
1E4
100
AcDbEntity
8
1
62
256
6
ByLayer
370
18
48
1
60
0
100
AcDbEllipse
10
20.35068
20
87.633652
30
0
11
-0.3212794951508
21
3.05677020853232
31
0
210
0
220
0
230
1
40
0.996195
41
-1.40233808471402
42
-0.168458242080861
0
ELLIPSE
5
1E5
100
AcDbEntity
8
1
62
256
6
ByLayer
370
18
48
1
60
0
100
AcDbEllipse
10
23.515998
20
88.522675
30
0
11
0.0236644336325697
21
-0.22515204618297
31
0
210
0
220
0
230
1
40
0.996195
41
-1.40233808471409
42
1.5707963267949
0
ELLIPSE
5
1E6
100
AcDbEntity
8
1
62
256
6
ByLayer
370
18
48
1
60
0
100
AcDbEllipse
10
24.563734
20
82.859085
30
0
11
1.0452846326768
21
-9.94521895368271
31
0
210
0
220
0
230
1
40
0.996195
41
-1.5707963267949
42
-1.5616956978767
0
ELLIPSE
5
1E7
100
AcDbEntity
8
1
62
256
6
ByLayer
370
18
48
1
60
0
100
AcDbEllipse
10
19.462457
20
90.811503
30
0
11
0.0236644336325698
21
-0.225152046182971
31
0
210
0
220
0
230
1
40
0.996195
41
0.168458242081222
42
3.14159265358979
0
ELLIPSE
5
1E8
100
AcDbEntity
8
1
62
256
6
ByLayer
370
18
48
1
60
0
100
AcDbEllipse
10
16.896992
20
90.441311
30
0
11
0.034117279959338
21
-0.324604235719799
31
0
210
0
220
0
230
1
40
0.996195
41
3.14159265358979
42
-1.57079632679492
0
ELLIPSE
5
1E9
100
AcDbEntity
8
1
62
256
6
ByLayer
370
18
48
1
60
0
100
AcDbEllipse
10
20.35068
20
87.633652
30
0
11
-0.3212794951508
21
3.05677020853232
31
0
210
0
220
0
230
1
40
0.996195
41
0.168458242080861
42
1.40233808471402
0
ELLIPSE
5
1EA
100
AcDbEntity
8
1
62
256
6
ByLayer
370
18
48
1
60
0
100
AcDbEllipse
10
15.628237
20
83.447088
30
0
11
1.0452846326768
21
-9.94521895368271
31
0
210
0
220
0
230
1
40
0.996195
41
-3.14159265358979
42
-3.1324920246716
0
ELLIPSE
5
1EB
100
AcDbEntity
8
1
62
256
6
ByLayer
370
18
48
1
60
0
100
AcDbEllipse
10
17.185361
20
86.744629
30
0
11
0.0236644336325697
21
-0.22515204618297
31
0
210
0
220
0
230
1
40
0.996195
41
1.73925456887577
42
-1.57079632679493
0
ELLIPSE
5
1EC
100
AcDbEntity
8
1
62
256
6
ByLayer
370
18
48
1
60
0
100
AcDbEllipse
10
15.060535
20
88.414753
30
0
11
0.522642316338387
21
-4.97260947684117
31
0
210
0
220
0
230
1
40
0.996195
41
-3.1324920246716
42
-3.12269203158481
0
ELLIPSE
5
1ED
100
AcDbEntity
8
1
62
256
6
ByLayer
370
18
48
1
60
0
100
AcDbEllipse
10
17.291721
20
82.094766
30
0
11
1.0452846326768
21
-9.94521895368271
31
0
210
0
220
0
230
1
40
0.996195
41
1.56169569787671
42
1.5707963267949
0
ELLIPSE
5
1EE
100
AcDbEntity
8
1
62
256
6
ByLayer
370
18
48
1
60
0
100
AcDbEllipse
10
17.069693
20
87.845141
30
0
11
0.0236644336325697
21
-0.22515204618297
31
0
210
0
220
0
230
1
40
0.996195
41
-1.5707963267949
42
1.40233808471389
0
ELLIPSE
5
1EF
100
AcDbEntity
8
1
62
256
6
ByLayer
370
18
48
1
60
0
100
AcDbEllipse
10
14.534511
20
92.393709
30
0
11
0.10452846326768
21
-0.99452189536827
31
0
210
0
220
0
230
1
40
0.996195
41
-2.87979326579057
42
-1.83259571459407
0
ELLIPSE
5
1F0
100
AcDbEntity
8
1
62
256
6
ByLayer
370
18
48
1
60
0
100
AcDbEllipse
10
22.24996
20
82.570145
30
0
11
0.522642316338387
21
-4.97260947684117
31
0
210
0
220
0
230
1
40
0.996195
41
1.5518957047899
42
1.5616956978767
0
ELLIPSE
5
1F1
100
AcDbEntity
8
1
62
256
6
ByLayer
370
18
48
1
60
0
100
AcDbEllipse
10
14.355817
20
92.860551
30
0
11
0.0522642316338408
21
-0.497260947684137
31
0
210
0
220
0
230
1
40
0.996195
41
-3.10668606854991
42
-2.8797932657906
0
ELLIPSE
5
1F2
100
AcDbEntity
8
1
62
256
6
ByLayer
370
18
48
1
60
0
100
AcDbEllipse
10
15.676706
20
83.452872
30
0
11
1.04528463267682
21
-9.94521895368273
31
0
210
0
220
0
230
1
40
0.996195
41
-3.12269203158481
42
-3.10668606854992
0
ELLIPSE
5
1F3
100
AcDbEntity
8
1
62
256
6
ByLayer
370
18
48
1
60
0
100
AcDbEllipse
10
17.28728
20
82.143564
30
0
11
1.04528463267682
21
-9.94521895368273
31
0
210
0
220
0
230
1
40
0.996195
41
1.53588974175501
42
1.5518957047899
0
ELLIPSE
5
1F4
100
AcDbEntity
8
1
62
256
6
ByLayer
370
18
48
1
60
0
100
AcDbEllipse
10
26.728208
20
82.802474
30
0
11
0.0522642316338408
21
-0.497260947684137
31
0
210
0
220
0
230
1
40
0.996195
41
1.3089969389958
42
1.53588974175503
0
ELLIPSE
5
1F5
100
AcDbEntity
8
1
62
256
6
ByLayer
370
18
48
1
60
0
100
AcDbEllipse
10
23.478451
20
93.179771
30
0
11
-1.03066457613036
21
9.80611840735783
31
0
210
0
220
0
230
1
40
0.996195
41
1.56169569787671
42
1.5707963267949
0
ELLIPSE
5
1F6
100
AcDbEntity
8
1
62
256
6
ByLayer
370
18
48
1
60
0
100
AcDbEllipse
10
25.142465
20
91.827504
30
0
11
1.0452846326768
21
-9.94521895368271
31
0
210
0
220
0
230
1
40
0.996195
41
0
42
0.00910062891818447
0
ELLIPSE
5
1F7
100
AcDbEntity
8
1
62
256
6
ByLayer
370
18
48
1
60
0
100
AcDbEllipse
10
25.710167
20
86.859839
30
0
11
0.522642316338387
21
-4.97260947684117
31
0
210
0
220
0
230
1
40
0.996195
41
0.00910062891819766
42
0.0189006220050045
0
ELLIPSE
5
1F8
100
AcDbEntity
8
1
62
256
6
ByLayer
370
18
48
1
60
0
100
AcDbEllipse
10
26.236191
20
82.880884
30
0
11
0.10452846326768
21
-0.99452189536827
31
0
210
0
220
0
230
1
40
0.996195
41
0.261799387799108
42
1.30899693899574
0
ELLIPSE
5
1F9
100
AcDbEntity
8
1
62
256
6
ByLayer
370
18
48
1
60
0
100
AcDbEllipse
10
17.291192
20
82.09471
30
0
11
-1.03066457613036
21
9.80611840735783
31
0
210
0
220
0
230
1
40
0.996195
41
-1.57989695571309
42
-1.5707963267949
0
ELLIPSE
5
1FA
100
AcDbEntity
8
1
62
256
6
ByLayer
370
18
48
1
60
0
100
AcDbEllipse
10
22.249431
20
82.570089
30
0
11
-0.508022259791923
21
4.83350893051648
31
0
210
0
220
0
230
1
40
0.996195
41
-1.58969694879989
42
-1.57989695571309
0
ELLIPSE
5
1FB
100
AcDbEntity
8
1
62
256
6
ByLayer
370
18
48
1
60
0
100
AcDbEllipse
10
20.35458
20
87.634062
30
0
11
0.33449108245658
21
-3.18247006517847
31
0
210
0
220
0
230
1
40
0.996195
41
0.168458242080891
42
1.40233808471401
0
ELLIPSE
5
1FC
100
AcDbEntity
8
1
62
256
6
ByLayer
370
18
48
1
60
0
100
AcDbEllipse
10
21.242803
20
84.456211
30
0
11
-0.0104528463267687
21
0.0994521895368261
31
0
210
0
220
0
230
1
40
0.996195
41
0.168458242080713
42
3.14159265358979
0
ELLIPSE
5
1FD
100
AcDbEntity
8
1
62
256
6
ByLayer
370
18
48
1
60
0
100
AcDbEllipse
10
17.28675
20
82.143508
30
0
11
-1.03066457613038
21
9.80611840735802
31
0
210
0
220
0
230
1
40
0.996195
41
-1.60570291183478
42
-1.58969694879989
0
ELLIPSE
5
1FE
100
AcDbEntity
8
1
62
256
6
ByLayer
370
18
48
1
60
0
100
AcDbEllipse
10
19.615009
20
82.2932
30
0
11
0.522642316338387
21
-4.97260947684117
31
0
210
0
220
0
230
1
40
0.996195
41
-1.5616956978767
42
-1.5518957047899
0
ELLIPSE
5
1FF
100
AcDbEntity
8
1
62
256
6
ByLayer
370
18
48
1
60
0
100
AcDbEllipse
10
26.727678
20
82.802419
30
0
11
-0.0376441750873423
21
0.35816040135942
31
0
210
0
220
0
230
1
40
0.996195
41
-1.83259571459404
42
-1.60570291183481
0
ELLIPSE
5
200
100
AcDbEntity
8
1
62
256
6
ByLayer
370
18
48
1
60
0
100
AcDbEllipse
10
26.235662
20
82.880828
30
0
11
-0.0899084067211886
21
0.855421349043576
31
0
210
0
220
0
230
1
40
0.996195
41
-2.87979326579066
42
-1.83259571459406
0
ELLIPSE
5
201
100
AcDbEntity
8
1
62
256
6
ByLayer
370
18
48
1
60
0
100
AcDbEllipse
10
26.414356
20
82.413986
30
0
11
-0.0376441750873423
21
0.35816040135942
31
0
210
0
220
0
230
1
40
0.996195
41
-3.10668606855003
42
-2.87979326579062
0
ELLIPSE
5
202
100
AcDbEntity
8
1
62
256
6
ByLayer
370
18
48
1
60
0
100
AcDbEllipse
10
25.093467
20
91.821665
30
0
11
-1.03066457613038
21
9.80611840735802
31
0
210
0
220
0
230
1
40
0.996195
41
-3.1226920315848
42
-3.10668606854991
0
ELLIPSE
5
203
100
AcDbEntity
8
1
62
256
6
ByLayer
370
18
48
1
60
0
100
AcDbEllipse
10
15.573023
20
81.274516
30
0
11
-0.0376441750873423
21
0.35816040135942
31
0
210
0
220
0
230
1
40
0.996195
41
2.87979326579058
42
3.10668606855003
0
ELLIPSE
5
204
100
AcDbEntity
8
1
62
256
6
ByLayer
370
18
48
1
60
0
100
AcDbEllipse
10
25.709638
20
86.859784
30
0
11
-0.508022259791923
21
4.83350893051648
31
0
210
0
220
0
230
1
40
0.996195
41
-3.13249202467161
42
-3.12269203158479
0
ELLIPSE
5
205
100
AcDbEntity
8
1
62
256
6
ByLayer
370
18
48
1
60
0
100
AcDbEllipse
10
20.35068
20
87.633652
30
0
11
-0.3212794951508
21
3.05677020853232
31
0
210
0
220
0
230
1
40
0.996195
41
-2.97313441150891
42
-1.73925456887578
0
ELLIPSE
5
206
100
AcDbEntity
8
1
62
256
6
ByLayer
370
18
48
1
60
0
100
AcDbEllipse
10
15.186317
20
81.589373
30
0
11
0.0522642316338408
21
-0.497260947684137
31
0
210
0
220
0
230
1
40
0.996195
41
-1.53588974175503
42
-1.30899693899581
0
ELLIPSE
5
207
100
AcDbEntity
8
1
62
256
6
ByLayer
370
18
48
1
60
0
100
AcDbEllipse
10
15.65128
20
81.768364
30
0
11
0.10452846326768
21
-0.99452189536827
31
0
210
0
220
0
230
1
40
0.996195
41
-1.30899693899579
42
-0.261799387799108
0
ELLIPSE
5
208
100
AcDbEntity
8
1
62
256
6
ByLayer
370
18
48
1
60
0
100
AcDbEllipse
10
16.900893
20
90.441721
30
0
11
0.0209056926535362
21
-0.198904379073654
31
0
210
0
220
0
230
1
40
0.996195
41
3.14159265358979
42
-1.5707963267949
0
ELLIPSE
5
209
100
AcDbEntity
8
1
62
256
6
ByLayer
370
18
48
1
60
0
100
AcDbEllipse
10
17.556209
20
84.169286
30
0
11
0.034117279959338
21
-0.324604235719799
31
0
210
0
220
0
230
1
40
0.996195
41
-1.57079632679492
42
0
0
ELLIPSE
5
20A
100
AcDbEntity
8
1
62
256
6
ByLayer
370
18
48
1
60
0
100
AcDbEllipse
10
25.118893
20
93.506172
30
0
11
-0.0899084067211886
21
0.855421349043576
31
0
210
0
220
0
230
1
40
0.996195
41
-1.30899693899571
42
-0.261799387799198
0
ELLIPSE
5
20B
100
AcDbEntity
8
1
62
256
6
ByLayer
370
18
48
1
60
0
100
AcDbEllipse
10
15.65075
20
81.768309
30
0
11
-0.0899084067211886
21
0.855421349043576
31
0
210
0
220
0
230
1
40
0.996195
41
1.83259571459407
42
2.87979326579066
0
ELLIPSE
5
20C
100
AcDbEntity
8
1
62
256
6
ByLayer
370
18
48
1
60
0
100
AcDbEllipse
10
23.149051
20
91.098429
30
0
11
0.0209056926535362
21
-0.198904379073654
31
0
210
0
220
0
230
1
40
0.996195
41
1.5707963267949
42
-3.14159265358951
0
ELLIPSE
5
20D
100
AcDbEntity
8
1
62
256
6
ByLayer
370
18
48
1
60
0
100
AcDbEllipse
10
23.518808
20
87.42716
30
0
11
0.199601851976567
21
-0.0126135121011045
31
0
210
0
220
0
230
1
40
0.014613
41
1.48475903989703
42
2.168840271695
0
ELLIPSE
5
20E
100
AcDbEntity
8
1
62
256
6
ByLayer
370
18
48
1
60
0
100
AcDbEllipse
10
23.478981
20
93.179826
30
0
11
1.0452846326768
21
-9.94521895368271
31
0
210
0
220
0
230
1
40
0.996195
41
-1.57989695571309
42
-1.5707963267949
0
ELLIPSE
5
20F
100
AcDbEntity
8
1
62
256
6
ByLayer
370
18
48
1
60
0
100
AcDbEllipse
10
18.520742
20
92.704448
30
0
11
0.522642316338387
21
-4.97260947684117
31
0
210
0
220
0
230
1
40
0.996195
41
-1.58969694879989
42
-1.57989695571309
0
ELLIPSE
5
210
100
AcDbEntity
8
1
62
256
6
ByLayer
370
18
48
1
60
0
100
AcDbEllipse
10
23.483422
20
93.131028
30
0
11
1.04528463267682
21
-9.94521895368273
31
0
210
0
220
0
230
1
40
0.996195
41
-1.60570291183478
42
-1.58969694879989
0
ELLIPSE
5
211
100
AcDbEntity
8
1
62
256
6
ByLayer
370
18
48
1
60
0
100
AcDbEllipse
10
14.042494
20
92.472118
30
0
11
0.0522642316338408
21
-0.497260947684137
31
0
210
0
220
0
230
1
40
0.996195
41
-1.83259571459402
42
-1.60570291183478
0
ELLIPSE
5
212
100
AcDbEntity
8
1
62
256
6
ByLayer
370
18
48
1
60
0
100
AcDbEllipse
10
24.557933
20
82.907741
30
0
11
1.04528463267682
21
-9.94521895368273
31
0
210
0
220
0
230
1
40
0.996195
41
-1.5518957047899
42
-1.53588974175501
0
ELLIPSE
5
213
100
AcDbEntity
8
1
62
256
6
ByLayer
370
18
48
1
60
0
100
AcDbEllipse
10
19.466357
20
90.811913
30
0
11
0.0104528463267681
21
-0.0994521895368268
31
0
210
0
220
0
230
1
40
0.996195
41
0.168458242080132
42
-3.14159265358922
0
ELLIPSE
5
214
100
AcDbEntity
8
1
62
256
6
ByLayer
370
18
48
1
60
0
100
AcDbEllipse
10
17.563679
20
83.968969
30
0
11
0.0209056926535362
21
-0.198904379073654
31
0
210
0
220
0
230
1
40
0.087156
41
0.88671509499957
42
1.57079632679486
0
ELLIPSE
5
215
100
AcDbEntity
8
1
62
256
6
ByLayer
370
18
48
1
60
0
100
AcDbEllipse
10
20.562681
20
90.927141
30
0
11
0.0104528463267681
21
-0.0994521895368268
31
0
210
0
220
0
230
1
40
0.996195
41
-3.14159265358922
42
-0.168458242081721
0
ELLIPSE
5
216
100
AcDbEntity
8
1
62
256
6
ByLayer
370
18
48
1
60
0
100
AcDbEllipse
10
19.475938
20
90.713792
30
0
11
-0.0540801584411752
21
0.192549568846511
31
0
210
0
220
0
230
1
40
0.085922
41
-2.26954508481206
42
-1.58546385301628
0
ELLIPSE
5
217
100
AcDbEntity
8
1
62
256
6
ByLayer
370
18
48
1
60
0
100
AcDbEllipse
10
14.860998
20
90.746879
30
0
11
1.0452846326768
21
-9.94521895368271
31
0
210
0
220
0
230
1
40
0.996195
41
-0.00910062891819589
42
0
0
ELLIPSE
5
218
100
AcDbEntity
8
1
62
256
6
ByLayer
370
18
48
1
60
0
100
AcDbEllipse
10
23.631667
20
87.422164
30
0
11
0.0236644336325698
21
-0.225152046182971
31
0
210
0
220
0
230
1
40
0.996195
41
1.5707963267948
42
-1.7392545688757
0
ELLIPSE
5
219
100
AcDbEntity
8
1
62
256
6
ByLayer
370
18
48
1
60
0
100
AcDbEllipse
10
15.338538
20
85.769737
30
0
11
0.522642316338387
21
-4.97260947684117
31
0
210
0
220
0
230
1
40
0.996195
41
-0.0189006220050045
42
-0.00910062891819766
0
ELLIPSE
5
21A
100
AcDbEntity
8
1
62
256
6
ByLayer
370
18
48
1
60
0
100
AcDbEllipse
10
14.909611
20
90.751298
30
0
11
1.04528463267682
21
-9.94521895368273
31
0
210
0
220
0
230
1
40
0.996195
41
-0.0349065850398841
42
-0.0189006220049866
0
ELLIPSE
5
21B
100
AcDbEntity
8
1
62
256
6
ByLayer
370
18
48
1
60
0
100
AcDbEllipse
10
23.635567
20
87.422573
30
0
11
-0.0104528463267688
21
0.0994521895368268
31
0
210
0
220
0
230
1
40
0.996195
41
-1.57079632679511
42
1.40233808471401
0
ELLIPSE
5
21C
100
AcDbEntity
8
1
62
256
6
ByLayer
370
18
48
1
60
0
100
AcDbEllipse
10
20.139597
20
84.239709
30
0
11
-0.0209056926535377
21
0.198904379073654
31
0
210
0
220
0
230
1
40
0.087156
41
-2.2548775585902
42
-1.57079632679486
0
ELLIPSE
5
21D
100
AcDbEntity
8
1
62
256
6
ByLayer
370
18
48
1
60
0
100
AcDbEllipse
10
20.534893
20
91.024771
30
0
11
-0.0209056926535377
21
0.198904379073654
31
0
210
0
220
0
230
1
40
0.087156
41
-1.57079632679493
42
-0.886715094999597
0
ELLIPSE
5
21E
100
AcDbEntity
8
1
62
256
6
ByLayer
370
18
48
1
60
0
100
AcDbEllipse
10
21.198552
20
84.550688
30
0
11
0.054080158441175
21
-0.192549568846511
31
0
210
0
220
0
230
1
40
0.085922
41
1.55612880057342
42
2.24021003236978
0
ELLIPSE
5
21F
100
AcDbEntity
8
1
62
256
6
ByLayer
370
18
48
1
60
0
100
AcDbEllipse
10
23.519899
20
88.523085
30
0
11
0.0104528463267679
21
-0.0994521895368262
31
0
210
0
220
0
230
1
40
0.996195
41
-1.40233808471401
42
1.57079632679504
0
ELLIPSE
5
220
100
AcDbEntity
8
1
62
256
6
ByLayer
370
18
48
1
60
0
100
AcDbEllipse
10
23.406645
20
88.494323
30
0
11
-0.192617575984814
21
-0.0538374351333206
31
0
210
0
220
0
230
1
40
0.014613
41
0.972752381902141
42
1.6568336136934
0
ELLIPSE
5
221
100
AcDbEntity
8
1
62
256
6
ByLayer
370
18
48
1
60
0
100
AcDbEllipse
10
16.862652
20
90.638803
30
0
11
-0.0209056926535377
21
0.198904379073654
31
0
210
0
220
0
230
1
40
0.087156
41
-1.57079632679493
42
-0.886715094999611
0
ELLIPSE
5
222
100
AcDbEntity
8
1
62
256
6
ByLayer
370
18
48
1
60
0
100
AcDbEllipse
10
15.185788
20
81.589317
30
0
11
-0.0376441750873423
21
0.35816040135942
31
0
210
0
220
0
230
1
40
0.996195
41
1.60570291183483
42
1.83259571459407
0
ELLIPSE
5
223
100
AcDbEntity
8
1
62
256
6
ByLayer
370
18
48
1
60
0
100
AcDbEllipse
10
18.520213
20
92.704392
30
0
11
-0.508022259791923
21
4.83350893051648
31
0
210
0
220
0
230
1
40
0.996195
41
1.5518957047899
42
1.5616956978767
0
ELLIPSE
5
224
100
AcDbEntity
8
1
62
256
6
ByLayer
370
18
48
1
60
0
100
AcDbEllipse
10
23.11081
20
91.295511
30
0
11
0.0209056926535362
21
-0.198904379073654
31
0
210
0
220
0
230
1
40
0.087156
41
1.57079632679493
42
2.25487755858779
0
ELLIPSE
5
225
100
AcDbEntity
8
1
62
256
6
ByLayer
370
18
48
1
60
0
100
AcDbEllipse
10
23.482893
20
93.130973
30
0
11
-1.03066457613038
21
9.80611840735802
31
0
210
0
220
0
230
1
40
0.996195
41
1.53588974175501
42
1.5518957047899
0
ELLIPSE
5
226
100
AcDbEntity
8
1
62
256
6
ByLayer
370
18
48
1
60
0
100
AcDbEllipse
10
21.23592
20
84.354937
30
0
11
0.0209056926535362
21
-0.198904379073654
31
0
210
0
220
0
230
1
40
0.087156
41
0.886715095002197
42
1.570796326795
0
ELLIPSE
5
227
100
AcDbEntity
8
1
62
256
6
ByLayer
370
18
48
1
60
0
100
AcDbEllipse
10
14.041965
20
92.472063
30
0
11
-0.0376441750873423
21
0.35816040135942
31
0
210
0
220
0
230
1
40
0.996195
41
1.30899693899579
42
1.53588974175499
0
ELLIPSE
5
228
100
AcDbEntity
8
1
62
256
6
ByLayer
370
18
48
1
60
0
100
AcDbEllipse
10
14.533981
20
92.393653
30
0
11
-0.0899084067211886
21
0.855421349043576
31
0
210
0
220
0
230
1
40
0.996195
41
0.261799387799198
42
1.30899693899576
0
ELLIPSE
5
229
100
AcDbEntity
8
1
62
256
6
ByLayer
370
18
48
1
60
0
100
AcDbEllipse
10
14.355287
20
92.860495
30
0
11
-0.0376441750873423
21
0.35816040135942
31
0
210
0
220
0
230
1
40
0.996195
41
0.0349065850400832
42
0.261799387799051
0
ELLIPSE
5
22A
100
AcDbEntity
8
1
62
256
6
ByLayer
370
18
48
1
60
0
100
AcDbEllipse
10
15.676177
20
83.452817
30
0
11
-1.03066457613038
21
9.80611840735802
31
0
210
0
220
0
230
1
40
0.996195
41
0.0189006220049952
42
0.0349065850398798
0
ELLIPSE
5
22B
100
AcDbEntity
8
1
62
256
6
ByLayer
370
18
48
1
60
0
100
AcDbEllipse
10
15.060006
20
88.414698
30
0
11
-0.508022259791923
21
4.83350893051648
31
0
210
0
220
0
230
1
40
0.996195
41
0.00910062891819671
42
0.0189006220050105
0
ELLIPSE
5
22C
100
AcDbEntity
8
1
62
256
6
ByLayer
370
18
48
1
60
0
100
AcDbEllipse
10
15.627708
20
83.447032
30
0
11
-1.03066457613036
21
9.80611840735783
31
0
210
0
220
0
230
1
40
0.996195
41
0
42
0.00910062891819702
0
ELLIPSE
5
22D
100
AcDbEntity
8
1
62
256
6
ByLayer
370
18
48
1
60
0
100
AcDbEllipse
10
25.093996
20
91.82172
30
0
11
1.04528463267682
21
-9.94521895368273
31
0
210
0
220
0
230
1
40
0.996195
41
0.0189006220050038
42
0.0349065850398898
0
ELLIPSE
5
22E
100
AcDbEntity
8
1
62
256
6
ByLayer
370
18
48
1
60
0
100
AcDbEllipse
10
17.189262
20
86.745039
30
0
11
-0.0104528463267687
21
0.0994521895368261
31
0
210
0
220
0
230
1
40
0.996195
41
-1.4023380847139
42
1.57079632679504
0
ELLIPSE
5
22F
100
AcDbEntity
8
1
62
256
6
ByLayer
370
18
48
1
60
0
100
AcDbEllipse
10
15.573552
20
81.274572
30
0
11
0.0522642316338408
21
-0.497260947684137
31
0
210
0
220
0
230
1
40
0.996195
41
-0.261799387799108
42
-0.0349065850399967
0
ELLIPSE
5
230
100
AcDbEntity
8
1
62
256
6
ByLayer
370
18
48
1
60
0
100
AcDbEllipse
10
20.539039
20
90.825529
30
0
11
-0.0128650708014692
21
-0.199585795970738
31
0
210
0
220
0
230
1
40
0.085922
41
0.901382621222405
42
1.58546385301634
0
ELLIPSE
5
231
100
AcDbEntity
8
1
62
256
6
ByLayer
370
18
48
1
60
0
100
AcDbEllipse
10
21.238903
20
84.455801
30
0
11
0.0236644336325697
21
-0.22515204618297
31
0
210
0
220
0
230
1
40
0.996195
41
-2.97313441150883
42
0
0
ELLIPSE
5
232
100
AcDbEntity
8
1
62
256
6
ByLayer
370
18
48
1
60
0
100
AcDbEllipse
10
20.35068
20
87.633652
30
0
11
-0.282116967194939
21
2.6841636446117
31
0
210
0
220
0
230
1
40
0.996195
41
0
42
6.28318530717959
0
ELLIPSE
5
233
100
AcDbEntity
8
1
62
256
6
ByLayer
370
18
48
1
60
0
100
AcDbEllipse
10
20.395184
20
87.63833
30
0
11
-0.278364087565489
21
2.64845738006431
31
0
210
0
220
0
230
1
40
0.996195
41
-0.926046936998004
42
0
0
ELLIPSE
5
234
100
AcDbEntity
8
1
62
256
6
ByLayer
370
18
48
1
60
0
100
AcDbEllipse
10
20.395184
20
87.63833
30
0
11
-0.278364087565489
21
2.64845738006431
31
0
210
0
220
0
230
1
40
0.996195
41
0
42
-2.21557272042141
0
ELLIPSE
5
235
100
AcDbEntity
8
1
62
256
6
ByLayer
370
18
48
1
60
0
100
AcDbEllipse
10
20.42158
20
87.641104
30
0
11
-0.264604505792642
21
2.5175437043398
31
0
210
0
220
0
230
1
40
0.996195
41
0
42
6.28318530717959
0
ELLIPSE
5
236
100
AcDbEntity
8
1
62
256
6
ByLayer
370
18
48
1
60
0
100
AcDbEllipse
10
20.35068
20
87.633652
30
0
11
-0.3212794951508
21
3.05677020853232
31
0
210
0
220
0
230
1
40
0.996195
41
1.73925456887577
42
2.97313441150891
0
ELLIPSE
5
237
100
AcDbEntity
8
1
62
256
6
ByLayer
370
18
48
1
60
0
100
AcDbEllipse
10
25.584385
20
93.68522
30
0
11
0.0522642316338408
21
-0.497260947684137
31
0
210
0
220
0
230
1
40
0.996195
41
1.60570291183475
42
1.83259571459399
0
ELLIPSE
5
238
100
AcDbEntity
8
1
62
256
6
ByLayer
370
18
48
1
60
0
100
AcDbEllipse
10
14.860469
20
90.746823
30
0
11
-1.03066457613036
21
9.80611840735783
31
0
210
0
220
0
230
1
40
0.996195
41
3.1324920246716
42
3.14159265358979
0
ELLIPSE
5
239
100
AcDbEntity
8
1
62
256
6
ByLayer
370
18
48
1
60
0
100
AcDbEllipse
10
17.267845
20
86.770157
30
0
11
-0.192617575984814
21
-0.0538374351333206
31
0
210
0
220
0
230
1
40
0.014613
41
1.65683361369337
42
2.34091484548671
0
ELLIPSE
5
23A
100
AcDbEntity
8
1
62
256
6
ByLayer
370
18
48
1
60
0
100
AcDbEllipse
10
23.478981
20
-43.769448
30
0
11
9.9523882903973
21
-0.974662668395035
31
0
210
0
220
0
230
1
40
0.457294
41
3.08122983131003
42
3.09033046022823
0
ELLIPSE
5
23B
100
AcDbEntity
8
1
62
256
6
ByLayer
370
18
48
1
60
0
100
AcDbEllipse
10
18.520742
20
-43.166156
30
0
11
4.97619414519846
21
-0.487331334197499
31
0
210
0
220
0
230
1
40
0.457294
41
3.09033046022823
42
3.10013045331503
0
ELLIPSE
5
23C
100
AcDbEntity
8
1
62
256
6
ByLayer
370
18
48
1
60
0
100
AcDbEllipse
10
23.483422
20
-43.747392
30
0
11
9.95238829039732
21
-0.974662668395037
31
0
210
0
220
0
230
1
40
0.457294
41
3.10013045331503
42
3.11613641634992
0
ELLIPSE
5
23D
100
AcDbEntity
8
1
62
256
6
ByLayer
370
18
48
1
60
0
100
AcDbEllipse
10
14.042494
20
-42.711712
30
0
11
0.497619414519866
21
-0.0487331334197519
31
0
210
0
220
0
230
1
40
0.457294
41
3.11613641634992
42
-2.94015608807048
0
ELLIPSE
5
23E
100
AcDbEntity
8
1
62
256
6
ByLayer
370
18
48
1
60
0
100
AcDbEllipse
10
15.628237
20
-38.692014
30
0
11
9.9523882903973
21
-0.974662668395035
31
0
210
0
220
0
230
1
40
0.457294
41
-1.64025977799284
42
-1.63115914907466
0
ELLIPSE
5
23F
100
AcDbEntity
8
1
62
256
6
ByLayer
370
18
48
1
60
0
100
AcDbEllipse
10
15.060535
20
-40.928283
30
0
11
4.97619414519846
21
-0.487331334197499
31
0
210
0
220
0
230
1
40
0.457294
41
-1.65005977107963
42
-1.64025977799285
0
ELLIPSE
5
240
100
AcDbEntity
8
1
62
256
6
ByLayer
370
18
48
1
60
0
100
AcDbEllipse
10
14.534511
20
-42.713931
30
0
11
0.995238829039728
21
-0.0974662668395034
31
0
210
0
220
0
230
1
40
0.457294
41
-2.94015608807035
42
-1.8929585368738
0
ELLIPSE
5
241
100
AcDbEntity
8
1
62
256
6
ByLayer
370
18
48
1
60
0
100
AcDbEllipse
10
14.355817
20
-42.914352
30
0
11
0.497619414519866
21
-0.0487331334197519
31
0
210
0
220
0
230
1
40
0.457294
41
-1.89295853687363
42
-1.6660657341144
0
ELLIPSE
5
242
100
AcDbEntity
8
1
62
256
6
ByLayer
370
18
48
1
60
0
100
AcDbEllipse
10
15.676706
20
-38.698433
30
0
11
9.95238829039732
21
-0.974662668395037
31
0
210
0
220
0
230
1
40
0.457294
41
-1.66606573411453
42
-1.65005977107965
0
ELLIPSE
5
243
100
AcDbEntity
8
1
62
256
6
ByLayer
370
18
48
1
60
0
100
AcDbEllipse
10
14.889195
20
-39.055765
30
0
11
0.389555694365289
21
-0.0908094763093455
31
0
210
0
220
0
230
1
40
0.887696
41
-1.45401159809237
42
-0.547894364248694
0
ELLIPSE
5
244
100
AcDbEntity
8
1
62
256
6
ByLayer
370
18
48
1
60
0
100
AcDbEllipse
10
15.957621
20
-39.411354
30
0
11
-0.781415841832393
21
0.0765260385048817
31
0
210
0
220
0
230
1
40
0.457294
41
-0.0603628222797922
42
1.51043350451513
0
ELLIPSE
5
245
100
AcDbEntity
8
1
62
256
6
ByLayer
370
18
48
1
60
0
100
AcDbEllipse
10
15.232412
20
-39.757398
30
0
11
0.746429121779796
21
-0.0730997001296275
31
0
210
0
220
0
230
1
40
0.457294
41
3.08122983131005
42
-1.63115914907458
0
ELLIPSE
5
246
100
AcDbEntity
8
1
62
256
6
ByLayer
370
18
48
1
60
0
100
AcDbEllipse
10
15.944335
20
-39.547017
30
0
11
-1.0947627119437
21
0.107212893523449
31
0
210
0
220
0
230
1
40
0.457294
41
-0.0603628222797719
42
1.51043350451513
0
ELLIPSE
5
247
100
AcDbEntity
8
1
62
256
6
ByLayer
370
18
48
1
60
0
100
AcDbEllipse
10
25.584385
20
-44.164957
30
0
11
0.497619414519866
21
-0.0487331334197519
31
0
210
0
220
0
230
1
40
0.457294
41
-0.322162210078863
42
-0.0952694073196246
0
ELLIPSE
5
248
100
AcDbEntity
8
1
62
256
6
ByLayer
370
18
48
1
60
0
100
AcDbEllipse
10
24.400185
20
-40.761024
30
0
11
0.0499696332748626
21
0.396866521327229
31
0
210
0
220
0
230
1
40
0.053649
41
-2.66590145049361
42
-1.75978421664895
0
ELLIPSE
5
249
100
AcDbEntity
8
1
62
256
6
ByLayer
370
18
48
1
60
0
100
AcDbEllipse
10
24.480495
20
-40.621808
30
0
11
-1.0947627119437
21
0.107212893523449
31
0
210
0
220
0
230
1
40
0.457294
41
1.51043350451513
42
3.08122983131004
0
ELLIPSE
5
24A
100
AcDbEntity
8
1
62
256
6
ByLayer
370
18
48
1
60
0
100
AcDbEllipse
10
24.493781
20
-40.486145
30
0
11
-0.781415841832393
21
0.0765260385048817
31
0
210
0
220
0
230
1
40
0.457294
41
1.51043350451513
42
3.08122983130998
0
ELLIPSE
5
24B
100
AcDbEntity
8
1
62
256
6
ByLayer
370
18
48
1
60
0
100
AcDbEllipse
10
25.056531
20
-40.994357
30
0
11
0.746429121779796
21
-0.0730997001296275
31
0
210
0
220
0
230
1
40
0.457294
41
-1.63115914907466
42
-0.0603628222797011
0
ELLIPSE
5
24C
100
AcDbEntity
8
1
62
256
6
ByLayer
370
18
48
1
60
0
100
AcDbEllipse
10
25.604977
20
-40.404994
30
0
11
-0.389555694365289
21
0.0908094763093456
31
0
210
0
220
0
230
1
40
0.887696
41
0.781463821653817
42
1.68758105549755
0
ELLIPSE
5
24D
100
AcDbEntity
8
1
62
256
6
ByLayer
370
18
48
1
60
0
100
AcDbEllipse
10
25.381109
20
-36.758344
30
0
11
-1.0947627119437
21
0.107212893523449
31
0
210
0
220
0
230
1
40
0.457294
41
3.08122983131004
42
-2.41059273975251
0
ELLIPSE
5
24E
100
AcDbEntity
8
1
62
256
6
ByLayer
370
18
48
1
60
0
100
AcDbEllipse
10
25.909704
20
-39.986558
30
0
11
9.9523882903973
21
-0.974662668395035
31
0
210
0
220
0
230
1
40
0.457294
41
-1.63115914907466
42
-1.62205852015646
0
ELLIPSE
5
24F
100
AcDbEntity
8
1
62
256
6
ByLayer
370
18
48
1
60
0
100
AcDbEllipse
10
25.432165
20
-42.234179
30
0
11
4.97619414519846
21
-0.487331334197499
31
0
210
0
220
0
230
1
40
0.457294
41
-1.62205852015648
42
-1.61225852706966
0
ELLIPSE
5
250
100
AcDbEntity
8
1
62
256
6
ByLayer
370
18
48
1
60
0
100
AcDbEllipse
10
25.861091
20
-39.980753
30
0
11
9.95238829039732
21
-0.974662668395037
31
0
210
0
220
0
230
1
40
0.457294
41
-1.61225852706966
42
-1.59625256403478
0
ELLIPSE
5
251
100
AcDbEntity
8
1
62
256
6
ByLayer
370
18
48
1
60
0
100
AcDbEllipse
10
16.206968
20
-42.853826
30
0
11
9.9523882903973
21
-0.974662668395035
31
0
210
0
220
0
230
1
40
0.457294
41
-0.0694634511979498
42
-0.060362822279757
0
ELLIPSE
5
252
100
AcDbEntity
8
1
62
256
6
ByLayer
370
18
48
1
60
0
100
AcDbEllipse
10
21.155694
20
-43.497924
30
0
11
4.97619414519846
21
-0.487331334197499
31
0
210
0
220
0
230
1
40
0.457294
41
-0.0792634442847562
42
-0.0694634511979524
0
ELLIPSE
5
253
100
AcDbEntity
8
1
62
256
6
ByLayer
370
18
48
1
60
0
100
AcDbEllipse
10
25.119423
20
-44.046682
30
0
11
0.995238829039728
21
-0.0974662668395034
31
0
210
0
220
0
230
1
40
0.457294
41
-1.36935976127545
42
-0.322162210078897
0
ELLIPSE
5
254
100
AcDbEntity
8
1
62
256
6
ByLayer
370
18
48
1
60
0
100
AcDbEllipse
10
16.212769
20
-42.831941
30
0
11
9.95238829039732
21
-0.974662668395037
31
0
210
0
220
0
230
1
40
0.457294
41
-0.0952694073196358
42
-0.0792634442847531
0
ELLIPSE
5
255
100
AcDbEntity
8
1
62
256
6
ByLayer
370
18
48
1
60
0
100
AcDbEllipse
10
26.505591
20
-36.54153
30
0
11
-0.389555694365289
21
0.0908094763093456
31
0
210
0
220
0
230
1
40
0.887696
41
0.802375077167886
42
1.68758105549756
0
ELLIPSE
5
256
100
AcDbEntity
8
1
62
256
6
ByLayer
370
18
48
1
60
0
100
AcDbEllipse
10
25.19715
20
-44.279389
30
0
11
0.497619414519866
21
-0.0487331334197519
31
0
210
0
220
0
230
1
40
0.457294
41
-1.59625256403495
42
-1.36935976127568
0
ELLIPSE
5
257
100
AcDbEntity
8
1
62
256
6
ByLayer
370
18
48
1
60
0
100
AcDbEllipse
10
26.093031
20
-36.547963
30
0
11
0.746429121779796
21
-0.0730997001296275
31
0
210
0
220
0
230
1
40
0.457294
41
-0.0603628222797424
42
1.34545146706511
0
ELLIPSE
5
258
100
AcDbEntity
8
1
62
256
6
ByLayer
370
18
48
1
60
0
100
AcDbEllipse
10
15.864025
20
-39.686232
30
0
11
0.0499696332748626
21
0.396866521327229
31
0
210
0
220
0
230
1
40
0.053649
41
-2.66590145049361
42
-1.75978421664788
0
ELLIPSE
5
259
100
AcDbEntity
8
1
62
256
6
ByLayer
370
18
48
1
60
0
100
AcDbEllipse
10
17.291721
20
-38.200435
30
0
11
9.9523882903973
21
-0.974662668395035
31
0
210
0
220
0
230
1
40
0.457294
41
-0.060362822279757
42
-0.0512621933615608
0
ELLIPSE
5
25A
100
AcDbEntity
8
1
62
256
6
ByLayer
370
18
48
1
60
0
100
AcDbEllipse
10
22.24996
20
-38.803727
30
0
11
4.97619414519846
21
-0.487331334197499
31
0
210
0
220
0
230
1
40
0.457294
41
-0.0512621933615659
42
-0.0414622002747633
0
ELLIPSE
5
25B
100
AcDbEntity
8
1
62
256
6
ByLayer
370
18
48
1
60
0
100
AcDbEllipse
10
17.28728
20
-38.222491
30
0
11
9.95238829039732
21
-0.974662668395037
31
0
210
0
220
0
230
1
40
0.457294
41
-0.0414622002747585
42
-0.0254562372398689
0
ELLIPSE
5
25C
100
AcDbEntity
8
1
62
256
6
ByLayer
370
18
48
1
60
0
100
AcDbEllipse
10
26.728208
20
-39.258171
30
0
11
0.497619414519866
21
-0.0487331334197519
31
0
210
0
220
0
230
1
40
0.457294
41
-0.0254562372398162
42
0.100117764541602
0
ELLIPSE
5
25D
100
AcDbEntity
8
1
62
256
6
ByLayer
370
18
48
1
60
0
100
AcDbEllipse
10
-8.495301
20
-28.978587
30
0
11
0.95
21
0
31
0
210
0
220
0
230
1
40
0.450878
41
0.697818679084303
42
2.44378340198913
0
ELLIPSE
5
25E
100
AcDbEntity
8
1
62
256
6
ByLayer
370
18
48
1
60
0
100
AcDbEllipse
10
-8.495301
20
-28.978587
30
0
11
-1.26132486540519
21
1.54462644440935E-16
31
0
210
0
220
0
230
1
40
0.450878
41
-2.46789230837491
42
-0.673601145432039
0
ELLIPSE
5
25F
100
AcDbEntity
8
SK1
62
256
6
ByLayer
370
18
48
1
60
0
100
AcDbEllipse
10
-8.495301
20
-51.628933
30
0
11
-0.95
21
1.16337603613126E-16
31
0
210
0
220
0
230
1
40
0.546102
41
0.304537758270294
42
2.83695645652382
0
ELLIPSE
5
260
100
AcDbEntity
8
SK1
62
256
6
ByLayer
370
18
48
1
60
0
100
AcDbEllipse
10
-8.495301
20
-51.628933
30
0
11
1.26132486540519
21
0
31
0
210
0
220
0
230
1
40
0.546102
41
-2.72312230665468
42
-0.418567877693572
0
ELLIPSE
5
261
100
AcDbEntity
8
1
62
256
6
ByLayer
370
18
48
1
60
0
100
AcDbEllipse
10
15.940276
20
-38.860642
30
0
11
0.796191063231783
21
-0.0779730134716028
31
0
210
0
220
0
230
1
40
0.457294
41
-3.14157698609504
42
-1.63115914907463
0
ELLIPSE
5
262
100
AcDbEntity
8
1
62
256
6
ByLayer
370
18
48
1
60
0
100
AcDbEllipse
10
16.748913
20
-30.602812
30
0
11
0.873272206414566
21
8.43972926878997
31
0
210
0
220
0
230
-1
40
0.094059
41
-3.13950923453926
42
-3.13570834478113
0
ELLIPSE
5
263
100
AcDbEntity
8
1
62
256
6
ByLayer
370
18
48
1
60
0
100
AcDbEllipse
10
25.523853
20
-36.028587
30
0
11
0.796191063231783
21
-0.0779730134716028
31
0
210
0
220
0
230
1
40
0.457294
41
-0.0603628222796815
42
1.5312319036493E-05
0
ELLIPSE
5
264
100
AcDbEntity
8
1
62
256
6
ByLayer
370
18
48
1
60
0
100
AcDbEllipse
10
25.41655
20
-31.707073
30
0
11
0.871956853390091
21
8.42697970101745
31
0
210
0
220
0
230
-1
40
0.09413
41
3.13987384151179
42
-3.13950770183418
0
ELLIPSE
5
265
100
AcDbEntity
8
1
62
256
6
ByLayer
370
18
48
1
60
0
100
AcDbEllipse
10
26.333779
20
-27.764531
30
0
11
0.00365871402103729
21
8.19468529163903
31
0
210
0
220
0
230
-1
40
0.010191
41
3.09401566740601
42
3.09781520019541
0
ELLIPSE
5
266
100
AcDbEntity
8
1
62
256
6
ByLayer
370
18
48
1
60
0
100
AcDbEllipse
10
15.954584
20
-38.714541
30
0
11
0.792131741861968
21
-0.117625122152083
31
0
210
0
220
0
230
-1
40
0.420088
41
1.6140253555291
42
-3.10595982139884
0
ELLIPSE
5
267
100
AcDbEntity
8
1
62
256
6
ByLayer
370
18
48
1
60
0
100
AcDbEllipse
10
24.623537
20
-39.806052
30
0
11
0.799484603470502
21
-0.0429733901985181
31
0
210
0
220
0
230
-1
40
0.415607
41
0.0824247644933722
42
1.64562489474385
0
ELLIPSE
5
268
100
AcDbEntity
8
1
62
256
6
ByLayer
370
18
48
1
60
0
100
AcDbEllipse
10
25.419154
20
-31.688098
30
0
11
0.00365850165350735
21
8.19468465827431
31
0
210
0
220
0
230
-1
40
0.010191
41
3.09781519491766
42
3.10161472758375
0
ELLIPSE
5
269
100
AcDbEntity
8
1
62
256
6
ByLayer
370
18
48
1
60
0
100
AcDbEllipse
10
24.609229
20
-39.952154
30
0
11
0.796191063231783
21
-0.0779730134716028
31
0
210
0
220
0
230
1
40
0.457294
41
-1.63115914907477
42
-0.0603628222797789
0
ELLIPSE
5
26A
100
AcDbEntity
8
1
62
256
6
ByLayer
370
18
48
1
60
0
100
AcDbEllipse
10
25.538161
20
-47.52794
30
0
11
0.800097069610327
21
0.0370675840719983
31
0
210
0
220
0
230
-1
40
0.504755
41
-0.563194177798617
42
0.128057993813266
0
ELLIPSE
5
26B
100
AcDbEntity
8
1
62
256
6
ByLayer
370
18
48
1
60
0
100
AcDbEllipse
10
25.523853
20
-47.389362
30
0
11
-0.795769637704822
21
-0.0821625444295417
31
0
210
0
220
0
230
1
40
0.536392
41
-3.14156806553774
42
-2.65025306431724
0
ELLIPSE
5
26C
100
AcDbEntity
8
1
62
256
6
ByLayer
370
18
48
1
60
0
100
AcDbEllipse
10
19.471034
20
86.916777
30
0
11
0.192922535707739
21
-0.267100713763634
31
0
210
0
220
0
230
-1
40
0.507214
41
-1.57305112800203
42
-0.31933236594971
0
ELLIPSE
5
26D
100
AcDbEntity
8
1
62
256
6
ByLayer
370
18
48
1
60
0
100
AcDbEllipse
10
20.471762
20
87.646378
30
0
11
-0.112305380934804
21
1.06851432438367
31
0
210
0
220
0
230
1
40
0.996195
41
-1.8989947813133
42
-1.22592464552866
0
ELLIPSE
5
26E
100
AcDbEntity
8
1
62
256
6
ByLayer
370
18
48
1
60
0
100
AcDbEllipse
10
20.354746
20
87.63408
30
0
11
-0.14735377466846
21
1.40197751590065
31
0
210
0
220
0
230
1
40
0.996195
41
-2.61799387799152
42
-1.57079632679493
0
ELLIPSE
5
26F
100
AcDbEntity
8
1
62
256
6
ByLayer
370
18
48
1
60
0
100
AcDbEllipse
10
20.354746
20
87.63408
30
0
11
-0.14735377466846
21
1.40197751590065
31
0
210
0
220
0
230
1
40
0.996195
41
2.61799387799149
42
-2.61799387799152
0
ELLIPSE
5
270
100
AcDbEntity
8
1
62
256
6
ByLayer
370
18
48
1
60
0
100
AcDbEllipse
10
20.354746
20
87.63408
30
0
11
-0.14735377466846
21
1.40197751590065
31
0
210
0
220
0
230
1
40
0.996195
41
1.57079632679486
42
2.61799387799149
0
ELLIPSE
5
271
100
AcDbEntity
8
1
62
256
6
ByLayer
370
18
48
1
60
0
100
AcDbEllipse
10
20.354746
20
87.63408
30
0
11
-0.14735377466846
21
1.40197751590065
31
0
210
0
220
0
230
1
40
0.996195
41
0.523598775598299
42
1.57079632679486
0
ELLIPSE
5
272
100
AcDbEntity
8
1
62
256
6
ByLayer
370
18
48
1
60
0
100
AcDbEllipse
10
20.354746
20
87.63408
30
0
11
-0.14735377466846
21
1.40197751590065
31
0
210
0
220
0
230
1
40
0.996195
41
-0.52359877559838
42
0.523598775598299
0
ELLIPSE
5
273
100
AcDbEntity
8
1
62
256
6
ByLayer
370
18
48
1
60
0
100
AcDbEllipse
10
20.354746
20
87.63408
30
0
11
-0.14735377466846
21
1.40197751590065
31
0
210
0
220
0
230
1
40
0.996195
41
-1.57079632679493
42
-0.52359877559838
0
ELLIPSE
5
274
100
AcDbEntity
8
1
62
256
6
ByLayer
370
18
48
1
60
0
100
AcDbEllipse
10
20.360631
20
87.634698
30
0
11
0.250868311842435
21
-2.38685254888385
31
0
210
0
220
0
230
1
40
0.996195
41
0
42
6.28318530717959
0
ELLIPSE
5
275
100
AcDbEntity
8
1
62
256
6
ByLayer
370
18
48
1
60
0
100
AcDbEllipse
10
20.471762
20
87.646378
30
0
11
0.112305380934797
21
-1.06851432438367
31
0
210
0
220
0
230
1
40
0.996195
41
0
42
0.781013460241081
0
ELLIPSE
5
276
100
AcDbEntity
8
1
62
256
6
ByLayer
370
18
48
1
60
0
100
AcDbEllipse
10
20.354746
20
87.63408
30
0
11
0.156792694901521
21
-1.49178284305241
31
0
210
0
220
0
230
1
40
0.996195
41
0
42
6.28318530717959
0
ELLIPSE
5
277
100
AcDbEntity
8
1
62
256
6
ByLayer
370
18
48
1
60
0
100
AcDbEllipse
10
19.968905
20
86.511911
30
0
11
0.300051635635561
21
-0.13460240324717
31
0
210
0
220
0
230
-1
40
0.509152
41
0.706725092708368
42
-2.9330450339465
0
ELLIPSE
5
278
100
AcDbEntity
8
1
62
256
6
ByLayer
370
18
48
1
60
0
100
AcDbEllipse
10
20.471762
20
87.646378
30
0
11
-0.112305380934804
21
1.06851432438367
31
0
210
0
220
0
230
1
40
0.996195
41
1.04719755119654
42
2.09439510239315
0
ELLIPSE
5
279
100
AcDbEntity
8
1
62
256
6
ByLayer
370
18
48
1
60
0
100
AcDbEllipse
10
19.241167
20
87.517038
30
0
11
0.0344734871856535
21
-0.32799332109247
31
0
210
0
220
0
230
-1
40
0.506253
41
0.210870490724102
42
2.93072648561029
0
ELLIPSE
5
27A
100
AcDbEntity
8
1
62
256
6
ByLayer
370
18
48
1
60
0
100
AcDbEllipse
10
20.974619
20
88.780846
30
0
11
0.300051635635573
21
-0.134602403247204
31
0
210
0
220
0
230
-1
40
0.509152
41
2.92850617208792
42
-2.43486654220579
0
ELLIPSE
5
27B
100
AcDbEntity
8
1
62
256
6
ByLayer
370
18
48
1
60
0
100
AcDbEllipse
10
20.341938
20
88.881575
30
0
11
0.32674520749335
21
0.0343423051539333
31
0
210
0
220
0
230
-1
40
0.510128
41
0.317077564748923
42
1.5707963267949
0
ELLIPSE
5
27C
100
AcDbEntity
8
1
62
256
6
ByLayer
370
18
48
1
60
0
100
AcDbEllipse
10
19.341209
20
88.151973
30
0
11
0.133173354423668
21
0.301374772926129
31
0
210
0
220
0
230
-1
40
0.507214
41
0.319332365943147
42
1.57305112795894
0
ELLIPSE
5
27D
100
AcDbEntity
8
1
62
256
6
ByLayer
370
18
48
1
60
0
100
AcDbEllipse
10
20.471762
20
87.646378
30
0
11
-0.112305380934804
21
1.06851432438367
31
0
210
0
220
0
230
1
40
0.996195
41
0.128314548408003
42
1.04719755119657
0
ELLIPSE
5
27E
100
AcDbEntity
8
1
62
256
6
ByLayer
370
18
48
1
60
0
100
AcDbEllipse
10
20.471762
20
87.646378
30
0
11
-0.112305380934804
21
1.06851432438367
31
0
210
0
220
0
230
1
40
0.996195
41
-0.782387088380263
42
-1.0621841808156E-13
0
ELLIPSE
5
27F
100
AcDbEntity
8
1
62
256
6
ByLayer
370
18
48
1
60
0
100
AcDbEllipse
10
19.744024
20
88.651505
30
0
11
0.26550937424594
21
0.194045260686852
31
0
210
0
220
0
230
-1
40
0.509152
41
2.9330450339459
42
-0.612689599862011
0
ELLIPSE
5
280
100
AcDbEntity
8
1
62
256
6
ByLayer
370
18
48
1
60
0
100
AcDbEllipse
10
19.341209
20
88.151973
30
0
11
0.133173354416179
21
0.301374772924712
31
0
210
0
220
0
230
-1
40
0.507214
41
1.57305112799977
42
2.82676989002984
0
ELLIPSE
5
281
100
AcDbEntity
8
1
62
256
6
ByLayer
370
18
48
1
60
0
100
AcDbEllipse
10
20.432757
20
87.642279
30
0
11
0.250868311842435
21
-2.38685254888385
31
0
210
0
220
0
230
1
40
0.996195
41
3.55980384440581E-05
42
3.14153014702201
0
ELLIPSE
5
282
100
AcDbEntity
8
1
62
256
6
ByLayer
370
18
48
1
60
0
100
AcDbEllipse
10
19.471034
20
86.916777
30
0
11
0.192922535711208
21
-0.267100713757997
31
0
210
0
220
0
230
-1
40
0.507214
41
-2.82676989002235
42
-1.57305112796254
0
ELLIPSE
5
283
100
AcDbEntity
8
1
62
256
6
ByLayer
370
18
48
1
60
0
100
AcDbEllipse
10
20.601586
20
86.411182
30
0
11
0.326745207485073
21
0.0343423051615087
31
0
210
0
220
0
230
-1
40
0.510128
41
-1.5707963267949
42
-0.317077564753587
0
ELLIPSE
5
284
100
AcDbEntity
8
1
62
256
6
ByLayer
370
18
48
1
60
0
100
AcDbEllipse
10
21.1995
20
86.641251
30
0
11
0.265509374245879
21
0.194045260686883
31
0
210
0
220
0
230
-1
40
0.509152
41
2.52890196913103
42
-2.92850617208807
0
ELLIPSE
5
285
100
AcDbEntity
8
1
62
256
6
ByLayer
370
18
48
1
60
0
100
AcDbEllipse
10
20.471762
20
87.646378
30
0
11
-0.112305380934804
21
1.06851432438367
31
0
210
0
220
0
230
1
40
0.996195
41
2.09439510239321
42
3.14159265358979
0
ELLIPSE
5
286
100
AcDbEntity
8
1
62
256
6
ByLayer
370
18
48
1
60
0
100
AcDbEllipse
10
23.004699
20
-46.652512
30
0
11
9.68054152852425
21
15.3813352929678
31
0
210
0
220
0
230
-1
40
0.163017
41
2.17330803143993
42
2.48036804435716
0
ELLIPSE
5
287
100
AcDbEntity
8
1
62
256
6
ByLayer
370
18
48
1
60
0
100
AcDbEllipse
10
21.989735
20
-63.848032
30
0
11
2.21534130533452
21
3.63806194602502
31
0
210
0
220
0
230
-1
40
0.181818
41
-2.30533832785346
42
-1.17552293862097
0
ELLIPSE
5
288
100
AcDbEntity
8
1
62
256
6
ByLayer
370
18
48
1
60
0
100
AcDbEllipse
10
21.583295
20
-59.911534
30
0
11
2.23810210604479
21
0.231082156208068
31
0
210
0
220
0
230
1
40
0.536392
41
-0.728456825938429
42
-0.159730211717195
0
ELLIPSE
5
289
100
AcDbEntity
8
SK1
62
256
6
ByLayer
370
18
48
1
60
0
100
AcDbEllipse
10
-8.495301
20
-52.454295
30
0
11
-1.525
21
1.86752468957913E-16
31
0
210
0
220
0
230
1
40
0.546102
41
0
42
6.28318530717959
0
ELLIPSE
5
28A
100
AcDbEntity
8
1
62
256
6
ByLayer
370
18
48
1
60
0
100
AcDbEllipse
10
23.004699
20
-50.323548
30
0
11
9.5857151966189
21
9.5857151966189
31
0
210
0
220
0
230
-1
40
0.297163
41
2.51577418127499
42
-2.85274066238447
0
ELLIPSE
5
28B
100
AcDbEntity
8
1
62
256
6
ByLayer
370
18
48
1
60
0
100
AcDbEllipse
10
25.562785
20
82.397534
30
0
11
0.000312393467310389
21
0.804406189989017
31
0
210
0
220
0
230
-1
40
0.086204
41
2.81963092477659
42
3.11257357726162
0
ELLIPSE
5
28C
100
AcDbEntity
8
1
62
256
6
ByLayer
370
18
48
1
60
0
100
AcDbEllipse
10
16.011353
20
82.346103
30
0
11
0.00234239982170641
21
-2.10008585590657
31
0
210
0
220
0
230
-1
40
0.996112
41
-0.691392889525785
42
1.46759190742384
0
ELLIPSE
5
28D
100
AcDbEntity
8
1
62
256
6
ByLayer
370
18
48
1
60
0
100
AcDbEllipse
10
15.509777
20
78.787094
30
0
11
8.80763553817884
21
-86.8874407573298
31
0
210
0
220
0
230
-1
40
0.009125
41
1.62838155706766
42
1.71844595033244
0
ELLIPSE
5
28E
100
AcDbEntity
8
1
62
256
6
ByLayer
370
18
48
1
60
0
100
AcDbEllipse
10
25.483525
20
82.389203
30
0
11
-0.0836227706141506
21
0.795617516294616
31
0
210
0
220
0
230
1
40
0.087156
41
-2.82872488098926
42
-2.37776827270378
0
ELLIPSE
5
28F
100
AcDbEntity
8
1
62
256
6
ByLayer
370
18
48
1
60
0
100
AcDbEllipse
10
16.610826
20
82.660487
30
0
11
-0.219509772862141
21
2.08849598027333
31
0
210
0
220
0
230
1
40
0.996195
41
1.33039084231467
42
1.57079632679523
0
ELLIPSE
5
290
100
AcDbEntity
8
1
62
256
6
ByLayer
370
18
48
1
60
0
100
AcDbEllipse
10
16.64996
20
82.413224
30
0
11
0.203830503371982
21
-1.93931769596816
31
0
210
0
220
0
230
1
40
0.996195
41
-0.677688085537956
42
0.0754474595861062
0
ELLIPSE
5
291
100
AcDbEntity
8
1
62
256
6
ByLayer
370
18
48
1
60
0
100
AcDbEllipse
10
15.985419
20
82.594755
30
0
11
0.00234239992351735
21
-2.10008585591143
31
0
210
0
220
0
230
-1
40
0.996112
41
1.4675919074727
42
2.1303511040809
0
ELLIPSE
5
292
100
AcDbEntity
8
1
62
256
6
ByLayer
370
18
48
1
60
0
100
AcDbEllipse
10
16.636958
20
82.411857
30
0
11
-0.219509772862147
21
2.08849598027338
31
0
210
0
220
0
230
1
40
0.996195
41
2.29352210439172
42
2.99025627438406
0
ELLIPSE
5
293
100
AcDbEntity
8
1
62
256
6
ByLayer
370
18
48
1
60
0
100
AcDbEllipse
10
16.636958
20
82.411857
30
0
11
-0.219509772862147
21
2.08849598027338
31
0
210
0
220
0
230
1
40
0.996195
41
1.57079632679527
42
1.81271118592135
0
ELLIPSE
5
294
100
AcDbEntity
8
1
62
256
6
ByLayer
370
18
48
1
60
0
100
AcDbEllipse
10
21.583295
20
-26.516119
30
0
11
2.63738289695527
21
-0.258285607124683
31
0
210
0
220
0
230
1
40
0.457294
41
1.51043350451521
42
3.08122983131003
0
ELLIPSE
5
295
100
AcDbEntity
8
1
62
256
6
ByLayer
370
18
48
1
60
0
100
AcDbEllipse
10
-1.838595
20
-30.293612
30
0
11
1.86527466807509
21
-0.767854274612164
31
0
210
0
220
0
230
-1
40
0.939801
41
-1.09418038739544
42
1.78561287839522
0
ELLIPSE
5
296
100
AcDbEntity
8
1
62
256
6
ByLayer
370
18
48
1
60
0
100
AcDbEllipse
10
23.004699
20
-10.527764
30
0
11
9.78023279554566
21
-16.0612684398723
31
0
210
0
220
0
230
-1
40
0.129813
41
1.7098255528902
42
2.0168855657145
0
ELLIPSE
5
297
100
AcDbEntity
8
1
62
256
6
ByLayer
370
18
48
1
60
0
100
AcDbEllipse
10
15.122762
20
-39.559241
30
0
11
0.779115384925339
21
-0.181616516054785
31
0
210
0
220
0
230
-1
40
0.887692
41
3.02481205421642
42
-1.98043190901964
0
ELLIPSE
5
298
100
AcDbEntity
8
1
62
256
6
ByLayer
370
18
48
1
60
0
100
AcDbEllipse
10
21.989735
20
-22.365914
30
0
11
2.24495354531267
21
-3.74149131687321
31
0
210
0
220
0
230
-1
40
0.147716
41
-2.83688230809231
42
-1.70706691885448
0
ELLIPSE
5
299
100
AcDbEntity
8
1
62
256
6
ByLayer
370
18
48
1
60
0
100
AcDbEllipse
10
21.583295
20
-26.516119
30
0
11
-2.23928736533937
21
0.21929910038887
31
0
210
0
220
0
230
1
40
0.457294
41
0
42
6.28318530717959
0
ELLIPSE
5
29A
100
AcDbEntity
8
1
62
256
6
ByLayer
370
18
48
1
60
0
100
AcDbEllipse
10
22.113069
20
-21.106534
30
0
11
0.496570204326747
21
4.6302935665804
31
0
210
0
220
0
230
-1
40
0.569004
41
-1.52662610660874
42
-1.08564516905173
0
ELLIPSE
5
29B
100
AcDbEntity
8
1
62
256
6
ByLayer
370
18
48
1
60
0
100
AcDbEllipse
10
7.993889
20
-47.000701
30
0
11
5.88601724550013
21
-1.31786675237484
31
0
210
0
220
0
230
-1
40
0.883215
41
3.00639766535381
42
-1.67828267956913
0
ELLIPSE
5
29C
100
AcDbEntity
8
1
62
256
6
ByLayer
370
18
48
1
60
0
100
AcDbEllipse
10
23.004699
20
-6.61629
30
0
11
9.72775878209951
21
-9.72775878209951
31
0
210
0
220
0
230
-1
40
0.238234
41
1.99304807030357
42
2.90771853382242
0
ELLIPSE
5
29D
100
AcDbEntity
8
1
62
256
6
ByLayer
370
18
48
1
60
0
100
AcDbEllipse
10
-12.295301
20
-39.482948
30
0
11
3.04110891017471
21
-0.680897822056347
31
0
210
0
220
0
230
-1
40
0.883215
41
0
42
6.28318530717959
0
ELLIPSE
5
29E
100
AcDbEntity
8
1
62
256
6
ByLayer
370
18
48
1
60
0
100
AcDbEllipse
10
14.203551
20
-42.511839
30
0
11
0.779115384898399
21
-0.181616515970408
31
0
210
0
220
0
230
-1
40
0.887692
41
-3.11068992011907
42
-2.3627084589982
0
ELLIPSE
5
29F
100
AcDbEntity
8
1
62
256
6
ByLayer
370
18
48
1
60
0
100
AcDbEllipse
10
-8.495301
20
-28.099167
30
0
11
1.525
21
0
31
0
210
0
220
0
230
1
40
0.450878
41
0
42
6.28318530717959
0
POINT
5
6C
100
AcDbEntity
8
80
62
256
6
ByLayer
370
13
48
1
60
0
100
AcDbPoint
10
0
20
0
30
0
39
0
210
0
220
0
230
1
50
360
0
POINT
5
6E
100
AcDbEntity
8
81
62
256
6
ByLayer
370
13
48
1
60
0
100
AcDbPoint
10
26
20
94.5
30
0
39
0
210
0
220
0
230
1
50
360
0
SPLINE
5
2A0
100
AcDbEntity
8
1
62
256
6
ByLayer
370
18
48
1
60
0
100
AcDbSpline
70
4
71
1
72
4
73
2
40
0
40
0
40
1
40
1
41
1
10
26.2074203913914
20
-33.3544992985011
30
0
41
1
10
26.0385870644385
20
-33.2034525142356
30
0
0
SPLINE
5
2A1
100
AcDbEntity
8
1
62
256
6
ByLayer
370
18
48
1
60
0
100
AcDbSpline
70
4
71
3
72
8
73
4
40
0
40
0
40
0
40
0
40
1
40
1
40
1
40
1
41
1
10
27.050609144986
20
-44.7698307427743
30
0
41
1
10
27.0752840081441
20
-44.5814423906389
30
0
41
1
10
27.0992251615887
20
-44.3946274289378
30
0
41
1
10
27.122836535258
20
-44.207646882101
30
0
0
SPLINE
5
2A2
100
AcDbEntity
8
1
62
256
6
ByLayer
370
18
48
1
60
0
100
AcDbSpline
70
4
71
3
72
22
73
18
40
0
40
0
40
0
40
0
40
0.247648061031917
40
0.247648061031917
40
0.499630853098265
40
0.499630853098265
40
0.554937524731892
40
0.554937524731892
40
0.599939125431275
40
0.599939125431275
40
0.645356331404692
40
0.645356331404692
40
0.695796263471267
40
0.695796263471267
40
0.780049574066829
40
0.780049574066829
40
1
40
1
40
1
40
1
41
1
10
27.1228365352708
20
-44.2076468821307
30
0
41
1
10
27.1240747339228
20
-44.1978414779946
30
0
41
1
10
27.1253021406002
20
-44.187903631565
30
0
41
1
10
27.1276575395155
20
-44.1675801200736
30
0
41
1
10
27.1288734927571
20
-44.1568095266574
30
0
41
1
10
27.1298218087643
20
-44.144162337859
30
0
41
1
10
27.1299695131065
20
-44.1418493044224
30
0
41
1
10
27.1301329944561
20
-44.1379674305501
30
0
41
1
10
27.1301678913021
20
-44.136311076775
30
0
41
1
10
27.1301240581616
20
-44.1335167703812
30
0
41
1
10
27.1300421697308
20
-44.1323551368362
30
0
41
1
10
27.1297628668288
20
-44.1306184862487
30
0
41
1
10
27.129552107475
20
-44.1300819948938
30
0
41
1
10
27.1289079803739
20
-44.1294085954484
30
0
41
1
10
27.1284125580393
20
-44.1297150614146
30
0
41
1
10
27.1265419695862
20
-44.1319627031154
30
0
41
1
10
27.1249824002162
20
-44.1356125366245
30
0
41
1
10
27.1233959719837
20
-44.139652924123
30
0
0
SPLINE
5
2A3
100
AcDbEntity
8
1
62
256
6
ByLayer
370
18
48
1
60
0
100
AcDbSpline
70
4
71
3
72
22
73
18
40
0
40
0
40
0
40
0
40
0.104611531529239
40
0.104611531529239
40
0.208411675036454
40
0.208411675036454
40
0.402775886004024
40
0.402775886004024
40
0.500031490391502
40
0.500031490391502
40
0.699792640385671
40
0.699792640385671
40
0.84618436010691
40
0.84618436010691
40
0.950335564350886
40
0.950335564350886
40
1
40
1
40
1
40
1
41
1
10
27.1233959719836
20
-44.1396529241237
30
0
41
1
10
27.1179019807579
20
-44.1536452705856
30
0
41
1
10
27.1113534000668
20
-44.1628135966136
30
0
41
1
10
27.0954047168796
20
-44.1695378036261
30
0
41
1
10
27.0858241992131
20
-44.167549012031
30
0
41
1
10
27.0538524092434
20
-44.1532575246746
30
0
41
1
10
27.0268802135496
20
-44.1343473178964
30
0
41
1
10
26.9784602351212
20
-44.1037119654976
30
0
41
1
10
26.9608018934374
20
-44.0928166287682
30
0
41
1
10
26.9033755780948
20
-44.0586693551556
30
0
41
1
10
26.8589901729043
20
-44.0344105547323
30
0
41
1
10
26.7771679639596
20
-43.9873103356445
30
0
41
1
10
26.7402262853927
20
-43.9653064901683
30
0
41
1
10
26.680507537404
20
-43.9191990120413
30
0
41
1
10
26.6564286862882
20
-43.8968338523612
30
0
41
1
10
26.626501678081
20
-43.8598599657642
30
0
41
1
10
26.6175489232002
20
-43.8471635525764
30
0
41
1
10
26.6095104971332
20
-43.8340824237255
30
0
0
SPLINE
5
2A4
100
AcDbEntity
8
1
62
256
6
ByLayer
370
18
48
1
60
0
100
AcDbSpline
70
4
71
3
72
10
73
6
40
0
40
0
40
0
40
0
40
0.295368028639108
40
0.295368028639108
40
1
40
1
40
1
40
1
41
1
10
26.3213044102751
20
-44.8584527366034
30
0
41
1
10
26.3277624992234
20
-44.8279170982329
30
0
41
1
10
26.3342218079487
20
-44.7973863494062
30
0
41
1
10
26.3560683031638
20
-44.694031723728
30
0
41
1
10
26.371439342201
20
-44.6212256593443
30
0
41
1
10
26.3867865914853
20
-44.5484399334615
30
0
0
SPLINE
5
2A5
100
AcDbEntity
8
1
62
256
6
ByLayer
370
18
48
1
60
0
100
AcDbSpline
70
4
71
3
72
8
73
4
40
0
40
0
40
0
40
0
40
1
40
1
40
1
40
1
41
1
10
26.4219909625541
20
-44.3960370047413
30
0
41
1
10
26.4653679356129
20
-44.2187694438338
30
0
41
1
10
26.5033025785594
20
-44.0402753975871
30
0
41
1
10
26.5416875603107
20
-43.8620796462645
30
0
0
SPLINE
5
2A6
100
AcDbEntity
8
1
62
256
6
ByLayer
370
18
48
1
60
0
100
AcDbSpline
70
4
71
3
72
22
73
18
40
0
40
0
40
0
40
0
40
0.247648061031954
40
0.247648061031954
40
0.499630853098311
40
0.499630853098311
40
0.554937524731873
40
0.554937524731873
40
0.599939125431463
40
0.599939125431463
40
0.645356331404798
40
0.645356331404798
40
0.695796263471344
40
0.695796263471344
40
0.780049574066738
40
0.780049574066738
40
1
40
1
40
1
40
1
41
1
10
26.5416875602156
20
-43.86207964623
30
0
41
1
10
26.5437004982744
20
-43.852734923549
30
0
41
1
10
26.5460317548365
20
-43.8434534567567
30
0
41
1
10
26.5522211674137
20
-43.8254097557105
30
0
41
1
10
26.555913948659
20
-43.8161119526523
30
0
41
1
10
26.5639469053858
20
-43.8076774869522
30
0
41
1
10
26.565610535859
20
-43.8062658650734
30
0
41
1
10
26.5690061462094
20
-43.8043059043986
30
0
41
1
10
26.5707039462765
20
-43.8036383588197
30
0
41
1
10
26.5742724270843
20
-43.8029920340965
30
0
41
1
10
26.5761912286381
20
-43.8030200660892
30
0
41
1
10
26.5801011613888
20
-43.8037744507563
30
0
41
1
10
26.5821337067203
20
-43.8045718903427
30
0
41
1
10
26.5871609535886
20
-43.8072708465419
30
0
41
1
10
26.5900138863009
20
-43.8095683369236
30
0
41
1
10
26.5993224184904
20
-43.8184633926027
30
0
41
1
10
26.6046845690411
20
-43.8262290720022
30
0
41
1
10
26.6095104971333
20
-43.8340824237247
30
0
0
SPLINE
5
2A7
100
AcDbEntity
8
1
62
256
6
ByLayer
370
18
48
1
60
0
100
AcDbSpline
70
4
71
3
72
8
73
4
40
0
40
0
40
0
40
0
40
1
40
1
40
1
40
1
41
1
10
26.3867865914872
20
-44.548439933491
30
0
41
1
10
26.3975533909081
20
-44.4973774077662
30
0
41
1
10
26.4096082672057
20
-44.4466410475779
30
0
41
1
10
26.4219909625577
20
-44.3960370047446
30
0
0
SPLINE
5
2A8
100
AcDbEntity
8
1
62
256
6
ByLayer
370
18
48
1
60
0
100
AcDbSpline
70
4
71
3
72
8
73
4
40
0
40
0
40
0
40
0
40
1
40
1
40
1
40
1
41
1
10
27.0293691674301
20
-44.9305372856981
30
0
41
1
10
27.0364570991073
20
-44.8772872035773
30
0
41
1
10
27.0435652852645
20
-44.8236094047699
30
0
41
1
10
27.0506091449856
20
-44.7698307427752
30
0
0
SPLINE
5
2A9
100
AcDbEntity
8
1
62
256
6
ByLayer
370
18
48
1
60
0
100
AcDbSpline
70
4
71
1
72
4
73
2
40
0
40
0
40
1
40
1
41
1
10
16.5613664372679
20
81.0112439034089
30
0
41
1
10
15.7154659540979
20
80.9355016783123
30
0
0
SPLINE
5
2AA
100
AcDbEntity
8
1
62
256
6
ByLayer
370
18
48
1
60
0
100
AcDbSpline
70
4
71
1
72
4
73
2
40
0
40
0
40
1
40
1
41
1
10
25.9437877156639
20
93.6157752512203
30
0
41
1
10
26.0458626651488
20
92.7693815658961
30
0
0
SPLINE
5
2AB
100
AcDbEntity
8
1
62
256
6
ByLayer
370
18
48
1
60
0
100
AcDbSpline
70
4
71
3
72
45
73
41
40
0
40
0
40
0
40
0
40
0.0011565097570682
40
0.0196321945810439
40
0.0288700369930317
40
0.0381078794050195
40
0.0565835642289952
40
0.130486303524898
40
0.204389042820801
40
0.278291782116703
40
0.310624230558661
40
0.340935900972996
40
0.342956679000618
40
0.347575600206612
40
0.352194521412606
40
0.370670206236582
40
0.37990804864857
40
0.389145891060557
40
0.407621575884533
40
0.426097260708509
40
0.46304863035646
40
0.500000000004411
40
0.536951369652363
40
0.555427054476337
40
0.573902739300314
40
0.592378424124291
40
0.610854108948266
40
0.629329793772241
40
0.647805478596217
40
0.65242439980221
40
0.657043321008205
40
0.689375769450163
40
0.72170821789212
40
0.795610957188022
40
0.869513696483925
40
0.943416435779828
40
0.961892120603803
40
0.980367805427779
40
0.998843490251756
40
1
40
1
40
1
40
1
41
1
10
25.9437835681018
20
93.615774732574
30
0
41
1
10
25.9437259982666
20
93.6162356817272
30
0
41
1
10
25.9427462775859
20
93.6240546612732
30
0
41
1
10
25.9412384872808
20
93.6354092973626
30
0
41
1
10
25.9390175078357
20
93.649725230185
30
0
41
1
10
25.9366025344402
20
93.6639597328505
30
0
41
1
10
25.9291615062414
20
93.7030298566426
30
0
41
1
10
25.9124175160101
20
93.7678924107823
30
0
41
1
10
25.8798044710431
20
93.8540798547651
30
0
41
1
10
25.8445523957552
20
93.9225136640115
30
0
41
1
10
25.8132184949436
20
93.9726446233995
30
0
41
1
10
25.7971107637313
20
93.9957917710107
30
0
41
1
10
25.7875374276148
20
94.0088141218392
30
0
41
1
10
25.7845974907607
20
94.0127689449329
30
0
41
1
10
25.7772819181146
20
94.0224586664788
30
0
41
1
10
25.768517740468
20
94.0336286140601
30
0
41
1
10
25.7581970096499
20
94.0461962512886
30
0
41
1
10
25.7476765935038
20
94.0586274611066
30
0
41
1
10
25.734157913083
20
94.0739023920273
30
0
41
1
10
25.7117692815083
20
94.0977435801334
30
0
41
1
10
25.6824108471135
20
94.126356260547
30
0
41
1
10
25.6451444875999
20
94.1585774225935
30
0
41
1
10
25.6125256508408
20
94.1834900398414
30
0
41
1
10
25.5856123556713
20
94.2022006040626
30
0
41
1
10
25.5650482455472
20
94.2156096327142
30
0
41
1
10
25.5441349708101
20
94.228380637126
30
0
41
1
10
25.5229025055943
20
94.2404994875721
30
0
41
1
10
25.5013808240337
20
94.2519520543271
30
0
41
1
10
25.4850451312053
20
94.2600311693307
30
0
41
1
10
25.4740830230458
20
94.2652002012677
30
0
41
1
10
25.4575983369613
20
94.2728235681431
30
0
41
1
10
25.4298567939811
20
94.2846616114626
30
0
41
1
10
25.3736780832199
20
94.3053086917722
30
0
41
1
10
25.299670767224
20
94.3256967838404
30
0
41
1
10
25.2089140260098
20
94.339802219441
30
0
41
1
10
25.1422344095819
20
94.3427584886623
30
0
41
1
10
25.0990183121011
20
94.3418679268599
30
0
41
1
10
25.0774782337341
20
94.3408401214847
30
0
41
1
10
25.0624610954146
20
94.3396783038833
30
0
41
1
10
25.0546390372909
20
94.3390146884622
30
0
41
1
10
25.0541779455813
20
94.3389753827425
30
0
0
SPLINE
5
2AC
100
AcDbEntity
8
1
62
256
6
ByLayer
370
18
48
1
60
0
100
AcDbSpline
70
4
71
1
72
4
73
2
40
0
40
0
40
1
40
1
41
1
10
24.2082771054069
20
94.2632373382489
30
0
41
1
10
25.0541775885768
20
94.3389795633454
30
0
0
SPLINE
5
2AD
100
AcDbEntity
8
1
62
256
6
ByLayer
370
18
48
1
60
0
100
AcDbSpline
70
4
71
3
72
46
73
42
40
0
40
0
40
0
40
0
40
0.0002356819181392
40
0.0012435088516895
40
0.0022513357852398
40
0.002692260068668
40
0.0093061243200916
40
0.0163609128549434
40
0.0324861437917476
40
0.0486113747285519
40
0.0647366056653561
40
0.0687679133995571
40
0.0707835672666576
40
0.0727992211337582
40
0.0768305288679592
40
0.0788461827350597
40
0.0808618366021603
40
0.0848931443363613
40
0.0889244520705624
40
0.0969870675389645
40
0.129237529412573
40
0.161487991286181
40
0.19373845315979
40
0.209863684096594
40
0.217926299564996
40
0.219941953432097
40
0.221957607299197
40
0.222965434232747
40
0.223973261166298
40
0.225988915033398
40
0.226492828500173
40
0.226996741966948
40
0.227232951404499
40
0.234555443968575
40
0.242114145970202
40
0.258239376907006
40
0.290489838780615
40
0.354990762527832
40
0.483992610022266
40
0.741996305011133
40
1
40
1
40
1
40
1
41
1
10
23.7605417592168
20
91.6923135874234
30
0
41
1
10
23.7605748090964
20
91.6920331176102
30
0
41
1
10
23.7607474561547
20
91.6905493380311
30
0
41
1
10
23.7610446522642
20
91.6878242944456
30
0
41
1
10
23.7613556124625
20
91.6848172697926
30
0
41
1
10
23.7623774659991
20
91.6749512479756
30
0
41
1
10
23.7641761628763
20
91.6577120223499
30
0
41
1
10
23.7679963770763
20
91.6213651121582
30
0
41
1
10
23.7730361522576
20
91.5734148543153
30
0
41
1
10
23.7792389524808
20
91.5143991523549
30
0
41
1
10
23.7838910526482
20
91.4701373758846
30
0
41
1
10
23.7867340027505
20
91.443088512486
30
0
41
1
10
23.7877678027878
20
91.4332525621593
30
0
41
1
10
23.788801602825
20
91.4234166118326
30
0
41
1
10
23.7898354028621
20
91.4135806615058
30
0
41
1
10
23.7908692028993
20
91.4037447111791
30
0
41
1
10
23.7919030029366
20
91.3939087608524
30
0
41
1
10
23.793195252983
20
91.3816138229439
30
0
41
1
10
23.7952628530575
20
91.3619419222904
30
0
41
1
10
23.800948753262
20
91.3078441954934
30
0
41
1
10
23.8102529535969
20
91.2193206425528
30
0
41
1
10
23.8226585540433
20
91.1012892386319
30
0
41
1
10
23.8329965544153
20
91.0029297353645
30
0
41
1
10
23.8402331546758
20
90.9340780830773
30
0
41
1
10
23.8435930047967
20
90.9021112445155
30
0
41
1
10
23.8451437048525
20
90.8873573190253
30
0
41
1
10
23.8457898298757
20
90.8812098500712
30
0
41
1
10
23.8463067298944
20
90.8762918749078
30
0
41
1
10
23.8468236299129
20
90.8713738997444
30
0
41
1
10
23.8472759174292
20
90.8670706714764
30
0
41
1
10
23.8476635924432
20
90.8633821901039
30
0
41
1
10
23.8478231045583
20
90.8618645337058
30
0
41
1
10
23.8488569045955
20
90.8520285833791
30
0
41
1
10
23.8507952796652
20
90.8335861765165
30
0
41
1
10
23.854770967699
20
90.7957600316076
30
0
41
1
10
23.861942955457
20
90.7275231262158
30
0
41
1
10
23.8764161559779
20
90.5898198216415
30
0
41
1
10
23.9053625570195
20
90.3144132124929
30
0
41
1
10
23.963255359103
20
89.7635999941955
30
0
41
1
10
24.0459593620791
20
88.9767239680565
30
0
41
1
10
24.1121225644602
20
88.3472231471453
30
0
41
1
10
24.1452041656506
20
88.0324727366897
30
0
0
SPLINE
5
2AE
100
AcDbEntity
8
1
62
256
6
ByLayer
370
18
48
1
60
0
100
AcDbSpline
70
4
71
3
72
21
73
17
40
0
40
0
40
0
40
0
40
0.0592792738439997
40
0.12223937758058
40
0.185199481317159
40
0.248159585053742
40
0.311119688790325
40
0.374079792526904
40
0.500000000000065
40
0.625920207473227
40
0.751840414946389
40
0.814800518682969
40
0.87776062241955
40
0.909240674287841
40
0.940720726156131
40
1
40
1
40
1
40
1
41
1
10
23.5962493179605
20
91.8258743443757
30
0
41
1
10
23.6007610168084
20
91.8262908077932
30
0
41
1
10
23.6097099213234
20
91.8268938025856
30
0
41
1
10
23.6227448669622
20
91.8264965186125
30
0
41
1
10
23.6370276136183
20
91.8247372235509
30
0
41
1
10
23.6516737148904
20
91.8215243250518
30
0
41
1
10
23.6660577932323
20
91.8167583347679
30
0
41
1
10
23.6846948872724
20
91.8083595448794
30
0
41
1
10
23.7066150230901
20
91.7940782763179
30
0
41
1
10
23.728781815965
20
91.771811566085
30
0
41
1
10
23.742721361515
20
91.7504054346486
30
0
41
1
10
23.7509554684615
20
91.7321201170399
30
0
41
1
10
23.7548585742149
20
91.7207372760334
30
0
41
1
10
23.7572185878853
20
91.7119756853419
30
0
41
1
10
23.7590642747821
20
91.7034480972524
30
0
41
1
10
23.7600094953209
20
91.6968305163094
30
0
41
1
10
23.7605417592168
20
91.6923135874234
30
0
0
SPLINE
5
2AF
100
AcDbEntity
8
1
62
256
6
ByLayer
370
18
48
1
60
0
100
AcDbSpline
70
4
71
3
72
42
73
38
40
0
40
0
40
0
40
0
40
0.25800369498887
40
0.51600738997774
40
0.645009237472175
40
0.709510161219392
40
0.741760623093001
40
0.749823238561403
40
0.757885854029805
40
0.765444556031432
40
0.769223907032246
40
0.77300325803306
40
0.773507171499834
40
0.77401108496661
40
0.77602673883371
40
0.778042392700811
40
0.782073700435012
40
0.790136315903414
40
0.806261546840219
40
0.838512008713827
40
0.870762470587436
40
0.903012932461045
40
0.911075547929447
40
0.915106855663648
40
0.919138163397849
40
0.92316947113205
40
0.927200778866251
40
0.931232086600452
40
0.935263394334654
40
0.951388625271458
40
0.967513856208262
40
0.983639087145067
40
0.990693875679918
40
0.99774866421477
40
0.998756491148321
40
0.999764318081871
40
1
40
1
40
1
40
1
41
1
10
19.9503357588088
20
91.4426710114767
30
0
41
1
10
20.2638884489269
20
91.475626727187
30
0
41
1
10
20.890993829163
20
91.5415381586078
30
0
41
1
10
21.6748755544583
20
91.6239274478836
30
0
41
1
10
22.2235927621649
20
91.6815999503767
30
0
41
1
10
22.4979513660182
20
91.7104362016233
30
0
41
1
10
22.6253321463787
20
91.7238244611307
30
0
41
1
10
22.6841232757758
20
91.7300036578263
30
0
41
1
10
22.7129064328765
20
91.733028889542
30
0
41
1
10
22.7364841253952
20
91.7355070048835
30
0
41
1
10
22.7548563533318
20
91.7374380038509
30
0
41
1
10
22.7646548748979
20
91.7384678699668
30
0
41
1
10
22.7704727470779
20
91.7390793529731
30
0
41
1
10
22.7741471926652
20
91.7394655527666
30
0
41
1
10
22.7796588610462
20
91.7400448524568
30
0
41
1
10
22.7894573826123
20
91.7410747185728
30
0
41
1
10
22.8066047953532
20
91.7428769842757
30
0
41
1
10
22.8408996208349
20
91.7464815156815
30
0
41
1
10
22.9094892717982
20
91.7536905784932
30
0
41
1
10
23.0074744874601
20
91.7639892396526
30
0
41
1
10
23.1250567462544
20
91.776347633044
30
0
41
1
10
23.2132434403501
20
91.7856164280876
30
0
41
1
10
23.2671353089642
20
91.7912806917253
30
0
41
1
10
23.2867323520965
20
91.7933404239572
30
0
41
1
10
23.3014301344458
20
91.7948852231311
30
0
41
1
10
23.316127916795
20
91.796430022305
30
0
41
1
10
23.3308256991444
20
91.797974821479
30
0
41
1
10
23.3455234814936
20
91.7995196206529
30
0
41
1
10
23.3749190461923
20
91.8026092190007
30
0
41
1
10
23.4190123932401
20
91.8072436165225
30
0
41
1
10
23.4778035226372
20
91.8134228132182
30
0
41
1
10
23.5255713152724
20
91.8184434105335
30
0
41
1
10
23.5623157711456
20
91.8223054084683
30
0
41
1
10
23.5807139501321
20
91.8242538106607
30
0
41
1
10
23.5917706525297
20
91.8254347856161
30
0
41
1
10
23.5944875683231
20
91.8257095212981
30
0
41
1
10
23.5959691728962
20
91.8258484848991
30
0
41
1
10
23.5962493179605
20
91.8258743443757
30
0
0
SPLINE
5
2B0
100
AcDbEntity
8
1
62
256
6
ByLayer
370
18
48
1
60
0
100
AcDbSpline
70
4
71
3
72
41
73
37
40
0
40
0
40
0
40
0
40
0.0078125
40
0.01171875
40
0.013671875
40
0.015625
40
0.03125
40
0.0625
40
0.09375
40
0.125
40
0.1328125
40
0.140625
40
0.15625
40
0.1875
40
0.25
40
0.3125
40
0.375
40
0.4375
40
0.46875
40
0.4765625
40
0.484375
40
0.5
40
0.5625
40
0.625
40
0.6875
40
0.71875
40
0.734375
40
0.7421875
40
0.75
40
0.78125
40
0.8125
40
0.875
40
0.90625
40
0.921875
40
0.9375
40
1
40
1
40
1
40
1
41
1
10
24.1452041656506
20
88.0324727366897
30
0
41
1
10
24.1515170422134
20
88.0331362467531
30
0
41
1
10
24.1614561490992
20
88.0341808889816
30
0
41
1
10
24.1718478400553
20
88.0352730997126
30
0
41
1
10
24.1773533498325
20
88.0358517521075
30
0
41
1
10
24.1913079363779
20
88.0373184382548
30
0
41
1
10
24.2261232266665
20
88.0409776727162
30
0
41
1
10
24.2818791956922
20
88.0468378612021
30
0
41
1
10
24.3487706863182
20
88.0538684401701
30
0
41
1
10
24.3989450404573
20
88.0591419772919
30
0
41
1
10
24.4323734586158
20
88.0626554456186
30
0
41
1
10
24.4546124375618
20
88.0649928564937
30
0
41
1
10
24.4934075062883
20
88.0690703825243
30
0
41
1
10
24.5734683322751
20
88.0774851144144
30
0
41
1
10
24.6927937248113
20
88.0900267185447
30
0
41
1
10
24.842227713843
20
88.1057328636846
30
0
41
1
10
24.9953436909149
20
88.1218260013617
30
0
41
1
10
25.1239483455291
20
88.1353428952365
30
0
41
1
10
25.2070731247164
20
88.1440796615847
30
0
41
1
10
25.2451824267632
20
88.1480851106328
30
0
41
1
10
25.270746852699
20
88.1507720400708
30
0
41
1
10
25.3416045060126
20
88.158219479535
30
0
41
1
10
25.4572842488822
20
88.170377910445
30
0
41
1
10
25.6116155212869
20
88.1865987808087
30
0
41
1
10
25.7402191864016
20
88.200115570683
30
0
41
1
10
25.8302581564823
20
88.2095790477774
30
0
41
1
10
25.8752521120191
20
88.2143081030657
30
0
41
1
10
25.9010044676457
20
88.2170147847102
30
0
41
1
10
25.9395098853516
20
88.2210618671917
30
0
41
1
10
25.9971692147752
20
88.2271221069167
30
0
41
1
10
26.0994761169711
20
88.2378749956344
30
0
41
1
10
26.200764282974
20
88.2485208108636
30
0
41
1
10
26.2874144467721
20
88.2576281100652
30
0
41
1
10
26.3362461954694
20
88.2627605336687
30
0
41
1
10
26.4086663413495
20
88.2703721977193
30
0
41
1
10
26.469231113049
20
88.2767378117328
30
0
41
1
10
26.5176185353687
20
88.2818235347522
30
0
0
SPLINE
5
2B1
100
AcDbEntity
8
1
62
256
6
ByLayer
370
18
48
1
60
0
100
AcDbSpline
70
4
71
3
72
20
73
16
40
0
40
0
40
0
40
0
40
0.332431012821214
40
0.664862025642428
40
0.831077532053035
40
0.914185285258338
40
0.95573916186099
40
0.976516100162316
40
0.986255289991062
40
0.995690130137661
40
0.995994479819809
40
0.996643759141725
40
0.997293038463642
40
0.999890155751307
40
1
40
1
40
1
40
1
41
1
10
26.5176185353687
20
88.2818235347522
30
0
41
1
10
26.4653534600688
20
88.7790925093829
30
0
41
1
10
26.360823309469
20
89.7736304586443
30
0
41
1
10
26.2301660390778
20
91.0168034854431
30
0
41
1
10
26.1386886126564
20
91.8870227154916
30
0
41
1
10
26.0929769887388
20
92.3221352816262
30
0
41
1
10
26.0700790190678
20
92.539686972028
30
0
41
1
10
26.0587917201611
20
92.6474980822144
30
0
41
1
10
26.0525125469363
20
92.7072591952125
30
0
41
1
10
26.0494418081604
20
92.736395149272
30
0
41
1
10
26.0478009163664
20
92.7519339845381
30
0
41
1
10
26.0475476837646
20
92.7543315730871
30
0
41
1
10
26.0469247093893
20
92.7601577831581
30
0
41
1
10
26.0463559350546
20
92.7651736526392
30
0
41
1
10
26.0458794251358
20
92.7692171814219
30
0
41
1
10
26.0458600612691
20
92.7693812583364
30
0
0
SPLINE
5
2B2
100
AcDbEntity
8
1
62
256
6
ByLayer
370
18
48
1
60
0
100
AcDbSpline
70
4
71
3
72
21
73
17
40
0
40
0
40
0
40
0
40
0.0001096836879366
40
0.0027068013926432
40
0.0033560808188202
40
0.0040053602449965
40
0.0088749559413211
40
0.0137445516376465
40
0.0234837430302965
40
0.0338722138491233
40
0.0442606846679497
40
0.0858145679432563
40
0.168922334493869
40
0.335137867595096
40
0.667568933797548
40
1
40
1
40
1
40
1
41
1
10
24.2082773472908
20
94.2632347155341
30
0
41
1
10
24.2081136938342
20
94.2632196384521
30
0
41
1
10
24.2040750803345
20
94.2628468736389
30
0
41
1
10
24.1990698911204
20
94.2623625491144
30
0
41
1
10
24.1932636445347
20
94.2617629435762
30
0
41
1
10
24.1840716005414
20
94.2608015948217
30
0
41
1
10
24.1685904495142
20
94.2591806682722
30
0
41
1
10
24.139563841409
20
94.2561360637266
30
0
41
1
10
24.1023139592936
20
94.2522197042255
30
0
41
1
10
24.0568412160615
20
94.2474274465893
30
0
41
1
10
23.9639610475482
20
94.2376357590804
30
0
41
1
10
23.7627112327534
20
94.2165137197902
30
0
41
1
10
23.3292586738302
20
94.1709353919641
30
0
41
1
10
22.4623480423229
20
94.0798331650602
30
0
41
1
10
21.2239068035575
20
93.9496622449126
30
0
41
1
10
20.2331533714522
20
93.8455298630943
30
0
41
1
10
19.7377766553996
20
93.7934636721852
30
0
0
SPLINE
5
2B3
100
AcDbEntity
8
1
62
256
6
ByLayer
370
18
48
1
60
0
100
AcDbSpline
70
4
71
3
72
20
73
16
40
0
40
0
40
0
40
0
40
0.332431012821212
40
0.664862025642423
40
0.831077532053029
40
0.914185285258332
40
0.955739161860983
40
0.976516100162309
40
0.986255289991055
40
0.995690130137653
40
0.995994479819801
40
0.996643759141718
40
0.997293038463634
40
0.9998901557513
40
1
40
1
40
1
40
1
41
1
10
14.2520250073061
20
86.9926577069055
30
0
41
1
10
14.3042900826059
20
86.4953887322748
30
0
41
1
10
14.4088202332057
20
85.5008507830134
30
0
41
1
10
14.5394775035969
20
84.2576777562146
30
0
41
1
10
14.6309549300183
20
83.3874585261661
30
0
41
1
10
14.676666553936
20
82.9523459600314
30
0
41
1
10
14.699564523607
20
82.7347942696297
30
0
41
1
10
14.7108518225136
20
82.6269831594433
30
0
41
1
10
14.7171309957384
20
82.5672220464452
30
0
41
1
10
14.7202017345143
20
82.5380860923858
30
0
41
1
10
14.7218426263083
20
82.5225472571196
30
0
41
1
10
14.7220958589102
20
82.5201496685706
30
0
41
1
10
14.7227188332854
20
82.5143234584996
30
0
41
1
10
14.7232876076202
20
82.5093075890185
30
0
41
1
10
14.723764117539
20
82.5052640602358
30
0
41
1
10
14.7237834814056
20
82.5050999833213
30
0
0
SPLINE
5
2B4
100
AcDbEntity
8
1
62
256
6
ByLayer
370
18
48
1
60
0
100
AcDbSpline
70
4
71
1
72
4
73
2
40
0
40
0
40
1
40
1
41
1
10
26.3455108359004
20
82.052764416454
30
0
41
1
10
25.5023483303597
20
81.9509789789961
30
0
0
SPLINE
5
2B5
100
AcDbEntity
8
1
62
256
6
ByLayer
370
18
48
1
60
0
100
AcDbSpline
70
4
71
3
72
45
73
41
40
0
40
0
40
0
40
0
40
0.0011565097569727
40
0.0196321945809492
40
0.0288700369929375
40
0.0381078794049258
40
0.0565835642289024
40
0.130486303524809
40
0.204389042820715
40
0.278291782116621
40
0.31062423055858
40
0.340935900972917
40
0.342956679000539
40
0.347575600206534
40
0.352194521412528
40
0.370670206236504
40
0.379908048648492
40
0.389145891060481
40
0.407621575884457
40
0.426097260708434
40
0.463048630356387
40
0.500000000004341
40
0.536951369652294
40
0.55542705447627
40
0.573902739300247
40
0.592378424124224
40
0.6108541089482
40
0.629329793772177
40
0.647805478596153
40
0.652424399802147
40
0.657043321008142
40
0.689375769450101
40
0.72170821789206
40
0.795610957187966
40
0.869513696483872
40
0.943416435779779
40
0.961892120603755
40
0.980367805427732
40
0.998843490251708
40
1
40
1
40
1
40
1
41
1
10
26.3455103158969
20
82.0527685799248
30
0
41
1
10
26.3459695037685
20
82.0528259994868
30
0
41
1
10
26.3537586045628
20
82.0538031829855
30
0
41
1
10
26.3650697836396
20
82.0553076066167
30
0
41
1
10
26.3793306722091
20
82.0575255368817
30
0
41
1
10
26.3935102799291
20
82.0599382505083
30
0
41
1
10
26.4324290868469
20
82.0673761122651
30
0
41
1
10
26.4970369507414
20
82.0841312517057
30
0
41
1
10
26.582877754445
20
82.1167978372147
30
0
41
1
10
26.6510289103288
20
82.1521273867563
30
0
41
1
10
26.7009484451937
20
82.183538629733
30
0
41
1
10
26.7239966711554
20
82.199688199635
30
0
41
1
10
26.7369629643777
20
82.2092869842206
30
0
41
1
10
26.7409007372443
20
82.212234771318
30
0
41
1
10
26.7505485948695
20
82.2195699979477
30
0
41
1
10
26.7616700208695
20
82.2283580689826
30
0
41
1
10
26.7741827004873
20
82.2387074013692
30
0
41
1
10
26.7865593021896
20
82.2492572733557
30
0
41
1
10
26.8017666640408
20
82.2628143585481
30
0
41
1
10
26.8255013685566
20
82.2852677473953
30
0
41
1
10
26.8539842811342
20
82.3147131996404
30
0
41
1
10
26.886055976182
20
82.3520932647909
30
0
41
1
10
26.9108500127364
20
82.3848142349291
30
0
41
1
10
26.9294696028878
20
82.4118132608158
30
0
41
1
10
26.9428124225802
20
82.4324435801862
30
0
41
1
10
26.9555193159764
20
82.453424874579
30
0
41
1
10
26.967576229701
20
82.4747270690615
30
0
41
1
10
26.9789691103791
20
82.4963200887007
30
0
41
1
10
26.9870052060714
20
82.512710416098
30
0
41
1
10
26.992146309513
20
82.523709387058
30
0
41
1
10
26.9997282352625
20
82.5402496256897
30
0
41
1
10
27.0115002274197
20
82.5680854418497
30
0
41
1
10
27.032025927924
20
82.6244576992152
30
0
41
1
10
27.0522794717981
20
82.6987253841165
30
0
41
1
10
27.0662604662795
20
82.7898100589835
30
0
41
1
10
27.0691528768491
20
82.8567364820127
30
0
41
1
10
27.0682313732653
20
82.9001147633965
30
0
41
1
10
27.0671903190271
20
82.9217361414964
30
0
41
1
10
27.0660209219445
20
82.9368103126569
30
0
41
1
10
27.0653535761201
20
82.9446621241198
30
0
41
1
10
27.0653140511988
20
82.9451249698662
30
0
0
SPLINE
5
2B6
100
AcDbEntity
8
1
62
256
6
ByLayer
370
18
48
1
60
0
100
AcDbSpline
70
4
71
1
72
4
73
2
40
0
40
0
40
1
40
1
41
1
10
26.9891873759742
20
83.7942465744858
30
0
41
1
10
27.0653182159585
20
82.9451253248908
30
0
0
SPLINE
5
2B7
100
AcDbEntity
8
1
62
256
6
ByLayer
370
18
48
1
60
0
100
AcDbSpline
70
4
71
1
72
4
73
2
40
0
40
0
40
1
40
1
41
1
10
14.8258558270109
20
81.6587059904374
30
0
41
1
10
14.723780877526
20
82.5050996757616
30
0
0
SPLINE
5
2B8
100
AcDbEntity
8
1
62
256
6
ByLayer
370
18
48
1
60
0
100
AcDbSpline
70
4
71
3
72
21
73
17
40
0
40
0
40
0
40
0
40
0.0592792738439288
40
0.122239377580537
40
0.185199481317143
40
0.248159585053753
40
0.311119688790363
40
0.374079792526969
40
0.500000000000185
40
0.625920207473401
40
0.751840414946618
40
0.814800518683226
40
0.877760622419834
40
0.909240674288138
40
0.940720726156442
40
1
40
1
40
1
40
1
41
1
10
24.5298712551049
20
84.3726323781612
30
0
41
1
10
24.530289744774
20
84.368103491122
30
0
41
1
10
24.5308975888252
20
84.3591206708322
30
0
41
1
10
24.5305121160505
20
84.3460373347277
30
0
41
1
10
24.5287706906808
20
84.3317026148037
30
0
41
1
10
24.5255813601913
20
84.3170043348198
30
0
41
1
10
24.5208445108063
20
84.3025702879224
30
0
41
1
10
24.512491754325
20
84.2838702134722
30
0
41
1
10
24.4982810160807
20
84.2618794929913
30
0
41
1
10
24.4761147534037
20
84.2396475236957
30
0
41
1
10
24.4547993449025
20
84.2256728608683
30
0
41
1
10
24.4365886120225
20
84.2174224813513
30
0
41
1
10
24.4252512317203
20
84.2135138144761
30
0
41
1
10
24.4165241222958
20
84.2111519276772
30
0
41
1
10
24.4080297368228
20
84.2093061039574
30
0
41
1
10
24.4014375356928
20
84.2083625971893
30
0
41
1
10
24.3969378406762
20
84.2078319249459
30
0
0
SPLINE
5
2B9
100
AcDbEntity
8
1
62
256
6
ByLayer
370
18
48
1
60
0
100
AcDbSpline
70
4
71
3
72
42
73
38
40
0
40
0
40
0
40
0
40
0.258003694988868
40
0.516007389977737
40
0.645009237472171
40
0.709510161219388
40
0.741760623092996
40
0.749823238561398
40
0.757885854029801
40
0.765444556031428
40
0.769223907032242
40
0.773003258033055
40
0.77350717149983
40
0.774011084966605
40
0.776026738833706
40
0.778042392700806
40
0.782073700435007
40
0.790136315903409
40
0.806261546840214
40
0.838512008713822
40
0.870762470587431
40
0.903012932461039
40
0.911075547929441
40
0.915106855663643
40
0.919138163397843
40
0.923169471132044
40
0.927200778866246
40
0.931232086600447
40
0.935263394334648
40
0.951388625271452
40
0.967513856208256
40
0.983639087145061
40
0.990693875679912
40
0.997748664214764
40
0.998756491148315
40
0.999764318081865
40
1
40
1
40
1
40
1
41
1
10
24.1452041656506
20
88.0324727366897
30
0
41
1
10
24.1782857668411
20
87.717722326234
30
0
41
1
10
24.2444489692222
20
87.0882215053228
30
0
41
1
10
24.3271529721983
20
86.3013454791838
30
0
41
1
10
24.3850457742818
20
85.7505322608865
30
0
41
1
10
24.4139921753234
20
85.4751256517378
30
0
41
1
10
24.4274315758071
20
85.3472582974902
30
0
41
1
10
24.4336343760303
20
85.2882425955298
30
0
41
1
10
24.4366711636396
20
85.259349491445
30
0
41
1
10
24.4391587449791
20
85.2356817359713
30
0
41
1
10
24.4410971200488
20
85.2172393291087
30
0
41
1
10
24.442130920086
20
85.2074033787819
30
0
41
1
10
24.4427447388581
20
85.2015632832754
30
0
41
1
10
24.4431324138721
20
85.1978748019029
30
0
41
1
10
24.443713926393
20
85.1923420798441
30
0
41
1
10
24.4447477264302
20
85.1825061295174
30
0
41
1
10
24.4465568764953
20
85.1652932164455
30
0
41
1
10
24.4501751766255
20
85.130867390302
30
0
41
1
10
24.4574117768859
20
85.0620157380148
30
0
41
1
10
24.467749777258
20
84.9636562347474
30
0
41
1
10
24.4801553777044
20
84.8456248308266
30
0
41
1
10
24.4894595780393
20
84.7571012778859
30
0
41
1
10
24.4951454782438
20
84.7030035510889
30
0
41
1
10
24.4972130783183
20
84.6833316504354
30
0
41
1
10
24.4987637783741
20
84.6685777249453
30
0
41
1
10
24.5003144784299
20
84.6538237994552
30
0
41
1
10
24.5018651784857
20
84.6390698739651
30
0
41
1
10
24.5034158785415
20
84.624315948475
30
0
41
1
10
24.5065172786531
20
84.5948080974948
30
0
41
1
10
24.5111693788205
20
84.5505463210245
30
0
41
1
10
24.5173721790437
20
84.491530619064
30
0
41
1
10
24.522411954225
20
84.4435803612212
30
0
41
1
10
24.5262887043646
20
84.4066955474959
30
0
41
1
10
24.5282444384556
20
84.3882270788215
30
0
41
1
10
24.529429782239
20
84.3771281266602
30
0
41
1
10
24.5297056489969
20
84.3744008412695
30
0
41
1
10
24.5298452698121
20
84.3729135904924
30
0
41
1
10
24.5298712551049
20
84.3726323781612
30
0
0
SPLINE
5
2BA
100
AcDbEntity
8
1
62
256
6
ByLayer
370
18
48
1
60
0
100
AcDbSpline
70
4
71
3
72
41
73
37
40
0
40
0
40
0
40
0
40
0.0078125
40
0.01171875
40
0.013671875
40
0.015625
40
0.03125
40
0.0625
40
0.09375
40
0.125
40
0.1328125
40
0.140625
40
0.15625
40
0.1875
40
0.25
40
0.3125
40
0.375
40
0.4375
40
0.46875
40
0.4765625
40
0.484375
40
0.5
40
0.5625
40
0.625
40
0.6875
40
0.71875
40
0.734375
40
0.7421875
40
0.75
40
0.78125
40
0.8125
40
0.875
40
0.90625
40
0.921875
40
0.9375
40
1
40
1
40
1
40
1
41
1
10
20.751023787439
20
83.8246332929557
30
0
41
1
10
20.7516898320031
20
83.81829630223
30
0
41
1
10
20.7528865526442
20
83.8085028175548
30
0
41
1
10
20.7543972267507
20
83.7985850379979
30
0
41
1
10
20.755270353998
20
83.7934208247357
30
0
41
1
10
20.7574598023534
20
83.7803020124649
30
0
41
1
10
20.7629349031965
20
83.7475875741457
30
0
41
1
10
20.7716939936179
20
83.6951847071992
30
0
41
1
10
20.7822052279937
20
83.6323194528107
30
0
41
1
10
20.7900874920928
20
83.5851625634971
30
0
41
1
10
20.7953455543846
20
83.5537526272453
30
0
41
1
10
20.7988387636902
20
83.5328504986423
30
0
41
1
10
20.8048708869814
20
83.4963110866397
30
0
41
1
10
20.8170038992001
20
83.42051422626
30
0
41
1
10
20.8342246073358
20
83.3064744261819
30
0
41
1
10
20.8544218653485
20
83.1619629771561
30
0
41
1
10
20.8738134116595
20
83.0122750214186
30
0
41
1
10
20.8890366580782
20
82.8852305106452
30
0
41
1
10
20.8983765643667
20
82.8024945607737
30
0
41
1
10
20.9025651646054
20
82.764447775962
30
0
41
1
10
20.9053474382397
20
82.7388911743009
30
0
41
1
10
20.9130660121676
20
82.6680637199541
30
0
41
1
10
20.9256638843729
20
82.5524293075316
30
0
41
1
10
20.9424720176417
20
82.3981597428564
30
0
41
1
10
20.956477651529
20
82.2696068539743
30
0
41
1
10
20.9662848707825
20
82.1796052796715
30
0
41
1
10
20.971183382862
20
82.134627139203
30
0
41
1
10
20.973990823813
20
82.1088885096833
30
0
41
1
10
20.9781862905367
20
82.0704007976142
30
0
41
1
10
20.9843378301373
20
82.0126057068834
30
0
41
1
10
20.994831407066
20
81.9095356137703
30
0
41
1
10
21.0045957687507
20
81.8067173726038
30
0
41
1
10
21.0123882224269
20
81.7180630486391
30
0
41
1
10
21.0166232263322
20
81.6679079150454
30
0
41
1
10
21.0227136636588
20
81.5932891927162
30
0
41
1
10
21.0278007398485
20
81.5308778976087
30
0
41
1
10
21.0318668872751
20
81.4810175694726
30
0
0
SPLINE
5
2BB
100
AcDbEntity
8
1
62
256
6
ByLayer
370
18
48
1
60
0
100
AcDbSpline
70
4
71
3
72
20
73
16
40
0
40
0
40
0
40
0
40
0.332431012821216
40
0.664862025642432
40
0.83107753205304
40
0.914185285258344
40
0.955739161860996
40
0.976516100162321
40
0.986255289991068
40
0.995690130137666
40
0.995994479819815
40
0.996643759141731
40
0.997293038463648
40
0.999890155751313
40
1
40
1
40
1
40
1
41
1
10
21.0318668872751
20
81.4810175694726
30
0
41
1
10
21.5272436033278
20
81.5330837603817
30
0
41
1
10
22.517997035433
20
81.6372161421999
30
0
41
1
10
23.7564394178844
20
81.7673761809024
30
0
41
1
10
24.6233471901767
20
81.8585056114194
30
0
41
1
10
25.0568040379224
20
81.9040431338258
30
0
41
1
10
25.273527852806
20
81.9268542139051
30
0
41
1
10
25.3809287441304
20
81.9380982285966
30
0
41
1
10
25.4404624496151
20
81.9443534927925
30
0
41
1
10
25.4694875258934
20
81.9474126100324
30
0
41
1
10
25.4849672251008
20
81.9490473157674
30
0
41
1
10
25.4873556891219
20
81.9492995940636
30
0
41
1
10
25.4931597202903
20
81.94992027789
30
0
41
1
10
25.49815646991
20
81.950487201495
30
0
41
1
10
25.5021845710078
20
81.9509622866889
30
0
41
1
10
25.5023480218806
20
81.950981592849
30
0
0
SPLINE
5
2BC
100
AcDbEntity
8
1
62
256
6
ByLayer
370
18
48
1
60
0
100
AcDbSpline
70
4
71
3
72
21
73
17
40
0
40
0
40
0
40
0
40
0.0001096836879326
40
0.0027068013926392
40
0.0033560808188162
40
0.0040053602449926
40
0.0088749559413171
40
0.0137445516376426
40
0.0234837430302926
40
0.0338722138491194
40
0.0442606846679459
40
0.0858145679432526
40
0.168922334493866
40
0.335137867595093
40
0.667568933797546
40
1
40
1
40
1
40
1
41
1
10
26.9891847632129
20
83.7942463337771
30
0
41
1
10
26.9891696125231
20
83.79441061068
30
0
41
1
10
26.9887950338168
20
83.7984646100374
30
0
41
1
10
26.9883085444399
20
83.8034888851731
30
0
41
1
10
26.9877065681435
20
83.8093173022311
30
0
41
1
10
26.9867415111883
20
83.8185444545549
30
0
41
1
10
26.9851143461431
20
83.834084736143
30
0
41
1
10
26.9820580648311
20
83.8632222162491
30
0
41
1
10
26.9781267548182
20
83.900614387845
30
0
41
1
10
26.9733162886731
20
83.9462608397783
30
0
41
1
10
26.9634874216594
20
84.0394958189005
30
0
41
1
10
26.9422844720843
20
84.2415143513795
30
0
41
1
10
26.8965321980239
20
84.6766226450119
30
0
41
1
10
26.8050818716977
20
85.5468447233952
30
0
41
1
10
26.6744137612684
20
86.7900166108601
30
0
41
1
10
26.5698836106686
20
87.7845545601215
30
0
41
1
10
26.5176185353687
20
88.2818235347522
30
0
0
SPLINE
5
2BD
100
AcDbEntity
8
1
62
256
6
ByLayer
370
18
48
1
60
0
100
AcDbSpline
70
4
71
3
72
45
73
41
40
0
40
0
40
0
40
0
40
0.0011565097570429
40
0.0196321945810181
40
0.0288700369930057
40
0.0381078794049933
40
0.0565835642289685
40
0.130486303524869
40
0.20438904282077
40
0.278291782116671
40
0.310624230558627
40
0.340935900972962
40
0.342956679000584
40
0.347575600206578
40
0.352194521412572
40
0.370670206236547
40
0.379908048648534
40
0.389145891060522
40
0.407621575884497
40
0.426097260708472
40
0.463048630356423
40
0.500000000004373
40
0.536951369652323
40
0.555427054476299
40
0.573902739300274
40
0.592378424124249
40
0.610854108948224
40
0.629329793772199
40
0.647805478596175
40
0.652424399802168
40
0.657043321008162
40
0.689375769450119
40
0.721708217892076
40
0.795610957187976
40
0.869513696483877
40
0.943416435779778
40
0.961892120603753
40
0.980367805427728
40
0.998843490251704
40
1
40
1
40
1
40
1
41
1
10
14.8258599745731
20
81.6587065090837
30
0
41
1
10
14.8259175444082
20
81.6582455599305
30
0
41
1
10
14.8268972650889
20
81.6504265803844
30
0
41
1
10
14.828405055394
20
81.6390719442951
30
0
41
1
10
14.830626034839
20
81.6247560114728
30
0
41
1
10
14.8330410082346
20
81.6105215088072
30
0
41
1
10
14.8404820364333
20
81.5714513850151
30
0
41
1
10
14.8572260266646
20
81.5065888308754
30
0
41
1
10
14.8898390716317
20
81.4204013868926
30
0
41
1
10
14.9250911469195
20
81.3519675776462
30
0
41
1
10
14.9564250477312
20
81.3018366182582
30
0
41
1
10
14.9725327789435
20
81.2786894706471
30
0
41
1
10
14.9821061150599
20
81.2656671198185
30
0
41
1
10
14.985046051914
20
81.2617122967248
30
0
41
1
10
14.9923616245602
20
81.2520225751789
30
0
41
1
10
15.0011258022068
20
81.2408526275976
30
0
41
1
10
15.0114465330249
20
81.2282849903691
30
0
41
1
10
15.0219669491709
20
81.2158537805511
30
0
41
1
10
15.0354856295918
20
81.2005788496305
30
0
41
1
10
15.0578742611664
20
81.1767376615243
30
0
41
1
10
15.0872326955612
20
81.1481249811108
30
0
41
1
10
15.1244990550749
20
81.1159038190642
30
0
41
1
10
15.1571178918339
20
81.0909912018163
30
0
41
1
10
15.1840311870035
20
81.0722806375952
30
0
41
1
10
15.2045952971275
20
81.0588716089435
30
0
41
1
10
15.2255085718646
20
81.0461006045318
30
0
41
1
10
15.2467410370805
20
81.0339817540856
30
0
41
1
10
15.2682627186411
20
81.0225291873306
30
0
41
1
10
15.2845984114695
20
81.0144500723271
30
0
41
1
10
15.295560519629
20
81.00928104039
30
0
41
1
10
15.3120452057134
20
81.0016576735146
30
0
41
1
10
15.3397867486937
20
80.9898196301951
30
0
41
1
10
15.3959654594548
20
80.9691725498855
30
0
41
1
10
15.4699727754508
20
80.9487844578173
30
0
41
1
10
15.5607295166649
20
80.9346790222167
30
0
41
1
10
15.6274091330928
20
80.9317227529954
30
0
41
1
10
15.6706252305737
20
80.9326133147978
30
0
41
1
10
15.6921653089407
20
80.933641120173
30
0
41
1
10
15.7071824472602
20
80.9348029377745
30
0
41
1
10
15.7150045053838
20
80.9354665531955
30
0
41
1
10
15.7154655970935
20
80.9355058589152
30
0
0
SPLINE
5
2BE
100
AcDbEntity
8
1
62
256
6
ByLayer
370
18
48
1
60
0
100
AcDbSpline
70
4
71
3
72
46
73
42
40
0
40
0
40
0
40
0
40
0.0002356819181454
40
0.0012435088516957
40
0.0022513357852459
40
0.0026922600686742
40
0.0093061243200977
40
0.0163609128549495
40
0.0324861437917536
40
0.0486113747285577
40
0.0647366056653619
40
0.0687679133995629
40
0.0707835672666634
40
0.0727992211337639
40
0.0768305288679649
40
0.0788461827350654
40
0.080861836602166
40
0.084893144336367
40
0.088924452070568
40
0.0969870675389701
40
0.129237529412578
40
0.161487991286186
40
0.193738453159795
40
0.209863684096599
40
0.217926299565001
40
0.219941953432101
40
0.221957607299202
40
0.222965434232752
40
0.223973261166302
40
0.225988915033403
40
0.226492828500178
40
0.226996741966953
40
0.227232951404504
40
0.23455544396858
40
0.242114145970207
40
0.258239376907011
40
0.290489838780619
40
0.354990762527836
40
0.483992610022269
40
0.741996305011134
40
1
40
1
40
1
40
1
41
1
10
24.3969378406762
20
84.2078319249459
30
0
41
1
10
24.3966584409661
20
84.207798973897
30
0
41
1
10
24.3951803208505
20
84.2076268578979
30
0
41
1
10
24.3924656554256
20
84.2073307113897
30
0
41
1
10
24.3894700693738
20
84.207020972883
30
0
41
1
10
24.3796415787734
20
84.206003121743
30
0
41
1
10
24.3624679431277
20
84.204211369144
30
0
41
1
10
24.3262593439026
20
84.2004056920125
30
0
41
1
10
24.2784915512675
20
84.1953850946972
30
0
41
1
10
24.2197004218703
20
84.1892058980015
30
0
41
1
10
24.1756070748224
20
84.1845715004798
30
0
41
1
10
24.1486611405154
20
84.1817393686609
30
0
41
1
10
24.1388626189493
20
84.1807095025449
30
0
41
1
10
24.129064097383
20
84.179679636429
30
0
41
1
10
24.1192655758169
20
84.178649770313
30
0
41
1
10
24.1094670542507
20
84.1776199041971
30
0
41
1
10
24.0996685326845
20
84.1765900380811
30
0
41
1
10
24.0874203807267
20
84.1753027054363
30
0
41
1
10
24.0678233375944
20
84.1732429732043
30
0
41
1
10
24.0139314689803
20
84.1675787095666
30
0
41
1
10
23.9257447748846
20
84.1583099145231
30
0
41
1
10
23.8081625160903
20
84.1459515211317
30
0
41
1
10
23.7101773004284
20
84.1356528599722
30
0
41
1
10
23.6415876494651
20
84.1284437971606
30
0
41
1
10
23.609742454375
20
84.1250967322837
30
0
41
1
10
23.5950446720257
20
84.1235519331098
30
0
41
1
10
23.5889205960468
20
84.1229082667873
30
0
41
1
10
23.5840213352637
20
84.1223933337293
30
0
41
1
10
23.5791220744806
20
84.1218784006714
30
0
41
1
10
23.5748352212954
20
84.1214278342457
30
0
41
1
10
23.5711607757081
20
84.1210416344522
30
0
41
1
10
23.5696488944508
20
84.1208827293288
30
0
41
1
10
23.5598503728846
20
84.1198528632128
30
0
41
1
10
23.541478144948
20
84.1179218642454
30
0
41
1
10
23.5037959399405
20
84.113961304905
30
0
41
1
10
23.4358186965751
20
84.1068166087256
30
0
41
1
10
23.2986393946484
20
84.0923984831023
30
0
41
1
10
23.0242807907951
20
84.0635622318558
30
0
41
1
10
22.4755635830884
20
84.0058897293627
30
0
41
1
10
21.6916818577932
20
83.9235004400867
30
0
41
1
10
21.0645764775571
20
83.8575890086661
30
0
41
1
10
20.751023787439
20
83.8246332929557
30
0
0
SPLINE
5
2BF
100
AcDbEntity
8
1
62
256
6
ByLayer
370
18
48
1
60
0
100
AcDbSpline
70
4
71
3
72
46
73
42
40
0
40
0
40
0
40
0
40
0.0002356819181342
40
0.0012435088516845
40
0.0022513357852347
40
0.002692260068663
40
0.0093061243200866
40
0.0163609128549385
40
0.0324861437917428
40
0.0486113747285471
40
0.0647366056653513
40
0.0687679133995524
40
0.070783567266653
40
0.0727992211337535
40
0.0768305288679546
40
0.0788461827350551
40
0.0808618366021556
40
0.0848931443363567
40
0.0889244520705578
40
0.0969870675389599
40
0.129237529412568
40
0.161487991286177
40
0.193738453159786
40
0.20986368409659
40
0.217926299564992
40
0.219941953432093
40
0.221957607299193
40
0.222965434232743
40
0.223973261166294
40
0.225988915033394
40
0.226492828500169
40
0.226996741966944
40
0.227232951404495
40
0.234555443968572
40
0.242114145970199
40
0.258239376907003
40
0.290489838780611
40
0.354990762527829
40
0.483992610022263
40
0.741996305011131
40
1
40
1
40
1
40
1
41
1
10
16.9408177870309
20
83.5749907170089
30
0
41
1
10
16.9407847371514
20
83.5752711868222
30
0
41
1
10
16.9406120900931
20
83.5767549664013
30
0
41
1
10
16.9403148939836
20
83.5794800099868
30
0
41
1
10
16.9400039337852
20
83.5824870346398
30
0
41
1
10
16.9389820802487
20
83.5923530564567
30
0
41
1
10
16.9371833833715
20
83.6095922820824
30
0
41
1
10
16.9333631691716
20
83.6459391922742
30
0
41
1
10
16.9283233939902
20
83.6938894501171
30
0
41
1
10
16.922120593767
20
83.7529051520775
30
0
41
1
10
16.9174684935995
20
83.7971669285478
30
0
41
1
10
16.9146255434973
20
83.8242157919464
30
0
41
1
10
16.91359174346
20
83.8340517422731
30
0
41
1
10
16.9125579434228
20
83.8438876925998
30
0
41
1
10
16.9115241433857
20
83.8537236429265
30
0
41
1
10
16.9104903433484
20
83.8635595932533
30
0
41
1
10
16.9094565433113
20
83.87339554358
30
0
41
1
10
16.9081642932648
20
83.8856904814884
30
0
41
1
10
16.9060966931904
20
83.9053623821419
30
0
41
1
10
16.9004107929857
20
83.959460108939
30
0
41
1
10
16.8911065926509
20
84.0479836618796
30
0
41
1
10
16.8787009922045
20
84.1660150658005
30
0
41
1
10
16.8683629918324
20
84.2643745690679
30
0
41
1
10
16.861126391572
20
84.333226221355
30
0
41
1
10
16.8577665414511
20
84.3651930599169
30
0
41
1
10
16.8562158413953
20
84.379946985407
30
0
41
1
10
16.855569716372
20
84.3860944543612
30
0
41
1
10
16.8550528163534
20
84.3910124295246
30
0
41
1
10
16.8545359163348
20
84.395930404688
30
0
41
1
10
16.8540836288186
20
84.4002336329559
30
0
41
1
10
16.8536959538046
20
84.4039221143285
30
0
41
1
10
16.8535364416895
20
84.4054397707265
30
0
41
1
10
16.8525026416523
20
84.4152757210533
30
0
41
1
10
16.8505642665826
20
84.4337181279159
30
0
41
1
10
16.8465885785489
20
84.4715442728248
30
0
41
1
10
16.8394165907907
20
84.5397811782165
30
0
41
1
10
16.8249433902699
20
84.6774844827909
30
0
41
1
10
16.7959969892282
20
84.9528910919395
30
0
41
1
10
16.7381041871449
20
85.5037043102368
30
0
41
1
10
16.6554001841686
20
86.2905803363759
30
0
41
1
10
16.5892369817876
20
86.9200811572871
30
0
41
1
10
16.5561553805972
20
87.2348315677427
30
0
0
SPLINE
5
2C0
100
AcDbEntity
8
1
62
256
6
ByLayer
370
18
48
1
60
0
100
AcDbSpline
70
4
71
3
72
21
73
17
40
0
40
0
40
0
40
0
40
0.059279273844152
40
0.12223937758072
40
0.185199481317286
40
0.248159585053855
40
0.311119688790425
40
0.374079792526991
40
0.500000000000126
40
0.625920207473262
40
0.751840414946397
40
0.814800518682965
40
0.877760622419533
40
0.909240674287817
40
0.9407207261561
40
1
40
1
40
1
40
1
41
1
10
17.1051102282874
20
83.4414299600567
30
0
41
1
10
17.1005985294394
20
83.4410134966392
30
0
41
1
10
17.0916496249243
20
83.4404105018467
30
0
41
1
10
17.0786146792856
20
83.4408077858199
30
0
41
1
10
17.0643319326296
20
83.4425670808814
30
0
41
1
10
17.0496858313574
20
83.4457799793806
30
0
41
1
10
17.0353017530156
20
83.4505459696645
30
0
41
1
10
17.0166646589753
20
83.458944759553
30
0
41
1
10
16.9947445231576
20
83.4732260281145
30
0
41
1
10
16.9725777302828
20
83.4954927383474
30
0
41
1
10
16.9586381847328
20
83.5168988697837
30
0
41
1
10
16.9504040777863
20
83.5351841873925
30
0
41
1
10
16.9465009720329
20
83.546567028399
30
0
41
1
10
16.9441409583625
20
83.5553286190905
30
0
41
1
10
16.9422952714657
20
83.56385620718
30
0
41
1
10
16.9413500509269
20
83.5704737881229
30
0
41
1
10
16.9408177870309
20
83.5749907170089
30
0
0
SPLINE
5
2C1
100
AcDbEntity
8
1
62
256
6
ByLayer
370
18
48
1
60
0
100
AcDbSpline
70
4
71
1
72
4
73
2
40
0
40
0
40
1
40
1
41
1
10
14.4241327067743
20
93.2217168252038
30
0
41
1
10
15.267295212315
20
93.3235022626617
30
0
0
SPLINE
5
2C2
100
AcDbEntity
8
1
62
256
6
ByLayer
370
18
48
1
60
0
100
AcDbSpline
70
4
71
3
72
45
73
41
40
0
40
0
40
0
40
0
40
0.0011565097571289
40
0.0196321945811021
40
0.0288700369930887
40
0.0381078794050753
40
0.0565835642290485
40
0.130486303524941
40
0.204389042820834
40
0.278291782116727
40
0.31062423055868
40
0.340935900973011
40
0.342956679000633
40
0.347575600206626
40
0.35219452141262
40
0.370670206236593
40
0.379908048648579
40
0.389145891060566
40
0.407621575884539
40
0.426097260708512
40
0.463048630356459
40
0.500000000004405
40
0.536951369652352
40
0.555427054476324
40
0.573902739300298
40
0.592378424124272
40
0.610854108948244
40
0.629329793772218
40
0.647805478596191
40
0.652424399802183
40
0.657043321008177
40
0.689375769450131
40
0.721708217892084
40
0.795610957187976
40
0.869513696483869
40
0.943416435779762
40
0.961892120603735
40
0.980367805427708
40
0.998843490251683
40
1
40
1
40
1
40
1
41
1
10
14.424133226778
20
93.221712661733
30
0
41
1
10
14.4236740389064
20
93.2216552421709
30
0
41
1
10
14.415884938112
20
93.2206780586723
30
0
41
1
10
14.4045737590352
20
93.219173635041
30
0
41
1
10
14.3903128704657
20
93.216955704776
30
0
41
1
10
14.3761332627457
20
93.2145429911495
30
0
41
1
10
14.3372144558279
20
93.2071051293926
30
0
41
1
10
14.2726065919333
20
93.190349989952
30
0
41
1
10
14.1867657882298
20
93.157683404443
30
0
41
1
10
14.118614632346
20
93.1223538549013
30
0
41
1
10
14.068695097481
20
93.0909426119247
30
0
41
1
10
14.0456468715194
20
93.0747930420227
30
0
41
1
10
14.032680578297
20
93.0651942574372
30
0
41
1
10
14.0287428054305
20
93.0622464703397
30
0
41
1
10
14.0190949478052
20
93.05491124371
30
0
41
1
10
14.0079735218052
20
93.0461231726752
30
0
41
1
10
13.9954608421875
20
93.0357738402885
30
0
41
1
10
13.9830842404852
20
93.025223968302
30
0
41
1
10
13.9678768786339
20
93.0116668831096
30
0
41
1
10
13.9441421741181
20
92.9892134942624
30
0
41
1
10
13.9156592615406
20
92.9597680420173
30
0
41
1
10
13.8835875664927
20
92.9223879768668
30
0
41
1
10
13.8587935299384
20
92.8896670067286
30
0
41
1
10
13.840173939787
20
92.8626679808419
30
0
41
1
10
13.8268311200945
20
92.8420376614715
30
0
41
1
10
13.8141242266984
20
92.8210563670787
30
0
41
1
10
13.8020673129737
20
92.7997541725962
30
0
41
1
10
13.7906744322956
20
92.778161152957
30
0
41
1
10
13.7826383366034
20
92.7617708255597
30
0
41
1
10
13.7774972331617
20
92.7507718545996
30
0
41
1
10
13.7699153074122
20
92.734231615968
30
0
41
1
10
13.758143315255
20
92.706395799808
30
0
41
1
10
13.7376176147507
20
92.6500235424426
30
0
41
1
10
13.7173640708766
20
92.5757558575413
30
0
41
1
10
13.7033830763952
20
92.4846711826742
30
0
41
1
10
13.7004906658257
20
92.417744759645
30
0
41
1
10
13.7014121694095
20
92.3743664782612
30
0
41
1
10
13.7024532236476
20
92.3527451001613
30
0
41
1
10
13.7036226207302
20
92.3376709290009
30
0
41
1
10
13.7042899665545
20
92.329819117538
30
0
41
1
10
13.704329491476
20
92.3293562717914
30
0
0
SPLINE
5
2C3
100
AcDbEntity
8
1
62
256
6
ByLayer
370
18
48
1
60
0
100
AcDbSpline
70
4
71
1
72
4
73
2
40
0
40
0
40
1
40
1
41
1
10
13.7804561667006
20
91.4802346671719
30
0
41
1
10
13.7043253267162
20
92.3293559167669
30
0
0
SPLINE
5
2C4
100
AcDbEntity
8
1
62
256
6
ByLayer
370
18
48
1
60
0
100
AcDbSpline
70
4
71
3
72
46
73
42
40
0
40
0
40
0
40
0
40
0.0002356819181356
40
0.0012435088516858
40
0.0022513357852361
40
0.0026922600686643
40
0.009306124320088
40
0.0163609128549398
40
0.0324861437917441
40
0.0486113747285484
40
0.0647366056653526
40
0.0687679133995537
40
0.0707835672666542
40
0.0727992211337548
40
0.0768305288679558
40
0.0788461827350564
40
0.0808618366021569
40
0.084893144336358
40
0.088924452070559
40
0.0969870675389612
40
0.12923752941257
40
0.161487991286178
40
0.193738453159787
40
0.209863684096591
40
0.217926299564993
40
0.219941953432094
40
0.221957607299194
40
0.222965434232745
40
0.223973261166295
40
0.225988915033395
40
0.22649282850017
40
0.226996741966946
40
0.227232951404496
40
0.234555443968573
40
0.2421141459702
40
0.258239376907004
40
0.290489838780612
40
0.354990762527829
40
0.483992610022264
40
0.741996305011132
40
1
40
1
40
1
40
1
41
1
10
16.3044217055717
20
91.0594723794865
30
0
41
1
10
16.3047011052817
20
91.0595053305354
30
0
41
1
10
16.3061792253973
20
91.0596774465344
30
0
41
1
10
16.3088938908222
20
91.0599735930426
30
0
41
1
10
16.3118894768739
20
91.0602833315494
30
0
41
1
10
16.3217179674743
20
91.0613011826894
30
0
41
1
10
16.3388916031201
20
91.0630929352883
30
0
41
1
10
16.3751002023452
20
91.0668986124199
30
0
41
1
10
16.4228679949803
20
91.0719192097351
30
0
41
1
10
16.4816591243775
20
91.0780984064309
30
0
41
1
10
16.5257524714254
20
91.0827328039526
30
0
41
1
10
16.5526984057324
20
91.0855649357715
30
0
41
1
10
16.5624969272986
20
91.0865948018874
30
0
41
1
10
16.5722954488647
20
91.0876246680034
30
0
41
1
10
16.582093970431
20
91.0886545341193
30
0
41
1
10
16.5918924919971
20
91.0896844002353
30
0
41
1
10
16.6016910135633
20
91.0907142663513
30
0
41
1
10
16.6139391655211
20
91.0920015989961
30
0
41
1
10
16.6335362086534
20
91.094061331228
30
0
41
1
10
16.6874280772675
20
91.0997255948657
30
0
41
1
10
16.7756147713632
20
91.1089943899093
30
0
41
1
10
16.8931970301575
20
91.1213527833007
30
0
41
1
10
16.9911822458194
20
91.1316514444602
30
0
41
1
10
17.0597718967827
20
91.1388605072718
30
0
41
1
10
17.0916170918728
20
91.1422075721487
30
0
41
1
10
17.1063148742221
20
91.1437523713226
30
0
41
1
10
17.112438950201
20
91.144396037645
30
0
41
1
10
17.1173382109841
20
91.144910970703
30
0
41
1
10
17.1222374717672
20
91.145425903761
30
0
41
1
10
17.1265243249524
20
91.1458764701867
30
0
41
1
10
17.1301987705397
20
91.1462626699802
30
0
41
1
10
17.131710651797
20
91.1464215751035
30
0
41
1
10
17.1415091733632
20
91.1474514412195
30
0
41
1
10
17.1598814012998
20
91.1493824401869
30
0
41
1
10
17.1975636063073
20
91.1533429995274
30
0
41
1
10
17.2655408496727
20
91.1604876957068
30
0
41
1
10
17.4027201515993
20
91.17490582133
30
0
41
1
10
17.6770787554527
20
91.2037420725766
30
0
41
1
10
18.2257959631593
20
91.2614145750697
30
0
41
1
10
19.0096776884545
20
91.3438038643456
30
0
41
1
10
19.6367830686907
20
91.4097152957663
30
0
41
1
10
19.9503357588088
20
91.4426710114767
30
0
0
SPLINE
5
2C5
100
AcDbEntity
8
1
62
256
6
ByLayer
370
18
48
1
60
0
100
AcDbSpline
70
4
71
3
72
21
73
17
40
0
40
0
40
0
40
0
40
0.0592792738438681
40
0.122239377580414
40
0.185199481316957
40
0.248159585053505
40
0.311119688790052
40
0.374079792526596
40
0.499999999999687
40
0.625920207472778
40
0.751840414945869
40
0.814800518682415
40
0.87776062241896
40
0.909240674287233
40
0.940720726155506
40
1
40
1
40
1
40
1
41
1
10
16.1714882911429
20
90.8946719262712
30
0
41
1
10
16.1710698014737
20
90.8992008133104
30
0
41
1
10
16.1704619574226
20
90.9081836336002
30
0
41
1
10
16.1708474301973
20
90.9212669697047
30
0
41
1
10
16.172588855567
20
90.9356016896286
30
0
41
1
10
16.1757781860566
20
90.9502999696126
30
0
41
1
10
16.1805150354414
20
90.96473401651
30
0
41
1
10
16.1888677919228
20
90.9834340909601
30
0
41
1
10
16.2030785301671
20
91.0054248114411
30
0
41
1
10
16.2252447928441
20
91.0276567807367
30
0
41
1
10
16.2465602013452
20
91.0416314435641
30
0
41
1
10
16.2647709342253
20
91.0498818230811
30
0
41
1
10
16.2761083145275
20
91.0537904899563
30
0
41
1
10
16.2848354239521
20
91.0561523767552
30
0
41
1
10
16.2933298094251
20
91.057998200475
30
0
41
1
10
16.2999220105551
20
91.0589417072431
30
0
41
1
10
16.3044217055718
20
91.0594723794865
30
0
0
SPLINE
5
2C6
100
AcDbEntity
8
1
62
256
6
ByLayer
370
18
48
1
60
0
100
AcDbSpline
70
4
71
3
72
42
73
38
40
0
40
0
40
0
40
0
40
0.258003694988868
40
0.516007389977737
40
0.645009237472171
40
0.709510161219388
40
0.741760623092996
40
0.749823238561398
40
0.757885854029801
40
0.765444556031428
40
0.769223907032242
40
0.773003258033055
40
0.77350717149983
40
0.774011084966605
40
0.776026738833706
40
0.778042392700806
40
0.782073700435007
40
0.790136315903409
40
0.806261546840214
40
0.838512008713822
40
0.870762470587431
40
0.903012932461039
40
0.911075547929441
40
0.915106855663643
40
0.919138163397843
40
0.923169471132044
40
0.927200778866246
40
0.931232086600447
40
0.935263394334648
40
0.951388625271452
40
0.967513856208256
40
0.983639087145061
40
0.990693875679912
40
0.997748664214764
40
0.998756491148315
40
0.999764318081865
40
1
40
1
40
1
40
1
41
1
10
16.5561553805972
20
87.2348315677427
30
0
41
1
10
16.5230737794066
20
87.5495819781983
30
0
41
1
10
16.4569105770257
20
88.1790827991096
30
0
41
1
10
16.3742065740494
20
88.9659588252485
30
0
41
1
10
16.316313771966
20
89.5167720435459
30
0
41
1
10
16.2873673709244
20
89.7921786526946
30
0
41
1
10
16.2739279704407
20
89.9200460069421
30
0
41
1
10
16.2677251702175
20
89.9790617089026
30
0
41
1
10
16.2646883826082
20
90.0079548129874
30
0
41
1
10
16.2622008012687
20
90.0316225684611
30
0
41
1
10
16.2602624261989
20
90.0500649753237
30
0
41
1
10
16.2592286261618
20
90.0599009256505
30
0
41
1
10
16.2586148073896
20
90.065741021157
30
0
41
1
10
16.2582271323757
20
90.0694295025295
30
0
41
1
10
16.2576456198548
20
90.0749622245883
30
0
41
1
10
16.2566118198176
20
90.084798174915
30
0
41
1
10
16.2548026697525
20
90.1020110879868
30
0
41
1
10
16.2511843696223
20
90.1364369141304
30
0
41
1
10
16.2439477693618
20
90.2052885664176
30
0
41
1
10
16.2336097689898
20
90.3036480696849
30
0
41
1
10
16.2212041685433
20
90.4216794736058
30
0
41
1
10
16.2118999682086
20
90.5102030265464
30
0
41
1
10
16.2062140680039
20
90.5643007533435
30
0
41
1
10
16.2041464679296
20
90.583972653997
30
0
41
1
10
16.2025957678737
20
90.5987265794871
30
0
41
1
10
16.2010450678179
20
90.6134805049772
30
0
41
1
10
16.1994943677621
20
90.6282344304673
30
0
41
1
10
16.1979436677063
20
90.6429883559574
30
0
41
1
10
16.1948422675947
20
90.6724962069376
30
0
41
1
10
16.1901901674273
20
90.7167579834079
30
0
41
1
10
16.1839873672041
20
90.7757736853683
30
0
41
1
10
16.1789475920227
20
90.8237239432112
30
0
41
1
10
16.1750708418832
20
90.8606087569365
30
0
41
1
10
16.1731151077922
20
90.8790772256109
30
0
41
1
10
16.1719297640088
20
90.8901761777722
30
0
41
1
10
16.1716538972509
20
90.8929034631628
30
0
41
1
10
16.1715142764357
20
90.8943907139399
30
0
41
1
10
16.1714882911429
20
90.8946719262712
30
0
0
SPLINE
5
2C7
100
AcDbEntity
8
1
62
256
6
ByLayer
370
18
48
1
60
0
100
AcDbSpline
70
4
71
3
72
41
73
37
40
0
40
0
40
0
40
0
40
0.0078125
40
0.01171875
40
0.013671875
40
0.015625
40
0.03125
40
0.0625
40
0.09375
40
0.125
40
0.1328125
40
0.140625
40
0.15625
40
0.1875
40
0.25
40
0.3125
40
0.375
40
0.4375
40
0.46875
40
0.4765625
40
0.484375
40
0.5
40
0.5625
40
0.625
40
0.6875
40
0.71875
40
0.734375
40
0.7421875
40
0.75
40
0.78125
40
0.8125
40
0.875
40
0.90625
40
0.921875
40
0.9375
40
1
40
1
40
1
40
1
41
1
10
19.9503357588088
20
91.4426710114767
30
0
41
1
10
19.9496697142447
20
91.4490080022023
30
0
41
1
10
19.9488041037106
20
91.4588362879521
30
0
41
1
10
19.9482197436466
20
91.4688514270381
30
0
41
1
10
19.9480000906576
20
91.4740843232125
30
0
41
1
10
19.9474141398726
20
91.4873716698692
30
0
41
1
10
19.945967882441
20
91.5205095566942
30
0
41
1
10
19.9436403970508
20
91.5735884125689
30
0
41
1
10
19.9408515144026
20
91.6372653188302
30
0
41
1
10
19.9387570635286
20
91.6850305318267
30
0
41
1
10
19.9373697315892
20
91.7168472982321
30
0
41
1
10
19.9364408089908
20
91.7380189442285
30
0
41
1
10
19.9347441449845
20
91.7750140313639
30
0
41
1
10
19.9308529683756
20
91.8516771435725
30
0
41
1
10
19.9239871550668
20
91.9668052869526
30
0
41
1
10
19.9136974348237
20
92.112358060159
30
0
41
1
10
19.90154335335
20
92.2628067041035
30
0
41
1
10
19.8900198962658
20
92.3902400784055
30
0
41
1
10
19.8819539319638
20
92.4731099249753
30
0
41
1
10
19.8781406298773
20
92.5111961552123
30
0
41
1
10
19.8755485878944
20
92.5367727510256
30
0
41
1
10
19.8683726366735
20
92.6076572373171
30
0
41
1
10
19.8566534689419
20
92.7233840053014
30
0
41
1
10
19.8410198581383
20
92.8777770172621
30
0
41
1
10
19.827991786835
20
93.0064326521119
30
0
41
1
10
19.8188723153281
20
93.0965065116158
30
0
41
1
10
19.8143123019311
20
93.1415202297294
30
0
41
1
10
19.8117070315787
20
93.1672801082352
30
0
41
1
10
19.8078087719965
20
93.2057990580337
30
0
41
1
10
19.8018096106628
20
93.2636101643656
30
0
41
1
10
19.790644400427
20
93.3666096659736
30
0
41
1
10
19.7788182730136
20
93.46921120683
30
0
41
1
10
19.768008172487
20
93.5575483633302
30
0
41
1
10
19.7617227927674
20
93.6074879937419
30
0
41
1
10
19.7521660346998
20
93.6817423910804
30
0
41
1
10
19.7441659081776
20
93.7438475122605
30
0
41
1
10
19.7377766553996
20
93.7934636721852
30
0
0
SPLINE
5
2C8
100
AcDbEntity
8
1
62
256
6
ByLayer
370
18
48
1
60
0
100
AcDbSpline
70
4
71
3
72
20
73
16
40
0
40
0
40
0
40
0
40
0.332431012821216
40
0.664862025642432
40
0.83107753205304
40
0.914185285258344
40
0.955739161860996
40
0.976516100162322
40
0.986255289991068
40
0.995690130137667
40
0.995994479819815
40
0.996643759141731
40
0.997293038463648
40
0.999890155751314
40
1
40
1
40
1
40
1
41
1
10
19.7377766553996
20
93.7934636721852
30
0
41
1
10
19.242399939347
20
93.741397481276
30
0
41
1
10
18.2516465072418
20
93.6372650994578
30
0
41
1
10
17.0132041247904
20
93.5071050607554
30
0
41
1
10
16.146296352498
20
93.4159756302383
30
0
41
1
10
15.7128395047524
20
93.3704381078319
30
0
41
1
10
15.4961156898688
20
93.3476270277527
30
0
41
1
10
15.3887147985443
20
93.3363830130612
30
0
41
1
10
15.3291810930597
20
93.3301277488652
30
0
41
1
10
15.3001560167814
20
93.3270686316254
30
0
41
1
10
15.2846763175739
20
93.3254339258903
30
0
41
1
10
15.2822878535529
20
93.3251816475941
30
0
41
1
10
15.2764838223845
20
93.3245609637677
30
0
41
1
10
15.2714870727648
20
93.3239940401627
30
0
41
1
10
15.267458971667
20
93.3235189549688
30
0
41
1
10
15.2672955207942
20
93.3234996488088
30
0
0
SPLINE
5
2C9
100
AcDbEntity
8
1
62
256
6
ByLayer
370
18
48
1
60
0
100
AcDbSpline
70
4
71
3
72
21
73
17
40
0
40
0
40
0
40
0
40
0.000109683687932
40
0.0027068013926386
40
0.0033560808188156
40
0.004005360244992
40
0.0088749559413165
40
0.013744551637642
40
0.023483743030292
40
0.0338722138491188
40
0.0442606846679454
40
0.0858145679432521
40
0.168922334493866
40
0.335137867595092
40
0.667568933797546
40
1
40
1
40
1
40
1
41
1
10
13.7804587794619
20
91.4802349078806
30
0
41
1
10
13.7804739301516
20
91.4800706309778
30
0
41
1
10
13.780848508858
20
91.4760166316203
30
0
41
1
10
13.7813349982348
20
91.4709923564847
30
0
41
1
10
13.7819369745312
20
91.4651639394266
30
0
41
1
10
13.7829020314865
20
91.4559367871029
30
0
41
1
10
13.7845291965317
20
91.4403965055146
30
0
41
1
10
13.7875854778437
20
91.4112590254086
30
0
41
1
10
13.7915167878565
20
91.3738668538127
30
0
41
1
10
13.7963272540016
20
91.3282204018793
30
0
41
1
10
13.8061561210155
20
91.2349854227572
30
0
41
1
10
13.8273590705905
20
91.0329668902782
30
0
41
1
10
13.8731113446509
20
90.5978585966458
30
0
41
1
10
13.9645616709771
20
89.7276365182624
30
0
41
1
10
14.0952297814063
20
88.4844646307976
30
0
41
1
10
14.1997599320062
20
87.4899266815362
30
0
41
1
10
14.2520250073061
20
86.9926577069055
30
0
0
SPLINE
5
2CA
100
AcDbEntity
8
1
62
256
6
ByLayer
370
18
48
1
60
0
100
AcDbSpline
70
4
71
3
72
41
73
37
40
0
40
0
40
0
40
0
40
0.0625
40
0.078125
40
0.09375
40
0.125
40
0.1875
40
0.21875
40
0.25
40
0.2578125
40
0.265625
40
0.28125
40
0.3125
40
0.375
40
0.4375
40
0.5
40
0.515625
40
0.5234375
40
0.53125
40
0.5625
40
0.625
40
0.6875
40
0.75
40
0.8125
40
0.84375
40
0.859375
40
0.8671875
40
0.875
40
0.90625
40
0.9375
40
0.96875
40
0.984375
40
0.986328125
40
0.98828125
40
0.9921875
40
1
40
1
40
1
40
1
41
1
10
14.2520250073061
20
86.9926577069055
30
0
41
1
10
14.3027355349772
20
86.9979875981363
30
0
41
1
10
14.366213357009
20
87.0046593860773
30
0
41
1
10
14.4420998236301
20
87.0126353751185
30
0
41
1
10
14.4929819481418
20
87.017983301904
30
0
41
1
10
14.5826497587902
20
87.0274077685702
30
0
41
1
10
14.6859996905218
20
87.0382702841096
30
0
41
1
10
14.7889782260249
20
87.0490937643324
30
0
41
1
10
14.8464851771816
20
87.0551379884562
30
0
41
1
10
14.884693387746
20
87.0591538332084
30
0
41
1
10
14.910243572774
20
87.0618392658667
30
0
41
1
10
14.9548990296282
20
87.0665327435098
30
0
41
1
10
15.0442502519623
20
87.0759239354033
30
0
41
1
10
15.1718763544931
20
87.0893379793097
30
0
41
1
10
15.3250331044326
20
87.1054354023879
30
0
41
1
10
15.4398341428286
20
87.1175014777362
30
0
41
1
10
15.5101491734351
20
87.1248918852558
30
0
41
1
10
15.5355233677196
20
87.1275588205415
30
0
41
1
10
15.573257371614
20
87.1315248241644
30
0
41
1
10
15.655108208815
20
87.1401276938142
30
0
41
1
10
15.7800130740945
20
87.1532557241604
30
0
41
1
10
15.9258915863291
20
87.1685881736305
30
0
41
1
10
16.0654180375912
20
87.1832529945898
30
0
41
1
10
16.1743885353006
20
87.194706255418
30
0
41
1
10
16.2462075256776
20
87.2022547354791
30
0
41
1
10
16.2806671351192
20
87.205876586377
30
0
41
1
10
16.3003418273578
20
87.2079444798589
30
0
41
1
10
16.3298995151642
20
87.211051118032
30
0
41
1
10
16.3742860560782
20
87.2157163314708
30
0
41
1
10
16.4334551949765
20
87.2219352585661
30
0
41
1
10
16.482779558971
20
87.2271194581237
30
0
41
1
10
16.513566005848
20
87.2303552440792
30
0
41
1
10
16.5259170948231
20
87.2316533958407
30
0
41
1
10
16.5307691303421
20
87.2321633653234
30
0
41
1
10
16.5402345072556
20
87.2331582165254
30
0
41
1
10
16.5498425040344
20
87.2341680576793
30
0
41
1
10
16.5561553805972
20
87.2348315677427
30
0
0
SPLINE
5
2CB
100
AcDbEntity
8
1
62
256
6
ByLayer
370
18
48
1
60
0
100
AcDbSpline
70
4
71
3
72
21
73
17
40
0
40
0
40
0
40
0
40
0.0001096836879253
40
0.002706801392632
40
0.003356080818809
40
0.0040053602449854
40
0.00887495594131
40
0.0137445516376354
40
0.0234837430302855
40
0.0338722138491124
40
0.044260684667939
40
0.085814567943246
40
0.16892233449386
40
0.335137867595088
40
0.667568933797544
40
1
40
1
40
1
40
1
41
1
10
16.561366195384
20
81.0112465261236
30
0
41
1
10
16.5615298488406
20
81.0112616032056
30
0
41
1
10
16.5655684623403
20
81.0116343680188
30
0
41
1
10
16.5705736515544
20
81.0121186925433
30
0
41
1
10
16.5763798981401
20
81.0127182980815
30
0
41
1
10
16.5855719421334
20
81.013679646836
30
0
41
1
10
16.6010530931606
20
81.0153005733855
30
0
41
1
10
16.6300797012657
20
81.0183451779311
30
0
41
1
10
16.6673295833812
20
81.0222615374323
30
0
41
1
10
16.7128023266132
20
81.0270537950684
30
0
41
1
10
16.8056824951266
20
81.0368454825773
30
0
41
1
10
17.0069323099214
20
81.0579675218675
30
0
41
1
10
17.4403848688446
20
81.1035458496936
30
0
41
1
10
18.3072955003518
20
81.1946480765975
30
0
41
1
10
19.5457367391173
20
81.3248189967451
30
0
41
1
10
20.5364901712225
20
81.4289513785634
30
0
41
1
10
21.0318668872751
20
81.4810175694726
30
0
0
SPLINE
5
2CC
100
AcDbEntity
8
1
62
256
6
ByLayer
370
18
48
1
60
0
100
AcDbSpline
70
4
71
3
72
42
73
38
40
0
40
0
40
0
40
0
40
0.258003694988873
40
0.516007389977745
40
0.645009237472182
40
0.7095101612194
40
0.741760623093009
40
0.749823238561411
40
0.757885854029813
40
0.765444556031441
40
0.769223907032255
40
0.773003258033068
40
0.773507171499843
40
0.774011084966618
40
0.776026738833719
40
0.778042392700819
40
0.78207370043502
40
0.790136315903422
40
0.806261546840227
40
0.838512008713836
40
0.870762470587445
40
0.903012932461054
40
0.911075547929457
40
0.915106855663658
40
0.919138163397859
40
0.92316947113206
40
0.927200778866261
40
0.931232086600462
40
0.935263394334663
40
0.951388625271468
40
0.967513856208272
40
0.983639087145077
40
0.990693875679929
40
0.997748664214781
40
0.998756491148331
40
0.999764318081882
40
1
40
1
40
1
40
1
41
1
10
20.751023787439
20
83.8246332929557
30
0
41
1
10
20.437471097321
20
83.7916775772454
30
0
41
1
10
19.8103657170847
20
83.7257661458247
30
0
41
1
10
19.0264839917895
20
83.6433768565487
30
0
41
1
10
18.4777667840829
20
83.5857043540556
30
0
41
1
10
18.2034081802296
20
83.5568681028091
30
0
41
1
10
18.0760273998691
20
83.5434798433017
30
0
41
1
10
18.017236270472
20
83.537300646606
30
0
41
1
10
17.9884531133713
20
83.5342754148904
30
0
41
1
10
17.9648754208527
20
83.5317972995489
30
0
41
1
10
17.9465031929161
20
83.5298663005815
30
0
41
1
10
17.9367046713498
20
83.5288364344656
30
0
41
1
10
17.93088679917
20
83.5282249514593
30
0
41
1
10
17.9272123535826
20
83.5278387516657
30
0
41
1
10
17.9217006852016
20
83.5272594519755
30
0
41
1
10
17.9119021636354
20
83.5262295858596
30
0
41
1
10
17.8947547508946
20
83.5244273201566
30
0
41
1
10
17.8604599254129
20
83.5208227887508
30
0
41
1
10
17.7918702744496
20
83.5136137259392
30
0
41
1
10
17.6938850587877
20
83.5033150647797
30
0
41
1
10
17.5763027999934
20
83.4909566713883
30
0
41
1
10
17.4881161058977
20
83.4816878763448
30
0
41
1
10
17.4342242372837
20
83.4760236127071
30
0
41
1
10
17.4146271941513
20
83.4739638804752
30
0
41
1
10
17.399929411802
20
83.4724190813013
30
0
41
1
10
17.3852316294527
20
83.4708742821273
30
0
41
1
10
17.3705338471034
20
83.4693294829534
30
0
41
1
10
17.3558360647541
20
83.4677846837795
30
0
41
1
10
17.3264405000556
20
83.4646950854316
30
0
41
1
10
17.2823471530077
20
83.4600606879098
30
0
41
1
10
17.2235560236106
20
83.4538814912142
30
0
41
1
10
17.1757882309754
20
83.4488608938989
30
0
41
1
10
17.1390437751022
20
83.4449988959641
30
0
41
1
10
17.1206455961157
20
83.4430504937717
30
0
41
1
10
17.1095888937181
20
83.4418695188163
30
0
41
1
10
17.1068719779246
20
83.4415947831343
30
0
41
1
10
17.1053903733517
20
83.4414558195333
30
0
41
1
10
17.1051102282874
20
83.4414299600567
30
0
0
SPLINE
5
2CD
100
AcDbEntity
8
1
62
256
6
ByLayer
370
18
48
1
60
0
100
AcDbSpline
70
4
71
3
72
10
73
6
40
0
40
0
40
0
40
0
40
0.295368028639119
40
0.295368028639119
40
1
40
1
40
1
40
1
41
1
10
14.1336340247971
20
-40.7895141221001
30
0
41
1
10
14.1237459590043
20
-40.8210892298852
30
0
41
1
10
14.1138688356087
20
-40.8526682776595
30
0
41
1
10
14.0804663899999
20
-40.9595898581272
30
0
41
1
10
14.0569927073797
20
-41.0349458513244
30
0
41
1
10
14.0335807207372
20
-41.1103167077509
30
0
0
SPLINE
5
2CE
100
AcDbEntity
8
1
62
256
6
ByLayer
370
18
48
1
60
0
100
AcDbSpline
70
4
71
3
72
8
73
4
40
0
40
0
40
0
40
0
40
1
40
1
40
1
40
1
41
1
10
14.0335807207461
20
-41.1103167077241
30
0
41
1
10
14.0171561381004
20
-41.1631928211166
30
0
41
1
10
14.0007668623176
20
-41.2163803461075
30
0
41
1
10
13.9844581936741
20
-41.2696480852075
30
0
0
SPLINE
5
2CF
100
AcDbEntity
8
1
62
256
6
ByLayer
370
18
48
1
60
0
100
AcDbSpline
70
4
71
3
72
8
73
4
40
0
40
0
40
0
40
0
40
1
40
1
40
1
40
1
41
1
10
13.9844581936732
20
-41.2696480852088
30
0
41
1
10
13.9273284121334
20
-41.4562466583005
30
0
41
1
10
13.8706570677335
20
-41.6418561393664
30
0
41
1
10
13.8143345566809
20
-41.8276356085006
30
0
0
SPLINE
5
2D0
100
AcDbEntity
8
1
62
256
6
ByLayer
370
18
48
1
60
0
100
AcDbSpline
70
4
71
3
72
22
73
18
40
0
40
0
40
0
40
0
40
0.247648061032175
40
0.247648061032175
40
0.499630853098531
40
0.499630853098531
40
0.554937524732357
40
0.554937524732357
40
0.599939125431709
40
0.599939125431709
40
0.64535633140513
40
0.64535633140513
40
0.695796263471616
40
0.695796263471616
40
0.78004957406728
40
0.78004957406728
40
1
40
1
40
1
40
1
41
1
10
13.8143345566636
20
-41.8276356084776
30
0
41
1
10
13.8113809607299
20
-41.8373780271722
30
0
41
1
10
13.8084467720255
20
-41.8472270514094
30
0
41
1
10
13.8027563017638
20
-41.8672495779179
30
0
41
1
10
13.7998179013977
20
-41.8778243601961
30
0
41
1
10
13.7972517124912
20
-41.8899415633309
30
0
41
1
10
13.7968294115605
20
-41.8921419487911
30
0
41
1
10
13.796271211782
20
-41.8957865858844
30
0
41
1
10
13.7960951641056
20
-41.8973218484878
30
0
41
1
10
13.7959780601264
20
-41.8998562118467
30
0
41
1
10
13.7960407594241
20
-41.900875401317
30
0
41
1
10
13.7964055454065
20
-41.9023174630003
30
0
41
1
10
13.7967331333157
20
-41.9026983291361
30
0
41
1
10
13.7977954307753
20
-41.9029831489513
30
0
41
1
10
13.7986643093423
20
-41.9024523696383
30
0
41
1
10
13.8020002488022
20
-41.8994684468384
30
0
41
1
10
13.8048698673022
20
-41.8953865001895
30
0
41
1
10
13.8077850492019
20
-41.8909583800191
30
0
0
SPLINE
5
2D1
100
AcDbEntity
8
1
62
256
6
ByLayer
370
18
48
1
60
0
100
AcDbSpline
70
4
71
3
72
22
73
18
40
0
40
0
40
0
40
0
40
0.104611531529262
40
0.104611531529262
40
0.208411675036502
40
0.208411675036502
40
0.402775886004141
40
0.402775886004141
40
0.500031490391636
40
0.500031490391636
40
0.699792640385805
40
0.699792640385805
40
0.846184360107008
40
0.846184360107008
40
0.95033556435093
40
0.95033556435093
40
1
40
1
40
1
40
1
41
1
10
13.807785049202
20
-41.8909583800183
30
0
41
1
10
13.817880673732
20
-41.8756232688138
30
0
41
1
10
13.8285675628403
20
-41.8649685339279
30
0
41
1
10
13.8510120363166
20
-41.8555731621312
30
0
41
1
10
13.863064132526
20
-41.8563660660911
30
0
41
1
10
13.900369980847
20
-41.8681812522456
30
0
41
1
10
13.9289855205146
20
-41.8865830051129
30
0
41
1
10
13.9786605182968
20
-41.9183316112766
30
0
41
1
10
13.996516622816
20
-41.9299095935842
30
0
41
1
10
14.0539429381586
20
-41.9670498106623
30
0
41
1
10
14.0975669703263
20
-41.9946272289108
30
0
41
1
10
14.1759074926309
20
-42.049379239608
30
0
41
1
10
14.210649338866
20
-42.0752984132648
30
0
41
1
10
14.2642818109447
20
-42.1284765853445
30
0
41
1
10
14.2850300887092
20
-42.153931228739
30
0
41
1
10
14.3089986370451
20
-42.1950417320143
30
0
41
1
10
14.31584536928
20
-42.2090279203063
30
0
41
1
10
14.3216705240525
20
-42.2233115525206
30
0
0
SPLINE
5
2D2
100
AcDbEntity
8
1
62
256
6
ByLayer
370
18
48
1
60
0
100
AcDbSpline
70
4
71
3
72
22
73
18
40
0
40
0
40
0
40
0
40
0.247648061031778
40
0.247648061031778
40
0.499630853098013
40
0.499630853098013
40
0.554937524731603
40
0.554937524731603
40
0.599939125430901
40
0.599939125430901
40
0.645356331404459
40
0.645356331404459
40
0.695796263470821
40
0.695796263470821
40
0.780049574066667
40
0.780049574066667
40
1
40
1
40
1
40
1
41
1
10
25.9767277247492
20
-43.3590077290627
30
0
41
1
10
25.9774005536273
20
-43.3692067524548
30
0
41
1
10
25.9779952448291
20
-43.3795000994688
30
0
41
1
10
25.9787646456086
20
-43.4003359911003
30
0
41
1
10
25.9790555991829
20
-43.411317382713
30
0
41
1
10
25.9781567343881
20
-43.4236445193391
30
0
41
1
10
25.9779265608283
20
-43.4258690956387
30
0
41
1
10
25.9773314739148
20
-43.4295090882571
30
0
41
1
10
25.9769913974371
20
-43.431023697924
30
0
41
1
10
25.9761697516867
20
-43.4334693521275
30
0
41
1
10
25.9756747415091
20
-43.4344183201594
30
0
41
1
10
25.9745629809358
20
-43.435674469235
30
0
41
1
10
25.9739249081502
20
-43.4359337486201
30
0
41
1
10
25.9722334404315
20
-43.4358718406851
30
0
41
1
10
25.9711537277875
20
-43.4350957134201
30
0
41
1
10
25.967394556615
20
-43.4312184422089
30
0
41
1
10
25.9647806906797
20
-43.4264460676917
30
0
41
1
10
25.9622555690535
20
-43.4213329565798
30
0
0
SPLINE
5
2D3
100
AcDbEntity
8
1
62
256
6
ByLayer
370
18
48
1
60
0
100
AcDbSpline
70
4
71
3
72
10
73
6
40
0
40
0
40
0
40
0
40
0.295368028639117
40
0.295368028639117
40
1
40
1
40
1
40
1
41
1
10
14.7982907568229
20
-41.2193779425905
30
0
41
1
10
14.7862571597727
20
-41.2495654374637
30
0
41
1
10
14.7742220770285
20
-41.2797488345129
30
0
41
1
10
14.7334961425305
20
-41.3819339807259
30
0
41
1
10
14.7048192279907
20
-41.4539248065455
30
0
41
1
10
14.6761632966855
20
-41.5259041648068
30
0
0
SPLINE
5
2D4
100
AcDbEntity
8
1
62
256
6
ByLayer
370
18
48
1
60
0
100
AcDbSpline
70
4
71
3
72
8
73
4
40
0
40
0
40
0
40
0
40
1
40
1
40
1
40
1
41
1
10
14.6761632966889
20
-41.5259041647764
30
0
41
1
10
14.6560598462995
20
-41.5764009866231
30
0
41
1
10
14.6347238803764
20
-41.6263892615049
30
0
41
1
10
14.6130763761021
20
-41.6762041321231
30
0
0
SPLINE
5
2D5
100
AcDbEntity
8
1
62
256
6
ByLayer
370
18
48
1
60
0
100
AcDbSpline
70
4
71
3
72
8
73
4
40
0
40
0
40
0
40
0
40
1
40
1
40
1
40
1
41
1
10
14.6130763761051
20
-41.6762041321269
30
0
41
1
10
14.5372444846646
20
-41.8507071978299
30
0
41
1
10
14.4665796507627
20
-42.0272664510572
30
0
41
1
10
14.3954835316282
20
-42.2034911540895
30
0
0
SPLINE
5
2D6
100
AcDbEntity
8
1
62
256
6
ByLayer
370
18
48
1
60
0
100
AcDbSpline
70
4
71
3
72
22
73
18
40
0
40
0
40
0
40
0
40
0.247648061031886
40
0.247648061031886
40
0.49963085309833
40
0.49963085309833
40
0.554937524731913
40
0.554937524731913
40
0.599939125431341
40
0.599939125431341
40
0.645356331404662
40
0.645356331404662
40
0.695796263471188
40
0.695796263471188
40
0.780049574066685
40
0.780049574066685
40
1
40
1
40
1
40
1
41
1
10
14.3954835317187
20
-42.2034911541363
30
0
41
1
10
14.3917551963782
20
-42.2127325135242
30
0
41
1
10
14.3877171577891
20
-42.2218676276996
30
0
41
1
10
14.3781926738655
20
-42.2394105227215
30
0
41
1
10
14.3727774454958
20
-42.2483834273731
30
0
41
1
10
14.3631266158696
20
-42.2559186702572
30
0
41
1
10
14.361188388808
20
-42.2571386371542
30
0
41
1
10
14.3573980600287
20
-42.2586929090204
30
0
41
1
10
14.355559109131
20
-42.2591526962734
30
0
41
1
10
14.3518296912037
20
-42.2593508114612
30
0
41
1
10
14.3498917005168
20
-42.2590760634763
30
0
41
1
10
14.3460672508464
20
-42.2578087554115
30
0
41
1
10
14.3441515340703
20
-42.2567387741007
30
0
41
1
10
14.3395424575606
20
-42.2533556577251
30
0
41
1
10
14.3370629810807
20
-42.2506593445004
30
0
41
1
10
14.3292197998981
20
-42.2404453745536
30
0
41
1
10
14.3251676984772
20
-42.2318868359645
30
0
41
1
10
14.3216705240522
20
-42.2233115525213
30
0
0
SPLINE
5
2D7
100
AcDbEntity
8
1
62
256
6
ByLayer
370
18
48
1
60
0
100
AcDbSpline
70
4
71
3
72
10
73
6
40
0
40
0
40
0
40
0
40
0.295368028639083
40
0.295368028639083
40
1
40
1
40
1
40
1
41
1
10
25.0797581343752
20
-42.5139218932007
30
0
41
1
10
25.0849092674403
20
-42.5462731247856
30
0
41
1
10
25.0900640140712
20
-42.5786209005962
30
0
41
1
10
25.1075015442059
20
-42.6881294334934
30
0
41
1
10
25.1197790966232
20
-42.7652768537467
30
0
41
1
10
25.132045819829
20
-42.8424088009232
30
0
0
SPLINE
5
2D8
100
AcDbEntity
8
1
62
256
6
ByLayer
370
18
48
1
60
0
100
AcDbSpline
70
4
71
3
72
8
73
4
40
0
40
0
40
0
40
0
40
1
40
1
40
1
40
1
41
1
10
25.1320458198323
20
-42.8424088008928
30
0
41
1
10
25.1406514888913
20
-42.8965204002361
30
0
41
1
10
25.1505752145209
20
-42.9504445962381
30
0
41
1
10
25.1608494197494
20
-43.0042787429393
30
0
0
SPLINE
5
2D9
100
AcDbEntity
8
1
62
256
6
ByLayer
370
18
48
1
60
0
100
AcDbSpline
70
4
71
3
72
8
73
4
40
0
40
0
40
0
40
0
40
1
40
1
40
1
40
1
41
1
10
25.1608494197455
20
-43.0042787429423
30
0
41
1
10
25.1968402852833
20
-43.1928614597565
30
0
41
1
10
25.2273965875386
20
-43.3821655094874
30
0
41
1
10
25.2584855563495
20
-43.571256380605
30
0
0
SPLINE
5
2DA
100
AcDbEntity
8
1
62
256
6
ByLayer
370
18
48
1
60
0
100
AcDbSpline
70
4
71
3
72
22
73
18
40
0
40
0
40
0
40
0
40
0.247648061031995
40
0.247648061031995
40
0.499630853098505
40
0.499630853098505
40
0.554937524732065
40
0.554937524732065
40
0.599939125431496
40
0.599939125431496
40
0.645356331404903
40
0.645356331404903
40
0.695796263471452
40
0.695796263471452
40
0.780049574067045
40
0.780049574067045
40
1
40
1
40
1
40
1
41
1
10
25.2584855562491
20
-43.5712563806278
30
0
41
1
10
25.2601158857603
20
-43.5811724517968
30
0
41
1
10
25.2620748253199
20
-43.5910626480533
30
0
41
1
10
25.2675826845752
20
-43.6104982718279
30
0
41
1
10
25.2709347505196
20
-43.6205750702528
30
0
41
1
10
25.2787917950216
20
-43.6303147370492
30
0
41
1
10
25.2804351549589
20
-43.6319856630955
30
0
41
1
10
25.283834657113
20
-43.6344452096467
30
0
41
1
10
25.2855497631562
20
-43.6353524897276
30
0
41
1
10
25.2891925771483
20
-43.6364788457865
30
0
41
1
10
25.2911702202397
20
-43.6366971169238
30
0
41
1
10
25.2952359370927
20
-43.6364232630972
30
0
41
1
10
25.2973703651475
20
-43.6358632372526
30
0
41
1
10
25.3026881499836
20
-43.6337300162306
30
0
41
1
10
25.3057466702076
20
-43.6317309945372
30
0
41
1
10
25.315803777127
20
-43.6237708575138
30
0
41
1
10
25.3217444666313
20
-43.6164705154998
30
0
41
1
10
25.3271443778443
20
-43.6090154679109
30
0
0
SPLINE
5
2DB
100
AcDbEntity
8
1
62
256
6
ByLayer
370
18
48
1
60
0
100
AcDbSpline
70
4
71
3
72
22
73
18
40
0
40
0
40
0
40
0
40
0.104611531529227
40
0.104611531529227
40
0.208411675036485
40
0.208411675036485
40
0.402775886004086
40
0.402775886004086
40
0.500031490391593
40
0.500031490391593
40
0.699792640385743
40
0.699792640385743
40
0.846184360106957
40
0.846184360106957
40
0.950335564350915
40
0.950335564350915
40
1
40
1
40
1
40
1
41
1
10
25.3271443778441
20
-43.6090154679102
30
0
41
1
10
25.3458449179738
20
-43.5831977440428
30
0
41
1
10
25.3691997626873
20
-43.559744059148
30
0
41
1
10
25.4208147401327
20
-43.5214732035762
30
0
41
1
10
25.4493439909654
20
-43.5059804860835
30
0
41
1
10
25.5309488149373
20
-43.4688888827561
30
0
41
1
10
25.5852555523518
20
-43.4518268247329
30
0
41
1
10
25.6604669133928
20
-43.4285855595771
30
0
41
1
10
25.6849064232977
20
-43.4212756221581
30
0
41
1
10
25.7558796212746
20
-43.400302242665
30
0
41
1
10
25.7995325206076
20
-43.3873177845375
30
0
41
1
10
25.8646079113494
20
-43.3733605906895
30
0
41
1
10
25.8893727210059
20
-43.3700769720655
30
0
41
1
10
25.9247956391612
20
-43.3780105612385
30
0
41
1
10
25.9377100912345
20
-43.385814807356
30
0
41
1
10
25.9534094223738
20
-43.4052635419963
30
0
41
1
10
25.9580495379823
20
-43.4128161770373
30
0
41
1
10
25.9622555690534
20
-43.421332956579
30
0
0
SPLINE
5
2DC
100
AcDbEntity
8
1
62
256
6
ByLayer
370
18
48
1
60
0
100
AcDbSpline
70
4
71
3
72
10
73
6
40
0
40
0
40
0
40
0
40
0.295368028639104
40
0.295368028639104
40
1
40
1
40
1
40
1
41
1
10
25.9012075613025
20
-42.2711743341729
30
0
41
1
10
25.9037070317319
20
-42.3043091619368
30
0
41
1
10
25.9061947558461
20
-42.3374450729443
30
0
41
1
10
25.9145811841695
20
-42.4496283083845
30
0
41
1
10
25.9204280609122
20
-42.5286760657393
30
0
41
1
10
25.9262137915539
20
-42.6077232192247
30
0
0
SPLINE
5
2DD
100
AcDbEntity
8
1
62
256
6
ByLayer
370
18
48
1
60
0
100
AcDbSpline
70
4
71
3
72
8
73
4
40
0
40
0
40
0
40
0
40
1
40
1
40
1
40
1
41
1
10
25.9262137915504
20
-42.6077232191964
30
0
41
1
10
25.9302727470139
20
-42.6631784236245
30
0
41
1
10
25.9340828570203
20
-42.7189092619111
30
0
41
1
10
25.9377587939127
20
-42.7746932712331
30
0
0
SPLINE
5
2DE
100
AcDbEntity
8
1
62
256
6
ByLayer
370
18
48
1
60
0
100
AcDbSpline
70
4
71
3
72
8
73
4
40
0
40
0
40
0
40
0
40
1
40
1
40
1
40
1
41
1
10
25.9377587939137
20
-42.7746932712346
30
0
41
1
10
25.9506357169904
20
-42.9701064184173
30
0
41
1
10
25.963897461953
20
-43.1645212046461
30
0
41
1
10
25.9767277247163
20
-43.3590077290793
30
0
0
SPLINE
5
2DF
100
AcDbEntity
8
1
62
256
6
ByLayer
370
18
48
1
60
0
100
AcDbSpline
70
4
71
3
72
10
73
6
40
0
40
0
40
0
40
0
40
0.295368028639091
40
0.295368028639091
40
1
40
1
40
1
40
1
41
1
10
26.9859611423009
20
-37.6177840533882
30
0
41
1
10
26.9902736999917
20
-37.6431410754012
30
0
41
1
10
26.9945750493683
20
-37.6684968727338
30
0
41
1
10
27.0090980556945
20
-37.7543553345712
30
0
41
1
10
27.0192658628119
20
-37.8148671075675
30
0
41
1
10
27.0293691674336
20
-37.8753926750018
30
0
0
SPLINE
5
2E0
100
AcDbEntity
8
1
62
256
6
ByLayer
370
18
48
1
60
0
100
AcDbSpline
70
4
71
3
72
8
73
4
40
0
40
0
40
0
40
0
40
1
40
1
40
1
40
1
41
1
10
27.0293691674301
20
-37.8753926749734
30
0
41
1
10
27.0364570991073
20
-37.917854137117
30
0
41
1
10
27.0435652852645
20
-37.9594368446446
30
0
41
1
10
27.0506091449856
20
-38.0007730940029
30
0
0
SPLINE
5
2E1
100
AcDbEntity
8
1
62
256
6
ByLayer
370
18
48
1
60
0
100
AcDbSpline
70
4
71
3
72
8
73
4
40
0
40
0
40
0
40
0
40
1
40
1
40
1
40
1
41
1
10
27.050609144986
20
-38.0007730940075
30
0
41
1
10
27.0752840081441
20
-38.1455752815495
30
0
41
1
10
27.0992251615887
20
-38.294177399809
30
0
41
1
10
27.122836535258
20
-38.4424149718675
30
0
0
SPLINE
5
2E2
100
AcDbEntity
8
1
62
256
6
ByLayer
370
18
48
1
60
0
100
AcDbSpline
70
4
71
3
72
22
73
18
40
0
40
0
40
0
40
0
40
0.247648061032073
40
0.247648061032073
40
0.499630853098511
40
0.499630853098511
40
0.554937524732206
40
0.554937524732206
40
0.599939125431662
40
0.599939125431662
40
0.645356331405024
40
0.645356331405024
40
0.695796263471616
40
0.695796263471616
40
0.780049574067142
40
0.780049574067142
40
1
40
1
40
1
40
1
41
1
10
27.1228365352708
20
-38.4424149719374
30
0
41
1
10
27.1240747339228
20
-38.450188664584
30
0
41
1
10
27.1253021406002
20
-38.4577677803695
30
0
41
1
10
27.1276575395155
20
-38.4718000361893
30
0
41
1
10
27.1288734927571
20
-38.4788133519767
30
0
41
1
10
27.1298218087643
20
-38.4832164279301
30
0
41
1
10
27.1299695131065
20
-38.4838199785998
30
0
41
1
10
27.1301329944561
20
-38.4842058550345
30
0
41
1
10
27.1301678913021
20
-38.4841118991709
30
0
41
1
10
27.1301240581616
20
-38.4832208825372
30
0
41
1
10
27.1300421697308
20
-38.4823976354273
30
0
41
1
10
27.1297628668288
20
-38.4800826965574
30
0
41
1
10
27.129552107475
20
-38.4785088811226
30
0
41
1
10
27.1289079803739
20
-38.4739540775328
30
0
41
1
10
27.1284125580393
20
-38.4706714539584
30
0
41
1
10
27.1265419695862
20
-38.4586925155806
30
0
41
1
10
27.1249824002162
20
-38.4493974056928
30
0
41
1
10
27.1233959719837
20
-38.4402574752258
30
0
0
SPLINE
5
2E3
100
AcDbEntity
8
1
62
256
6
ByLayer
370
18
48
1
60
0
100
AcDbSpline
70
4
71
3
72
9
73
5
40
0
40
0
40
0
40
0
40
0.166750579526982
40
1
40
1
40
1
40
1
41
1
10
26.2096704383053
20
-33.352564331214
30
0
41
1
10
26.223047777782
20
-33.3649832100091
30
0
41
1
10
26.2939224268026
20
-33.4409626485252
30
0
41
1
10
26.3020892459798
20
-33.5216637895612
30
0
41
1
10
26.3088942433264
20
-33.5889079685609
30
0
0
SPLINE
5
2E4
100
AcDbEntity
8
1
62
256
6
ByLayer
370
18
48
1
60
0
100
AcDbSpline
70
4
71
2
72
6
73
3
40
0
40
0
40
0
40
1
40
1
40
1
41
1
10
26.110746755466
20
-33.3675790306894
30
0
41
1
10
26.1345654550681
20
-33.2858971833185
30
0
41
1
10
26.0410364342852
20
-33.2050439939451
30
0
0
SPLINE
5
2E5
100
AcDbEntity
8
1
62
256
6
ByLayer
370
18
48
1
60
0
100
AcDbSpline
70
4
71
3
72
10
73
6
40
0
40
0
40
0
40
0
40
0.3334393148019
40
0.666560685198127
40
1
40
1
40
1
40
1
41
1
10
25.4440381088179
20
-37.2989792705563
30
0
41
1
10
25.4083525385515
20
-37.3556273558306
30
0
41
1
10
25.337015425282
20
-37.4688695107276
30
0
41
1
10
24.9891948113091
20
-37.5716544202469
30
0
41
1
10
24.7105490015546
20
-37.5618361615516
30
0
41
1
10
24.5711596407054
20
-37.5569246905864
30
0
0
SPLINE
5
2E6
100
AcDbEntity
8
1
62
256
6
ByLayer
370
18
48
1
60
0
100
AcDbSpline
70
4
71
2
72
7
73
4
40
0
40
0
40
0
40
0.5
40
1
40
1
40
1
41
1
10
24.6130674505254
20
-37.2646567081025
30
0
41
1
10
24.8410048095104
20
-37.2960754864413
30
0
41
1
10
25.2273831611592
20
-37.1831404274014
30
0
41
1
10
25.2458906209575
20
-37.0776503326848
30
0
0
SPLINE
5
2E7
100
AcDbEntity
8
1
62
256
6
ByLayer
370
18
48
1
60
0
100
AcDbSpline
70
4
71
2
72
6
73
3
40
0
40
0
40
0
40
1
40
1
40
1
41
1
10
16.0460154459945
20
-36.1159483008247
30
0
41
1
10
16.1960738594836
20
-36.2074767727153
30
0
41
1
10
16.4158231279567
20
-36.2325381728997
30
0
0
SPLINE
5
2E8
100
AcDbEntity
8
1
62
256
6
ByLayer
370
18
48
1
60
0
100
AcDbSpline
70
4
71
1
72
4
73
2
40
0
40
0
40
1
40
1
41
1
10
16.4158231279567
20
-36.2325381728997
30
0
41
1
10
16.3739153181369
20
-36.5248061553835
30
0
0
SPLINE
5
2E9
100
AcDbEntity
8
1
62
256
6
ByLayer
370
18
48
1
60
0
100
AcDbSpline
70
4
71
1
72
4
73
2
40
0
40
0
40
1
40
1
41
1
10
24.6130674505254
20
-37.2646567081025
30
0
41
1
10
24.5711596407054
20
-37.5569246905864
30
0
0
SPLINE
5
2EA
100
AcDbEntity
8
1
62
256
6
ByLayer
370
18
48
1
60
0
100
AcDbSpline
70
4
71
1
72
4
73
2
40
0
40
0
40
1
40
1
41
1
10
25.2458906209575
20
-37.0776503326848
30
0
41
1
10
25.4440381088179
20
-37.2989792705563
30
0
0
SPLINE
5
2EB
100
AcDbEntity
8
1
62
256
6
ByLayer
370
18
48
1
60
0
100
AcDbSpline
70
4
71
3
72
11
73
7
40
0
40
0
40
0
40
0
40
0.252621746455789
40
0.500000000000004
40
0.747378253544223
40
1
40
1
40
1
40
1
41
1
10
16.3739153181369
20
-36.5248061553835
30
0
41
1
10
16.270907264512
20
-36.504156185967
30
0
41
1
10
16.0670292233891
20
-36.4632848641067
30
0
41
1
10
15.8270168459093
20
-36.3462000193685
30
0
41
1
10
15.6718563547249
20
-36.2077085479526
30
0
41
1
10
15.6690592104295
20
-36.1149136019129
30
0
41
1
10
15.6676459714754
20
-36.0680295592513
30
0
0
SPLINE
5
2EC
100
AcDbEntity
8
1
62
256
6
ByLayer
370
18
48
1
60
0
100
AcDbSpline
70
4
71
1
72
4
73
2
40
0
40
0
40
1
40
1
41
1
10
26.110746755466
20
-33.3675790306894
30
0
41
1
10
26.3088942433264
20
-33.5889079685609
30
0
0
SPLINE
5
2ED
100
AcDbEntity
8
1
62
256
6
ByLayer
370
18
48
1
60
0
100
AcDbSpline
70
4
71
3
72
9
73
5
40
0
40
0
40
0
40
0
40
0.131017155733744
40
1
40
1
40
1
40
1
41
1
10
26.2192798822252
20
-49.7542706242699
30
0
41
1
10
26.2287706125958
20
-49.7635005159794
30
0
41
1
10
26.2942582543885
20
-49.8357321549512
30
0
41
1
10
26.3020892459799
20
-49.9188419540619
30
0
41
1
10
26.3088942433264
20
-49.9910629436795
30
0
0
SPLINE
5
2EE
100
AcDbEntity
8
1
62
256
6
ByLayer
370
18
48
1
60
0
100
AcDbSpline
70
4
71
3
72
26
73
22
40
0
40
0
40
0
40
0
40
0.0286869624045705
40
0.0286869624045705
40
0.14175857707287
40
0.14175857707287
40
0.254859186747111
40
0.254859186747111
40
0.368025661656482
40
0.368025661656482
40
0.481336136143506
40
0.481336136143506
40
0.59498876468132
40
0.59498876468132
40
0.731770501834047
40
0.731770501834047
40
0.814572892185945
40
0.814572892185945
40
0.903908109635053
40
0.903908109635053
40
1
40
1
40
1
40
1
41
1
10
21.1806798334534
20
86.4933279560589
30
0
41
1
10
21.177179349623
20
86.4907758572723
30
0
41
1
10
21.1736542942114
20
86.4882590363632
30
0
41
1
10
21.1561261210025
20
86.4760056124217
30
0
41
1
10
21.1417675069487
20
86.4667816261874
30
0
41
1
10
21.1124174964679
20
86.4495749789091
30
0
41
1
10
21.0973970161992
20
86.4415750359807
30
0
41
1
10
21.0667933992922
20
86.4270060055424
30
0
41
1
10
21.0511720202957
20
86.4204183019551
30
0
41
1
10
21.0194618079431
20
86.4089911301465
30
0
41
1
10
21.0033145146202
20
86.4041304021476
30
0
41
1
10
20.9707417147312
20
86.3966956975457
30
0
41
1
10
20.9542101701983
20
86.3941008304976
30
0
41
1
10
20.9182231871994
20
86.3919494329186
30
0
41
1
10
20.8984183465672
20
86.3930943486455
30
0
41
1
10
20.8691577803
20
86.4006897644895
30
0
41
1
10
20.8585265783946
20
86.4049671428968
30
0
41
1
10
20.839150066541
20
86.4169461197532
30
0
41
1
10
20.8304035604365
20
86.4250877791175
30
0
41
1
10
20.8169281135245
20
86.4446179414184
30
0
41
1
10
20.812333782281
20
86.4564751517374
30
0
41
1
10
20.8101097660808
20
86.4687278411903
30
0
0
SPLINE
5
2EF
100
AcDbEntity
8
1
62
256
6
ByLayer
370
18
48
1
60
0
100
AcDbSpline
70
4
71
3
72
8
73
4
40
0
40
0
40
0
40
0
40
1
40
1
40
1
40
1
41
1
10
19.1332117280021
20
87.8299658309851
30
0
41
1
10
19.1400986875544
20
87.8310234918212
30
0
41
1
10
19.1469866551319
20
87.8320813195957
30
0
41
1
10
19.1538756770287
20
87.833139322005
30
0
0
SPLINE
5
2F0
100
AcDbEntity
8
1
62
256
6
ByLayer
370
18
48
1
60
0
100
AcDbSpline
70
4
71
3
72
8
73
4
40
0
40
0
40
0
40
0
40
1
40
1
40
1
40
1
41
1
10
20.1776282531286
20
86.4191664584981
30
0
41
1
10
20.1743088986112
20
86.4131781507356
30
0
41
1
10
20.1709899161858
20
86.4071909598775
30
0
41
1
10
20.1676712898156
20
86.4012048364372
30
0
0
SPLINE
5
2F1
100
AcDbEntity
8
1
62
256
6
ByLayer
370
18
48
1
60
0
100
AcDbSpline
70
4
71
3
72
30
73
26
40
0
40
0
40
0
40
0
40
0.0754486908212763
40
0.0754486908212763
40
0.134142567439336
40
0.134142567439336
40
0.208789318447153
40
0.208789318447153
40
0.300864837338323
40
0.300864837338323
40
0.400373451416047
40
0.400373451416047
40
0.499841523429575
40
0.499841523429575
40
0.644794997236281
40
0.644794997236281
40
0.711843600985111
40
0.711843600985111
40
0.778927202841179
40
0.778927202841179
40
0.846083321820512
40
0.846083321820512
40
0.913400043300398
40
0.913400043300398
40
1
40
1
40
1
40
1
41
1
10
19.5886949443342
20
86.6825434225266
30
0
41
1
10
19.5951353972559
20
86.6973915619097
30
0
41
1
10
19.5988202513053
20
86.7136468850742
30
0
41
1
10
19.6017641347513
20
86.7429383467135
30
0
41
1
10
19.6018396056446
20
86.7560694654842
30
0
41
1
10
19.5998651543341
20
86.7859102235752
30
0
41
1
10
19.5972282824593
20
86.8027507415936
30
0
41
1
10
19.5887452604738
20
86.8400070420042
30
0
41
1
10
19.5822583936127
20
86.8605007512323
30
0
41
1
10
19.5658957015869
20
86.9022930010442
30
0
41
1
10
19.5557246162089
20
86.9236765538611
30
0
41
1
10
19.5327407422467
20
86.9651353334259
30
0
41
1
10
19.5198555943642
20
86.9853382812959
30
0
41
1
10
19.4854803569246
20
87.0328162110719
30
0
41
1
10
19.462519155406
20
87.0594548247408
30
0
41
1
10
19.4260544533787
20
87.0946540605212
30
0
41
1
10
19.4140157721709
20
87.1053078250687
30
0
41
1
10
19.3891249905813
20
87.1252916631223
30
0
41
1
10
19.3762307214282
20
87.1346559604845
30
0
41
1
10
19.3496827913992
20
87.1517346543441
30
0
41
1
10
19.3359706851226
20
87.1594866715645
30
0
41
1
10
19.3078686086691
20
87.1728341830493
30
0
41
1
10
19.2933849466847
20
87.1784714591891
30
0
41
1
10
19.2599204621169
20
87.1878753882457
30
0
41
1
10
19.2404109303246
20
87.1907745200752
30
0
41
1
10
19.2215044327472
20
87.1896946925133
30
0
0
SPLINE
5
2F2
100
AcDbEntity
8
1
62
256
6
ByLayer
370
18
48
1
60
0
100
AcDbSpline
70
4
71
3
72
8
73
4
40
0
40
0
40
0
40
0
40
1
40
1
40
1
40
1
41
1
10
19.2215044327472
20
87.1896946925133
30
0
41
1
10
19.2145459814376
20
87.1892972668409
30
0
41
1
10
19.2075885977166
20
87.1888998895553
30
0
41
1
10
19.2006322347015
20
87.1885025585593
30
0
0
SPLINE
5
2F3
100
AcDbEntity
8
1
62
256
6
ByLayer
370
18
48
1
60
0
100
AcDbSpline
70
4
71
3
72
26
73
22
40
0
40
0
40
0
40
0
40
0.0286869624046459
40
0.0286869624046459
40
0.141758577072953
40
0.141758577072953
40
0.254859186747214
40
0.254859186747214
40
0.368025661656579
40
0.368025661656579
40
0.481336136143593
40
0.481336136143593
40
0.594988764681338
40
0.594988764681338
40
0.731770501834061
40
0.731770501834061
40
0.814572892185845
40
0.814572892185845
40
0.903908109634989
40
0.903908109634989
40
1
40
1
40
1
40
1
41
1
10
18.9581038689708
20
87.4872865267607
30
0
41
1
10
18.9576497517673
20
87.4916071633405
30
0
41
1
10
18.9572400000846
20
87.4959327052512
30
0
41
1
10
18.9554361862759
20
87.5173163574401
30
0
41
1
10
18.9546859135195
20
87.534444323123
30
0
41
1
10
18.9546273629806
20
87.5686689066174
30
0
41
1
10
18.9553187900488
20
87.5857995270376
30
0
41
1
10
18.958281727436
20
87.6198805485866
30
0
41
1
10
18.9605565052302
20
87.6368736841317
30
0
41
1
10
18.9669301781707
20
87.6704510017537
30
0
41
1
10
18.9710405214532
20
87.6870970836662
30
0
41
1
10
18.9814860267698
20
87.7195684462242
30
0
41
1
10
18.9878579767963
20
87.7354977216704
30
0
41
1
10
19.0049307964474
20
87.7685570890354
30
0
41
1
10
19.0164579112671
20
87.7856736543097
30
0
41
1
10
19.0389404797051
20
87.8082674777377
30
0
41
1
10
19.048511114254
20
87.8157840278433
30
0
41
1
10
19.0698335209087
20
87.8275860841891
30
0
41
1
10
19.0819945226841
20
87.8316734020095
30
0
41
1
10
19.1072229790257
20
87.8348110682485
30
0
41
1
10
19.1206556513047
20
87.833530164996
30
0
41
1
10
19.1332117280021
20
87.8299658309851
30
0
0
SPLINE
5
2F4
100
AcDbEntity
8
1
62
256
6
ByLayer
370
18
48
1
60
0
100
AcDbSpline
70
4
71
3
72
26
73
22
40
0
40
0
40
0
40
0
40
0.034174742958395
40
0.034174742958395
40
0.118717554180441
40
0.118717554180441
40
0.203116442115722
40
0.203116442115722
40
0.327045140901062
40
0.327045140901062
40
0.402980231179104
40
0.402980231179104
40
0.50554722846284
40
0.50554722846284
40
0.60790486912903
40
0.60790486912903
40
0.71016594750803
40
0.71016594750803
40
0.915602886218747
40
0.915602886218747
40
1
40
1
40
1
40
1
41
1
10
19.2006322347015
20
87.1885025585593
30
0
41
1
10
19.1964672832171
20
87.1863021839104
30
0
41
1
10
19.1921560425318
20
87.184367003351
30
0
41
1
10
19.176923210791
20
87.1787841296505
30
0
41
1
10
19.1652081112155
20
87.1767051157759
30
0
41
1
10
19.1418447828081
20
87.1771039570326
30
0
41
1
10
19.1299188310074
20
87.1795771777916
30
0
41
1
10
19.1023120275827
20
87.1901421110266
30
0
41
1
10
19.086891402911
20
87.2004012392256
30
0
41
1
10
19.0650348619722
20
87.2199529571004
30
0
41
1
10
19.0572508954621
20
87.2282262502558
30
0
41
1
10
19.0403175901156
20
87.2487780763249
30
0
41
1
10
19.0315656457008
20
87.2615280249393
30
0
41
1
10
19.0158201477819
20
87.2879902355347
30
0
41
1
10
19.0087819761999
20
87.3017742182413
30
0
41
1
10
18.9961777144622
20
87.3299544628433
30
0
41
1
10
18.9905914314623
20
87.3443966429205
30
0
41
1
10
18.9757504883041
20
87.3883955817593
30
0
41
1
10
18.968370013117
20
87.41872513881
30
0
41
1
10
18.9611580043291
20
87.4619144970455
30
0
41
1
10
18.959439012002
20
87.4745834893641
30
0
41
1
10
18.9581038689708
20
87.4872865267607
30
0
0
SPLINE
5
2F5
100
AcDbEntity
8
1
62
256
6
ByLayer
370
18
48
1
60
0
100
AcDbSpline
70
4
71
3
72
26
73
22
40
0
40
0
40
0
40
0
40
0.036967983939861
40
0.036967983939861
40
0.140366078222994
40
0.140366078222994
40
0.298318733654404
40
0.298318733654404
40
0.500628765508172
40
0.500628765508172
40
0.645354084681067
40
0.645354084681067
40
0.712297154914707
40
0.712297154914707
40
0.779275168169083
40
0.779275168169083
40
0.846325584405812
40
0.846325584405812
40
0.913536350357144
40
0.913536350357144
40
1
40
1
40
1
40
1
41
1
10
21.319847157667
20
86.864494852041
30
0
41
1
10
21.315935122482
20
86.8711190191594
30
0
41
1
10
21.312601362699
20
86.8782189403397
30
0
41
1
10
21.3020125277833
20
86.9060101135692
30
0
41
1
10
21.2980591891477
20
86.9288376796346
30
0
41
1
10
21.2945295361124
20
86.9872479927429
30
0
41
1
10
21.2981806235053
20
87.0243884354123
30
0
41
1
10
21.3146038896457
20
87.1074534461711
30
0
41
1
10
21.3299692636228
20
87.1543722936166
30
0
41
1
10
21.3635859805191
20
87.230213066388
30
0
41
1
10
21.3800535657971
20
87.2609958125405
30
0
41
1
10
21.4070980803259
20
87.3028701359594
30
0
41
1
10
21.4161490981248
20
87.315740517193
30
0
41
1
10
21.4351375852261
20
87.3403362522264
30
0
41
1
10
21.4451071332716
20
87.3521036336106
30
0
41
1
10
21.4659513501245
20
87.3741634428258
30
0
41
1
10
21.4768718383234
20
87.3845044500514
30
0
41
1
10
21.4996462504433
20
87.4031992959607
30
0
41
1
10
21.511576461947
20
87.4116127820735
30
0
41
1
10
21.5397367095107
20
87.4274937314743
30
0
41
1
10
21.5565788891381
20
87.4342135821331
30
0
41
1
10
21.5735709975468
20
87.4369068501005
30
0
0
SPLINE
5
2F6
100
AcDbEntity
8
1
62
256
6
ByLayer
370
18
48
1
60
0
100
AcDbSpline
70
4
71
3
72
30
73
26
40
0
40
0
40
0
40
0
40
0.0754486908212609
40
0.0754486908212609
40
0.134142567439348
40
0.134142567439348
40
0.208789318447175
40
0.208789318447175
40
0.300864837338311
40
0.300864837338311
40
0.400373451416042
40
0.400373451416042
40
0.499841523429535
40
0.499841523429535
40
0.644794997236309
40
0.644794997236309
40
0.711843600985116
40
0.711843600985116
40
0.778927202841212
40
0.778927202841212
40
0.846083321820487
40
0.846083321820487
40
0.913400043300387
40
0.913400043300387
40
1
40
1
40
1
40
1
41
1
10
20.7985426045933
20
86.4844271865744
30
0
41
1
10
20.7893929541339
20
86.4968445075359
30
0
41
1
10
20.7776335899204
20
86.5075982389852
30
0
41
1
10
20.7545232228459
20
86.5238666988333
30
0
41
1
10
20.743516514584
20
86.5301130166696
30
0
41
1
10
20.7173832267007
20
86.5425099023402
30
0
41
1
10
20.7018400924868
20
86.5482303722169
30
0
41
1
10
20.6660606966993
20
86.5586799092493
30
0
41
1
10
20.6454219423275
20
86.5629122285001
30
0
41
1
10
20.6016709008919
20
86.5689540646088
30
0
41
1
10
20.5783306220262
20
86.5705594536789
30
0
41
1
10
20.531334205778
20
86.5709923794063
30
0
41
1
10
20.5075324821218
20
86.5698199406817
30
0
41
1
10
20.4494044053124
20
86.5637104336212
30
0
41
1
10
20.414821658273
20
86.5572738988168
30
0
41
1
10
20.3658584927386
20
86.5437332803397
30
0
41
1
10
20.3505046607529
20
86.5388108104867
30
0
41
1
10
20.3204784035935
20
86.5276713513528
30
0
41
1
10
20.3057547875266
20
86.5214356802375
30
0
41
1
10
20.27729848539
20
86.5075519454189
30
0
41
1
10
20.2635031146077
20
86.4998733539897
30
0
41
1
10
20.2373819323632
20
86.482919874382
30
0
41
1
10
20.2249713176365
20
86.4735871870812
30
0
41
1
10
20.1993742821653
20
86.4502752981609
30
0
41
1
10
20.1866471231829
20
86.4354370223303
30
0
41
1
10
20.1776282531286
20
86.4191664584981
30
0
0
SPLINE
5
2F7
100
AcDbEntity
8
1
62
256
6
ByLayer
370
18
48
1
60
0
100
AcDbSpline
70
4
71
3
72
8
73
4
40
0
40
0
40
0
40
0
40
1
40
1
40
1
40
1
41
1
10
21.5735709975468
20
87.4369068501005
30
0
41
1
10
21.5798248665421
20
87.4378980952499
30
0
41
1
10
21.5860772780148
20
87.438889123386
30
0
41
1
10
21.5923282970732
20
87.4398799441828
30
0
0
SPLINE
5
2F8
100
AcDbEntity
8
1
62
256
6
ByLayer
370
18
48
1
60
0
100
AcDbSpline
70
4
71
3
72
26
73
22
40
0
40
0
40
0
40
0
40
0.0753632465606004
40
0.0753632465606004
40
0.133990653438623
40
0.133990653438623
40
0.208552868369829
40
0.208552868369829
40
0.300524113423261
40
0.300524113423261
40
0.399920035818942
40
0.399920035818942
40
0.499275462063606
40
0.499275462063606
40
0.577746029348541
40
0.577746029348541
40
0.777160361616591
40
0.777160361616591
40
0.91386469565991
40
0.91386469565991
40
1
40
1
40
1
40
1
41
1
10
21.5059422418283
20
88.0803514795922
30
0
41
1
10
21.4909408427146
20
88.0795670015385
30
0
41
1
10
21.4754104041979
20
88.0818130256402
30
0
41
1
10
21.4483887839965
20
88.0892575286279
30
0
41
1
10
21.4365995559228
20
88.093738447796
30
0
41
1
10
21.4103551870133
20
88.1058847298492
30
0
41
1
10
21.3959322268195
20
88.114132360955
30
0
41
1
10
21.3646753651478
20
88.1347849312966
30
0
41
1
10
21.3479290625036
20
88.1477987906276
30
0
41
1
10
21.3145137509376
20
88.1771584820427
30
0
41
1
10
21.2978382232857
20
88.1937998391975
30
0
41
1
10
21.2662441885395
20
88.2289812062803
30
0
41
1
10
21.2512287593495
20
88.2476310293242
30
0
41
1
10
21.226130861677
20
88.2822954072886
30
0
41
1
10
21.2156284155918
20
88.2981074999467
30
0
41
1
10
21.181213492495
20
88.354888055089
30
0
41
1
10
21.160517083922
20
88.3984954376004
30
0
41
1
10
21.1377083105892
20
88.4724867890126
30
0
41
1
10
21.1315756449081
20
88.5034947132409
30
0
41
1
10
21.1309741576391
20
88.5520050621911
30
0
41
1
10
21.1331013755699
20
88.5706789055725
30
0
41
1
10
21.1387517302413
20
88.587502749579
30
0
0
SPLINE
5
2F9
100
AcDbEntity
8
1
62
256
6
ByLayer
370
18
48
1
60
0
100
AcDbSpline
70
4
71
3
72
26
73
22
40
0
40
0
40
0
40
0
40
0.0286988395658775
40
0.0286988395658775
40
0.141769071600764
40
0.141769071600764
40
0.254868298287106
40
0.254868298287106
40
0.368033389403182
40
0.368033389403182
40
0.481342478336051
40
0.481342478336051
40
0.594993717135815
40
0.594993717135815
40
0.731773781728593
40
0.731773781728593
40
0.814575159577648
40
0.814575159577648
40
0.903909284641037
40
0.903909284641037
40
1
40
1
40
1
40
1
41
1
10
21.751389005339
20
87.7808726248977
30
0
41
1
10
21.7509348881354
20
87.7851932614779
30
0
41
1
10
21.7504387101864
20
87.7895097196223
30
0
41
1
10
21.7477804968856
20
87.8108035708063
30
0
41
1
10
21.7450082902264
20
87.8277190226725
30
0
41
1
10
21.738138029402
20
87.8612276665664
30
0
41
1
10
21.7340333274918
20
87.8778541935181
30
0
41
1
10
21.7244075538466
20
87.9106120882209
30
0
41
1
10
21.7188747340567
20
87.9267846121927
30
0
41
1
10
21.7062267584174
20
87.9583626739872
30
0
41
1
10
21.6990883885886
20
87.9738264685103
30
0
41
1
10
21.6829663844404
20
88.0035054733029
30
0
41
1
10
21.6739277938549
20
88.0178150356629
30
0
41
1
10
21.6517180274548
20
88.0467456368617
30
0
41
1
10
21.6378076019007
20
88.0611886089077
30
0
41
1
10
21.612991598768
20
88.0788111521416
30
0
41
1
10
21.6028791810002
20
88.0842589300857
30
0
41
1
10
21.5814316904506
20
88.0915656890935
30
0
41
1
10
21.5697786357876
20
88.0931500487234
30
0
41
1
10
21.5467908603018
20
88.0912199847888
30
0
41
1
10
21.5352075690096
20
88.0873097978156
30
0
41
1
10
21.5249077903739
20
88.0813432166086
30
0
0
SPLINE
5
2FA
100
AcDbEntity
8
1
62
256
6
ByLayer
370
18
48
1
60
0
100
AcDbSpline
70
4
71
3
72
26
73
22
40
0
40
0
40
0
40
0
40
0.0246840387502176
40
0.0246840387502176
40
0.108402719804368
40
0.108402719804368
40
0.192103052547503
40
0.192103052547503
40
0.309485195483523
40
0.309485195483523
40
0.380199874143326
40
0.380199874143326
40
0.476666438094132
40
0.476666438094132
40
0.587023534816806
40
0.587023534816806
40
0.697229101300186
40
0.697229101300186
40
0.807364565734766
40
0.807364565734766
40
1
40
1
40
1
40
1
41
1
10
21.5923282970732
20
87.4398799441828
30
0
41
1
10
21.5952787781552
20
87.4389165256713
30
0
41
1
10
21.598271604695
20
87.4381042475989
30
0
41
1
10
21.6114152860431
20
87.4352971371316
30
0
41
1
10
21.6220501537396
20
87.4350527031572
30
0
41
1
10
21.6426685622243
20
87.4389720227101
30
0
41
1
10
21.6528934448735
20
87.4431883232417
30
0
41
1
10
21.6752429150862
20
87.4574082979768
30
0
41
1
10
21.6869421939404
20
87.4692252626043
30
0
41
1
10
21.702699673463
20
87.4905868899513
30
0
41
1
10
21.7080765141914
20
87.4993203692462
30
0
41
1
10
21.7194699123162
20
87.520799708807
30
0
41
1
10
21.7250647121288
20
87.5339401071337
30
0
41
1
10
21.7352720231057
20
87.5628239169669
30
0
41
1
10
21.7396639914397
20
87.578769748405
30
0
41
1
10
21.7466856094264
20
87.6110545033454
30
0
41
1
10
21.7493300633848
20
87.6274617622117
30
0
41
1
10
21.7531237512557
20
87.6604468283765
30
0
41
1
10
21.754277705072
20
87.6770696513635
30
0
41
1
10
21.7556082169686
20
87.722737707332
30
0
41
1
10
21.7544294878294
20
87.7519443663673
30
0
41
1
10
21.751389005339
20
87.7808726248977
30
0
0
SPLINE
5
2FB
100
AcDbEntity
8
1
62
256
6
ByLayer
370
18
48
1
60
0
100
AcDbSpline
70
4
71
3
72
26
73
22
40
0
40
0
40
0
40
0
40
0.0341747429583145
40
0.0341747429583145
40
0.11871755418038
40
0.11871755418038
40
0.203116442115665
40
0.203116442115665
40
0.327045140900968
40
0.327045140900968
40
0.402980231179038
40
0.402980231179038
40
0.505547228462766
40
0.505547228462766
40
0.607904869128957
40
0.607904869128957
40
0.710165947508006
40
0.710165947508006
40
0.915602886218721
40
0.915602886218721
40
1
40
1
40
1
40
1
41
1
10
21.3298090676518
20
86.8476251654619
30
0
41
1
10
21.3334365693535
20
86.845262761385
30
0
41
1
10
21.3369052763231
20
86.8426422231448
30
0
41
1
10
21.348112881642
20
86.8327413493197
30
0
41
1
10
21.3548822554413
20
86.8239939611346
30
0
41
1
10
21.3645808040592
20
86.8042261239874
30
0
41
1
10
21.367632766732
20
86.7929756369358
30
0
41
1
10
21.3706350341864
20
86.7644652284337
30
0
41
1
10
21.3686526187562
20
86.746319050687
30
0
41
1
10
21.3616068797295
20
86.7180583317983
30
0
41
1
10
21.3579902256903
20
86.7073291101441
30
0
41
1
10
21.3479552534192
20
86.6826971499748
30
0
41
1
10
21.3409630406637
20
86.6688902393156
30
0
41
1
10
21.3253796410127
20
86.6422744633354
30
0
41
1
10
21.3167472312934
20
86.629391754191
30
0
41
1
10
21.2982991057656
20
86.604563559488
30
0
41
1
10
21.2884532686915
20
86.5925778677524
30
0
41
1
10
21.2574711101913
20
86.5579093872694
30
0
41
1
10
21.2348228995132
20
86.5364281787867
30
0
41
1
10
21.2010578521843
20
86.5086441758515
30
0
41
1
10
21.1909715523196
20
86.5008313425919
30
0
41
1
10
21.1806798334534
20
86.4933279560589
30
0
0
SPLINE
5
2FC
100
AcDbEntity
8
1
62
256
6
ByLayer
370
18
48
1
60
0
100
AcDbSpline
70
4
71
3
72
8
73
4
40
0
40
0
40
0
40
0
40
1
40
1
40
1
40
1
41
1
10
20.8101097660808
20
86.4687278411903
30
0
41
1
10
20.806255015107
20
86.4739600122906
30
0
41
1
10
20.8023993095409
20
86.4791931130541
30
0
41
1
10
20.7985426045933
20
86.4844271865744
30
0
0
SPLINE
5
2FD
100
AcDbEntity
8
1
62
256
6
ByLayer
370
18
48
1
60
0
100
AcDbSpline
70
4
71
3
72
8
73
4
40
0
40
0
40
0
40
0
40
1
40
1
40
1
40
1
41
1
10
21.14498854353
20
88.6060749905765
30
0
41
1
10
21.1429102456924
20
88.599885418699
30
0
41
1
10
21.1408313178381
20
88.5936946896186
30
0
41
1
10
21.1387517302413
20
88.587502749579
30
0
0
SPLINE
5
2FE
100
AcDbEntity
8
1
62
256
6
ByLayer
370
18
48
1
60
0
100
AcDbSpline
70
4
71
3
72
30
73
26
40
0
40
0
40
0
40
0
40
0.075448690821117
40
0.075448690821117
40
0.134142567439182
40
0.134142567439182
40
0.208789318447004
40
0.208789318447004
40
0.300864837338219
40
0.300864837338219
40
0.400373451415974
40
0.400373451415974
40
0.49984152342949
40
0.49984152342949
40
0.644794997236242
40
0.644794997236242
40
0.71184360098504
40
0.71184360098504
40
0.778927202841189
40
0.778927202841189
40
0.846083321820498
40
0.846083321820498
40
0.913400043300353
40
0.913400043300353
40
1
40
1
40
1
40
1
41
1
10
19.9289040699822
20
88.7856189855312
30
0
41
1
10
19.9395605577848
20
88.7733600395562
30
0
41
1
10
19.9527601855144
20
88.7627576859023
30
0
41
1
10
19.9782123861003
20
88.7467353626746
30
0
41
1
10
19.9901835133244
20
88.7405904093558
30
0
41
1
10
20.0183434494679
20
88.7284065330007
30
0
41
1
10
20.034913098408
20
88.7227939541693
30
0
41
1
10
20.0727254149369
20
88.7125580857168
30
0
41
1
10
20.0943186998132
20
88.7084260916647
30
0
41
1
10
20.1396846725639
20
88.702553991677
30
0
41
1
10
20.163660949084
20
88.7010154486539
30
0
41
1
10
20.2115044263659
20
88.7006715526287
30
0
41
1
10
20.2355197219823
20
88.7018664386708
30
0
41
1
10
20.2936477987917
20
88.7079759457314
30
0
41
1
10
20.3277771661425
20
88.7143648284102
30
0
41
1
10
20.3754353180328
20
88.7277682844264
30
0
41
1
10
20.3902796028787
20
88.7326371987169
30
0
41
1
10
20.4191023624059
20
88.7436501651526
30
0
41
1
10
20.4331299749811
20
88.7498126833531
30
0
41
1
10
20.4600135600256
20
88.7635311189443
30
0
41
1
10
20.47292869016
20
88.7711171933534
30
0
41
1
10
20.4971114095469
20
88.7878669323049
30
0
41
1
10
20.5084571321698
20
88.7970876949355
30
0
41
1
10
20.5314363967054
20
88.8201244450435
30
0
41
1
10
20.5425252970017
20
88.8347905329476
30
0
41
1
10
20.549818421447
20
88.8508797136074
30
0
0
SPLINE
5
2FF
100
AcDbEntity
8
1
62
256
6
ByLayer
370
18
48
1
60
0
100
AcDbSpline
70
4
71
3
72
26
73
22
40
0
40
0
40
0
40
0
40
0.0286869624046147
40
0.0286869624046147
40
0.141758577072983
40
0.141758577072983
40
0.254859186747166
40
0.254859186747166
40
0.368025661656541
40
0.368025661656541
40
0.48133613614361
40
0.48133613614361
40
0.594988764681315
40
0.594988764681315
40
0.731770501834073
40
0.731770501834073
40
0.814572892185919
40
0.814572892185919
40
0.90390810963505
40
0.90390810963505
40
1
40
1
40
1
40
1
41
1
10
19.7840372652693
20
86.3465349069904
30
0
41
1
10
19.7800826642354
20
86.3483034447836
30
0
41
1
10
19.776146679562
20
86.3501120420166
30
0
41
1
10
19.756803041628
20
86.3592410457033
30
0
41
1
10
19.741666644743
20
86.3671421337265
30
0
41
1
10
19.7121640041593
20
86.3841501817822
30
0
41
1
10
19.6977683149217
20
86.3932738555442
30
0
41
1
10
19.6699485057689
20
86.4127670193716
30
0
41
1
10
19.6564892444692
20
86.4231606102762
30
0
41
1
10
19.6308689379895
20
86.445280930969
30
0
41
1
10
19.6186604541352
20
86.4570482559523
30
0
41
1
10
19.5961099507087
20
86.4820404328653
30
0
41
1
10
19.5856973563841
20
86.495348249911
30
0
41
1
10
19.5661014929636
20
86.5261845701322
30
0
41
1
10
19.5573620030624
20
86.5443975177719
30
0
41
1
10
19.5496476115961
20
86.5744883381068
30
0
41
1
10
19.5481811171921
20
86.5862396019678
30
0
41
1
10
19.5491956340674
20
86.6099227434054
30
0
41
1
10
19.5520641291358
20
86.6220943336143
30
0
41
1
10
19.5626462705413
20
86.644639098966
30
0
41
1
10
19.5708398465229
20
86.6551476384946
30
0
41
1
10
19.5805514815453
20
86.6637707845914
30
0
0
SPLINE
5
300
100
AcDbEntity
8
1
62
256
6
ByLayer
370
18
48
1
60
0
100
AcDbSpline
70
4
71
3
72
8
73
4
40
0
40
0
40
0
40
0
40
1
40
1
40
1
40
1
41
1
10
20.549818421447
20
88.8508797136074
30
0
41
1
10
20.5525026230628
20
88.8568012641099
30
0
41
1
10
20.5551860493834
20
88.8627216553296
30
0
41
1
10
20.5578687352597
20
88.8686409387307
30
0
0
SPLINE
5
301
100
AcDbEntity
8
1
62
256
6
ByLayer
370
18
48
1
60
0
100
AcDbSpline
70
4
71
3
72
8
73
4
40
0
40
0
40
0
40
0
40
1
40
1
40
1
40
1
41
1
10
19.5805514815452
20
86.6637707845914
30
0
41
1
10
19.5832657198767
20
86.6700271965082
30
0
41
1
10
19.5859802038357
20
86.676284725227
30
0
41
1
10
19.5886949443341
20
86.6825434225266
30
0
0
SPLINE
5
302
100
AcDbEntity
8
1
62
256
6
ByLayer
370
18
48
1
60
0
100
AcDbSpline
70
4
71
3
72
26
73
22
40
0
40
0
40
0
40
0
40
0.028686962404563
40
0.028686962404563
40
0.141758577072835
40
0.141758577072835
40
0.254859186747105
40
0.254859186747105
40
0.368025661656493
40
0.368025661656493
40
0.481336136143551
40
0.481336136143551
40
0.594988764681292
40
0.594988764681292
40
0.731770501834103
40
0.731770501834103
40
0.814572892185927
40
0.814572892185927
40
0.903908109635054
40
0.903908109635054
40
1
40
1
40
1
40
1
41
1
10
20.9254556090406
20
88.921624244668
30
0
41
1
10
20.9294102100745
20
88.9198557068749
30
0
41
1
10
20.933348549906
20
88.918047357179
30
0
41
1
10
20.9527154896724
20
88.9089208026136
30
0
41
1
10
20.9679069067071
20
88.9010254974411
30
0
41
1
10
20.9975977064193
20
88.8840372257068
30
0
41
1
10
21.0121266677307
20
88.8749275594041
30
0
41
1
10
21.0403047361497
20
88.8554720501429
30
0
41
1
10
21.0539893176441
20
88.8451021413451
30
0
41
1
10
21.0801771582591
20
88.8230414708936
30
0
41
1
10
21.092728709741
20
88.811310203771
30
0
41
1
10
21.1161256308758
20
88.7864069889438
30
0
41
1
10
21.1270442248368
20
88.773152354603
30
0
41
1
10
21.148003488403
20
88.7424593335114
30
0
41
1
10
21.1576665064813
20
88.7243434525945
30
0
41
1
10
21.1672536852218
20
88.6944494701339
30
0
41
1
10
21.1695320337211
20
88.6827835355768
30
0
41
1
10
21.1703802726973
20
88.6592961776685
30
0
41
1
10
21.1686037788342
20
88.6472393614111
30
0
41
1
10
21.1603633734765
20
88.6249407224359
30
0
41
1
10
21.1534593276028
20
88.6145677179832
30
0
41
1
10
21.1449885435301
20
88.6060749905765
30
0
0
SPLINE
5
303
100
AcDbEntity
8
1
62
256
6
ByLayer
370
18
48
1
60
0
100
AcDbSpline
70
4
71
3
72
26
73
22
40
0
40
0
40
0
40
0
40
0.0341747429583099
40
0.0341747429583099
40
0.118717554180367
40
0.118717554180367
40
0.203116442115646
40
0.203116442115646
40
0.327045140900979
40
0.327045140900979
40
0.402980231179052
40
0.402980231179052
40
0.505547228462666
40
0.505547228462666
40
0.607904869128863
40
0.607904869128863
40
0.710165947507919
40
0.710165947507919
40
0.915602886218638
40
0.915602886218638
40
1
40
1
40
1
40
1
41
1
10
20.5578687352597
20
88.8686409387307
30
0
41
1
10
20.5577344603373
20
88.873133116345
30
0
41
1
10
20.5578991807319
20
88.8776175940939
30
0
41
1
10
20.5595939961477
20
88.8928564055528
30
0
41
1
10
20.5628619311967
20
88.9035064647012
30
0
41
1
10
20.5734066968354
20
88.9225475338903
30
0
41
1
10
20.5808002637189
20
88.931169201535
30
0
41
1
10
20.6021912688855
20
88.9487769211045
30
0
41
1
10
20.6179886804832
20
88.956495212296
30
0
41
1
10
20.6447800424871
20
88.964982346892
30
0
41
1
10
20.6554722805054
20
88.9673638213866
30
0
41
1
10
20.68096807032
20
88.9712891907823
30
0
41
1
10
20.6960080968041
20
88.9722721457099
30
0
41
1
10
20.7261393332996
20
88.9722998318433
30
0
41
1
10
20.7413132139234
20
88.9713463529362
30
0
41
1
10
20.7715268230098
20
88.9679061438981
30
0
41
1
10
20.7866157095082
20
88.9654135802542
30
0
41
1
10
20.8315896513242
20
88.9559938716025
30
0
41
1
10
20.8612882249959
20
88.9471108268448
30
0
41
1
10
20.9020538878015
20
88.9316832532122
30
0
41
1
10
20.9138287471432
20
88.9268238955317
30
0
41
1
10
20.9254556090406
20
88.921624244668
30
0
0
SPLINE
5
304
100
AcDbEntity
8
1
62
256
6
ByLayer
370
18
48
1
60
0
100
AcDbSpline
70
4
71
3
72
8
73
4
40
0
40
0
40
0
40
0
40
1
40
1
40
1
40
1
41
1
10
21.5249077903739
20
88.0813432166086
30
0
41
1
10
21.5185873678526
20
88.0810127256519
30
0
41
1
10
21.5122655402363
20
88.0806821480046
30
0
41
1
10
21.5059422418283
20
88.0803514795922
30
0
0
SPLINE
5
305
100
AcDbEntity
8
1
62
256
6
ByLayer
370
18
48
1
60
0
100
AcDbSpline
70
4
71
3
72
8
73
4
40
0
40
0
40
0
40
0
40
1
40
1
40
1
40
1
41
1
10
19.9154302589946
20
88.8011179339776
30
0
41
1
10
19.9199209504622
20
88.7959526029165
30
0
41
1
10
19.924412212133
20
88.7907863017915
30
0
41
1
10
19.9289040699822
20
88.7856189855312
30
0
0
SPLINE
5
306
100
AcDbEntity
8
1
62
256
6
ByLayer
370
18
48
1
60
0
100
AcDbSpline
70
4
71
3
72
30
73
26
40
0
40
0
40
0
40
0
40
0.0754486908212652
40
0.0754486908212652
40
0.134142567439285
40
0.134142567439285
40
0.208789318447146
40
0.208789318447146
40
0.300864837338294
40
0.300864837338294
40
0.400373451416015
40
0.400373451416015
40
0.499841523429537
40
0.499841523429537
40
0.644794997236287
40
0.644794997236287
40
0.711843600985112
40
0.711843600985112
40
0.778927202841185
40
0.778927202841185
40
0.846083321820487
40
0.846083321820487
40
0.91340004330036
40
0.91340004330036
40
1
40
1
40
1
40
1
41
1
10
19.1538756770287
20
87.833139322005
30
0
41
1
10
19.1702191990814
20
87.8356493279199
30
0
41
1
10
19.1863835491023
20
87.8412266085329
30
0
41
1
10
19.2136087163785
20
87.8543726786341
30
0
41
1
10
19.2251731050149
20
87.8613081618273
30
0
41
1
10
19.2503452657177
20
87.8788585389054
30
0
41
1
10
19.2637647854199
20
87.8900325325698
30
0
41
1
10
19.2920776195926
20
87.916946130238
30
0
41
1
10
19.3067067723557
20
87.9332576828146
30
0
41
1
10
19.334902587423
20
87.9690929645783
30
0
41
1
10
19.3483897797378
20
87.9889045513485
30
0
41
1
10
19.3728258525406
20
88.0299749200371
30
0
41
1
10
19.3838492142943
20
88.0513615302905
30
0
41
1
10
19.4076020536642
20
88.104948967127
30
0
41
1
10
19.4189969093407
20
88.1380002895374
30
0
41
1
10
19.4308428660258
20
88.1866715625646
30
0
41
1
10
19.4339032432339
20
88.2022210191839
30
0
41
1
10
19.4384369699875
20
88.2332810700222
30
0
41
1
10
19.4399183151553
20
88.2488444620423
30
0
41
1
10
19.441040328717
20
88.2797242411068
30
0
41
1
10
19.4406834728987
20
88.2951085912463
30
0
41
1
10
19.437733347261
20
88.3253077120107
30
0
41
1
10
19.4351278539513
20
88.3402217131163
30
0
41
1
10
19.4259515193869
20
88.372799961687
30
0
41
1
10
19.4183500172341
20
88.3904512753838
30
0
41
1
10
19.4075995169064
20
88.4055513200679
30
0
0
SPLINE
5
307
100
AcDbEntity
8
1
62
256
6
ByLayer
370
18
48
1
60
0
100
AcDbSpline
70
4
71
3
72
8
73
4
40
0
40
0
40
0
40
0
40
1
40
1
40
1
40
1
41
1
10
19.4075995169064
20
88.4055513200679
30
0
41
1
10
19.4036428436634
20
88.4111088235281
30
0
41
1
10
19.3996866643154
20
88.4166652372813
30
0
41
1
10
19.3957309574235
20
88.4222206097061
30
0
0
SPLINE
5
308
100
AcDbEntity
8
1
62
256
6
ByLayer
370
18
48
1
60
0
100
AcDbSpline
70
4
71
3
72
26
73
22
40
0
40
0
40
0
40
0
40
0.0286869624047328
40
0.0286869624047328
40
0.141758577072994
40
0.141758577072994
40
0.254859186747188
40
0.254859186747188
40
0.368025661656554
40
0.368025661656554
40
0.481336136143646
40
0.481336136143646
40
0.594988764681358
40
0.594988764681358
40
0.731770501834091
40
0.731770501834091
40
0.814572892185903
40
0.814572892185903
40
0.903908109635046
40
0.903908109635046
40
1
40
1
40
1
40
1
41
1
10
19.5288130408566
20
88.7748311955995
30
0
41
1
10
19.5323135246869
20
88.7773832943862
30
0
41
1
10
19.5358409352567
20
88.7799003628325
30
0
41
1
10
19.553392410298
20
88.7921562358952
30
0
41
1
10
19.5678060445016
20
88.8013860049802
30
0
41
1
10
19.5973442141106
20
88.8186124285797
30
0
41
1
10
19.6124979664532
20
88.8266263789676
30
0
41
1
10
19.6434598426264
20
88.8412330639722
30
0
41
1
10
19.6593065418176
20
88.8478444496662
30
0
41
1
10
19.6915842883055
20
88.8593312717161
30
0
41
1
10
19.7080746492561
20
88.8642280575756
30
0
41
1
10
19.7414938668534
20
88.8717517242635
30
0
41
1
10
19.7585314110227
20
88.8743997740164
30
0
41
1
10
19.7958817941671
20
88.8766944707251
30
0
41
1
10
19.8166101629765
20
88.8756466217209
30
0
41
1
10
19.8477435165179
20
88.8682480437512
30
0
41
1
10
19.8591865725185
20
88.8640559946478
30
0
41
1
10
19.8804258402237
20
88.8522728013206
30
0
41
1
10
19.8902643475333
20
88.8442459159079
30
0
41
1
10
19.9060815304933
20
88.8249618799835
30
0
41
1
10
19.9119653918447
20
88.8132402047403
30
0
41
1
10
19.9154302589946
20
88.8011179339776
30
0
0
SPLINE
5
309
100
AcDbEntity
8
1
62
256
6
ByLayer
370
18
48
1
60
0
100
AcDbSpline
70
4
71
3
72
8
73
4
40
0
40
0
40
0
40
0
40
1
40
1
40
1
40
1
41
1
10
21.3198471576691
20
86.8644948520376
30
0
41
1
10
21.3231686780106
20
86.8588705913174
30
0
41
1
10
21.3264893012538
20
86.8532473779259
30
0
41
1
10
21.3298090676518
20
86.8476251654619
30
0
0
SPLINE
5
30A
100
AcDbEntity
8
1
62
256
6
ByLayer
370
18
48
1
60
0
100
AcDbSpline
70
4
71
3
72
26
73
22
40
0
40
0
40
0
40
0
40
0.0341747429583028
40
0.0341747429583028
40
0.118717554180336
40
0.118717554180336
40
0.203116442115649
40
0.203116442115649
40
0.327045140900969
40
0.327045140900969
40
0.402980231179052
40
0.402980231179052
40
0.505547228462798
40
0.505547228462798
40
0.607904869128969
40
0.607904869128969
40
0.710165947508046
40
0.710165947508046
40
0.915602886218749
40
0.915602886218749
40
1
40
1
40
1
40
1
41
1
10
19.3957309574235
20
88.4222206097061
30
0
41
1
10
19.3916556392517
20
88.4245359463753
30
0
41
1
10
19.3877350567348
20
88.4271089905816
30
0
41
1
10
19.3749738440784
20
88.4368465736956
30
0
41
1
10
19.3670859431277
20
88.4454763999399
30
0
41
1
10
19.355307385076
20
88.4650256192861
30
0
41
1
10
19.3512684742403
20
88.4761723739058
30
0
41
1
10
19.3461238529167
20
88.5044576119428
30
0
41
1
10
19.347035849344
20
88.5224912841188
30
0
41
1
10
19.3526743097296
20
88.5506040920622
30
0
41
1
10
19.3558187087482
20
88.5612836777136
30
0
41
1
10
19.3648720224841
20
88.5858124614132
30
0
41
1
10
19.371394814782
20
88.5995700339942
30
0
41
1
10
19.3861797737168
20
88.6261018904735
30
0
41
1
10
19.3944810496511
20
88.6389497960547
30
0
41
1
10
19.4123699897261
20
88.6637192179983
30
0
41
1
10
19.4219870044165
20
88.6756808595322
30
0
41
1
10
19.4524030563551
20
88.7102898398181
30
0
41
1
10
19.4748311922375
20
88.7317479175077
30
0
41
1
10
19.5084553106922
20
88.7595171082213
30
0
41
1
10
19.5185213219902
20
88.7673278090666
30
0
41
1
10
19.5288130408566
20
88.7748311955995
30
0
0
SPLINE
5
30B
100
AcDbEntity
8
1
62
256
6
ByLayer
370
18
48
1
60
0
100
AcDbSpline
70
4
71
3
72
26
73
22
40
0
40
0
40
0
40
0
40
0.0341747429582914
40
0.0341747429582914
40
0.118717554180362
40
0.118717554180362
40
0.203116442115665
40
0.203116442115665
40
0.327045140900951
40
0.327045140900951
40
0.402980231179096
40
0.402980231179096
40
0.505547228462749
40
0.505547228462749
40
0.607904869128971
40
0.607904869128971
40
0.71016594750803
40
0.71016594750803
40
0.915602886218714
40
0.915602886218714
40
1
40
1
40
1
40
1
41
1
10
20.1676712898156
20
86.4012048364372
30
0
41
1
10
20.1673577482679
20
86.3966655914152
30
0
41
1
10
20.166741152326
20
86.3921336196326
30
0
41
1
10
20.1634927295727
20
86.3767315174625
30
0
41
1
10
20.1591062673723
20
86.3659638963733
30
0
41
1
10
20.1464814922998
20
86.3467042093832
30
0
41
1
10
20.1381009772533
20
86.3379788093066
30
0
41
1
10
20.1145676182175
20
86.320145919272
30
0
41
1
10
20.097699787617
20
86.3123151225098
30
0
41
1
10
20.0695011469721
20
86.3036800769685
30
0
41
1
10
20.0583366539332
20
86.3012489664711
30
0
41
1
10
20.0318592055832
20
86.2972204206058
30
0
41
1
10
20.0163497586416
20
86.2961881276
30
0
41
1
10
19.9854200814299
20
86.2960765219656
30
0
41
1
10
19.9699150670211
20
86.2969951973095
30
0
41
1
10
19.9391422724819
20
86.3003766335882
30
0
41
1
10
19.9238245635999
20
86.3028451470305
30
0
41
1
10
19.8782845152222
20
86.3122053554849
30
0
41
1
10
19.8483658667549
20
86.3210652694495
30
0
41
1
10
19.8074592750751
20
86.3364780308606
30
0
41
1
10
19.7956641271667
20
86.3413352561267
30
0
41
1
10
19.7840372652693
20
86.3465349069904
30
0
0
SPLINE
5
30C
100
AcDbEntity
8
1
62
256
6
ByLayer
370
18
48
1
60
0
100
AcDbSpline
70
4
71
3
72
12
73
8
40
0
40
0
40
0
40
0
40
0.196826480578012
40
0.196826480578012
40
0.442758293472523
40
0.442758293472523
40
1
40
1
40
1
40
1
41
1
10
17.3469885296689
20
80.7297716653173
30
0
41
1
10
17.3524906670834
20
80.7313153839157
30
0
41
1
10
17.3642883645766
20
80.7380559069949
30
0
41
1
10
17.4008122015197
20
80.7626457730528
30
0
41
1
10
17.4282588286023
20
80.7830380882946
30
0
41
1
10
17.5259777762948
20
80.8625291498743
30
0
41
1
10
17.6085092872726
20
80.9397842988407
30
0
41
1
10
17.6863166069614
20
81.029045397525
30
0
0
SPLINE
5
30D
100
AcDbEntity
8
1
62
256
6
ByLayer
370
18
48
1
60
0
100
AcDbSpline
70
4
71
3
72
14
73
10
40
0
40
0
40
0
40
0
40
0.123978615721112
40
0.123978615721112
40
0.615825371669666
40
0.615825371669666
40
0.93264265841913
40
0.93264265841913
40
1
40
1
40
1
40
1
41
1
10
14.3989417438693
20
83.921112683077
30
0
41
1
10
14.3874231421862
20
83.9082741480561
30
0
41
1
10
14.3762787197078
20
83.8956438745521
30
0
41
1
10
14.3233757915991
20
83.8348961737054
30
0
41
1
10
14.2867251464314
20
83.7900296518174
30
0
41
1
10
14.2409539900871
20
83.7362241619606
30
0
41
1
10
14.2264307428823
20
83.7200334660089
30
0
41
1
10
14.2147514366783
20
83.7099967186257
30
0
41
1
10
14.2129087870005
20
83.708577067858
30
0
41
1
10
14.2112906622322
20
83.7075214325258
30
0
0
LINE
5
70
100
AcDbEntity
8
4
62
256
6
ByLayer
370
13
48
0.05
60
0
100
AcDbLine
10
0
20
0
30
0
11
26
21
0
31
0
39
0
210
0
220
0
230
1
0
LINE
5
72
100
AcDbEntity
8
SK4
62
256
6
ByLayer
370
13
48
0.05
60
0
100
AcDbLine
10
29.933316
20
0
30
0
11
-21.612869
21
0
31
0
39
0
210
0
220
0
230
1
0
LINE
5
74
100
AcDbEntity
8
1
62
256
6
ByLayer
370
13
48
0.05
60
0
100
AcDbLine
10
27.23625
20
-82.737868
30
0
11
26.07473
21
-93.788996
31
0
39
0
210
0
220
0
230
1
0
LINE
5
76
100
AcDbEntity
8
1
62
256
6
ByLayer
370
13
48
0.05
60
0
100
AcDbLine
10
25.202084
20
-94.49565
30
0
11
14.150956
21
-93.33413
31
0
39
0
210
0
220
0
230
1
0
LINE
5
77
100
AcDbEntity
8
81
62
256
6
ByLayer
370
13
48
1
60
0
100
AcDbLine
10
26
20
0
30
0
11
33
21
0
31
0
39
0
210
0
220
0
230
1
0
LINE
5
78
100
AcDbEntity
8
80
62
256
6
ByLayer
370
13
48
1
60
0
100
AcDbLine
10
0
20
0
30
0
11
-25
21
0
31
0
39
0
210
0
220
0
230
1
0
LINE
5
79
100
AcDbEntity
8
1
62
256
6
ByLayer
370
18
48
1
60
1
100
AcDbLine
10
0
20
0
30
0
11
0
21
841
31
0
39
0
210
0
220
0
230
1
0
LINE
5
7A
100
AcDbEntity
8
1
62
256
6
ByLayer
370
18
48
1
60
1
100
AcDbLine
10
1189
20
841
30
0
11
0
21
841
31
0
39
0
210
0
220
0
230
1
0
LINE
5
7B
100
AcDbEntity
8
1
62
256
6
ByLayer
370
18
48
1
60
1
100
AcDbLine
10
1189
20
841
30
0
11
1189
21
0
31
0
39
0
210
0
220
0
230
1
0
LINE
5
7C
100
AcDbEntity
8
1
62
256
6
ByLayer
370
18
48
1
60
1
100
AcDbLine
10
0
20
0
30
0
11
1189
21
0
31
0
39
0
210
0
220
0
230
1
0
LINE
5
7D
100
AcDbEntity
8
1
62
256
6
ByLayer
370
18
48
1
60
0
100
AcDbLine
10
15.161592
20
-38.603906
30
0
11
15.144085
21
-38.782669
31
0
39
0
210
0
220
0
230
1
0
LINE
5
7E
100
AcDbEntity
8
1
62
256
6
ByLayer
370
18
48
1
60
0
100
AcDbLine
10
26.338465
20
-35.906763
30
0
11
26.31327
21
-33.546286
31
0
39
0
210
0
220
0
230
1
0
LINE
5
7F
100
AcDbEntity
8
1
62
256
6
ByLayer
370
18
48
1
60
0
100
AcDbLine
10
26.320044
20
-36.106561
30
0
11
26.33755
21
-35.927798
31
0
39
0
210
0
220
0
230
1
0
LINE
5
80
100
AcDbEntity
8
1
62
256
6
ByLayer
370
18
48
1
60
0
100
AcDbLine
10
27.125747
20
-38.453343
30
0
11
26.837956
21
-36.578739
31
0
39
0
210
0
220
0
230
1
0
LINE
5
81
100
AcDbEntity
8
1
62
256
6
ByLayer
370
18
48
1
60
0
100
AcDbLine
10
27.225563
20
-39.283915
30
0
11
27.129924
21
-38.481416
31
0
39
0
210
0
220
0
230
1
0
LINE
5
82
100
AcDbEntity
8
1
62
256
6
ByLayer
370
18
48
1
60
0
100
AcDbLine
10
20.611499
20
85.247845
30
0
11
20.683625
21
85.255426
31
0
39
0
210
0
220
0
230
1
0
LINE
5
83
100
AcDbEntity
8
1
62
256
6
ByLayer
370
18
48
1
60
0
100
AcDbLine
10
20.181889
20
90.029131
30
0
11
20.109762
21
90.021551
31
0
39
0
210
0
220
0
230
1
0
LINE
5
84
100
AcDbEntity
8
1
62
256
6
ByLayer
370
18
48
1
60
0
100
AcDbLine
10
20.259221
20
88.704358
30
0
11
20.359457
21
88.714893
31
0
39
0
210
0
220
0
230
1
0
LINE
5
85
100
AcDbEntity
8
1
62
256
6
ByLayer
370
18
48
1
60
0
100
AcDbLine
10
20.584068
20
86.577864
30
0
11
20.483831
21
86.567329
31
0
39
0
210
0
220
0
230
1
0
LINE
5
86
100
AcDbEntity
8
1
62
256
6
ByLayer
370
18
48
1
60
0
100
AcDbLine
10
-10.045301
20
-37.68611
30
0
11
-10.045301
21
-38.029867
31
0
39
0
210
0
220
0
230
1
0
LINE
5
87
100
AcDbEntity
8
1
62
256
6
ByLayer
370
18
48
1
60
0
100
AcDbLine
10
26.313269
20
-49.950236
30
0
11
26.338466
21
-47.502431
31
0
39
0
210
0
220
0
230
1
0
LINE
5
88
100
AcDbEntity
8
1
62
256
6
ByLayer
370
18
48
1
60
0
100
AcDbLine
10
26.337396
20
-47.479345
30
0
11
26.319622
21
-47.307199
31
0
39
0
210
0
220
0
230
1
0
LINE
5
89
100
AcDbEntity
8
1
62
256
6
ByLayer
370
18
48
1
60
0
100
AcDbLine
10
26.838133
20
-46.367179
30
0
11
27.029251
21
-44.931421
31
0
39
0
210
0
220
0
230
1
0
LINE
5
8A
100
AcDbEntity
8
1
62
256
6
ByLayer
370
18
48
1
60
0
100
AcDbLine
10
-13.033428
20
-36.760517
30
0
11
-12.522929
21
-37.110815
31
0
39
0
210
0
220
0
230
1
0
LINE
5
8B
100
AcDbEntity
8
1
62
256
6
ByLayer
370
18
48
1
60
0
100
AcDbLine
10
-12.522929
20
-37.110815
30
0
11
-11.680306
21
-36.800074
31
0
39
0
210
0
220
0
230
1
0
LINE
5
8C
100
AcDbEntity
8
1
62
256
6
ByLayer
370
18
48
1
60
0
100
AcDbLine
10
-12.522929
20
-37.110815
30
0
11
-12.522929
21
-36.712605
31
0
39
0
210
0
220
0
230
1
0
LINE
5
8D
100
AcDbEntity
8
1
62
256
6
ByLayer
370
18
48
1
60
0
100
AcDbLine
10
27.225099
20
-43.394946
30
0
11
27.122837
21
-44.207647
31
0
39
0
210
0
220
0
230
1
0
LINE
5
8E
100
AcDbEntity
8
1
62
256
6
ByLayer
370
18
48
1
60
0
100
AcDbLine
10
27.220224
20
-43.334409
30
0
11
27.123396
21
-44.139653
31
0
39
0
210
0
220
0
230
1
0
LINE
5
8F
100
AcDbEntity
8
1
62
256
6
ByLayer
370
18
48
1
60
0
100
AcDbLine
10
27.029251
20
-44.931426
30
0
11
27.029369
21
-44.930537
31
0
39
0
210
0
220
0
230
1
0
LINE
5
90
100
AcDbEntity
8
1
62
256
6
ByLayer
370
18
48
1
60
0
100
AcDbLine
10
26.321304
20
-44.858453
30
0
11
26.232537
21
-43.594253
31
0
39
0
210
0
220
0
230
1
0
LINE
5
91
100
AcDbEntity
8
1
62
256
6
ByLayer
370
18
48
1
60
0
100
AcDbLine
10
26.386787
20
-44.54844
30
0
11
26.301371
21
-43.29897
31
0
39
0
210
0
220
0
230
1
0
LINE
5
92
100
AcDbEntity
8
1
62
256
6
ByLayer
370
18
48
1
60
0
100
AcDbLine
10
26.541688
20
-43.86208
30
0
11
26.484406
21
-42.954509
31
0
39
0
210
0
220
0
230
1
0
LINE
5
93
100
AcDbEntity
8
1
62
256
6
ByLayer
370
18
48
1
60
0
100
AcDbLine
10
26.59358
20
-42.961789
30
0
11
26.60951
21
-43.834082
31
0
39
0
210
0
220
0
230
1
0
LINE
5
94
100
AcDbEntity
8
1
62
256
6
ByLayer
370
18
48
1
60
0
100
AcDbLine
10
26.2047
20
-45.734431
30
0
11
26.27127
21
-45.23433
31
0
39
0
210
0
220
0
230
1
0
LINE
5
95
100
AcDbEntity
8
1
62
256
6
ByLayer
370
18
48
1
60
0
100
AcDbLine
10
26.27127
20
-45.23433
30
0
11
26.321304
21
-44.858453
31
0
39
0
210
0
220
0
230
1
0
LINE
5
96
100
AcDbEntity
8
1
62
256
6
ByLayer
370
18
48
1
60
0
100
AcDbLine
10
26.27127
20
-45.23433
30
0
11
26.204642
21
-45.235416
31
0
39
0
210
0
220
0
230
1
0
LINE
5
97
100
AcDbEntity
8
1
62
256
6
ByLayer
370
18
48
1
60
0
100
AcDbLine
10
26.421991
20
-44.396037
30
0
11
26.338586
21
-43.139306
31
0
39
0
210
0
220
0
230
1
0
LINE
5
98
100
AcDbEntity
8
1
62
256
6
ByLayer
370
18
48
1
60
0
100
AcDbLine
10
26.322547
20
-49.047855
30
0
11
26.836084
21
-46.37961
31
0
39
0
210
0
220
0
230
1
0
LINE
5
99
100
AcDbEntity
8
1
62
256
6
ByLayer
370
18
48
1
60
0
100
AcDbLine
10
26.47092
20
-46.737476
30
0
11
26.334153
21
-47.44809
31
0
39
0
210
0
220
0
230
1
0
LINE
5
9A
100
AcDbEntity
8
1
62
256
6
ByLayer
370
18
48
1
60
0
100
AcDbLine
10
23.130959
20
91.096527
30
0
11
23.46852
21
91.132006
31
0
39
0
210
0
220
0
230
1
0
LINE
5
9B
100
AcDbEntity
8
1
62
256
6
ByLayer
370
18
48
1
60
0
100
AcDbLine
10
15.767464
20
80.788176
30
0
11
15.754937
21
80.927471
31
0
39
0
210
0
220
0
230
1
0
LINE
5
9C
100
AcDbEntity
8
1
62
256
6
ByLayer
370
18
48
1
60
0
100
AcDbLine
10
14.666283
20
81.727315
30
0
11
14.804186
21
81.743089
31
0
39
0
210
0
220
0
230
1
0
LINE
5
9D
100
AcDbEntity
8
1
62
256
6
ByLayer
370
18
48
1
60
0
100
AcDbLine
10
19.438793
20
91.036655
30
0
11
16.862875
21
90.765915
31
0
39
0
210
0
220
0
230
1
0
LINE
5
9E
100
AcDbEntity
8
1
62
256
6
ByLayer
370
18
48
1
60
0
100
AcDbLine
10
27.199096
20
83.136073
30
0
11
26.114342
21
93.456814
31
0
39
0
210
0
220
0
230
1
0
LINE
5
9F
100
AcDbEntity
8
1
62
256
6
ByLayer
370
18
48
1
60
0
100
AcDbLine
10
24.208268
20
94.263331
30
0
11
24.87851
21
94.333777
31
0
39
0
210
0
220
0
230
1
0
LINE
5
A0
100
AcDbEntity
8
1
62
256
6
ByLayer
370
18
48
1
60
0
100
AcDbLine
10
24.86442
20
94.472933
30
0
11
24.87851
21
94.333777
31
0
39
0
210
0
220
0
230
1
0
LINE
5
A1
100
AcDbEntity
8
1
62
256
6
ByLayer
370
18
48
1
60
0
100
AcDbLine
10
24.954625
20
94.481997
30
0
11
24.967454
21
94.342714
31
0
39
0
210
0
220
0
230
1
0
LINE
5
A2
100
AcDbEntity
8
1
62
256
6
ByLayer
370
18
48
1
60
0
100
AcDbLine
10
25.003238
20
94.486417
30
0
11
25.014707
21
94.34701
31
0
39
0
210
0
220
0
230
1
0
LINE
5
A3
100
AcDbEntity
8
1
62
256
6
ByLayer
370
18
48
1
60
0
100
AcDbLine
10
25.162206
20
94.498796
30
0
11
25.171452
21
94.359216
31
0
39
0
210
0
220
0
230
1
0
LINE
5
A4
100
AcDbEntity
8
1
62
256
6
ByLayer
370
18
48
1
60
0
100
AcDbLine
10
20.156932
20
84.241531
30
0
11
17.581015
21
83.970791
31
0
39
0
210
0
220
0
230
1
0
LINE
5
A5
100
AcDbEntity
8
1
62
256
6
ByLayer
370
18
48
1
60
0
100
AcDbLine
10
25.274878
20
94.493813
30
0
11
25.252605
21
94.355627
31
0
39
0
210
0
220
0
230
1
0
LINE
5
A6
100
AcDbEntity
8
1
62
256
6
ByLayer
370
18
48
1
60
0
100
AcDbLine
10
26.049348
20
93.864212
30
0
11
25.918753
21
93.814086
31
0
39
0
210
0
220
0
230
1
0
LINE
5
A7
100
AcDbEntity
8
1
62
256
6
ByLayer
370
18
48
1
60
0
100
AcDbLine
10
26.077628
20
93.754608
30
0
11
25.939122
21
93.735142
31
0
39
0
210
0
220
0
230
1
0
LINE
5
A8
100
AcDbEntity
8
1
62
256
6
ByLayer
370
18
48
1
60
0
100
AcDbLine
10
23.740294
20
88.546249
30
0
11
23.618973
21
88.533498
31
0
39
0
210
0
220
0
230
1
0
LINE
5
A9
100
AcDbEntity
8
1
62
256
6
ByLayer
370
18
48
1
60
0
100
AcDbLine
10
26.098618
20
93.595933
30
0
11
25.959819
21
93.578686
31
0
39
0
210
0
220
0
230
1
0
LINE
5
AA
100
AcDbEntity
8
1
62
256
6
ByLayer
370
18
48
1
60
0
100
AcDbLine
10
24.006415
20
84.84723
30
0
11
24.127736
21
84.859981
31
0
39
0
210
0
220
0
230
1
0
LINE
5
AB
100
AcDbEntity
8
1
62
256
6
ByLayer
370
18
48
1
60
0
100
AcDbLine
10
26.104419
20
93.547277
30
0
11
25.965458
21
93.531392
31
0
39
0
210
0
220
0
230
1
0
LINE
5
AC
100
AcDbEntity
8
1
62
256
6
ByLayer
370
18
48
1
60
0
100
AcDbLine
10
26.114342
20
93.456814
30
0
11
25.975242
21
93.442194
31
0
39
0
210
0
220
0
230
1
0
LINE
5
AD
100
AcDbEntity
8
1
62
256
6
ByLayer
370
18
48
1
60
0
100
AcDbLine
10
25.975242
20
93.442194
30
0
11
26.045956
21
92.769391
31
0
39
0
210
0
220
0
230
1
0
LINE
5
AE
100
AcDbEntity
8
1
62
256
6
ByLayer
370
18
48
1
60
0
100
AcDbLine
10
15.608496
20
80.775797
30
0
11
15.598192
21
80.915265
31
0
39
0
210
0
220
0
230
1
0
LINE
5
AF
100
AcDbEntity
8
1
62
256
6
ByLayer
370
18
48
1
60
0
100
AcDbLine
10
14.65636
20
81.817778
30
0
11
14.794402
21
81.832287
31
0
39
0
210
0
220
0
230
1
0
LINE
5
B0
100
AcDbEntity
8
1
62
256
6
ByLayer
370
18
48
1
60
0
100
AcDbLine
10
23.855962
20
87.445738
30
0
11
23.734641
21
87.432987
31
0
39
0
210
0
220
0
230
1
0
LINE
5
B1
100
AcDbEntity
8
1
62
256
6
ByLayer
370
18
48
1
60
0
100
AcDbLine
10
17.090188
20
86.734626
30
0
11
16.961066
21
86.721055
31
0
39
0
210
0
220
0
230
1
0
LINE
5
B2
100
AcDbEntity
8
1
62
256
6
ByLayer
370
18
48
1
60
0
100
AcDbLine
10
17.361962
20
84.148869
30
0
11
17.090188
21
86.734626
31
0
39
0
210
0
220
0
230
1
0
LINE
5
B3
100
AcDbEntity
8
1
62
256
6
ByLayer
370
18
48
1
60
0
100
AcDbLine
10
23.111033
20
91.422623
30
0
11
20.535116
21
91.151883
31
0
39
0
210
0
220
0
230
1
0
LINE
5
B4
100
AcDbEntity
8
1
62
256
6
ByLayer
370
18
48
1
60
0
100
AcDbLine
10
24.127736
20
84.859981
30
0
11
23.855962
21
87.445738
31
0
39
0
210
0
220
0
230
1
0
LINE
5
B5
100
AcDbEntity
8
1
62
256
6
ByLayer
370
18
48
1
60
0
100
AcDbLine
10
23.740294
20
88.546249
30
0
11
23.46852
21
91.132006
31
0
39
0
210
0
220
0
230
1
0
LINE
5
B6
100
AcDbEntity
8
1
62
256
6
ByLayer
370
18
48
1
60
0
100
AcDbLine
10
16.573623
20
90.407323
30
0
11
16.845397
21
87.821566
31
0
39
0
210
0
220
0
230
1
0
LINE
5
B7
100
AcDbEntity
8
1
62
256
6
ByLayer
370
18
48
1
60
0
100
AcDbLine
10
24.86442
20
94.472933
30
0
11
14.582952
21
93.392307
31
0
39
0
210
0
220
0
230
1
0
LINE
5
B8
100
AcDbEntity
8
1
62
256
6
ByLayer
370
18
48
1
60
0
100
AcDbLine
10
13.780363
20
91.480226
30
0
11
13.709648
21
92.153028
31
0
39
0
210
0
220
0
230
1
0
LINE
5
B9
100
AcDbEntity
8
1
62
256
6
ByLayer
370
18
48
1
60
0
100
AcDbLine
10
13.571606
20
92.138519
30
0
11
13.709648
21
92.153028
31
0
39
0
210
0
220
0
230
1
0
LINE
5
BA
100
AcDbEntity
8
1
62
256
6
ByLayer
370
18
48
1
60
0
100
AcDbLine
10
13.562504
20
92.229069
30
0
11
13.700673
21
92.242311
31
0
39
0
210
0
220
0
230
1
0
LINE
5
BB
100
AcDbEntity
8
1
62
256
6
ByLayer
370
18
48
1
60
0
100
AcDbLine
10
21.262567
20
84.230649
30
0
11
23.838484
21
84.501389
31
0
39
0
210
0
220
0
230
1
0
LINE
5
BC
100
AcDbEntity
8
1
62
256
6
ByLayer
370
18
48
1
60
0
100
AcDbLine
10
15.906283
20
80.80166
30
0
11
26.18775
21
81.882286
31
0
39
0
210
0
220
0
230
1
0
LINE
5
BD
100
AcDbEntity
8
1
62
256
6
ByLayer
370
18
48
1
60
0
100
AcDbLine
10
26.989281
20
83.794256
30
0
11
27.059995
21
83.121453
31
0
39
0
210
0
220
0
230
1
0
LINE
5
BE
100
AcDbEntity
8
1
62
256
6
ByLayer
370
18
48
1
60
0
100
AcDbLine
10
27.199096
20
83.136073
30
0
11
27.059995
21
83.121453
31
0
39
0
210
0
220
0
230
1
0
LINE
5
BF
100
AcDbEntity
8
1
62
256
6
ByLayer
370
18
48
1
60
0
100
AcDbLine
10
27.208198
20
83.045524
30
0
11
27.06897
21
83.03217
31
0
39
0
210
0
220
0
230
1
0
LINE
5
C0
100
AcDbEntity
8
1
62
256
6
ByLayer
370
18
48
1
60
0
100
AcDbLine
10
14.794402
20
81.832287
30
0
11
14.723687
21
82.50509
31
0
39
0
210
0
220
0
230
1
0
LINE
5
C1
100
AcDbEntity
8
1
62
256
6
ByLayer
370
18
48
1
60
0
100
AcDbLine
10
27.21264
20
82.996726
30
0
11
27.073288
21
82.984737
31
0
39
0
210
0
220
0
230
1
0
LINE
5
C2
100
AcDbEntity
8
1
62
256
6
ByLayer
370
18
48
1
60
0
100
AcDbLine
10
26.277869
20
81.892174
30
0
11
26.261459
21
82.03108
31
0
39
0
210
0
220
0
230
1
0
LINE
5
C3
100
AcDbEntity
8
1
62
256
6
ByLayer
370
18
48
1
60
0
100
AcDbLine
10
27.225099
20
82.837154
30
0
11
27.085572
21
82.827397
31
0
39
0
210
0
220
0
230
1
0
LINE
5
C4
100
AcDbEntity
8
1
62
256
6
ByLayer
370
18
48
1
60
0
100
AcDbLine
10
27.220224
20
82.724065
30
0
11
27.082061
21
82.745943
31
0
39
0
210
0
220
0
230
1
0
LINE
5
C5
100
AcDbEntity
8
1
62
256
6
ByLayer
370
18
48
1
60
0
100
AcDbLine
10
19.455905
20
90.911365
30
0
11
16.879987
21
90.640625
31
0
39
0
210
0
220
0
230
1
0
LINE
5
C6
100
AcDbEntity
8
1
62
256
6
ByLayer
370
18
48
1
60
0
100
AcDbLine
10
26.59358
20
81.9472
30
0
11
26.543064
21
82.077736
31
0
39
0
210
0
220
0
230
1
0
LINE
5
C7
100
AcDbEntity
8
1
62
256
6
ByLayer
370
18
48
1
60
0
100
AcDbLine
10
26.484406
20
81.918901
30
0
11
26.46443
21
82.057353
31
0
39
0
210
0
220
0
230
1
0
LINE
5
C8
100
AcDbEntity
8
1
62
256
6
ByLayer
370
18
48
1
60
0
100
AcDbLine
10
17.361962
20
84.148869
30
0
11
17.23284
21
84.135298
31
0
39
0
210
0
220
0
230
1
0
LINE
5
C9
100
AcDbEntity
8
1
62
256
6
ByLayer
370
18
48
1
60
0
100
AcDbLine
10
26.326338
20
81.897958
30
0
11
26.308573
21
82.036703
31
0
39
0
210
0
220
0
230
1
0
LINE
5
CA
100
AcDbEntity
8
1
62
256
6
ByLayer
370
18
48
1
60
0
100
AcDbLine
10
26.18775
20
81.882286
30
0
11
26.172601
21
82.02133
31
0
39
0
210
0
220
0
230
1
0
LINE
5
CB
100
AcDbEntity
8
1
62
256
6
ByLayer
370
18
48
1
60
0
100
AcDbLine
10
23.128146
20
91.297333
30
0
11
20.552228
21
91.026593
31
0
39
0
210
0
220
0
230
1
0
LINE
5
CC
100
AcDbEntity
8
1
62
256
6
ByLayer
370
18
48
1
60
0
100
AcDbLine
10
26.172601
20
82.02133
30
0
11
25.502358
21
81.950885
31
0
39
0
210
0
220
0
230
1
0
LINE
5
CD
100
AcDbEntity
8
1
62
256
6
ByLayer
370
18
48
1
60
0
100
AcDbLine
10
15.495825
20
80.780779
30
0
11
15.517038
21
80.918854
31
0
39
0
210
0
220
0
230
1
0
LINE
5
CE
100
AcDbEntity
8
1
62
256
6
ByLayer
370
18
48
1
60
0
100
AcDbLine
10
13.571606
20
92.138519
30
0
11
14.65636
21
81.817778
31
0
39
0
210
0
220
0
230
1
0
LINE
5
CF
100
AcDbEntity
8
1
62
256
6
ByLayer
370
18
48
1
60
0
100
AcDbLine
10
16.702745
20
90.420895
30
0
11
16.974519
21
87.835138
31
0
39
0
210
0
220
0
230
1
0
LINE
5
D0
100
AcDbEntity
8
1
62
256
6
ByLayer
370
18
48
1
60
0
100
AcDbLine
10
14.721355
20
81.410381
30
0
11
14.850891
21
81.460395
31
0
39
0
210
0
220
0
230
1
0
LINE
5
D1
100
AcDbEntity
8
1
62
256
6
ByLayer
370
18
48
1
60
0
100
AcDbLine
10
23.618973
20
88.533498
30
0
11
23.347199
21
91.119255
31
0
39
0
210
0
220
0
230
1
0
LINE
5
D2
100
AcDbEntity
8
1
62
256
6
ByLayer
370
18
48
1
60
0
100
AcDbLine
10
23.734641
20
87.432987
30
0
11
24.006415
21
84.84723
31
0
39
0
210
0
220
0
230
1
0
LINE
5
D3
100
AcDbEntity
8
1
62
256
6
ByLayer
370
18
48
1
60
0
100
AcDbLine
10
16.561376
20
81.01115
30
0
11
15.891133
21
80.940705
31
0
39
0
210
0
220
0
230
1
0
LINE
5
D4
100
AcDbEntity
8
1
62
256
6
ByLayer
370
18
48
1
60
0
100
AcDbLine
10
14.693074
20
81.519985
30
0
11
14.830521
21
81.539339
31
0
39
0
210
0
220
0
230
1
0
LINE
5
D5
100
AcDbEntity
8
1
62
256
6
ByLayer
370
18
48
1
60
0
100
AcDbLine
10
15.906283
20
80.80166
30
0
11
15.891133
21
80.940705
31
0
39
0
210
0
220
0
230
1
0
LINE
5
D6
100
AcDbEntity
8
1
62
256
6
ByLayer
370
18
48
1
60
0
100
AcDbLine
10
17.590326
20
83.844681
30
0
11
20.166243
21
84.115421
31
0
39
0
210
0
220
0
230
1
0
LINE
5
D7
100
AcDbEntity
8
1
62
256
6
ByLayer
370
18
48
1
60
0
100
AcDbLine
10
13.558062
20
92.277867
30
0
11
13.696356
21
92.289744
31
0
39
0
210
0
220
0
230
1
0
LINE
5
D8
100
AcDbEntity
8
1
62
256
6
ByLayer
370
18
48
1
60
0
100
AcDbLine
10
13.545603
20
92.437439
30
0
11
13.684071
21
92.447084
31
0
39
0
210
0
220
0
230
1
0
LINE
5
D9
100
AcDbEntity
8
1
62
256
6
ByLayer
370
18
48
1
60
0
100
AcDbLine
10
13.550478
20
92.550528
30
0
11
13.687582
21
92.528538
31
0
39
0
210
0
220
0
230
1
0
LINE
5
DA
100
AcDbEntity
8
1
62
256
6
ByLayer
370
18
48
1
60
0
100
AcDbLine
10
14.177122
20
93.327392
30
0
11
14.22658
21
93.196745
31
0
39
0
210
0
220
0
230
1
0
LINE
5
DB
100
AcDbEntity
8
1
62
256
6
ByLayer
370
18
48
1
60
0
100
AcDbLine
10
14.286296
20
93.355692
30
0
11
14.305214
21
93.217128
31
0
39
0
210
0
220
0
230
1
0
LINE
5
DC
100
AcDbEntity
8
1
62
256
6
ByLayer
370
18
48
1
60
0
100
AcDbLine
10
14.444364
20
93.376635
30
0
11
14.461071
21
93.237779
31
0
39
0
210
0
220
0
230
1
0
LINE
5
DD
100
AcDbEntity
8
1
62
256
6
ByLayer
370
18
48
1
60
0
100
AcDbLine
10
16.961066
20
86.721055
30
0
11
17.23284
21
84.135298
31
0
39
0
210
0
220
0
230
1
0
LINE
5
DE
100
AcDbEntity
8
1
62
256
6
ByLayer
370
18
48
1
60
0
100
AcDbLine
10
14.492833
20
93.382419
30
0
11
14.508185
21
93.243401
31
0
39
0
210
0
220
0
230
1
0
LINE
5
DF
100
AcDbEntity
8
1
62
256
6
ByLayer
370
18
48
1
60
0
100
AcDbLine
10
23.829173
20
84.627499
30
0
11
21.253256
21
84.356759
31
0
39
0
210
0
220
0
230
1
0
LINE
5
E0
100
AcDbEntity
8
1
62
256
6
ByLayer
370
18
48
1
60
0
100
AcDbLine
10
14.582952
20
93.392307
30
0
11
14.597043
21
93.253151
31
0
39
0
210
0
220
0
230
1
0
LINE
5
E1
100
AcDbEntity
8
1
62
256
6
ByLayer
370
18
48
1
60
0
100
AcDbLine
10
15.816077
20
80.792595
30
0
11
15.802189
21
80.931767
31
0
39
0
210
0
220
0
230
1
0
LINE
5
E2
100
AcDbEntity
8
1
62
256
6
ByLayer
370
18
48
1
60
0
100
AcDbLine
10
14.597043
20
93.253151
30
0
11
15.267285
21
93.323596
31
0
39
0
210
0
220
0
230
1
0
LINE
5
E3
100
AcDbEntity
8
1
62
256
6
ByLayer
370
18
48
1
60
0
100
AcDbLine
10
14.672084
20
81.67866
30
0
11
14.809825
21
81.695795
31
0
39
0
210
0
220
0
230
1
0
LINE
5
E4
100
AcDbEntity
8
1
62
256
6
ByLayer
370
18
48
1
60
0
100
AcDbLine
10
16.974519
20
87.835138
30
0
11
16.845397
21
87.821566
31
0
39
0
210
0
220
0
230
1
0
LINE
5
E5
100
AcDbEntity
8
1
62
256
6
ByLayer
370
18
48
1
60
0
100
AcDbLine
10
16.702745
20
90.420895
30
0
11
16.573623
21
90.407323
31
0
39
0
210
0
220
0
230
1
0
LINE
5
E6
100
AcDbEntity
8
1
62
256
6
ByLayer
370
18
48
1
60
0
100
AcDbLine
10
13.571606
20
-42.522006
30
0
11
13.709997
21
-41.928335
31
0
39
0
210
0
220
0
230
1
0
LINE
5
E7
100
AcDbEntity
8
1
62
256
6
ByLayer
370
18
48
1
60
0
100
AcDbLine
10
14.579126
20
-39.012077
30
0
11
14.252388
21
-40.413723
31
0
39
0
210
0
220
0
230
1
0
LINE
5
E8
100
AcDbEntity
8
1
62
256
6
ByLayer
370
18
48
1
60
0
100
AcDbLine
10
13.571606
20
-42.522006
30
0
11
14.133634
21
-40.789514
31
0
39
0
210
0
220
0
230
1
0
LINE
5
E9
100
AcDbEntity
8
1
62
256
6
ByLayer
370
18
48
1
60
0
100
AcDbLine
10
13.562504
20
-42.562865
30
0
11
14.033581
21
-41.110317
31
0
39
0
210
0
220
0
230
1
0
LINE
5
EA
100
AcDbEntity
8
1
62
256
6
ByLayer
370
18
48
1
60
0
100
AcDbLine
10
13.558062
20
-42.58492
30
0
11
13.984458
21
-41.269648
31
0
39
0
210
0
220
0
230
1
0
LINE
5
EB
100
AcDbEntity
8
1
62
256
6
ByLayer
370
18
48
1
60
0
100
AcDbLine
10
13.545603
20
-42.657203
30
0
11
13.814335
21
-41.827636
31
0
39
0
210
0
220
0
230
1
0
LINE
5
EC
100
AcDbEntity
8
1
62
256
6
ByLayer
370
18
48
1
60
0
100
AcDbLine
10
13.550478
20
-42.709494
30
0
11
13.807785
21
-41.890958
31
0
39
0
210
0
220
0
230
1
0
LINE
5
ED
100
AcDbEntity
8
1
62
256
6
ByLayer
370
18
48
1
60
0
100
AcDbLine
10
14.489359
20
-39.66384
30
0
11
14.653336
21
-38.960406
31
0
39
0
210
0
220
0
230
1
0
LINE
5
EE
100
AcDbEntity
8
1
62
256
6
ByLayer
370
18
48
1
60
0
100
AcDbLine
10
24.86442
20
-44.470634
30
0
11
14.582952
21
-43.17609
31
0
39
0
210
0
220
0
230
1
0
LINE
5
EF
100
AcDbEntity
8
1
62
256
6
ByLayer
370
18
48
1
60
0
100
AcDbLine
10
15.634891
20
-36.062166
30
0
11
14.854524
21
-39.409798
31
0
39
0
210
0
220
0
230
1
0
LINE
5
F0
100
AcDbEntity
8
1
62
256
6
ByLayer
370
18
48
1
60
0
100
AcDbLine
10
15.25411
20
-38.994373
30
0
11
15.179739
21
-39.31341
31
0
39
0
210
0
220
0
230
1
0
LINE
5
F1
100
AcDbEntity
8
1
62
256
6
ByLayer
370
18
48
1
60
0
100
AcDbLine
10
15.179739
20
-39.31341
30
0
11
15.416858
21
-39.097095
31
0
39
0
210
0
220
0
230
1
0
LINE
5
F2
100
AcDbEntity
8
1
62
256
6
ByLayer
370
18
48
1
60
0
100
AcDbLine
10
14.489359
20
-39.66384
30
0
11
14.252388
21
-40.413723
31
0
39
0
210
0
220
0
230
1
0
LINE
5
F3
100
AcDbEntity
8
1
62
256
6
ByLayer
370
18
48
1
60
0
100
AcDbLine
10
14.252388
20
-40.413723
30
0
11
14.133634
21
-40.789514
31
0
39
0
210
0
220
0
230
1
0
LINE
5
F4
100
AcDbEntity
8
1
62
256
6
ByLayer
370
18
48
1
60
0
100
AcDbLine
10
14.917045
20
-40.843587
30
0
11
25.045832
21
-42.118907
31
0
39
0
210
0
220
0
230
1
0
LINE
5
F5
100
AcDbEntity
8
1
62
256
6
ByLayer
370
18
48
1
60
0
100
AcDbLine
10
14.798291
20
-41.219378
30
0
11
14.582952
21
-43.17609
31
0
39
0
210
0
220
0
230
1
0
LINE
5
F6
100
AcDbEntity
8
1
62
256
6
ByLayer
370
18
48
1
60
0
100
AcDbLine
10
14.676163
20
-41.525904
30
0
11
14.492833
21
-43.164552
31
0
39
0
210
0
220
0
230
1
0
LINE
5
F7
100
AcDbEntity
8
1
62
256
6
ByLayer
370
18
48
1
60
0
100
AcDbLine
10
14.613076
20
-41.676204
30
0
11
14.444364
21
-43.158132
31
0
39
0
210
0
220
0
230
1
0
LINE
5
F8
100
AcDbEntity
8
1
62
256
6
ByLayer
370
18
48
1
60
0
100
AcDbLine
10
14.395484
20
-42.203491
30
0
11
14.286296
21
-43.136242
31
0
39
0
210
0
220
0
230
1
0
LINE
5
F9
100
AcDbEntity
8
1
62
256
6
ByLayer
370
18
48
1
60
0
100
AcDbLine
10
14.177122
20
-43.114773
30
0
11
14.321671
21
-42.223312
31
0
39
0
210
0
220
0
230
1
0
LINE
5
FA
100
AcDbEntity
8
1
62
256
6
ByLayer
370
18
48
1
60
0
100
AcDbLine
10
15.154016
20
-40.093704
30
0
11
24.978134
21
-41.330663
31
0
39
0
210
0
220
0
230
1
0
LINE
5
FB
100
AcDbEntity
8
1
62
256
6
ByLayer
370
18
48
1
60
0
100
AcDbLine
10
24.365514
20
-41.115057
30
0
11
15.829353
21
-40.040265
31
0
39
0
210
0
220
0
230
1
0
LINE
5
FC
100
AcDbEntity
8
1
62
256
6
ByLayer
370
18
48
1
60
0
100
AcDbLine
10
24.41171
20
-40.838214
30
0
11
15.87555
21
-39.763423
31
0
39
0
210
0
220
0
230
1
0
LINE
5
FD
100
AcDbEntity
8
1
62
256
6
ByLayer
370
18
48
1
60
0
100
AcDbLine
10
15.87555
20
-39.763423
30
0
11
15.948159
21
-39.230892
31
0
39
0
210
0
220
0
230
1
0
LINE
5
FE
100
AcDbEntity
8
1
62
256
6
ByLayer
370
18
48
1
60
0
100
AcDbLine
10
15.154016
20
-40.093704
30
0
11
14.917045
21
-40.843587
31
0
39
0
210
0
220
0
230
1
0
LINE
5
FF
100
AcDbEntity
8
1
62
256
6
ByLayer
370
18
48
1
60
0
100
AcDbLine
10
14.917045
20
-40.843587
30
0
11
14.798291
21
-41.219378
31
0
39
0
210
0
220
0
230
1
0
LINE
5
100
100
AcDbEntity
8
1
62
256
6
ByLayer
370
18
48
1
60
0
100
AcDbLine
10
24.86442
20
-44.470634
30
0
11
25.079758
21
-42.513922
31
0
39
0
210
0
220
0
230
1
0
LINE
5
101
100
AcDbEntity
8
1
62
256
6
ByLayer
370
18
48
1
60
0
100
AcDbLine
10
25.003238
20
-44.487604
30
0
11
25.160849
21
-43.004279
31
0
39
0
210
0
220
0
230
1
0
LINE
5
102
100
AcDbEntity
8
1
62
256
6
ByLayer
370
18
48
1
60
0
100
AcDbLine
10
25.162206
20
-44.505633
30
0
11
25.258486
21
-43.571256
31
0
39
0
210
0
220
0
230
1
0
LINE
5
103
100
AcDbEntity
8
1
62
256
6
ByLayer
370
18
48
1
60
0
100
AcDbLine
10
25.274878
20
-44.512096
30
0
11
25.327144
21
-43.609015
31
0
39
0
210
0
220
0
230
1
0
LINE
5
104
100
AcDbEntity
8
1
62
256
6
ByLayer
370
18
48
1
60
0
100
AcDbLine
10
24.41171
20
-40.838214
30
0
11
24.484319
21
-40.305684
31
0
39
0
210
0
220
0
230
1
0
LINE
5
105
100
AcDbEntity
8
1
62
256
6
ByLayer
370
18
48
1
60
0
100
AcDbLine
10
24.978134
20
-41.330663
30
0
11
25.045832
21
-42.118907
31
0
39
0
210
0
220
0
230
1
0
LINE
5
106
100
AcDbEntity
8
1
62
256
6
ByLayer
370
18
48
1
60
0
100
AcDbLine
10
25.045832
20
-42.118907
30
0
11
25.079758
21
-42.513922
31
0
39
0
210
0
220
0
230
1
0
LINE
5
107
100
AcDbEntity
8
1
62
256
6
ByLayer
370
18
48
1
60
0
100
AcDbLine
10
25.867282
20
-41.87616
30
0
11
26.935927
21
-37.291872
31
0
39
0
210
0
220
0
230
1
0
LINE
5
108
100
AcDbEntity
8
1
62
256
6
ByLayer
370
18
48
1
60
0
100
AcDbLine
10
25.901208
20
-42.271174
30
0
11
26.114342
21
-44.101267
31
0
39
0
210
0
220
0
230
1
0
LINE
5
109
100
AcDbEntity
8
1
62
256
6
ByLayer
370
18
48
1
60
0
100
AcDbLine
10
25.926214
20
-42.607723
30
0
11
26.104419
21
-44.142023
31
0
39
0
210
0
220
0
230
1
0
LINE
5
10A
100
AcDbEntity
8
1
62
256
6
ByLayer
370
18
48
1
60
0
100
AcDbLine
10
25.937759
20
-42.774693
30
0
11
26.098618
21
-44.163907
31
0
39
0
210
0
220
0
230
1
0
LINE
5
10B
100
AcDbEntity
8
1
62
256
6
ByLayer
370
18
48
1
60
0
100
AcDbLine
10
25.976728
20
-43.359008
30
0
11
26.077628
21
-44.235115
31
0
39
0
210
0
220
0
230
1
0
LINE
5
10C
100
AcDbEntity
8
1
62
256
6
ByLayer
370
18
48
1
60
0
100
AcDbLine
10
26.049348
20
-44.283232
30
0
11
25.962256
21
-43.421333
31
0
39
0
210
0
220
0
230
1
0
LINE
5
10D
100
AcDbEntity
8
1
62
256
6
ByLayer
370
18
48
1
60
0
100
AcDbLine
10
25.799584
20
-41.087915
30
0
11
26.836084
21
-36.641521
31
0
39
0
210
0
220
0
230
1
0
LINE
5
10E
100
AcDbEntity
8
1
62
256
6
ByLayer
370
18
48
1
60
0
100
AcDbLine
10
26.47092
20
-36.895562
30
0
11
25.570306
21
-40.759027
31
0
39
0
210
0
220
0
230
1
0
LINE
5
10F
100
AcDbEntity
8
1
62
256
6
ByLayer
370
18
48
1
60
0
100
AcDbLine
10
25.385674
20
-40.094998
30
0
11
25.271662
21
-40.584089
31
0
39
0
210
0
220
0
230
1
0
LINE
5
110
100
AcDbEntity
8
1
62
256
6
ByLayer
370
18
48
1
60
0
100
AcDbLine
10
25.271662
20
-40.584089
30
0
11
25.064421
21
-40.288763
31
0
39
0
210
0
220
0
230
1
0
LINE
5
111
100
AcDbEntity
8
1
62
256
6
ByLayer
370
18
48
1
60
0
100
AcDbLine
10
25.799584
20
-41.087915
30
0
11
25.867282
21
-41.87616
31
0
39
0
210
0
220
0
230
1
0
LINE
5
112
100
AcDbEntity
8
1
62
256
6
ByLayer
370
18
48
1
60
0
100
AcDbLine
10
25.867282
20
-41.87616
30
0
11
25.901208
21
-42.271174
31
0
39
0
210
0
220
0
230
1
0
LINE
5
113
100
AcDbEntity
8
1
62
256
6
ByLayer
370
18
48
1
60
0
100
AcDbLine
10
27.199096
20
-39.447877
30
0
11
26.114342
21
-44.101267
31
0
39
0
210
0
220
0
230
1
0
LINE
5
114
100
AcDbEntity
8
1
62
256
6
ByLayer
370
18
48
1
60
0
100
AcDbLine
10
24.954625
20
-44.4818
30
0
11
25.132046
21
-42.842409
31
0
39
0
210
0
220
0
230
1
0
LINE
5
115
100
AcDbEntity
8
1
62
256
6
ByLayer
370
18
48
1
60
0
100
AcDbLine
10
27.199096
20
-39.447877
30
0
11
26.985961
21
-37.617784
31
0
39
0
210
0
220
0
230
1
0
LINE
5
116
100
AcDbEntity
8
1
62
256
6
ByLayer
370
18
48
1
60
0
100
AcDbLine
10
27.208198
20
-39.407018
30
0
11
27.029369
21
-37.875393
31
0
39
0
210
0
220
0
230
1
0
LINE
5
117
100
AcDbEntity
8
1
62
256
6
ByLayer
370
18
48
1
60
0
100
AcDbLine
10
27.21264
20
-39.384963
30
0
11
27.050609
21
-38.000773
31
0
39
0
210
0
220
0
230
1
0
LINE
5
118
100
AcDbEntity
8
1
62
256
6
ByLayer
370
18
48
1
60
0
100
AcDbLine
10
27.225099
20
-39.31268
30
0
11
27.122837
21
-38.442415
31
0
39
0
210
0
220
0
230
1
0
LINE
5
119
100
AcDbEntity
8
1
62
256
6
ByLayer
370
18
48
1
60
0
100
AcDbLine
10
26.836084
20
-36.641521
30
0
11
26.935927
21
-37.291872
31
0
39
0
210
0
220
0
230
1
0
LINE
5
11A
100
AcDbEntity
8
1
62
256
6
ByLayer
370
18
48
1
60
0
100
AcDbLine
10
26.935927
20
-37.291872
30
0
11
26.985961
21
-37.617784
31
0
39
0
210
0
220
0
230
1
0
LINE
5
11B
100
AcDbEntity
8
1
62
256
6
ByLayer
370
18
48
1
60
0
100
AcDbLine
10
26.316443
20
-36.128383
30
0
11
25.401818
21
-40.051949
31
0
39
0
210
0
220
0
230
1
0
LINE
5
11C
100
AcDbEntity
8
1
62
256
6
ByLayer
370
18
48
1
60
0
100
AcDbLine
10
16.373915
20
-36.524806
30
0
11
15.870985
21
-39.041912
31
0
39
0
210
0
220
0
230
1
0
LINE
5
11D
100
AcDbEntity
8
1
62
256
6
ByLayer
370
18
48
1
60
0
100
AcDbLine
10
26.308894
20
-33.588908
30
0
11
25.444038
21
-37.298979
31
0
39
0
210
0
220
0
230
1
0
LINE
5
11E
100
AcDbEntity
8
1
62
256
6
ByLayer
370
18
48
1
60
0
100
AcDbLine
10
25.245891
20
-37.07765
30
0
11
26.110747
21
-33.367579
31
0
39
0
210
0
220
0
230
1
0
LINE
5
11F
100
AcDbEntity
8
1
62
256
6
ByLayer
370
18
48
1
60
0
100
AcDbLine
10
25.444038
20
-37.298979
30
0
11
25.418837
21
-39.876236
31
0
39
0
210
0
220
0
230
1
0
LINE
5
120
100
AcDbEntity
8
1
62
256
6
ByLayer
370
18
48
1
60
0
100
AcDbLine
10
15.164715
20
-38.585135
30
0
11
15.667646
21
-36.06803
31
0
39
0
210
0
220
0
230
1
0
LINE
5
121
100
AcDbEntity
8
1
62
256
6
ByLayer
370
18
48
1
60
0
100
AcDbLine
10
26.333778
20
-35.951366
30
0
11
25.419154
21
-39.874933
31
0
39
0
210
0
220
0
230
1
0
LINE
5
122
100
AcDbEntity
8
1
62
256
6
ByLayer
370
18
48
1
60
0
100
AcDbLine
10
24.525606
20
-40.31088
30
0
11
15.856653
21
-39.219368
31
0
39
0
210
0
220
0
230
1
0
LINE
5
123
100
AcDbEntity
8
1
62
256
6
ByLayer
370
18
48
1
60
0
100
AcDbLine
10
25.419154
20
-39.874933
30
0
11
25.401818
21
-40.051949
31
0
39
0
210
0
220
0
230
1
0
LINE
5
124
100
AcDbEntity
8
1
62
256
6
ByLayer
370
18
48
1
60
0
100
AcDbLine
10
24.542941
20
-40.133864
30
0
11
15.873989
21
-39.042352
31
0
39
0
210
0
220
0
230
1
0
LINE
5
125
100
AcDbEntity
8
1
62
256
6
ByLayer
370
18
48
1
60
0
100
AcDbLine
10
26.316443
20
-36.128383
30
0
11
26.333778
21
-35.951366
31
0
39
0
210
0
220
0
230
1
0
LINE
5
126
100
AcDbEntity
8
1
62
256
6
ByLayer
370
18
48
1
60
0
100
AcDbLine
10
24.545958
20
-40.134182
30
0
11
24.57116
21
-37.556925
31
0
39
0
210
0
220
0
230
1
0
LINE
5
127
100
AcDbEntity
8
1
62
256
6
ByLayer
370
18
48
1
60
0
100
AcDbLine
10
15.873989
20
-39.042352
30
0
11
15.856653
21
-39.219368
31
0
39
0
210
0
220
0
230
1
0
LINE
5
128
100
AcDbEntity
8
1
62
256
6
ByLayer
370
18
48
1
60
0
100
AcDbLine
10
26.334096
20
-35.949945
30
0
11
26.308894
21
-33.588908
31
0
39
0
210
0
220
0
230
1
0
LINE
5
129
100
AcDbEntity
8
1
62
256
6
ByLayer
370
18
48
1
60
0
100
AcDbLine
10
24.57116
20
-37.556925
30
0
11
16.373915
21
-36.524806
31
0
39
0
210
0
220
0
230
1
0
LINE
5
12A
100
AcDbEntity
8
1
62
256
6
ByLayer
370
18
48
1
60
0
100
AcDbLine
10
24.525606
20
-40.31088
30
0
11
24.542941
21
-40.133864
31
0
39
0
210
0
220
0
230
1
0
LINE
5
12B
100
AcDbEntity
8
1
62
256
6
ByLayer
370
18
48
1
60
0
100
AcDbLine
10
16.415823
20
-36.232538
30
0
11
24.613067
21
-37.264657
31
0
39
0
210
0
220
0
230
1
0
LINE
5
12C
100
AcDbEntity
8
1
62
256
6
ByLayer
370
18
48
1
60
0
100
AcDbLine
10
26.308894
20
-49.991063
30
0
11
26.204693
21
-50.532475
31
0
39
0
210
0
220
0
230
1
0
LINE
5
12D
100
AcDbEntity
8
1
62
256
6
ByLayer
370
18
48
1
60
0
100
AcDbLine
10
19.696734
20
86.693899
30
0
11
19.689544
21
86.675226
31
0
39
0
210
0
220
0
230
1
0
LINE
5
12E
100
AcDbEntity
8
1
62
256
6
ByLayer
370
18
48
1
60
0
100
AcDbLine
10
19.580551
20
86.663771
30
0
11
19.689544
21
86.675226
31
0
39
0
210
0
220
0
230
1
0
LINE
5
12F
100
AcDbEntity
8
1
62
256
6
ByLayer
370
18
48
1
60
0
100
AcDbLine
10
19.588695
20
86.682543
30
0
11
19.696734
21
86.693899
31
0
39
0
210
0
220
0
230
1
0
LINE
5
130
100
AcDbEntity
8
1
62
256
6
ByLayer
370
18
48
1
60
0
100
AcDbLine
10
19.261914
20
87.844495
30
0
11
19.242204
21
87.841421
31
0
39
0
210
0
220
0
230
1
0
LINE
5
131
100
AcDbEntity
8
1
62
256
6
ByLayer
370
18
48
1
60
0
100
AcDbLine
10
19.153876
20
87.833139
30
0
11
19.261914
21
87.844495
31
0
39
0
210
0
220
0
230
1
0
LINE
5
132
100
AcDbEntity
8
1
62
256
6
ByLayer
370
18
48
1
60
0
100
AcDbLine
10
19.504723
20
88.433676
30
0
11
19.515638
21
88.416907
31
0
39
0
210
0
220
0
230
1
0
LINE
5
133
100
AcDbEntity
8
1
62
256
6
ByLayer
370
18
48
1
60
0
100
AcDbLine
10
19.221504
20
87.189695
30
0
11
19.329543
21
87.20105
31
0
39
0
210
0
220
0
230
1
0
LINE
5
134
100
AcDbEntity
8
1
62
256
6
ByLayer
370
18
48
1
60
0
100
AcDbLine
10
21.524908
20
88.081343
30
0
11
21.589705
21
88.088154
31
0
39
0
210
0
220
0
230
1
0
LINE
5
135
100
AcDbEntity
8
1
62
256
6
ByLayer
370
18
48
1
60
0
100
AcDbLine
10
21.592328
20
87.43988
30
0
11
21.655903
21
87.446562
31
0
39
0
210
0
220
0
230
1
0
LINE
5
136
100
AcDbEntity
8
1
62
256
6
ByLayer
370
18
48
1
60
0
100
AcDbLine
10
20.557869
20
88.868641
30
0
11
20.666861
21
88.880096
31
0
39
0
210
0
220
0
230
1
0
LINE
5
137
100
AcDbEntity
8
1
62
256
6
ByLayer
370
18
48
1
60
0
100
AcDbLine
10
20.666861
20
88.880096
30
0
11
20.657857
21
88.862235
31
0
39
0
210
0
220
0
230
1
0
LINE
5
138
100
AcDbEntity
8
1
62
256
6
ByLayer
370
18
48
1
60
0
100
AcDbLine
10
20.81011
20
86.468728
30
0
11
20.919102
21
86.480183
31
0
39
0
210
0
220
0
230
1
0
LINE
5
139
100
AcDbEntity
8
1
62
256
6
ByLayer
370
18
48
1
60
0
100
AcDbLine
10
20.798543
20
86.484427
30
0
11
20.906581
21
86.495783
31
0
39
0
210
0
220
0
230
1
0
LINE
5
13A
100
AcDbEntity
8
1
62
256
6
ByLayer
370
18
48
1
60
0
100
AcDbLine
10
19.4076
20
88.405551
30
0
11
19.515638
21
88.416907
31
0
39
0
210
0
220
0
230
1
0
LINE
5
13B
100
AcDbEntity
8
1
62
256
6
ByLayer
370
18
48
1
60
0
100
AcDbLine
10
19.395731
20
88.422221
30
0
11
19.504723
21
88.433676
31
0
39
0
210
0
220
0
230
1
0
LINE
5
13C
100
AcDbEntity
8
1
62
256
6
ByLayer
370
18
48
1
60
0
100
AcDbLine
10
20.549818
20
88.85088
30
0
11
20.657857
21
88.862235
31
0
39
0
210
0
220
0
230
1
0
LINE
5
13D
100
AcDbEntity
8
1
62
256
6
ByLayer
370
18
48
1
60
0
100
AcDbLine
10
19.309624
20
87.199958
30
0
11
19.329543
21
87.20105
31
0
39
0
210
0
220
0
230
1
0
LINE
5
13E
100
AcDbEntity
8
1
62
256
6
ByLayer
370
18
48
1
60
0
100
AcDbLine
10
20.906581
20
86.495783
30
0
11
20.919102
21
86.480183
31
0
39
0
210
0
220
0
230
1
0
LINE
5
13F
100
AcDbEntity
8
1
62
256
6
ByLayer
370
18
48
1
60
0
100
AcDbLine
10
-7.022266
20
81.720529
30
0
11
-7.276955
21
81.652286
31
0
39
0
210
0
220
0
230
1
0
LINE
5
140
100
AcDbEntity
8
1
62
256
6
ByLayer
370
18
48
1
60
0
100
AcDbLine
10
-7.577671
20
81.571709
30
0
11
-7.276955
21
81.652286
31
0
39
0
210
0
220
0
230
1
0
LINE
5
141
100
AcDbEntity
8
1
62
256
6
ByLayer
370
18
48
1
60
0
100
AcDbLine
10
-7.577671
20
81.079953
30
0
11
-7.276955
21
80.999376
31
0
39
0
210
0
220
0
230
1
0
LINE
5
142
100
AcDbEntity
8
1
62
256
6
ByLayer
370
18
48
1
60
0
100
AcDbLine
10
-7.276955
20
80.999376
30
0
11
-7.022266
21
80.931132
31
0
39
0
210
0
220
0
230
1
0
LINE
5
143
100
AcDbEntity
8
SK1
62
256
6
ByLayer
370
18
48
1
60
0
100
AcDbLine
10
-15.995301
20
-56.247866
30
0
11
-3.723497
21
-56.86935
31
0
39
0
210
0
220
0
230
1
0
LINE
5
145
100
AcDbEntity
8
SK1
62
256
6
ByLayer
370
18
48
1
60
0
100
AcDbLine
10
-15.995301
20
-56.247866
30
0
11
-15.995301
21
-45.5423
31
0
39
0
210
0
220
0
230
1
0
LINE
5
146
100
AcDbEntity
8
1
62
256
6
ByLayer
370
18
48
1
60
0
100
AcDbLine
10
23.15649
20
-61.818023
30
0
11
24.341318
21
-61.20259
31
0
39
0
210
0
220
0
230
1
0
LINE
5
147
100
AcDbEntity
8
1
62
256
6
ByLayer
370
18
48
1
60
0
100
AcDbLine
10
26.204699
20
-48.371438
30
0
11
26.204699
21
-43.713668
31
0
39
0
210
0
220
0
230
1
0
LINE
5
148
100
AcDbEntity
8
1
62
256
6
ByLayer
370
18
48
1
60
0
100
AcDbLine
10
9.204699
20
-72.212478
30
0
11
-3.723423
21
-72.212478
31
0
39
0
210
0
220
0
230
1
0
LINE
5
149
100
AcDbEntity
8
1
62
256
6
ByLayer
370
18
48
1
60
0
100
AcDbLine
10
26.204699
20
-48.371438
30
0
11
26.204699
21
-50.874433
31
0
39
0
210
0
220
0
230
1
0
LINE
5
14A
100
AcDbEntity
8
1
62
256
6
ByLayer
370
18
48
1
60
0
100
AcDbLine
10
26.204699
20
-50.874433
30
0
11
24.854256
21
-58.537464
31
0
39
0
210
0
220
0
230
1
0
LINE
5
14B
100
AcDbEntity
8
1
62
256
6
ByLayer
370
18
48
1
60
0
100
AcDbLine
10
22.408305
20
-61.830216
30
0
11
23.15649
21
-61.818023
31
0
39
0
210
0
220
0
230
1
0
LINE
5
14C
100
AcDbEntity
8
1
62
256
6
ByLayer
370
18
48
1
60
0
100
AcDbLine
10
13.004699
20
-42.255688
30
0
11
13.004699
21
-58.700735
31
0
39
0
210
0
220
0
230
1
0
LINE
5
14D
100
AcDbEntity
8
1
62
256
6
ByLayer
370
18
48
1
60
0
100
AcDbLine
10
9.204699
20
-72.212478
30
0
11
9.204699
21
-41.7774
31
0
39
0
210
0
220
0
230
1
0
LINE
5
14E
100
AcDbEntity
8
1
62
256
6
ByLayer
370
18
48
1
60
0
100
AcDbLine
10
24.341318
20
-61.20259
30
0
11
24.854256
21
-58.537464
31
0
39
0
210
0
220
0
230
1
0
LINE
5
14F
100
AcDbEntity
8
1
62
256
6
ByLayer
370
18
48
1
60
0
100
AcDbLine
10
-3.723423
20
-72.212478
30
0
11
-3.723423
21
-46.124187
31
0
39
0
210
0
220
0
230
1
0
LINE
5
150
100
AcDbEntity
8
1
62
256
6
ByLayer
370
18
48
1
60
0
100
AcDbLine
10
19.584498
20
-43.805987
30
0
11
19.584498
21
-56.669535
31
0
39
0
210
0
220
0
230
1
0
LINE
5
151
100
AcDbEntity
8
1
62
256
6
ByLayer
370
18
48
1
60
0
100
AcDbLine
10
20.014011
20
-65.987509
30
0
11
16.703209
21
-68.692915
31
0
39
0
210
0
220
0
230
1
0
LINE
5
152
100
AcDbEntity
8
1
62
256
6
ByLayer
370
18
48
1
60
0
100
AcDbLine
10
9.204699
20
-72.212478
30
0
11
16.703209
21
-68.692915
31
0
39
0
210
0
220
0
230
1
0
LINE
5
153
100
AcDbEntity
8
1
62
256
6
ByLayer
370
18
48
1
60
0
100
AcDbLine
10
16.904182
20
-59.761168
30
0
11
16.703209
21
-68.692915
31
0
39
0
210
0
220
0
230
1
0
LINE
5
154
100
AcDbEntity
8
1
62
256
6
ByLayer
370
18
48
1
60
0
100
AcDbLine
10
26.204699
20
-48.371438
30
0
11
19.584498
21
-56.669535
31
0
39
0
210
0
220
0
230
1
0
LINE
5
155
100
AcDbEntity
8
1
62
256
6
ByLayer
370
18
48
1
60
0
100
AcDbLine
10
24.854256
20
-58.423499
30
0
11
22.232316
21
-62.075428
31
0
39
0
210
0
220
0
230
1
0
LINE
5
156
100
AcDbEntity
8
1
62
256
6
ByLayer
370
18
48
1
60
0
100
AcDbLine
10
24.854256
20
-58.537464
30
0
11
24.854256
21
-58.423499
31
0
39
0
210
0
220
0
230
1
0
LINE
5
157
100
AcDbEntity
8
1
62
256
6
ByLayer
370
18
48
1
60
0
100
AcDbLine
10
17.346989
20
80.729772
30
0
11
25.564485
21
81.593465
31
0
39
0
210
0
220
0
230
1
0
LINE
5
158
100
AcDbEntity
8
1
62
256
6
ByLayer
370
18
48
1
60
0
100
AcDbLine
10
26.204699
20
70.132313
30
0
11
25.559876
21
69.897617
31
0
39
0
210
0
220
0
230
1
0
LINE
5
159
100
AcDbEntity
8
SK1
62
256
6
ByLayer
370
18
48
1
60
0
100
AcDbLine
10
-3.723497
20
8.283268
30
0
11
-15.995301
21
8.283268
31
0
39
0
210
0
220
0
230
1
0
LINE
5
15A
100
AcDbEntity
8
SK1
62
256
6
ByLayer
370
18
48
1
60
0
100
AcDbLine
10
-15.995301
20
8.283268
30
0
11
-15.995301
21
17.503841
31
0
39
0
210
0
220
0
230
1
0
LINE
5
15B
100
AcDbEntity
8
1
62
256
6
ByLayer
370
18
48
1
60
0
100
AcDbLine
10
13.637479
20
91.51176
30
0
11
13.429789
21
91.48993
31
0
39
0
210
0
220
0
230
1
0
LINE
5
15C
100
AcDbEntity
8
1
62
256
6
ByLayer
370
18
48
1
60
0
100
AcDbLine
10
26.204464
20
81.69962
30
0
11
26.204699
21
81.694643
31
0
39
0
210
0
220
0
230
1
0
LINE
5
15D
100
AcDbEntity
8
1
62
256
6
ByLayer
370
18
48
1
60
0
100
AcDbLine
10
8.519682
20
90.973857
30
0
11
13.429789
21
91.48993
31
0
39
0
210
0
220
0
230
1
0
LINE
5
15E
100
AcDbEntity
8
1
62
256
6
ByLayer
370
18
48
1
60
0
100
AcDbLine
10
2.004699
20
90.289105
30
0
11
8.519682
21
90.973857
31
0
39
0
210
0
220
0
230
1
0
LINE
5
15F
100
AcDbEntity
8
1
62
256
6
ByLayer
370
18
48
1
60
0
100
AcDbLine
10
19.584498
20
67.722757
30
0
11
25.559876
21
69.897617
31
0
39
0
210
0
220
0
230
1
0
LINE
5
160
100
AcDbEntity
8
1
62
256
6
ByLayer
370
18
48
1
60
0
100
AcDbLine
10
13.930804
20
82.127429
30
0
11
13.90487
21
82.37608
31
0
39
0
210
0
220
0
230
1
0
LINE
5
161
100
AcDbEntity
8
1
62
256
6
ByLayer
370
18
48
1
60
0
100
AcDbLine
10
25.564485
20
81.593465
30
0
11
25.559876
21
69.897617
31
0
39
0
210
0
220
0
230
1
0
LINE
5
162
100
AcDbEntity
8
1
62
256
6
ByLayer
370
18
48
1
60
0
100
AcDbLine
10
26.204464
20
81.69962
30
0
11
25.584431
21
81.634452
31
0
39
0
210
0
220
0
230
1
0
LINE
5
163
100
AcDbEntity
8
1
62
256
6
ByLayer
370
18
48
1
60
0
100
AcDbLine
10
14.398942
20
83.921113
30
0
11
14.434895
21
83.924892
31
0
39
0
210
0
220
0
230
1
0
LINE
5
164
100
AcDbEntity
8
1
62
256
6
ByLayer
370
18
48
1
60
0
100
AcDbLine
10
13.90487
20
82.37608
30
0
11
14.530277
21
82.441813
31
0
39
0
210
0
220
0
230
1
0
LINE
5
165
100
AcDbEntity
8
1
62
256
6
ByLayer
370
18
48
1
60
0
100
AcDbLine
10
13.930804
20
82.127429
30
0
11
14.55641
21
82.193183
31
0
39
0
210
0
220
0
230
1
0
LINE
5
166
100
AcDbEntity
8
1
62
256
6
ByLayer
370
18
48
1
60
0
100
AcDbLine
10
2.004699
20
90.289105
30
0
11
-15.995301
21
88.397229
31
0
39
0
210
0
220
0
230
1
0
LINE
5
167
100
AcDbEntity
8
1
62
256
6
ByLayer
370
18
48
1
60
0
100
AcDbLine
10
14.55641
20
82.193183
30
0
11
14.530277
21
82.441813
31
0
39
0
210
0
220
0
230
1
0
LINE
5
168
100
AcDbEntity
8
1
62
256
6
ByLayer
370
18
48
1
60
0
100
AcDbLine
10
13.004699
20
21.42319
30
0
11
13.004699
21
58.325831
31
0
39
0
210
0
220
0
230
1
0
LINE
5
169
100
AcDbEntity
8
1
62
256
6
ByLayer
370
18
48
1
60
0
100
AcDbLine
10
8.519682
20
23.826057
30
0
11
8.519682
21
90.973857
31
0
39
0
210
0
220
0
230
1
0
LINE
5
16A
100
AcDbEntity
8
1
62
256
6
ByLayer
370
18
48
1
60
0
100
AcDbLine
10
26.185291
20
81.882038
30
0
11
26.204464
21
81.69962
31
0
39
0
210
0
220
0
230
1
0
LINE
5
16B
100
AcDbEntity
8
1
62
256
6
ByLayer
370
18
48
1
60
0
100
AcDbLine
10
26.204699
20
70.132313
30
0
11
26.204699
21
81.694643
31
0
39
0
210
0
220
0
230
1
0
LINE
5
16C
100
AcDbEntity
8
1
62
256
6
ByLayer
370
18
48
1
60
0
100
AcDbLine
10
14.590112
20
82.448102
30
0
11
14.530277
21
82.441813
31
0
39
0
210
0
220
0
230
1
0
LINE
5
16D
100
AcDbEntity
8
1
62
256
6
ByLayer
370
18
48
1
60
0
100
AcDbLine
10
14.616244
20
82.199471
30
0
11
14.55641
21
82.193183
31
0
39
0
210
0
220
0
230
1
0
LINE
5
16E
100
AcDbEntity
8
SK1
62
256
6
ByLayer
370
18
48
1
60
0
100
AcDbLine
10
-15.995301
20
54.85801
30
0
11
-15.995301
21
17.503841
31
0
39
0
210
0
220
0
230
1
0
LINE
5
16F
100
AcDbEntity
8
1
62
256
6
ByLayer
370
18
48
1
60
0
100
AcDbLine
10
2.004699
20
90.289105
30
0
11
2.004699
21
23.825923
31
0
39
0
210
0
220
0
230
1
0
LINE
5
170
100
AcDbEntity
8
SK1
62
256
6
ByLayer
370
18
48
1
60
0
100
AcDbLine
10
-15.995301
20
17.503841
30
0
11
-3.72352
21
17.503841
31
0
39
0
210
0
220
0
230
1
0
LINE
5
171
100
AcDbEntity
8
1
62
256
6
ByLayer
370
18
48
1
60
0
100
AcDbLine
10
9.204699
20
-2.82604
30
0
11
-3.723423
21
-2.82604
31
0
39
0
210
0
220
0
230
1
0
LINE
5
172
100
AcDbEntity
8
1
62
256
6
ByLayer
370
18
48
1
60
0
100
AcDbLine
10
-0.424131
20
-28.995818
30
0
11
-0.341647
21
-29.088263
31
0
39
0
210
0
220
0
230
1
0
LINE
5
173
100
AcDbEntity
8
1
62
256
6
ByLayer
370
18
48
1
60
0
100
AcDbLine
10
-15.995301
20
-31.231248
30
0
11
-3.045024
21
-31.772732
31
0
39
0
210
0
220
0
230
1
0
LINE
5
174
100
AcDbEntity
8
1
62
256
6
ByLayer
370
18
48
1
60
0
100
AcDbLine
10
18.584808
20
-27.785786
30
0
11
18.95784
21
-26.185547
31
0
39
0
210
0
220
0
230
1
0
LINE
5
175
100
AcDbEntity
8
SK1
62
256
6
ByLayer
370
18
48
1
60
0
100
AcDbLine
10
-15.995301
20
-24.63411
30
0
11
-15.995301
21
4.834084
31
0
39
0
210
0
220
0
230
1
0
LINE
5
176
100
AcDbEntity
8
1
62
256
6
ByLayer
370
18
48
1
60
0
100
AcDbLine
10
26.204699
20
-32.277797
30
0
11
26.204699
21
-23.023257
31
0
39
0
210
0
220
0
230
1
0
LINE
5
177
100
AcDbEntity
8
1
62
256
6
ByLayer
370
18
48
1
60
0
100
AcDbLine
10
-15.995301
20
-45.542543
30
0
11
-15.995301
21
-32.079571
31
0
39
0
210
0
220
0
230
1
0
LINE
5
178
100
AcDbEntity
8
1
62
256
6
ByLayer
370
18
48
1
60
0
100
AcDbLine
10
15.387108
20
-36.030944
30
0
11
24.69046
21
-37.202333
31
0
39
0
210
0
220
0
230
1
0
LINE
5
179
100
AcDbEntity
8
1
62
256
6
ByLayer
370
18
48
1
60
0
100
AcDbLine
10
23.15649
20
-28.361408
30
0
11
24.341318
21
-28.002374
31
0
39
0
210
0
220
0
230
1
0
LINE
5
17A
100
AcDbEntity
8
1
62
256
6
ByLayer
370
18
48
1
60
0
100
AcDbLine
10
25.085499
20
-37.082626
30
0
11
26.067698
21
-32.869176
31
0
39
0
210
0
220
0
230
1
0
LINE
5
17B
100
AcDbEntity
8
1
62
256
6
ByLayer
370
18
48
1
60
0
100
AcDbLine
10
26.070375
20
-32.934677
30
0
11
26.067698
21
-32.869176
31
0
39
0
210
0
220
0
230
1
0
LINE
5
17C
100
AcDbEntity
8
1
62
256
6
ByLayer
370
18
48
1
60
0
100
AcDbLine
10
26.045161
20
-33.192145
30
0
11
26.070375
21
-32.934677
31
0
39
0
210
0
220
0
230
1
0
LINE
5
17D
100
AcDbEntity
8
1
62
256
6
ByLayer
370
18
48
1
60
0
100
AcDbLine
10
-1.410355
20
-22.316196
30
0
11
18.722186
21
-26.500895
31
0
39
0
210
0
220
0
230
1
0
LINE
5
17E
100
AcDbEntity
8
1
62
256
6
ByLayer
370
18
48
1
60
0
100
AcDbLine
10
24.854256
20
-25.801969
30
0
11
24.854256
21
-25.70481
31
0
39
0
210
0
220
0
230
1
0
LINE
5
17F
100
AcDbEntity
8
1
62
256
6
ByLayer
370
18
48
1
60
0
100
AcDbLine
10
-3.723423
20
-2.82604
30
0
11
-1.410355
21
-22.316196
31
0
39
0
210
0
220
0
230
1
0
LINE
5
180
100
AcDbEntity
8
1
62
256
6
ByLayer
370
18
48
1
60
0
100
AcDbLine
10
-15.995301
20
-32.079571
30
0
11
-15.995301
21
-31.231248
31
0
39
0
210
0
220
0
230
1
0
LINE
5
181
100
AcDbEntity
8
SK1
62
256
6
ByLayer
370
18
48
1
60
0
100
AcDbLine
10
-2.941256
20
-24.831888
30
0
11
-2.941256
21
-9.416843
31
0
39
0
210
0
220
0
230
1
0
LINE
5
182
100
AcDbEntity
8
1
62
256
6
ByLayer
370
18
48
1
60
0
100
AcDbLine
10
24.787503
20
-36.294693
30
0
11
24.69046
21
-37.202333
31
0
39
0
210
0
220
0
230
1
0
LINE
5
183
100
AcDbEntity
8
1
62
256
6
ByLayer
370
18
48
1
60
0
100
AcDbLine
10
24.978345
20
-36.236863
30
0
11
25.085499
21
-37.082626
31
0
39
0
210
0
220
0
230
1
0
LINE
5
184
100
AcDbEntity
8
1
62
256
6
ByLayer
370
18
48
1
60
0
100
AcDbLine
10
20.014011
20
-18.697288
30
0
11
16.703209
21
-11.799555
31
0
39
0
210
0
220
0
230
1
0
LINE
5
185
100
AcDbEntity
8
SK1
62
256
6
ByLayer
370
18
48
1
60
0
100
AcDbLine
10
-3.045024
20
-24.832309
30
0
11
-3.045024
21
-8.542847
31
0
39
0
210
0
220
0
230
1
0
LINE
5
186
100
AcDbEntity
8
1
62
256
6
ByLayer
370
18
48
1
60
0
100
AcDbLine
10
26.204464
20
-32.282474
30
0
11
26.204699
21
-32.277797
31
0
39
0
210
0
220
0
230
1
0
LINE
5
187
100
AcDbEntity
8
1
62
256
6
ByLayer
370
18
48
1
60
0
100
AcDbLine
10
2.004699
20
-46.395548
30
0
11
-15.995301
21
-45.542543
31
0
39
0
210
0
220
0
230
1
0
LINE
5
188
100
AcDbEntity
8
1
62
256
6
ByLayer
370
18
48
1
60
0
100
AcDbLine
10
26.204699
20
-23.023257
30
0
11
24.854256
21
-25.801969
31
0
39
0
210
0
220
0
230
1
0
LINE
5
189
100
AcDbEntity
8
1
62
256
6
ByLayer
370
18
48
1
60
0
100
AcDbLine
10
15.225495
20
-36.144994
30
0
11
14.960341
21
-38.852513
31
0
39
0
210
0
220
0
230
1
0
LINE
5
18A
100
AcDbEntity
8
1
62
256
6
ByLayer
370
18
48
1
60
0
100
AcDbLine
10
19.502908
20
-20.619804
30
0
11
18.722186
21
-26.500895
31
0
39
0
210
0
220
0
230
1
0
LINE
5
18B
100
AcDbEntity
8
1
62
256
6
ByLayer
370
18
48
1
60
0
100
AcDbLine
10
8.519682
20
-41.690706
30
0
11
13.429789
21
-42.30894
31
0
39
0
210
0
220
0
230
1
0
LINE
5
18C
100
AcDbEntity
8
1
62
256
6
ByLayer
370
18
48
1
60
0
100
AcDbLine
10
18.584808
20
-27.785786
30
0
11
23.15649
21
-28.361408
31
0
39
0
210
0
220
0
230
1
0
LINE
5
18D
100
AcDbEntity
8
1
62
256
6
ByLayer
370
18
48
1
60
0
100
AcDbLine
10
18.722186
20
-26.500895
30
0
11
18.584808
21
-27.785786
31
0
39
0
210
0
220
0
230
1
0
LINE
5
18E
100
AcDbEntity
8
1
62
256
6
ByLayer
370
18
48
1
60
0
100
AcDbLine
10
15.387108
20
-36.030944
30
0
11
-15.995301
21
-32.079571
31
0
39
0
210
0
220
0
230
1
0
LINE
5
18F
100
AcDbEntity
8
SK1
62
256
6
ByLayer
370
18
48
1
60
0
100
AcDbLine
10
-3.723497
20
4.834084
30
0
11
-15.995301
21
4.834084
31
0
39
0
210
0
220
0
230
1
0
LINE
5
190
100
AcDbEntity
8
1
62
256
6
ByLayer
370
18
48
1
60
0
100
AcDbLine
10
15.387108
20
-36.030944
30
0
11
15.225495
21
-36.144994
31
0
39
0
210
0
220
0
230
1
0
LINE
5
191
100
AcDbEntity
8
1
62
256
6
ByLayer
370
18
48
1
60
0
100
AcDbLine
10
13.004699
20
21.423141
30
0
11
13.004699
21
2.309568
31
0
39
0
210
0
220
0
230
1
0
LINE
5
192
100
AcDbEntity
8
1
62
256
6
ByLayer
370
18
48
1
60
0
100
AcDbLine
10
9.204699
20
23.825773
30
0
11
13.004699
21
21.423141
31
0
39
0
210
0
220
0
230
1
0
LINE
5
193
100
AcDbEntity
8
1
62
256
6
ByLayer
370
18
48
1
60
0
100
AcDbLine
10
9.204699
20
-2.82604
30
0
11
9.204699
21
23.825773
31
0
39
0
210
0
220
0
230
1
0
LINE
5
194
100
AcDbEntity
8
1
62
256
6
ByLayer
370
18
48
1
60
0
100
AcDbLine
10
9.204699
20
23.825773
30
0
11
-3.723423
21
23.825773
31
0
39
0
210
0
220
0
230
1
0
LINE
5
195
100
AcDbEntity
8
1
62
256
6
ByLayer
370
18
48
1
60
0
100
AcDbLine
10
24.854256
20
-25.70481
30
0
11
22.232316
21
-21.529093
31
0
39
0
210
0
220
0
230
1
0
LINE
5
196
100
AcDbEntity
8
1
62
256
6
ByLayer
370
18
48
1
60
0
100
AcDbLine
10
26.204699
20
-20.889363
30
0
11
19.584498
21
-9.559313
31
0
39
0
210
0
220
0
230
1
0
LINE
5
197
100
AcDbEntity
8
1
62
256
6
ByLayer
370
18
48
1
60
0
100
AcDbLine
10
16.904182
20
-4.743635
30
0
11
16.703209
21
-11.799555
31
0
39
0
210
0
220
0
230
1
0
LINE
5
198
100
AcDbEntity
8
1
62
256
6
ByLayer
370
18
48
1
60
0
100
AcDbLine
10
-3.723423
20
-2.82604
30
0
11
-3.723423
21
23.825773
31
0
39
0
210
0
220
0
230
1
0
LINE
5
199
100
AcDbEntity
8
1
62
256
6
ByLayer
370
18
48
1
60
0
100
AcDbLine
10
26.067698
20
-32.869176
30
0
11
26.204464
21
-32.282474
31
0
39
0
210
0
220
0
230
1
0
LINE
5
19A
100
AcDbEntity
8
1
62
256
6
ByLayer
370
18
48
1
60
0
100
AcDbLine
10
9.204699
20
-2.82604
30
0
11
16.703209
21
-11.799555
31
0
39
0
210
0
220
0
230
1
0
LINE
5
19B
100
AcDbEntity
8
1
62
256
6
ByLayer
370
18
48
1
60
0
100
AcDbLine
10
24.787503
20
-36.294693
30
0
11
24.978345
21
-36.236863
31
0
39
0
210
0
220
0
230
1
0
LINE
5
19C
100
AcDbEntity
8
1
62
256
6
ByLayer
370
18
48
1
60
0
100
AcDbLine
10
24.854256
20
-25.70481
30
0
11
21.860295
21
-25.327839
31
0
39
0
210
0
220
0
230
1
0
LINE
5
19D
100
AcDbEntity
8
1
62
256
6
ByLayer
370
18
48
1
60
0
100
AcDbLine
10
-0.424131
20
-28.995818
30
0
11
-1.410355
21
-22.316196
31
0
39
0
210
0
220
0
230
1
0
LINE
5
19E
100
AcDbEntity
8
1
62
256
6
ByLayer
370
18
48
1
60
0
100
AcDbLine
10
14.330168
20
-39.459446
30
0
11
14.24349
21
-40.344527
31
0
39
0
210
0
220
0
230
1
0
LINE
5
19F
100
AcDbEntity
8
1
62
256
6
ByLayer
370
18
48
1
60
0
100
AcDbLine
10
14.960341
20
-38.852513
30
0
11
15.593535
21
-36.056953
31
0
39
0
210
0
220
0
230
1
0
LINE
5
1A0
100
AcDbEntity
8
1
62
256
6
ByLayer
370
18
48
1
60
0
100
AcDbLine
10
22.232316
20
-21.529093
30
0
11
21.860295
21
-25.327839
31
0
39
0
210
0
220
0
230
1
0
LINE
5
1A1
100
AcDbEntity
8
1
62
256
6
ByLayer
370
18
48
1
60
0
100
AcDbLine
10
24.69046
20
-37.202333
30
0
11
25.085499
21
-37.082626
31
0
39
0
210
0
220
0
230
1
0
LINE
5
1A2
100
AcDbEntity
8
1
62
256
6
ByLayer
370
18
48
1
60
0
100
AcDbLine
10
18.95784
20
-26.185547
30
0
11
19.502908
21
-20.619804
31
0
39
0
210
0
220
0
230
1
0
LINE
5
1A3
100
AcDbEntity
8
1
62
256
6
ByLayer
370
18
48
1
60
0
100
AcDbLine
10
-2.941256
20
-31.842626
30
0
11
-3.045024
21
-31.772732
31
0
39
0
210
0
220
0
230
1
0
LINE
5
1A4
100
AcDbEntity
8
1
62
256
6
ByLayer
370
18
48
1
60
0
100
AcDbLine
10
24.341318
20
-28.002374
30
0
11
24.854256
21
-25.801969
31
0
39
0
210
0
220
0
230
1
0
LINE
5
1A5
100
AcDbEntity
8
1
62
256
6
ByLayer
370
18
48
1
60
0
100
AcDbLine
10
23.15649
20
-28.361408
30
0
11
24.787503
21
-36.294693
31
0
39
0
210
0
220
0
230
1
0
LINE
5
1A6
100
AcDbEntity
8
1
62
256
6
ByLayer
370
18
48
1
60
0
100
AcDbLine
10
26.070375
20
-32.934677
30
0
11
26.052929
21
-32.93248
31
0
39
0
210
0
220
0
230
1
0
LINE
5
1A7
100
AcDbEntity
8
1
62
256
6
ByLayer
370
18
48
1
60
0
100
AcDbLine
10
14.364994
20
-39.305692
30
0
11
14.330168
21
-39.459446
31
0
39
0
210
0
220
0
230
1
0
LINE
5
1A8
100
AcDbEntity
8
1
62
256
6
ByLayer
370
18
48
1
60
0
100
AcDbLine
10
14.537124
20
-39.048132
30
0
11
14.24349
21
-40.344527
31
0
39
0
210
0
220
0
230
1
0
LINE
5
1A9
100
AcDbEntity
8
1
62
256
6
ByLayer
370
18
48
1
60
0
100
AcDbLine
10
24.341318
20
-28.002374
30
0
11
24.978345
21
-36.236863
31
0
39
0
210
0
220
0
230
1
0
LINE
5
1AA
100
AcDbEntity
8
1
62
256
6
ByLayer
370
18
48
1
60
0
100
AcDbLine
10
26.204464
20
-32.282474
30
0
11
26.113794
21
-33.208317
31
0
39
0
210
0
220
0
230
1
0
LINE
5
1AB
100
AcDbEntity
8
1
62
256
6
ByLayer
370
18
48
1
60
0
100
AcDbLine
10
26.204699
20
-20.889363
30
0
11
26.204699
21
-23.023257
31
0
39
0
210
0
220
0
230
1
0
LINE
5
1AC
100
AcDbEntity
8
1
62
256
6
ByLayer
370
18
48
1
60
0
100
AcDbLine
10
-15.995301
20
88.397229
30
0
11
-15.995301
21
54.85801
31
0
39
0
210
0
220
0
230
1
0
LINE
5
1AD
100
AcDbEntity
8
1
62
256
6
ByLayer
370
18
48
1
60
0
100
AcDbLine
10
-15.995301
20
-31.231248
30
0
11
-15.995301
21
-24.63411
31
0
39
0
210
0
220
0
230
1
0
LINE
5
1AE
100
AcDbEntity
8
1
62
256
6
ByLayer
370
18
48
1
60
0
100
AcDbLine
10
-2.941256
20
-31.842626
30
0
11
-2.941256
21
-24.831888
31
0
39
0
210
0
220
0
230
1
0
LINE
5
1AF
100
AcDbEntity
8
1
62
256
6
ByLayer
370
18
48
1
60
0
100
AcDbLine
10
-3.045024
20
-31.772732
30
0
11
-3.045024
21
-24.832309
31
0
39
0
210
0
220
0
230
1
0
MTEXT
5
30E
100
AcDbEntity
8
SK6
62
256
6
ByLayer
370
18
48
1
60
0
100
AcDbMText
10
30.812014
20
100.015015
30
0
210
0
220
0
230
1
1
\W0.7861;3X R820H-BR26SSYP12
40
3
41
0
44
1.084337
50
0
71
7
72
5
7
iso_b_vert
0
MTEXT
5
312
100
AcDbEntity
8
2
62
256
6
ByLayer
370
18
48
1
60
0
100
AcDbMText
10
45.75
20
-14.1
30
0
210
0
220
0
230
1
1
\W0.7883;Dc = 189.0 - 214.0
40
3
41
0
44
1.084337
50
89.9999999999996
71
7
72
5
7
iso_b_vert
0
DIMENSION
5
31D
100
AcDbEntity
8
2
62
256
6
ByLayer
370
13
48
1
60
0
100
AcDbDimension
2
DimnDraft3D1
10
26
20
103.5
30
0
11
9.557895
21
103.5
31
0
70
32
71
5
72
1
41
1
210
0
220
0
230
1
3
Standard
100
AcDbAlignedDimension
13
0
23
2
33
0
14
26
24
96.5
34
0
50
0
100
AcDbRotatedDimension
1001
ACAD
1000
DSTYLE
1002
{
1070
   279
1070
     0
1070
   172
1070
     1
1070
   173
1070
     1
1070
   340
1005
30F
1070
   271
1070
     1
1070
   272
1070
     3
1070
    77
1070
     1
1070
    73
1070
     0
1070
   171
1070
     4
1070
   274
1070
     4
1070
   177
1070
     7
1070
   176
1070
     7
1070
   178
1070
     7
1070
    41
1041
3.175
1070
   147
1041
1.5
1070
    42
1041
2.0
1070
    44
1041
2.0
1070
   140
1041
3.0
1070
   343
1005
0
1070
   344
1005
0
1002
}
0
DIMENSION
5
327
100
AcDbEntity
8
2
62
256
6
ByLayer
370
13
48
1
60
0
100
AcDbDimension
2
DimnDraft3D2
10
47.430276
20
-94.49565
30
0
11
47.430276
21
-0.432036
31
0
70
32
71
5
72
1
41
1
210
0
220
0
230
1
3
Standard
100
AcDbAlignedDimension
13
28
23
94.5
33
0
14
27.202084
24
-94.49565
34
0
50
90
100
AcDbRotatedDimension
1001
ACAD
1000
DSTYLE
1002
{
1070
    74
1070
     0
1070
   279
1070
     0
1070
   172
1070
     1
1070
   173
1070
     1
1070
   340
1005
30F
1070
   271
1070
     1
1070
   272
1070
     3
1070
    77
1070
     1
1070
    73
1070
     0
1070
   171
1070
     4
1070
   274
1070
     4
1070
   177
1070
     7
1070
   176
1070
     7
1070
   178
1070
     7
1070
    78
1070
     8
1070
    41
1041
3.175
1070
   147
1041
1.5
1070
    42
1041
2.0
1070
    44
1041
2.0
1070
   140
1041
3.0
1070
   343
1005
0
1070
   344
1005
0
1002
}
0
DIMENSION
5
331
100
AcDbEntity
8
2
62
256
6
ByLayer
370
13
48
1
60
0
100
AcDbDimension
2
DimnDraft3D3
10
27
20
94.5
30
0
11
36.588733
21
84.970093
31
0
70
34
71
5
72
1
41
1
210
0
220
0
230
1
3
Standard
100
AcDb2LineAngularDimension
13
27.199096
23
83.136073
33
0
14
26.114342
24
93.456814
34
0
15
26
25
94.5
35
0
16
38.818168
26
82.962701
36
0
40
0
0
ENDSEC
0
SECTION
2
OBJECTS
0
DICTIONARY
5
3a0
330
0
100
AcDbDictionary
280
0
281
1
3
ACAD_GROUP
350
3a1
3
ACAD_GROUP
350
3a2
3
ACAD_MLINESTYLE
350
3a3
0
DICTIONARY
5
3a1
330
0
100
AcDbDictionary
280
0
281
1
0
DICTIONARY
5
3a2
330
0
100
AcDbDictionary
280
0
281
1
3
_DC
350
33C
3
_DC_55
350
33B
3
<200931852NDI000_00>
350
33D
3
<200932019MOD000_00>
350
33A
0
DICTIONARY
5
3a3
330
0
100
AcDbDictionary
280
0
281
1
3
Standard
350
18
0
GROUP
5
33C
330
3a2
100
AcDbGroup
300

70
0
71
1
340
312
0
GROUP
5
33B
330
3a2
100
AcDbGroup
300

70
0
71
1
340
312
340
312
0
GROUP
5
33D
330
3a2
100
AcDbGroup
300

70
0
71
1
340
79
340
7A
340
7B
340
7C
340
7D
340
7E
340
7F
340
80
340
81
340
82
340
83
340
84
340
85
340
86
340
87
340
88
340
89
340
8A
340
8B
340
8C
340
8D
340
8E
340
8F
340
90
340
91
340
92
340
93
340
94
340
95
340
96
340
97
340
98
340
99
340
9A
340
9B
340
9C
340
9D
340
9E
340
9F
340
A0
340
A1
340
A2
340
A3
340
A4
340
A5
340
A6
340
A7
340
A8
340
A9
340
AA
340
AB
340
AC
340
AD
340
AE
340
AF
340
B0
340
B1
340
B2
340
B3
340
B4
340
B5
340
B6
340
B7
340
B8
340
B9
340
BA
340
BB
340
BC
340
BD
340
BE
340
BF
340
C0
340
C1
340
C2
340
C3
340
C4
340
C5
340
C6
340
C7
340
C8
340
C9
340
CA
340
CB
340
CC
340
CD
340
CE
340
CF
340
D0
340
D1
340
D2
340
D3
340
D4
340
D5
340
D6
340
D7
340
D8
340
D9
340
DA
340
DB
340
DC
340
DD
340
DE
340
DF
340
E0
340
E1
340
E2
340
E3
340
E4
340
E5
340
E6
340
E7
340
E8
340
E9
340
EA
340
EB
340
EC
340
ED
340
EE
340
EF
340
F0
340
F1
340
F2
340
F3
340
F4
340
F5
340
F6
340
F7
340
F8
340
F9
340
FA
340
FB
340
FC
340
FD
340
FE
340
FF
340
100
340
101
340
102
340
103
340
104
340
105
340
106
340
107
340
108
340
109
340
10A
340
10B
340
10C
340
10D
340
10E
340
10F
340
110
340
111
340
112
340
113
340
114
340
115
340
116
340
117
340
118
340
119
340
11A
340
11B
340
11C
340
11D
340
11E
340
11F
340
120
340
121
340
122
340
123
340
124
340
125
340
126
340
127
340
128
340
129
340
12A
340
12B
340
12C
340
12D
340
12E
340
12F
340
130
340
131
340
132
340
133
340
134
340
135
340
136
340
137
340
138
340
139
340
13A
340
13B
340
13C
340
13D
340
13E
340
13F
340
140
340
141
340
142
340
143
340
145
340
146
340
147
340
148
340
149
340
14A
340
14B
340
14C
340
14D
340
14E
340
14F
340
150
340
151
340
152
340
153
340
154
340
155
340
156
340
157
340
158
340
159
340
15A
340
15B
340
15C
340
15D
340
15E
340
15F
340
160
340
161
340
162
340
163
340
164
340
165
340
166
340
167
340
168
340
169
340
16A
340
16B
340
16C
340
16D
340
16E
340
16F
340
170
340
171
340
172
340
173
340
174
340
175
340
176
340
177
340
178
340
179
340
17A
340
17B
340
17C
340
17D
340
17E
340
17F
340
180
340
181
340
182
340
183
340
184
340
185
340
186
340
187
340
188
340
189
340
18A
340
18B
340
18C
340
18D
340
18E
340
18F
340
190
340
191
340
192
340
193
340
194
340
195
340
196
340
197
340
198
340
199
340
19A
340
19B
340
19C
340
19D
340
19E
340
19F
340
1A0
340
1A1
340
1A2
340
1A3
340
1A4
340
1A5
340
1A6
340
1A7
340
1A8
340
1A9
340
1AA
340
1AB
340
1B1
340
1B2
340
1B3
340
1B4
340
1B5
340
1B6
340
1B7
340
1B8
340
1B9
340
1BA
340
1BB
340
1BC
340
1BD
340
1BE
340
1BF
340
1C0
340
1C1
340
1C2
340
1C3
340
1C4
340
1C5
340
1C6
340
1C7
340
1C8
340
1C9
340
1CA
340
1CB
340
1CC
340
1CD
340
1CE
340
1CF
340
1D0
340
1D1
340
1D2
340
1D3
340
1D4
340
1D5
340
1D6
340
1D7
340
1D8
340
1D9
340
1DA
340
1DB
340
1DC
340
1DD
340
1DE
340
1DF
340
1E0
340
1E1
340
1E2
340
1E3
340
1E4
340
1E5
340
1E6
340
1E7
340
1E8
340
1E9
340
1EA
340
1EB
340
1EC
340
1ED
340
1EE
340
1EF
340
1F0
340
1F1
340
1F2
340
1F3
340
1F4
340
1F5
340
1F6
340
1F7
340
1F8
340
1F9
340
1FA
340
1FB
340
1FC
340
1FD
340
1FE
340
1FF
340
200
340
201
340
202
340
203
340
204
340
205
340
206
340
207
340
208
340
209
340
20A
340
20B
340
20C
340
20D
340
20E
340
20F
340
210
340
211
340
212
340
213
340
214
340
215
340
216
340
217
340
218
340
219
340
21A
340
21B
340
21C
340
21D
340
21E
340
21F
340
220
340
221
340
222
340
223
340
224
340
225
340
226
340
227
340
228
340
229
340
22A
340
22B
340
22C
340
22D
340
22E
340
22F
340
230
340
231
340
232
340
233
340
234
340
235
340
236
340
237
340
238
340
239
340
23A
340
23B
340
23C
340
23D
340
23E
340
23F
340
240
340
241
340
242
340
243
340
244
340
245
340
246
340
247
340
248
340
249
340
24A
340
24B
340
24C
340
24D
340
24E
340
24F
340
250
340
251
340
252
340
253
340
254
340
255
340
256
340
257
340
258
340
259
340
25A
340
25B
340
25C
340
25D
340
25E
340
25F
340
260
340
261
340
262
340
263
340
264
340
265
340
266
340
267
340
268
340
269
340
26A
340
26B
340
26C
340
26D
340
26E
340
26F
340
270
340
271
340
272
340
273
340
274
340
275
340
276
340
277
340
278
340
279
340
27A
340
27B
340
27C
340
27D
340
27E
340
27F
340
280
340
281
340
282
340
283
340
284
340
285
340
286
340
287
340
288
340
289
340
28A
340
28B
340
28C
340
28D
340
28E
340
28F
340
290
340
291
340
292
340
293
340
294
340
295
340
296
340
297
340
298
340
299
340
29A
340
29B
340
29C
340
29D
340
29E
340
29F
340
2A0
340
2A1
340
2A2
340
2A3
340
2A4
340
2A5
340
2A6
340
2A7
340
2A8
340
2A9
340
2AA
340
2AB
340
2AC
340
2AD
340
2AE
340
2AF
340
2B0
340
2B1
340
2B2
340
2B3
340
2B4
340
2B5
340
2B6
340
2B7
340
2B8
340
2B9
340
2BA
340
2BB
340
2BC
340
2BD
340
2BE
340
2BF
340
2C0
340
2C1
340
2C2
340
2C3
340
2C4
340
2C5
340
2C6
340
2C7
340
2C8
340
2C9
340
2CA
340
2CB
340
2CC
340
2CD
340
2CE
340
2CF
340
2D0
340
2D1
340
2D2
340
2D3
340
2D4
340
2D5
340
2D6
340
2D7
340
2D8
340
2D9
340
2DA
340
2DB
340
2DC
340
2DD
340
2DE
340
2DF
340
2E0
340
2E1
340
2E2
340
2E3
340
2E4
340
2E5
340
2E6
340
2E7
340
2E8
340
2E9
340
2EA
340
2EB
340
2EC
340
2ED
340
2EE
340
2EF
340
2F0
340
2F1
340
2F2
340
2F3
340
2F4
340
2F5
340
2F6
340
2F7
340
2F8
340
2F9
340
2FA
340
2FB
340
2FC
340
2FD
340
2FE
340
2FF
340
300
340
301
340
302
340
303
340
304
340
305
340
306
340
307
340
308
340
309
340
30A
340
30B
340
30C
340
30D
0
GROUP
5
33A
330
3a2
100
AcDbGroup
300

70
0
71
1
340
6C
340
6E
340
70
340
72
340
74
340
76
340
77
340
78
340
79
340
7A
340
7B
340
7C
340
7D
340
7E
340
7F
340
80
340
81
340
82
340
83
340
84
340
85
340
86
340
87
340
88
340
89
340
8A
340
8B
340
8C
340
8D
340
8E
340
8F
340
90
340
91
340
92
340
93
340
94
340
95
340
96
340
97
340
98
340
99
340
9A
340
9B
340
9C
340
9D
340
9E
340
9F
340
A0
340
A1
340
A2
340
A3
340
A4
340
A5
340
A6
340
A7
340
A8
340
A9
340
AA
340
AB
340
AC
340
AD
340
AE
340
AF
340
B0
340
B1
340
B2
340
B3
340
B4
340
B5
340
B6
340
B7
340
B8
340
B9
340
BA
340
BB
340
BC
340
BD
340
BE
340
BF
340
C0
340
C1
340
C2
340
C3
340
C4
340
C5
340
C6
340
C7
340
C8
340
C9
340
CA
340
CB
340
CC
340
CD
340
CE
340
CF
340
D0
340
D1
340
D2
340
D3
340
D4
340
D5
340
D6
340
D7
340
D8
340
D9
340
DA
340
DB
340
DC
340
DD
340
DE
340
DF
340
E0
340
E1
340
E2
340
E3
340
E4
340
E5
340
E6
340
E7
340
E8
340
E9
340
EA
340
EB
340
EC
340
ED
340
EE
340
EF
340
F0
340
F1
340
F2
340
F3
340
F4
340
F5
340
F6
340
F7
340
F8
340
F9
340
FA
340
FB
340
FC
340
FD
340
FE
340
FF
340
100
340
101
340
102
340
103
340
104
340
105
340
106
340
107
340
108
340
109
340
10A
340
10B
340
10C
340
10D
340
10E
340
10F
340
110
340
111
340
112
340
113
340
114
340
115
340
116
340
117
340
118
340
119
340
11A
340
11B
340
11C
340
11D
340
11E
340
11F
340
120
340
121
340
122
340
123
340
124
340
125
340
126
340
127
340
128
340
129
340
12A
340
12B
340
12C
340
12D
340
12E
340
12F
340
130
340
131
340
132
340
133
340
134
340
135
340
136
340
137
340
138
340
139
340
13A
340
13B
340
13C
340
13D
340
13E
340
13F
340
140
340
141
340
142
340
143
340
145
340
146
340
147
340
148
340
149
340
14A
340
14B
340
14C
340
14D
340
14E
340
14F
340
150
340
151
340
152
340
153
340
154
340
155
340
156
340
157
340
158
340
159
340
15A
340
15B
340
15C
340
15D
340
15E
340
15F
340
160
340
161
340
162
340
163
340
164
340
165
340
166
340
167
340
168
340
169
340
16A
340
16B
340
16C
340
16D
340
16E
340
16F
340
170
340
171
340
172
340
173
340
174
340
175
340
176
340
177
340
178
340
179
340
17A
340
17B
340
17C
340
17D
340
17E
340
17F
340
180
340
181
340
182
340
183
340
184
340
185
340
186
340
187
340
188
340
189
340
18A
340
18B
340
18C
340
18D
340
18E
340
18F
340
190
340
191
340
192
340
193
340
194
340
195
340
196
340
197
340
198
340
199
340
19A
340
19B
340
19C
340
19D
340
19E
340
19F
340
1A0
340
1A1
340
1A2
340
1A3
340
1A4
340
1A5
340
1A6
340
1A7
340
1A8
340
1A9
340
1AA
340
1AB
340
1AC
340
1AD
340
1AE
340
1AF
340
1B0
340
1B1
340
1B2
340
1B3
340
1B4
340
1B5
340
1B6
340
1B7
340
1B8
340
1B9
340
1BA
340
1BB
340
1BC
340
1BD
340
1BE
340
1BF
340
1C0
340
1C1
340
1C2
340
1C3
340
1C4
340
1C5
340
1C6
340
1C7
340
1C8
340
1C9
340
1CA
340
1CB
340
1CC
340
1CD
340
1CE
340
1CF
340
1D0
340
1D1
340
1D2
340
1D3
340
1D4
340
1D5
340
1D6
340
1D7
340
1D8
340
1D9
340
1DA
340
1DB
340
1DC
340
1DD
340
1DE
340
1DF
340
1E0
340
1E1
340
1E2
340
1E3
340
1E4
340
1E5
340
1E6
340
1E7
340
1E8
340
1E9
340
1EA
340
1EB
340
1EC
340
1ED
340
1EE
340
1EF
340
1F0
340
1F1
340
1F2
340
1F3
340
1F4
340
1F5
340
1F6
340
1F7
340
1F8
340
1F9
340
1FA
340
1FB
340
1FC
340
1FD
340
1FE
340
1FF
340
200
340
201
340
202
340
203
340
204
340
205
340
206
340
207
340
208
340
209
340
20A
340
20B
340
20C
340
20D
340
20E
340
20F
340
210
340
211
340
212
340
213
340
214
340
215
340
216
340
217
340
218
340
219
340
21A
340
21B
340
21C
340
21D
340
21E
340
21F
340
220
340
221
340
222
340
223
340
224
340
225
340
226
340
227
340
228
340
229
340
22A
340
22B
340
22C
340
22D
340
22E
340
22F
340
230
340
231
340
232
340
233
340
234
340
235
340
236
340
237
340
238
340
239
340
23A
340
23B
340
23C
340
23D
340
23E
340
23F
340
240
340
241
340
242
340
243
340
244
340
245
340
246
340
247
340
248
340
249
340
24A
340
24B
340
24C
340
24D
340
24E
340
24F
340
250
340
251
340
252
340
253
340
254
340
255
340
256
340
257
340
258
340
259
340
25A
340
25B
340
25C
340
25D
340
25E
340
25F
340
260
340
261
340
262
340
263
340
264
340
265
340
266
340
267
340
268
340
269
340
26A
340
26B
340
26C
340
26D
340
26E
340
26F
340
270
340
271
340
272
340
273
340
274
340
275
340
276
340
277
340
278
340
279
340
27A
340
27B
340
27C
340
27D
340
27E
340
27F
340
280
340
281
340
282
340
283
340
284
340
285
340
286
340
287
340
288
340
289
340
28A
340
28B
340
28C
340
28D
340
28E
340
28F
340
290
340
291
340
292
340
293
340
294
340
295
340
296
340
297
340
298
340
299
340
29A
340
29B
340
29C
340
29D
340
29E
340
29F
340
2A0
340
2A1
340
2A2
340
2A3
340
2A4
340
2A5
340
2A6
340
2A7
340
2A8
340
2A9
340
2AA
340
2AB
340
2AC
340
2AD
340
2AE
340
2AF
340
2B0
340
2B1
340
2B2
340
2B3
340
2B4
340
2B5
340
2B6
340
2B7
340
2B8
340
2B9
340
2BA
340
2BB
340
2BC
340
2BD
340
2BE
340
2BF
340
2C0
340
2C1
340
2C2
340
2C3
340
2C4
340
2C5
340
2C6
340
2C7
340
2C8
340
2C9
340
2CA
340
2CB
340
2CC
340
2CD
340
2CE
340
2CF
340
2D0
340
2D1
340
2D2
340
2D3
340
2D4
340
2D5
340
2D6
340
2D7
340
2D8
340
2D9
340
2DA
340
2DB
340
2DC
340
2DD
340
2DE
340
2DF
340
2E0
340
2E1
340
2E2
340
2E3
340
2E4
340
2E5
340
2E6
340
2E7
340
2E8
340
2E9
340
2EA
340
2EB
340
2EC
340
2ED
340
2EE
340
2EF
340
2F0
340
2F1
340
2F2
340
2F3
340
2F4
340
2F5
340
2F6
340
2F7
340
2F8
340
2F9
340
2FA
340
2FB
340
2FC
340
2FD
340
2FE
340
2FF
340
300
340
301
340
302
340
303
340
304
340
305
340
306
340
307
340
308
340
309
340
30A
340
30B
340
30C
340
30D
340
312
340
312
340
312
340
79
340
7A
340
7B
340
7C
340
7D
340
7E
340
7F
340
80
340
81
340
82
340
83
340
84
340
85
340
86
340
87
340
88
340
89
340
8A
340
8B
340
8C
340
8D
340
8E
340
8F
340
90
340
91
340
92
340
93
340
94
340
95
340
96
340
97
340
98
340
99
340
9A
340
9B
340
9C
340
9D
340
9E
340
9F
340
A0
340
A1
340
A2
340
A3
340
A4
340
A5
340
A6
340
A7
340
A8
340
A9
340
AA
340
AB
340
AC
340
AD
340
AE
340
AF
340
B0
340
B1
340
B2
340
B3
340
B4
340
B5
340
B6
340
B7
340
B8
340
B9
340
BA
340
BB
340
BC
340
BD
340
BE
340
BF
340
C0
340
C1
340
C2
340
C3
340
C4
340
C5
340
C6
340
C7
340
C8
340
C9
340
CA
340
CB
340
CC
340
CD
340
CE
340
CF
340
D0
340
D1
340
D2
340
D3
340
D4
340
D5
340
D6
340
D7
340
D8
340
D9
340
DA
340
DB
340
DC
340
DD
340
DE
340
DF
340
E0
340
E1
340
E2
340
E3
340
E4
340
E5
340
E6
340
E7
340
E8
340
E9
340
EA
340
EB
340
EC
340
ED
340
EE
340
EF
340
F0
340
F1
340
F2
340
F3
340
F4
340
F5
340
F6
340
F7
340
F8
340
F9
340
FA
340
FB
340
FC
340
FD
340
FE
340
FF
340
100
340
101
340
102
340
103
340
104
340
105
340
106
340
107
340
108
340
109
340
10A
340
10B
340
10C
340
10D
340
10E
340
10F
340
110
340
111
340
112
340
113
340
114
340
115
340
116
340
117
340
118
340
119
340
11A
340
11B
340
11C
340
11D
340
11E
340
11F
340
120
340
121
340
122
340
123
340
124
340
125
340
126
340
127
340
128
340
129
340
12A
340
12B
340
12C
340
12D
340
12E
340
12F
340
130
340
131
340
132
340
133
340
134
340
135
340
136
340
137
340
138
340
139
340
13A
340
13B
340
13C
340
13D
340
13E
340
13F
340
140
340
141
340
142
340
143
340
145
340
146
340
147
340
148
340
149
340
14A
340
14B
340
14C
340
14D
340
14E
340
14F
340
150
340
151
340
152
340
153
340
154
340
155
340
156
340
157
340
158
340
159
340
15A
340
15B
340
15C
340
15D
340
15E
340
15F
340
160
340
161
340
162
340
163
340
164
340
165
340
166
340
167
340
168
340
169
340
16A
340
16B
340
16C
340
16D
340
16E
340
16F
340
170
340
171
340
172
340
173
340
174
340
175
340
176
340
177
340
178
340
179
340
17A
340
17B
340
17C
340
17D
340
17E
340
17F
340
180
340
181
340
182
340
183
340
184
340
185
340
186
340
187
340
188
340
189
340
18A
340
18B
340
18C
340
18D
340
18E
340
18F
340
190
340
191
340
192
340
193
340
194
340
195
340
196
340
197
340
198
340
199
340
19A
340
19B
340
19C
340
19D
340
19E
340
19F
340
1A0
340
1A1
340
1A2
340
1A3
340
1A4
340
1A5
340
1A6
340
1A7
340
1A8
340
1A9
340
1AA
340
1AB
340
1B1
340
1B2
340
1B3
340
1B4
340
1B5
340
1B6
340
1B7
340
1B8
340
1B9
340
1BA
340
1BB
340
1BC
340
1BD
340
1BE
340
1BF
340
1C0
340
1C1
340
1C2
340
1C3
340
1C4
340
1C5
340
1C6
340
1C7
340
1C8
340
1C9
340
1CA
340
1CB
340
1CC
340
1CD
340
1CE
340
1CF
340
1D0
340
1D1
340
1D2
340
1D3
340
1D4
340
1D5
340
1D6
340
1D7
340
1D8
340
1D9
340
1DA
340
1DB
340
1DC
340
1DD
340
1DE
340
1DF
340
1E0
340
1E1
340
1E2
340
1E3
340
1E4
340
1E5
340
1E6
340
1E7
340
1E8
340
1E9
340
1EA
340
1EB
340
1EC
340
1ED
340
1EE
340
1EF
340
1F0
340
1F1
340
1F2
340
1F3
340
1F4
340
1F5
340
1F6
340
1F7
340
1F8
340
1F9
340
1FA
340
1FB
340
1FC
340
1FD
340
1FE
340
1FF
340
200
340
201
340
202
340
203
340
204
340
205
340
206
340
207
340
208
340
209
340
20A
340
20B
340
20C
340
20D
340
20E
340
20F
340
210
340
211
340
212
340
213
340
214
340
215
340
216
340
217
340
218
340
219
340
21A
340
21B
340
21C
340
21D
340
21E
340
21F
340
220
340
221
340
222
340
223
340
224
340
225
340
226
340
227
340
228
340
229
340
22A
340
22B
340
22C
340
22D
340
22E
340
22F
340
230
340
231
340
232
340
233
340
234
340
235
340
236
340
237
340
238
340
239
340
23A
340
23B
340
23C
340
23D
340
23E
340
23F
340
240
340
241
340
242
340
243
340
244
340
245
340
246
340
247
340
248
340
249
340
24A
340
24B
340
24C
340
24D
340
24E
340
24F
340
250
340
251
340
252
340
253
340
254
340
255
340
256
340
257
340
258
340
259
340
25A
340
25B
340
25C
340
25D
340
25E
340
25F
340
260
340
261
340
262
340
263
340
264
340
265
340
266
340
267
340
268
340
269
340
26A
340
26B
340
26C
340
26D
340
26E
340
26F
340
270
340
271
340
272
340
273
340
274
340
275
340
276
340
277
340
278
340
279
340
27A
340
27B
340
27C
340
27D
340
27E
340
27F
340
280
340
281
340
282
340
283
340
284
340
285
340
286
340
287
340
288
340
289
340
28A
340
28B
340
28C
340
28D
340
28E
340
28F
340
290
340
291
340
292
340
293
340
294
340
295
340
296
340
297
340
298
340
299
340
29A
340
29B
340
29C
340
29D
340
29E
340
29F
340
2A0
340
2A1
340
2A2
340
2A3
340
2A4
340
2A5
340
2A6
340
2A7
340
2A8
340
2A9
340
2AA
340
2AB
340
2AC
340
2AD
340
2AE
340
2AF
340
2B0
340
2B1
340
2B2
340
2B3
340
2B4
340
2B5
340
2B6
340
2B7
340
2B8
340
2B9
340
2BA
340
2BB
340
2BC
340
2BD
340
2BE
340
2BF
340
2C0
340
2C1
340
2C2
340
2C3
340
2C4
340
2C5
340
2C6
340
2C7
340
2C8
340
2C9
340
2CA
340
2CB
340
2CC
340
2CD
340
2CE
340
2CF
340
2D0
340
2D1
340
2D2
340
2D3
340
2D4
340
2D5
340
2D6
340
2D7
340
2D8
340
2D9
340
2DA
340
2DB
340
2DC
340
2DD
340
2DE
340
2DF
340
2E0
340
2E1
340
2E2
340
2E3
340
2E4
340
2E5
340
2E6
340
2E7
340
2E8
340
2E9
340
2EA
340
2EB
340
2EC
340
2ED
340
2EE
340
2EF
340
2F0
340
2F1
340
2F2
340
2F3
340
2F4
340
2F5
340
2F6
340
2F7
340
2F8
340
2F9
340
2FA
340
2FB
340
2FC
340
2FD
340
2FE
340
2FF
340
300
340
301
340
302
340
303
340
304
340
305
340
306
340
307
340
308
340
309
340
30A
340
30B
340
30C
340
30D
340
30E
340
312
340
31D
340
327
340
331
0
MLINESTYLE
5
18
330
3a3
100
AcDbMlineStyle
2
Standard
70
0
3

62
256
51
90
52
90
71
2
49
-0.5
62
256
6
ByLayer
49
0.5
62
256
6
ByLayer
0
RASTERVARIABLES
5
38e
330

100
AcDbRasterVariables
90
0
70
1
71
1
72
1
0
ENDSEC
0
EOF
