0
SECTION
2
HEADER
9
$ACADVER
1
AC1015
9
$DWGCODEPAGE
3
ANSI_1252
9
$HANDSEED
5
3b6
9
$ANGBASE
50
0
9
$ANGDIR
70
0
9
$ATTMODE
70
1
9
$AUNITS
70
0
9
$AUPREC
70
0
9
$CECOLOR
62
256
9
$CELTSCALE
40
1
9
$CELTYPE
6
ByLayer
9
$CELWEIGHT
370
18
9
$CLAYER
8
0
9
$CMLJUST
70
0
9
$CMLSCALE
40
1
9
$CMLSTYLE
2
Standard
9
$DIMSTYLE
2
Standard
9
$TEXTSIZE
40
0.2
9
$TEXTSTYLE
7
Standard
9
$LUNITS
70
2
9
$LUPREC
70
4
9
$EXTNAMES
290
1
9
$INSUNITS
70
4
9
$LTSCALE
40
1
9
$LWDISPLAY
290
1
9
$PDMODE
70
0
9
$PDSIZE
40
0
9
$PLINEGEN
70
0
0
ENDSEC
0
SECTION
2
CLASSES
0
CLASS
1
RASTERVARIABLES
2
AcDbRasterVariables
3
ISM
90
0
280
0
281
0
0
ENDSEC
0
SECTION
2
TABLES
0
TABLE
2
VPORT
5
3ac
100
AcDbSymbolTable
0
VPORT
5
1
100
AcDbSymbolTableRecord
100
AcDbViewportTableRecord
2
*Active
70
0
10
0
20
0
11
1
21
1
12
-1
22
1
13
0
23
0
14
0.5
24
0.5
15
10
25
10
16
0
26
0
36
1
17
0
27
0
37
0
0
ENDTAB
0
TABLE
2
LTYPE
5
3ad
100
AcDbSymbolTable
0
LTYPE
5
14
100
AcDbSymbolTableRecord
100
AcDbLinetypeTableRecord
70
0
2
ByBlock
3

72
65
73
0
40
0
0
LTYPE
5
15
100
AcDbSymbolTableRecord
100
AcDbLinetypeTableRecord
70
0
2
ByLayer
3

72
65
73
0
40
0
0
LTYPE
5
16
100
AcDbSymbolTableRecord
100
AcDbLinetypeTableRecord
70
0
2
CONTINUOUS
3
Solid line
72
65
73
0
40
0
0
LTYPE
5
6A
100
AcDbSymbolTableRecord
100
AcDbLinetypeTableRecord
70
0
2
CENTER
3
____ _ ____ _ ____ _ ____
72
65
73
4
40
47.5
49
22
74
0
49
-8.5
74
0
49
8.5
74
0
49
-8.5
74
0
0
LTYPE
5
6B
100
AcDbSymbolTableRecord
100
AcDbLinetypeTableRecord
70
0
2
DASHED
3
__ __ __ __ __ __ __ __ __
72
65
73
2
40
25.72
49
12.86
74
0
49
-12.86
74
0
0
ENDTAB
0
TABLE
2
LAYER
5
3ae
100
AcDbSymbolTable
0
LAYER
5
10
100
AcDbSymbolTableRecord
100
AcDbLayerTableRecord
2
0
70
0
62
7
6
CONTINUOUS
290
1
370
-3
390
0
0
LAYER
5
6D
100
AcDbSymbolTableRecord
100
AcDbLayerTableRecord
2
2
70
0
62
7
6
CONTINUOUS
290
1
370
-3
390
0
0
LAYER
5
6F
100
AcDbSymbolTableRecord
100
AcDbLayerTableRecord
2
81
70
0
62
-3
6
CONTINUOUS
290
1
370
-3
390
0
0
LAYER
5
71
100
AcDbSymbolTableRecord
100
AcDbLayerTableRecord
2
80
70
0
62
-6
6
CONTINUOUS
290
1
370
-3
390
0
0
LAYER
5
73
100
AcDbSymbolTableRecord
100
AcDbLayerTableRecord
2
4
70
0
62
-2
6
CENTER
290
1
370
-3
390
0
0
LAYER
5
77
100
AcDbSymbolTableRecord
100
AcDbLayerTableRecord
2
1
70
0
62
4
6
CONTINUOUS
290
1
370
-3
390
0
0
LAYER
5
397
100
AcDbSymbolTableRecord
100
AcDbLayerTableRecord
2
SK4
70
0
62
2
6
CENTER
290
1
370
-3
390
0
0
LAYER
5
398
100
AcDbSymbolTableRecord
100
AcDbLayerTableRecord
2
SK1
70
0
62
4
6
CONTINUOUS
290
1
370
-3
390
0
0
LAYER
5
399
100
AcDbSymbolTableRecord
100
AcDbLayerTableRecord
2
SK6
70
0
62
5
6
CONTINUOUS
290
1
370
-3
390
0
0
ENDTAB
0
TABLE
2
STYLE
5
3af
100
AcDbSymbolTable
0
STYLE
5
11
100
AcDbSymbolTableRecord
100
AcDbTextStyleTableRecord
2
Standard
3
txt
70
0
71
0
40
0
41
1
42
0
50
0
0
STYLE
5
318
100
AcDbSymbolTableRecord
100
AcDbTextStyleTableRecord
2
iso_b_vert
3
simplex.shx
70
0
71
0
40
0
41
1
42
0
50
0
0
STYLE
5
319
100
AcDbSymbolTableRecord
100
AcDbTextStyleTableRecord
2
DWGDirectTextStyle
3
simplex
70
0
71
0
40
0
41
1
42
0
50
0
0
ENDTAB
0
TABLE
2
DIMSTYLE
5
3b0
100
AcDbSymbolTable
100
AcDbDimStyleTable
0
DIMSTYLE
105
27
100
AcDbSymbolTableRecord
100
AcDbDimStyleTableRecord
2
Standard
70
0
3
<>
41
0.18
42
0.0625
44
0.18
140
0.18
147
0.09
73
0
74
0
77
1
271
2
275
0
278
52
280
0
340
11
0
ENDTAB
0
TABLE
2
VIEW
5
3b1
100
AcDbSymbolTable
0
ENDTAB
0
TABLE
2
UCS
5
3b2
100
AcDbSymbolTable
0
ENDTAB
0
TABLE
2
APPID
5
3b3
100
AcDbSymbolTable
0
APPID
5
12
100
AcDbSymbolTableRecord
100
AcDbRegAppTableRecord
2
ACAD
70
0
0
ENDTAB
0
TABLE
2
BLOCK_RECORD
5
3b4
100
AcDbSymbolTable
0
BLOCK_RECORD
5
1F
100
AcDbSymbolTableRecord
100
AcDbBlockTableRecord
2
*Model_Space
340
0
70
0
0
BLOCK_RECORD
5
1B
100
AcDbSymbolTableRecord
100
AcDbBlockTableRecord
2
*Paper_Space
340
0
70
0
0
BLOCK_RECORD
5
23
100
AcDbSymbolTableRecord
100
AcDbBlockTableRecord
2
*Paper_Space0
340
0
70
0
0
BLOCK_RECORD
5
31C
100
AcDbSymbolTableRecord
100
AcDbBlockTableRecord
2
DimnDraft3D1
340
0
70
0
0
BLOCK_RECORD
5
326
100
AcDbSymbolTableRecord
100
AcDbBlockTableRecord
2
DimnDraft3D2
340
0
70
0
0
BLOCK_RECORD
5
330
100
AcDbSymbolTableRecord
100
AcDbBlockTableRecord
2
DimnDraft3D3
340
0
70
0
0
ENDTAB
0
ENDSEC
0
SECTION
2
BLOCKS
0
BLOCK
5
20
100
AcDbEntity
8
0
100
AcDbBlockBegin
2
*Model_Space
70
0
10
0
20
0
30
0
3
*Model_Space
0
ENDBLK
5
21
100
AcDbEntity
8
0
100
AcDbBlockEnd
0
BLOCK
5
1C
100
AcDbEntity
8
0
100
AcDbBlockBegin
2
*Paper_Space
70
0
10
0
20
0
30
0
3
*Paper_Space
0
ENDBLK
5
1D
100
AcDbEntity
8
0
100
AcDbBlockEnd
0
BLOCK
5
24
100
AcDbEntity
8
0
100
AcDbBlockBegin
2
*Paper_Space0
70
0
10
0
20
0
30
0
3
*Paper_Space0
0
ENDBLK
5
25
100
AcDbEntity
8
0
100
AcDbBlockEnd
0
BLOCK
5
323
100
AcDbEntity
8
0
100
AcDbBlockBegin
2
DimnDraft3D1
70
0
10
0
20
0
30
0
3
DimnDraft3D1
0
MTEXT
5
31D
100
AcDbEntity
8
2
62
256
6
ByLayer
370
18
48
1
60
0
100
AcDbMText
10
10.307895
20
104.25
30
0
210
0
220
0
230
1
1
\W0.6961;26.0
40
3
41
0
44
1.084337
50
0
71
7
72
5
7
iso_b_vert
0
LINE
5
31E
100
AcDbEntity
8
2
62
256
6
ByLayer
370
13
48
1
60
0
100
AcDbLine
10
0
20
2
30
0
11
0
21
105.5
31
0
39
0
210
0
220
0
230
1
0
LINE
5
31F
100
AcDbEntity
8
2
62
256
6
ByLayer
370
13
48
1
60
0
100
AcDbLine
10
26
20
85
30
0
11
26
21
105.5
31
0
39
0
210
0
220
0
230
1
0
LINE
5
320
100
AcDbEntity
8
2
62
256
6
ByLayer
370
13
48
1
60
0
100
AcDbLine
10
0
20
103.5
30
0
11
26
21
103.5
31
0
39
0
210
0
220
0
230
1
0
SOLID
5
321
100
AcDbEntity
8
2
62
256
6
ByLayer
370
13
48
1
60
0
100
AcDbTrace
10
0
20
103.5
30
0
11
3.174998
21
103.917997
31
0
12
3.175002
22
103.082003
32
0
13
0
23
103.5
33
0
39
0
210
0
220
0
230
1
0
SOLID
5
322
100
AcDbEntity
8
2
62
256
6
ByLayer
370
13
48
1
60
0
100
AcDbTrace
10
26
20
103.5
30
0
11
22.825002
21
103.082003
31
0
12
22.824998
22
103.917997
32
0
13
26
23
103.5
33
0
39
0
210
0
220
0
230
1
0
ENDBLK
5
324
100
AcDbEntity
8
0
100
AcDbBlockEnd
0
BLOCK
5
32D
100
AcDbEntity
8
0
100
AcDbBlockBegin
2
DimnDraft3D2
70
0
10
0
20
0
30
0
3
DimnDraft3D2
0
MTEXT
5
327
100
AcDbEntity
8
2
62
256
6
ByLayer
370
18
48
1
60
0
100
AcDbMText
10
32.907684
20
73.940104
30
0
210
0
220
0
230
1
1
\W0.6258;84%%d
40
3
41
0
44
1.084337
50
47.9999999999999
71
7
72
5
7
iso_b_vert
0
LINE
5
328
100
AcDbEntity
8
2
62
256
6
ByLayer
370
13
48
1
60
0
100
AcDbLine
10
27.408153
20
69.647029
30
0
11
27.462053
21
69.134205
31
0
39
0
210
0
220
0
230
1
0
LINE
5
329
100
AcDbEntity
8
2
62
256
6
ByLayer
370
13
48
1
60
0
100
AcDbLine
10
28
20
83
30
0
11
39.94687
21
83
31
0
39
0
210
0
220
0
230
1
0
ARC
5
32A
100
AcDbEntity
8
2
62
256
6
ByLayer
370
13
48
1
60
0
100
AcDbCircle
39
0
10
26.004699
20
83
30
0
40
11.942171422266
210
0
220
0
230
1
100
AcDbArc
50
276
51
0
0
SOLID
5
32B
100
AcDbEntity
8
2
62
256
6
ByLayer
370
13
48
1
60
0
100
AcDbTrace
10
27.252996
20
71.123249
30
0
11
30.310749
21
72.074816
31
0
12
30.452846
22
71.250987
32
0
13
27.252996
23
71.123249
33
0
39
0
210
0
220
0
230
1
0
SOLID
5
32C
100
AcDbEntity
8
2
62
256
6
ByLayer
370
13
48
1
60
0
100
AcDbTrace
10
37.94687
20
83
30
0
11
38.154308
21
79.80433
31
0
12
37.320139
22
79.859528
32
0
13
37.94687
23
83
33
0
39
0
210
0
220
0
230
1
0
ENDBLK
5
32E
100
AcDbEntity
8
0
100
AcDbBlockEnd
0
BLOCK
5
337
100
AcDbEntity
8
0
100
AcDbBlockBegin
2
DimnDraft3D3
70
0
10
0
20
0
30
0
3
DimnDraft3D3
0
MTEXT
5
331
100
AcDbEntity
8
2
62
256
6
ByLayer
370
18
48
1
60
0
100
AcDbMText
10
45.864333
20
0.317964
30
0
210
0
220
0
230
1
1
\W0.3160; 
40
3
41
0
44
1.084337
50
90
71
7
72
5
7
iso_b_vert
0
LINE
5
332
100
AcDbEntity
8
2
62
256
6
ByLayer
370
13
48
1
60
0
100
AcDbLine
10
28
20
83
30
0
11
48.614333
21
83
31
0
39
0
210
0
220
0
230
1
0
LINE
5
333
100
AcDbEntity
8
2
62
256
6
ByLayer
370
13
48
1
60
0
100
AcDbLine
10
27.202084
20
-82.99565
30
0
11
48.614333
21
-82.99565
31
0
39
0
210
0
220
0
230
1
0
LINE
5
334
100
AcDbEntity
8
2
62
256
6
ByLayer
370
13
48
1
60
0
100
AcDbLine
10
46.614333
20
83
30
0
11
46.614333
21
-82.99565
31
0
39
0
210
0
220
0
230
1
0
SOLID
5
335
100
AcDbEntity
8
2
62
256
6
ByLayer
370
13
48
1
60
0
100
AcDbTrace
10
46.614333
20
83
30
0
11
47.032329
21
79.825002
31
0
12
46.196336
22
79.824998
32
0
13
46.614333
23
83
33
0
39
0
210
0
220
0
230
1
0
SOLID
5
336
100
AcDbEntity
8
2
62
256
6
ByLayer
370
13
48
1
60
0
100
AcDbTrace
10
46.614333
20
-82.99565
30
0
11
46.196336
21
-79.820652
31
0
12
47.032329
22
-79.820649
32
0
13
46.614333
23
-82.99565
33
0
39
0
210
0
220
0
230
1
0
ENDBLK
5
338
100
AcDbEntity
8
0
100
AcDbBlockEnd
0
ENDSEC
0
SECTION
2
ENTITIES
0
ARC
5
1B9
100
AcDbEntity
8
1
62
256
6
ByLayer
370
13
48
0.05
60
0
100
AcDbCircle
39
0
10
-25.285079
20
-82.206
30
0
40
0.793999999999771
210
0
220
0
230
-1
100
AcDbArc
50
186
51
276
0
ARC
5
1BA
100
AcDbEntity
8
1
62
256
6
ByLayer
370
18
48
1
60
0
100
AcDbCircle
39
0
10
-8.495301
20
71.329446
30
0
40
0.95
210
0
220
0
230
1
100
AcDbArc
50
15
51
345
0
ARC
5
1BB
100
AcDbEntity
8
1
62
256
6
ByLayer
370
18
48
1
60
0
100
AcDbCircle
39
0
10
-8.495301
20
71.329446
30
0
40
1.26132486540519
210
0
220
0
230
1
100
AcDbArc
50
15
51
345
0
ARC
5
1BD
100
AcDbEntity
8
1
62
256
6
ByLayer
370
18
48
1
60
0
100
AcDbCircle
39
0
10
-23.004699
20
51.829446
30
0
40
9.99999999999928
210
0
220
0
230
-1
100
AcDbArc
50
0
51
70
0
CIRCLE
5
1BC
100
AcDbEntity
8
1
62
256
6
ByLayer
370
18
48
1
60
0
100
AcDbCircle
10
8.495301
20
71.329446
30
0
40
1.525
39
0
210
0
220
0
230
-1
0
ELLIPSE
5
1BE
100
AcDbEntity
8
1
62
256
6
ByLayer
370
18
48
1
60
0
100
AcDbEllipse
10
20.354746
20
76.13408
30
0
11
-0.14735377466846
21
1.40197751590065
31
0
210
0
220
0
230
1
40
0.996195
41
-2.61799387799154
42
-1.57079632679493
0
ELLIPSE
5
1BF
100
AcDbEntity
8
1
62
256
6
ByLayer
370
18
48
1
60
0
100
AcDbEllipse
10
20.601586
20
74.911182
30
0
11
0.326745207480084
21
0.0343423051578348
31
0
210
0
220
0
230
-1
40
0.510128
41
-1.5707963267949
42
-0.31707756475616
0
ELLIPSE
5
1C0
100
AcDbEntity
8
1
62
256
6
ByLayer
370
18
48
1
60
0
100
AcDbEllipse
10
20.354746
20
76.13408
30
0
11
-0.14735377466846
21
1.40197751590065
31
0
210
0
220
0
230
1
40
0.996195
41
1.57079632679487
42
2.61799387799146
0
ELLIPSE
5
1C1
100
AcDbEntity
8
1
62
256
6
ByLayer
370
18
48
1
60
0
100
AcDbEllipse
10
21.1995
20
75.141251
30
0
11
0.26550937424593
21
0.194045260686877
31
0
210
0
220
0
230
-1
40
0.509152
41
2.5289019691308
42
-2.92850617208826
0
ELLIPSE
5
1C2
100
AcDbEntity
8
1
62
256
6
ByLayer
370
18
48
1
60
0
100
AcDbEllipse
10
20.354746
20
76.13408
30
0
11
-0.14735377466846
21
1.40197751590065
31
0
210
0
220
0
230
1
40
0.996195
41
0.523598775598286
42
1.57079632679487
0
ELLIPSE
5
1C3
100
AcDbEntity
8
1
62
256
6
ByLayer
370
18
48
1
60
0
100
AcDbEllipse
10
20.354746
20
76.13408
30
0
11
-0.14735377466846
21
1.40197751590065
31
0
210
0
220
0
230
1
40
0.996195
41
-0.523598775598345
42
0.523598775598286
0
ELLIPSE
5
1C4
100
AcDbEntity
8
1
62
256
6
ByLayer
370
18
48
1
60
0
100
AcDbEllipse
10
20.354746
20
76.13408
30
0
11
-0.14735377466846
21
1.40197751590065
31
0
210
0
220
0
230
1
40
0.996195
41
-1.57079632679493
42
-0.523598775598345
0
ELLIPSE
5
1C5
100
AcDbEntity
8
1
62
256
6
ByLayer
370
18
48
1
60
0
100
AcDbEllipse
10
20.471762
20
76.146378
30
0
11
0.112305380934797
21
-1.06851432438367
31
0
210
0
220
0
230
1
40
0.996195
41
0
42
0.781013460241081
0
ELLIPSE
5
1C6
100
AcDbEntity
8
1
62
256
6
ByLayer
370
18
48
1
60
0
100
AcDbEllipse
10
19.241167
20
76.017038
30
0
11
0.0344734871856839
21
-0.327993321092457
31
0
210
0
220
0
230
-1
40
0.506253
41
0.210870490724543
42
2.72650604461446
0
ELLIPSE
5
1C7
100
AcDbEntity
8
1
62
256
6
ByLayer
370
18
48
1
60
0
100
AcDbEllipse
10
19.471034
20
75.416777
30
0
11
0.1929225357116
21
-0.267100713761478
31
0
210
0
220
0
230
-1
40
0.507214
41
-2.82676989002465
42
-1.57305112797379
0
ELLIPSE
5
1C8
100
AcDbEntity
8
1
62
256
6
ByLayer
370
18
48
1
60
0
100
AcDbEllipse
10
20.974619
20
77.280846
30
0
11
0.300051635635549
21
-0.134602403247205
31
0
210
0
220
0
230
-1
40
0.509152
41
2.92850617208817
42
-2.43486654220574
0
ELLIPSE
5
1C9
100
AcDbEntity
8
1
62
256
6
ByLayer
370
18
48
1
60
0
100
AcDbEllipse
10
20.341938
20
77.381575
30
0
11
0.326745207480222
21
0.0343423051597232
31
0
210
0
220
0
230
-1
40
0.510128
41
0.31707756475627
42
1.5707963267949
0
ELLIPSE
5
1CA
100
AcDbEntity
8
1
62
256
6
ByLayer
370
18
48
1
60
0
100
AcDbEllipse
10
20.471762
20
76.146378
30
0
11
-0.112305380934804
21
1.06851432438367
31
0
210
0
220
0
230
1
40
0.996195
41
-0.782387088380204
42
-3.98319067805849E-14
0
ELLIPSE
5
1CB
100
AcDbEntity
8
1
62
256
6
ByLayer
370
18
48
1
60
0
100
AcDbEllipse
10
19.968905
20
75.011911
30
0
11
0.300051635635565
21
-0.134602403247196
31
0
210
0
220
0
230
-1
40
0.509152
41
0.706725092708446
42
-2.93304503394642
0
ELLIPSE
5
1CC
100
AcDbEntity
8
1
62
256
6
ByLayer
370
18
48
1
60
0
100
AcDbEllipse
10
19.744024
20
77.151505
30
0
11
0.265509374245924
21
0.194045260686887
31
0
210
0
220
0
230
-1
40
0.509152
41
2.93304503394643
42
-0.612689599861892
0
ELLIPSE
5
1CD
100
AcDbEntity
8
1
62
256
6
ByLayer
370
18
48
1
60
0
100
AcDbEllipse
10
20.471762
20
76.146378
30
0
11
-0.112305380934804
21
1.06851432438367
31
0
210
0
220
0
230
1
40
0.996195
41
1.04719755119657
42
2.09439510239317
0
ELLIPSE
5
1CE
100
AcDbEntity
8
1
62
256
6
ByLayer
370
18
48
1
60
0
100
AcDbEllipse
10
20.360631
20
76.134698
30
0
11
0.250868311842435
21
-2.38685254888385
31
0
210
0
220
0
230
1
40
0.996195
41
0
42
6.28318530717959
0
ELLIPSE
5
1CF
100
AcDbEntity
8
1
62
256
6
ByLayer
370
18
48
1
60
0
100
AcDbEllipse
10
20.354746
20
76.13408
30
0
11
0.156792694901521
21
-1.49178284305241
31
0
210
0
220
0
230
1
40
0.996195
41
0
42
6.28318530717959
0
ELLIPSE
5
1D0
100
AcDbEntity
8
1
62
256
6
ByLayer
370
18
48
1
60
0
100
AcDbEllipse
10
20.471762
20
76.146378
30
0
11
-0.112305380934804
21
1.06851432438367
31
0
210
0
220
0
230
1
40
0.996195
41
2.09439510239318
42
3.14159265358978
0
ELLIPSE
5
1D1
100
AcDbEntity
8
1
62
256
6
ByLayer
370
18
48
1
60
0
100
AcDbEllipse
10
19.341209
20
76.651973
30
0
11
0.133173354413202
21
0.301374772918337
31
0
210
0
220
0
230
-1
40
0.507214
41
0.319332365949617
42
1.57305112800055
0
ELLIPSE
5
1D2
100
AcDbEntity
8
1
62
256
6
ByLayer
370
18
48
1
60
0
100
AcDbEllipse
10
19.471034
20
75.416777
30
0
11
0.192922535712148
21
-0.267100713765632
31
0
210
0
220
0
230
-1
40
0.507214
41
-1.57305112798667
42
-0.319332365947017
0
ELLIPSE
5
1D3
100
AcDbEntity
8
1
62
256
6
ByLayer
370
18
48
1
60
0
100
AcDbEllipse
10
20.471762
20
76.146378
30
0
11
-0.112305380934804
21
1.06851432438367
31
0
210
0
220
0
230
1
40
0.996195
41
0.128314548408017
42
1.04719755119659
0
ELLIPSE
5
1D4
100
AcDbEntity
8
1
62
256
6
ByLayer
370
18
48
1
60
0
100
AcDbEllipse
10
19.341209
20
76.651973
30
0
11
0.133173354416428
21
0.301374772921858
31
0
210
0
220
0
230
-1
40
0.507214
41
1.57305112798992
42
2.82676989002673
0
ELLIPSE
5
1D5
100
AcDbEntity
8
1
62
256
6
ByLayer
370
18
48
1
60
0
100
AcDbEllipse
10
20.471762
20
76.146378
30
0
11
-0.112305380934804
21
1.06851432438367
31
0
210
0
220
0
230
1
40
0.996195
41
-1.89899478131329
42
-1.22592464552865
0
ELLIPSE
5
1D6
100
AcDbEntity
8
1
62
256
6
ByLayer
370
18
48
1
60
0
100
AcDbEllipse
10
20.354746
20
76.13408
30
0
11
-0.14735377466846
21
1.40197751590065
31
0
210
0
220
0
230
1
40
0.996195
41
2.61799387799146
42
-2.61799387799154
0
ELLIPSE
5
1D7
100
AcDbEntity
8
1
62
256
6
ByLayer
370
18
48
1
60
0
100
AcDbEllipse
10
20.432757
20
76.142279
30
0
11
0.250868311842435
21
-2.38685254888385
31
0
210
0
220
0
230
1
40
0.996195
41
3.55980384381143E-05
42
3.14153014702201
0
ELLIPSE
5
1D8
100
AcDbEntity
8
1
62
256
6
ByLayer
370
18
48
1
60
0
100
AcDbEllipse
10
25.538161
20
-41.247768
30
0
11
0.800097069607925
21
0.0370675840705945
31
0
210
0
220
0
230
-1
40
0.504755
41
-0.563194177800393
42
0.128057993812864
0
ELLIPSE
5
1D9
100
AcDbEntity
8
1
62
256
6
ByLayer
370
18
48
1
60
0
100
AcDbEllipse
10
25.523853
20
-41.109189
30
0
11
-0.795769637704822
21
-0.0821625444295417
31
0
210
0
220
0
230
1
40
0.536392
41
-3.14156806553794
42
-2.6502530643174
0
ELLIPSE
5
1DA
100
AcDbEntity
8
SK1
62
256
6
ByLayer
370
18
48
1
60
0
100
AcDbEllipse
10
-8.495301
20
-24.471441
30
0
11
-1.26132486540519
21
1.54462644440935E-16
31
0
210
0
220
0
230
1
40
0.450878
41
-2.46789230837489
42
-0.673601145432024
0
ELLIPSE
5
1DB
100
AcDbEntity
8
SK1
62
256
6
ByLayer
370
18
48
1
60
0
100
AcDbEllipse
10
-8.495301
20
-24.471441
30
0
11
0.95
21
0
31
0
210
0
220
0
230
1
40
0.450878
41
0.697818679084315
42
2.44378340198915
0
ELLIPSE
5
1DC
100
AcDbEntity
8
1
62
256
6
ByLayer
370
18
48
1
60
0
100
AcDbEllipse
10
26.093031
20
-40.111547
30
0
11
-0.74603403534827
21
-0.0770273854026953
31
0
210
0
220
0
230
1
40
0.536392
41
2.98115031193761
42
-1.77615429929972
0
ELLIPSE
5
1DD
100
AcDbEntity
8
1
62
256
6
ByLayer
370
18
48
1
60
0
100
AcDbEllipse
10
26.505591
20
-40.793106
30
0
11
-0.392791286215939
21
0.0755976552072095
31
0
210
0
220
0
230
1
40
0.83313
41
-1.32453692635965
42
-0.554053321732278
0
ELLIPSE
5
1DE
100
AcDbEntity
8
1
62
256
6
ByLayer
370
18
48
1
60
0
100
AcDbEllipse
10
26.728208
20
-37.132318
30
0
11
-0.497356023565515
21
-0.0513515902684637
31
0
210
0
220
0
230
1
40
0.536392
41
3.01605689697744
42
-3.04023560744291
0
ELLIPSE
5
1DF
100
AcDbEntity
8
1
62
256
6
ByLayer
370
18
48
1
60
0
100
AcDbEllipse
10
26.236191
20
-37.2104
30
0
11
-0.994712047131027
21
-0.102703180536927
31
0
210
0
220
0
230
1
40
0.536392
41
-3.04023560744283
42
-2.03672595462117
0
ELLIPSE
5
1E0
100
AcDbEntity
8
1
62
256
6
ByLayer
370
18
48
1
60
0
100
AcDbEllipse
10
25.381109
20
-40.475064
30
0
11
1.09418325184413
21
0.112973498590612
31
0
210
0
220
0
230
1
40
0.536392
41
-0.160442341652186
42
0.66506066386438
0
ELLIPSE
5
1E1
100
AcDbEntity
8
SK1
62
256
6
ByLayer
370
18
48
1
60
0
100
AcDbEllipse
10
-8.495301
20
-46.99525
30
0
11
-1.525
21
1.86752468957913E-16
31
0
210
0
220
0
230
1
40
0.546102
41
0
42
6.28318530717959
0
ELLIPSE
5
1E2
100
AcDbEntity
8
1
62
256
6
ByLayer
370
18
48
1
60
0
100
AcDbEllipse
10
23.004699
20
-46.77586
30
0
11
9.58571519663793
21
9.58571519663793
31
0
210
0
220
0
230
-1
40
0.297163
41
2.52363049767085
42
-2.85274066238476
0
ELLIPSE
5
1E3
100
AcDbEntity
8
1
62
256
6
ByLayer
370
18
48
1
60
0
100
AcDbEllipse
10
21.989735
20
-57.56786
30
0
11
2.21534130534232
21
3.63806194603605
31
0
210
0
220
0
230
-1
40
0.181818
41
-2.30632327743053
42
-1.17552293862355
0
ELLIPSE
5
1E4
100
AcDbEntity
8
1
62
256
6
ByLayer
370
18
48
1
60
0
100
AcDbEllipse
10
23.004699
20
-43.066491
30
0
11
9.68054153054378
21
15.3813352971693
31
0
210
0
220
0
230
-1
40
0.163017
41
2.17330803155954
42
2.48822436081854
0
ELLIPSE
5
1E5
100
AcDbEntity
8
1
62
256
6
ByLayer
370
18
48
1
60
0
100
AcDbEllipse
10
21.583295
20
-53.631361
30
0
11
2.2381021060448
21
0.231082156208069
31
0
210
0
220
0
230
1
40
0.536392
41
-0.728456825938424
42
-0.159730211717188
0
ELLIPSE
5
1E6
100
AcDbEntity
8
1
62
256
6
ByLayer
370
18
48
1
60
0
100
AcDbEllipse
10
21.583295
20
-21.331027
30
0
11
2.63738289695525
21
-0.258285607124681
31
0
210
0
220
0
230
1
40
0.457294
41
1.5104335045152
42
3.08122983131004
0
ELLIPSE
5
1E7
100
AcDbEntity
8
1
62
256
6
ByLayer
370
18
48
1
60
0
100
AcDbEllipse
10
14.203551
20
-37.326747
30
0
11
0.77911538492127
21
-0.181616516042374
31
0
210
0
220
0
230
-1
40
0.887692
41
-3.11068992019128
42
-2.36270845908993
0
ELLIPSE
5
1E8
100
AcDbEntity
8
1
62
256
6
ByLayer
370
18
48
1
60
0
100
AcDbEllipse
10
-12.295301
20
-34.297856
30
0
11
3.04110891017469
21
-0.680897822056463
31
0
210
0
220
0
230
-1
40
0.883215
41
0
42
6.28318530717959
0
ELLIPSE
5
1E9
100
AcDbEntity
8
1
62
256
6
ByLayer
370
18
48
1
60
0
100
AcDbEllipse
10
7.993889
20
-41.815609
30
0
11
5.8860172454994
21
-1.31786675236698
31
0
210
0
220
0
230
-1
40
0.883215
41
3.00639766535484
42
-1.67828267956766
0
ELLIPSE
5
1EA
100
AcDbEntity
8
1
62
256
6
ByLayer
370
18
48
1
60
0
100
AcDbEllipse
10
23.004699
20
-3.687216
30
0
11
9.72775878209088
21
-9.72775878209088
31
0
210
0
220
0
230
-1
40
0.238234
41
2.00090438669836
42
2.90771853382271
0
ELLIPSE
5
1EB
100
AcDbEntity
8
SK1
62
256
6
ByLayer
370
18
48
1
60
0
100
AcDbEllipse
10
-8.495301
20
-23.592021
30
0
11
1.525
21
0
31
0
210
0
220
0
230
1
40
0.450878
41
0
42
6.28318530717959
0
ELLIPSE
5
1EC
100
AcDbEntity
8
1
62
256
6
ByLayer
370
18
48
1
60
0
100
AcDbEllipse
10
21.583295
20
-21.331027
30
0
11
-2.23928736533938
21
0.219299100388872
31
0
210
0
220
0
230
1
40
0.457294
41
0
42
6.28318530717959
0
ELLIPSE
5
1ED
100
AcDbEntity
8
1
62
256
6
ByLayer
370
18
48
1
60
0
100
AcDbEllipse
10
22.113529
20
-15.916744
30
0
11
0.496570204375429
21
4.63029356637579
31
0
210
0
220
0
230
-1
40
0.569004
41
-1.52662610663378
42
-1.08663011863703
0
ELLIPSE
5
1EE
100
AcDbEntity
8
1
62
256
6
ByLayer
370
18
48
1
60
0
100
AcDbEllipse
10
-1.838595
20
-25.10852
30
0
11
1.86527466807519
21
-0.767854274612139
31
0
210
0
220
0
230
-1
40
0.939801
41
-1.0941803873954
42
1.78561287839522
0
ELLIPSE
5
1EF
100
AcDbEntity
8
1
62
256
6
ByLayer
370
18
48
1
60
0
100
AcDbEllipse
10
21.989735
20
-17.180822
30
0
11
2.24495354532806
21
-3.74149131690738
31
0
210
0
220
0
230
-1
40
0.147716
41
-2.83786725767076
42
-1.70706691886166
0
ELLIPSE
5
1F0
100
AcDbEntity
8
1
62
256
6
ByLayer
370
18
48
1
60
0
100
AcDbEllipse
10
23.004699
20
-7.639533
30
0
11
9.78023279212433
21
-16.0612684350465
31
0
210
0
220
0
230
-1
40
0.129813
41
1.70982555275681
42
2.02474188206637
0
ELLIPSE
5
1F1
100
AcDbEntity
8
1
62
256
6
ByLayer
370
18
48
1
60
0
100
AcDbEllipse
10
15.122762
20
-34.37415
30
0
11
0.779115384925098
21
-0.181616516056104
31
0
210
0
220
0
230
-1
40
0.887692
41
3.02481205421526
42
-1.98043190902124
0
ELLIPSE
5
1F2
100
AcDbEntity
8
SK1
62
256
6
ByLayer
370
18
48
1
60
0
100
AcDbEllipse
10
-8.495301
20
-46.169887
30
0
11
-0.95
21
1.16337603613126E-16
31
0
210
0
220
0
230
1
40
0.546102
41
0.304537758270309
42
2.83695645652383
0
ELLIPSE
5
1F3
100
AcDbEntity
8
SK1
62
256
6
ByLayer
370
18
48
1
60
0
100
AcDbEllipse
10
-8.495301
20
-46.169887
30
0
11
1.26132486540519
21
0
31
0
210
0
220
0
230
1
40
0.546102
41
-2.72312230665468
42
-0.418567877693582
0
ELLIPSE
5
1F4
100
AcDbEntity
8
1
62
256
6
ByLayer
370
18
48
1
60
0
100
AcDbEllipse
10
24.609229
20
-34.767062
30
0
11
0.796191063231783
21
-0.0779730134716028
31
0
210
0
220
0
230
1
40
0.457294
41
-1.63115914907464
42
-0.0603628222797593
0
ELLIPSE
5
1F5
100
AcDbEntity
8
1
62
256
6
ByLayer
370
18
48
1
60
0
100
AcDbEllipse
10
24.623537
20
-34.620961
30
0
11
0.799484603471269
21
-0.0429733901989468
31
0
210
0
220
0
230
-1
40
0.415607
41
0.0824247644937193
42
1.64562489474265
0
ELLIPSE
5
1F6
100
AcDbEntity
8
1
62
256
6
ByLayer
370
18
48
1
60
0
100
AcDbEllipse
10
25.419153
20
-26.560039
30
0
11
0.00365701502340562
21
8.13765211302589
31
0
210
0
220
0
230
-1
40
0.010226
41
3.09766205959625
42
3.10147489486959
0
ELLIPSE
5
1F7
100
AcDbEntity
8
1
62
256
6
ByLayer
370
18
48
1
60
0
100
AcDbEllipse
10
16.750654
20
-25.400955
30
0
11
0.875013103938036
21
8.45649502892599
31
0
210
0
220
0
230
-1
40
0.093965
41
-3.13951136816268
42
-3.13571424824523
0
ELLIPSE
5
1F8
100
AcDbEntity
8
1
62
256
6
ByLayer
370
18
48
1
60
0
100
AcDbEllipse
10
25.417955
20
-26.508408
30
0
11
0.873361796374015
21
8.44055382801748
31
0
210
0
220
0
230
-1
40
0.094054
41
3.13987521975921
42
-3.13950938344085
0
ELLIPSE
5
1F9
100
AcDbEntity
8
1
62
256
6
ByLayer
370
18
48
1
60
0
100
AcDbEllipse
10
26.33378
20
-22.670206
30
0
11
0.00366023250231696
21
8.10391811469973
31
0
210
0
220
0
230
-1
40
0.010248
41
3.09374999099713
42
3.09757076479857
0
ELLIPSE
5
1FA
100
AcDbEntity
8
1
62
256
6
ByLayer
370
18
48
1
60
0
100
AcDbEllipse
10
15.954584
20
-33.529449
30
0
11
0.792131741864174
21
-0.117625122151421
31
0
210
0
220
0
230
-1
40
0.420088
41
1.61402535553211
42
-3.10595982139894
0
ELLIPSE
5
1FB
100
AcDbEntity
8
1
62
256
6
ByLayer
370
18
48
1
60
0
100
AcDbEllipse
10
15.940276
20
-33.675551
30
0
11
0.796191063231783
21
-0.0779730134716028
31
0
210
0
220
0
230
1
40
0.457294
41
-3.1415769860951
42
-1.63115914907466
0
ELLIPSE
5
1FC
100
AcDbEntity
8
1
62
256
6
ByLayer
370
18
48
1
60
0
100
AcDbEllipse
10
25.523853
20
-30.843496
30
0
11
0.796191063231783
21
-0.0779730134716028
31
0
210
0
220
0
230
1
40
0.457294
41
-0.0603628222797399
42
1.5312318997648E-05
0
ELLIPSE
5
1FD
100
AcDbEntity
8
1
62
256
6
ByLayer
370
18
48
1
60
0
100
AcDbEllipse
10
23.519899
20
77.023085
30
0
11
0.0104528463267679
21
-0.0994521895368262
31
0
210
0
220
0
230
1
40
0.996195
41
-1.4023380847138
42
1.5707963267949
0
ELLIPSE
5
1FE
100
AcDbEntity
8
1
62
256
6
ByLayer
370
18
48
1
60
0
100
AcDbEllipse
10
17.560109
20
72.669696
30
0
11
-0.0209056926535377
21
0.198904379073654
31
0
210
0
220
0
230
1
40
0.996195
41
1.5707963267949
42
3.14159265358979
0
ELLIPSE
5
1FF
100
AcDbEntity
8
1
62
256
6
ByLayer
370
18
48
1
60
0
100
AcDbEllipse
10
15.628237
20
71.947088
30
0
11
1.0452846326768
21
-9.94521895368271
31
0
210
0
220
0
230
1
40
0.996195
41
3.14159265358979
42
-3.1324920246716
0
ELLIPSE
5
200
100
AcDbEntity
8
1
62
256
6
ByLayer
370
18
48
1
60
0
100
AcDbEllipse
10
17.291721
20
70.594766
30
0
11
1.0452846326768
21
-9.94521895368271
31
0
210
0
220
0
230
1
40
0.996195
41
1.5616956978767
42
1.5707963267949
0
ELLIPSE
5
201
100
AcDbEntity
8
1
62
256
6
ByLayer
370
18
48
1
60
0
100
AcDbEllipse
10
15.060535
20
76.914753
30
0
11
0.522642316338387
21
-4.97260947684117
31
0
210
0
220
0
230
1
40
0.996195
41
-3.1324920246716
42
-3.1226920315848
0
ELLIPSE
5
202
100
AcDbEntity
8
1
62
256
6
ByLayer
370
18
48
1
60
0
100
AcDbEllipse
10
19.615009
20
70.7932
30
0
11
0.522642316338387
21
-4.97260947684117
31
0
210
0
220
0
230
1
40
0.996195
41
-1.56169569787671
42
-1.5518957047899
0
ELLIPSE
5
203
100
AcDbEntity
8
1
62
256
6
ByLayer
370
18
48
1
60
0
100
AcDbEllipse
10
14.534511
20
80.893709
30
0
11
0.10452846326768
21
-0.99452189536827
31
0
210
0
220
0
230
1
40
0.996195
41
-2.87979326579064
42
-1.83259571459408
0
ELLIPSE
5
204
100
AcDbEntity
8
1
62
256
6
ByLayer
370
18
48
1
60
0
100
AcDbEllipse
10
17.28728
20
70.643564
30
0
11
1.04528463267682
21
-9.94521895368273
31
0
210
0
220
0
230
1
40
0.996195
41
1.53588974175501
42
1.5518957047899
0
ELLIPSE
5
205
100
AcDbEntity
8
1
62
256
6
ByLayer
370
18
48
1
60
0
100
AcDbEllipse
10
15.676706
20
71.952872
30
0
11
1.04528463267682
21
-9.94521895368273
31
0
210
0
220
0
230
1
40
0.996195
41
-3.1226920315848
42
-3.10668606854991
0
ELLIPSE
5
206
100
AcDbEntity
8
1
62
256
6
ByLayer
370
18
48
1
60
0
100
AcDbEllipse
10
26.728208
20
71.302474
30
0
11
0.0522642316338408
21
-0.497260947684137
31
0
210
0
220
0
230
1
40
0.996195
41
1.30899693899585
42
1.53588974175503
0
ELLIPSE
5
207
100
AcDbEntity
8
1
62
256
6
ByLayer
370
18
48
1
60
0
100
AcDbEllipse
10
25.142465
20
80.327504
30
0
11
1.0452846326768
21
-9.94521895368271
31
0
210
0
220
0
230
1
40
0.996195
41
0
42
0.00910062891819019
0
ELLIPSE
5
208
100
AcDbEntity
8
1
62
256
6
ByLayer
370
18
48
1
60
0
100
AcDbEllipse
10
25.710167
20
75.359839
30
0
11
0.522642316338387
21
-4.97260947684117
31
0
210
0
220
0
230
1
40
0.996195
41
0.0091006289181948
42
0.018900622004996
0
ELLIPSE
5
209
100
AcDbEntity
8
1
62
256
6
ByLayer
370
18
48
1
60
0
100
AcDbEllipse
10
26.236191
20
71.380884
30
0
11
0.10452846326768
21
-0.99452189536827
31
0
210
0
220
0
230
1
40
0.996195
41
0.261799387799153
42
1.30899693899575
0
ELLIPSE
5
20A
100
AcDbEntity
8
1
62
256
6
ByLayer
370
18
48
1
60
0
100
AcDbEllipse
10
25.093996
20
80.32172
30
0
11
1.04528463267682
21
-9.94521895368273
31
0
210
0
220
0
230
1
40
0.996195
41
0.0189006220049952
42
0.0349065850398869
0
ELLIPSE
5
20B
100
AcDbEntity
8
1
62
256
6
ByLayer
370
18
48
1
60
0
100
AcDbEllipse
10
20.35458
20
76.134062
30
0
11
-0.334491082456602
21
3.18247006517846
31
0
210
0
220
0
230
1
40
0.996195
41
0.168458242080878
42
1.40233808471402
0
ELLIPSE
5
20C
100
AcDbEntity
8
1
62
256
6
ByLayer
370
18
48
1
60
0
100
AcDbEllipse
10
17.291192
20
70.59471
30
0
11
-1.03066457613036
21
9.80611840735783
31
0
210
0
220
0
230
1
40
0.996195
41
-1.57989695571309
42
-1.5707963267949
0
ELLIPSE
5
20D
100
AcDbEntity
8
1
62
256
6
ByLayer
370
18
48
1
60
0
100
AcDbEllipse
10
22.249431
20
71.070089
30
0
11
-0.508022259791923
21
4.83350893051648
31
0
210
0
220
0
230
1
40
0.996195
41
-1.58969694879989
42
-1.57989695571309
0
ELLIPSE
5
20E
100
AcDbEntity
8
1
62
256
6
ByLayer
370
18
48
1
60
0
100
AcDbEllipse
10
17.28675
20
70.643508
30
0
11
-1.03066457613038
21
9.80611840735802
31
0
210
0
220
0
230
1
40
0.996195
41
-1.60570291183478
42
-1.58969694879989
0
ELLIPSE
5
20F
100
AcDbEntity
8
1
62
256
6
ByLayer
370
18
48
1
60
0
100
AcDbEllipse
10
20.35458
20
76.134062
30
0
11
-0.334491082456602
21
3.18247006517846
31
0
210
0
220
0
230
1
40
0.996195
41
-1.40233808471402
42
-0.168458242080878
0
ELLIPSE
5
210
100
AcDbEntity
8
1
62
256
6
ByLayer
370
18
48
1
60
0
100
AcDbEllipse
10
26.727678
20
71.302419
30
0
11
-0.0376441750873423
21
0.35816040135942
31
0
210
0
220
0
230
1
40
0.996195
41
-1.832595714594
42
-1.60570291183475
0
ELLIPSE
5
211
100
AcDbEntity
8
1
62
256
6
ByLayer
370
18
48
1
60
0
100
AcDbEllipse
10
26.235662
20
71.380828
30
0
11
-0.0899084067211886
21
0.855421349043576
31
0
210
0
220
0
230
1
40
0.996195
41
-2.87979326579065
42
-1.83259571459406
0
ELLIPSE
5
212
100
AcDbEntity
8
1
62
256
6
ByLayer
370
18
48
1
60
0
100
AcDbEllipse
10
16.206439
20
80.915451
30
0
11
-1.03066457613036
21
9.80611840735783
31
0
210
0
220
0
230
1
40
0.996195
41
-1.5707963267949
42
-1.56169569787671
0
ELLIPSE
5
213
100
AcDbEntity
8
1
62
256
6
ByLayer
370
18
48
1
60
0
100
AcDbEllipse
10
26.414356
20
70.913986
30
0
11
-0.0376441750873423
21
0.35816040135942
31
0
210
0
220
0
230
1
40
0.996195
41
-3.10668606854991
42
-2.87979326579066
0
ELLIPSE
5
214
100
AcDbEntity
8
1
62
256
6
ByLayer
370
18
48
1
60
0
100
AcDbEllipse
10
24.563205
20
71.35903
30
0
11
-1.03066457613036
21
9.80611840735783
31
0
210
0
220
0
230
1
40
0.996195
41
1.5707963267949
42
1.57989695571309
0
ELLIPSE
5
215
100
AcDbEntity
8
1
62
256
6
ByLayer
370
18
48
1
60
0
100
AcDbEllipse
10
25.093467
20
80.321665
30
0
11
-1.03066457613038
21
9.80611840735802
31
0
210
0
220
0
230
1
40
0.996195
41
-3.1226920315848
42
-3.10668606854991
0
ELLIPSE
5
216
100
AcDbEntity
8
1
62
256
6
ByLayer
370
18
48
1
60
0
100
AcDbEllipse
10
25.709638
20
75.359784
30
0
11
-0.508022259791923
21
4.83350893051648
31
0
210
0
220
0
230
1
40
0.996195
41
-3.1324920246716
42
-3.1226920315848
0
ELLIPSE
5
217
100
AcDbEntity
8
1
62
256
6
ByLayer
370
18
48
1
60
0
100
AcDbEllipse
10
25.141936
20
80.327449
30
0
11
-1.03066457613036
21
9.80611840735783
31
0
210
0
220
0
230
1
40
0.996195
41
3.14159265358979
42
-3.1324920246716
0
ELLIPSE
5
218
100
AcDbEntity
8
1
62
256
6
ByLayer
370
18
48
1
60
0
100
AcDbEllipse
10
23.145151
20
79.598019
30
0
11
0.034117279959338
21
-0.324604235719799
31
0
210
0
220
0
230
1
40
0.996195
41
1.5707963267949
42
3.14159265358979
0
ELLIPSE
5
219
100
AcDbEntity
8
1
62
256
6
ByLayer
370
18
48
1
60
0
100
AcDbEllipse
10
20.35068
20
76.133652
30
0
11
-0.3212794951508
21
3.05677020853232
31
0
210
0
220
0
230
1
40
0.996195
41
-1.40233808471403
42
-0.168458242080875
0
ELLIPSE
5
21A
100
AcDbEntity
8
1
62
256
6
ByLayer
370
18
48
1
60
0
100
AcDbEllipse
10
23.515998
20
77.022675
30
0
11
0.0236644336325697
21
-0.22515204618297
31
0
210
0
220
0
230
1
40
0.996195
41
-1.40233808471394
42
1.5707963267949
0
ELLIPSE
5
21B
100
AcDbEntity
8
1
62
256
6
ByLayer
370
18
48
1
60
0
100
AcDbEllipse
10
19.462457
20
79.311503
30
0
11
0.0236644336325698
21
-0.225152046182971
31
0
210
0
220
0
230
1
40
0.996195
41
0.168458242080901
42
3.14159265358973
0
ELLIPSE
5
21C
100
AcDbEntity
8
1
62
256
6
ByLayer
370
18
48
1
60
0
100
AcDbEllipse
10
20.14648
20
72.840983
30
0
11
-0.0104528463267688
21
0.0994521895368268
31
0
210
0
220
0
230
1
40
0.996195
41
-3.14159265358965
42
-0.168458242080853
0
ELLIPSE
5
21D
100
AcDbEntity
8
1
62
256
6
ByLayer
370
18
48
1
60
0
100
AcDbEllipse
10
16.896992
20
78.941311
30
0
11
0.034117279959338
21
-0.324604235719799
31
0
210
0
220
0
230
1
40
0.996195
41
3.14159265358979
42
-1.5707963267949
0
ELLIPSE
5
21E
100
AcDbEntity
8
1
62
256
6
ByLayer
370
18
48
1
60
0
100
AcDbEllipse
10
17.069693
20
76.345141
30
0
11
0.0236644336325697
21
-0.22515204618297
31
0
210
0
220
0
230
1
40
0.996195
41
-1.57079632679483
42
1.40233808471407
0
ELLIPSE
5
21F
100
AcDbEntity
8
1
62
256
6
ByLayer
370
18
48
1
60
0
100
AcDbEllipse
10
14.355817
20
81.360551
30
0
11
0.0522642316338408
21
-0.497260947684137
31
0
210
0
220
0
230
1
40
0.996195
41
-3.10668606854988
42
-2.87979326579069
0
ELLIPSE
5
220
100
AcDbEntity
8
1
62
256
6
ByLayer
370
18
48
1
60
0
100
AcDbEllipse
10
15.186317
20
70.089373
30
0
11
0.0522642316338408
21
-0.497260947684137
31
0
210
0
220
0
230
1
40
0.996195
41
-1.535889741755
42
-1.30899693899577
0
ELLIPSE
5
221
100
AcDbEntity
8
1
62
256
6
ByLayer
370
18
48
1
60
0
100
AcDbEllipse
10
17.189262
20
75.245039
30
0
11
-0.0104528463267687
21
0.0994521895368261
31
0
210
0
220
0
230
1
40
0.996195
41
-1.40233808471411
42
1.57079632679504
0
ELLIPSE
5
222
100
AcDbEntity
8
1
62
256
6
ByLayer
370
18
48
1
60
0
100
AcDbEllipse
10
23.478981
20
81.679826
30
0
11
1.0452846326768
21
-9.94521895368271
31
0
210
0
220
0
230
1
40
0.996195
41
-1.57989695571309
42
-1.57079632679489
0
ELLIPSE
5
223
100
AcDbEntity
8
1
62
256
6
ByLayer
370
18
48
1
60
0
100
AcDbEllipse
10
23.483422
20
81.631028
30
0
11
1.04528463267682
21
-9.94521895368273
31
0
210
0
220
0
230
1
40
0.996195
41
-1.60570291183478
42
-1.58969694879989
0
ELLIPSE
5
224
100
AcDbEntity
8
1
62
256
6
ByLayer
370
18
48
1
60
0
100
AcDbEllipse
10
14.042494
20
80.972118
30
0
11
0.0522642316338408
21
-0.497260947684137
31
0
210
0
220
0
230
1
40
0.996195
41
-1.83259571459399
42
-1.60570291183473
0
ELLIPSE
5
225
100
AcDbEntity
8
1
62
256
6
ByLayer
370
18
48
1
60
0
100
AcDbEllipse
10
21.242803
20
72.956211
30
0
11
-0.0104528463267687
21
0.0994521895368261
31
0
210
0
220
0
230
1
40
0.996195
41
0.168458242080713
42
-3.14159265358965
0
ELLIPSE
5
226
100
AcDbEntity
8
1
62
256
6
ByLayer
370
18
48
1
60
0
100
AcDbEllipse
10
14.909081
20
79.251243
30
0
11
-1.03066457613038
21
9.80611840735802
31
0
210
0
220
0
230
1
40
0.996195
41
3.10668606854991
42
3.1226920315848
0
ELLIPSE
5
227
100
AcDbEntity
8
1
62
256
6
ByLayer
370
18
48
1
60
0
100
AcDbEllipse
10
14.860998
20
79.246879
30
0
11
1.0452846326768
21
-9.94521895368271
31
0
210
0
220
0
230
1
40
0.996195
41
-0.00910062891819161
42
0
0
ELLIPSE
5
228
100
AcDbEntity
8
1
62
256
6
ByLayer
370
18
48
1
60
0
100
AcDbEllipse
10
15.338538
20
74.269737
30
0
11
0.522642316338387
21
-4.97260947684117
31
0
210
0
220
0
230
1
40
0.996195
41
-0.0189006220049902
42
-0.0091006289181891
0
ELLIPSE
5
229
100
AcDbEntity
8
1
62
256
6
ByLayer
370
18
48
1
60
0
100
AcDbEllipse
10
14.909611
20
79.251298
30
0
11
1.04528463267682
21
-9.94521895368273
31
0
210
0
220
0
230
1
40
0.996195
41
-0.0349065850398869
42
-0.0189006220049966
0
ELLIPSE
5
22A
100
AcDbEntity
8
1
62
256
6
ByLayer
370
18
48
1
60
0
100
AcDbEllipse
10
19.466357
20
79.311913
30
0
11
0.0104528463267681
21
-0.0994521895368268
31
0
210
0
220
0
230
1
40
0.996195
41
0.168458242080853
42
3.14159265358979
0
ELLIPSE
5
22B
100
AcDbEntity
8
1
62
256
6
ByLayer
370
18
48
1
60
0
100
AcDbEllipse
10
15.65075
20
70.268309
30
0
11
-0.0899084067211886
21
0.855421349043576
31
0
210
0
220
0
230
1
40
0.996195
41
1.83259571459408
42
2.87979326579065
0
ELLIPSE
5
22C
100
AcDbEntity
8
1
62
256
6
ByLayer
370
18
48
1
60
0
100
AcDbEllipse
10
17.185361
20
75.244629
30
0
11
0.0236644336325697
21
-0.22515204618297
31
0
210
0
220
0
230
1
40
0.996195
41
1.73925456887574
42
-1.57079632679496
0
ELLIPSE
5
22D
100
AcDbEntity
8
1
62
256
6
ByLayer
370
18
48
1
60
0
100
AcDbEllipse
10
23.149051
20
79.598429
30
0
11
0.0209056926535362
21
-0.198904379073654
31
0
210
0
220
0
230
1
40
0.996195
41
1.5707963267949
42
3.14159265358979
0
ELLIPSE
5
22E
100
AcDbEntity
8
1
62
256
6
ByLayer
370
18
48
1
60
0
100
AcDbEllipse
10
20.562681
20
79.427141
30
0
11
0.0104528463267681
21
-0.0994521895368268
31
0
210
0
220
0
230
1
40
0.996195
41
-3.14159265358965
42
-0.168458242081147
0
ELLIPSE
5
22F
100
AcDbEntity
8
1
62
256
6
ByLayer
370
18
48
1
60
0
100
AcDbEllipse
10
22.24996
20
71.070145
30
0
11
0.522642316338387
21
-4.97260947684117
31
0
210
0
220
0
230
1
40
0.996195
41
1.5518957047899
42
1.56169569787671
0
ELLIPSE
5
230
100
AcDbEntity
8
1
62
256
6
ByLayer
370
18
48
1
60
0
100
AcDbEllipse
10
23.635567
20
75.922573
30
0
11
-0.0104528463267688
21
0.0994521895368268
31
0
210
0
220
0
230
1
40
0.996195
41
-1.5707963267949
42
1.4023380847139
0
ELLIPSE
5
231
100
AcDbEntity
8
1
62
256
6
ByLayer
370
18
48
1
60
0
100
AcDbEllipse
10
20.35068
20
76.133652
30
0
11
-0.3212794951508
21
3.05677020853232
31
0
210
0
220
0
230
1
40
0.996195
41
-2.97313441150892
42
-1.73925456887578
0
ELLIPSE
5
232
100
AcDbEntity
8
1
62
256
6
ByLayer
370
18
48
1
60
0
100
AcDbEllipse
10
17.563679
20
72.468969
30
0
11
0.0209056926535362
21
-0.198904379073654
31
0
210
0
220
0
230
1
40
0.087156
41
0.886715094999515
42
1.57079632679493
0
ELLIPSE
5
233
100
AcDbEntity
8
1
62
256
6
ByLayer
370
18
48
1
60
0
100
AcDbEllipse
10
20.35458
20
76.134062
30
0
11
0.33449108245658
21
-3.18247006517847
31
0
210
0
220
0
230
1
40
0.996195
41
0.168458242080868
42
1.40233808471401
0
ELLIPSE
5
234
100
AcDbEntity
8
1
62
256
6
ByLayer
370
18
48
1
60
0
100
AcDbEllipse
10
15.573023
20
69.774516
30
0
11
-0.0376441750873423
21
0.35816040135942
31
0
210
0
220
0
230
1
40
0.996195
41
2.87979326579074
42
3.10668606854995
0
ELLIPSE
5
235
100
AcDbEntity
8
1
62
256
6
ByLayer
370
18
48
1
60
0
100
AcDbEllipse
10
23.631667
20
75.922164
30
0
11
0.0236644336325698
21
-0.225152046182971
31
0
210
0
220
0
230
1
40
0.996195
41
1.57079632679483
42
-1.73925456887572
0
ELLIPSE
5
236
100
AcDbEntity
8
1
62
256
6
ByLayer
370
18
48
1
60
0
100
AcDbEllipse
10
24.563734
20
71.359085
30
0
11
1.0452846326768
21
-9.94521895368271
31
0
210
0
220
0
230
1
40
0.996195
41
-1.5707963267949
42
-1.5616956978767
0
ELLIPSE
5
237
100
AcDbEntity
8
1
62
256
6
ByLayer
370
18
48
1
60
0
100
AcDbEllipse
10
15.573552
20
69.774572
30
0
11
0.0522642316338408
21
-0.497260947684137
31
0
210
0
220
0
230
1
40
0.996195
41
-0.261799387799137
42
-0.0349065850399112
0
ELLIPSE
5
238
100
AcDbEntity
8
1
62
256
6
ByLayer
370
18
48
1
60
0
100
AcDbEllipse
10
18.520213
20
81.204392
30
0
11
-0.508022259791923
21
4.83350893051648
31
0
210
0
220
0
230
1
40
0.996195
41
1.5518957047899
42
1.56169569787671
0
ELLIPSE
5
239
100
AcDbEntity
8
1
62
256
6
ByLayer
370
18
48
1
60
0
100
AcDbEllipse
10
18.520742
20
81.204448
30
0
11
0.522642316338387
21
-4.97260947684117
31
0
210
0
220
0
230
1
40
0.996195
41
-1.58969694879989
42
-1.57989695571309
0
ELLIPSE
5
23A
100
AcDbEntity
8
1
62
256
6
ByLayer
370
18
48
1
60
0
100
AcDbEllipse
10
23.482893
20
81.630973
30
0
11
-1.03066457613038
21
9.80611840735802
31
0
210
0
220
0
230
1
40
0.996195
41
1.53588974175501
42
1.5518957047899
0
ELLIPSE
5
23B
100
AcDbEntity
8
1
62
256
6
ByLayer
370
18
48
1
60
0
100
AcDbEllipse
10
14.041965
20
80.972063
30
0
11
-0.0376441750873423
21
0.35816040135942
31
0
210
0
220
0
230
1
40
0.996195
41
1.30899693899579
42
1.53588974175498
0
ELLIPSE
5
23C
100
AcDbEntity
8
1
62
256
6
ByLayer
370
18
48
1
60
0
100
AcDbEllipse
10
19.438569
20
79.409543
30
0
11
0.0209056926535362
21
-0.198904379073654
31
0
210
0
220
0
230
1
40
0.087156
41
1.57079632679504
42
2.25487755859007
0
ELLIPSE
5
23D
100
AcDbEntity
8
1
62
256
6
ByLayer
370
18
48
1
60
0
100
AcDbEllipse
10
23.478451
20
81.679771
30
0
11
-1.03066457613036
21
9.80611840735783
31
0
210
0
220
0
230
1
40
0.996195
41
1.56169569787671
42
1.5707963267949
0
ELLIPSE
5
23E
100
AcDbEntity
8
1
62
256
6
ByLayer
370
18
48
1
60
0
100
AcDbEllipse
10
14.533981
20
80.893653
30
0
11
-0.0899084067211886
21
0.855421349043576
31
0
210
0
220
0
230
1
40
0.996195
41
0.261799387799181
42
1.30899693899578
0
ELLIPSE
5
23F
100
AcDbEntity
8
1
62
256
6
ByLayer
370
18
48
1
60
0
100
AcDbEllipse
10
14.355287
20
81.360495
30
0
11
-0.0376441750873423
21
0.35816040135942
31
0
210
0
220
0
230
1
40
0.996195
41
0.0349065850399247
42
0.261799387799133
0
ELLIPSE
5
240
100
AcDbEntity
8
1
62
256
6
ByLayer
370
18
48
1
60
0
100
AcDbEllipse
10
15.676177
20
71.952817
30
0
11
-1.03066457613038
21
9.80611840735802
31
0
210
0
220
0
230
1
40
0.996195
41
0.0189006220049952
42
0.0349065850398841
0
ELLIPSE
5
241
100
AcDbEntity
8
1
62
256
6
ByLayer
370
18
48
1
60
0
100
AcDbEllipse
10
15.060006
20
76.914698
30
0
11
-0.508022259791923
21
4.83350893051648
31
0
210
0
220
0
230
1
40
0.996195
41
0.00910062891819378
42
0.0189006220049959
0
ELLIPSE
5
242
100
AcDbEntity
8
1
62
256
6
ByLayer
370
18
48
1
60
0
100
AcDbEllipse
10
20.534893
20
79.524771
30
0
11
-0.0209056926535377
21
0.198904379073654
31
0
210
0
220
0
230
1
40
0.087156
41
-1.5707963267949
42
-0.886715094999542
0
ELLIPSE
5
243
100
AcDbEntity
8
1
62
256
6
ByLayer
370
18
48
1
60
0
100
AcDbEllipse
10
15.627708
20
71.947032
30
0
11
-1.03066457613036
21
9.80611840735783
31
0
210
0
220
0
230
1
40
0.996195
41
0
42
0.00910062891819268
0
ELLIPSE
5
244
100
AcDbEntity
8
1
62
256
6
ByLayer
370
18
48
1
60
0
100
AcDbEllipse
10
21.198552
20
73.050688
30
0
11
0.054080158441175
21
-0.192549568846511
31
0
210
0
220
0
230
1
40
0.085922
41
1.55612880057347
42
2.24021003236876
0
ELLIPSE
5
245
100
AcDbEntity
8
1
62
256
6
ByLayer
370
18
48
1
60
0
100
AcDbEllipse
10
24.557933
20
71.407741
30
0
11
1.04528463267682
21
-9.94521895368273
31
0
210
0
220
0
230
1
40
0.996195
41
-1.5518957047899
42
-1.53588974175501
0
ELLIPSE
5
246
100
AcDbEntity
8
1
62
256
6
ByLayer
370
18
48
1
60
0
100
AcDbEllipse
10
17.556209
20
72.669286
30
0
11
0.034117279959338
21
-0.324604235719799
31
0
210
0
220
0
230
1
40
0.996195
41
-1.5707963267949
42
0
0
ELLIPSE
5
247
100
AcDbEntity
8
1
62
256
6
ByLayer
370
18
48
1
60
0
100
AcDbEllipse
10
23.808268
20
73.326403
30
0
11
-0.0209056926535377
21
0.198904379073654
31
0
210
0
220
0
230
1
40
0.996195
41
-3.14159265358972
42
-1.5707963267949
0
ELLIPSE
5
248
100
AcDbEntity
8
1
62
256
6
ByLayer
370
18
48
1
60
0
100
AcDbEllipse
10
23.518808
20
75.92716
30
0
11
0.199601851976567
21
-0.0126135121011045
31
0
210
0
220
0
230
1
40
0.014613
41
1.48475903989618
42
2.16884027169366
0
ELLIPSE
5
249
100
AcDbEntity
8
1
62
256
6
ByLayer
370
18
48
1
60
0
100
AcDbEllipse
10
20.35068
20
76.133652
30
0
11
-0.282116967194939
21
2.6841636446117
31
0
210
0
220
0
230
1
40
0.996195
41
0
42
6.28318530717959
0
ELLIPSE
5
24A
100
AcDbEntity
8
1
62
256
6
ByLayer
370
18
48
1
60
0
100
AcDbEllipse
10
16.862652
20
79.138803
30
0
11
-0.0209056926535377
21
0.198904379073654
31
0
210
0
220
0
230
1
40
0.087156
41
-1.57079632679497
42
-0.886715094999542
0
ELLIPSE
5
24B
100
AcDbEntity
8
1
62
256
6
ByLayer
370
18
48
1
60
0
100
AcDbEllipse
10
23.804367
20
73.325994
30
0
11
0.034117279959338
21
-0.324604235719799
31
0
210
0
220
0
230
1
40
0.996195
41
0
42
1.5707963267949
0
ELLIPSE
5
24C
100
AcDbEntity
8
1
62
256
6
ByLayer
370
18
48
1
60
0
100
AcDbEllipse
10
20.395184
20
76.13833
30
0
11
-0.278364087565489
21
2.64845738006431
31
0
210
0
220
0
230
1
40
0.996195
41
-0.926046936998003
42
0
0
ELLIPSE
5
24D
100
AcDbEntity
8
1
62
256
6
ByLayer
370
18
48
1
60
0
100
AcDbEllipse
10
20.395184
20
76.13833
30
0
11
-0.278364087565489
21
2.64845738006431
31
0
210
0
220
0
230
1
40
0.996195
41
0
42
-2.2155727204214
0
ELLIPSE
5
24E
100
AcDbEntity
8
1
62
256
6
ByLayer
370
18
48
1
60
0
100
AcDbEllipse
10
20.42158
20
76.141104
30
0
11
-0.264604505792642
21
2.5175437043398
31
0
210
0
220
0
230
1
40
0.996195
41
0
42
6.28318530717959
0
ELLIPSE
5
24F
100
AcDbEntity
8
1
62
256
6
ByLayer
370
18
48
1
60
0
100
AcDbEllipse
10
15.185788
20
70.089317
30
0
11
-0.0376441750873423
21
0.35816040135942
31
0
210
0
220
0
230
1
40
0.996195
41
1.60570291183479
42
1.83259571459401
0
ELLIPSE
5
250
100
AcDbEntity
8
1
62
256
6
ByLayer
370
18
48
1
60
0
100
AcDbEllipse
10
25.584385
20
82.18522
30
0
11
0.0522642316338408
21
-0.497260947684137
31
0
210
0
220
0
230
1
40
0.996195
41
1.60570291183479
42
1.83259571459401
0
ELLIPSE
5
251
100
AcDbEntity
8
1
62
256
6
ByLayer
370
18
48
1
60
0
100
AcDbEllipse
10
23.11081
20
79.795511
30
0
11
0.0209056926535362
21
-0.198904379073654
31
0
210
0
220
0
230
1
40
0.087156
41
1.57079632679497
42
2.25487755859026
0
ELLIPSE
5
252
100
AcDbEntity
8
1
62
256
6
ByLayer
370
18
48
1
60
0
100
AcDbEllipse
10
21.23592
20
72.854937
30
0
11
0.0209056926535362
21
-0.198904379073654
31
0
210
0
220
0
230
1
40
0.087156
41
0.886715094999776
42
1.57079632679486
0
ELLIPSE
5
253
100
AcDbEntity
8
1
62
256
6
ByLayer
370
18
48
1
60
0
100
AcDbEllipse
10
20.35068
20
76.133652
30
0
11
-0.3212794951508
21
3.05677020853232
31
0
210
0
220
0
230
1
40
0.996195
41
0.168458242080875
42
1.40233808471402
0
ELLIPSE
5
254
100
AcDbEntity
8
1
62
256
6
ByLayer
370
18
48
1
60
0
100
AcDbEllipse
10
19.475938
20
79.213792
30
0
11
-0.0540801584411752
21
0.192549568846511
31
0
210
0
220
0
230
1
40
0.085922
41
-2.2695450848119
42
-1.58546385301639
0
ELLIPSE
5
255
100
AcDbEntity
8
1
62
256
6
ByLayer
370
18
48
1
60
0
100
AcDbEllipse
10
16.900893
20
78.941721
30
0
11
0.0209056926535362
21
-0.198904379073654
31
0
210
0
220
0
230
1
40
0.996195
41
3.14159265358972
42
-1.57079632679497
0
ELLIPSE
5
256
100
AcDbEntity
8
1
62
256
6
ByLayer
370
18
48
1
60
0
100
AcDbEllipse
10
20.539039
20
79.325529
30
0
11
-0.0128650708014692
21
-0.199585795970738
31
0
210
0
220
0
230
1
40
0.085922
41
0.901382621220861
42
1.58546385301632
0
ELLIPSE
5
257
100
AcDbEntity
8
1
62
256
6
ByLayer
370
18
48
1
60
0
100
AcDbEllipse
10
21.238903
20
72.955801
30
0
11
0.0236644336325697
21
-0.22515204618297
31
0
210
0
220
0
230
1
40
0.996195
41
-2.97313441150902
42
6.30106983023416E-14
0
ELLIPSE
5
258
100
AcDbEntity
8
1
62
256
6
ByLayer
370
18
48
1
60
0
100
AcDbEllipse
10
20.35068
20
76.133652
30
0
11
-0.3212794951508
21
3.05677020853232
31
0
210
0
220
0
230
1
40
0.996195
41
1.73925456887578
42
2.97313441150892
0
ELLIPSE
5
259
100
AcDbEntity
8
1
62
256
6
ByLayer
370
18
48
1
60
0
100
AcDbEllipse
10
25.909704
20
73.027714
30
0
11
1.0452846326768
21
-9.94521895368271
31
0
210
0
220
0
230
1
40
0.996195
41
3.1324920246716
42
3.14159265358979
0
ELLIPSE
5
25A
100
AcDbEntity
8
1
62
256
6
ByLayer
370
18
48
1
60
0
100
AcDbEllipse
10
14.860469
20
79.246823
30
0
11
-1.03066457613036
21
9.80611840735783
31
0
210
0
220
0
230
1
40
0.996195
41
3.1324920246716
42
3.14159265358979
0
ELLIPSE
5
25B
100
AcDbEntity
8
1
62
256
6
ByLayer
370
18
48
1
60
0
100
AcDbEllipse
10
25.432165
20
78.004856
30
0
11
0.522642316338387
21
-4.97260947684117
31
0
210
0
220
0
230
1
40
0.996195
41
3.12269203158479
42
3.1324920246716
0
ELLIPSE
5
25C
100
AcDbEntity
8
1
62
256
6
ByLayer
370
18
48
1
60
0
100
AcDbEllipse
10
20.558781
20
79.426731
30
0
11
0.0236644336325698
21
-0.225152046182971
31
0
210
0
220
0
230
1
40
0.996195
41
3.14159265358979
42
-0.168458242080966
0
ELLIPSE
5
25D
100
AcDbEntity
8
1
62
256
6
ByLayer
370
18
48
1
60
0
100
AcDbEllipse
10
25.861091
20
73.023294
30
0
11
1.04528463267682
21
-9.94521895368273
31
0
210
0
220
0
230
1
40
0.996195
41
3.10668606854991
42
3.1226920315848
0
ELLIPSE
5
25E
100
AcDbEntity
8
1
62
256
6
ByLayer
370
18
48
1
60
0
100
AcDbEllipse
10
25.19715
20
82.500021
30
0
11
0.0522642316338408
21
-0.497260947684137
31
0
210
0
220
0
230
1
40
0.996195
41
2.87979326579069
42
3.10668606854988
0
ELLIPSE
5
25F
100
AcDbEntity
8
1
62
256
6
ByLayer
370
18
48
1
60
0
100
AcDbEllipse
10
16.206968
20
80.915507
30
0
11
1.0452846326768
21
-9.94521895368271
31
0
210
0
220
0
230
1
40
0.996195
41
1.5707963267949
42
1.57989695571309
0
ELLIPSE
5
260
100
AcDbEntity
8
1
62
256
6
ByLayer
370
18
48
1
60
0
100
AcDbEllipse
10
20.35458
20
76.134062
30
0
11
0.33449108245658
21
-3.18247006517847
31
0
210
0
220
0
230
1
40
0.996195
41
-1.40233808471402
42
-0.168458242080873
0
ELLIPSE
5
261
100
AcDbEntity
8
1
62
256
6
ByLayer
370
18
48
1
60
0
100
AcDbEllipse
10
21.155694
20
81.481392
30
0
11
0.522642316338387
21
-4.97260947684117
31
0
210
0
220
0
230
1
40
0.996195
41
1.5798969557131
42
1.5896969487999
0
ELLIPSE
5
262
100
AcDbEntity
8
1
62
256
6
ByLayer
370
18
48
1
60
0
100
AcDbEllipse
10
25.119423
20
82.006228
30
0
11
0.10452846326768
21
-0.99452189536827
31
0
210
0
220
0
230
1
40
0.996195
41
1.83259571459404
42
2.87979326579063
0
ELLIPSE
5
263
100
AcDbEntity
8
1
62
256
6
ByLayer
370
18
48
1
60
0
100
AcDbEllipse
10
16.212769
20
80.866852
30
0
11
1.04528463267682
21
-9.94521895368273
31
0
210
0
220
0
230
1
40
0.996195
41
1.58969694879989
42
1.60570291183478
0
ELLIPSE
5
264
100
AcDbEntity
8
1
62
256
6
ByLayer
370
18
48
1
60
0
100
AcDbEllipse
10
24.557404
20
71.407685
30
0
11
-1.03066457613038
21
9.80611840735802
31
0
210
0
220
0
230
1
40
0.996195
41
1.58969694879989
42
1.60570291183478
0
ELLIPSE
5
265
100
AcDbEntity
8
1
62
256
6
ByLayer
370
18
48
1
60
0
100
AcDbEllipse
10
25.909175
20
73.027658
30
0
11
-1.03066457613036
21
9.80611840735783
31
0
210
0
220
0
230
1
40
0.996195
41
-0.00910062891818979
42
2.89349711370914E-15
0
ELLIPSE
5
266
100
AcDbEntity
8
1
62
256
6
ByLayer
370
18
48
1
60
0
100
AcDbEllipse
10
23.811838
20
73.125677
30
0
11
0.0209056926535362
21
-0.198904379073654
31
0
210
0
220
0
230
1
40
0.087156
41
0.886715094999377
42
1.57079632679479
0
ELLIPSE
5
267
100
AcDbEntity
8
1
62
256
6
ByLayer
370
18
48
1
60
0
100
AcDbEllipse
10
25.431635
20
78.0048
30
0
11
-0.508022259791923
21
4.83350893051648
31
0
210
0
220
0
230
1
40
0.996195
41
-0.0189006220049959
42
-0.00910062891819085
0
ELLIPSE
5
268
100
AcDbEntity
8
1
62
256
6
ByLayer
370
18
48
1
60
0
100
AcDbEllipse
10
15.65128
20
70.268364
30
0
11
0.10452846326768
21
-0.99452189536827
31
0
210
0
220
0
230
1
40
0.996195
41
-1.30899693899574
42
-0.261799387799138
0
ELLIPSE
5
269
100
AcDbEntity
8
1
62
256
6
ByLayer
370
18
48
1
60
0
100
AcDbEllipse
10
25.860562
20
73.023239
30
0
11
-1.03066457613038
21
9.80611840735802
31
0
210
0
220
0
230
1
40
0.996195
41
-0.0349065850398812
42
-0.0189006220049937
0
ELLIPSE
5
26A
100
AcDbEntity
8
1
62
256
6
ByLayer
370
18
48
1
60
0
100
AcDbEllipse
10
25.196621
20
82.499965
30
0
11
-0.0376441750873423
21
0.35816040135942
31
0
210
0
220
0
230
1
40
0.996195
41
-0.261799387799012
42
-0.0349065850398059
0
ELLIPSE
5
26B
100
AcDbEntity
8
1
62
256
6
ByLayer
370
18
48
1
60
0
100
AcDbEllipse
10
20.13545
20
72.938951
30
0
11
-0.0128650708014692
21
-0.199585795970738
31
0
210
0
220
0
230
1
40
0.085922
41
1.58546385301632
42
2.26954508481186
0
ELLIPSE
5
26C
100
AcDbEntity
8
1
62
256
6
ByLayer
370
18
48
1
60
0
100
AcDbEllipse
10
25.118893
20
82.006172
30
0
11
-0.0899084067211886
21
0.855421349043576
31
0
210
0
220
0
230
1
40
0.996195
41
-1.30899693899573
42
-0.261799387799129
0
ELLIPSE
5
26D
100
AcDbEntity
8
1
62
256
6
ByLayer
370
18
48
1
60
0
100
AcDbEllipse
10
25.583856
20
82.185164
30
0
11
-0.0376441750873423
21
0.35816040135942
31
0
210
0
220
0
230
1
40
0.996195
41
-1.53588974175498
42
-1.30899693899576
0
ELLIPSE
5
26E
100
AcDbEntity
8
1
62
256
6
ByLayer
370
18
48
1
60
0
100
AcDbEllipse
10
16.21224
20
80.866796
30
0
11
-1.03066457613038
21
9.80611840735802
31
0
210
0
220
0
230
1
40
0.996195
41
-1.5518957047899
42
-1.53588974175501
0
ELLIPSE
5
26F
100
AcDbEntity
8
1
62
256
6
ByLayer
370
18
48
1
60
0
100
AcDbEllipse
10
17.155681
20
76.33732
30
0
11
-0.199601851976567
21
0.0126135121011043
31
0
210
0
220
0
230
1
40
0.014613
41
-2.34091484549275
42
-1.65683361369324
0
ELLIPSE
5
270
100
AcDbEntity
8
1
62
256
6
ByLayer
370
18
48
1
60
0
100
AcDbEllipse
10
21.155164
20
81.481337
30
0
11
-0.508022259791923
21
4.83350893051648
31
0
210
0
220
0
230
1
40
0.996195
41
-1.5616956978767
42
-1.5518957047899
0
ELLIPSE
5
271
100
AcDbEntity
8
1
62
256
6
ByLayer
370
18
48
1
60
0
100
AcDbEllipse
10
23.406645
20
76.994323
30
0
11
-0.192617575984814
21
-0.0538374351333206
31
0
210
0
220
0
230
1
40
0.014613
41
0.972752381896276
42
1.65683361369351
0
ELLIPSE
5
272
100
AcDbEntity
8
1
62
256
6
ByLayer
370
18
48
1
60
0
100
AcDbEllipse
10
17.267845
20
75.270157
30
0
11
-0.192617575984814
21
-0.0538374351333206
31
0
210
0
220
0
230
1
40
0.014613
41
1.65683361369326
42
2.34091484549268
0
ELLIPSE
5
273
100
AcDbEntity
8
1
62
256
6
ByLayer
370
18
48
1
60
0
100
AcDbEllipse
10
20.139597
20
72.739709
30
0
11
-0.0209056926535377
21
0.198904379073654
31
0
210
0
220
0
230
1
40
0.087156
41
-2.25487755859025
42
-1.57079632679486
0
ELLIPSE
5
274
100
AcDbEntity
8
1
62
256
6
ByLayer
370
18
48
1
60
0
100
AcDbEllipse
10
26.414886
20
70.914042
30
0
11
0.0522642316338408
21
-0.497260947684137
31
0
210
0
220
0
230
1
40
0.996195
41
0.0349065850398827
42
0.261799387799137
0
ELLIPSE
5
275
100
AcDbEntity
8
1
62
256
6
ByLayer
370
18
48
1
60
0
100
AcDbEllipse
10
20.142579
20
72.840573
30
0
11
0.0236644336325698
21
-0.225152046182971
31
0
210
0
220
0
230
1
40
0.996195
41
0
42
2.97313441150889
0
ELLIPSE
5
276
100
AcDbEntity
8
1
62
256
6
ByLayer
370
18
48
1
60
0
100
AcDbEllipse
10
15.338008
20
74.269681
30
0
11
-0.508022259791923
21
4.83350893051648
31
0
210
0
220
0
230
1
40
0.996195
41
3.1226920315848
42
3.13249202467161
0
ELLIPSE
5
277
100
AcDbEntity
8
1
62
256
6
ByLayer
370
18
48
1
60
0
100
AcDbEllipse
10
19.614479
20
70.793145
30
0
11
-0.508022259791923
21
4.83350893051648
31
0
210
0
220
0
230
1
40
0.996195
41
1.57989695571309
42
1.58969694879989
0
ELLIPSE
5
278
100
AcDbEntity
8
1
62
256
6
ByLayer
370
18
48
1
60
0
100
AcDbEllipse
10
17.073593
20
76.345551
30
0
11
0.0104528463267679
21
-0.0994521895368262
31
0
210
0
220
0
230
1
40
0.996195
41
-1.5707963267949
42
1.40233808471397
0
ELLIPSE
5
279
100
AcDbEntity
8
1
62
256
6
ByLayer
370
18
48
1
60
0
100
AcDbEllipse
10
25.562785
20
70.897534
30
0
11
0.000312393387986521
21
0.804406195809592
31
0
210
0
220
0
230
-1
40
0.086204
41
2.81963092595969
42
3.11257357736812
0
ELLIPSE
5
27A
100
AcDbEntity
8
1
62
256
6
ByLayer
370
18
48
1
60
0
100
AcDbEllipse
10
16.610826
20
71.160487
30
0
11
-0.219509772862145
21
2.08849598027337
31
0
210
0
220
0
230
1
40
0.996195
41
1.33039084231469
42
1.57079632679525
0
ELLIPSE
5
27B
100
AcDbEntity
8
1
62
256
6
ByLayer
370
18
48
1
60
0
100
AcDbEllipse
10
16.64996
20
70.913224
30
0
11
0.203830503371981
21
-1.93931769596815
31
0
210
0
220
0
230
1
40
0.996195
41
-0.677688085537979
42
0.0754474595860846
0
ELLIPSE
5
27C
100
AcDbEntity
8
1
62
256
6
ByLayer
370
18
48
1
60
0
100
AcDbEllipse
10
16.636958
20
70.911857
30
0
11
-0.219509772862146
21
2.08849598027337
31
0
210
0
220
0
230
1
40
0.996195
41
2.29352210439173
42
2.99025627438408
0
ELLIPSE
5
27D
100
AcDbEntity
8
1
62
256
6
ByLayer
370
18
48
1
60
0
100
AcDbEllipse
10
16.636958
20
70.911857
30
0
11
-0.219509772862146
21
2.08849598027337
31
0
210
0
220
0
230
1
40
0.996195
41
1.57079632679523
42
1.81271118592132
0
ELLIPSE
5
27E
100
AcDbEntity
8
1
62
256
6
ByLayer
370
18
48
1
60
0
100
AcDbEllipse
10
16.011353
20
70.846103
30
0
11
0.00234239982495932
21
-2.10008585590649
31
0
210
0
220
0
230
-1
40
0.996112
41
-0.691392889524265
42
1.46759190742543
0
ELLIPSE
5
27F
100
AcDbEntity
8
1
62
256
6
ByLayer
370
18
48
1
60
0
100
AcDbEllipse
10
25.483525
20
70.889203
30
0
11
-0.0836227706141506
21
0.795617516294616
31
0
210
0
220
0
230
1
40
0.087156
41
-2.82872488099012
42
-2.3777682727043
0
ELLIPSE
5
280
100
AcDbEntity
8
1
62
256
6
ByLayer
370
18
48
1
60
0
100
AcDbEllipse
10
15.985419
20
71.094755
30
0
11
0.00234240045541748
21
-2.1000858559138
31
0
210
0
220
0
230
-1
40
0.996112
41
1.4675919077272
42
2.13035110433478
0
ELLIPSE
5
281
100
AcDbEntity
8
1
62
256
6
ByLayer
370
18
48
1
60
0
100
AcDbEllipse
10
15.509776
20
67.2871
30
0
11
8.80763202613227
21
-86.887406712881
31
0
210
0
220
0
230
-1
40
0.009125
41
1.62838150302906
42
1.71844593127419
0
ELLIPSE
5
282
100
AcDbEntity
8
1
62
256
6
ByLayer
370
18
48
1
60
0
100
AcDbEllipse
10
-12.295301
20
-31.071075
30
0
11
-2.619
21
3.20724404066081E-16
31
0
210
0
220
0
230
1
40
0.892586
41
0.543691986252084
42
2.53379282341824
0
ELLIPSE
5
283
100
AcDbEntity
8
1
62
256
6
ByLayer
370
18
48
1
60
0
100
AcDbEllipse
10
-12.295301
20
-30.899291
30
0
11
-3
21
3.67381906146713E-16
31
0
210
0
220
0
230
1
40
0.892586
41
0.625471336330224
42
2.41892799841215
0
ELLIPSE
5
284
100
AcDbEntity
8
1
62
256
6
ByLayer
370
18
48
1
60
0
100
AcDbEllipse
10
16.206968
20
-37.668734
30
0
11
9.9523882903973
21
-0.974662668395035
31
0
210
0
220
0
230
1
40
0.457294
41
-0.0694634511979482
42
-0.060362822279757
0
ELLIPSE
5
285
100
AcDbEntity
8
1
62
256
6
ByLayer
370
18
48
1
60
0
100
AcDbEllipse
10
25.584385
20
-38.979865
30
0
11
0.497619414519866
21
-0.0487331334197519
31
0
210
0
220
0
230
1
40
0.457294
41
-0.322162210078863
42
-0.0952694073196246
0
ELLIPSE
5
286
100
AcDbEntity
8
1
62
256
6
ByLayer
370
18
48
1
60
0
100
AcDbEllipse
10
24.400185
20
-35.575932
30
0
11
0.0499696332748626
21
0.396866521327229
31
0
210
0
220
0
230
1
40
0.053649
41
-2.66590145049175
42
-1.75978421664795
0
ELLIPSE
5
287
100
AcDbEntity
8
1
62
256
6
ByLayer
370
18
48
1
60
0
100
AcDbEllipse
10
24.480495
20
-35.436717
30
0
11
-1.0947627119437
21
0.107212893523449
31
0
210
0
220
0
230
1
40
0.457294
41
1.51043350451514
42
3.08122983131004
0
ELLIPSE
5
288
100
AcDbEntity
8
1
62
256
6
ByLayer
370
18
48
1
60
0
100
AcDbEllipse
10
24.493781
20
-35.301054
30
0
11
-0.781415841832393
21
0.0765260385048817
31
0
210
0
220
0
230
1
40
0.457294
41
1.51043350451511
42
3.08122983131
0
ELLIPSE
5
289
100
AcDbEntity
8
1
62
256
6
ByLayer
370
18
48
1
60
0
100
AcDbEllipse
10
21.155694
20
-38.312833
30
0
11
4.97619414519846
21
-0.487331334197499
31
0
210
0
220
0
230
1
40
0.457294
41
-0.0792634442847562
42
-0.0694634511979524
0
ELLIPSE
5
28A
100
AcDbEntity
8
1
62
256
6
ByLayer
370
18
48
1
60
0
100
AcDbEllipse
10
25.056531
20
-35.809265
30
0
11
0.746429121779796
21
-0.0730997001296275
31
0
210
0
220
0
230
1
40
0.457294
41
-1.63115914907464
42
-0.0603628222797634
0
ELLIPSE
5
28B
100
AcDbEntity
8
1
62
256
6
ByLayer
370
18
48
1
60
0
100
AcDbEllipse
10
25.604977
20
-35.219902
30
0
11
-0.389555694365289
21
0.0908094763093456
31
0
210
0
220
0
230
1
40
0.887696
41
0.781463821653758
42
1.68758105549738
0
ELLIPSE
5
28C
100
AcDbEntity
8
1
62
256
6
ByLayer
370
18
48
1
60
0
100
AcDbEllipse
10
25.909704
20
-34.801466
30
0
11
9.9523882903973
21
-0.974662668395035
31
0
210
0
220
0
230
1
40
0.457294
41
-1.63115914907465
42
-1.62205852015646
0
ELLIPSE
5
28D
100
AcDbEntity
8
1
62
256
6
ByLayer
370
18
48
1
60
0
100
AcDbEllipse
10
25.432165
20
-37.049087
30
0
11
4.97619414519846
21
-0.487331334197499
31
0
210
0
220
0
230
1
40
0.457294
41
-1.62205852015647
42
-1.61225852706966
0
ELLIPSE
5
28E
100
AcDbEntity
8
1
62
256
6
ByLayer
370
18
48
1
60
0
100
AcDbEllipse
10
25.861091
20
-34.795662
30
0
11
9.95238829039732
21
-0.974662668395037
31
0
210
0
220
0
230
1
40
0.457294
41
-1.61225852706966
42
-1.59625256403477
0
ELLIPSE
5
28F
100
AcDbEntity
8
1
62
256
6
ByLayer
370
18
48
1
60
0
100
AcDbEllipse
10
25.19715
20
-39.094297
30
0
11
0.497619414519866
21
-0.0487331334197519
31
0
210
0
220
0
230
1
40
0.457294
41
-1.59625256403478
42
-1.3693597612756
0
ELLIPSE
5
290
100
AcDbEntity
8
1
62
256
6
ByLayer
370
18
48
1
60
0
100
AcDbEllipse
10
25.119423
20
-38.86159
30
0
11
0.995238829039728
21
-0.0974662668395034
31
0
210
0
220
0
230
1
40
0.457294
41
-1.36935976127546
42
-0.322162210078864
0
ELLIPSE
5
291
100
AcDbEntity
8
1
62
256
6
ByLayer
370
18
48
1
60
0
100
AcDbEllipse
10
16.212769
20
-37.64685
30
0
11
9.95238829039732
21
-0.974662668395037
31
0
210
0
220
0
230
1
40
0.457294
41
-0.0952694073196421
42
-0.0792634442847531
0
ELLIPSE
5
292
100
AcDbEntity
8
1
62
256
6
ByLayer
370
18
48
1
60
0
100
AcDbEllipse
10
14.355817
20
-37.72926
30
0
11
0.497619414519866
21
-0.0487331334197519
31
0
210
0
220
0
230
1
40
0.457294
41
-1.89295853687378
42
-1.66606573411454
0
ELLIPSE
5
293
100
AcDbEntity
8
1
62
256
6
ByLayer
370
18
48
1
60
0
100
AcDbEllipse
10
26.505591
20
-31.356438
30
0
11
-0.389555694365289
21
0.0908094763093456
31
0
210
0
220
0
230
1
40
0.887696
41
0.8023750771677
42
1.68758105549738
0
ELLIPSE
5
294
100
AcDbEntity
8
1
62
256
6
ByLayer
370
18
48
1
60
0
100
AcDbEllipse
10
25.381109
20
-31.573252
30
0
11
-1.0947627119437
21
0.107212893523449
31
0
210
0
220
0
230
1
40
0.457294
41
3.08122983131002
42
-2.41059273975252
0
ELLIPSE
5
295
100
AcDbEntity
8
1
62
256
6
ByLayer
370
18
48
1
60
0
100
AcDbEllipse
10
26.093031
20
-31.362871
30
0
11
0.746429121779796
21
-0.0730997001296275
31
0
210
0
220
0
230
1
40
0.457294
41
-0.0603628222797528
42
1.34545146706511
0
ELLIPSE
5
296
100
AcDbEntity
8
1
62
256
6
ByLayer
370
18
48
1
60
0
100
AcDbEllipse
10
14.889195
20
-33.870674
30
0
11
0.389555694365289
21
-0.0908094763093455
31
0
210
0
220
0
230
1
40
0.887696
41
-1.45401159809234
42
-0.547894364248673
0
ELLIPSE
5
297
100
AcDbEntity
8
1
62
256
6
ByLayer
370
18
48
1
60
0
100
AcDbEllipse
10
15.944335
20
-34.361925
30
0
11
-1.0947627119437
21
0.107212893523449
31
0
210
0
220
0
230
1
40
0.457294
41
-0.0603628222797578
42
1.51043350451515
0
ELLIPSE
5
298
100
AcDbEntity
8
1
62
256
6
ByLayer
370
18
48
1
60
0
100
AcDbEllipse
10
15.957621
20
-34.226262
30
0
11
-0.781415841832393
21
0.0765260385048817
31
0
210
0
220
0
230
1
40
0.457294
41
-0.0603628222797721
42
1.51043350451515
0
ELLIPSE
5
299
100
AcDbEntity
8
1
62
256
6
ByLayer
370
18
48
1
60
0
100
AcDbEllipse
10
15.232412
20
-34.572306
30
0
11
0.746429121779796
21
-0.0730997001296275
31
0
210
0
220
0
230
1
40
0.457294
41
3.08122983131005
42
-1.63115914907462
0
ELLIPSE
5
29A
100
AcDbEntity
8
1
62
256
6
ByLayer
370
18
48
1
60
0
100
AcDbEllipse
10
17.291721
20
-33.015344
30
0
11
9.9523882903973
21
-0.974662668395035
31
0
210
0
220
0
230
1
40
0.457294
41
-0.0603628222797523
42
-0.0512621933615608
0
ELLIPSE
5
29B
100
AcDbEntity
8
1
62
256
6
ByLayer
370
18
48
1
60
0
100
AcDbEllipse
10
22.24996
20
-33.618635
30
0
11
4.97619414519846
21
-0.487331334197499
31
0
210
0
220
0
230
1
40
0.457294
41
-0.0512621933615659
42
-0.0414622002747602
0
ELLIPSE
5
29C
100
AcDbEntity
8
1
62
256
6
ByLayer
370
18
48
1
60
0
100
AcDbEllipse
10
17.28728
20
-33.037399
30
0
11
9.95238829039732
21
-0.974662668395037
31
0
210
0
220
0
230
1
40
0.457294
41
-0.0414622002747632
42
-0.0254562372398689
0
ELLIPSE
5
29D
100
AcDbEntity
8
1
62
256
6
ByLayer
370
18
48
1
60
0
100
AcDbEllipse
10
26.728208
20
-34.073079
30
0
11
0.497619414519866
21
-0.0487331334197519
31
0
210
0
220
0
230
1
40
0.457294
41
-0.0254562372398783
42
0.100117764541539
0
ELLIPSE
5
29E
100
AcDbEntity
8
1
62
256
6
ByLayer
370
18
48
1
60
0
100
AcDbEllipse
10
15.864025
20
-34.501141
30
0
11
0.0499696332748626
21
0.396866521327229
31
0
210
0
220
0
230
1
40
0.053649
41
-2.66590145049175
42
-1.75978421664831
0
ELLIPSE
5
29F
100
AcDbEntity
8
1
62
256
6
ByLayer
370
18
48
1
60
0
100
AcDbEllipse
10
23.478981
20
-38.584356
30
0
11
9.9523882903973
21
-0.974662668395035
31
0
210
0
220
0
230
1
40
0.457294
41
3.08122983131004
42
3.09033046022823
0
ELLIPSE
5
2A0
100
AcDbEntity
8
1
62
256
6
ByLayer
370
18
48
1
60
0
100
AcDbEllipse
10
18.520742
20
-37.981065
30
0
11
4.97619414519846
21
-0.487331334197499
31
0
210
0
220
0
230
1
40
0.457294
41
3.09033046022822
42
3.10013045331503
0
ELLIPSE
5
2A1
100
AcDbEntity
8
1
62
256
6
ByLayer
370
18
48
1
60
0
100
AcDbEllipse
10
23.483422
20
-38.562301
30
0
11
9.95238829039732
21
-0.974662668395037
31
0
210
0
220
0
230
1
40
0.457294
41
3.10013045331503
42
3.11613641634992
0
ELLIPSE
5
2A2
100
AcDbEntity
8
1
62
256
6
ByLayer
370
18
48
1
60
0
100
AcDbEllipse
10
14.042494
20
-37.52662
30
0
11
0.497619414519866
21
-0.0487331334197519
31
0
210
0
220
0
230
1
40
0.457294
41
3.11613641634988
42
-2.94015608807048
0
ELLIPSE
5
2A3
100
AcDbEntity
8
1
62
256
6
ByLayer
370
18
48
1
60
0
100
AcDbEllipse
10
15.628237
20
-33.506922
30
0
11
9.9523882903973
21
-0.974662668395035
31
0
210
0
220
0
230
1
40
0.457294
41
-1.64025977799285
42
-1.63115914907465
0
ELLIPSE
5
2A4
100
AcDbEntity
8
1
62
256
6
ByLayer
370
18
48
1
60
0
100
AcDbEllipse
10
15.060535
20
-35.743191
30
0
11
4.97619414519846
21
-0.487331334197499
31
0
210
0
220
0
230
1
40
0.457294
41
-1.65005977107965
42
-1.64025977799285
0
ELLIPSE
5
2A5
100
AcDbEntity
8
1
62
256
6
ByLayer
370
18
48
1
60
0
100
AcDbEllipse
10
14.534511
20
-37.528839
30
0
11
0.995238829039728
21
-0.0974662668395034
31
0
210
0
220
0
230
1
40
0.457294
41
-2.94015608807038
42
-1.89295853687383
0
ELLIPSE
5
2A6
100
AcDbEntity
8
1
62
256
6
ByLayer
370
18
48
1
60
0
100
AcDbEllipse
10
15.676706
20
-33.513341
30
0
11
9.95238829039732
21
-0.974662668395037
31
0
210
0
220
0
230
1
40
0.457294
41
-1.66606573411454
42
-1.65005977107965
0
POINT
5
6C
100
AcDbEntity
8
2
62
256
6
ByLayer
370
13
48
0.05
60
0
100
AcDbPoint
10
0
20
0
30
0
39
0
210
0
220
0
230
1
50
360
0
POINT
5
6E
100
AcDbEntity
8
81
62
256
6
ByLayer
370
13
48
1
60
0
100
AcDbPoint
10
26
20
83
30
0
39
0
210
0
220
0
230
1
50
360
0
POINT
5
70
100
AcDbEntity
8
80
62
256
6
ByLayer
370
18
48
1
60
0
100
AcDbPoint
10
0
20
0
30
0
39
0
210
0
220
0
230
1
50
360
0
SPLINE
5
2A7
100
AcDbEntity
8
1
62
256
6
ByLayer
370
18
48
1
60
0
100
AcDbSpline
70
4
71
1
72
4
73
2
40
0
40
0
40
1
40
1
41
1
10
26.2074203914041
20
-28.1694075805771
30
0
41
1
10
26.0385870644512
20
-28.0183607963115
30
0
0
SPLINE
5
2A8
100
AcDbEntity
8
1
62
256
6
ByLayer
370
18
48
1
60
0
100
AcDbSpline
70
4
71
3
72
26
73
22
40
0
40
0
40
0
40
0
40
0.0286988395658754
40
0.0286988395658754
40
0.141769071600763
40
0.141769071600763
40
0.254868298287116
40
0.254868298287116
40
0.368033389403158
40
0.368033389403158
40
0.481342478336031
40
0.481342478336031
40
0.594993717135791
40
0.594993717135791
40
0.731773781728611
40
0.731773781728611
40
0.814575159577671
40
0.814575159577671
40
0.903909284641015
40
0.903909284641015
40
1
40
1
40
1
40
1
41
1
10
21.7513890053517
20
76.2808726248933
30
0
41
1
10
21.7509348881481
20
76.2851932614734
30
0
41
1
10
21.7504387101991
20
76.2895097196179
30
0
41
1
10
21.7477804968983
20
76.3108035708018
30
0
41
1
10
21.745008290239
20
76.327719022668
30
0
41
1
10
21.7381380294147
20
76.361227666562
30
0
41
1
10
21.7340333275044
20
76.3778541935136
30
0
41
1
10
21.7244075538591
20
76.4106120882165
30
0
41
1
10
21.7188747340693
20
76.4267846121883
30
0
41
1
10
21.70622675843
20
76.4583626739827
30
0
41
1
10
21.6990883886012
20
76.4738264685058
30
0
41
1
10
21.682966384453
20
76.5035054732984
30
0
41
1
10
21.6739277938675
20
76.5178150356585
30
0
41
1
10
21.6517180274674
20
76.5467456368572
30
0
41
1
10
21.6378076019133
20
76.5611886089033
30
0
41
1
10
21.6129915987806
20
76.5788111521371
30
0
41
1
10
21.6028791810128
20
76.5842589300812
30
0
41
1
10
21.5814316904633
20
76.591565689089
30
0
41
1
10
21.5697786358003
20
76.5931500487189
30
0
41
1
10
21.5467908603144
20
76.5912199847843
30
0
41
1
10
21.5352075690223
20
76.5873097978111
30
0
41
1
10
21.5249077903865
20
76.5813432166041
30
0
0
SPLINE
5
2A9
100
AcDbEntity
8
1
62
256
6
ByLayer
370
18
48
1
60
0
100
AcDbSpline
70
4
71
3
72
30
73
26
40
0
40
0
40
0
40
0
40
0.0754486908211871
40
0.0754486908211871
40
0.134142567439249
40
0.134142567439249
40
0.208789318447082
40
0.208789318447082
40
0.300864837338246
40
0.300864837338246
40
0.400373451415978
40
0.400373451415978
40
0.499841523429525
40
0.499841523429525
40
0.644794997236272
40
0.644794997236272
40
0.71184360098508
40
0.71184360098508
40
0.778927202841185
40
0.778927202841185
40
0.846083321820491
40
0.846083321820491
40
0.913400043300363
40
0.913400043300363
40
1
40
1
40
1
40
1
41
1
10
19.5886949443469
20
75.1825434225221
30
0
41
1
10
19.5951353972686
20
75.1973915619053
30
0
41
1
10
19.598820251318
20
75.2136468850698
30
0
41
1
10
19.601764134764
20
75.242938346709
30
0
41
1
10
19.6018396056573
20
75.2560694654798
30
0
41
1
10
19.5998651543467
20
75.2859102235707
30
0
41
1
10
19.5972282824719
20
75.3027507415892
30
0
41
1
10
19.5887452604863
20
75.3400070419997
30
0
41
1
10
19.5822583936254
20
75.3605007512278
30
0
41
1
10
19.5658957015996
20
75.4022930010398
30
0
41
1
10
19.5557246162216
20
75.4236765538566
30
0
41
1
10
19.5327407422594
20
75.4651353334215
30
0
41
1
10
19.5198555943768
20
75.4853382812914
30
0
41
1
10
19.4854803569373
20
75.5328162110675
30
0
41
1
10
19.4625191554186
20
75.5594548247363
30
0
41
1
10
19.4260544533913
20
75.5946540605167
30
0
41
1
10
19.4140157721836
20
75.6053078250642
30
0
41
1
10
19.3891249905939
20
75.6252916631179
30
0
41
1
10
19.3762307214408
20
75.63465596048
30
0
41
1
10
19.3496827914117
20
75.6517346543396
30
0
41
1
10
19.3359706851352
20
75.65948667156
30
0
41
1
10
19.3078686086818
20
75.6728341830448
30
0
41
1
10
19.2933849466973
20
75.6784714591846
30
0
41
1
10
19.2599204621296
20
75.6878753882413
30
0
41
1
10
19.2404109303373
20
75.6907745200707
30
0
41
1
10
19.2215044327598
20
75.6896946925089
30
0
0
SPLINE
5
2AA
100
AcDbEntity
8
1
62
256
6
ByLayer
370
18
48
1
60
0
100
AcDbSpline
70
4
71
3
72
26
73
22
40
0
40
0
40
0
40
0
40
0.0246840387502465
40
0.0246840387502465
40
0.108402719804388
40
0.108402719804388
40
0.192103052547575
40
0.192103052547575
40
0.309485195483551
40
0.309485195483551
40
0.380199874143353
40
0.380199874143353
40
0.476666438094158
40
0.476666438094158
40
0.587023534816836
40
0.587023534816836
40
0.69722910130021
40
0.69722910130021
40
0.807364565734783
40
0.807364565734783
40
1
40
1
40
1
40
1
41
1
10
21.5923282970858
20
75.9398799441784
30
0
41
1
10
21.5952787781678
20
75.9389165256669
30
0
41
1
10
21.5982716047076
20
75.9381042475944
30
0
41
1
10
21.6114152860557
20
75.9352971371271
30
0
41
1
10
21.6220501537522
20
75.9350527031527
30
0
41
1
10
21.6426685622369
20
75.9389720227057
30
0
41
1
10
21.6528934448862
20
75.9431883232372
30
0
41
1
10
21.6752429150988
20
75.9574082979724
30
0
41
1
10
21.686942193953
20
75.9692252625998
30
0
41
1
10
21.7026996734756
20
75.9905868899468
30
0
41
1
10
21.708076514204
20
75.9993203692417
30
0
41
1
10
21.7194699123289
20
76.0207997088025
30
0
41
1
10
21.7250647121414
20
76.0339401071292
30
0
41
1
10
21.7352720231183
20
76.0628239169625
30
0
41
1
10
21.7396639914524
20
76.0787697484005
30
0
41
1
10
21.7466856094391
20
76.1110545033409
30
0
41
1
10
21.7493300633975
20
76.1274617622073
30
0
41
1
10
21.7531237512684
20
76.1604468283721
30
0
41
1
10
21.7542777050846
20
76.177069651359
30
0
41
1
10
21.7556082169812
20
76.2227377073276
30
0
41
1
10
21.7544294878421
20
76.2519443663629
30
0
41
1
10
21.7513890053517
20
76.2808726248933
30
0
0
SPLINE
5
2AB
100
AcDbEntity
8
1
62
256
6
ByLayer
370
18
48
1
60
0
100
AcDbSpline
70
4
71
3
72
8
73
4
40
0
40
0
40
0
40
0
40
1
40
1
40
1
40
1
41
1
10
21.1449885435427
20
77.106074990572
30
0
41
1
10
21.1429102457051
20
77.0998854186946
30
0
41
1
10
21.1408313178508
20
77.0936946896141
30
0
41
1
10
21.1387517302539
20
77.0875027495745
30
0
0
SPLINE
5
2AC
100
AcDbEntity
8
1
62
256
6
ByLayer
370
18
48
1
60
0
100
AcDbSpline
70
4
71
3
72
30
73
26
40
0
40
0
40
0
40
0
40
0.0754486908212271
40
0.0754486908212271
40
0.134142567439272
40
0.134142567439272
40
0.208789318447105
40
0.208789318447105
40
0.300864837338276
40
0.300864837338276
40
0.400373451415985
40
0.400373451415985
40
0.499841523429533
40
0.499841523429533
40
0.644794997236292
40
0.644794997236292
40
0.711843600985103
40
0.711843600985103
40
0.778927202841181
40
0.778927202841181
40
0.846083321820503
40
0.846083321820503
40
0.913400043300344
40
0.913400043300344
40
1
40
1
40
1
40
1
41
1
10
19.9289040699948
20
77.2856189855268
30
0
41
1
10
19.9395605577975
20
77.2733600395518
30
0
41
1
10
19.952760185527
20
77.2627576858979
30
0
41
1
10
19.9782123861129
20
77.2467353626702
30
0
41
1
10
19.9901835133371
20
77.2405904093514
30
0
41
1
10
20.0183434494805
20
77.2284065329963
30
0
41
1
10
20.0349130984206
20
77.2227939541649
30
0
41
1
10
20.0727254149496
20
77.2125580857124
30
0
41
1
10
20.0943186998259
20
77.2084260916603
30
0
41
1
10
20.1396846725766
20
77.2025539916725
30
0
41
1
10
20.1636609490966
20
77.2010154486495
30
0
41
1
10
20.2115044263786
20
77.2006715526242
30
0
41
1
10
20.2355197219949
20
77.2018664386664
30
0
41
1
10
20.2936477988043
20
77.2079759457269
30
0
41
1
10
20.3277771661552
20
77.2143648284058
30
0
41
1
10
20.3754353180455
20
77.2277682844219
30
0
41
1
10
20.3902796028914
20
77.2326371987125
30
0
41
1
10
20.4191023624186
20
77.2436501651481
30
0
41
1
10
20.4331299749937
20
77.2498126833486
30
0
41
1
10
20.4600135600382
20
77.2635311189399
30
0
41
1
10
20.4729286901726
20
77.271117193349
30
0
41
1
10
20.4971114095595
20
77.2878669323004
30
0
41
1
10
20.5084571321825
20
77.2970876949311
30
0
41
1
10
20.5314363967181
20
77.320124445039
30
0
41
1
10
20.5425252970143
20
77.3347905329432
30
0
41
1
10
20.5498184214596
20
77.3508797136029
30
0
0
SPLINE
5
2AD
100
AcDbEntity
8
1
62
256
6
ByLayer
370
18
48
1
60
0
100
AcDbSpline
70
4
71
3
72
8
73
4
40
0
40
0
40
0
40
0
40
1
40
1
40
1
40
1
41
1
10
20.5498184214596
20
77.3508797136029
30
0
41
1
10
20.5525026230754
20
77.3568012641055
30
0
41
1
10
20.5551860493961
20
77.3627216553252
30
0
41
1
10
20.5578687352724
20
77.3686409387262
30
0
0
SPLINE
5
2AE
100
AcDbEntity
8
1
62
256
6
ByLayer
370
18
48
1
60
0
100
AcDbSpline
70
4
71
3
72
8
73
4
40
0
40
0
40
0
40
0
40
1
40
1
40
1
40
1
41
1
10
20.1776282531412
20
74.9191664584937
30
0
41
1
10
20.1743088986238
20
74.9131781507311
30
0
41
1
10
20.1709899161984
20
74.9071909598731
30
0
41
1
10
20.1676712898283
20
74.9012048364327
30
0
0
SPLINE
5
2AF
100
AcDbEntity
8
1
62
256
6
ByLayer
370
18
48
1
60
0
100
AcDbSpline
70
4
71
3
72
26
73
22
40
0
40
0
40
0
40
0
40
0.0286869624046175
40
0.0286869624046175
40
0.141758577072908
40
0.141758577072908
40
0.254859186747195
40
0.254859186747195
40
0.368025661656571
40
0.368025661656571
40
0.481336136143597
40
0.481336136143597
40
0.594988764681328
40
0.594988764681328
40
0.731770501834104
40
0.731770501834104
40
0.814572892185928
40
0.814572892185928
40
0.903908109635066
40
0.903908109635066
40
1
40
1
40
1
40
1
41
1
10
20.9254556090533
20
77.4216242446636
30
0
41
1
10
20.9294102100872
20
77.4198557068705
30
0
41
1
10
20.9333485499187
20
77.4180473571745
30
0
41
1
10
20.9527154896852
20
77.4089208026091
30
0
41
1
10
20.9679069067198
20
77.4010254974366
30
0
41
1
10
20.997597706432
20
77.3840372257023
30
0
41
1
10
21.0121266677434
20
77.3749275593997
30
0
41
1
10
21.0403047361624
20
77.3554720501384
30
0
41
1
10
21.0539893176568
20
77.3451021413406
30
0
41
1
10
21.0801771582718
20
77.3230414708891
30
0
41
1
10
21.0927287097537
20
77.3113102037665
30
0
41
1
10
21.1161256308885
20
77.2864069889393
30
0
41
1
10
21.1270442248494
20
77.2731523545986
30
0
41
1
10
21.1480034884156
20
77.242459333507
30
0
41
1
10
21.1576665064939
20
77.22434345259
30
0
41
1
10
21.1672536852344
20
77.1944494701295
30
0
41
1
10
21.1695320337337
20
77.1827835355723
30
0
41
1
10
21.17038027271
20
77.159296177664
30
0
41
1
10
21.1686037788468
20
77.1472393614067
30
0
41
1
10
21.1603633734891
20
77.1249407224315
30
0
41
1
10
21.1534593276155
20
77.1145677179788
30
0
41
1
10
21.1449885435427
20
77.106074990572
30
0
0
SPLINE
5
2B0
100
AcDbEntity
8
1
62
256
6
ByLayer
370
18
48
1
60
0
100
AcDbSpline
70
4
71
3
72
26
73
22
40
0
40
0
40
0
40
0
40
0.0341747429583172
40
0.0341747429583172
40
0.118717554180371
40
0.118717554180371
40
0.203116442115677
40
0.203116442115677
40
0.327045140900992
40
0.327045140900992
40
0.402980231179065
40
0.402980231179065
40
0.505547228462771
40
0.505547228462771
40
0.607904869128971
40
0.607904869128971
40
0.710165947507999
40
0.710165947507999
40
0.915602886218693
40
0.915602886218693
40
1
40
1
40
1
40
1
41
1
10
20.5578687352723
20
77.3686409387262
30
0
41
1
10
20.5577344603499
20
77.3731331163406
30
0
41
1
10
20.5578991807445
20
77.3776175940894
30
0
41
1
10
20.5595939961603
20
77.3928564055483
30
0
41
1
10
20.5628619312093
20
77.4035064646967
30
0
41
1
10
20.5734066968481
20
77.4225475338859
30
0
41
1
10
20.5808002637316
20
77.4311692015306
30
0
41
1
10
20.6021912688982
20
77.4487769211
30
0
41
1
10
20.6179886804958
20
77.4564952122916
30
0
41
1
10
20.6447800424998
20
77.4649823468876
30
0
41
1
10
20.655472280518
20
77.4673638213821
30
0
41
1
10
20.6809680703327
20
77.4712891907778
30
0
41
1
10
20.6960080968167
20
77.4722721457054
30
0
41
1
10
20.7261393333123
20
77.4722998318389
30
0
41
1
10
20.7413132139361
20
77.4713463529317
30
0
41
1
10
20.7715268230224
20
77.4679061438936
30
0
41
1
10
20.7866157095208
20
77.4654135802497
30
0
41
1
10
20.8315896513369
20
77.455993871598
30
0
41
1
10
20.8612882250085
20
77.4471108268403
30
0
41
1
10
20.9020538878141
20
77.4316832532077
30
0
41
1
10
20.9138287471559
20
77.4268238955273
30
0
41
1
10
20.9254556090533
20
77.4216242446636
30
0
0
SPLINE
5
2B1
100
AcDbEntity
8
1
62
256
6
ByLayer
370
18
48
1
60
0
100
AcDbSpline
70
4
71
3
72
8
73
4
40
0
40
0
40
0
40
0
40
1
40
1
40
1
40
1
41
1
10
19.2215044327598
20
75.6896946925089
30
0
41
1
10
19.2145459814502
20
75.6892972668364
30
0
41
1
10
19.2075885977292
20
75.6888998895508
30
0
41
1
10
19.2006322347141
20
75.6885025585548
30
0
0
SPLINE
5
2B2
100
AcDbEntity
8
1
62
256
6
ByLayer
370
18
48
1
60
0
100
AcDbSpline
70
4
71
3
72
8
73
4
40
0
40
0
40
0
40
0
40
1
40
1
40
1
40
1
41
1
10
19.9154302590072
20
77.3011179339732
30
0
41
1
10
19.9199209504749
20
77.2959526029121
30
0
41
1
10
19.9244122121456
20
77.290786301787
30
0
41
1
10
19.9289040699948
20
77.2856189855268
30
0
0
SPLINE
5
2B3
100
AcDbEntity
8
1
62
256
6
ByLayer
370
18
48
1
60
0
100
AcDbSpline
70
4
71
3
72
30
73
26
40
0
40
0
40
0
40
0
40
0.0754486908212
40
0.0754486908212
40
0.134142567439269
40
0.134142567439269
40
0.208789318447076
40
0.208789318447076
40
0.300864837338267
40
0.300864837338267
40
0.400373451415973
40
0.400373451415973
40
0.499841523429518
40
0.499841523429518
40
0.64479499723627
40
0.64479499723627
40
0.711843600985095
40
0.711843600985095
40
0.778927202841178
40
0.778927202841178
40
0.846083321820484
40
0.846083321820484
40
0.913400043300352
40
0.913400043300352
40
1
40
1
40
1
40
1
41
1
10
19.1538756770413
20
76.3331393220005
30
0
41
1
10
19.170219199094
20
76.3356493279155
30
0
41
1
10
19.186383549115
20
76.3412266085284
30
0
41
1
10
19.2136087163912
20
76.3543726786297
30
0
41
1
10
19.2251731050275
20
76.3613081618229
30
0
41
1
10
19.2503452657303
20
76.378858538901
30
0
41
1
10
19.2637647854326
20
76.3900325325654
30
0
41
1
10
19.2920776196052
20
76.4169461302335
30
0
41
1
10
19.3067067723683
20
76.4332576828101
30
0
41
1
10
19.3349025874356
20
76.4690929645738
30
0
41
1
10
19.3483897797504
20
76.4889045513441
30
0
41
1
10
19.3728258525533
20
76.5299749200327
30
0
41
1
10
19.383849214307
20
76.551361530286
30
0
41
1
10
19.4076020536769
20
76.6049489671226
30
0
41
1
10
19.4189969093534
20
76.638000289533
30
0
41
1
10
19.4308428660385
20
76.6866715625602
30
0
41
1
10
19.4339032432465
20
76.7022210191794
30
0
41
1
10
19.4384369700002
20
76.7332810700178
30
0
41
1
10
19.439918315168
20
76.7488444620378
30
0
41
1
10
19.4410403287296
20
76.7797242411023
30
0
41
1
10
19.4406834729114
20
76.7951085912418
30
0
41
1
10
19.4377333472737
20
76.8253077120062
30
0
41
1
10
19.435127853964
20
76.8402217131118
30
0
41
1
10
19.4259515193996
20
76.8727999616825
30
0
41
1
10
19.4183500172467
20
76.8904512753794
30
0
41
1
10
19.407599516919
20
76.9055513200634
30
0
0
SPLINE
5
2B4
100
AcDbEntity
8
1
62
256
6
ByLayer
370
18
48
1
60
0
100
AcDbSpline
70
4
71
3
72
8
73
4
40
0
40
0
40
0
40
0
40
1
40
1
40
1
40
1
41
1
10
19.407599516919
20
76.9055513200634
30
0
41
1
10
19.403642843676
20
76.9111088235236
30
0
41
1
10
19.399686664328
20
76.9166652372768
30
0
41
1
10
19.3957309574362
20
76.9222206097016
30
0
0
SPLINE
5
2B5
100
AcDbEntity
8
1
62
256
6
ByLayer
370
18
48
1
60
0
100
AcDbSpline
70
4
71
3
72
26
73
22
40
0
40
0
40
0
40
0
40
0.0286869624046632
40
0.0286869624046632
40
0.141758577072962
40
0.141758577072962
40
0.254859186747223
40
0.254859186747223
40
0.368025661656603
40
0.368025661656603
40
0.481336136143618
40
0.481336136143618
40
0.594988764681338
40
0.594988764681338
40
0.731770501834111
40
0.731770501834111
40
0.814572892185948
40
0.814572892185948
40
0.903908109635064
40
0.903908109635064
40
1
40
1
40
1
40
1
41
1
10
19.5288130408692
20
77.2748311955951
30
0
41
1
10
19.5323135246995
20
77.2773832943818
30
0
41
1
10
19.5358409352693
20
77.279900362828
30
0
41
1
10
19.5533924103107
20
77.2921562358908
30
0
41
1
10
19.5678060445142
20
77.3013860049758
30
0
41
1
10
19.5973442141233
20
77.3186124285753
30
0
41
1
10
19.6124979664659
20
77.3266263789631
30
0
41
1
10
19.6434598426391
20
77.3412330639678
30
0
41
1
10
19.6593065418303
20
77.3478444496618
30
0
41
1
10
19.6915842883182
20
77.3593312717116
30
0
41
1
10
19.7080746492688
20
77.3642280575712
30
0
41
1
10
19.7414938668661
20
77.371751724259
30
0
41
1
10
19.7585314110353
20
77.3743997740119
30
0
41
1
10
19.7958817941798
20
77.3766944707206
30
0
41
1
10
19.8166101629892
20
77.3756466217164
30
0
41
1
10
19.8477435165306
20
77.3682480437467
30
0
41
1
10
19.8591865725312
20
77.3640559946433
30
0
41
1
10
19.8804258402363
20
77.3522728013162
30
0
41
1
10
19.890264347546
20
77.3442459159035
30
0
41
1
10
19.906081530506
20
77.3249618799791
30
0
41
1
10
19.9119653918573
20
77.3132402047358
30
0
41
1
10
19.9154302590072
20
77.3011179339732
30
0
0
SPLINE
5
2B6
100
AcDbEntity
8
1
62
256
6
ByLayer
370
18
48
1
60
0
100
AcDbSpline
70
4
71
3
72
26
73
22
40
0
40
0
40
0
40
0
40
0.034174742958313
40
0.034174742958313
40
0.118717554180367
40
0.118717554180367
40
0.203116442115666
40
0.203116442115666
40
0.32704514090098
40
0.32704514090098
40
0.402980231179047
40
0.402980231179047
40
0.505547228462748
40
0.505547228462748
40
0.607904869128972
40
0.607904869128972
40
0.710165947508003
40
0.710165947508003
40
0.915602886218696
40
0.915602886218696
40
1
40
1
40
1
40
1
41
1
10
21.3298090676645
20
75.3476251654574
30
0
41
1
10
21.3334365693661
20
75.3452627613806
30
0
41
1
10
21.3369052763358
20
75.3426422231403
30
0
41
1
10
21.3481128816547
20
75.3327413493153
30
0
41
1
10
21.3548822554539
20
75.3239939611301
30
0
41
1
10
21.3645808040719
20
75.304226123983
30
0
41
1
10
21.3676327667446
20
75.2929756369314
30
0
41
1
10
21.370635034199
20
75.2644652284292
30
0
41
1
10
21.3686526187689
20
75.2463190506826
30
0
41
1
10
21.3616068797421
20
75.2180583317938
30
0
41
1
10
21.357990225703
20
75.2073291101397
30
0
41
1
10
21.3479552534318
20
75.1826971499704
30
0
41
1
10
21.3409630406763
20
75.1688902393112
30
0
41
1
10
21.3253796410254
20
75.142274463331
30
0
41
1
10
21.3167472313061
20
75.1293917541865
30
0
41
1
10
21.2982991057783
20
75.1045635594836
30
0
41
1
10
21.2884532687042
20
75.0925778677479
30
0
41
1
10
21.2574711102039
20
75.0579093872649
30
0
41
1
10
21.2348228995258
20
75.0364281787822
30
0
41
1
10
21.201057852197
20
75.0086441758471
30
0
41
1
10
21.1909715523323
20
75.0008313425874
30
0
41
1
10
21.180679833466
20
74.9933279560545
30
0
0
SPLINE
5
2B7
100
AcDbEntity
8
1
62
256
6
ByLayer
370
18
48
1
60
0
100
AcDbSpline
70
4
71
3
72
26
73
22
40
0
40
0
40
0
40
0
40
0.0341747429583025
40
0.0341747429583025
40
0.118717554180354
40
0.118717554180354
40
0.203116442115681
40
0.203116442115681
40
0.327045140900996
40
0.327045140900996
40
0.402980231179052
40
0.402980231179052
40
0.505547228462784
40
0.505547228462784
40
0.607904869128996
40
0.607904869128996
40
0.710165947508027
40
0.710165947508027
40
0.915602886218733
40
0.915602886218733
40
1
40
1
40
1
40
1
41
1
10
19.3957309574362
20
76.9222206097016
30
0
41
1
10
19.3916556392644
20
76.9245359463708
30
0
41
1
10
19.3877350567474
20
76.9271089905772
30
0
41
1
10
19.3749738440911
20
76.9368465736911
30
0
41
1
10
19.3670859431403
20
76.9454763999354
30
0
41
1
10
19.3553073850886
20
76.9650256192817
30
0
41
1
10
19.3512684742529
20
76.9761723739014
30
0
41
1
10
19.3461238529294
20
77.0044576119384
30
0
41
1
10
19.3470358493566
20
77.0224912841143
30
0
41
1
10
19.3526743097423
20
77.0506040920577
30
0
41
1
10
19.3558187087609
20
77.0612836777091
30
0
41
1
10
19.3648720224967
20
77.0858124614088
30
0
41
1
10
19.3713948147947
20
77.0995700339898
30
0
41
1
10
19.3861797737294
20
77.126101890469
30
0
41
1
10
19.3944810496638
20
77.1389497960502
30
0
41
1
10
19.4123699897388
20
77.1637192179938
30
0
41
1
10
19.4219870044291
20
77.1756808595278
30
0
41
1
10
19.4524030563678
20
77.2102898398136
30
0
41
1
10
19.4748311922502
20
77.2317479175032
30
0
41
1
10
19.5084553107049
20
77.2595171082168
30
0
41
1
10
19.5185213220029
20
77.2673278090622
30
0
41
1
10
19.5288130408692
20
77.2748311955951
30
0
0
SPLINE
5
2B8
100
AcDbEntity
8
1
62
256
6
ByLayer
370
18
48
1
60
0
100
AcDbSpline
70
4
71
3
72
26
73
22
40
0
40
0
40
0
40
0
40
0.028686962404627
40
0.028686962404627
40
0.141758577072917
40
0.141758577072917
40
0.254859186747181
40
0.254859186747181
40
0.368025661656581
40
0.368025661656581
40
0.481336136143607
40
0.481336136143607
40
0.594988764681333
40
0.594988764681333
40
0.731770501834082
40
0.731770501834082
40
0.814572892185934
40
0.814572892185934
40
0.903908109635058
40
0.903908109635058
40
1
40
1
40
1
40
1
41
1
10
19.7840372652819
20
74.846534906986
30
0
41
1
10
19.7800826642481
20
74.8483034447791
30
0
41
1
10
19.7761466795747
20
74.8501120420121
30
0
41
1
10
19.7568030416407
20
74.8592410456988
30
0
41
1
10
19.7416666447557
20
74.8671421337221
30
0
41
1
10
19.7121640041719
20
74.8841501817777
30
0
41
1
10
19.6977683149344
20
74.8932738555397
30
0
41
1
10
19.6699485057815
20
74.9127670193672
30
0
41
1
10
19.6564892444818
20
74.9231606102717
30
0
41
1
10
19.6308689380021
20
74.9452809309645
30
0
41
1
10
19.6186604541479
20
74.9570482559478
30
0
41
1
10
19.5961099507213
20
74.9820404328609
30
0
41
1
10
19.5856973563967
20
74.9953482499066
30
0
41
1
10
19.5661014929762
20
75.0261845701278
30
0
41
1
10
19.557362003075
20
75.0443975177675
30
0
41
1
10
19.5496476116088
20
75.0744883381024
30
0
41
1
10
19.5481811172048
20
75.0862396019633
30
0
41
1
10
19.54919563408
20
75.1099227434009
30
0
41
1
10
19.5520641291485
20
75.1220943336098
30
0
41
1
10
19.562646270554
20
75.1446390989615
30
0
41
1
10
19.5708398465355
20
75.1551476384901
30
0
41
1
10
19.5805514815579
20
75.163770784587
30
0
0
SPLINE
5
2B9
100
AcDbEntity
8
1
62
256
6
ByLayer
370
18
48
1
60
0
100
AcDbSpline
70
4
71
3
72
8
73
4
40
0
40
0
40
0
40
0
40
1
40
1
40
1
40
1
41
1
10
19.5805514815579
20
75.163770784587
30
0
41
1
10
19.5832657198894
20
75.1700271965037
30
0
41
1
10
19.5859802038484
20
75.1762847252225
30
0
41
1
10
19.5886949443468
20
75.1825434225221
30
0
0
SPLINE
5
2BA
100
AcDbEntity
8
1
62
256
6
ByLayer
370
18
48
1
60
0
100
AcDbSpline
70
4
71
3
72
8
73
4
40
0
40
0
40
0
40
0
40
1
40
1
40
1
40
1
41
1
10
20.8101097660934
20
74.9687278411858
30
0
41
1
10
20.8062550151196
20
74.9739600122862
30
0
41
1
10
20.8023993095536
20
74.9791931130496
30
0
41
1
10
20.7985426046059
20
74.9844271865699
30
0
0
SPLINE
5
2BB
100
AcDbEntity
8
1
62
256
6
ByLayer
370
18
48
1
60
0
100
AcDbSpline
70
4
71
3
72
8
73
4
40
0
40
0
40
0
40
0
40
1
40
1
40
1
40
1
41
1
10
19.1332117280148
20
76.3299658309807
30
0
41
1
10
19.1400986875671
20
76.3310234918167
30
0
41
1
10
19.1469866551445
20
76.3320813195912
30
0
41
1
10
19.1538756770413
20
76.3331393220005
30
0
0
SPLINE
5
2BC
100
AcDbEntity
8
1
62
256
6
ByLayer
370
18
48
1
60
0
100
AcDbSpline
70
4
71
3
72
8
73
4
40
0
40
0
40
0
40
0
40
1
40
1
40
1
40
1
41
1
10
21.3198471576818
20
75.3644948520331
30
0
41
1
10
21.3231686780232
20
75.358870591313
30
0
41
1
10
21.3264893012665
20
75.3532473779214
30
0
41
1
10
21.3298090676645
20
75.3476251654574
30
0
0
SPLINE
5
2BD
100
AcDbEntity
8
1
62
256
6
ByLayer
370
18
48
1
60
0
100
AcDbSpline
70
4
71
3
72
26
73
22
40
0
40
0
40
0
40
0
40
0.028686962404643
40
0.028686962404643
40
0.141758577072954
40
0.141758577072954
40
0.25485918674722
40
0.25485918674722
40
0.368025661656581
40
0.368025661656581
40
0.481336136143604
40
0.481336136143604
40
0.594988764681339
40
0.594988764681339
40
0.731770501834105
40
0.731770501834105
40
0.814572892185925
40
0.814572892185925
40
0.903908109635047
40
0.903908109635047
40
1
40
1
40
1
40
1
41
1
10
18.9581038689835
20
75.9872865267563
30
0
41
1
10
18.95764975178
20
75.9916071633361
30
0
41
1
10
18.9572400000973
20
75.9959327052468
30
0
41
1
10
18.9554361862885
20
76.0173163574356
30
0
41
1
10
18.9546859135322
20
76.0344443231185
30
0
41
1
10
18.9546273629933
20
76.068668906613
30
0
41
1
10
18.9553187900614
20
76.0857995270331
30
0
41
1
10
18.9582817274487
20
76.1198805485822
30
0
41
1
10
18.9605565052428
20
76.1368736841273
30
0
41
1
10
18.9669301781834
20
76.1704510017493
30
0
41
1
10
18.9710405214658
20
76.1870970836618
30
0
41
1
10
18.9814860267824
20
76.2195684462198
30
0
41
1
10
18.9878579768089
20
76.2354977216659
30
0
41
1
10
19.00493079646
20
76.268557089031
30
0
41
1
10
19.0164579112797
20
76.2856736543052
30
0
41
1
10
19.0389404797177
20
76.3082674777332
30
0
41
1
10
19.0485111142667
20
76.3157840278388
30
0
41
1
10
19.0698335209214
20
76.3275860841846
30
0
41
1
10
19.0819945226968
20
76.3316734020051
30
0
41
1
10
19.1072229790384
20
76.3348110682441
30
0
41
1
10
19.1206556513173
20
76.3335301649915
30
0
41
1
10
19.1332117280148
20
76.3299658309807
30
0
0
SPLINE
5
2BE
100
AcDbEntity
8
1
62
256
6
ByLayer
370
18
48
1
60
0
100
AcDbSpline
70
4
71
3
72
26
73
22
40
0
40
0
40
0
40
0
40
0.0341747429582812
40
0.0341747429582812
40
0.118717554180347
40
0.118717554180347
40
0.203116442115671
40
0.203116442115671
40
0.327045140900988
40
0.327045140900988
40
0.402980231179044
40
0.402980231179044
40
0.505547228462758
40
0.505547228462758
40
0.607904869128981
40
0.607904869128981
40
0.71016594750801
40
0.71016594750801
40
0.915602886218725
40
0.915602886218725
40
1
40
1
40
1
40
1
41
1
10
20.1676712898283
20
74.9012048364327
30
0
41
1
10
20.1673577482806
20
74.8966655914108
30
0
41
1
10
20.1667411523387
20
74.8921336196281
30
0
41
1
10
20.1634927295854
20
74.8767315174581
30
0
41
1
10
20.1591062673849
20
74.8659638963688
30
0
41
1
10
20.1464814923124
20
74.8467042093787
30
0
41
1
10
20.1381009772659
20
74.8379788093022
30
0
41
1
10
20.1145676182301
20
74.8201459192676
30
0
41
1
10
20.0976997876297
20
74.8123151225053
30
0
41
1
10
20.0695011469847
20
74.803680076964
30
0
41
1
10
20.0583366539458
20
74.8012489664667
30
0
41
1
10
20.0318592055959
20
74.7972204206013
30
0
41
1
10
20.0163497586543
20
74.7961881275955
30
0
41
1
10
19.9854200814425
20
74.7960765219612
30
0
41
1
10
19.9699150670338
20
74.7969951973051
30
0
41
1
10
19.9391422724946
20
74.8003766335838
30
0
41
1
10
19.9238245636125
20
74.8028451470261
30
0
41
1
10
19.8782845152348
20
74.8122053554804
30
0
41
1
10
19.8483658667676
20
74.8210652694451
30
0
41
1
10
19.8074592750878
20
74.8364780308561
30
0
41
1
10
19.7956641271794
20
74.8413352561223
30
0
41
1
10
19.7840372652819
20
74.846534906986
30
0
0
SPLINE
5
2BF
100
AcDbEntity
8
1
62
256
6
ByLayer
370
18
48
1
60
0
100
AcDbSpline
70
4
71
3
72
30
73
26
40
0
40
0
40
0
40
0
40
0.0754486908212278
40
0.0754486908212278
40
0.134142567439274
40
0.134142567439274
40
0.208789318447101
40
0.208789318447101
40
0.300864837338277
40
0.300864837338277
40
0.400373451415993
40
0.400373451415993
40
0.499841523429529
40
0.499841523429529
40
0.644794997236289
40
0.644794997236289
40
0.711843600985099
40
0.711843600985099
40
0.778927202841181
40
0.778927202841181
40
0.846083321820491
40
0.846083321820491
40
0.913400043300364
40
0.913400043300364
40
1
40
1
40
1
40
1
41
1
10
20.7985426046059
20
74.9844271865699
30
0
41
1
10
20.7893929541465
20
74.9968445075315
30
0
41
1
10
20.7776335899331
20
75.0075982389808
30
0
41
1
10
20.7545232228585
20
75.0238666988288
30
0
41
1
10
20.7435165145966
20
75.0301130166651
30
0
41
1
10
20.7173832267134
20
75.0425099023358
30
0
41
1
10
20.7018400924994
20
75.0482303722125
30
0
41
1
10
20.6660606967119
20
75.0586799092449
30
0
41
1
10
20.6454219423401
20
75.0629122284956
30
0
41
1
10
20.6016709009045
20
75.0689540646043
30
0
41
1
10
20.5783306220388
20
75.0705594536745
30
0
41
1
10
20.5313342057907
20
75.0709923794018
30
0
41
1
10
20.5075324821345
20
75.0698199406772
30
0
41
1
10
20.449404405325
20
75.0637104336167
30
0
41
1
10
20.4148216582857
20
75.0572738988124
30
0
41
1
10
20.3658584927513
20
75.0437332803352
30
0
41
1
10
20.3505046607655
20
75.0388108104822
30
0
41
1
10
20.3204784036062
20
75.0276713513483
30
0
41
1
10
20.3057547875393
20
75.021435680233
30
0
41
1
10
20.2772984854026
20
75.0075519454145
30
0
41
1
10
20.2635031146203
20
74.9998733539853
30
0
41
1
10
20.2373819323759
20
74.9829198743776
30
0
41
1
10
20.2249713176491
20
74.9735871870767
30
0
41
1
10
20.199374282178
20
74.9502752981565
30
0
41
1
10
20.1866471231956
20
74.9354370223259
30
0
41
1
10
20.1776282531412
20
74.9191664584937
30
0
0
SPLINE
5
2C0
100
AcDbEntity
8
1
62
256
6
ByLayer
370
18
48
1
60
0
100
AcDbSpline
70
4
71
3
72
26
73
22
40
0
40
0
40
0
40
0
40
0.0286869624046189
40
0.0286869624046189
40
0.14175857707292
40
0.14175857707292
40
0.254859186747188
40
0.254859186747188
40
0.368025661656561
40
0.368025661656561
40
0.481336136143585
40
0.481336136143585
40
0.59498876468131
40
0.59498876468131
40
0.731770501834096
40
0.731770501834096
40
0.814572892185919
40
0.814572892185919
40
0.903908109635049
40
0.903908109635049
40
1
40
1
40
1
40
1
41
1
10
21.180679833466
20
74.9933279560545
30
0
41
1
10
21.1771793496357
20
74.9907758572679
30
0
41
1
10
21.1736542942241
20
74.9882590363587
30
0
41
1
10
21.1561261210151
20
74.9760056124172
30
0
41
1
10
21.1417675069613
20
74.966781626183
30
0
41
1
10
21.1124174964806
20
74.9495749789047
30
0
41
1
10
21.0973970162119
20
74.9415750359763
30
0
41
1
10
21.0667933993049
20
74.9270060055379
30
0
41
1
10
21.0511720203083
20
74.9204183019506
30
0
41
1
10
21.0194618079557
20
74.9089911301421
30
0
41
1
10
21.0033145146328
20
74.9041304021432
30
0
41
1
10
20.9707417147438
20
74.8966956975412
30
0
41
1
10
20.954210170211
20
74.8941008304932
30
0
41
1
10
20.9182231872121
20
74.8919494329141
30
0
41
1
10
20.8984183465798
20
74.8930943486411
30
0
41
1
10
20.8691577803126
20
74.900689764485
30
0
41
1
10
20.8585265784072
20
74.9049671428924
30
0
41
1
10
20.8391500665537
20
74.9169461197487
30
0
41
1
10
20.8304035604492
20
74.925087779113
30
0
41
1
10
20.8169281135371
20
74.9446179414139
30
0
41
1
10
20.8123337822936
20
74.9564751517329
30
0
41
1
10
20.8101097660934
20
74.9687278411858
30
0
0
SPLINE
5
2C1
100
AcDbEntity
8
1
62
256
6
ByLayer
370
18
48
1
60
0
100
AcDbSpline
70
4
71
3
72
26
73
22
40
0
40
0
40
0
40
0
40
0.0341747429582927
40
0.0341747429582927
40
0.118717554180363
40
0.118717554180363
40
0.203116442115675
40
0.203116442115675
40
0.327045140900999
40
0.327045140900999
40
0.402980231179047
40
0.402980231179047
40
0.505547228462791
40
0.505547228462791
40
0.607904869129001
40
0.607904869129001
40
0.710165947508007
40
0.710165947508007
40
0.91560288621874
40
0.91560288621874
40
1
40
1
40
1
40
1
41
1
10
19.2006322347141
20
75.6885025585548
30
0
41
1
10
19.1964672832297
20
75.6863021839059
30
0
41
1
10
19.1921560425445
20
75.6843670033466
30
0
41
1
10
19.1769232108036
20
75.678784129646
30
0
41
1
10
19.1652081112282
20
75.6767051157715
30
0
41
1
10
19.1418447828208
20
75.6771039570281
30
0
41
1
10
19.1299188310201
20
75.6795771777871
30
0
41
1
10
19.1023120275954
20
75.6901421110221
30
0
41
1
10
19.0868914029236
20
75.7004012392212
30
0
41
1
10
19.0650348619848
20
75.7199529570959
30
0
41
1
10
19.0572508954748
20
75.7282262502514
30
0
41
1
10
19.0403175901283
20
75.7487780763204
30
0
41
1
10
19.0315656457134
20
75.7615280249348
30
0
41
1
10
19.0158201477946
20
75.7879902355302
30
0
41
1
10
19.0087819762126
20
75.8017742182369
30
0
41
1
10
18.9961777144749
20
75.8299544628389
30
0
41
1
10
18.990591431475
20
75.844396642916
30
0
41
1
10
18.9757504883167
20
75.8883955817548
30
0
41
1
10
18.9683700131297
20
75.9187251388056
30
0
41
1
10
18.9611580043417
20
75.9619144970411
30
0
41
1
10
18.9594390120146
20
75.9745834893597
30
0
41
1
10
18.9581038689835
20
75.9872865267563
30
0
0
SPLINE
5
2C2
100
AcDbEntity
8
1
62
256
6
ByLayer
370
18
48
1
60
0
100
AcDbSpline
70
4
71
3
72
26
73
22
40
0
40
0
40
0
40
0
40
0.036967983939869
40
0.036967983939869
40
0.14036607822301
40
0.14036607822301
40
0.298318733654423
40
0.298318733654423
40
0.500628765508187
40
0.500628765508187
40
0.645354084681082
40
0.645354084681082
40
0.712297154914699
40
0.712297154914699
40
0.779275168169086
40
0.779275168169086
40
0.846325584405814
40
0.846325584405814
40
0.91353635035716
40
0.91353635035716
40
1
40
1
40
1
40
1
41
1
10
21.3198471576797
20
75.3644948520366
30
0
41
1
10
21.3159351224946
20
75.3711190191549
30
0
41
1
10
21.3126013627117
20
75.3782189403353
30
0
41
1
10
21.302012527796
20
75.4060101135648
30
0
41
1
10
21.2980591891604
20
75.4288376796302
30
0
41
1
10
21.294529536125
20
75.4872479927385
30
0
41
1
10
21.2981806235179
20
75.5243884354078
30
0
41
1
10
21.3146038896584
20
75.6074534461666
30
0
41
1
10
21.3299692636356
20
75.6543722936121
30
0
41
1
10
21.3635859805317
20
75.7302130663836
30
0
41
1
10
21.3800535658098
20
75.7609958125361
30
0
41
1
10
21.4070980803385
20
75.8028701359549
30
0
41
1
10
21.4161490981374
20
75.8157405171885
30
0
41
1
10
21.4351375852387
20
75.840336252222
30
0
41
1
10
21.4451071332842
20
75.8521036336061
30
0
41
1
10
21.4659513501371
20
75.8741634428213
30
0
41
1
10
21.476871838336
20
75.884504450047
30
0
41
1
10
21.499646250456
20
75.9031992959563
30
0
41
1
10
21.5115764619597
20
75.9116127820691
30
0
41
1
10
21.5397367095234
20
75.9274937314698
30
0
41
1
10
21.5565788891507
20
75.9342135821287
30
0
41
1
10
21.5735709975595
20
75.9369068500961
30
0
0
SPLINE
5
2C3
100
AcDbEntity
8
1
62
256
6
ByLayer
370
18
48
1
60
0
100
AcDbSpline
70
4
71
3
72
8
73
4
40
0
40
0
40
0
40
0
40
1
40
1
40
1
40
1
41
1
10
21.5735709975595
20
75.9369068500961
30
0
41
1
10
21.5798248665548
20
75.9378980952454
30
0
41
1
10
21.5860772780274
20
75.9388891233816
30
0
41
1
10
21.5923282970858
20
75.9398799441784
30
0
0
SPLINE
5
2C4
100
AcDbEntity
8
1
62
256
6
ByLayer
370
18
48
1
60
0
100
AcDbSpline
70
4
71
3
72
26
73
22
40
0
40
0
40
0
40
0
40
0.0753632465606011
40
0.0753632465606011
40
0.133990653438594
40
0.133990653438594
40
0.20855286836983
40
0.20855286836983
40
0.300524113423262
40
0.300524113423262
40
0.399920035818957
40
0.399920035818957
40
0.499275462063609
40
0.499275462063609
40
0.577746029348544
40
0.577746029348544
40
0.777160361616587
40
0.777160361616587
40
0.91386469565991
40
0.91386469565991
40
1
40
1
40
1
40
1
41
1
10
21.505942241841
20
76.5803514795878
30
0
41
1
10
21.4909408427272
20
76.579567001534
30
0
41
1
10
21.4754104042106
20
76.5818130256357
30
0
41
1
10
21.4483887840091
20
76.5892575286234
30
0
41
1
10
21.4365995559355
20
76.5937384477916
30
0
41
1
10
21.410355187026
20
76.6058847298447
30
0
41
1
10
21.3959322268321
20
76.6141323609505
30
0
41
1
10
21.3646753651605
20
76.6347849312922
30
0
41
1
10
21.3479290625162
20
76.6477987906232
30
0
41
1
10
21.3145137509502
20
76.6771584820382
30
0
41
1
10
21.2978382232983
20
76.693799839193
30
0
41
1
10
21.2662441885521
20
76.7289812062758
30
0
41
1
10
21.2512287593621
20
76.7476310293198
30
0
41
1
10
21.2261308616897
20
76.7822954072842
30
0
41
1
10
21.2156284156044
20
76.7981074999423
30
0
41
1
10
21.1812134925077
20
76.8548880550846
30
0
41
1
10
21.1605170839346
20
76.898495437596
30
0
41
1
10
21.1377083106018
20
76.9724867890081
30
0
41
1
10
21.1315756449208
20
77.0034947132364
30
0
41
1
10
21.1309741576517
20
77.0520050621867
30
0
41
1
10
21.1331013755826
20
77.0706789055681
30
0
41
1
10
21.1387517302539
20
77.0875027495745
30
0
0
SPLINE
5
2C5
100
AcDbEntity
8
1
62
256
6
ByLayer
370
18
48
1
60
0
100
AcDbSpline
70
4
71
3
72
8
73
4
40
0
40
0
40
0
40
0
40
1
40
1
40
1
40
1
41
1
10
21.5249077903865
20
76.5813432166041
30
0
41
1
10
21.5185873678652
20
76.5810127256474
30
0
41
1
10
21.512265540249
20
76.5806821480002
30
0
41
1
10
21.505942241841
20
76.5803514795878
30
0
0
SPLINE
5
2C6
100
AcDbEntity
8
1
62
256
6
ByLayer
370
18
48
1
60
0
100
AcDbSpline
70
4
71
3
72
9
73
5
40
0
40
0
40
0
40
0
40
0.131017155734033
40
1
40
1
40
1
40
1
41
1
10
26.2192798822379
20
-43.4740980726085
30
0
41
1
10
26.2287706126085
20
-43.483327964318
30
0
41
1
10
26.2942582544011
20
-43.5555596032898
30
0
41
1
10
26.3020892459926
20
-43.6386694024004
30
0
41
1
10
26.3088942433391
20
-43.710890392018
30
0
0
SPLINE
5
2C7
100
AcDbEntity
8
1
62
256
6
ByLayer
370
18
48
1
60
0
100
AcDbSpline
70
4
71
3
72
8
73
4
40
0
40
0
40
0
40
0
40
1
40
1
40
1
40
1
41
1
10
27.0506091449986
20
-38.4896581911128
30
0
41
1
10
27.0752840081568
20
-38.3012698389774
30
0
41
1
10
27.0992251616013
20
-38.1144548772763
30
0
41
1
10
27.1228365352706
20
-37.9274743304395
30
0
0
SPLINE
5
2C8
100
AcDbEntity
8
1
62
256
6
ByLayer
370
18
48
1
60
0
100
AcDbSpline
70
4
71
3
72
22
73
18
40
0
40
0
40
0
40
0
40
0.104611531529256
40
0.104611531529256
40
0.208411675036508
40
0.208411675036508
40
0.402775886004088
40
0.402775886004088
40
0.500031490391593
40
0.500031490391593
40
0.699792640385731
40
0.699792640385731
40
0.846184360106956
40
0.846184360106956
40
0.950335564350913
40
0.950335564350913
40
1
40
1
40
1
40
1
41
1
10
27.1233959719963
20
-37.8594803724623
30
0
41
1
10
27.1179019807705
20
-37.8734727189241
30
0
41
1
10
27.1113534000795
20
-37.8826410449522
30
0
41
1
10
27.0954047168923
20
-37.8893652519646
30
0
41
1
10
27.0858241992257
20
-37.8873764603695
30
0
41
1
10
27.053852409256
20
-37.8730849730131
30
0
41
1
10
27.0268802135623
20
-37.854174766235
30
0
41
1
10
26.9784602351339
20
-37.8235394138361
30
0
41
1
10
26.9608018934501
20
-37.8126440771067
30
0
41
1
10
26.9033755781074
20
-37.7784968034941
30
0
41
1
10
26.858990172917
20
-37.7542380030709
30
0
41
1
10
26.7771679639723
20
-37.707137783983
30
0
41
1
10
26.7402262854054
20
-37.6851339385068
30
0
41
1
10
26.6805075374167
20
-37.6390264603799
30
0
41
1
10
26.6564286863008
20
-37.6166613006998
30
0
41
1
10
26.6265016780937
20
-37.5796874141028
30
0
41
1
10
26.6175489232128
20
-37.566991000915
30
0
41
1
10
26.6095104971458
20
-37.553909872064
30
0
0
SPLINE
5
2C9
100
AcDbEntity
8
1
62
256
6
ByLayer
370
18
48
1
60
0
100
AcDbSpline
70
4
71
3
72
10
73
6
40
0
40
0
40
0
40
0
40
0.295368028639097
40
0.295368028639097
40
1
40
1
40
1
40
1
41
1
10
26.3213044102878
20
-38.578280184942
30
0
41
1
10
26.327762499236
20
-38.5477445465715
30
0
41
1
10
26.3342218079613
20
-38.5172137977448
30
0
41
1
10
26.3560683031765
20
-38.4138591720666
30
0
41
1
10
26.3714393422137
20
-38.3410531076829
30
0
41
1
10
26.3867865914979
20
-38.2682673818
30
0
0
SPLINE
5
2CA
100
AcDbEntity
8
1
62
256
6
ByLayer
370
18
48
1
60
0
100
AcDbSpline
70
4
71
3
72
8
73
4
40
0
40
0
40
0
40
0
40
1
40
1
40
1
40
1
41
1
10
26.3867865914999
20
-38.2682673818296
30
0
41
1
10
26.3975533909208
20
-38.2172048561047
30
0
41
1
10
26.4096082672184
20
-38.1664684959165
30
0
41
1
10
26.4219909625703
20
-38.1158644530831
30
0
0
SPLINE
5
2CB
100
AcDbEntity
8
1
62
256
6
ByLayer
370
18
48
1
60
0
100
AcDbSpline
70
4
71
3
72
8
73
4
40
0
40
0
40
0
40
0
40
1
40
1
40
1
40
1
41
1
10
26.4219909625667
20
-38.1158644530799
30
0
41
1
10
26.4653679356256
20
-37.9385968921724
30
0
41
1
10
26.5033025785721
20
-37.7601028459256
30
0
41
1
10
26.5416875603233
20
-37.581907094603
30
0
0
SPLINE
5
2CC
100
AcDbEntity
8
1
62
256
6
ByLayer
370
18
48
1
60
0
100
AcDbSpline
70
4
71
3
72
22
73
18
40
0
40
0
40
0
40
0
40
0.247648061032071
40
0.247648061032071
40
0.499630853098433
40
0.499630853098433
40
0.554937524732152
40
0.554937524732152
40
0.599939125431558
40
0.599939125431558
40
0.645356331404982
40
0.645356331404982
40
0.695796263471406
40
0.695796263471406
40
0.78004957406708
40
0.78004957406708
40
1
40
1
40
1
40
1
41
1
10
26.5416875602282
20
-37.5819070945686
30
0
41
1
10
26.5437004982871
20
-37.5725623718876
30
0
41
1
10
26.5460317548492
20
-37.5632809050953
30
0
41
1
10
26.5522211674264
20
-37.545237204049
30
0
41
1
10
26.5559139486716
20
-37.5359394009907
30
0
41
1
10
26.5639469053984
20
-37.5275049352908
30
0
41
1
10
26.5656105358717
20
-37.526093313412
30
0
41
1
10
26.569006146222
20
-37.5241333527372
30
0
41
1
10
26.5707039462892
20
-37.5234658071583
30
0
41
1
10
26.574272427097
20
-37.522819482435
30
0
41
1
10
26.5761912286507
20
-37.5228475144277
30
0
41
1
10
26.5801011614015
20
-37.5236018990948
30
0
41
1
10
26.582133706733
20
-37.5243993386813
30
0
41
1
10
26.5871609536012
20
-37.5270982948804
30
0
41
1
10
26.5900138863136
20
-37.5293957852621
30
0
41
1
10
26.599322418503
20
-37.5382908409412
30
0
41
1
10
26.6046845690537
20
-37.5460565203408
30
0
41
1
10
26.609510497146
20
-37.5539098720633
30
0
0
SPLINE
5
2CD
100
AcDbEntity
8
1
62
256
6
ByLayer
370
18
48
1
60
0
100
AcDbSpline
70
4
71
3
72
22
73
18
40
0
40
0
40
0
40
0
40
0.247648061031859
40
0.247648061031859
40
0.49963085309806
40
0.49963085309806
40
0.554937524731651
40
0.554937524731651
40
0.599939125431053
40
0.599939125431053
40
0.645356331404485
40
0.645356331404485
40
0.695796263471072
40
0.695796263471072
40
0.780049574066729
40
0.780049574066729
40
1
40
1
40
1
40
1
41
1
10
27.1228365352834
20
-37.9274743304692
30
0
41
1
10
27.1240747339353
20
-37.9176689263332
30
0
41
1
10
27.1253021406128
20
-37.9077310799036
30
0
41
1
10
27.1276575395281
20
-37.8874075684122
30
0
41
1
10
27.1288734927697
20
-37.8766369749959
30
0
41
1
10
27.1298218087769
20
-37.8639897861975
30
0
41
1
10
27.1299695131191
20
-37.861676752761
30
0
41
1
10
27.1301329944688
20
-37.8577948788886
30
0
41
1
10
27.1301678913147
20
-37.8561385251136
30
0
41
1
10
27.1301240581743
20
-37.8533442187197
30
0
41
1
10
27.1300421697434
20
-37.8521825851748
30
0
41
1
10
27.1297628668414
20
-37.8504459345872
30
0
41
1
10
27.1295521074877
20
-37.8499094432323
30
0
41
1
10
27.1289079803865
20
-37.849236043787
30
0
41
1
10
27.128412558052
20
-37.8495425097531
30
0
41
1
10
27.126541969599
20
-37.851790151454
30
0
41
1
10
27.1249824002288
20
-37.855439984963
30
0
41
1
10
27.1233959719964
20
-37.8594803724615
30
0
0
SPLINE
5
2CE
100
AcDbEntity
8
1
62
256
6
ByLayer
370
18
48
1
60
0
100
AcDbSpline
70
4
71
3
72
8
73
4
40
0
40
0
40
0
40
0
40
1
40
1
40
1
40
1
41
1
10
27.0293691674427
20
-38.6503647340367
30
0
41
1
10
27.0364570991199
20
-38.5971146519158
30
0
41
1
10
27.0435652852772
20
-38.5434368531085
30
0
41
1
10
27.0506091449984
20
-38.4896581911137
30
0
0
SPLINE
5
2CF
100
AcDbEntity
8
1
62
256
6
ByLayer
370
18
48
1
60
0
100
AcDbSpline
70
4
71
3
72
14
73
10
40
0
40
0
40
0
40
0
40
0.25
40
0.25
40
0.5
40
0.5
40
0.75
40
0.75
40
1
40
1
40
1
40
1
41
1
10
13.0046990294423
20
-37.9502572244435
30
0
41
1
10
13.0046990294423
20
-39.5148775442228
30
0
41
1
10
13.2956361183859
20
-41.194953760861
30
0
41
1
10
13.8372522506742
20
-44.4822443291129
30
0
41
1
10
14.0740974655154
20
-46.0946397733445
30
0
41
1
10
14.0747287863194
20
-48.9309934019363
30
0
41
1
10
13.8371699922933
20
-50.0893842338338
30
0
41
1
10
13.2949454624574
20
-51.688093938399
30
0
41
1
10
13.0046990294423
20
-52.1364899520276
30
0
41
1
10
13.0046990294423
20
-52.1668152704244
30
0
0
SPLINE
5
2D0
100
AcDbEntity
8
1
62
256
6
ByLayer
370
18
48
1
60
0
100
AcDbSpline
70
4
71
3
72
14
73
10
40
0
40
0
40
0
40
0
40
0.317384014730825
40
0.317384014730825
40
0.595460147120524
40
0.595460147120524
40
0.875766676017388
40
0.875766676017388
40
1
40
1
40
1
40
1
41
1
10
-9.54038120097965
20
-33.3815888716421
30
0
41
1
10
-9.60588610555061
20
-33.4669822703883
30
0
41
1
10
-9.67797506485164
20
-33.5361961231593
30
0
41
1
10
-9.80636813454151
20
-33.6187064899815
30
0
41
1
10
-9.86456436159062
20
-33.6384597388386
30
0
41
1
10
-9.95722132395002
20
-33.6338103916689
30
0
41
1
10
-9.99250583304325
20
-33.6089619025935
30
0
41
1
10
-10.0163156811664
20
-33.5445303818163
30
0
41
1
10
-10.0200446546932
20
-33.5205424932049
30
0
41
1
10
-10.0201677652117
20
-33.4930343489564
30
0
0
SPLINE
5
2D1
100
AcDbEntity
8
1
62
256
6
ByLayer
370
18
48
1
60
0
100
AcDbSpline
70
4
71
1
72
4
73
2
40
0
40
0
40
1
40
1
41
1
10
16.4158231279695
20
-31.0474464549757
30
0
41
1
10
16.3739153181496
20
-31.3397144374595
30
0
0
SPLINE
5
2D2
100
AcDbEntity
8
1
62
256
6
ByLayer
370
18
48
1
60
0
100
AcDbSpline
70
4
71
1
72
4
73
2
40
0
40
0
40
1
40
1
41
1
10
24.613067450538
20
-32.0795649901785
30
0
41
1
10
24.5711596407181
20
-32.3718329726624
30
0
0
SPLINE
5
2D3
100
AcDbEntity
8
1
62
256
6
ByLayer
370
18
48
1
60
0
100
AcDbSpline
70
4
71
1
72
4
73
2
40
0
40
0
40
1
40
1
41
1
10
26.1107467554787
20
-28.1824873127654
30
0
41
1
10
26.3088942433391
20
-28.403816250637
30
0
0
SPLINE
5
2D4
100
AcDbEntity
8
1
62
256
6
ByLayer
370
18
48
1
60
0
100
AcDbSpline
70
4
71
3
72
10
73
6
40
0
40
0
40
0
40
0
40
0.333439314801898
40
0.666560685198121
40
1
40
1
40
1
40
1
41
1
10
25.4440381088306
20
-32.1138875526323
30
0
41
1
10
25.4083525385641
20
-32.1705356379066
30
0
41
1
10
25.3370154252947
20
-32.2837777928036
30
0
41
1
10
24.9891948113218
20
-32.386562702323
30
0
41
1
10
24.7105490015673
20
-32.3767444436276
30
0
41
1
10
24.5711596407181
20
-32.3718329726624
30
0
0
SPLINE
5
2D5
100
AcDbEntity
8
1
62
256
6
ByLayer
370
18
48
1
60
0
100
AcDbSpline
70
4
71
3
72
11
73
7
40
0
40
0
40
0
40
0
40
0.252621746455782
40
0.499999999999998
40
0.747378253544219
40
1
40
1
40
1
40
1
41
1
10
16.3739153181496
20
-31.3397144374595
30
0
41
1
10
16.2709072645247
20
-31.3190644680429
30
0
41
1
10
16.0670292234017
20
-31.2781931461827
30
0
41
1
10
15.8270168459219
20
-31.1611083014445
30
0
41
1
10
15.6718563547375
20
-31.0226168300287
30
0
41
1
10
15.6690592104421
20
-30.929821883989
30
0
41
1
10
15.6676459714881
20
-30.8829378413273
30
0
0
SPLINE
5
2D6
100
AcDbEntity
8
1
62
256
6
ByLayer
370
18
48
1
60
0
100
AcDbSpline
70
4
71
3
72
9
73
5
40
0
40
0
40
0
40
0
40
0.166750579538682
40
1
40
1
40
1
40
1
41
1
10
26.2096704383146
20
-28.1674726132869
30
0
41
1
10
26.2230477777927
20
-28.179891492083
30
0
41
1
10
26.2939224268152
20
-28.2558709306001
30
0
41
1
10
26.3020892459926
20
-28.3365720716372
30
0
41
1
10
26.3088942433391
20
-28.403816250637
30
0
0
SPLINE
5
2D7
100
AcDbEntity
8
1
62
256
6
ByLayer
370
18
48
1
60
0
100
AcDbSpline
70
4
71
2
72
6
73
3
40
0
40
0
40
0
40
1
40
1
40
1
41
1
10
26.1107467554787
20
-28.1824873127654
30
0
41
1
10
26.1345654550808
20
-28.1008054653946
30
0
41
1
10
26.041036434298
20
-28.0199522760212
30
0
0
SPLINE
5
2D8
100
AcDbEntity
8
1
62
256
6
ByLayer
370
18
48
1
60
0
100
AcDbSpline
70
4
71
2
72
6
73
3
40
0
40
0
40
0
40
1
40
1
40
1
41
1
10
16.0460154460072
20
-30.9308565829008
30
0
41
1
10
16.1960738594963
20
-31.0223850547912
30
0
41
1
10
16.4158231279695
20
-31.0474464549757
30
0
0
SPLINE
5
2D9
100
AcDbEntity
8
1
62
256
6
ByLayer
370
18
48
1
60
0
100
AcDbSpline
70
4
71
1
72
4
73
2
40
0
40
0
40
1
40
1
41
1
10
25.2458906209702
20
-31.8925586147608
30
0
41
1
10
25.4440381088306
20
-32.1138875526323
30
0
0
SPLINE
5
2DA
100
AcDbEntity
8
1
62
256
6
ByLayer
370
18
48
1
60
0
100
AcDbSpline
70
4
71
2
72
7
73
4
40
0
40
0
40
0
40
0.5
40
1
40
1
40
1
41
1
10
24.613067450538
20
-32.0795649901785
30
0
41
1
10
24.841004809523
20
-32.1109837685174
30
0
41
1
10
25.2273831611719
20
-31.9980487094775
30
0
41
1
10
25.2458906209702
20
-31.8925586147608
30
0
0
SPLINE
5
2DB
100
AcDbEntity
8
1
62
256
6
ByLayer
370
18
48
1
60
0
100
AcDbSpline
70
4
71
1
72
4
73
2
40
0
40
0
40
1
40
1
41
1
10
26.3455108359131
20
70.5527644164496
30
0
41
1
10
25.5023483303723
20
70.4509789789917
30
0
0
SPLINE
5
2DC
100
AcDbEntity
8
1
62
256
6
ByLayer
370
18
48
1
60
0
100
AcDbSpline
70
4
71
3
72
45
73
41
40
0
40
0
40
0
40
0
40
0.0011565097570628
40
0.0196321945810372
40
0.0288700369930244
40
0.0381078794050116
40
0.0565835642289859
40
0.130486303524883
40
0.204389042820781
40
0.278291782116678
40
0.310624230558633
40
0.340935900972966
40
0.342956679000589
40
0.347575600206582
40
0.352194521412576
40
0.37067020623655
40
0.379908048648537
40
0.389145891060525
40
0.407621575884499
40
0.426097260708473
40
0.463048630356422
40
0.500000000004371
40
0.53695136965232
40
0.555427054476293
40
0.573902739300269
40
0.592378424124243
40
0.610854108948217
40
0.629329793772192
40
0.647805478596166
40
0.652424399802159
40
0.657043321008153
40
0.689375769450109
40
0.721708217892064
40
0.795610957187961
40
0.869513696483859
40
0.943416435779756
40
0.96189212060373
40
0.980367805427705
40
0.998843490251679
40
1
40
1
40
1
40
1
41
1
10
26.3455103159095
20
70.5527685799203
30
0
41
1
10
26.3459695037811
20
70.5528259994824
30
0
41
1
10
26.3537586045754
20
70.553803182981
30
0
41
1
10
26.3650697836523
20
70.5553076066122
30
0
41
1
10
26.3793306722217
20
70.5575255368773
30
0
41
1
10
26.3935102799417
20
70.5599382505038
30
0
41
1
10
26.4324290868595
20
70.5673761122607
30
0
41
1
10
26.497036950754
20
70.5841312517013
30
0
41
1
10
26.5828777544577
20
70.6167978372102
30
0
41
1
10
26.6510289103414
20
70.6521273867519
30
0
41
1
10
26.7009484452064
20
70.6835386297286
30
0
41
1
10
26.723996671168
20
70.6996881996306
30
0
41
1
10
26.7369629643904
20
70.7092869842161
30
0
41
1
10
26.7409007372569
20
70.7122347713135
30
0
41
1
10
26.7505485948822
20
70.7195699979433
30
0
41
1
10
26.7616700208822
20
70.7283580689781
30
0
41
1
10
26.7741827005
20
70.7387074013648
30
0
41
1
10
26.7865593022022
20
70.7492572733513
30
0
41
1
10
26.8017666640535
20
70.7628143585437
30
0
41
1
10
26.8255013685693
20
70.7852677473909
30
0
41
1
10
26.8539842811468
20
70.8147131996359
30
0
41
1
10
26.8860559761947
20
70.8520932647865
30
0
41
1
10
26.910850012749
20
70.8848142349246
30
0
41
1
10
26.9294696029004
20
70.9118132608114
30
0
41
1
10
26.9428124225929
20
70.9324435801818
30
0
41
1
10
26.955519315989
20
70.9534248745746
30
0
41
1
10
26.9675762297137
20
70.9747270690571
30
0
41
1
10
26.9789691103918
20
70.9963200886963
30
0
41
1
10
26.9870052060841
20
71.0127104160936
30
0
41
1
10
26.9921463095257
20
71.0237093870536
30
0
41
1
10
26.9997282352752
20
71.0402496256852
30
0
41
1
10
27.0115002274324
20
71.0680854418453
30
0
41
1
10
27.0320259279367
20
71.1244576992107
30
0
41
1
10
27.0522794718108
20
71.1987253841121
30
0
41
1
10
27.0662604662922
20
71.2898100589791
30
0
41
1
10
27.0691528768618
20
71.3567364820083
30
0
41
1
10
27.0682313732779
20
71.4001147633921
30
0
41
1
10
27.0671903190397
20
71.421736141492
30
0
41
1
10
27.0660209219572
20
71.4368103126524
30
0
41
1
10
27.0653535761329
20
71.4446621241153
30
0
41
1
10
27.0653140512114
20
71.4451249698619
30
0
0
SPLINE
5
2DD
100
AcDbEntity
8
1
62
256
6
ByLayer
370
18
48
1
60
0
100
AcDbSpline
70
4
71
1
72
4
73
2
40
0
40
0
40
1
40
1
41
1
10
26.9891873759868
20
72.2942465744814
30
0
41
1
10
27.0653182159712
20
71.4451253248864
30
0
0
SPLINE
5
2DE
100
AcDbEntity
8
1
62
256
6
ByLayer
370
18
48
1
60
0
100
AcDbSpline
70
4
71
3
72
46
73
42
40
0
40
0
40
0
40
0
40
0.000235681918144
40
0.0012435088516943
40
0.0022513357852446
40
0.0026922600686728
40
0.0093061243200964
40
0.0163609128549482
40
0.0324861437917523
40
0.0486113747285564
40
0.0647366056653606
40
0.0687679133995616
40
0.0707835672666621
40
0.0727992211337626
40
0.0768305288679637
40
0.0788461827350642
40
0.0808618366021647
40
0.0848931443363657
40
0.0889244520705667
40
0.0969870675389688
40
0.129237529412577
40
0.161487991286185
40
0.193738453159794
40
0.209863684096598
40
0.217926299565
40
0.2199419534321
40
0.221957607299201
40
0.222965434232751
40
0.223973261166301
40
0.225988915033402
40
0.226492828500177
40
0.226996741966952
40
0.227232951404503
40
0.234555443968579
40
0.242114145970206
40
0.25823937690701
40
0.290489838780618
40
0.354990762527835
40
0.483992610022268
40
0.741996305011134
40
1
40
1
40
1
40
1
41
1
10
24.3969378406888
20
72.7078319249415
30
0
41
1
10
24.3966584409787
20
72.7077989738925
30
0
41
1
10
24.3951803208631
20
72.7076268578936
30
0
41
1
10
24.3924656554382
20
72.7073307113853
30
0
41
1
10
24.3894700693865
20
72.7070209728785
30
0
41
1
10
24.3796415787861
20
72.7060031217385
30
0
41
1
10
24.3624679431404
20
72.7042113691396
30
0
41
1
10
24.3262593439152
20
72.700405692008
30
0
41
1
10
24.2784915512801
20
72.6953850946928
30
0
41
1
10
24.219700421883
20
72.6892058979971
30
0
41
1
10
24.1756070748351
20
72.6845715004753
30
0
41
1
10
24.1486611405281
20
72.6817393686565
30
0
41
1
10
24.1388626189619
20
72.6807095025405
30
0
41
1
10
24.1290640973957
20
72.6796796364246
30
0
41
1
10
24.1192655758295
20
72.6786497703086
30
0
41
1
10
24.1094670542633
20
72.6776199041927
30
0
41
1
10
24.0996685326971
20
72.6765900380767
30
0
41
1
10
24.0874203807394
20
72.6753027054318
30
0
41
1
10
24.067823337607
20
72.6732429731999
30
0
41
1
10
24.013931468993
20
72.6675787095622
30
0
41
1
10
23.9257447748972
20
72.6583099145187
30
0
41
1
10
23.808162516103
20
72.6459515211272
30
0
41
1
10
23.7101773004411
20
72.6356528599678
30
0
41
1
10
23.6415876494777
20
72.6284437971561
30
0
41
1
10
23.6097424543876
20
72.6250967322793
30
0
41
1
10
23.5950446720383
20
72.6235519331054
30
0
41
1
10
23.5889205960594
20
72.6229082667829
30
0
41
1
10
23.5840213352764
20
72.6223933337249
30
0
41
1
10
23.5791220744933
20
72.621878400667
30
0
41
1
10
23.574835221308
20
72.6214278342412
30
0
41
1
10
23.5711607757207
20
72.6210416344477
30
0
41
1
10
23.5696488944635
20
72.6208827293244
30
0
41
1
10
23.5598503728972
20
72.6198528632084
30
0
41
1
10
23.5414781449606
20
72.6179218642411
30
0
41
1
10
23.5037959399532
20
72.6139613049006
30
0
41
1
10
23.4358186965877
20
72.6068166087212
30
0
41
1
10
23.2986393946611
20
72.5923984830979
30
0
41
1
10
23.0242807908078
20
72.5635622318514
30
0
41
1
10
22.4755635831011
20
72.5058897293583
30
0
41
1
10
21.6916818578059
20
72.4235004400823
30
0
41
1
10
21.0645764775697
20
72.3575890086616
30
0
41
1
10
20.7510237874517
20
72.3246332929513
30
0
0
SPLINE
5
2DF
100
AcDbEntity
8
1
62
256
6
ByLayer
370
18
48
1
60
0
100
AcDbSpline
70
4
71
3
72
21
73
17
40
0
40
0
40
0
40
0
40
0.0592792738438825
40
0.122239377580476
40
0.185199481317067
40
0.248159585053662
40
0.311119688790257
40
0.374079792526848
40
0.500000000000035
40
0.625920207473221
40
0.751840414946408
40
0.814800518683001
40
0.877760622419594
40
0.909240674287891
40
0.940720726156187
40
1
40
1
40
1
40
1
41
1
10
24.5298712551175
20
72.8726323781567
30
0
41
1
10
24.5302897447867
20
72.8681034911176
30
0
41
1
10
24.5308975888378
20
72.8591206708278
30
0
41
1
10
24.5305121160632
20
72.8460373347233
30
0
41
1
10
24.5287706906934
20
72.8317026147993
30
0
41
1
10
24.5255813602039
20
72.8170043348154
30
0
41
1
10
24.520844510819
20
72.802570287918
30
0
41
1
10
24.5124917543376
20
72.7838702134678
30
0
41
1
10
24.4982810160934
20
72.7618794929869
30
0
41
1
10
24.4761147534163
20
72.7396475236912
30
0
41
1
10
24.4547993449152
20
72.7256728608638
30
0
41
1
10
24.4365886120352
20
72.7174224813468
30
0
41
1
10
24.4252512317329
20
72.7135138144717
30
0
41
1
10
24.4165241223084
20
72.7111519276728
30
0
41
1
10
24.4080297368353
20
72.7093061039529
30
0
41
1
10
24.4014375357054
20
72.7083625971849
30
0
41
1
10
24.3969378406888
20
72.7078319249415
30
0
0
SPLINE
5
2E0
100
AcDbEntity
8
1
62
256
6
ByLayer
370
18
48
1
60
0
100
AcDbSpline
70
4
71
3
72
42
73
38
40
0
40
0
40
0
40
0
40
0.258003694988868
40
0.516007389977736
40
0.64500923747217
40
0.709510161219386
40
0.741760623092995
40
0.749823238561397
40
0.757885854029799
40
0.765444556031426
40
0.76922390703224
40
0.773003258033053
40
0.773507171499828
40
0.774011084966604
40
0.776026738833704
40
0.778042392700805
40
0.782073700435006
40
0.790136315903408
40
0.806261546840212
40
0.83851200871382
40
0.870762470587429
40
0.903012932461037
40
0.91107554792944
40
0.915106855663641
40
0.919138163397842
40
0.923169471132043
40
0.927200778866244
40
0.931232086600445
40
0.935263394334646
40
0.95138862527145
40
0.967513856208254
40
0.983639087145059
40
0.99069387567991
40
0.997748664214762
40
0.998756491148313
40
0.999764318081863
40
1
40
1
40
1
40
1
41
1
10
24.1452041656633
20
76.5324727366852
30
0
41
1
10
24.1782857668538
20
76.2177223262296
30
0
41
1
10
24.2444489692348
20
75.5882215053184
30
0
41
1
10
24.327152972211
20
74.8013454791794
30
0
41
1
10
24.3850457742944
20
74.250532260882
30
0
41
1
10
24.4139921753361
20
73.9751256517334
30
0
41
1
10
24.4274315758197
20
73.8472582974858
30
0
41
1
10
24.433634376043
20
73.7882425955254
30
0
41
1
10
24.4366711636523
20
73.7593494914406
30
0
41
1
10
24.4391587449917
20
73.7356817359669
30
0
41
1
10
24.4410971200615
20
73.7172393291042
30
0
41
1
10
24.4421309200987
20
73.7074033787775
30
0
41
1
10
24.4427447388708
20
73.701563283271
30
0
41
1
10
24.4431324138848
20
73.6978748018985
30
0
41
1
10
24.4437139264057
20
73.6923420798396
30
0
41
1
10
24.4447477264429
20
73.6825061295129
30
0
41
1
10
24.446556876508
20
73.6652932164411
30
0
41
1
10
24.4501751766382
20
73.6308673902976
30
0
41
1
10
24.4574117768986
20
73.5620157380104
30
0
41
1
10
24.4677497772706
20
73.463656234743
30
0
41
1
10
24.4801553777171
20
73.3456248308221
30
0
41
1
10
24.4894595780519
20
73.2571012778815
30
0
41
1
10
24.4951454782565
20
73.2030035510845
30
0
41
1
10
24.4972130783309
20
73.183331650431
30
0
41
1
10
24.4987637783867
20
73.1685777249409
30
0
41
1
10
24.5003144784425
20
73.1538237994508
30
0
41
1
10
24.5018651784983
20
73.1390698739606
30
0
41
1
10
24.5034158785542
20
73.1243159484706
30
0
41
1
10
24.5065172786657
20
73.0948080974903
30
0
41
1
10
24.5111693788332
20
73.05054632102
30
0
41
1
10
24.5173721790564
20
72.9915306190596
30
0
41
1
10
24.5224119542377
20
72.9435803612167
30
0
41
1
10
24.5262887043772
20
72.9066955474915
30
0
41
1
10
24.5282444384682
20
72.8882270788171
30
0
41
1
10
24.5294297822517
20
72.8771281266557
30
0
41
1
10
24.5297056490096
20
72.8744008412651
30
0
41
1
10
24.5298452698248
20
72.872913590488
30
0
41
1
10
24.5298712551175
20
72.8726323781567
30
0
0
SPLINE
5
2E1
100
AcDbEntity
8
1
62
256
6
ByLayer
370
18
48
1
60
0
100
AcDbSpline
70
4
71
3
72
41
73
37
40
0
40
0
40
0
40
0
40
0.0078125
40
0.01171875
40
0.013671875
40
0.015625
40
0.03125
40
0.0625
40
0.09375
40
0.125
40
0.1328125
40
0.140625
40
0.15625
40
0.1875
40
0.25
40
0.3125
40
0.375
40
0.4375
40
0.46875
40
0.4765625
40
0.484375
40
0.5
40
0.5625
40
0.625
40
0.6875
40
0.71875
40
0.734375
40
0.7421875
40
0.75
40
0.78125
40
0.8125
40
0.875
40
0.90625
40
0.921875
40
0.9375
40
1
40
1
40
1
40
1
41
1
10
20.7510237874517
20
72.3246332929513
30
0
41
1
10
20.7516898320158
20
72.3182963022256
30
0
41
1
10
20.7528865526568
20
72.3085028175504
30
0
41
1
10
20.7543972267634
20
72.2985850379935
30
0
41
1
10
20.7552703540107
20
72.2934208247312
30
0
41
1
10
20.757459802366
20
72.2803020124605
30
0
41
1
10
20.7629349032092
20
72.2475875741413
30
0
41
1
10
20.7716939936305
20
72.1951847071948
30
0
41
1
10
20.7822052280064
20
72.1323194528063
30
0
41
1
10
20.7900874921055
20
72.0851625634927
30
0
41
1
10
20.7953455543972
20
72.053752627241
30
0
41
1
10
20.7988387637028
20
72.0328504986379
30
0
41
1
10
20.8048708869941
20
71.9963110866352
30
0
41
1
10
20.8170038992128
20
71.9205142262555
30
0
41
1
10
20.8342246073485
20
71.8064744261775
30
0
41
1
10
20.8544218653611
20
71.6619629771517
30
0
41
1
10
20.8738134116721
20
71.5122750214142
30
0
41
1
10
20.8890366580909
20
71.3852305106408
30
0
41
1
10
20.8983765643793
20
71.3024945607692
30
0
41
1
10
20.9025651646181
20
71.2644477759575
30
0
41
1
10
20.9053474382524
20
71.2388911742965
30
0
41
1
10
20.9130660121803
20
71.1680637199497
30
0
41
1
10
20.9256638843856
20
71.0524293075271
30
0
41
1
10
20.9424720176544
20
70.8981597428519
30
0
41
1
10
20.9564776515417
20
70.7696068539699
30
0
41
1
10
20.9662848707951
20
70.679605279667
30
0
41
1
10
20.9711833828746
20
70.6346271391985
30
0
41
1
10
20.9739908238257
20
70.6088885096789
30
0
41
1
10
20.9781862905493
20
70.5704007976098
30
0
41
1
10
20.9843378301499
20
70.512605706879
30
0
41
1
10
20.9948314070787
20
70.4095356137659
30
0
41
1
10
21.0045957687633
20
70.3067173725993
30
0
41
1
10
21.0123882224395
20
70.2180630486347
30
0
41
1
10
21.0166232263448
20
70.1679079150409
30
0
41
1
10
21.0227136636714
20
70.0932891927118
30
0
41
1
10
21.0278007398612
20
70.0308778976042
30
0
41
1
10
21.0318668872878
20
69.9810175694681
30
0
0
SPLINE
5
2E2
100
AcDbEntity
8
1
62
256
6
ByLayer
370
18
48
1
60
0
100
AcDbSpline
70
4
71
3
72
20
73
16
40
0
40
0
40
0
40
0
40
0.332431012821213
40
0.664862025642425
40
0.831077532053031
40
0.914185285258334
40
0.955739161860986
40
0.976516100162312
40
0.986255289991058
40
0.995690130137656
40
0.995994479819805
40
0.996643759141721
40
0.997293038463637
40
0.999890155751303
40
1
40
1
40
1
40
1
41
1
10
21.0318668872878
20
69.9810175694681
30
0
41
1
10
21.5272436033404
20
70.0330837603773
30
0
41
1
10
22.5179970354457
20
70.1372161421955
30
0
41
1
10
23.7564394178971
20
70.2673761808979
30
0
41
1
10
24.6233471901894
20
70.358505611415
30
0
41
1
10
25.056804037935
20
70.4040431338213
30
0
41
1
10
25.2735278528186
20
70.4268542139006
30
0
41
1
10
25.3809287441431
20
70.4380982285921
30
0
41
1
10
25.4404624496277
20
70.4443534927881
30
0
41
1
10
25.469487525906
20
70.4474126100279
30
0
41
1
10
25.4849672251135
20
70.449047315763
30
0
41
1
10
25.4873556891346
20
70.4492995940592
30
0
41
1
10
25.4931597203029
20
70.4499202778856
30
0
41
1
10
25.4981564699227
20
70.4504872014906
30
0
41
1
10
25.5021845710205
20
70.4509622866844
30
0
41
1
10
25.5023480218932
20
70.4509815928445
30
0
0
SPLINE
5
2E3
100
AcDbEntity
8
1
62
256
6
ByLayer
370
18
48
1
60
0
100
AcDbSpline
70
4
71
3
72
21
73
17
40
0
40
0
40
0
40
0
40
0.0001096836879348
40
0.0027068013926414
40
0.0033560808188184
40
0.0040053602449948
40
0.0088749559413193
40
0.0137445516376448
40
0.0234837430302948
40
0.0338722138491215
40
0.0442606846679481
40
0.0858145679432547
40
0.168922334493868
40
0.335137867595094
40
0.667568933797547
40
1
40
1
40
1
40
1
41
1
10
26.9891847632255
20
72.2942463337727
30
0
41
1
10
26.9891696125358
20
72.2944106106755
30
0
41
1
10
26.9887950338294
20
72.298464610033
30
0
41
1
10
26.9883085444526
20
72.3034888851686
30
0
41
1
10
26.9877065681562
20
72.3093173022266
30
0
41
1
10
26.9867415112009
20
72.3185444545504
30
0
41
1
10
26.9851143461557
20
72.3340847361386
30
0
41
1
10
26.9820580648437
20
72.3632222162447
30
0
41
1
10
26.9781267548308
20
72.4006143878406
30
0
41
1
10
26.9733162886857
20
72.4462608397739
30
0
41
1
10
26.963487421672
20
72.5394958188961
30
0
41
1
10
26.9422844720969
20
72.741514351375
30
0
41
1
10
26.8965321980365
20
73.1766226450075
30
0
41
1
10
26.8050818717103
20
74.0468447233908
30
0
41
1
10
26.6744137612811
20
75.2900166108557
30
0
41
1
10
26.5698836106812
20
76.284554560117
30
0
41
1
10
26.5176185353814
20
76.7818235347478
30
0
0
SPLINE
5
2E4
100
AcDbEntity
8
1
62
256
6
ByLayer
370
18
48
1
60
0
100
AcDbSpline
70
4
71
3
72
21
73
17
40
0
40
0
40
0
40
0
40
0.0592792738439256
40
0.122239377580504
40
0.18519948131708
40
0.24815958505366
40
0.31111968879024
40
0.374079792526816
40
0.499999999999972
40
0.625920207473128
40
0.751840414946285
40
0.814800518682863
40
0.877760622419441
40
0.90924067428773
40
0.940720726156019
40
1
40
1
40
1
40
1
41
1
10
17.1051102283
20
71.9414299600522
30
0
41
1
10
17.100598529452
20
71.9410134966348
30
0
41
1
10
17.091649624937
20
71.9404105018423
30
0
41
1
10
17.0786146792983
20
71.9408077858154
30
0
41
1
10
17.0643319326422
20
71.942567080877
30
0
41
1
10
17.04968583137
20
71.9457799793761
30
0
41
1
10
17.0353017530282
20
71.95054596966
30
0
41
1
10
17.016664658988
20
71.9589447595486
30
0
41
1
10
16.9947445231703
20
71.97322602811
30
0
41
1
10
16.9725777302954
20
71.9954927383429
30
0
41
1
10
16.9586381847454
20
72.0168988697793
30
0
41
1
10
16.9504040777989
20
72.0351841873881
30
0
41
1
10
16.9465009720456
20
72.0465670283946
30
0
41
1
10
16.9441409583752
20
72.055328619086
30
0
41
1
10
16.9422952714783
20
72.0638562071756
30
0
41
1
10
16.9413500509396
20
72.0704737881185
30
0
41
1
10
16.9408177870436
20
72.0749907170045
30
0
0
SPLINE
5
2E5
100
AcDbEntity
8
1
62
256
6
ByLayer
370
18
48
1
60
0
100
AcDbSpline
70
4
71
3
72
45
73
41
40
0
40
0
40
0
40
0
40
0.0011565097570524
40
0.0196321945810275
40
0.0288700369930151
40
0.0381078794050026
40
0.0565835642289778
40
0.130486303524878
40
0.204389042820779
40
0.278291782116679
40
0.310624230558636
40
0.34093590097297
40
0.342956679000592
40
0.347575600206586
40
0.35219452141258
40
0.370670206236555
40
0.379908048648542
40
0.38914589106053
40
0.407621575884505
40
0.42609726070848
40
0.463048630356431
40
0.50000000000438
40
0.53695136965233
40
0.555427054476306
40
0.573902739300281
40
0.592378424124257
40
0.610854108948231
40
0.629329793772206
40
0.647805478596181
40
0.652424399802175
40
0.657043321008169
40
0.689375769450126
40
0.721708217892082
40
0.795610957187982
40
0.869513696483883
40
0.943416435779783
40
0.961892120603758
40
0.980367805427733
40
0.998843490251711
40
1
40
1
40
1
40
1
41
1
10
14.8258599745857
20
70.1587065090793
30
0
41
1
10
14.8259175444208
20
70.1582455599261
30
0
41
1
10
14.8268972651015
20
70.15042658038
30
0
41
1
10
14.8284050554067
20
70.1390719442907
30
0
41
1
10
14.8306260348517
20
70.1247560114683
30
0
41
1
10
14.8330410082472
20
70.1105215088028
30
0
41
1
10
14.840482036446
20
70.0714513850106
30
0
41
1
10
14.8572260266773
20
70.006588830871
30
0
41
1
10
14.8898390716444
20
69.9204013868882
30
0
41
1
10
14.9250911469322
20
69.8519675776418
30
0
41
1
10
14.9564250477438
20
69.8018366182538
30
0
41
1
10
14.9725327789561
20
69.7786894706426
30
0
41
1
10
14.9821061150726
20
69.7656671198141
30
0
41
1
10
14.9850460519267
20
69.7617122967204
30
0
41
1
10
14.9923616245728
20
69.7520225751745
30
0
41
1
10
15.0011258022195
20
69.7408526275931
30
0
41
1
10
15.0114465330375
20
69.7282849903647
30
0
41
1
10
15.0219669491836
20
69.7158537805467
30
0
41
1
10
15.0354856296044
20
69.700578849626
30
0
41
1
10
15.057874261179
20
69.6767376615199
30
0
41
1
10
15.0872326955739
20
69.6481249811063
30
0
41
1
10
15.1244990550875
20
69.6159038190598
30
0
41
1
10
15.1571178918466
20
69.5909912018118
30
0
41
1
10
15.1840311870161
20
69.5722806375907
30
0
41
1
10
15.2045952971403
20
69.5588716089391
30
0
41
1
10
15.2255085718773
20
69.5461006045273
30
0
41
1
10
15.2467410370931
20
69.5339817540812
30
0
41
1
10
15.2682627186537
20
69.5225291873262
30
0
41
1
10
15.2845984114821
20
69.5144500723226
30
0
41
1
10
15.2955605196416
20
69.5092810403856
30
0
41
1
10
15.3120452057261
20
69.5016576735102
30
0
41
1
10
15.3397867487063
20
69.4898196301907
30
0
41
1
10
15.3959654594674
20
69.4691725498811
30
0
41
1
10
15.4699727754634
20
69.4487844578129
30
0
41
1
10
15.5607295166776
20
69.4346790222123
30
0
41
1
10
15.6274091331055
20
69.4317227529909
30
0
41
1
10
15.6706252305863
20
69.4326133147933
30
0
41
1
10
15.6921653089533
20
69.4336411201686
30
0
41
1
10
15.7071824472728
20
69.43480293777
30
0
41
1
10
15.7150045053965
20
69.4354665531911
30
0
41
1
10
15.7154655971061
20
69.4355058589108
30
0
0
SPLINE
5
2E6
100
AcDbEntity
8
1
62
256
6
ByLayer
370
18
48
1
60
0
100
AcDbSpline
70
4
71
3
72
45
73
41
40
0
40
0
40
0
40
0
40
0.0011565097570513
40
0.0196321945810263
40
0.0288700369930138
40
0.0381078794050013
40
0.0565835642289763
40
0.130486303524876
40
0.204389042820776
40
0.278291782116676
40
0.310624230558632
40
0.340935900972966
40
0.342956679000589
40
0.347575600206582
40
0.352194521412576
40
0.370670206236551
40
0.379908048648539
40
0.389145891060526
40
0.407621575884501
40
0.426097260708476
40
0.463048630356426
40
0.500000000004377
40
0.536951369652326
40
0.5554270544763
40
0.573902739300276
40
0.592378424124251
40
0.610854108948226
40
0.629329793772201
40
0.647805478596176
40
0.652424399802169
40
0.657043321008164
40
0.68937576945012
40
0.721708217892076
40
0.795610957187976
40
0.869513696483876
40
0.943416435779776
40
0.961892120603751
40
0.980367805427726
40
0.998843490251701
40
1
40
1
40
1
40
1
41
1
10
14.4241332267906
20
81.7217126617285
30
0
41
1
10
14.423674038919
20
81.7216552421665
30
0
41
1
10
14.4158849381247
20
81.7206780586678
30
0
41
1
10
14.4045737590478
20
81.7191736350366
30
0
41
1
10
14.3903128704783
20
81.7169557047715
30
0
41
1
10
14.3761332627583
20
81.714542991145
30
0
41
1
10
14.3372144558405
20
81.7071051293882
30
0
41
1
10
14.272606591946
20
81.6903499899476
30
0
41
1
10
14.1867657882424
20
81.6576834044386
30
0
41
1
10
14.1186146323586
20
81.6223538548969
30
0
41
1
10
14.0686950974937
20
81.5909426119203
30
0
41
1
10
14.045646871532
20
81.5747930420183
30
0
41
1
10
14.0326805783096
20
81.5651942574327
30
0
41
1
10
14.0287428054431
20
81.5622464703353
30
0
41
1
10
14.0190949478178
20
81.5549112437056
30
0
41
1
10
14.0079735218178
20
81.5461231726707
30
0
41
1
10
13.9954608422001
20
81.5357738402841
30
0
41
1
10
13.9830842404978
20
81.5252239682976
30
0
41
1
10
13.9678768786466
20
81.5116668831052
30
0
41
1
10
13.9441421741308
20
81.489213494258
30
0
41
1
10
13.9156592615532
20
81.4597680420129
30
0
41
1
10
13.8835875665053
20
81.4223879768624
30
0
41
1
10
13.8587935299511
20
81.3896670067242
30
0
41
1
10
13.8401739397996
20
81.3626679808374
30
0
41
1
10
13.8268311201072
20
81.3420376614671
30
0
41
1
10
13.814124226711
20
81.3210563670742
30
0
41
1
10
13.8020673129863
20
81.2997541725918
30
0
41
1
10
13.7906744323083
20
81.2781611529526
30
0
41
1
10
13.782638336616
20
81.2617708255552
30
0
41
1
10
13.7774972331744
20
81.2507718545952
30
0
41
1
10
13.7699153074249
20
81.2342316159636
30
0
41
1
10
13.7581433152677
20
81.2063957998035
30
0
41
1
10
13.7376176147634
20
81.1500235424381
30
0
41
1
10
13.7173640708893
20
81.0757558575368
30
0
41
1
10
13.7033830764079
20
80.9846711826698
30
0
41
1
10
13.7004906658383
20
80.9177447596406
30
0
41
1
10
13.7014121694221
20
80.8743664782568
30
0
41
1
10
13.7024532236603
20
80.8527451001569
30
0
41
1
10
13.7036226207429
20
80.8376709289964
30
0
41
1
10
13.7042899665672
20
80.8298191175335
30
0
41
1
10
13.7043294914886
20
80.829356271787
30
0
0
SPLINE
5
2E7
100
AcDbEntity
8
1
62
256
6
ByLayer
370
18
48
1
60
0
100
AcDbSpline
70
4
71
1
72
4
73
2
40
0
40
0
40
1
40
1
41
1
10
13.7804561667133
20
79.9802346671675
30
0
41
1
10
13.7043253267288
20
80.8293559167625
30
0
0
SPLINE
5
2E8
100
AcDbEntity
8
1
62
256
6
ByLayer
370
18
48
1
60
0
100
AcDbSpline
70
4
71
3
72
46
73
42
40
0
40
0
40
0
40
0
40
0.0002356819181324
40
0.0012435088516826
40
0.0022513357852329
40
0.0026922600686611
40
0.0093061243200848
40
0.0163609128549367
40
0.032486143791741
40
0.0486113747285453
40
0.0647366056653496
40
0.0687679133995507
40
0.0707835672666513
40
0.0727992211337518
40
0.0768305288679529
40
0.0788461827350534
40
0.080861836602154
40
0.084893144336355
40
0.0889244520705561
40
0.0969870675389583
40
0.129237529412567
40
0.161487991286176
40
0.193738453159784
40
0.209863684096589
40
0.217926299564991
40
0.219941953432091
40
0.221957607299192
40
0.222965434232742
40
0.223973261166292
40
0.225988915033393
40
0.226492828500168
40
0.226996741966943
40
0.227232951404494
40
0.23455544396857
40
0.242114145970197
40
0.258239376907001
40
0.29048983878061
40
0.354990762527827
40
0.483992610022262
40
0.741996305011131
40
1
40
1
40
1
40
1
41
1
10
16.9408177870436
20
72.0749907170045
30
0
41
1
10
16.9407847371641
20
72.0752711868178
30
0
41
1
10
16.9406120901058
20
72.0767549663968
30
0
41
1
10
16.9403148939962
20
72.0794800099823
30
0
41
1
10
16.9400039337979
20
72.0824870346354
30
0
41
1
10
16.9389820802613
20
72.0923530564523
30
0
41
1
10
16.9371833833842
20
72.109592282078
30
0
41
1
10
16.9333631691842
20
72.1459391922698
30
0
41
1
10
16.9283233940029
20
72.1938894501126
30
0
41
1
10
16.9221205937796
20
72.252905152073
30
0
41
1
10
16.9174684936122
20
72.2971669285434
30
0
41
1
10
16.9146255435099
20
72.3242157919419
30
0
41
1
10
16.9135917434727
20
72.3340517422686
30
0
41
1
10
16.9125579434355
20
72.3438876925954
30
0
41
1
10
16.9115241433983
20
72.3537236429221
30
0
41
1
10
16.9104903433611
20
72.3635595932489
30
0
41
1
10
16.9094565433239
20
72.3733955435756
30
0
41
1
10
16.9081642932774
20
72.385690481484
30
0
41
1
10
16.906096693203
20
72.4053623821375
30
0
41
1
10
16.9004107929984
20
72.4594601089345
30
0
41
1
10
16.8911065926636
20
72.5479836618752
30
0
41
1
10
16.8787009922171
20
72.666015065796
30
0
41
1
10
16.8683629918451
20
72.7643745690634
30
0
41
1
10
16.8611263915847
20
72.8332262213506
30
0
41
1
10
16.8577665414638
20
72.8651930599125
30
0
41
1
10
16.856215841408
20
72.8799469854026
30
0
41
1
10
16.8555697163847
20
72.8860944543568
30
0
41
1
10
16.8550528163661
20
72.8910124295202
30
0
41
1
10
16.8545359163475
20
72.8959304046836
30
0
41
1
10
16.8540836288312
20
72.9002336329515
30
0
41
1
10
16.8536959538172
20
72.903922114324
30
0
41
1
10
16.8535364417022
20
72.9054397707221
30
0
41
1
10
16.852502641665
20
72.9152757210488
30
0
41
1
10
16.8505642665952
20
72.9337181279114
30
0
41
1
10
16.8465885785615
20
72.9715442728203
30
0
41
1
10
16.8394165908034
20
73.0397811782121
30
0
41
1
10
16.8249433902826
20
73.1774844827864
30
0
41
1
10
16.7959969892409
20
73.452891091935
30
0
41
1
10
16.7381041871575
20
74.0037043102324
30
0
41
1
10
16.6554001841813
20
74.7905803363714
30
0
41
1
10
16.5892369818003
20
75.4200811572827
30
0
41
1
10
16.5561553806098
20
75.7348315677383
30
0
0
SPLINE
5
2E9
100
AcDbEntity
8
1
62
256
6
ByLayer
370
18
48
1
60
0
100
AcDbSpline
70
4
71
3
72
46
73
42
40
0
40
0
40
0
40
0
40
0.0002356819181349
40
0.0012435088516851
40
0.0022513357852354
40
0.0026922600686637
40
0.0093061243200873
40
0.0163609128549392
40
0.0324861437917434
40
0.0486113747285477
40
0.064736605665352
40
0.0687679133995531
40
0.0707835672666536
40
0.0727992211337541
40
0.0768305288679552
40
0.0788461827350557
40
0.0808618366021563
40
0.0848931443363573
40
0.0889244520705584
40
0.0969870675389605
40
0.129237529412569
40
0.161487991286178
40
0.193738453159786
40
0.209863684096591
40
0.217926299564993
40
0.219941953432093
40
0.221957607299194
40
0.222965434232744
40
0.223973261166294
40
0.225988915033395
40
0.22649282850017
40
0.226996741966945
40
0.227232951404496
40
0.234555443968572
40
0.242114145970199
40
0.258239376907003
40
0.290489838780612
40
0.354990762527829
40
0.483992610022263
40
0.741996305011132
40
1
40
1
40
1
40
1
41
1
10
16.3044217055843
20
79.559472379482
30
0
41
1
10
16.3047011052944
20
79.559505330531
30
0
41
1
10
16.3061792254099
20
79.55967744653
30
0
41
1
10
16.3088938908348
20
79.5599735930382
30
0
41
1
10
16.3118894768866
20
79.560283331545
30
0
41
1
10
16.321717967487
20
79.5613011826849
30
0
41
1
10
16.3388916031328
20
79.5630929352839
30
0
41
1
10
16.3751002023578
20
79.5668986124155
30
0
41
1
10
16.422867994993
20
79.5719192097307
30
0
41
1
10
16.4816591243901
20
79.5780984064264
30
0
41
1
10
16.525752471438
20
79.5827328039482
30
0
41
1
10
16.552698405745
20
79.585564935767
30
0
41
1
10
16.5624969273112
20
79.586594801883
30
0
41
1
10
16.5722954488774
20
79.587624667999
30
0
41
1
10
16.5820939704436
20
79.5886545341149
30
0
41
1
10
16.5918924920098
20
79.5896844002309
30
0
41
1
10
16.601691013576
20
79.5907142663468
30
0
41
1
10
16.6139391655337
20
79.5920015989917
30
0
41
1
10
16.6335362086661
20
79.5940613312236
30
0
41
1
10
16.6874280772801
20
79.5997255948613
30
0
41
1
10
16.7756147713758
20
79.6089943899049
30
0
41
1
10
16.8931970301701
20
79.6213527832963
30
0
41
1
10
16.991182245832
20
79.6316514444558
30
0
41
1
10
17.0597718967954
20
79.6388605072674
30
0
41
1
10
17.0916170918855
20
79.6422075721442
30
0
41
1
10
17.1063148742347
20
79.6437523713182
30
0
41
1
10
17.1124389502136
20
79.6443960376406
30
0
41
1
10
17.1173382109967
20
79.6449109706986
30
0
41
1
10
17.1222374717798
20
79.6454259037566
30
0
41
1
10
17.126524324965
20
79.6458764701823
30
0
41
1
10
17.1301987705523
20
79.6462626699757
30
0
41
1
10
17.1317106518096
20
79.6464215750991
30
0
41
1
10
17.1415091733758
20
79.6474514412151
30
0
41
1
10
17.1598814013124
20
79.6493824401825
30
0
41
1
10
17.1975636063199
20
79.6533429995229
30
0
41
1
10
17.2655408496854
20
79.6604876957023
30
0
41
1
10
17.402720151612
20
79.6749058213256
30
0
41
1
10
17.6770787554653
20
79.7037420725721
30
0
41
1
10
18.225795963172
20
79.7614145750653
30
0
41
1
10
19.0096776884672
20
79.8438038643412
30
0
41
1
10
19.6367830687034
20
79.9097152957619
30
0
41
1
10
19.9503357588214
20
79.9426710114723
30
0
0
SPLINE
5
2EA
100
AcDbEntity
8
1
62
256
6
ByLayer
370
18
48
1
60
0
100
AcDbSpline
70
4
71
3
72
21
73
17
40
0
40
0
40
0
40
0
40
0.0592792738439008
40
0.122239377580491
40
0.185199481317079
40
0.24815958505367
40
0.311119688790262
40
0.37407979252685
40
0.50000000000003
40
0.625920207473209
40
0.751840414946389
40
0.814800518682979
40
0.877760622419569
40
0.909240674287863
40
0.940720726156158
40
1
40
1
40
1
40
1
41
1
10
16.1714882911555
20
79.3946719262668
30
0
41
1
10
16.1710698014864
20
79.3992008133059
30
0
41
1
10
16.1704619574353
20
79.4081836335957
30
0
41
1
10
16.1708474302099
20
79.4212669697002
30
0
41
1
10
16.1725888555797
20
79.4356016896242
30
0
41
1
10
16.1757781860692
20
79.4502999696082
30
0
41
1
10
16.1805150354541
20
79.4647340165055
30
0
41
1
10
16.1888677919355
20
79.4834340909557
30
0
41
1
10
16.2030785301797
20
79.5054248114367
30
0
41
1
10
16.2252447928568
20
79.5276567807323
30
0
41
1
10
16.2465602013578
20
79.5416314435597
30
0
41
1
10
16.264770934238
20
79.5498818230766
30
0
41
1
10
16.2761083145401
20
79.5537904899518
30
0
41
1
10
16.2848354239648
20
79.5561523767507
30
0
41
1
10
16.2933298094378
20
79.5579982004705
30
0
41
1
10
16.2999220105677
20
79.5589417072387
30
0
41
1
10
16.3044217055843
20
79.559472379482
30
0
0
SPLINE
5
2EB
100
AcDbEntity
8
1
62
256
6
ByLayer
370
18
48
1
60
0
100
AcDbSpline
70
4
71
3
72
41
73
37
40
0
40
0
40
0
40
0
40
0.0078125
40
0.01171875
40
0.013671875
40
0.015625
40
0.03125
40
0.0625
40
0.09375
40
0.125
40
0.1328125
40
0.140625
40
0.15625
40
0.1875
40
0.25
40
0.3125
40
0.375
40
0.4375
40
0.46875
40
0.4765625
40
0.484375
40
0.5
40
0.5625
40
0.625
40
0.6875
40
0.71875
40
0.734375
40
0.7421875
40
0.75
40
0.78125
40
0.8125
40
0.875
40
0.90625
40
0.921875
40
0.9375
40
1
40
1
40
1
40
1
41
1
10
19.9503357588214
20
79.9426710114723
30
0
41
1
10
19.9496697142573
20
79.9490080021979
30
0
41
1
10
19.9488041037233
20
79.9588362879477
30
0
41
1
10
19.9482197436593
20
79.9688514270337
30
0
41
1
10
19.9480000906702
20
79.9740843232081
30
0
41
1
10
19.9474141398852
20
79.9873716698647
30
0
41
1
10
19.9459678824537
20
80.0205095566897
30
0
41
1
10
19.9436403970634
20
80.0735884125645
30
0
41
1
10
19.9408515144153
20
80.1372653188258
30
0
41
1
10
19.9387570635413
20
80.1850305318223
30
0
41
1
10
19.9373697316018
20
80.2168472982277
30
0
41
1
10
19.9364408090034
20
80.2380189442241
30
0
41
1
10
19.9347441449971
20
80.2750140313594
30
0
41
1
10
19.9308529683883
20
80.3516771435681
30
0
41
1
10
19.9239871550794
20
80.4668052869482
30
0
41
1
10
19.9136974348364
20
80.6123580601546
30
0
41
1
10
19.9015433533626
20
80.762806704099
30
0
41
1
10
19.8900198962785
20
80.8902400784011
30
0
41
1
10
19.8819539319764
20
80.9731099249709
30
0
41
1
10
19.87814062989
20
81.0111961552079
30
0
41
1
10
19.875548587907
20
81.0367727510212
30
0
41
1
10
19.8683726366862
20
81.1076572373127
30
0
41
1
10
19.8566534689546
20
81.223384005297
30
0
41
1
10
19.841019858151
20
81.3777770172576
30
0
41
1
10
19.8279917868476
20
81.5064326521075
30
0
41
1
10
19.8188723153407
20
81.5965065116113
30
0
41
1
10
19.8143123019437
20
81.641520229725
30
0
41
1
10
19.8117070315914
20
81.6672801082308
30
0
41
1
10
19.8078087720091
20
81.7057990580292
30
0
41
1
10
19.8018096106755
20
81.7636101643612
30
0
41
1
10
19.7906444004396
20
81.8666096659691
30
0
41
1
10
19.7788182730262
20
81.9692112068255
30
0
41
1
10
19.7680081724997
20
82.0575483633257
30
0
41
1
10
19.76172279278
20
82.1074879937374
30
0
41
1
10
19.7521660347124
20
82.1817423910759
30
0
41
1
10
19.7441659081903
20
82.243847512256
30
0
41
1
10
19.7377766554123
20
82.2934636721807
30
0
0
SPLINE
5
2EC
100
AcDbEntity
8
1
62
256
6
ByLayer
370
18
48
1
60
0
100
AcDbSpline
70
4
71
3
72
20
73
16
40
0
40
0
40
0
40
0
40
0.332431012821212
40
0.664862025642424
40
0.83107753205303
40
0.914185285258333
40
0.955739161860985
40
0.976516100162311
40
0.986255289991057
40
0.995690130137655
40
0.995994479819803
40
0.99664375914172
40
0.997293038463636
40
0.999890155751302
40
1
40
1
40
1
40
1
41
1
10
19.7377766554123
20
82.2934636721807
30
0
41
1
10
19.2423999393596
20
82.2413974812716
30
0
41
1
10
18.2516465072544
20
82.1372650994533
30
0
41
1
10
17.013204124803
20
82.0071050607509
30
0
41
1
10
16.1462963525107
20
81.9159756302339
30
0
41
1
10
15.712839504765
20
81.8704381078275
30
0
41
1
10
15.4961156898814
20
81.8476270277482
30
0
41
1
10
15.388714798557
20
81.8363830130567
30
0
41
1
10
15.3291810930724
20
81.8301277488607
30
0
41
1
10
15.3001560167941
20
81.8270686316209
30
0
41
1
10
15.2846763175866
20
81.8254339258859
30
0
41
1
10
15.2822878535656
20
81.8251816475897
30
0
41
1
10
15.2764838223972
20
81.8245609637633
30
0
41
1
10
15.2714870727774
20
81.8239940401583
30
0
41
1
10
15.2674589716796
20
81.8235189549644
30
0
41
1
10
15.2672955208068
20
81.8234996488043
30
0
0
SPLINE
5
2ED
100
AcDbEntity
8
1
62
256
6
ByLayer
370
18
48
1
60
0
100
AcDbSpline
70
4
71
3
72
21
73
17
40
0
40
0
40
0
40
0
40
0.0001096836879354
40
0.002706801392642
40
0.003356080818819
40
0.0040053602449954
40
0.0088749559413199
40
0.0137445516376453
40
0.0234837430302953
40
0.0338722138491221
40
0.0442606846679486
40
0.0858145679432552
40
0.168922334493868
40
0.335137867595095
40
0.667568933797547
40
1
40
1
40
1
40
1
41
1
10
13.7804587794746
20
79.9802349078762
30
0
41
1
10
13.7804739301643
20
79.9800706309733
30
0
41
1
10
13.7808485088707
20
79.9760166316159
30
0
41
1
10
13.7813349982475
20
79.9709923564802
30
0
41
1
10
13.7819369745439
20
79.9651639394222
30
0
41
1
10
13.7829020314991
20
79.9559367870984
30
0
41
1
10
13.7845291965443
20
79.9403965055102
30
0
41
1
10
13.7875854778563
20
79.9112590254041
30
0
41
1
10
13.7915167878692
20
79.8738668538083
30
0
41
1
10
13.7963272540143
20
79.8282204018749
30
0
41
1
10
13.806156121028
20
79.7349854227527
30
0
41
1
10
13.8273590706032
20
79.5329668902738
30
0
41
1
10
13.8731113446636
20
79.0978585966413
30
0
41
1
10
13.9645616709897
20
78.2276365182581
30
0
41
1
10
14.095229781419
20
76.9844646307932
30
0
41
1
10
14.1997599320188
20
75.9899266815318
30
0
41
1
10
14.2520250073187
20
75.4926577069011
30
0
0
SPLINE
5
2EE
100
AcDbEntity
8
1
62
256
6
ByLayer
370
18
48
1
60
0
100
AcDbSpline
70
4
71
3
72
41
73
37
40
0
40
0
40
0
40
0
40
0.0625
40
0.078125
40
0.09375
40
0.125
40
0.1875
40
0.21875
40
0.25
40
0.2578125
40
0.265625
40
0.28125
40
0.3125
40
0.375
40
0.4375
40
0.5
40
0.515625
40
0.5234375
40
0.53125
40
0.5625
40
0.625
40
0.6875
40
0.75
40
0.8125
40
0.84375
40
0.859375
40
0.8671875
40
0.875
40
0.90625
40
0.9375
40
0.96875
40
0.984375
40
0.986328125
40
0.98828125
40
0.9921875
40
1
40
1
40
1
40
1
41
1
10
14.2520250073187
20
75.4926577069011
30
0
41
1
10
14.3027355349899
20
75.4979875981319
30
0
41
1
10
14.3662133570216
20
75.5046593860728
30
0
41
1
10
14.4420998236428
20
75.5126353751141
30
0
41
1
10
14.4929819481545
20
75.5179833018996
30
0
41
1
10
14.5826497588029
20
75.5274077685658
30
0
41
1
10
14.6859996905345
20
75.5382702841051
30
0
41
1
10
14.7889782260376
20
75.5490937643279
30
0
41
1
10
14.8464851771942
20
75.5551379884517
30
0
41
1
10
14.8846933877587
20
75.559153833204
30
0
41
1
10
14.9102435727866
20
75.5618392658623
30
0
41
1
10
14.9548990296408
20
75.5665327435054
30
0
41
1
10
15.0442502519749
20
75.5759239353989
30
0
41
1
10
15.1718763545058
20
75.5893379793053
30
0
41
1
10
15.3250331044453
20
75.6054354023835
30
0
41
1
10
15.4398341428412
20
75.6175014777318
30
0
41
1
10
15.5101491734478
20
75.6248918852514
30
0
41
1
10
15.5355233677323
20
75.6275588205371
30
0
41
1
10
15.5732573716267
20
75.63152482416
30
0
41
1
10
15.6551082088276
20
75.6401276938098
30
0
41
1
10
15.7800130741072
20
75.653255724156
30
0
41
1
10
15.9258915863418
20
75.6685881736261
30
0
41
1
10
16.0654180376039
20
75.6832529945854
30
0
41
1
10
16.1743885353133
20
75.6947062554136
30
0
41
1
10
16.2462075256902
20
75.7022547354747
30
0
41
1
10
16.2806671351318
20
75.7058765863726
30
0
41
1
10
16.3003418273705
20
75.7079444798545
30
0
41
1
10
16.3298995151769
20
75.7110511180276
30
0
41
1
10
16.3742860560908
20
75.7157163314664
30
0
41
1
10
16.4334551949892
20
75.7219352585616
30
0
41
1
10
16.4827795589837
20
75.7271194581193
30
0
41
1
10
16.5135660058606
20
75.7303552440748
30
0
41
1
10
16.5259170948357
20
75.7316533958362
30
0
41
1
10
16.5307691303547
20
75.732163365319
30
0
41
1
10
16.5402345072683
20
75.733158216521
30
0
41
1
10
16.549842504047
20
75.7341680576748
30
0
41
1
10
16.5561553806098
20
75.7348315677383
30
0
0
SPLINE
5
2EF
100
AcDbEntity
8
1
62
256
6
ByLayer
370
18
48
1
60
0
100
AcDbSpline
70
4
71
1
72
4
73
2
40
0
40
0
40
1
40
1
41
1
10
16.5613664372805
20
69.5112439034044
30
0
41
1
10
15.7154659541105
20
69.4355016783079
30
0
0
SPLINE
5
2F0
100
AcDbEntity
8
1
62
256
6
ByLayer
370
18
48
1
60
0
100
AcDbSpline
70
4
71
1
72
4
73
2
40
0
40
0
40
1
40
1
41
1
10
14.8258558270235
20
70.158705990433
30
0
41
1
10
14.7237808775386
20
71.0050996757572
30
0
0
SPLINE
5
2F1
100
AcDbEntity
8
1
62
256
6
ByLayer
370
18
48
1
60
0
100
AcDbSpline
70
4
71
3
72
42
73
38
40
0
40
0
40
0
40
0
40
0.258003694988868
40
0.516007389977736
40
0.64500923747217
40
0.709510161219387
40
0.741760623092996
40
0.749823238561398
40
0.7578858540298
40
0.765444556031427
40
0.769223907032241
40
0.773003258033054
40
0.773507171499829
40
0.774011084966604
40
0.776026738833705
40
0.778042392700806
40
0.782073700435007
40
0.790136315903409
40
0.806261546840213
40
0.838512008713821
40
0.87076247058743
40
0.903012932461039
40
0.911075547929441
40
0.915106855663642
40
0.919138163397843
40
0.923169471132044
40
0.927200778866245
40
0.931232086600446
40
0.935263394334647
40
0.951388625271451
40
0.967513856208256
40
0.98363908714506
40
0.990693875679912
40
0.997748664214764
40
0.998756491148314
40
0.999764318081864
40
1
40
1
40
1
40
1
41
1
10
16.5561553806098
20
75.7348315677383
30
0
41
1
10
16.5230737794193
20
76.0495819781939
30
0
41
1
10
16.4569105770383
20
76.6790827991051
30
0
41
1
10
16.374206574062
20
77.4659588252441
30
0
41
1
10
16.3163137719787
20
78.0167720435414
30
0
41
1
10
16.287367370937
20
78.2921786526902
30
0
41
1
10
16.2739279704534
20
78.4200460069377
30
0
41
1
10
16.2677251702302
20
78.4790617088981
30
0
41
1
10
16.2646883826209
20
78.5079548129829
30
0
41
1
10
16.2622008012813
20
78.5316225684567
30
0
41
1
10
16.2602624262116
20
78.5500649753193
30
0
41
1
10
16.2592286261744
20
78.559900925646
30
0
41
1
10
16.2586148074023
20
78.5657410211525
30
0
41
1
10
16.2582271323884
20
78.5694295025251
30
0
41
1
10
16.2576456198674
20
78.5749622245838
30
0
41
1
10
16.2566118198302
20
78.5847981749106
30
0
41
1
10
16.2548026697651
20
78.6020110879824
30
0
41
1
10
16.2511843696349
20
78.636436914126
30
0
41
1
10
16.2439477693745
20
78.7052885664131
30
0
41
1
10
16.2336097690024
20
78.8036480696805
30
0
41
1
10
16.221204168556
20
78.9216794736013
30
0
41
1
10
16.2118999682212
20
79.010203026542
30
0
41
1
10
16.2062140680166
20
79.0643007533391
30
0
41
1
10
16.2041464679422
20
79.0839726539925
30
0
41
1
10
16.2025957678864
20
79.0987265794827
30
0
41
1
10
16.2010450678305
20
79.1134805049728
30
0
41
1
10
16.1994943677748
20
79.1282344304628
30
0
41
1
10
16.197943667719
20
79.142988355953
30
0
41
1
10
16.1948422676073
20
79.1724962069331
30
0
41
1
10
16.1901901674399
20
79.2167579834035
30
0
41
1
10
16.1839873672167
20
79.2757736853639
30
0
41
1
10
16.1789475920353
20
79.3237239432068
30
0
41
1
10
16.1750708418958
20
79.360608756932
30
0
41
1
10
16.1731151078049
20
79.3790772256065
30
0
41
1
10
16.1719297640215
20
79.3901761777677
30
0
41
1
10
16.1716538972635
20
79.3929034631584
30
0
41
1
10
16.1715142764483
20
79.3943907139355
30
0
41
1
10
16.1714882911555
20
79.3946719262668
30
0
0
SPLINE
5
2F2
100
AcDbEntity
8
1
62
256
6
ByLayer
370
18
48
1
60
0
100
AcDbSpline
70
4
71
3
72
42
73
38
40
0
40
0
40
0
40
0
40
0.258003694988869
40
0.516007389977738
40
0.645009237472172
40
0.709510161219389
40
0.741760623092998
40
0.7498232385614
40
0.757885854029802
40
0.765444556031429
40
0.769223907032243
40
0.773003258033056
40
0.773507171499831
40
0.774011084966606
40
0.776026738833707
40
0.778042392700807
40
0.782073700435008
40
0.790136315903411
40
0.806261546840215
40
0.838512008713823
40
0.870762470587432
40
0.903012932461041
40
0.911075547929443
40
0.915106855663644
40
0.919138163397845
40
0.923169471132046
40
0.927200778866247
40
0.931232086600448
40
0.935263394334649
40
0.951388625271454
40
0.967513856208258
40
0.983639087145062
40
0.990693875679914
40
0.997748664214766
40
0.998756491148316
40
0.999764318081867
40
1
40
1
40
1
40
1
41
1
10
20.7510237874517
20
72.3246332929513
30
0
41
1
10
20.4374710973336
20
72.2916775772409
30
0
41
1
10
19.8103657170974
20
72.2257661458202
30
0
41
1
10
19.0264839918022
20
72.1433768565443
30
0
41
1
10
18.4777667840955
20
72.0857043540512
30
0
41
1
10
18.2034081802423
20
72.0568681028046
30
0
41
1
10
18.0760273998817
20
72.0434798432973
30
0
41
1
10
18.0172362704846
20
72.0373006466016
30
0
41
1
10
17.9884531133839
20
72.034275414886
30
0
41
1
10
17.9648754208653
20
72.0317972995445
30
0
41
1
10
17.9465031929287
20
72.0298663005771
30
0
41
1
10
17.9367046713625
20
72.0288364344611
30
0
41
1
10
17.9308867991826
20
72.0282249514548
30
0
41
1
10
17.9272123535952
20
72.0278387516613
30
0
41
1
10
17.9217006852143
20
72.0272594519711
30
0
41
1
10
17.9119021636481
20
72.0262295858552
30
0
41
1
10
17.8947547509073
20
72.0244273201522
30
0
41
1
10
17.8604599254256
20
72.0208227887464
30
0
41
1
10
17.7918702744622
20
72.0136137259348
30
0
41
1
10
17.6938850588003
20
72.0033150647753
30
0
41
1
10
17.5763028000061
20
71.9909566713839
30
0
41
1
10
17.4881161059104
20
71.9816878763404
30
0
41
1
10
17.4342242372963
20
71.9760236127026
30
0
41
1
10
17.4146271941639
20
71.9739638804708
30
0
41
1
10
17.3999294118146
20
71.9724190812968
30
0
41
1
10
17.3852316294653
20
71.9708742821229
30
0
41
1
10
17.3705338471161
20
71.969329482949
30
0
41
1
10
17.3558360647668
20
71.9677846837751
30
0
41
1
10
17.3264405000682
20
71.9646950854272
30
0
41
1
10
17.2823471530203
20
71.9600606879054
30
0
41
1
10
17.2235560236232
20
71.9538814912098
30
0
41
1
10
17.175788230988
20
71.9488608938945
30
0
41
1
10
17.1390437751148
20
71.9449988959597
30
0
41
1
10
17.1206455961283
20
71.9430504937673
30
0
41
1
10
17.1095888937307
20
71.9418695188119
30
0
41
1
10
17.1068719779373
20
71.9415947831299
30
0
41
1
10
17.1053903733643
20
71.9414558195289
30
0
41
1
10
17.1051102283
20
71.9414299600522
30
0
0
SPLINE
5
2F3
100
AcDbEntity
8
1
62
256
6
ByLayer
370
18
48
1
60
0
100
AcDbSpline
70
4
71
3
72
20
73
16
40
0
40
0
40
0
40
0
40
0.332431012821211
40
0.664862025642421
40
0.831077532053026
40
0.914185285258329
40
0.95573916186098
40
0.976516100162306
40
0.986255289991053
40
0.995690130137651
40
0.995994479819799
40
0.996643759141715
40
0.997293038463632
40
0.999890155751297
40
1
40
1
40
1
40
1
41
1
10
14.2520250073187
20
75.4926577069011
30
0
41
1
10
14.3042900826186
20
74.9953887322704
30
0
41
1
10
14.4088202332184
20
74.000850783009
30
0
41
1
10
14.5394775036096
20
72.7576777562102
30
0
41
1
10
14.6309549300309
20
71.8874585261617
30
0
41
1
10
14.6766665539486
20
71.4523459600271
30
0
41
1
10
14.6995645236196
20
71.2347942696253
30
0
41
1
10
14.7108518225264
20
71.1269831594389
30
0
41
1
10
14.7171309957511
20
71.0672220464407
30
0
41
1
10
14.720201734527
20
71.0380860923813
30
0
41
1
10
14.7218426263209
20
71.0225472571152
30
0
41
1
10
14.7220958589228
20
71.0201496685661
30
0
41
1
10
14.7227188332981
20
71.0143234584951
30
0
41
1
10
14.7232876076328
20
71.009307589014
30
0
41
1
10
14.7237641175516
20
71.0052640602313
30
0
41
1
10
14.7237834814183
20
71.0050999833169
30
0
0
SPLINE
5
2F4
100
AcDbEntity
8
1
62
256
6
ByLayer
370
18
48
1
60
0
100
AcDbSpline
70
4
71
1
72
4
73
2
40
0
40
0
40
1
40
1
41
1
10
25.9437877156766
20
82.1157752512158
30
0
41
1
10
26.0458626651614
20
81.2693815658917
30
0
0
SPLINE
5
2F5
100
AcDbEntity
8
1
62
256
6
ByLayer
370
18
48
1
60
0
100
AcDbSpline
70
4
71
3
72
45
73
41
40
0
40
0
40
0
40
0
40
0.0011565097570671
40
0.0196321945810416
40
0.0288700369930289
40
0.0381078794050161
40
0.0565835642289907
40
0.130486303524889
40
0.204389042820787
40
0.278291782116685
40
0.310624230558641
40
0.340935900972974
40
0.342956679000596
40
0.34757560020659
40
0.352194521412584
40
0.370670206236558
40
0.379908048648545
40
0.389145891060533
40
0.407621575884507
40
0.426097260708482
40
0.463048630356431
40
0.50000000000438
40
0.536951369652329
40
0.555427054476303
40
0.573902739300278
40
0.592378424124254
40
0.610854108948227
40
0.629329793772202
40
0.647805478596176
40
0.652424399802169
40
0.657043321008164
40
0.68937576945012
40
0.721708217892075
40
0.795610957187973
40
0.869513696483871
40
0.943416435779769
40
0.961892120603744
40
0.980367805427718
40
0.998843490251694
40
1
40
1
40
1
40
1
41
1
10
25.9437835681143
20
82.1157747325695
30
0
41
1
10
25.9437259982792
20
82.1162356817227
30
0
41
1
10
25.9427462775985
20
82.1240546612688
30
0
41
1
10
25.9412384872934
20
82.1354092973581
30
0
41
1
10
25.9390175078484
20
82.1497252301805
30
0
41
1
10
25.9366025344528
20
82.1639597328461
30
0
41
1
10
25.9291615062541
20
82.2030298566382
30
0
41
1
10
25.9124175160227
20
82.2678924107778
30
0
41
1
10
25.8798044710557
20
82.3540798547607
30
0
41
1
10
25.8445523957679
20
82.4225136640071
30
0
41
1
10
25.8132184949562
20
82.4726446233951
30
0
41
1
10
25.7971107637439
20
82.4957917710062
30
0
41
1
10
25.7875374276275
20
82.5088141218347
30
0
41
1
10
25.7845974907734
20
82.5127689449285
30
0
41
1
10
25.7772819181273
20
82.5224586664744
30
0
41
1
10
25.7685177404806
20
82.5336286140557
30
0
41
1
10
25.7581970096625
20
82.5461962512842
30
0
41
1
10
25.7476765935165
20
82.5586274611022
30
0
41
1
10
25.7341579130956
20
82.5739023920228
30
0
41
1
10
25.711769281521
20
82.597743580129
30
0
41
1
10
25.6824108471262
20
82.6263562605426
30
0
41
1
10
25.6451444876125
20
82.6585774225891
30
0
41
1
10
25.6125256508534
20
82.683490039837
30
0
41
1
10
25.585612355684
20
82.7022006040581
30
0
41
1
10
25.5650482455598
20
82.7156096327097
30
0
41
1
10
25.5441349708228
20
82.7283806371215
30
0
41
1
10
25.5229025056069
20
82.7404994875677
30
0
41
1
10
25.5013808240464
20
82.7519520543227
30
0
41
1
10
25.4850451312179
20
82.7600311693262
30
0
41
1
10
25.4740830230584
20
82.7652002012633
30
0
41
1
10
25.4575983369739
20
82.7728235681387
30
0
41
1
10
25.4298567939937
20
82.7846616114581
30
0
41
1
10
25.3736780832326
20
82.8053086917678
30
0
41
1
10
25.2996707672366
20
82.825696783836
30
0
41
1
10
25.2089140260225
20
82.8398022194366
30
0
41
1
10
25.1422344095945
20
82.8427584886579
30
0
41
1
10
25.0990183121138
20
82.8418679268555
30
0
41
1
10
25.0774782337468
20
82.8408401214803
30
0
41
1
10
25.0624610954273
20
82.8396783038788
30
0
41
1
10
25.0546390373036
20
82.8390146884577
30
0
41
1
10
25.0541779455939
20
82.8389753827381
30
0
0
SPLINE
5
2F6
100
AcDbEntity
8
1
62
256
6
ByLayer
370
18
48
1
60
0
100
AcDbSpline
70
4
71
1
72
4
73
2
40
0
40
0
40
1
40
1
41
1
10
24.2082771054195
20
82.7632373382444
30
0
41
1
10
25.0541775885895
20
82.838979563341
30
0
0
SPLINE
5
2F7
100
AcDbEntity
8
1
62
256
6
ByLayer
370
18
48
1
60
0
100
AcDbSpline
70
4
71
3
72
46
73
42
40
0
40
0
40
0
40
0
40
0.0002356819181413
40
0.0012435088516916
40
0.0022513357852418
40
0.0026922600686701
40
0.0093061243200936
40
0.0163609128549455
40
0.0324861437917496
40
0.0486113747285538
40
0.064736605665358
40
0.068767913399559
40
0.0707835672666596
40
0.0727992211337601
40
0.0768305288679611
40
0.0788461827350616
40
0.0808618366021622
40
0.0848931443363632
40
0.0889244520705642
40
0.0969870675389663
40
0.129237529412575
40
0.161487991286183
40
0.193738453159791
40
0.209863684096596
40
0.217926299564998
40
0.219941953432098
40
0.221957607299199
40
0.222965434232749
40
0.223973261166299
40
0.2259889150334
40
0.226492828500175
40
0.22699674196695
40
0.227232951404501
40
0.234555443968577
40
0.242114145970204
40
0.258239376907008
40
0.290489838780616
40
0.354990762527833
40
0.483992610022267
40
0.741996305011133
40
1
40
1
40
1
40
1
41
1
10
23.7605417592295
20
80.1923135874191
30
0
41
1
10
23.760574809109
20
80.1920331176057
30
0
41
1
10
23.7607474561673
20
80.1905493380267
30
0
41
1
10
23.7610446522768
20
80.1878242944412
30
0
41
1
10
23.7613556124752
20
80.1848172697881
30
0
41
1
10
23.7623774660118
20
80.1749512479712
30
0
41
1
10
23.7641761628889
20
80.1577120223455
30
0
41
1
10
23.7679963770889
20
80.1213651121537
30
0
41
1
10
23.7730361522703
20
80.0734148543109
30
0
41
1
10
23.7792389524934
20
80.0143991523505
30
0
41
1
10
23.7838910526609
20
79.9701373758801
30
0
41
1
10
23.7867340027632
20
79.9430885124816
30
0
41
1
10
23.7877678028004
20
79.9332525621548
30
0
41
1
10
23.7888016028376
20
79.9234166118281
30
0
41
1
10
23.7898354028748
20
79.9135806615014
30
0
41
1
10
23.7908692029119
20
79.9037447111747
30
0
41
1
10
23.7919030029492
20
79.8939087608479
30
0
41
1
10
23.7931952529957
20
79.8816138229395
30
0
41
1
10
23.7952628530701
20
79.861941922286
30
0
41
1
10
23.8009487532747
20
79.807844195489
30
0
41
1
10
23.8102529536095
20
79.7193206425483
30
0
41
1
10
23.822658554056
20
79.6012892386275
30
0
41
1
10
23.832996554428
20
79.5029297353601
30
0
41
1
10
23.8402331546884
20
79.4340780830729
30
0
41
1
10
23.8435930048094
20
79.402111244511
30
0
41
1
10
23.8451437048652
20
79.3873573190209
30
0
41
1
10
23.8457898298884
20
79.3812098500667
30
0
41
1
10
23.846306729907
20
79.3762918749034
30
0
41
1
10
23.8468236299256
20
79.37137389974
30
0
41
1
10
23.8472759174418
20
79.367070671472
30
0
41
1
10
23.8476635924558
20
79.3633821900995
30
0
41
1
10
23.8478231045709
20
79.3618645337015
30
0
41
1
10
23.8488569046082
20
79.3520285833747
30
0
41
1
10
23.8507952796779
20
79.333586176512
30
0
41
1
10
23.8547709677116
20
79.2957600316032
30
0
41
1
10
23.8619429554697
20
79.2275231262115
30
0
41
1
10
23.8764161559905
20
79.0898198216371
30
0
41
1
10
23.9053625570322
20
78.8144132124884
30
0
41
1
10
23.9632553591156
20
78.2635999941911
30
0
41
1
10
24.0459593620918
20
77.4767239680521
30
0
41
1
10
24.1121225644728
20
76.8472231471409
30
0
41
1
10
24.1452041656633
20
76.5324727366852
30
0
0
SPLINE
5
2F8
100
AcDbEntity
8
1
62
256
6
ByLayer
370
18
48
1
60
0
100
AcDbSpline
70
4
71
3
72
21
73
17
40
0
40
0
40
0
40
0
40
0.0592792738438651
40
0.122239377580459
40
0.185199481317051
40
0.248159585053646
40
0.311119688790241
40
0.374079792526833
40
0.500000000000021
40
0.625920207473208
40
0.751840414946395
40
0.814800518682989
40
0.877760622419583
40
0.909240674287879
40
0.940720726156176
40
1
40
1
40
1
40
1
41
1
10
23.5962493179732
20
80.3258743443713
30
0
41
1
10
23.600761016821
20
80.3262908077887
30
0
41
1
10
23.6097099213361
20
80.3268938025812
30
0
41
1
10
23.6227448669748
20
80.3264965186081
30
0
41
1
10
23.6370276136309
20
80.3247372235465
30
0
41
1
10
23.651673714903
20
80.3215243250474
30
0
41
1
10
23.6660577932449
20
80.3167583347635
30
0
41
1
10
23.6846948872851
20
80.3083595448749
30
0
41
1
10
23.7066150231028
20
80.2940782763135
30
0
41
1
10
23.7287818159776
20
80.2718115660806
30
0
41
1
10
23.7427213615277
20
80.2504054346442
30
0
41
1
10
23.7509554684742
20
80.2321201170354
30
0
41
1
10
23.7548585742276
20
80.220737276029
30
0
41
1
10
23.7572185878979
20
80.2119756853375
30
0
41
1
10
23.7590642747947
20
80.2034480972479
30
0
41
1
10
23.7600094953335
20
80.196830516305
30
0
41
1
10
23.7605417592295
20
80.192313587419
30
0
0
SPLINE
5
2F9
100
AcDbEntity
8
1
62
256
6
ByLayer
370
18
48
1
60
0
100
AcDbSpline
70
4
71
3
72
42
73
38
40
0
40
0
40
0
40
0
40
0.258003694988867
40
0.516007389977735
40
0.645009237472169
40
0.709510161219386
40
0.741760623092994
40
0.749823238561396
40
0.757885854029798
40
0.765444556031425
40
0.769223907032239
40
0.773003258033052
40
0.773507171499827
40
0.774011084966602
40
0.776026738833703
40
0.778042392700804
40
0.782073700435005
40
0.790136315903407
40
0.806261546840211
40
0.838512008713819
40
0.870762470587428
40
0.903012932461036
40
0.911075547929438
40
0.91510685566364
40
0.91913816339784
40
0.923169471132041
40
0.927200778866243
40
0.931232086600444
40
0.935263394334645
40
0.951388625271449
40
0.967513856208253
40
0.983639087145057
40
0.990693875679909
40
0.997748664214761
40
0.998756491148311
40
0.999764318081862
40
1
40
1
40
1
40
1
41
1
10
19.9503357588214
20
79.9426710114723
30
0
41
1
10
20.2638884489395
20
79.9756267271826
30
0
41
1
10
20.8909938291757
20
80.0415381586033
30
0
41
1
10
21.6748755544709
20
80.1239274478792
30
0
41
1
10
22.2235927621775
20
80.1815999503723
30
0
41
1
10
22.4979513660309
20
80.2104362016189
30
0
41
1
10
22.6253321463913
20
80.2238244611262
30
0
41
1
10
22.6841232757885
20
80.2300036578219
30
0
41
1
10
22.7129064328892
20
80.2330288895375
30
0
41
1
10
22.7364841254078
20
80.235507004879
30
0
41
1
10
22.7548563533444
20
80.2374380038464
30
0
41
1
10
22.7646548749106
20
80.2384678699624
30
0
41
1
10
22.7704727470905
20
80.2390793529687
30
0
41
1
10
22.7741471926778
20
80.2394655527622
30
0
41
1
10
22.7796588610588
20
80.2400448524524
30
0
41
1
10
22.789457382625
20
80.2410747185684
30
0
41
1
10
22.8066047953658
20
80.2428769842713
30
0
41
1
10
22.8408996208475
20
80.2464815156771
30
0
41
1
10
22.9094892718109
20
80.2536905784888
30
0
41
1
10
23.0074744874727
20
80.2639892396483
30
0
41
1
10
23.125056746267
20
80.2763476330396
30
0
41
1
10
23.2132434403627
20
80.2856164280831
30
0
41
1
10
23.2671353089768
20
80.2912806917209
30
0
41
1
10
23.2867323521091
20
80.2933404239528
30
0
41
1
10
23.3014301344584
20
80.2948852231267
30
0
41
1
10
23.3161279168077
20
80.2964300223006
30
0
41
1
10
23.330825699157
20
80.2979748214746
30
0
41
1
10
23.3455234815063
20
80.2995196206484
30
0
41
1
10
23.3749190462049
20
80.3026092189963
30
0
41
1
10
23.4190123932527
20
80.3072436165181
30
0
41
1
10
23.4778035226499
20
80.3134228132137
30
0
41
1
10
23.525571315285
20
80.318443410529
30
0
41
1
10
23.5623157711582
20
80.3223054084638
30
0
41
1
10
23.5807139501447
20
80.3242538106562
30
0
41
1
10
23.5917706525423
20
80.3254347856117
30
0
41
1
10
23.5944875683358
20
80.3257095212937
30
0
41
1
10
23.5959691729088
20
80.3258484848947
30
0
41
1
10
23.5962493179732
20
80.3258743443713
30
0
0
SPLINE
5
2FA
100
AcDbEntity
8
1
62
256
6
ByLayer
370
18
48
1
60
0
100
AcDbSpline
70
4
71
3
72
41
73
37
40
0
40
0
40
0
40
0
40
0.0078125
40
0.01171875
40
0.013671875
40
0.015625
40
0.03125
40
0.0625
40
0.09375
40
0.125
40
0.1328125
40
0.140625
40
0.15625
40
0.1875
40
0.25
40
0.3125
40
0.375
40
0.4375
40
0.46875
40
0.4765625
40
0.484375
40
0.5
40
0.5625
40
0.625
40
0.6875
40
0.71875
40
0.734375
40
0.7421875
40
0.75
40
0.78125
40
0.8125
40
0.875
40
0.90625
40
0.921875
40
0.9375
40
1
40
1
40
1
40
1
41
1
10
24.1452041656633
20
76.5324727366852
30
0
41
1
10
24.151517042226
20
76.5331362467487
30
0
41
1
10
24.1614561491119
20
76.5341808889772
30
0
41
1
10
24.1718478400679
20
76.5352730997082
30
0
41
1
10
24.1773533498451
20
76.5358517521031
30
0
41
1
10
24.1913079363906
20
76.5373184382504
30
0
41
1
10
24.2261232266792
20
76.5409776727117
30
0
41
1
10
24.2818791957048
20
76.5468378611977
30
0
41
1
10
24.3487706863308
20
76.5538684401657
30
0
41
1
10
24.3989450404699
20
76.5591419772874
30
0
41
1
10
24.4323734586285
20
76.5626554456142
30
0
41
1
10
24.4546124375744
20
76.5649928564893
30
0
41
1
10
24.493407506301
20
76.5690703825199
30
0
41
1
10
24.5734683322877
20
76.57748511441
30
0
41
1
10
24.692793724824
20
76.5900267185403
30
0
41
1
10
24.8422277138557
20
76.6057328636801
30
0
41
1
10
24.9953436909275
20
76.6218260013572
30
0
41
1
10
25.1239483455417
20
76.6353428952321
30
0
41
1
10
25.2070731247291
20
76.6440796615802
30
0
41
1
10
25.2451824267758
20
76.6480851106284
30
0
41
1
10
25.2707468527117
20
76.6507720400663
30
0
41
1
10
25.3416045060253
20
76.6582194795306
30
0
41
1
10
25.4572842488949
20
76.6703779104406
30
0
41
1
10
25.6116155212995
20
76.6865987808043
30
0
41
1
10
25.7402191864143
20
76.7001155706786
30
0
41
1
10
25.830258156495
20
76.709579047773
30
0
41
1
10
25.8752521120317
20
76.7143081030613
30
0
41
1
10
25.9010044676584
20
76.7170147847057
30
0
41
1
10
25.9395098853642
20
76.7210618671872
30
0
41
1
10
25.9971692147878
20
76.7271221069122
30
0
41
1
10
26.0994761169838
20
76.73787499563
30
0
41
1
10
26.2007642829867
20
76.7485208108591
30
0
41
1
10
26.2874144467848
20
76.7576281100608
30
0
41
1
10
26.3362461954821
20
76.7627605336643
30
0
41
1
10
26.4086663413622
20
76.7703721977149
30
0
41
1
10
26.4692311130616
20
76.7767378117284
30
0
41
1
10
26.5176185353814
20
76.7818235347478
30
0
0
SPLINE
5
2FB
100
AcDbEntity
8
1
62
256
6
ByLayer
370
18
48
1
60
0
100
AcDbSpline
70
4
71
3
72
20
73
16
40
0
40
0
40
0
40
0
40
0.332431012821213
40
0.664862025642425
40
0.831077532053031
40
0.914185285258334
40
0.955739161860986
40
0.976516100162312
40
0.986255289991058
40
0.995690130137656
40
0.995994479819805
40
0.996643759141721
40
0.997293038463638
40
0.999890155751303
40
1
40
1
40
1
40
1
41
1
10
26.5176185353814
20
76.7818235347478
30
0
41
1
10
26.4653534600815
20
77.2790925093785
30
0
41
1
10
26.3608233094816
20
78.2736304586398
30
0
41
1
10
26.2301660390905
20
79.5168034854387
30
0
41
1
10
26.1386886126691
20
80.3870227154871
30
0
41
1
10
26.0929769887515
20
80.8221352816219
30
0
41
1
10
26.0700790190804
20
81.0396869720236
30
0
41
1
10
26.0587917201737
20
81.14749808221
30
0
41
1
10
26.052512546949
20
81.2072591952081
30
0
41
1
10
26.049441808173
20
81.2363951492675
30
0
41
1
10
26.0478009163791
20
81.2519339845337
30
0
41
1
10
26.0475476837772
20
81.2543315730827
30
0
41
1
10
26.046924709402
20
81.2601577831537
30
0
41
1
10
26.0463559350673
20
81.2651736526348
30
0
41
1
10
26.0458794251484
20
81.2692171814175
30
0
41
1
10
26.0458600612818
20
81.2693812583319
30
0
0
SPLINE
5
2FC
100
AcDbEntity
8
1
62
256
6
ByLayer
370
18
48
1
60
0
100
AcDbSpline
70
4
71
3
72
21
73
17
40
0
40
0
40
0
40
0
40
0.0001096836879309
40
0.0027068013926376
40
0.0033560808188146
40
0.004005360244991
40
0.0088749559413155
40
0.013744551637641
40
0.023483743030291
40
0.0338722138491178
40
0.0442606846679444
40
0.0858145679432512
40
0.168922334493865
40
0.335137867595092
40
0.667568933797546
40
1
40
1
40
1
40
1
41
1
10
24.2082773473035
20
82.7632347155296
30
0
41
1
10
24.2081136938469
20
82.7632196384477
30
0
41
1
10
24.2040750803471
20
82.7628468736344
30
0
41
1
10
24.199069891133
20
82.76236254911
30
0
41
1
10
24.1932636445473
20
82.7617629435717
30
0
41
1
10
24.1840716005541
20
82.7608015948173
30
0
41
1
10
24.1685904495268
20
82.7591806682678
30
0
41
1
10
24.1395638414217
20
82.7561360637222
30
0
41
1
10
24.1023139593062
20
82.752219704221
30
0
41
1
10
24.0568412160742
20
82.7474274465849
30
0
41
1
10
23.9639610475608
20
82.7376357590759
30
0
41
1
10
23.762711232766
20
82.7165137197858
30
0
41
1
10
23.3292586738428
20
82.6709353919597
30
0
41
1
10
22.4623480423356
20
82.5798331650558
30
0
41
1
10
21.2239068035701
20
82.4496622449082
30
0
41
1
10
20.2331533714649
20
82.3455298630898
30
0
41
1
10
19.7377766554123
20
82.2934636721807
30
0
0
SPLINE
5
2FD
100
AcDbEntity
8
1
62
256
6
ByLayer
370
18
48
1
60
0
100
AcDbSpline
70
4
71
3
72
21
73
17
40
0
40
0
40
0
40
0
40
0.000109683687934
40
0.0027068013926407
40
0.0033560808188177
40
0.004005360244994
40
0.0088749559413186
40
0.013744551637644
40
0.023483743030294
40
0.0338722138491208
40
0.0442606846679473
40
0.085814567943254
40
0.168922334493867
40
0.335137867595094
40
0.667568933797547
40
1
40
1
40
1
40
1
41
1
10
16.5613661953966
20
69.5112465261192
30
0
41
1
10
16.5615298488532
20
69.5112616032011
30
0
41
1
10
16.565568462353
20
69.5116343680144
30
0
41
1
10
16.570573651567
20
69.5121186925389
30
0
41
1
10
16.5763798981527
20
69.5127182980771
30
0
41
1
10
16.585571942146
20
69.5136796468316
30
0
41
1
10
16.6010530931733
20
69.5153005733811
30
0
41
1
10
16.6300797012784
20
69.5183451779267
30
0
41
1
10
16.6673295833938
20
69.5222615374278
30
0
41
1
10
16.7128023266259
20
69.5270537950639
30
0
41
1
10
16.8056824951392
20
69.5368454825729
30
0
41
1
10
17.006932309934
20
69.557967521863
30
0
41
1
10
17.4403848688572
20
69.6035458496892
30
0
41
1
10
18.3072955003645
20
69.6946480765931
30
0
41
1
10
19.5457367391299
20
69.8248189967407
30
0
41
1
10
20.5364901712351
20
69.928951378559
30
0
41
1
10
21.0318668872878
20
69.9810175694681
30
0
0
SPLINE
5
2FE
100
AcDbEntity
8
1
62
256
6
ByLayer
370
18
48
1
60
0
100
AcDbSpline
70
4
71
1
72
4
73
2
40
0
40
0
40
1
40
1
41
1
10
14.424132706787
20
81.7217168251993
30
0
41
1
10
15.2672952123277
20
81.8235022626573
30
0
0
SPLINE
5
2FF
100
AcDbEntity
8
1
62
256
6
ByLayer
370
18
48
1
60
0
100
AcDbSpline
70
4
71
3
72
12
73
8
40
0
40
0
40
0
40
0
40
0.196826480578001
40
0.196826480578001
40
0.442758293472514
40
0.442758293472514
40
1
40
1
40
1
40
1
41
1
10
17.3469885296816
20
69.229771665313
30
0
41
1
10
17.352490667096
20
69.2313153839114
30
0
41
1
10
17.3642883645892
20
69.2380559069906
30
0
41
1
10
17.4008122015325
20
69.2626457730484
30
0
41
1
10
17.428258828615
20
69.2830380882903
30
0
41
1
10
17.5259777763075
20
69.3625291498699
30
0
41
1
10
17.6085092872852
20
69.4397842988363
30
0
41
1
10
17.6863166069741
20
69.5290453975206
30
0
0
SPLINE
5
300
100
AcDbEntity
8
1
62
256
6
ByLayer
370
18
48
1
60
0
100
AcDbSpline
70
4
71
3
72
14
73
10
40
0
40
0
40
0
40
0
40
0.123978615721043
40
0.123978615721043
40
0.61582537166961
40
0.61582537166961
40
0.932642658419107
40
0.932642658419107
40
1
40
1
40
1
40
1
41
1
10
14.398941743882
20
72.4211126830727
30
0
41
1
10
14.3874231421989
20
72.4082741480517
30
0
41
1
10
14.3762787197204
20
72.3956438745477
30
0
41
1
10
14.3233757916116
20
72.3348961737011
30
0
41
1
10
14.2867251464441
20
72.290029651813
30
0
41
1
10
14.2409539900998
20
72.2362241619562
30
0
41
1
10
14.2264307428949
20
72.2200334660046
30
0
41
1
10
14.214751436691
20
72.2099967186213
30
0
41
1
10
14.2129087870131
20
72.2085770678536
30
0
41
1
10
14.2112906622448
20
72.2075214325214
30
0
0
SPLINE
5
301
100
AcDbEntity
8
1
62
256
6
ByLayer
370
18
48
1
60
0
100
AcDbSpline
70
4
71
3
72
22
73
18
40
0
40
0
40
0
40
0
40
0.104611531529238
40
0.104611531529238
40
0.208411675036472
40
0.208411675036472
40
0.402775886004068
40
0.402775886004068
40
0.500031490391551
40
0.500031490391551
40
0.699792640385709
40
0.699792640385709
40
0.846184360106943
40
0.846184360106943
40
0.950335564350921
40
0.950335564350921
40
1
40
1
40
1
40
1
41
1
10
25.3271443778568
20
-38.4239237499862
30
0
41
1
10
25.3458449179865
20
-38.3981060261188
30
0
41
1
10
25.3691997627
20
-38.374652341224
30
0
41
1
10
25.4208147401454
20
-38.3363814856522
30
0
41
1
10
25.4493439909781
20
-38.3208887681595
30
0
41
1
10
25.53094881495
20
-38.2837971648321
30
0
41
1
10
25.5852555523645
20
-38.2667351068089
30
0
41
1
10
25.6604669134055
20
-38.2434938416532
30
0
41
1
10
25.6849064233104
20
-38.2361839042341
30
0
41
1
10
25.7558796212872
20
-38.215210524741
30
0
41
1
10
25.7995325206202
20
-38.2022260666135
30
0
41
1
10
25.8646079113621
20
-38.1882688727655
30
0
41
1
10
25.8893727210186
20
-38.1849852541415
30
0
41
1
10
25.9247956391739
20
-38.1929188433145
30
0
41
1
10
25.9377100912472
20
-38.200723089432
30
0
41
1
10
25.9534094223865
20
-38.2201718240723
30
0
41
1
10
25.9580495379949
20
-38.2277244591133
30
0
41
1
10
25.9622555690661
20
-38.236241238655
30
0
0
SPLINE
5
302
100
AcDbEntity
8
1
62
256
6
ByLayer
370
18
48
1
60
0
100
AcDbSpline
70
4
71
3
72
10
73
6
40
0
40
0
40
0
40
0
40
0.295368028639108
40
0.295368028639108
40
1
40
1
40
1
40
1
41
1
10
25.0797581343879
20
-37.3288301752767
30
0
41
1
10
25.084909267453
20
-37.3611814068615
30
0
41
1
10
25.0900640140839
20
-37.3935291826722
30
0
41
1
10
25.1075015442186
20
-37.5030377155694
30
0
41
1
10
25.1197790966358
20
-37.5801851358228
30
0
41
1
10
25.1320458198417
20
-37.6573170829992
30
0
0
SPLINE
5
303
100
AcDbEntity
8
1
62
256
6
ByLayer
370
18
48
1
60
0
100
AcDbSpline
70
4
71
3
72
8
73
4
40
0
40
0
40
0
40
0
40
1
40
1
40
1
40
1
41
1
10
25.132045819845
20
-37.6573170829688
30
0
41
1
10
25.1406514889039
20
-37.7114286823122
30
0
41
1
10
25.1505752145336
20
-37.765352878314
30
0
41
1
10
25.1608494197621
20
-37.8191870250154
30
0
0
SPLINE
5
304
100
AcDbEntity
8
1
62
256
6
ByLayer
370
18
48
1
60
0
100
AcDbSpline
70
4
71
3
72
8
73
4
40
0
40
0
40
0
40
0
40
1
40
1
40
1
40
1
41
1
10
25.1608494197582
20
-37.8191870250183
30
0
41
1
10
25.1968402852959
20
-38.0077697418325
30
0
41
1
10
25.2273965875513
20
-38.1970737915635
30
0
41
1
10
25.2584855563622
20
-38.386164662681
30
0
0
SPLINE
5
305
100
AcDbEntity
8
1
62
256
6
ByLayer
370
18
48
1
60
0
100
AcDbSpline
70
4
71
3
72
22
73
18
40
0
40
0
40
0
40
0
40
0.247648061032144
40
0.247648061032144
40
0.499630853098557
40
0.499630853098557
40
0.554937524732175
40
0.554937524732175
40
0.599939125431536
40
0.599939125431536
40
0.645356331404916
40
0.645356331404916
40
0.695796263471451
40
0.695796263471451
40
0.780049574067078
40
0.780049574067078
40
1
40
1
40
1
40
1
41
1
10
25.2584855562618
20
-38.3861646627038
30
0
41
1
10
25.260115885773
20
-38.3960807338729
30
0
41
1
10
25.2620748253326
20
-38.4059709301293
30
0
41
1
10
25.2675826845879
20
-38.4254065539039
30
0
41
1
10
25.2709347505323
20
-38.4354833523288
30
0
41
1
10
25.2787917950342
20
-38.4452230191252
30
0
41
1
10
25.2804351549715
20
-38.4468939451716
30
0
41
1
10
25.2838346571256
20
-38.4493534917227
30
0
41
1
10
25.2855497631689
20
-38.4502607718036
30
0
41
1
10
25.2891925771609
20
-38.4513871278625
30
0
41
1
10
25.2911702202524
20
-38.4516053989997
30
0
41
1
10
25.2952359371053
20
-38.4513315451732
30
0
41
1
10
25.2973703651602
20
-38.4507715193287
30
0
41
1
10
25.3026881499962
20
-38.4486382983066
30
0
41
1
10
25.3057466702202
20
-38.4466392766133
30
0
41
1
10
25.3158037771396
20
-38.4386791395899
30
0
41
1
10
25.321744466644
20
-38.4313787975759
30
0
41
1
10
25.3271443778569
20
-38.4239237499869
30
0
0
SPLINE
5
306
100
AcDbEntity
8
1
62
256
6
ByLayer
370
18
48
1
60
0
100
AcDbSpline
70
4
71
3
72
10
73
6
40
0
40
0
40
0
40
0
40
0.295368028639113
40
0.295368028639113
40
1
40
1
40
1
40
1
41
1
10
25.9012075613151
20
-37.0860826162489
30
0
41
1
10
25.9037070317445
20
-37.1192174440127
30
0
41
1
10
25.9061947558587
20
-37.1523533550204
30
0
41
1
10
25.9145811841822
20
-37.2645365904606
30
0
41
1
10
25.9204280609248
20
-37.3435843478153
30
0
41
1
10
25.9262137915665
20
-37.4226315013008
30
0
0
SPLINE
5
307
100
AcDbEntity
8
1
62
256
6
ByLayer
370
18
48
1
60
0
100
AcDbSpline
70
4
71
3
72
8
73
4
40
0
40
0
40
0
40
0
40
1
40
1
40
1
40
1
41
1
10
25.926213791563
20
-37.4226315012724
30
0
41
1
10
25.9302727470265
20
-37.4780867057005
30
0
41
1
10
25.934082857033
20
-37.5338175439871
30
0
41
1
10
25.9377587939253
20
-37.5896015533091
30
0
0
SPLINE
5
308
100
AcDbEntity
8
1
62
256
6
ByLayer
370
18
48
1
60
0
100
AcDbSpline
70
4
71
3
72
8
73
4
40
0
40
0
40
0
40
0
40
1
40
1
40
1
40
1
41
1
10
25.9377587939264
20
-37.5896015533106
30
0
41
1
10
25.9506357170031
20
-37.7850147004934
30
0
41
1
10
25.9638974619656
20
-37.9794294867221
30
0
41
1
10
25.976727724729
20
-38.1739160111553
30
0
0
SPLINE
5
309
100
AcDbEntity
8
1
62
256
6
ByLayer
370
18
48
1
60
0
100
AcDbSpline
70
4
71
3
72
22
73
18
40
0
40
0
40
0
40
0
40
0.247648061032195
40
0.247648061032195
40
0.499630853098707
40
0.499630853098707
40
0.554937524732321
40
0.554937524732321
40
0.599939125431643
40
0.599939125431643
40
0.645356331405188
40
0.645356331405188
40
0.695796263471523
40
0.695796263471523
40
0.780049574067161
40
0.780049574067161
40
1
40
1
40
1
40
1
41
1
10
25.9767277247619
20
-38.1739160111387
30
0
41
1
10
25.9774005536399
20
-38.1841150345308
30
0
41
1
10
25.9779952448417
20
-38.1944083815449
30
0
41
1
10
25.9787646456212
20
-38.2152442731763
30
0
41
1
10
25.9790555991956
20
-38.226225664789
30
0
41
1
10
25.9781567344007
20
-38.2385528014152
30
0
41
1
10
25.977926560841
20
-38.2407773777147
30
0
41
1
10
25.9773314739274
20
-38.2444173703331
30
0
41
1
10
25.9769913974497
20
-38.24593198
30
0
41
1
10
25.9761697516993
20
-38.2483776342035
30
0
41
1
10
25.9756747415217
20
-38.2493266022354
30
0
41
1
10
25.9745629809484
20
-38.250582751311
30
0
41
1
10
25.9739249081629
20
-38.2508420306961
30
0
41
1
10
25.9722334404441
20
-38.2507801227611
30
0
41
1
10
25.9711537278001
20
-38.2500039954961
30
0
41
1
10
25.9673945566276
20
-38.2461267242849
30
0
41
1
10
25.9647806906924
20
-38.2413543497677
30
0
41
1
10
25.9622555690661
20
-38.2362412386558
30
0
0
SPLINE
5
30A
100
AcDbEntity
8
1
62
256
6
ByLayer
370
18
48
1
60
0
100
AcDbSpline
70
4
71
3
72
10
73
6
40
0
40
0
40
0
40
0
40
0.295368028639086
40
0.295368028639086
40
1
40
1
40
1
40
1
41
1
10
26.9859611423136
20
-32.4326923354643
30
0
41
1
10
26.9902737000044
20
-32.4580493574772
30
0
41
1
10
26.994575049381
20
-32.4834051548098
30
0
41
1
10
27.0090980557071
20
-32.5692636166472
30
0
41
1
10
27.0192658628246
20
-32.6297753896435
30
0
41
1
10
27.0293691674462
20
-32.6903009570778
30
0
0
SPLINE
5
30B
100
AcDbEntity
8
1
62
256
6
ByLayer
370
18
48
1
60
0
100
AcDbSpline
70
4
71
3
72
8
73
4
40
0
40
0
40
0
40
0
40
1
40
1
40
1
40
1
41
1
10
27.0293691674427
20
-32.6903009570495
30
0
41
1
10
27.0364570991199
20
-32.7327624191931
30
0
41
1
10
27.0435652852772
20
-32.7743451267206
30
0
41
1
10
27.0506091449984
20
-32.8156813760789
30
0
0
SPLINE
5
30C
100
AcDbEntity
8
1
62
256
6
ByLayer
370
18
48
1
60
0
100
AcDbSpline
70
4
71
3
72
22
73
18
40
0
40
0
40
0
40
0
40
0.247648061031931
40
0.247648061031931
40
0.499630853098124
40
0.499630853098124
40
0.554937524731785
40
0.554937524731785
40
0.599939125431215
40
0.599939125431215
40
0.645356331404587
40
0.645356331404587
40
0.695796263471094
40
0.695796263471094
40
0.78004957406677
40
0.78004957406677
40
1
40
1
40
1
40
1
41
1
10
27.1228365352834
20
-33.2573232540134
30
0
41
1
10
27.1240747339353
20
-33.26509694666
30
0
41
1
10
27.1253021406128
20
-33.2726760624456
30
0
41
1
10
27.1276575395281
20
-33.2867083182653
30
0
41
1
10
27.1288734927697
20
-33.2937216340527
30
0
41
1
10
27.1298218087769
20
-33.2981247100061
30
0
41
1
10
27.1299695131191
20
-33.2987282606758
30
0
41
1
10
27.1301329944688
20
-33.2991141371106
30
0
41
1
10
27.1301678913147
20
-33.2990201812469
30
0
41
1
10
27.1301240581743
20
-33.2981291646133
30
0
41
1
10
27.1300421697434
20
-33.2973059175033
30
0
41
1
10
27.1297628668414
20
-33.2949909786335
30
0
41
1
10
27.1295521074877
20
-33.2934171631986
30
0
41
1
10
27.1289079803865
20
-33.2888623596088
30
0
41
1
10
27.128412558052
20
-33.2855797360343
30
0
41
1
10
27.126541969599
20
-33.2736007976566
30
0
41
1
10
27.1249824002288
20
-33.2643056877688
30
0
41
1
10
27.1233959719964
20
-33.2551657573019
30
0
0
SPLINE
5
30D
100
AcDbEntity
8
1
62
256
6
ByLayer
370
18
48
1
60
0
100
AcDbSpline
70
4
71
3
72
10
73
6
40
0
40
0
40
0
40
0
40
0.29536802863914
40
0.29536802863914
40
1
40
1
40
1
40
1
41
1
10
14.1336340248097
20
-35.6044224041761
30
0
41
1
10
14.123745959017
20
-35.6359975119613
30
0
41
1
10
14.1138688356214
20
-35.6675765597356
30
0
41
1
10
14.0804663900125
20
-35.7744981402033
30
0
41
1
10
14.0569927073923
20
-35.8498541334004
30
0
41
1
10
14.0335807207498
20
-35.9252249898269
30
0
0
SPLINE
5
30E
100
AcDbEntity
8
1
62
256
6
ByLayer
370
18
48
1
60
0
100
AcDbSpline
70
4
71
3
72
8
73
4
40
0
40
0
40
0
40
0
40
1
40
1
40
1
40
1
41
1
10
14.0335807207587
20
-35.9252249898001
30
0
41
1
10
14.017156138113
20
-35.9781011031926
30
0
41
1
10
14.0007668623302
20
-36.0312886281836
30
0
41
1
10
13.9844581936868
20
-36.0845563672835
30
0
0
SPLINE
5
30F
100
AcDbEntity
8
1
62
256
6
ByLayer
370
18
48
1
60
0
100
AcDbSpline
70
4
71
3
72
8
73
4
40
0
40
0
40
0
40
0
40
1
40
1
40
1
40
1
41
1
10
13.9844581936858
20
-36.0845563672848
30
0
41
1
10
13.927328412146
20
-36.2711549403766
30
0
41
1
10
13.8706570677461
20
-36.4567644214424
30
0
41
1
10
13.8143345566936
20
-36.6425438905766
30
0
0
SPLINE
5
310
100
AcDbEntity
8
1
62
256
6
ByLayer
370
18
48
1
60
0
100
AcDbSpline
70
4
71
3
72
22
73
18
40
0
40
0
40
0
40
0
40
0.24764806103195
40
0.24764806103195
40
0.499630853098244
40
0.499630853098244
40
0.554937524731872
40
0.554937524731872
40
0.599939125431314
40
0.599939125431314
40
0.645356331404705
40
0.645356331404705
40
0.695796263471292
40
0.695796263471292
40
0.780049574066885
40
0.780049574066885
40
1
40
1
40
1
40
1
41
1
10
13.8143345566763
20
-36.6425438905537
30
0
41
1
10
13.8113809607426
20
-36.6522863092482
30
0
41
1
10
13.8084467720381
20
-36.6621353334855
30
0
41
1
10
13.8027563017764
20
-36.6821578599939
30
0
41
1
10
13.7998179014103
20
-36.6927326422721
30
0
41
1
10
13.7972517125038
20
-36.7048498454069
30
0
41
1
10
13.7968294115732
20
-36.7070502308671
30
0
41
1
10
13.7962712117947
20
-36.7106948679605
30
0
41
1
10
13.7960951641182
20
-36.7122301305638
30
0
41
1
10
13.7959780601391
20
-36.7147644939227
30
0
41
1
10
13.7960407594368
20
-36.715783683393
30
0
41
1
10
13.7964055454191
20
-36.7172257450763
30
0
41
1
10
13.7967331333283
20
-36.7176066112121
30
0
41
1
10
13.797795430788
20
-36.7178914310273
30
0
41
1
10
13.7986643093549
20
-36.7173606517143
30
0
41
1
10
13.8020002488148
20
-36.7143767289145
30
0
41
1
10
13.8048698673148
20
-36.7102947822655
30
0
41
1
10
13.8077850492145
20
-36.7058666620951
30
0
0
SPLINE
5
311
100
AcDbEntity
8
1
62
256
6
ByLayer
370
18
48
1
60
0
100
AcDbSpline
70
4
71
3
72
22
73
18
40
0
40
0
40
0
40
0
40
0.104611531529237
40
0.104611531529237
40
0.208411675036483
40
0.208411675036483
40
0.402775886004069
40
0.402775886004069
40
0.500031490391568
40
0.500031490391568
40
0.699792640385719
40
0.699792640385719
40
0.846184360106947
40
0.846184360106947
40
0.950335564350912
40
0.950335564350912
40
1
40
1
40
1
40
1
41
1
10
13.8077850492147
20
-36.7058666620944
30
0
41
1
10
13.8178806737447
20
-36.6905315508899
30
0
41
1
10
13.8285675628529
20
-36.679876816004
30
0
41
1
10
13.8510120363292
20
-36.6704814442072
30
0
41
1
10
13.8630641325386
20
-36.6712743481671
30
0
41
1
10
13.9003699808597
20
-36.6830895343215
30
0
41
1
10
13.9289855205272
20
-36.701491287189
30
0
41
1
10
13.9786605183094
20
-36.7332398933526
30
0
41
1
10
13.9965166228286
20
-36.7448178756602
30
0
41
1
10
14.0539429381712
20
-36.7819580927383
30
0
41
1
10
14.0975669703389
20
-36.8095355109868
30
0
41
1
10
14.1759074926435
20
-36.864287521684
30
0
41
1
10
14.2106493388786
20
-36.8902066953408
30
0
41
1
10
14.2642818109574
20
-36.9433848674204
30
0
41
1
10
14.2850300887218
20
-36.968839510815
30
0
41
1
10
14.3089986370578
20
-37.0099500140902
30
0
41
1
10
14.3158453692927
20
-37.0239362023823
30
0
41
1
10
14.3216705240652
20
-37.0382198345966
30
0
0
SPLINE
5
312
100
AcDbEntity
8
1
62
256
6
ByLayer
370
18
48
1
60
0
100
AcDbSpline
70
4
71
3
72
8
73
4
40
0
40
0
40
0
40
0
40
1
40
1
40
1
40
1
41
1
10
27.0506091449986
20
-32.8156813760836
30
0
41
1
10
27.0752840081568
20
-32.9604835636255
30
0
41
1
10
27.0992251616013
20
-33.1090856818851
30
0
41
1
10
27.1228365352706
20
-33.2573232539436
30
0
0
SPLINE
5
313
100
AcDbEntity
8
1
62
256
6
ByLayer
370
18
48
1
60
0
100
AcDbSpline
70
4
71
3
72
10
73
6
40
0
40
0
40
0
40
0
40
0.295368028639115
40
0.295368028639115
40
1
40
1
40
1
40
1
41
1
10
14.7982907568355
20
-36.0342862246665
30
0
41
1
10
14.7862571597854
20
-36.0644737195398
30
0
41
1
10
14.7742220770411
20
-36.0946571165889
30
0
41
1
10
14.7334961425431
20
-36.1968422628019
30
0
41
1
10
14.7048192280033
20
-36.2688330886215
30
0
41
1
10
14.6761632966981
20
-36.3408124468828
30
0
0
SPLINE
5
314
100
AcDbEntity
8
1
62
256
6
ByLayer
370
18
48
1
60
0
100
AcDbSpline
70
4
71
3
72
8
73
4
40
0
40
0
40
0
40
0
40
1
40
1
40
1
40
1
41
1
10
14.6761632967015
20
-36.3408124468525
30
0
41
1
10
14.6560598463121
20
-36.3913092686992
30
0
41
1
10
14.634723880389
20
-36.4412975435809
30
0
41
1
10
14.6130763761148
20
-36.4911124141991
30
0
0
SPLINE
5
315
100
AcDbEntity
8
1
62
256
6
ByLayer
370
18
48
1
60
0
100
AcDbSpline
70
4
71
3
72
8
73
4
40
0
40
0
40
0
40
0
40
1
40
1
40
1
40
1
41
1
10
14.6130763761178
20
-36.4911124142029
30
0
41
1
10
14.5372444846773
20
-36.665615479906
30
0
41
1
10
14.4665796507754
20
-36.8421747331332
30
0
41
1
10
14.3954835316409
20
-37.0183994361655
30
0
0
SPLINE
5
316
100
AcDbEntity
8
1
62
256
6
ByLayer
370
18
48
1
60
0
100
AcDbSpline
70
4
71
3
72
22
73
18
40
0
40
0
40
0
40
0
40
0.247648061031954
40
0.247648061031954
40
0.499630853098195
40
0.499630853098195
40
0.554937524731885
40
0.554937524731885
40
0.599939125431338
40
0.599939125431338
40
0.645356331404757
40
0.645356331404757
40
0.695796263471193
40
0.695796263471193
40
0.780049574066915
40
0.780049574066915
40
1
40
1
40
1
40
1
41
1
10
14.3954835317314
20
-37.0183994362123
30
0
41
1
10
14.3917551963909
20
-37.0276407956002
30
0
41
1
10
14.3877171578018
20
-37.0367759097757
30
0
41
1
10
14.3781926738782
20
-37.0543188047975
30
0
41
1
10
14.3727774455084
20
-37.0632917094492
30
0
41
1
10
14.3631266158823
20
-37.0708269523332
30
0
41
1
10
14.3611883888207
20
-37.0720469192302
30
0
41
1
10
14.3573980600414
20
-37.0736011910964
30
0
41
1
10
14.3555591091437
20
-37.0740609783493
30
0
41
1
10
14.3518296912164
20
-37.0742590935372
30
0
41
1
10
14.3498917005295
20
-37.0739843455523
30
0
41
1
10
14.3460672508591
20
-37.0727170374875
30
0
41
1
10
14.344151534083
20
-37.0716470561767
30
0
41
1
10
14.3395424575733
20
-37.0682639398011
30
0
41
1
10
14.3370629810933
20
-37.0655676265764
30
0
41
1
10
14.3292197999107
20
-37.0553536566296
30
0
41
1
10
14.3251676984898
20
-37.0467951180405
30
0
41
1
10
14.3216705240649
20
-37.0382198345973
30
0
0
LINE
5
72
100
AcDbEntity
8
4
62
256
6
ByLayer
370
13
48
0.05
60
0
100
AcDbLine
10
0
20
0
30
0
11
26
21
0
31
0
39
0
210
0
220
0
230
1
0
LINE
5
74
100
AcDbEntity
8
SK4
62
256
6
ByLayer
370
13
48
0.05
60
0
100
AcDbLine
10
31.328192
20
0
30
0
11
-23.409478
21
0
31
0
39
0
210
0
220
0
230
1
0
LINE
5
76
100
AcDbEntity
8
1
62
256
6
ByLayer
370
13
48
0.05
60
0
100
AcDbLine
10
27.23625
20
-71.237868
30
0
11
26.07473
21
-82.288996
31
0
39
0
210
0
220
0
230
1
0
LINE
5
78
100
AcDbEntity
8
1
62
256
6
ByLayer
370
13
48
0.05
60
0
100
AcDbLine
10
25.202084
20
-82.99565
30
0
11
14.150956
21
-81.83413
31
0
39
0
210
0
220
0
230
1
0
LINE
5
79
100
AcDbEntity
8
81
62
256
6
ByLayer
370
13
48
1
60
0
100
AcDbLine
10
26
20
0
30
0
11
37
21
0
31
0
39
0
210
0
220
0
230
1
0
LINE
5
7A
100
AcDbEntity
8
80
62
256
6
ByLayer
370
13
48
1
60
0
100
AcDbLine
10
0
20
0
30
0
11
-22
21
0
31
0
39
0
210
0
220
0
230
1
0
LINE
5
7B
100
AcDbEntity
8
1
62
256
6
ByLayer
370
18
48
1
60
1
100
AcDbLine
10
0
20
0
30
0
11
0
21
841
31
0
39
0
210
0
220
0
230
1
0
LINE
5
7C
100
AcDbEntity
8
1
62
256
6
ByLayer
370
18
48
1
60
1
100
AcDbLine
10
1189
20
841
30
0
11
0
21
841
31
0
39
0
210
0
220
0
230
1
0
LINE
5
7D
100
AcDbEntity
8
1
62
256
6
ByLayer
370
18
48
1
60
1
100
AcDbLine
10
1189
20
841
30
0
11
1189
21
0
31
0
39
0
210
0
220
0
230
1
0
LINE
5
7E
100
AcDbEntity
8
1
62
256
6
ByLayer
370
18
48
1
60
1
100
AcDbLine
10
0
20
0
30
0
11
1189
21
0
31
0
39
0
210
0
220
0
230
1
0
LINE
5
7F
100
AcDbEntity
8
1
62
256
6
ByLayer
370
18
48
1
60
0
100
AcDbLine
10
-2.941256
20
-26.657534
30
0
11
-2.941256
21
-24.832265
31
0
39
0
210
0
220
0
230
1
0
LINE
5
80
100
AcDbEntity
8
1
62
256
6
ByLayer
370
18
48
1
60
0
100
AcDbLine
10
-15.995301
20
-26.046157
30
0
11
-15.995301
21
-24.634425
31
0
39
0
210
0
220
0
230
1
0
LINE
5
81
100
AcDbEntity
8
1
62
256
6
ByLayer
370
18
48
1
60
0
100
AcDbLine
10
-3.045024
20
-26.587641
30
0
11
-3.045024
21
-24.832043
31
0
39
0
210
0
220
0
230
1
0
LINE
5
82
100
AcDbEntity
8
1
62
256
6
ByLayer
370
18
48
1
60
0
100
AcDbLine
10
-15.995301
20
76.897229
30
0
11
-15.995301
21
54.858055
31
0
39
0
210
0
220
0
230
1
0
LINE
5
83
100
AcDbEntity
8
1
62
256
6
ByLayer
370
18
48
1
60
0
100
AcDbLine
10
20.611499
20
73.747845
30
0
11
20.683625
21
73.755426
31
0
39
0
210
0
220
0
230
1
0
LINE
5
84
100
AcDbEntity
8
1
62
256
6
ByLayer
370
18
48
1
60
0
100
AcDbLine
10
20.181889
20
78.529131
30
0
11
20.109762
21
78.521551
31
0
39
0
210
0
220
0
230
1
0
LINE
5
85
100
AcDbEntity
8
1
62
256
6
ByLayer
370
18
48
1
60
0
100
AcDbLine
10
20.259221
20
77.204358
30
0
11
20.359457
21
77.214893
31
0
39
0
210
0
220
0
230
1
0
LINE
5
86
100
AcDbEntity
8
1
62
256
6
ByLayer
370
18
48
1
60
0
100
AcDbLine
10
20.584068
20
75.077864
30
0
11
20.483831
21
75.067329
31
0
39
0
210
0
220
0
230
1
0
LINE
5
87
100
AcDbEntity
8
1
62
256
6
ByLayer
370
18
48
1
60
0
100
AcDbLine
10
26.313269
20
-43.670063
30
0
11
26.338466
21
-41.222258
31
0
39
0
210
0
220
0
230
1
0
LINE
5
88
100
AcDbEntity
8
1
62
256
6
ByLayer
370
18
48
1
60
0
100
AcDbLine
10
26.337396
20
-41.199172
30
0
11
26.319622
21
-41.027027
31
0
39
0
210
0
220
0
230
1
0
LINE
5
89
100
AcDbEntity
8
1
62
256
6
ByLayer
370
18
48
1
60
0
100
AcDbLine
10
27.125747
20
-33.268252
30
0
11
26.837956
21
-31.393647
31
0
39
0
210
0
220
0
230
1
0
LINE
5
8A
100
AcDbEntity
8
1
62
256
6
ByLayer
370
18
48
1
60
0
100
AcDbLine
10
27.225563
20
-34.098823
30
0
11
27.129924
21
-33.296324
31
0
39
0
210
0
220
0
230
1
0
LINE
5
8B
100
AcDbEntity
8
1
62
256
6
ByLayer
370
18
48
1
60
0
100
AcDbLine
10
15.161592
20
-33.418815
30
0
11
15.144085
21
-33.597578
31
0
39
0
210
0
220
0
230
1
0
LINE
5
8C
100
AcDbEntity
8
1
62
256
6
ByLayer
370
18
48
1
60
0
100
AcDbLine
10
26.338465
20
-30.721671
30
0
11
26.31327
21
-28.361195
31
0
39
0
210
0
220
0
230
1
0
LINE
5
8D
100
AcDbEntity
8
1
62
256
6
ByLayer
370
18
48
1
60
0
100
AcDbLine
10
26.320044
20
-30.921469
30
0
11
26.33755
21
-30.742706
31
0
39
0
210
0
220
0
230
1
0
LINE
5
8E
100
AcDbEntity
8
1
62
256
6
ByLayer
370
18
48
1
60
0
100
AcDbLine
10
-10.045301
20
-32.500878
30
0
11
-10.045301
21
-33.522722
31
0
39
0
210
0
220
0
230
1
0
LINE
5
8F
100
AcDbEntity
8
1
62
256
6
ByLayer
370
18
48
1
60
0
100
AcDbLine
10
26.838133
20
-40.087006
30
0
11
27.029251
21
-38.651249
31
0
39
0
210
0
220
0
230
1
0
LINE
5
90
100
AcDbEntity
8
1
62
256
6
ByLayer
370
18
48
1
60
0
100
AcDbLine
10
19.696734
20
75.193899
30
0
11
19.689544
21
75.175226
31
0
39
0
210
0
220
0
230
1
0
LINE
5
91
100
AcDbEntity
8
1
62
256
6
ByLayer
370
18
48
1
60
0
100
AcDbLine
10
19.580551
20
75.163771
30
0
11
19.689544
21
75.175226
31
0
39
0
210
0
220
0
230
1
0
LINE
5
92
100
AcDbEntity
8
1
62
256
6
ByLayer
370
18
48
1
60
0
100
AcDbLine
10
19.588695
20
75.182543
30
0
11
19.696734
21
75.193899
31
0
39
0
210
0
220
0
230
1
0
LINE
5
93
100
AcDbEntity
8
1
62
256
6
ByLayer
370
18
48
1
60
0
100
AcDbLine
10
19.261914
20
76.344495
30
0
11
19.242204
21
76.341421
31
0
39
0
210
0
220
0
230
1
0
LINE
5
94
100
AcDbEntity
8
1
62
256
6
ByLayer
370
18
48
1
60
0
100
AcDbLine
10
20.549818
20
77.35088
30
0
11
20.657857
21
77.362235
31
0
39
0
210
0
220
0
230
1
0
LINE
5
95
100
AcDbEntity
8
1
62
256
6
ByLayer
370
18
48
1
60
0
100
AcDbLine
10
19.153876
20
76.333139
30
0
11
19.261914
21
76.344495
31
0
39
0
210
0
220
0
230
1
0
LINE
5
96
100
AcDbEntity
8
1
62
256
6
ByLayer
370
18
48
1
60
0
100
AcDbLine
10
20.557869
20
77.368641
30
0
11
20.666861
21
77.380096
31
0
39
0
210
0
220
0
230
1
0
LINE
5
97
100
AcDbEntity
8
1
62
256
6
ByLayer
370
18
48
1
60
0
100
AcDbLine
10
20.906581
20
74.995783
30
0
11
20.919102
21
74.980183
31
0
39
0
210
0
220
0
230
1
0
LINE
5
98
100
AcDbEntity
8
1
62
256
6
ByLayer
370
18
48
1
60
0
100
AcDbLine
10
20.666861
20
77.380096
30
0
11
20.657857
21
77.362235
31
0
39
0
210
0
220
0
230
1
0
LINE
5
99
100
AcDbEntity
8
1
62
256
6
ByLayer
370
18
48
1
60
0
100
AcDbLine
10
19.4076
20
76.905551
30
0
11
19.515638
21
76.916907
31
0
39
0
210
0
220
0
230
1
0
LINE
5
9A
100
AcDbEntity
8
1
62
256
6
ByLayer
370
18
48
1
60
0
100
AcDbLine
10
19.395731
20
76.922221
30
0
11
19.504723
21
76.933676
31
0
39
0
210
0
220
0
230
1
0
LINE
5
9B
100
AcDbEntity
8
1
62
256
6
ByLayer
370
18
48
1
60
0
100
AcDbLine
10
20.798543
20
74.984427
30
0
11
20.906581
21
74.995783
31
0
39
0
210
0
220
0
230
1
0
LINE
5
9C
100
AcDbEntity
8
1
62
256
6
ByLayer
370
18
48
1
60
0
100
AcDbLine
10
19.221504
20
75.689695
30
0
11
19.329543
21
75.70105
31
0
39
0
210
0
220
0
230
1
0
LINE
5
9D
100
AcDbEntity
8
1
62
256
6
ByLayer
370
18
48
1
60
0
100
AcDbLine
10
20.81011
20
74.968728
30
0
11
20.919102
21
74.980183
31
0
39
0
210
0
220
0
230
1
0
LINE
5
9E
100
AcDbEntity
8
1
62
256
6
ByLayer
370
18
48
1
60
0
100
AcDbLine
10
19.504723
20
76.933676
30
0
11
19.515638
21
76.916907
31
0
39
0
210
0
220
0
230
1
0
LINE
5
9F
100
AcDbEntity
8
1
62
256
6
ByLayer
370
18
48
1
60
0
100
AcDbLine
10
21.524908
20
76.581343
30
0
11
21.589705
21
76.588154
31
0
39
0
210
0
220
0
230
1
0
LINE
5
A0
100
AcDbEntity
8
1
62
256
6
ByLayer
370
18
48
1
60
0
100
AcDbLine
10
21.592328
20
75.93988
30
0
11
21.655903
21
75.946562
31
0
39
0
210
0
220
0
230
1
0
LINE
5
A1
100
AcDbEntity
8
1
62
256
6
ByLayer
370
18
48
1
60
0
100
AcDbLine
10
19.309624
20
75.699958
30
0
11
19.329543
21
75.70105
31
0
39
0
210
0
220
0
230
1
0
LINE
5
A2
100
AcDbEntity
8
1
62
256
6
ByLayer
370
18
48
1
60
0
100
AcDbLine
10
26.308894
20
-43.71089
30
0
11
26.204693
21
-44.252303
31
0
39
0
210
0
220
0
230
1
0
LINE
5
A3
100
AcDbEntity
8
1
62
256
6
ByLayer
370
18
48
1
60
0
100
AcDbLine
10
-7.022266
20
71.724144
30
0
11
-7.276955
21
71.655901
31
0
39
0
210
0
220
0
230
1
0
LINE
5
A4
100
AcDbEntity
8
1
62
256
6
ByLayer
370
18
48
1
60
0
100
AcDbLine
10
-7.577671
20
71.083568
30
0
11
-7.276955
21
71.002991
31
0
39
0
210
0
220
0
230
1
0
LINE
5
A5
100
AcDbEntity
8
1
62
256
6
ByLayer
370
18
48
1
60
0
100
AcDbLine
10
-7.276955
20
71.002991
30
0
11
-7.022266
21
70.934747
31
0
39
0
210
0
220
0
230
1
0
LINE
5
A6
100
AcDbEntity
8
1
62
256
6
ByLayer
370
18
48
1
60
0
100
AcDbLine
10
-7.577671
20
71.575324
30
0
11
-7.276955
21
71.655901
31
0
39
0
210
0
220
0
230
1
0
LINE
5
A7
100
AcDbEntity
8
1
62
256
6
ByLayer
370
18
48
1
60
0
100
AcDbLine
10
26.27127
20
-38.954158
30
0
11
26.194671
21
-38.955406
31
0
39
0
210
0
220
0
230
1
0
LINE
5
A8
100
AcDbEntity
8
1
62
256
6
ByLayer
370
18
48
1
60
0
100
AcDbLine
10
26.421991
20
-38.115864
30
0
11
26.395156
21
-37.711517
31
0
39
0
210
0
220
0
230
1
0
LINE
5
A9
100
AcDbEntity
8
1
62
256
6
ByLayer
370
18
48
1
60
0
100
AcDbLine
10
26.2047
20
-39.454258
30
0
11
26.27127
21
-38.954158
31
0
39
0
210
0
220
0
230
1
0
LINE
5
AA
100
AcDbEntity
8
1
62
256
6
ByLayer
370
18
48
1
60
0
100
AcDbLine
10
26.321304
20
-38.57828
30
0
11
26.291628
21
-38.155642
31
0
39
0
210
0
220
0
230
1
0
LINE
5
AB
100
AcDbEntity
8
1
62
256
6
ByLayer
370
18
48
1
60
0
100
AcDbLine
10
26.47092
20
-40.457303
30
0
11
26.334153
21
-41.167917
31
0
39
0
210
0
220
0
230
1
0
LINE
5
AC
100
AcDbEntity
8
1
62
256
6
ByLayer
370
18
48
1
60
0
100
AcDbLine
10
26.386787
20
-38.268267
30
0
11
26.359254
21
-37.865519
31
0
39
0
210
0
220
0
230
1
0
LINE
5
AD
100
AcDbEntity
8
1
62
256
6
ByLayer
370
18
48
1
60
0
100
AcDbLine
10
27.029251
20
-38.651253
30
0
11
27.029369
21
-38.650365
31
0
39
0
210
0
220
0
230
1
0
LINE
5
AE
100
AcDbEntity
8
1
62
256
6
ByLayer
370
18
48
1
60
0
100
AcDbLine
10
26.541688
20
-37.581907
30
0
11
26.516905
21
-37.189255
31
0
39
0
210
0
220
0
230
1
0
LINE
5
AF
100
AcDbEntity
8
1
62
256
6
ByLayer
370
18
48
1
60
0
100
AcDbLine
10
26.27127
20
-38.954158
30
0
11
26.321304
21
-38.57828
31
0
39
0
210
0
220
0
230
1
0
LINE
5
B0
100
AcDbEntity
8
1
62
256
6
ByLayer
370
18
48
1
60
0
100
AcDbLine
10
27.225099
20
-37.114773
30
0
11
27.122837
21
-37.927474
31
0
39
0
210
0
220
0
230
1
0
LINE
5
B1
100
AcDbEntity
8
1
62
256
6
ByLayer
370
18
48
1
60
0
100
AcDbLine
10
27.220224
20
-37.054237
30
0
11
27.123396
21
-37.85948
31
0
39
0
210
0
220
0
230
1
0
LINE
5
B2
100
AcDbEntity
8
1
62
256
6
ByLayer
370
18
48
1
60
0
100
AcDbLine
10
26.322547
20
-42.767683
30
0
11
26.836084
21
-40.099438
31
0
39
0
210
0
220
0
230
1
0
LINE
5
B3
100
AcDbEntity
8
1
62
256
6
ByLayer
370
18
48
1
60
0
100
AcDbLine
10
26.596607
20
-36.847352
30
0
11
26.60951
21
-37.55391
31
0
39
0
210
0
220
0
230
1
0
LINE
5
B4
100
AcDbEntity
8
1
62
256
6
ByLayer
370
18
48
1
60
0
100
AcDbLine
10
26.161461
20
-44.839614
30
0
11
24.854256
21
-52.257291
31
0
39
0
210
0
220
0
230
1
0
LINE
5
B5
100
AcDbEntity
8
1
62
256
6
ByLayer
370
18
48
1
60
0
100
AcDbLine
10
22.408305
20
-55.550043
30
0
11
23.15649
21
-55.53785
31
0
39
0
210
0
220
0
230
1
0
LINE
5
B6
100
AcDbEntity
8
1
62
256
6
ByLayer
370
18
48
1
60
0
100
AcDbLine
10
13.004699
20
-37.070521
30
0
11
13.004699
21
-55.153047
31
0
39
0
210
0
220
0
230
1
0
LINE
5
B7
100
AcDbEntity
8
1
62
256
6
ByLayer
370
18
48
1
60
0
100
AcDbLine
10
9.204699
20
-39.93383
30
0
11
11.817793
21
-36.920905
31
0
39
0
210
0
220
0
230
1
0
LINE
5
B8
100
AcDbEntity
8
1
62
256
6
ByLayer
370
18
48
1
60
0
100
AcDbLine
10
9.204699
20
-65.934279
30
0
11
9.204699
21
-39.93383
31
0
39
0
210
0
220
0
230
1
0
LINE
5
B9
100
AcDbEntity
8
1
62
256
6
ByLayer
370
18
48
1
60
0
100
AcDbLine
10
9.204699
20
-39.93383
30
0
11
2.271791
21
-39.93383
31
0
39
0
210
0
220
0
230
1
0
LINE
5
BA
100
AcDbEntity
8
1
62
256
6
ByLayer
370
18
48
1
60
0
100
AcDbLine
10
-3.723423
20
-65.934279
30
0
11
-3.723423
21
-40.939316
31
0
39
0
210
0
220
0
230
1
0
LINE
5
BB
100
AcDbEntity
8
SK1
62
256
6
ByLayer
370
18
48
1
60
0
100
AcDbLine
10
-15.995301
20
-49.967694
30
0
11
-3.723497
21
-50.589178
31
0
39
0
210
0
220
0
230
1
0
LINE
5
BD
100
AcDbEntity
8
SK1
62
256
6
ByLayer
370
18
48
1
60
0
100
AcDbLine
10
-15.995301
20
-49.967694
30
0
11
-15.995301
21
-40.357034
31
0
39
0
210
0
220
0
230
1
0
LINE
5
BE
100
AcDbEntity
8
1
62
256
6
ByLayer
370
18
48
1
60
0
100
AcDbLine
10
9.204699
20
-65.934279
30
0
11
-3.723423
21
-65.934279
31
0
39
0
210
0
220
0
230
1
0
LINE
5
BF
100
AcDbEntity
8
1
62
256
6
ByLayer
370
18
48
1
60
0
100
AcDbLine
10
9.204699
20
-65.934279
30
0
11
16.703164
21
-62.414738
31
0
39
0
210
0
220
0
230
1
0
LINE
5
C0
100
AcDbEntity
8
1
62
256
6
ByLayer
370
18
48
1
60
0
100
AcDbLine
10
23.15649
20
-55.53785
30
0
11
24.341318
21
-54.922417
31
0
39
0
210
0
220
0
230
1
0
LINE
5
C1
100
AcDbEntity
8
1
62
256
6
ByLayer
370
18
48
1
60
0
100
AcDbLine
10
26.161461
20
-44.839614
30
0
11
26.204699
21
-44.49236
31
0
39
0
210
0
220
0
230
1
0
LINE
5
C2
100
AcDbEntity
8
1
62
256
6
ByLayer
370
18
48
1
60
0
100
AcDbLine
10
20.012829
20
-59.710261
30
0
11
16.703164
21
-62.414738
31
0
39
0
210
0
220
0
230
1
0
LINE
5
C3
100
AcDbEntity
8
1
62
256
6
ByLayer
370
18
48
1
60
0
100
AcDbLine
10
16.84212
20
-56.239163
30
0
11
16.703164
21
-62.414738
31
0
39
0
210
0
220
0
230
1
0
LINE
5
C4
100
AcDbEntity
8
1
62
256
6
ByLayer
370
18
48
1
60
0
100
AcDbLine
10
26.161461
20
-44.839614
30
0
11
19.584498
21
-53.083514
31
0
39
0
210
0
220
0
230
1
0
LINE
5
C5
100
AcDbEntity
8
1
62
256
6
ByLayer
370
18
48
1
60
0
100
AcDbLine
10
24.854256
20
-52.143326
30
0
11
22.232316
21
-55.795256
31
0
39
0
210
0
220
0
230
1
0
LINE
5
C6
100
AcDbEntity
8
1
62
256
6
ByLayer
370
18
48
1
60
0
100
AcDbLine
10
24.854256
20
-52.257291
30
0
11
24.854256
21
-52.143326
31
0
39
0
210
0
220
0
230
1
0
LINE
5
C7
100
AcDbEntity
8
1
62
256
6
ByLayer
370
18
48
1
60
0
100
AcDbLine
10
26.204699
20
-39.053176
30
0
11
26.167524
21
-38.687908
31
0
39
0
210
0
220
0
230
1
0
LINE
5
C8
100
AcDbEntity
8
1
62
256
6
ByLayer
370
18
48
1
60
0
100
AcDbLine
10
24.341318
20
-54.922417
30
0
11
24.854256
21
-52.257291
31
0
39
0
210
0
220
0
230
1
0
LINE
5
C9
100
AcDbEntity
8
1
62
256
6
ByLayer
370
18
48
1
60
0
100
AcDbLine
10
26.204699
20
-44.49236
30
0
11
26.204699
21
-39.053176
31
0
39
0
210
0
220
0
230
1
0
LINE
5
CA
100
AcDbEntity
8
1
62
256
6
ByLayer
370
18
48
1
60
0
100
AcDbLine
10
19.584498
20
-38.62101
30
0
11
19.584498
21
-53.083514
31
0
39
0
210
0
220
0
230
1
0
LINE
5
CB
100
AcDbEntity
8
1
62
256
6
ByLayer
370
18
48
1
60
0
100
AcDbLine
10
-15.995301
20
-26.046157
30
0
11
-3.045024
21
-26.587641
31
0
39
0
210
0
220
0
230
1
0
LINE
5
CC
100
AcDbEntity
8
1
62
256
6
ByLayer
370
18
48
1
60
0
100
AcDbLine
10
24.787503
20
-31.109602
30
0
11
24.69046
21
-32.017241
31
0
39
0
210
0
220
0
230
1
0
LINE
5
CD
100
AcDbEntity
8
1
62
256
6
ByLayer
370
18
48
1
60
0
100
AcDbLine
10
18.584808
20
-22.600694
30
0
11
18.95784
21
-21.000455
31
0
39
0
210
0
220
0
230
1
0
LINE
5
CE
100
AcDbEntity
8
1
62
256
6
ByLayer
370
18
48
1
60
0
100
AcDbLine
10
-3.723423
20
2.357422
30
0
11
-1.411341
21
-17.124427
31
0
39
0
210
0
220
0
230
1
0
LINE
5
CF
100
AcDbEntity
8
1
62
256
6
ByLayer
370
18
48
1
60
0
100
AcDbLine
10
-1.411341
20
-17.124427
30
0
11
18.722863
21
-21.309471
31
0
39
0
210
0
220
0
230
1
0
LINE
5
D0
100
AcDbEntity
8
1
62
256
6
ByLayer
370
18
48
1
60
0
100
AcDbLine
10
26.204699
20
-27.092706
30
0
11
26.204699
21
-18.313383
31
0
39
0
210
0
220
0
230
1
0
LINE
5
D1
100
AcDbEntity
8
1
62
256
6
ByLayer
370
18
48
1
60
0
100
AcDbLine
10
23.15649
20
-23.176317
30
0
11
24.787503
21
-31.109602
31
0
39
0
210
0
220
0
230
1
0
LINE
5
D2
100
AcDbEntity
8
1
62
256
6
ByLayer
370
18
48
1
60
0
100
AcDbLine
10
20.012829
20
-13.511404
30
0
11
16.703164
21
-6.61604
31
0
39
0
210
0
220
0
230
1
0
LINE
5
D3
100
AcDbEntity
8
1
62
256
6
ByLayer
370
18
48
1
60
0
100
AcDbLine
10
24.854256
20
-20.616877
30
0
11
24.854256
21
-20.519718
31
0
39
0
210
0
220
0
230
1
0
LINE
5
D4
100
AcDbEntity
8
1
62
256
6
ByLayer
370
18
48
1
60
0
100
AcDbLine
10
24.787503
20
-31.109602
30
0
11
24.978345
21
-31.051771
31
0
39
0
210
0
220
0
230
1
0
LINE
5
D5
100
AcDbEntity
8
1
62
256
6
ByLayer
370
18
48
1
60
0
100
AcDbLine
10
26.161461
20
-17.927133
30
0
11
26.204699
21
-18.313383
31
0
39
0
210
0
220
0
230
1
0
LINE
5
D6
100
AcDbEntity
8
1
62
256
6
ByLayer
370
18
48
1
60
0
100
AcDbLine
10
26.204464
20
-27.097382
30
0
11
26.204699
21
-27.092706
31
0
39
0
210
0
220
0
230
1
0
LINE
5
D7
100
AcDbEntity
8
1
62
256
6
ByLayer
370
18
48
1
60
0
100
AcDbLine
10
26.161461
20
-17.927133
30
0
11
24.854256
21
-20.616877
31
0
39
0
210
0
220
0
230
1
0
LINE
5
D8
100
AcDbEntity
8
1
62
256
6
ByLayer
370
18
48
1
60
0
100
AcDbLine
10
19.503368
20
-15.430015
30
0
11
18.722863
21
-21.309471
31
0
39
0
210
0
220
0
230
1
0
LINE
5
D9
100
AcDbEntity
8
1
62
256
6
ByLayer
370
18
48
1
60
0
100
AcDbLine
10
8.519682
20
-36.505615
30
0
11
13.429789
21
-37.123848
31
0
39
0
210
0
220
0
230
1
0
LINE
5
DA
100
AcDbEntity
8
1
62
256
6
ByLayer
370
18
48
1
60
0
100
AcDbLine
10
18.584808
20
-22.600694
30
0
11
23.15649
21
-23.176317
31
0
39
0
210
0
220
0
230
1
0
LINE
5
DB
100
AcDbEntity
8
1
62
256
6
ByLayer
370
18
48
1
60
0
100
AcDbLine
10
24.69046
20
-32.017241
30
0
11
25.085499
21
-31.897534
31
0
39
0
210
0
220
0
230
1
0
LINE
5
DC
100
AcDbEntity
8
1
62
256
6
ByLayer
370
18
48
1
60
0
100
AcDbLine
10
18.722863
20
-21.309471
30
0
11
18.584808
21
-22.600694
31
0
39
0
210
0
220
0
230
1
0
LINE
5
DD
100
AcDbEntity
8
1
62
256
6
ByLayer
370
18
48
1
60
0
100
AcDbLine
10
15.387108
20
-30.845852
30
0
11
-15.995301
21
-26.89448
31
0
39
0
210
0
220
0
230
1
0
LINE
5
DE
100
AcDbEntity
8
1
62
256
6
ByLayer
370
18
48
1
60
0
100
AcDbLine
10
-3.723423
20
2.357422
30
0
11
-3.723423
21
23.824143
31
0
39
0
210
0
220
0
230
1
0
LINE
5
DF
100
AcDbEntity
8
1
62
256
6
ByLayer
370
18
48
1
60
0
100
AcDbLine
10
15.387108
20
-30.845852
30
0
11
15.225495
21
-30.959903
31
0
39
0
210
0
220
0
230
1
0
LINE
5
E0
100
AcDbEntity
8
SK1
62
256
6
ByLayer
370
18
48
1
60
0
100
AcDbLine
10
-2.941256
20
-24.832265
30
0
11
-2.941256
21
-4.233566
31
0
39
0
210
0
220
0
230
1
0
LINE
5
E1
100
AcDbEntity
8
1
62
256
6
ByLayer
370
18
48
1
60
0
100
AcDbLine
10
13.004699
20
21.421511
30
0
11
13.004699
21
5.238642
31
0
39
0
210
0
220
0
230
1
0
LINE
5
E2
100
AcDbEntity
8
1
62
256
6
ByLayer
370
18
48
1
60
0
100
AcDbLine
10
9.204699
20
23.824143
30
0
11
13.004699
21
21.421511
31
0
39
0
210
0
220
0
230
1
0
LINE
5
E3
100
AcDbEntity
8
1
62
256
6
ByLayer
370
18
48
1
60
0
100
AcDbLine
10
9.204699
20
2.357422
30
0
11
9.204699
21
23.824143
31
0
39
0
210
0
220
0
230
1
0
LINE
5
E4
100
AcDbEntity
8
1
62
256
6
ByLayer
370
18
48
1
60
0
100
AcDbLine
10
14.960341
20
-33.667422
30
0
11
15.593535
21
-30.871861
31
0
39
0
210
0
220
0
230
1
0
LINE
5
E5
100
AcDbEntity
8
1
62
256
6
ByLayer
370
18
48
1
60
0
100
AcDbLine
10
9.204699
20
23.824143
30
0
11
-3.723423
21
23.824143
31
0
39
0
210
0
220
0
230
1
0
LINE
5
E6
100
AcDbEntity
8
1
62
256
6
ByLayer
370
18
48
1
60
0
100
AcDbLine
10
14.364994
20
-34.1206
30
0
11
14.330168
21
-34.274354
31
0
39
0
210
0
220
0
230
1
0
LINE
5
E7
100
AcDbEntity
8
1
62
256
6
ByLayer
370
18
48
1
60
0
100
AcDbLine
10
14.537124
20
-33.86304
30
0
11
14.24349
21
-35.159436
31
0
39
0
210
0
220
0
230
1
0
LINE
5
E8
100
AcDbEntity
8
1
62
256
6
ByLayer
370
18
48
1
60
0
100
AcDbLine
10
15.225495
20
-30.959903
30
0
11
14.960341
21
-33.667422
31
0
39
0
210
0
220
0
230
1
0
LINE
5
E9
100
AcDbEntity
8
1
62
256
6
ByLayer
370
18
48
1
60
0
100
AcDbLine
10
-15.995301
20
-26.89448
30
0
11
-15.995301
21
-26.046157
31
0
39
0
210
0
220
0
230
1
0
LINE
5
EA
100
AcDbEntity
8
1
62
256
6
ByLayer
370
18
48
1
60
0
100
AcDbLine
10
24.854256
20
-20.519718
30
0
11
21.860295
21
-20.142747
31
0
39
0
210
0
220
0
230
1
0
LINE
5
EB
100
AcDbEntity
8
1
62
256
6
ByLayer
370
18
48
1
60
0
100
AcDbLine
10
16.84212
20
-1.737446
30
0
11
16.703164
21
-6.61604
31
0
39
0
210
0
220
0
230
1
0
LINE
5
EC
100
AcDbEntity
8
1
62
256
6
ByLayer
370
18
48
1
60
0
100
AcDbLine
10
26.161461
20
-17.927133
30
0
11
19.584498
21
-6.671082
31
0
39
0
210
0
220
0
230
1
0
LINE
5
ED
100
AcDbEntity
8
1
62
256
6
ByLayer
370
18
48
1
60
0
100
AcDbLine
10
26.204464
20
-27.097382
30
0
11
26.113794
21
-28.023225
31
0
39
0
210
0
220
0
230
1
0
LINE
5
EE
100
AcDbEntity
8
1
62
256
6
ByLayer
370
18
48
1
60
0
100
AcDbLine
10
24.341318
20
-22.817282
30
0
11
24.978345
21
-31.051771
31
0
39
0
210
0
220
0
230
1
0
LINE
5
EF
100
AcDbEntity
8
1
62
256
6
ByLayer
370
18
48
1
60
0
100
AcDbLine
10
24.978345
20
-31.051771
30
0
11
25.085499
21
-31.897534
31
0
39
0
210
0
220
0
230
1
0
LINE
5
F0
100
AcDbEntity
8
1
62
256
6
ByLayer
370
18
48
1
60
0
100
AcDbLine
10
9.204699
20
2.357422
30
0
11
-3.723423
21
2.357422
31
0
39
0
210
0
220
0
230
1
0
LINE
5
F1
100
AcDbEntity
8
1
62
256
6
ByLayer
370
18
48
1
60
0
100
AcDbLine
10
26.070375
20
-27.749585
30
0
11
26.052929
21
-27.747389
31
0
39
0
210
0
220
0
230
1
0
LINE
5
F2
100
AcDbEntity
8
1
62
256
6
ByLayer
370
18
48
1
60
0
100
AcDbLine
10
-15.995301
20
-40.357451
30
0
11
-15.995301
21
-26.89448
31
0
39
0
210
0
220
0
230
1
0
LINE
5
F3
100
AcDbEntity
8
1
62
256
6
ByLayer
370
18
48
1
60
0
100
AcDbLine
10
25.085499
20
-31.897534
30
0
11
26.067698
21
-27.684084
31
0
39
0
210
0
220
0
230
1
0
LINE
5
F4
100
AcDbEntity
8
1
62
256
6
ByLayer
370
18
48
1
60
0
100
AcDbLine
10
26.070375
20
-27.749585
30
0
11
26.067698
21
-27.684084
31
0
39
0
210
0
220
0
230
1
0
LINE
5
F5
100
AcDbEntity
8
1
62
256
6
ByLayer
370
18
48
1
60
0
100
AcDbLine
10
14.330168
20
-34.274354
30
0
11
14.24349
21
-35.159436
31
0
39
0
210
0
220
0
230
1
0
LINE
5
F6
100
AcDbEntity
8
1
62
256
6
ByLayer
370
18
48
1
60
0
100
AcDbLine
10
26.045161
20
-28.007053
30
0
11
26.070375
21
-27.749585
31
0
39
0
210
0
220
0
230
1
0
LINE
5
F7
100
AcDbEntity
8
1
62
256
6
ByLayer
370
18
48
1
60
0
100
AcDbLine
10
-0.424131
20
-23.810727
30
0
11
-1.411341
21
-17.124427
31
0
39
0
210
0
220
0
230
1
0
LINE
5
F8
100
AcDbEntity
8
1
62
256
6
ByLayer
370
18
48
1
60
0
100
AcDbLine
10
-2.941256
20
-26.657534
30
0
11
-3.045024
21
-26.587641
31
0
39
0
210
0
220
0
230
1
0
LINE
5
F9
100
AcDbEntity
8
1
62
256
6
ByLayer
370
18
48
1
60
0
100
AcDbLine
10
26.067698
20
-27.684084
30
0
11
26.204464
21
-27.097382
31
0
39
0
210
0
220
0
230
1
0
LINE
5
FA
100
AcDbEntity
8
1
62
256
6
ByLayer
370
18
48
1
60
0
100
AcDbLine
10
22.232316
20
-16.344001
30
0
11
21.860295
21
-20.142747
31
0
39
0
210
0
220
0
230
1
0
LINE
5
FB
100
AcDbEntity
8
1
62
256
6
ByLayer
370
18
48
1
60
0
100
AcDbLine
10
18.95784
20
-21.000455
30
0
11
19.503368
21
-15.430015
31
0
39
0
210
0
220
0
230
1
0
LINE
5
FC
100
AcDbEntity
8
1
62
256
6
ByLayer
370
18
48
1
60
0
100
AcDbLine
10
9.204699
20
2.357422
30
0
11
16.703164
21
-6.61604
31
0
39
0
210
0
220
0
230
1
0
LINE
5
FD
100
AcDbEntity
8
SK1
62
256
6
ByLayer
370
18
48
1
60
0
100
AcDbLine
10
-15.995301
20
-24.634425
30
0
11
-15.995301
21
4.832454
31
0
39
0
210
0
220
0
230
1
0
LINE
5
FE
100
AcDbEntity
8
1
62
256
6
ByLayer
370
18
48
1
60
0
100
AcDbLine
10
15.387108
20
-30.845852
30
0
11
24.69046
21
-32.017241
31
0
39
0
210
0
220
0
230
1
0
LINE
5
FF
100
AcDbEntity
8
1
62
256
6
ByLayer
370
18
48
1
60
0
100
AcDbLine
10
24.854256
20
-20.519718
30
0
11
22.232316
21
-16.344001
31
0
39
0
210
0
220
0
230
1
0
LINE
5
100
100
AcDbEntity
8
SK1
62
256
6
ByLayer
370
18
48
1
60
0
100
AcDbLine
10
-3.045024
20
-24.832043
30
0
11
-3.045024
21
-3.358863
31
0
39
0
210
0
220
0
230
1
0
LINE
5
101
100
AcDbEntity
8
1
62
256
6
ByLayer
370
18
48
1
60
0
100
AcDbLine
10
23.15649
20
-23.176317
30
0
11
24.341318
21
-22.817282
31
0
39
0
210
0
220
0
230
1
0
LINE
5
102
100
AcDbEntity
8
1
62
256
6
ByLayer
370
18
48
1
60
0
100
AcDbLine
10
2.004699
20
-41.210456
30
0
11
-15.995301
21
-40.357451
31
0
39
0
210
0
220
0
230
1
0
LINE
5
103
100
AcDbEntity
8
SK1
62
256
6
ByLayer
370
18
48
1
60
0
100
AcDbLine
10
-3.723497
20
4.832454
30
0
11
-15.995301
21
4.832454
31
0
39
0
210
0
220
0
230
1
0
LINE
5
104
100
AcDbEntity
8
1
62
256
6
ByLayer
370
18
48
1
60
0
100
AcDbLine
10
24.341318
20
-22.817282
30
0
11
24.854256
21
-20.616877
31
0
39
0
210
0
220
0
230
1
0
LINE
5
105
100
AcDbEntity
8
1
62
256
6
ByLayer
370
18
48
1
60
0
100
AcDbLine
10
-0.424131
20
-23.810727
30
0
11
-0.341647
21
-23.903171
31
0
39
0
210
0
220
0
230
1
0
LINE
5
106
100
AcDbEntity
8
1
62
256
6
ByLayer
370
18
48
1
60
0
100
AcDbLine
10
26.333778
20
-30.766275
30
0
11
25.419154
21
-34.689841
31
0
39
0
210
0
220
0
230
1
0
LINE
5
107
100
AcDbEntity
8
1
62
256
6
ByLayer
370
18
48
1
60
0
100
AcDbLine
10
24.545958
20
-34.94909
30
0
11
24.57116
21
-32.371833
31
0
39
0
210
0
220
0
230
1
0
LINE
5
108
100
AcDbEntity
8
1
62
256
6
ByLayer
370
18
48
1
60
0
100
AcDbLine
10
24.542941
20
-34.948772
30
0
11
15.873989
21
-33.85726
31
0
39
0
210
0
220
0
230
1
0
LINE
5
109
100
AcDbEntity
8
1
62
256
6
ByLayer
370
18
48
1
60
0
100
AcDbLine
10
26.334096
20
-30.764853
30
0
11
26.308894
21
-28.403816
31
0
39
0
210
0
220
0
230
1
0
LINE
5
10A
100
AcDbEntity
8
1
62
256
6
ByLayer
370
18
48
1
60
0
100
AcDbLine
10
25.419154
20
-34.689841
30
0
11
25.401818
21
-34.866857
31
0
39
0
210
0
220
0
230
1
0
LINE
5
10B
100
AcDbEntity
8
1
62
256
6
ByLayer
370
18
48
1
60
0
100
AcDbLine
10
25.444038
20
-32.113888
30
0
11
25.418837
21
-34.691145
31
0
39
0
210
0
220
0
230
1
0
LINE
5
10C
100
AcDbEntity
8
1
62
256
6
ByLayer
370
18
48
1
60
0
100
AcDbLine
10
15.164715
20
-33.400044
30
0
11
15.667646
21
-30.882938
31
0
39
0
210
0
220
0
230
1
0
LINE
5
10D
100
AcDbEntity
8
1
62
256
6
ByLayer
370
18
48
1
60
0
100
AcDbLine
10
16.373915
20
-31.339714
30
0
11
15.870985
21
-33.85682
31
0
39
0
210
0
220
0
230
1
0
LINE
5
10E
100
AcDbEntity
8
1
62
256
6
ByLayer
370
18
48
1
60
0
100
AcDbLine
10
24.525606
20
-35.125788
30
0
11
15.856653
21
-34.034277
31
0
39
0
210
0
220
0
230
1
0
LINE
5
10F
100
AcDbEntity
8
1
62
256
6
ByLayer
370
18
48
1
60
0
100
AcDbLine
10
24.525606
20
-35.125788
30
0
11
24.542941
21
-34.948772
31
0
39
0
210
0
220
0
230
1
0
LINE
5
110
100
AcDbEntity
8
1
62
256
6
ByLayer
370
18
48
1
60
0
100
AcDbLine
10
15.873989
20
-33.85726
30
0
11
15.856653
21
-34.034277
31
0
39
0
210
0
220
0
230
1
0
LINE
5
111
100
AcDbEntity
8
1
62
256
6
ByLayer
370
18
48
1
60
0
100
AcDbLine
10
26.308894
20
-28.403816
30
0
11
25.444038
21
-32.113888
31
0
39
0
210
0
220
0
230
1
0
LINE
5
112
100
AcDbEntity
8
1
62
256
6
ByLayer
370
18
48
1
60
0
100
AcDbLine
10
26.316443
20
-30.943291
30
0
11
25.401818
21
-34.866857
31
0
39
0
210
0
220
0
230
1
0
LINE
5
113
100
AcDbEntity
8
1
62
256
6
ByLayer
370
18
48
1
60
0
100
AcDbLine
10
24.57116
20
-32.371833
30
0
11
16.373915
21
-31.339714
31
0
39
0
210
0
220
0
230
1
0
LINE
5
114
100
AcDbEntity
8
1
62
256
6
ByLayer
370
18
48
1
60
0
100
AcDbLine
10
26.316443
20
-30.943291
30
0
11
26.333778
21
-30.766275
31
0
39
0
210
0
220
0
230
1
0
LINE
5
115
100
AcDbEntity
8
1
62
256
6
ByLayer
370
18
48
1
60
0
100
AcDbLine
10
16.415823
20
-31.047446
30
0
11
24.613067
21
-32.079565
31
0
39
0
210
0
220
0
230
1
0
LINE
5
116
100
AcDbEntity
8
1
62
256
6
ByLayer
370
18
48
1
60
0
100
AcDbLine
10
25.245891
20
-31.892559
30
0
11
26.110747
21
-28.182487
31
0
39
0
210
0
220
0
230
1
0
LINE
5
117
100
AcDbEntity
8
1
62
256
6
ByLayer
370
18
48
1
60
0
100
AcDbLine
10
14.721355
20
69.910381
30
0
11
14.850891
21
69.960395
31
0
39
0
210
0
220
0
230
1
0
LINE
5
118
100
AcDbEntity
8
1
62
256
6
ByLayer
370
18
48
1
60
0
100
AcDbLine
10
15.608496
20
69.275797
30
0
11
15.598192
21
69.415265
31
0
39
0
210
0
220
0
230
1
0
LINE
5
119
100
AcDbEntity
8
1
62
256
6
ByLayer
370
18
48
1
60
0
100
AcDbLine
10
27.208198
20
71.545524
30
0
11
27.06897
21
71.53217
31
0
39
0
210
0
220
0
230
1
0
LINE
5
11A
100
AcDbEntity
8
1
62
256
6
ByLayer
370
18
48
1
60
0
100
AcDbLine
10
14.65636
20
70.317778
30
0
11
14.794402
21
70.332287
31
0
39
0
210
0
220
0
230
1
0
LINE
5
11B
100
AcDbEntity
8
1
62
256
6
ByLayer
370
18
48
1
60
0
100
AcDbLine
10
24.86442
20
82.972933
30
0
11
14.582952
21
81.892307
31
0
39
0
210
0
220
0
230
1
0
LINE
5
11C
100
AcDbEntity
8
1
62
256
6
ByLayer
370
18
48
1
60
0
100
AcDbLine
10
13.780363
20
79.980226
30
0
11
13.709648
21
80.653028
31
0
39
0
210
0
220
0
230
1
0
LINE
5
11D
100
AcDbEntity
8
1
62
256
6
ByLayer
370
18
48
1
60
0
100
AcDbLine
10
13.571606
20
80.638519
30
0
11
13.709648
21
80.653028
31
0
39
0
210
0
220
0
230
1
0
LINE
5
11E
100
AcDbEntity
8
1
62
256
6
ByLayer
370
18
48
1
60
0
100
AcDbLine
10
13.562504
20
80.729069
30
0
11
13.700673
21
80.742311
31
0
39
0
210
0
220
0
230
1
0
LINE
5
11F
100
AcDbEntity
8
1
62
256
6
ByLayer
370
18
48
1
60
0
100
AcDbLine
10
15.906283
20
69.30166
30
0
11
26.18775
21
70.382286
31
0
39
0
210
0
220
0
230
1
0
LINE
5
120
100
AcDbEntity
8
1
62
256
6
ByLayer
370
18
48
1
60
0
100
AcDbLine
10
26.989281
20
72.294256
30
0
11
27.059995
21
71.621453
31
0
39
0
210
0
220
0
230
1
0
LINE
5
121
100
AcDbEntity
8
1
62
256
6
ByLayer
370
18
48
1
60
0
100
AcDbLine
10
27.199096
20
71.636073
30
0
11
27.059995
21
71.621453
31
0
39
0
210
0
220
0
230
1
0
LINE
5
122
100
AcDbEntity
8
1
62
256
6
ByLayer
370
18
48
1
60
0
100
AcDbLine
10
17.090188
20
75.234626
30
0
11
16.961066
21
75.221055
31
0
39
0
210
0
220
0
230
1
0
LINE
5
123
100
AcDbEntity
8
1
62
256
6
ByLayer
370
18
48
1
60
0
100
AcDbLine
10
27.21264
20
71.496726
30
0
11
27.073288
21
71.484737
31
0
39
0
210
0
220
0
230
1
0
LINE
5
124
100
AcDbEntity
8
1
62
256
6
ByLayer
370
18
48
1
60
0
100
AcDbLine
10
24.127736
20
73.359981
30
0
11
23.855962
21
75.945738
31
0
39
0
210
0
220
0
230
1
0
LINE
5
125
100
AcDbEntity
8
1
62
256
6
ByLayer
370
18
48
1
60
0
100
AcDbLine
10
23.829173
20
73.127499
30
0
11
21.253256
21
72.856759
31
0
39
0
210
0
220
0
230
1
0
LINE
5
126
100
AcDbEntity
8
1
62
256
6
ByLayer
370
18
48
1
60
0
100
AcDbLine
10
27.220224
20
71.224065
30
0
11
27.082061
21
71.245943
31
0
39
0
210
0
220
0
230
1
0
LINE
5
127
100
AcDbEntity
8
1
62
256
6
ByLayer
370
18
48
1
60
0
100
AcDbLine
10
17.361962
20
72.648869
30
0
11
17.090188
21
75.234626
31
0
39
0
210
0
220
0
230
1
0
LINE
5
128
100
AcDbEntity
8
1
62
256
6
ByLayer
370
18
48
1
60
0
100
AcDbLine
10
26.59358
20
70.4472
30
0
11
26.543064
21
70.577736
31
0
39
0
210
0
220
0
230
1
0
LINE
5
129
100
AcDbEntity
8
1
62
256
6
ByLayer
370
18
48
1
60
0
100
AcDbLine
10
26.326338
20
70.397958
30
0
11
26.308573
21
70.536703
31
0
39
0
210
0
220
0
230
1
0
LINE
5
12A
100
AcDbEntity
8
1
62
256
6
ByLayer
370
18
48
1
60
0
100
AcDbLine
10
26.277869
20
70.392174
30
0
11
26.261459
21
70.53108
31
0
39
0
210
0
220
0
230
1
0
LINE
5
12B
100
AcDbEntity
8
1
62
256
6
ByLayer
370
18
48
1
60
0
100
AcDbLine
10
23.111033
20
79.922623
30
0
11
20.535116
21
79.651883
31
0
39
0
210
0
220
0
230
1
0
LINE
5
12C
100
AcDbEntity
8
1
62
256
6
ByLayer
370
18
48
1
60
0
100
AcDbLine
10
26.18775
20
70.382286
30
0
11
26.172601
21
70.52133
31
0
39
0
210
0
220
0
230
1
0
LINE
5
12D
100
AcDbEntity
8
1
62
256
6
ByLayer
370
18
48
1
60
0
100
AcDbLine
10
23.740294
20
77.046249
30
0
11
23.46852
21
79.632006
31
0
39
0
210
0
220
0
230
1
0
LINE
5
12E
100
AcDbEntity
8
1
62
256
6
ByLayer
370
18
48
1
60
0
100
AcDbLine
10
19.438793
20
79.536655
30
0
11
16.862875
21
79.265915
31
0
39
0
210
0
220
0
230
1
0
LINE
5
12F
100
AcDbEntity
8
1
62
256
6
ByLayer
370
18
48
1
60
0
100
AcDbLine
10
16.573623
20
78.907323
30
0
11
16.845397
21
76.321566
31
0
39
0
210
0
220
0
230
1
0
LINE
5
130
100
AcDbEntity
8
1
62
256
6
ByLayer
370
18
48
1
60
0
100
AcDbLine
10
13.571606
20
80.638519
30
0
11
14.65636
21
70.317778
31
0
39
0
210
0
220
0
230
1
0
LINE
5
131
100
AcDbEntity
8
1
62
256
6
ByLayer
370
18
48
1
60
0
100
AcDbLine
10
15.906283
20
69.30166
30
0
11
15.891133
21
69.440705
31
0
39
0
210
0
220
0
230
1
0
LINE
5
132
100
AcDbEntity
8
1
62
256
6
ByLayer
370
18
48
1
60
0
100
AcDbLine
10
21.262567
20
72.730649
30
0
11
23.838484
21
73.001389
31
0
39
0
210
0
220
0
230
1
0
LINE
5
133
100
AcDbEntity
8
1
62
256
6
ByLayer
370
18
48
1
60
0
100
AcDbLine
10
27.225099
20
71.337154
30
0
11
27.085572
21
71.327397
31
0
39
0
210
0
220
0
230
1
0
LINE
5
134
100
AcDbEntity
8
1
62
256
6
ByLayer
370
18
48
1
60
0
100
AcDbLine
10
14.177122
20
81.827392
30
0
11
14.22658
21
81.696745
31
0
39
0
210
0
220
0
230
1
0
LINE
5
135
100
AcDbEntity
8
1
62
256
6
ByLayer
370
18
48
1
60
0
100
AcDbLine
10
17.361962
20
72.648869
30
0
11
17.23284
21
72.635298
31
0
39
0
210
0
220
0
230
1
0
LINE
5
136
100
AcDbEntity
8
1
62
256
6
ByLayer
370
18
48
1
60
0
100
AcDbLine
10
16.702745
20
78.920895
30
0
11
16.974519
21
76.335138
31
0
39
0
210
0
220
0
230
1
0
LINE
5
137
100
AcDbEntity
8
1
62
256
6
ByLayer
370
18
48
1
60
0
100
AcDbLine
10
23.618973
20
77.033498
30
0
11
23.347199
21
79.619255
31
0
39
0
210
0
220
0
230
1
0
LINE
5
138
100
AcDbEntity
8
1
62
256
6
ByLayer
370
18
48
1
60
0
100
AcDbLine
10
13.558062
20
80.777867
30
0
11
13.696356
21
80.789744
31
0
39
0
210
0
220
0
230
1
0
LINE
5
139
100
AcDbEntity
8
1
62
256
6
ByLayer
370
18
48
1
60
0
100
AcDbLine
10
15.495825
20
69.280779
30
0
11
15.517038
21
69.418854
31
0
39
0
210
0
220
0
230
1
0
LINE
5
13A
100
AcDbEntity
8
1
62
256
6
ByLayer
370
18
48
1
60
0
100
AcDbLine
10
13.545603
20
80.937439
30
0
11
13.684071
21
80.947084
31
0
39
0
210
0
220
0
230
1
0
LINE
5
13B
100
AcDbEntity
8
1
62
256
6
ByLayer
370
18
48
1
60
0
100
AcDbLine
10
16.561376
20
69.51115
30
0
11
15.891133
21
69.440705
31
0
39
0
210
0
220
0
230
1
0
LINE
5
13C
100
AcDbEntity
8
1
62
256
6
ByLayer
370
18
48
1
60
0
100
AcDbLine
10
13.550478
20
81.050528
30
0
11
13.687582
21
81.028538
31
0
39
0
210
0
220
0
230
1
0
LINE
5
13D
100
AcDbEntity
8
1
62
256
6
ByLayer
370
18
48
1
60
0
100
AcDbLine
10
14.794402
20
70.332287
30
0
11
14.723687
21
71.00509
31
0
39
0
210
0
220
0
230
1
0
LINE
5
13E
100
AcDbEntity
8
1
62
256
6
ByLayer
370
18
48
1
60
0
100
AcDbLine
10
14.286296
20
81.855692
30
0
11
14.305214
21
81.717128
31
0
39
0
210
0
220
0
230
1
0
LINE
5
13F
100
AcDbEntity
8
1
62
256
6
ByLayer
370
18
48
1
60
0
100
AcDbLine
10
19.455905
20
79.411365
30
0
11
16.879987
21
79.140625
31
0
39
0
210
0
220
0
230
1
0
LINE
5
140
100
AcDbEntity
8
1
62
256
6
ByLayer
370
18
48
1
60
0
100
AcDbLine
10
14.444364
20
81.876635
30
0
11
14.461071
21
81.737779
31
0
39
0
210
0
220
0
230
1
0
LINE
5
141
100
AcDbEntity
8
1
62
256
6
ByLayer
370
18
48
1
60
0
100
AcDbLine
10
14.492833
20
81.882419
30
0
11
14.508185
21
81.743401
31
0
39
0
210
0
220
0
230
1
0
LINE
5
142
100
AcDbEntity
8
1
62
256
6
ByLayer
370
18
48
1
60
0
100
AcDbLine
10
23.128146
20
79.797333
30
0
11
20.552228
21
79.526593
31
0
39
0
210
0
220
0
230
1
0
LINE
5
143
100
AcDbEntity
8
1
62
256
6
ByLayer
370
18
48
1
60
0
100
AcDbLine
10
14.582952
20
81.892307
30
0
11
14.597043
21
81.753151
31
0
39
0
210
0
220
0
230
1
0
LINE
5
144
100
AcDbEntity
8
1
62
256
6
ByLayer
370
18
48
1
60
0
100
AcDbLine
10
14.597043
20
81.753151
30
0
11
15.267285
21
81.823596
31
0
39
0
210
0
220
0
230
1
0
LINE
5
145
100
AcDbEntity
8
1
62
256
6
ByLayer
370
18
48
1
60
0
100
AcDbLine
10
26.172601
20
70.52133
30
0
11
25.502358
21
70.450885
31
0
39
0
210
0
220
0
230
1
0
LINE
5
146
100
AcDbEntity
8
1
62
256
6
ByLayer
370
18
48
1
60
0
100
AcDbLine
10
24.86442
20
82.972933
30
0
11
24.87851
21
82.833777
31
0
39
0
210
0
220
0
230
1
0
LINE
5
147
100
AcDbEntity
8
1
62
256
6
ByLayer
370
18
48
1
60
0
100
AcDbLine
10
17.590326
20
72.344681
30
0
11
20.166243
21
72.615421
31
0
39
0
210
0
220
0
230
1
0
LINE
5
148
100
AcDbEntity
8
1
62
256
6
ByLayer
370
18
48
1
60
0
100
AcDbLine
10
16.961066
20
75.221055
30
0
11
17.23284
21
72.635298
31
0
39
0
210
0
220
0
230
1
0
LINE
5
149
100
AcDbEntity
8
1
62
256
6
ByLayer
370
18
48
1
60
0
100
AcDbLine
10
15.816077
20
69.292595
30
0
11
15.802189
21
69.431767
31
0
39
0
210
0
220
0
230
1
0
LINE
5
14A
100
AcDbEntity
8
1
62
256
6
ByLayer
370
18
48
1
60
0
100
AcDbLine
10
14.672084
20
70.17866
30
0
11
14.809825
21
70.195795
31
0
39
0
210
0
220
0
230
1
0
LINE
5
14B
100
AcDbEntity
8
1
62
256
6
ByLayer
370
18
48
1
60
0
100
AcDbLine
10
16.702745
20
78.920895
30
0
11
16.573623
21
78.907323
31
0
39
0
210
0
220
0
230
1
0
LINE
5
14C
100
AcDbEntity
8
1
62
256
6
ByLayer
370
18
48
1
60
0
100
AcDbLine
10
23.734641
20
75.932987
30
0
11
24.006415
21
73.34723
31
0
39
0
210
0
220
0
230
1
0
LINE
5
14D
100
AcDbEntity
8
1
62
256
6
ByLayer
370
18
48
1
60
0
100
AcDbLine
10
27.199096
20
71.636073
30
0
11
26.114342
21
81.956814
31
0
39
0
210
0
220
0
230
1
0
LINE
5
14E
100
AcDbEntity
8
1
62
256
6
ByLayer
370
18
48
1
60
0
100
AcDbLine
10
24.208268
20
82.763331
30
0
11
24.87851
21
82.833777
31
0
39
0
210
0
220
0
230
1
0
LINE
5
14F
100
AcDbEntity
8
1
62
256
6
ByLayer
370
18
48
1
60
0
100
AcDbLine
10
23.130959
20
79.596527
30
0
11
23.46852
21
79.632006
31
0
39
0
210
0
220
0
230
1
0
LINE
5
150
100
AcDbEntity
8
1
62
256
6
ByLayer
370
18
48
1
60
0
100
AcDbLine
10
14.693074
20
70.019985
30
0
11
14.830521
21
70.039339
31
0
39
0
210
0
220
0
230
1
0
LINE
5
151
100
AcDbEntity
8
1
62
256
6
ByLayer
370
18
48
1
60
0
100
AcDbLine
10
24.954625
20
82.981997
30
0
11
24.967454
21
82.842714
31
0
39
0
210
0
220
0
230
1
0
LINE
5
152
100
AcDbEntity
8
1
62
256
6
ByLayer
370
18
48
1
60
0
100
AcDbLine
10
25.003238
20
82.986417
30
0
11
25.014707
21
82.84701
31
0
39
0
210
0
220
0
230
1
0
LINE
5
153
100
AcDbEntity
8
1
62
256
6
ByLayer
370
18
48
1
60
0
100
AcDbLine
10
25.162206
20
82.998796
30
0
11
25.171452
21
82.859216
31
0
39
0
210
0
220
0
230
1
0
LINE
5
154
100
AcDbEntity
8
1
62
256
6
ByLayer
370
18
48
1
60
0
100
AcDbLine
10
25.274878
20
82.993813
30
0
11
25.252605
21
82.855627
31
0
39
0
210
0
220
0
230
1
0
LINE
5
155
100
AcDbEntity
8
1
62
256
6
ByLayer
370
18
48
1
60
0
100
AcDbLine
10
26.049348
20
82.364212
30
0
11
25.918753
21
82.314086
31
0
39
0
210
0
220
0
230
1
0
LINE
5
156
100
AcDbEntity
8
1
62
256
6
ByLayer
370
18
48
1
60
0
100
AcDbLine
10
26.077628
20
82.254608
30
0
11
25.939122
21
82.235142
31
0
39
0
210
0
220
0
230
1
0
LINE
5
157
100
AcDbEntity
8
1
62
256
6
ByLayer
370
18
48
1
60
0
100
AcDbLine
10
15.767464
20
69.288176
30
0
11
15.754937
21
69.427471
31
0
39
0
210
0
220
0
230
1
0
LINE
5
158
100
AcDbEntity
8
1
62
256
6
ByLayer
370
18
48
1
60
0
100
AcDbLine
10
26.098618
20
82.095933
30
0
11
25.959819
21
82.078686
31
0
39
0
210
0
220
0
230
1
0
LINE
5
159
100
AcDbEntity
8
1
62
256
6
ByLayer
370
18
48
1
60
0
100
AcDbLine
10
26.104419
20
82.047277
30
0
11
25.965458
21
82.031392
31
0
39
0
210
0
220
0
230
1
0
LINE
5
15A
100
AcDbEntity
8
1
62
256
6
ByLayer
370
18
48
1
60
0
100
AcDbLine
10
26.114342
20
81.956814
30
0
11
25.975242
21
81.942194
31
0
39
0
210
0
220
0
230
1
0
LINE
5
15B
100
AcDbEntity
8
1
62
256
6
ByLayer
370
18
48
1
60
0
100
AcDbLine
10
25.975242
20
81.942194
30
0
11
26.045956
21
81.269391
31
0
39
0
210
0
220
0
230
1
0
LINE
5
15C
100
AcDbEntity
8
1
62
256
6
ByLayer
370
18
48
1
60
0
100
AcDbLine
10
14.666283
20
70.227315
30
0
11
14.804186
21
70.243089
31
0
39
0
210
0
220
0
230
1
0
LINE
5
15D
100
AcDbEntity
8
1
62
256
6
ByLayer
370
18
48
1
60
0
100
AcDbLine
10
26.484406
20
70.418901
30
0
11
26.46443
21
70.557353
31
0
39
0
210
0
220
0
230
1
0
LINE
5
15E
100
AcDbEntity
8
1
62
256
6
ByLayer
370
18
48
1
60
0
100
AcDbLine
10
23.855962
20
75.945738
30
0
11
23.734641
21
75.932987
31
0
39
0
210
0
220
0
230
1
0
LINE
5
15F
100
AcDbEntity
8
1
62
256
6
ByLayer
370
18
48
1
60
0
100
AcDbLine
10
16.974519
20
76.335138
30
0
11
16.845397
21
76.321566
31
0
39
0
210
0
220
0
230
1
0
LINE
5
160
100
AcDbEntity
8
1
62
256
6
ByLayer
370
18
48
1
60
0
100
AcDbLine
10
20.156932
20
72.741531
30
0
11
17.581015
21
72.470791
31
0
39
0
210
0
220
0
230
1
0
LINE
5
161
100
AcDbEntity
8
1
62
256
6
ByLayer
370
18
48
1
60
0
100
AcDbLine
10
23.740294
20
77.046249
30
0
11
23.618973
21
77.033498
31
0
39
0
210
0
220
0
230
1
0
LINE
5
162
100
AcDbEntity
8
1
62
256
6
ByLayer
370
18
48
1
60
0
100
AcDbLine
10
24.006415
20
73.34723
30
0
11
24.127736
21
73.359981
31
0
39
0
210
0
220
0
230
1
0
LINE
5
163
100
AcDbEntity
8
1
62
256
6
ByLayer
370
18
48
1
60
0
100
AcDbLine
10
14.55641
20
70.693183
30
0
11
14.530277
21
70.941813
31
0
39
0
210
0
220
0
230
1
0
LINE
5
164
100
AcDbEntity
8
1
62
256
6
ByLayer
370
18
48
1
60
0
100
AcDbLine
10
13.637479
20
80.01176
30
0
11
13.429789
21
79.98993
31
0
39
0
210
0
220
0
230
1
0
LINE
5
165
100
AcDbEntity
8
1
62
256
6
ByLayer
370
18
48
1
60
0
100
AcDbLine
10
26.185291
20
70.382038
30
0
11
26.204464
21
70.19962
31
0
39
0
210
0
220
0
230
1
0
LINE
5
166
100
AcDbEntity
8
1
62
256
6
ByLayer
370
18
48
1
60
0
100
AcDbLine
10
14.590112
20
70.948102
30
0
11
14.530277
21
70.941813
31
0
39
0
210
0
220
0
230
1
0
LINE
5
167
100
AcDbEntity
8
1
62
256
6
ByLayer
370
18
48
1
60
0
100
AcDbLine
10
14.616244
20
70.699471
30
0
11
14.55641
21
70.693183
31
0
39
0
210
0
220
0
230
1
0
LINE
5
168
100
AcDbEntity
8
1
62
256
6
ByLayer
370
18
48
1
60
0
100
AcDbLine
10
19.584498
20
61.226372
30
0
11
25.561848
21
63.401949
31
0
39
0
210
0
220
0
230
1
0
LINE
5
169
100
AcDbEntity
8
1
62
256
6
ByLayer
370
18
48
1
60
0
100
AcDbLine
10
13.930804
20
70.627429
30
0
11
13.90487
21
70.87608
31
0
39
0
210
0
220
0
230
1
0
LINE
5
16A
100
AcDbEntity
8
SK1
62
256
6
ByLayer
370
18
48
1
60
0
100
AcDbLine
10
-15.995301
20
54.858055
30
0
11
-15.995301
21
17.507456
31
0
39
0
210
0
220
0
230
1
0
LINE
5
16B
100
AcDbEntity
8
1
62
256
6
ByLayer
370
18
48
1
60
0
100
AcDbLine
10
2.004699
20
78.789105
30
0
11
2.004699
21
23.824253
31
0
39
0
210
0
220
0
230
1
0
LINE
5
16C
100
AcDbEntity
8
SK1
62
256
6
ByLayer
370
18
48
1
60
0
100
AcDbLine
10
-15.995301
20
17.507456
30
0
11
-3.72352
21
17.507456
31
0
39
0
210
0
220
0
230
1
0
LINE
5
16D
100
AcDbEntity
8
1
62
256
6
ByLayer
370
18
48
1
60
0
100
AcDbLine
10
25.564485
20
70.093465
30
0
11
25.561848
21
63.401949
31
0
39
0
210
0
220
0
230
1
0
LINE
5
16E
100
AcDbEntity
8
1
62
256
6
ByLayer
370
18
48
1
60
0
100
AcDbLine
10
26.204699
20
63.635928
30
0
11
25.561848
21
63.401949
31
0
39
0
210
0
220
0
230
1
0
LINE
5
16F
100
AcDbEntity
8
1
62
256
6
ByLayer
370
18
48
1
60
0
100
AcDbLine
10
26.204464
20
70.19962
30
0
11
26.204699
21
70.194643
31
0
39
0
210
0
220
0
230
1
0
LINE
5
170
100
AcDbEntity
8
1
62
256
6
ByLayer
370
18
48
1
60
0
100
AcDbLine
10
8.519682
20
79.473857
30
0
11
13.429789
21
79.98993
31
0
39
0
210
0
220
0
230
1
0
LINE
5
171
100
AcDbEntity
8
SK1
62
256
6
ByLayer
370
18
48
1
60
0
100
AcDbLine
10
-3.723497
20
8.286883
30
0
11
-15.995301
21
8.286883
31
0
39
0
210
0
220
0
230
1
0
LINE
5
172
100
AcDbEntity
8
1
62
256
6
ByLayer
370
18
48
1
60
0
100
AcDbLine
10
2.004699
20
78.789105
30
0
11
8.519682
21
79.473857
31
0
39
0
210
0
220
0
230
1
0
LINE
5
173
100
AcDbEntity
8
1
62
256
6
ByLayer
370
18
48
1
60
0
100
AcDbLine
10
13.004699
20
21.421857
30
0
11
13.004699
21
51.829446
31
0
39
0
210
0
220
0
230
1
0
LINE
5
174
100
AcDbEntity
8
1
62
256
6
ByLayer
370
18
48
1
60
0
100
AcDbLine
10
17.346989
20
69.229772
30
0
11
25.564485
21
70.093465
31
0
39
0
210
0
220
0
230
1
0
LINE
5
175
100
AcDbEntity
8
SK1
62
256
6
ByLayer
370
18
48
1
60
0
100
AcDbLine
10
-15.995301
20
8.286883
30
0
11
-15.995301
21
17.507456
31
0
39
0
210
0
220
0
230
1
0
LINE
5
176
100
AcDbEntity
8
1
62
256
6
ByLayer
370
18
48
1
60
0
100
AcDbLine
10
8.519682
20
23.824826
30
0
11
8.519682
21
79.473857
31
0
39
0
210
0
220
0
230
1
0
LINE
5
177
100
AcDbEntity
8
1
62
256
6
ByLayer
370
18
48
1
60
0
100
AcDbLine
10
26.204699
20
63.635928
30
0
11
26.204699
21
70.194643
31
0
39
0
210
0
220
0
230
1
0
LINE
5
178
100
AcDbEntity
8
1
62
256
6
ByLayer
370
18
48
1
60
0
100
AcDbLine
10
26.204464
20
70.19962
30
0
11
25.584431
21
70.134452
31
0
39
0
210
0
220
0
230
1
0
LINE
5
179
100
AcDbEntity
8
1
62
256
6
ByLayer
370
18
48
1
60
0
100
AcDbLine
10
2.004699
20
78.789105
30
0
11
-15.995301
21
76.897229
31
0
39
0
210
0
220
0
230
1
0
LINE
5
17A
100
AcDbEntity
8
1
62
256
6
ByLayer
370
18
48
1
60
0
100
AcDbLine
10
14.398942
20
72.421113
30
0
11
14.434895
21
72.424892
31
0
39
0
210
0
220
0
230
1
0
LINE
5
17B
100
AcDbEntity
8
1
62
256
6
ByLayer
370
18
48
1
60
0
100
AcDbLine
10
13.90487
20
70.87608
30
0
11
14.530277
21
70.941813
31
0
39
0
210
0
220
0
230
1
0
LINE
5
17C
100
AcDbEntity
8
1
62
256
6
ByLayer
370
18
48
1
60
0
100
AcDbLine
10
13.930804
20
70.627429
30
0
11
14.55641
21
70.693183
31
0
39
0
210
0
220
0
230
1
0
LINE
5
17D
100
AcDbEntity
8
1
62
256
6
ByLayer
370
18
48
1
60
0
100
AcDbLine
10
-10.922126
20
-32.013329
30
0
11
-10.903972
21
-31.891104
31
0
39
0
210
0
220
0
230
1
0
LINE
5
17E
100
AcDbEntity
8
1
62
256
6
ByLayer
370
18
48
1
60
0
100
AcDbLine
10
-12.522929
20
-32.603669
30
0
11
-10.922126
21
-32.013329
31
0
39
0
210
0
220
0
230
1
0
LINE
5
17F
100
AcDbEntity
8
1
62
256
6
ByLayer
370
18
48
1
60
0
100
AcDbLine
10
-12.522929
20
-32.603669
30
0
11
-12.522929
21
-31.701914
31
0
39
0
210
0
220
0
230
1
0
LINE
5
180
100
AcDbEntity
8
1
62
256
6
ByLayer
370
18
48
1
60
0
100
AcDbLine
10
-12.522929
20
-31.701914
30
0
11
-12.758911
21
-31.539986
31
0
39
0
210
0
220
0
230
1
0
LINE
5
181
100
AcDbEntity
8
1
62
256
6
ByLayer
370
18
48
1
60
0
100
AcDbLine
10
-10.922126
20
-32.013329
30
0
11
-10.922126
21
-31.88218
31
0
39
0
210
0
220
0
230
1
0
LINE
5
182
100
AcDbEntity
8
1
62
256
6
ByLayer
370
18
48
1
60
0
100
AcDbLine
10
-12.099254
20
-31.545672
30
0
11
-12.522929
21
-31.701914
31
0
39
0
210
0
220
0
230
1
0
LINE
5
183
100
AcDbEntity
8
1
62
256
6
ByLayer
370
18
48
1
60
0
100
AcDbLine
10
-13.728512
20
-31.776414
30
0
11
-12.522929
21
-32.603669
31
0
39
0
210
0
220
0
230
1
0
LINE
5
184
100
AcDbEntity
8
1
62
256
6
ByLayer
370
18
48
1
60
0
100
AcDbLine
10
14.177122
20
-37.929681
30
0
11
14.321671
21
-37.03822
31
0
39
0
210
0
220
0
230
1
0
LINE
5
185
100
AcDbEntity
8
1
62
256
6
ByLayer
370
18
48
1
60
0
100
AcDbLine
10
24.86442
20
-39.285542
30
0
11
25.079758
21
-37.32883
31
0
39
0
210
0
220
0
230
1
0
LINE
5
186
100
AcDbEntity
8
1
62
256
6
ByLayer
370
18
48
1
60
0
100
AcDbLine
10
24.954625
20
-39.296708
30
0
11
25.132046
21
-37.657317
31
0
39
0
210
0
220
0
230
1
0
LINE
5
187
100
AcDbEntity
8
1
62
256
6
ByLayer
370
18
48
1
60
0
100
AcDbLine
10
25.003238
20
-39.302513
30
0
11
25.160849
21
-37.819187
31
0
39
0
210
0
220
0
230
1
0
LINE
5
188
100
AcDbEntity
8
1
62
256
6
ByLayer
370
18
48
1
60
0
100
AcDbLine
10
25.162206
20
-39.320541
30
0
11
25.258486
21
-38.386165
31
0
39
0
210
0
220
0
230
1
0
LINE
5
189
100
AcDbEntity
8
1
62
256
6
ByLayer
370
18
48
1
60
0
100
AcDbLine
10
25.274878
20
-39.327004
30
0
11
25.327144
21
-38.423924
31
0
39
0
210
0
220
0
230
1
0
LINE
5
18A
100
AcDbEntity
8
1
62
256
6
ByLayer
370
18
48
1
60
0
100
AcDbLine
10
24.41171
20
-35.653123
30
0
11
24.484319
21
-35.120592
31
0
39
0
210
0
220
0
230
1
0
LINE
5
18B
100
AcDbEntity
8
1
62
256
6
ByLayer
370
18
48
1
60
0
100
AcDbLine
10
24.978134
20
-36.145571
30
0
11
25.045832
21
-36.933815
31
0
39
0
210
0
220
0
230
1
0
LINE
5
18C
100
AcDbEntity
8
1
62
256
6
ByLayer
370
18
48
1
60
0
100
AcDbLine
10
25.045832
20
-36.933815
30
0
11
25.079758
21
-37.32883
31
0
39
0
210
0
220
0
230
1
0
LINE
5
18D
100
AcDbEntity
8
1
62
256
6
ByLayer
370
18
48
1
60
0
100
AcDbLine
10
25.867282
20
-36.691068
30
0
11
26.935927
21
-32.10678
31
0
39
0
210
0
220
0
230
1
0
LINE
5
18E
100
AcDbEntity
8
1
62
256
6
ByLayer
370
18
48
1
60
0
100
AcDbLine
10
25.901208
20
-37.086083
30
0
11
26.114342
21
-38.916176
31
0
39
0
210
0
220
0
230
1
0
LINE
5
18F
100
AcDbEntity
8
1
62
256
6
ByLayer
370
18
48
1
60
0
100
AcDbLine
10
25.926214
20
-37.422632
30
0
11
26.104419
21
-38.956931
31
0
39
0
210
0
220
0
230
1
0
LINE
5
190
100
AcDbEntity
8
1
62
256
6
ByLayer
370
18
48
1
60
0
100
AcDbLine
10
25.937759
20
-37.589602
30
0
11
26.098618
21
-38.978815
31
0
39
0
210
0
220
0
230
1
0
LINE
5
191
100
AcDbEntity
8
1
62
256
6
ByLayer
370
18
48
1
60
0
100
AcDbLine
10
25.976728
20
-38.173916
30
0
11
26.077628
21
-39.050024
31
0
39
0
210
0
220
0
230
1
0
LINE
5
192
100
AcDbEntity
8
1
62
256
6
ByLayer
370
18
48
1
60
0
100
AcDbLine
10
25.799584
20
-35.902823
30
0
11
26.836084
21
-31.456429
31
0
39
0
210
0
220
0
230
1
0
LINE
5
193
100
AcDbEntity
8
1
62
256
6
ByLayer
370
18
48
1
60
0
100
AcDbLine
10
26.47092
20
-31.710471
30
0
11
25.570306
21
-35.573935
31
0
39
0
210
0
220
0
230
1
0
LINE
5
194
100
AcDbEntity
8
1
62
256
6
ByLayer
370
18
48
1
60
0
100
AcDbLine
10
25.385674
20
-34.909907
30
0
11
25.271662
21
-35.398997
31
0
39
0
210
0
220
0
230
1
0
LINE
5
195
100
AcDbEntity
8
1
62
256
6
ByLayer
370
18
48
1
60
0
100
AcDbLine
10
25.271662
20
-35.398997
30
0
11
25.064421
21
-35.103671
31
0
39
0
210
0
220
0
230
1
0
LINE
5
196
100
AcDbEntity
8
1
62
256
6
ByLayer
370
18
48
1
60
0
100
AcDbLine
10
25.799584
20
-35.902823
30
0
11
25.867282
21
-36.691068
31
0
39
0
210
0
220
0
230
1
0
LINE
5
197
100
AcDbEntity
8
1
62
256
6
ByLayer
370
18
48
1
60
0
100
AcDbLine
10
25.867282
20
-36.691068
30
0
11
25.901208
21
-37.086083
31
0
39
0
210
0
220
0
230
1
0
LINE
5
198
100
AcDbEntity
8
1
62
256
6
ByLayer
370
18
48
1
60
0
100
AcDbLine
10
27.199096
20
-34.262785
30
0
11
26.114342
21
-38.916176
31
0
39
0
210
0
220
0
230
1
0
LINE
5
199
100
AcDbEntity
8
1
62
256
6
ByLayer
370
18
48
1
60
0
100
AcDbLine
10
26.049348
20
-39.09814
30
0
11
25.962256
21
-38.236241
31
0
39
0
210
0
220
0
230
1
0
LINE
5
19A
100
AcDbEntity
8
1
62
256
6
ByLayer
370
18
48
1
60
0
100
AcDbLine
10
26.935927
20
-32.10678
30
0
11
26.985961
21
-32.432692
31
0
39
0
210
0
220
0
230
1
0
LINE
5
19B
100
AcDbEntity
8
1
62
256
6
ByLayer
370
18
48
1
60
0
100
AcDbLine
10
14.579126
20
-33.826986
30
0
11
14.252388
21
-35.228632
31
0
39
0
210
0
220
0
230
1
0
LINE
5
19C
100
AcDbEntity
8
1
62
256
6
ByLayer
370
18
48
1
60
0
100
AcDbLine
10
13.571606
20
-37.336914
30
0
11
14.133634
21
-35.604422
31
0
39
0
210
0
220
0
230
1
0
LINE
5
19D
100
AcDbEntity
8
1
62
256
6
ByLayer
370
18
48
1
60
0
100
AcDbLine
10
13.562504
20
-37.377773
30
0
11
14.033581
21
-35.925225
31
0
39
0
210
0
220
0
230
1
0
LINE
5
19E
100
AcDbEntity
8
1
62
256
6
ByLayer
370
18
48
1
60
0
100
AcDbLine
10
13.558062
20
-37.399829
30
0
11
13.984458
21
-36.084556
31
0
39
0
210
0
220
0
230
1
0
LINE
5
19F
100
AcDbEntity
8
1
62
256
6
ByLayer
370
18
48
1
60
0
100
AcDbLine
10
26.836084
20
-31.456429
30
0
11
26.935927
21
-32.10678
31
0
39
0
210
0
220
0
230
1
0
LINE
5
1A0
100
AcDbEntity
8
1
62
256
6
ByLayer
370
18
48
1
60
0
100
AcDbLine
10
13.545603
20
-37.472111
30
0
11
13.814335
21
-36.642544
31
0
39
0
210
0
220
0
230
1
0
LINE
5
1A1
100
AcDbEntity
8
1
62
256
6
ByLayer
370
18
48
1
60
0
100
AcDbLine
10
13.550478
20
-37.524402
30
0
11
13.807785
21
-36.705867
31
0
39
0
210
0
220
0
230
1
0
LINE
5
1A2
100
AcDbEntity
8
1
62
256
6
ByLayer
370
18
48
1
60
0
100
AcDbLine
10
14.489359
20
-34.478748
30
0
11
14.653336
21
-33.775315
31
0
39
0
210
0
220
0
230
1
0
LINE
5
1A3
100
AcDbEntity
8
1
62
256
6
ByLayer
370
18
48
1
60
0
100
AcDbLine
10
15.634891
20
-30.877075
30
0
11
14.854524
21
-34.224706
31
0
39
0
210
0
220
0
230
1
0
LINE
5
1A4
100
AcDbEntity
8
1
62
256
6
ByLayer
370
18
48
1
60
0
100
AcDbLine
10
15.25411
20
-33.809281
30
0
11
15.179739
21
-34.128319
31
0
39
0
210
0
220
0
230
1
0
LINE
5
1A5
100
AcDbEntity
8
1
62
256
6
ByLayer
370
18
48
1
60
0
100
AcDbLine
10
15.179739
20
-34.128319
30
0
11
15.416858
21
-33.912003
31
0
39
0
210
0
220
0
230
1
0
LINE
5
1A6
100
AcDbEntity
8
1
62
256
6
ByLayer
370
18
48
1
60
0
100
AcDbLine
10
14.489359
20
-34.478748
30
0
11
14.252388
21
-35.228632
31
0
39
0
210
0
220
0
230
1
0
LINE
5
1A7
100
AcDbEntity
8
1
62
256
6
ByLayer
370
18
48
1
60
0
100
AcDbLine
10
14.252388
20
-35.228632
30
0
11
14.133634
21
-35.604422
31
0
39
0
210
0
220
0
230
1
0
LINE
5
1A8
100
AcDbEntity
8
1
62
256
6
ByLayer
370
18
48
1
60
0
100
AcDbLine
10
14.917045
20
-35.658495
30
0
11
25.045832
21
-36.933815
31
0
39
0
210
0
220
0
230
1
0
LINE
5
1A9
100
AcDbEntity
8
1
62
256
6
ByLayer
370
18
48
1
60
0
100
AcDbLine
10
14.798291
20
-36.034286
30
0
11
14.582952
21
-37.990998
31
0
39
0
210
0
220
0
230
1
0
LINE
5
1AA
100
AcDbEntity
8
1
62
256
6
ByLayer
370
18
48
1
60
0
100
AcDbLine
10
14.676163
20
-36.340812
30
0
11
14.492833
21
-37.97946
31
0
39
0
210
0
220
0
230
1
0
LINE
5
1AB
100
AcDbEntity
8
1
62
256
6
ByLayer
370
18
48
1
60
0
100
AcDbLine
10
14.613076
20
-36.491112
30
0
11
14.444364
21
-37.97304
31
0
39
0
210
0
220
0
230
1
0
LINE
5
1AC
100
AcDbEntity
8
1
62
256
6
ByLayer
370
18
48
1
60
0
100
AcDbLine
10
14.395484
20
-37.018399
30
0
11
14.286296
21
-37.951151
31
0
39
0
210
0
220
0
230
1
0
LINE
5
1AD
100
AcDbEntity
8
1
62
256
6
ByLayer
370
18
48
1
60
0
100
AcDbLine
10
15.154016
20
-34.908612
30
0
11
24.978134
21
-36.145571
31
0
39
0
210
0
220
0
230
1
0
LINE
5
1AE
100
AcDbEntity
8
1
62
256
6
ByLayer
370
18
48
1
60
0
100
AcDbLine
10
24.365514
20
-35.929965
30
0
11
15.829353
21
-34.855173
31
0
39
0
210
0
220
0
230
1
0
LINE
5
1AF
100
AcDbEntity
8
1
62
256
6
ByLayer
370
18
48
1
60
0
100
AcDbLine
10
15.87555
20
-34.578331
30
0
11
15.948159
21
-34.045801
31
0
39
0
210
0
220
0
230
1
0
LINE
5
1B0
100
AcDbEntity
8
1
62
256
6
ByLayer
370
18
48
1
60
0
100
AcDbLine
10
15.154016
20
-34.908612
30
0
11
14.917045
21
-35.658495
31
0
39
0
210
0
220
0
230
1
0
LINE
5
1B1
100
AcDbEntity
8
1
62
256
6
ByLayer
370
18
48
1
60
0
100
AcDbLine
10
14.917045
20
-35.658495
30
0
11
14.798291
21
-36.034286
31
0
39
0
210
0
220
0
230
1
0
LINE
5
1B2
100
AcDbEntity
8
1
62
256
6
ByLayer
370
18
48
1
60
0
100
AcDbLine
10
13.571606
20
-37.336914
30
0
11
13.709997
21
-36.743244
31
0
39
0
210
0
220
0
230
1
0
LINE
5
1B3
100
AcDbEntity
8
1
62
256
6
ByLayer
370
18
48
1
60
0
100
AcDbLine
10
24.86442
20
-39.285542
30
0
11
14.582952
21
-37.990998
31
0
39
0
210
0
220
0
230
1
0
LINE
5
1B4
100
AcDbEntity
8
1
62
256
6
ByLayer
370
18
48
1
60
0
100
AcDbLine
10
24.41171
20
-35.653123
30
0
11
15.87555
21
-34.578331
31
0
39
0
210
0
220
0
230
1
0
LINE
5
1B5
100
AcDbEntity
8
1
62
256
6
ByLayer
370
18
48
1
60
0
100
AcDbLine
10
27.199096
20
-34.262785
30
0
11
26.985961
21
-32.432692
31
0
39
0
210
0
220
0
230
1
0
LINE
5
1B6
100
AcDbEntity
8
1
62
256
6
ByLayer
370
18
48
1
60
0
100
AcDbLine
10
27.208198
20
-34.221926
30
0
11
27.029369
21
-32.690301
31
0
39
0
210
0
220
0
230
1
0
LINE
5
1B7
100
AcDbEntity
8
1
62
256
6
ByLayer
370
18
48
1
60
0
100
AcDbLine
10
27.21264
20
-34.199871
30
0
11
27.050609
21
-32.815681
31
0
39
0
210
0
220
0
230
1
0
LINE
5
1B8
100
AcDbEntity
8
1
62
256
6
ByLayer
370
18
48
1
60
0
100
AcDbLine
10
27.225099
20
-34.127589
30
0
11
27.122837
21
-33.257323
31
0
39
0
210
0
220
0
230
1
0
MTEXT
5
317
100
AcDbEntity
8
SK6
62
256
6
ByLayer
370
18
48
1
60
0
100
AcDbMText
10
30.75
20
89.25
30
0
210
0
220
0
230
1
1
\W0.7920;3X  R820H-AR26SSYP12
40
3
41
0
44
1.084337
50
0
71
7
72
5
7
iso_b_vert
0
MTEXT
5
31B
100
AcDbEntity
8
2
62
256
6
ByLayer
370
18
48
1
60
0
100
AcDbMText
10
45.029929
20
-15.633509
30
0
210
0
220
0
230
1
1
\W0.7708;Dc = 166.0 - 191.0
40
3
41
0
44
1.084337
50
89.9999999999996
71
7
72
5
7
iso_b_vert
0
DIMENSION
5
325
100
AcDbEntity
8
2
62
256
6
ByLayer
370
13
48
1
60
0
100
AcDbDimension
2
DimnDraft3D1
10
26
20
103.5
30
0
11
9.557895
21
103.5
31
0
70
32
71
5
72
1
41
1
210
0
220
0
230
1
3
Standard
100
AcDbAlignedDimension
13
0
23
2
33
0
14
26
24
85
34
0
50
0
100
AcDbRotatedDimension
1001
ACAD
1000
DSTYLE
1002
{
1070
   279
1070
     0
1070
   172
1070
     1
1070
   173
1070
     1
1070
   340
1005
318
1070
   271
1070
     1
1070
   272
1070
     3
1070
    77
1070
     1
1070
    73
1070
     0
1070
   171
1070
     4
1070
   274
1070
     4
1070
   177
1070
     7
1070
   176
1070
     7
1070
   178
1070
     7
1070
    41
1041
3.175
1070
   147
1041
1.5
1070
    42
1041
2.0
1070
    44
1041
2.0
1070
   140
1041
3.0
1070
   343
1005
0
1070
   344
1005
0
1002
}
0
DIMENSION
5
32F
100
AcDbEntity
8
2
62
256
6
ByLayer
370
13
48
1
60
0
100
AcDbDimension
2
DimnDraft3D2
10
27
20
83
30
0
11
32.650027
21
77.016519
31
0
70
34
71
5
72
1
41
1
210
0
220
0
230
1
3
Standard
100
AcDb2LineAngularDimension
13
27.199096
23
71.636073
33
0
14
26.114342
24
81.956814
34
0
15
26
25
83
35
0
16
34.879462
26
75.009128
36
0
40
0
0
DIMENSION
5
339
100
AcDbEntity
8
2
62
256
6
ByLayer
370
13
48
1
60
0
100
AcDbDimension
2
DimnDraft3D3
10
46.614333
20
-82.99565
30
0
11
46.614333
21
-0.432036
31
0
70
32
71
5
72
1
41
1
210
0
220
0
230
1
3
Standard
100
AcDbAlignedDimension
13
28
23
83
33
0
14
27.202084
24
-82.99565
34
0
50
90
100
AcDbRotatedDimension
1001
ACAD
1000
DSTYLE
1002
{
1070
    74
1070
     0
1070
   279
1070
     0
1070
   172
1070
     1
1070
   173
1070
     1
1070
   340
1005
318
1070
   271
1070
     1
1070
   272
1070
     3
1070
    77
1070
     1
1070
    73
1070
     0
1070
   171
1070
     4
1070
   274
1070
     4
1070
   177
1070
     7
1070
   176
1070
     7
1070
   178
1070
     7
1070
    78
1070
     8
1070
    41
1041
3.175
1070
   147
1041
1.5
1070
    42
1041
2.0
1070
    44
1041
2.0
1070
   140
1041
3.0
1070
   343
1005
0
1070
   344
1005
0
1002
}
0
ENDSEC
0
SECTION
2
OBJECTS
0
DICTIONARY
5
3a8
330
0
100
AcDbDictionary
280
0
281
1
3
ACAD_GROUP
350
3a9
3
ACAD_GROUP
350
3aa
3
ACAD_MLINESTYLE
350
3ab
0
DICTIONARY
5
3a9
330
0
100
AcDbDictionary
280
0
281
1
0
DICTIONARY
5
3aa
330
0
100
AcDbDictionary
280
0
281
1
3
_DC
350
344
3
_DC_55
350
343
3
<200931852NDI000_00>
350
345
3
<200932018MOD000_00>
350
342
0
DICTIONARY
5
3ab
330
0
100
AcDbDictionary
280
0
281
1
3
Standard
350
18
0
GROUP
5
344
330
3aa
100
AcDbGroup
300

70
0
71
1
340
31B
0
GROUP
5
343
330
3aa
100
AcDbGroup
300

70
0
71
1
340
31B
340
31B
0
GROUP
5
345
330
3aa
100
AcDbGroup
300

70
0
71
1
340
7B
340
7C
340
7D
340
7E
340
7F
340
80
340
81
340
82
340
83
340
84
340
85
340
86
340
87
340
88
340
89
340
8A
340
8B
340
8C
340
8D
340
8E
340
8F
340
90
340
91
340
92
340
93
340
94
340
95
340
96
340
97
340
98
340
99
340
9A
340
9B
340
9C
340
9D
340
9E
340
9F
340
A0
340
A1
340
A2
340
A3
340
A4
340
A5
340
A6
340
A7
340
A8
340
A9
340
AA
340
AB
340
AC
340
AD
340
AE
340
AF
340
B0
340
B1
340
B2
340
B3
340
B4
340
B5
340
B6
340
B7
340
B8
340
B9
340
BA
340
BB
340
BD
340
BE
340
BF
340
C0
340
C1
340
C2
340
C3
340
C4
340
C5
340
C6
340
C7
340
C8
340
C9
340
CA
340
CB
340
CC
340
CD
340
CE
340
CF
340
D0
340
D1
340
D2
340
D3
340
D4
340
D5
340
D6
340
D7
340
D8
340
D9
340
DA
340
DB
340
DC
340
DD
340
DE
340
DF
340
E0
340
E1
340
E2
340
E3
340
E4
340
E5
340
E6
340
E7
340
E8
340
E9
340
EA
340
EB
340
EC
340
ED
340
EE
340
EF
340
F0
340
F1
340
F2
340
F3
340
F4
340
F5
340
F6
340
F7
340
F8
340
F9
340
FA
340
FB
340
FC
340
FD
340
FE
340
FF
340
100
340
101
340
102
340
103
340
104
340
105
340
106
340
107
340
108
340
109
340
10A
340
10B
340
10C
340
10D
340
10E
340
10F
340
110
340
111
340
112
340
113
340
114
340
115
340
116
340
117
340
118
340
119
340
11A
340
11B
340
11C
340
11D
340
11E
340
11F
340
120
340
121
340
122
340
123
340
124
340
125
340
126
340
127
340
128
340
129
340
12A
340
12B
340
12C
340
12D
340
12E
340
12F
340
130
340
131
340
132
340
133
340
134
340
135
340
136
340
137
340
138
340
139
340
13A
340
13B
340
13C
340
13D
340
13E
340
13F
340
140
340
141
340
142
340
143
340
144
340
145
340
146
340
147
340
148
340
149
340
14A
340
14B
340
14C
340
14D
340
14E
340
14F
340
150
340
151
340
152
340
153
340
154
340
155
340
156
340
157
340
158
340
159
340
15A
340
15B
340
15C
340
15D
340
15E
340
15F
340
160
340
161
340
162
340
163
340
164
340
165
340
166
340
167
340
168
340
169
340
16A
340
16B
340
16C
340
16D
340
16E
340
16F
340
170
340
171
340
172
340
173
340
174
340
175
340
176
340
177
340
178
340
179
340
17A
340
17B
340
17C
340
17D
340
17E
340
17F
340
180
340
181
340
182
340
183
340
184
340
185
340
186
340
187
340
188
340
189
340
18A
340
18B
340
18C
340
18D
340
18E
340
18F
340
190
340
191
340
192
340
193
340
194
340
195
340
196
340
197
340
198
340
199
340
19A
340
19B
340
19C
340
19D
340
19E
340
19F
340
1A0
340
1A1
340
1A2
340
1A3
340
1A4
340
1A5
340
1A6
340
1A7
340
1A8
340
1A9
340
1AA
340
1AB
340
1AC
340
1AD
340
1AE
340
1AF
340
1B0
340
1B1
340
1B2
340
1B3
340
1B4
340
1B5
340
1B6
340
1B7
340
1B8
340
1BA
340
1BB
340
1BC
340
1BD
340
1BE
340
1BF
340
1C0
340
1C1
340
1C2
340
1C3
340
1C4
340
1C5
340
1C6
340
1C7
340
1C8
340
1C9
340
1CA
340
1CB
340
1CC
340
1CD
340
1CE
340
1CF
340
1D0
340
1D1
340
1D2
340
1D3
340
1D4
340
1D5
340
1D6
340
1D7
340
1D8
340
1D9
340
1DA
340
1DB
340
1DC
340
1DD
340
1DE
340
1DF
340
1E0
340
1E1
340
1E2
340
1E3
340
1E4
340
1E5
340
1E6
340
1E7
340
1E8
340
1E9
340
1EA
340
1EB
340
1EC
340
1ED
340
1EE
340
1EF
340
1F0
340
1F1
340
1F2
340
1F3
340
1F4
340
1F5
340
1F6
340
1F7
340
1F8
340
1F9
340
1FA
340
1FB
340
1FC
340
1FD
340
1FE
340
1FF
340
200
340
201
340
202
340
203
340
204
340
205
340
206
340
207
340
208
340
209
340
20A
340
20B
340
20C
340
20D
340
20E
340
20F
340
210
340
211
340
212
340
213
340
214
340
215
340
216
340
217
340
218
340
219
340
21A
340
21B
340
21C
340
21D
340
21E
340
21F
340
220
340
221
340
222
340
223
340
224
340
225
340
226
340
227
340
228
340
229
340
22A
340
22B
340
22C
340
22D
340
22E
340
22F
340
230
340
231
340
232
340
233
340
234
340
235
340
236
340
237
340
238
340
239
340
23A
340
23B
340
23C
340
23D
340
23E
340
23F
340
240
340
241
340
242
340
243
340
244
340
245
340
246
340
247
340
248
340
249
340
24A
340
24B
340
24C
340
24D
340
24E
340
24F
340
250
340
251
340
252
340
253
340
254
340
255
340
256
340
257
340
258
340
259
340
25A
340
25B
340
25C
340
25D
340
25E
340
25F
340
260
340
261
340
262
340
263
340
264
340
265
340
266
340
267
340
268
340
269
340
26A
340
26B
340
26C
340
26D
340
26E
340
26F
340
270
340
271
340
272
340
273
340
274
340
275
340
276
340
277
340
278
340
279
340
27A
340
27B
340
27C
340
27D
340
27E
340
27F
340
280
340
281
340
282
340
283
340
284
340
285
340
286
340
287
340
288
340
289
340
28A
340
28B
340
28C
340
28D
340
28E
340
28F
340
290
340
291
340
292
340
293
340
294
340
295
340
296
340
297
340
298
340
299
340
29A
340
29B
340
29C
340
29D
340
29E
340
29F
340
2A0
340
2A1
340
2A2
340
2A3
340
2A4
340
2A5
340
2A6
340
2A7
340
2A8
340
2A9
340
2AA
340
2AB
340
2AC
340
2AD
340
2AE
340
2AF
340
2B0
340
2B1
340
2B2
340
2B3
340
2B4
340
2B5
340
2B6
340
2B7
340
2B8
340
2B9
340
2BA
340
2BB
340
2BC
340
2BD
340
2BE
340
2BF
340
2C0
340
2C1
340
2C2
340
2C3
340
2C4
340
2C5
340
2C6
340
2C7
340
2C8
340
2C9
340
2CA
340
2CB
340
2CC
340
2CD
340
2CE
340
2CF
340
2D0
340
2D1
340
2D2
340
2D3
340
2D4
340
2D5
340
2D6
340
2D7
340
2D8
340
2D9
340
2DA
340
2DB
340
2DC
340
2DD
340
2DE
340
2DF
340
2E0
340
2E1
340
2E2
340
2E3
340
2E4
340
2E5
340
2E6
340
2E7
340
2E8
340
2E9
340
2EA
340
2EB
340
2EC
340
2ED
340
2EE
340
2EF
340
2F0
340
2F1
340
2F2
340
2F3
340
2F4
340
2F5
340
2F6
340
2F7
340
2F8
340
2F9
340
2FA
340
2FB
340
2FC
340
2FD
340
2FE
340
2FF
340
300
340
301
340
302
340
303
340
304
340
305
340
306
340
307
340
308
340
309
340
30A
340
30B
340
30C
340
30D
340
30E
340
30F
340
310
340
311
340
312
340
313
340
314
340
315
340
316
0
GROUP
5
342
330
3aa
100
AcDbGroup
300

70
0
71
1
340
6C
340
6E
340
70
340
72
340
74
340
76
340
78
340
79
340
7A
340
7B
340
7C
340
7D
340
7E
340
7F
340
80
340
81
340
82
340
83
340
84
340
85
340
86
340
87
340
88
340
89
340
8A
340
8B
340
8C
340
8D
340
8E
340
8F
340
90
340
91
340
92
340
93
340
94
340
95
340
96
340
97
340
98
340
99
340
9A
340
9B
340
9C
340
9D
340
9E
340
9F
340
A0
340
A1
340
A2
340
A3
340
A4
340
A5
340
A6
340
A7
340
A8
340
A9
340
AA
340
AB
340
AC
340
AD
340
AE
340
AF
340
B0
340
B1
340
B2
340
B3
340
B4
340
B5
340
B6
340
B7
340
B8
340
B9
340
BA
340
BB
340
BD
340
BE
340
BF
340
C0
340
C1
340
C2
340
C3
340
C4
340
C5
340
C6
340
C7
340
C8
340
C9
340
CA
340
CB
340
CC
340
CD
340
CE
340
CF
340
D0
340
D1
340
D2
340
D3
340
D4
340
D5
340
D6
340
D7
340
D8
340
D9
340
DA
340
DB
340
DC
340
DD
340
DE
340
DF
340
E0
340
E1
340
E2
340
E3
340
E4
340
E5
340
E6
340
E7
340
E8
340
E9
340
EA
340
EB
340
EC
340
ED
340
EE
340
EF
340
F0
340
F1
340
F2
340
F3
340
F4
340
F5
340
F6
340
F7
340
F8
340
F9
340
FA
340
FB
340
FC
340
FD
340
FE
340
FF
340
100
340
101
340
102
340
103
340
104
340
105
340
106
340
107
340
108
340
109
340
10A
340
10B
340
10C
340
10D
340
10E
340
10F
340
110
340
111
340
112
340
113
340
114
340
115
340
116
340
117
340
118
340
119
340
11A
340
11B
340
11C
340
11D
340
11E
340
11F
340
120
340
121
340
122
340
123
340
124
340
125
340
126
340
127
340
128
340
129
340
12A
340
12B
340
12C
340
12D
340
12E
340
12F
340
130
340
131
340
132
340
133
340
134
340
135
340
136
340
137
340
138
340
139
340
13A
340
13B
340
13C
340
13D
340
13E
340
13F
340
140
340
141
340
142
340
143
340
144
340
145
340
146
340
147
340
148
340
149
340
14A
340
14B
340
14C
340
14D
340
14E
340
14F
340
150
340
151
340
152
340
153
340
154
340
155
340
156
340
157
340
158
340
159
340
15A
340
15B
340
15C
340
15D
340
15E
340
15F
340
160
340
161
340
162
340
163
340
164
340
165
340
166
340
167
340
168
340
169
340
16A
340
16B
340
16C
340
16D
340
16E
340
16F
340
170
340
171
340
172
340
173
340
174
340
175
340
176
340
177
340
178
340
179
340
17A
340
17B
340
17C
340
17D
340
17E
340
17F
340
180
340
181
340
182
340
183
340
184
340
185
340
186
340
187
340
188
340
189
340
18A
340
18B
340
18C
340
18D
340
18E
340
18F
340
190
340
191
340
192
340
193
340
194
340
195
340
196
340
197
340
198
340
199
340
19A
340
19B
340
19C
340
19D
340
19E
340
19F
340
1A0
340
1A1
340
1A2
340
1A3
340
1A4
340
1A5
340
1A6
340
1A7
340
1A8
340
1A9
340
1AA
340
1AB
340
1AC
340
1AD
340
1AE
340
1AF
340
1B0
340
1B1
340
1B2
340
1B3
340
1B4
340
1B5
340
1B6
340
1B7
340
1B8
340
1B9
340
1BA
340
1BB
340
1BC
340
1BD
340
1BE
340
1BF
340
1C0
340
1C1
340
1C2
340
1C3
340
1C4
340
1C5
340
1C6
340
1C7
340
1C8
340
1C9
340
1CA
340
1CB
340
1CC
340
1CD
340
1CE
340
1CF
340
1D0
340
1D1
340
1D2
340
1D3
340
1D4
340
1D5
340
1D6
340
1D7
340
1D8
340
1D9
340
1DA
340
1DB
340
1DC
340
1DD
340
1DE
340
1DF
340
1E0
340
1E1
340
1E2
340
1E3
340
1E4
340
1E5
340
1E6
340
1E7
340
1E8
340
1E9
340
1EA
340
1EB
340
1EC
340
1ED
340
1EE
340
1EF
340
1F0
340
1F1
340
1F2
340
1F3
340
1F4
340
1F5
340
1F6
340
1F7
340
1F8
340
1F9
340
1FA
340
1FB
340
1FC
340
1FD
340
1FE
340
1FF
340
200
340
201
340
202
340
203
340
204
340
205
340
206
340
207
340
208
340
209
340
20A
340
20B
340
20C
340
20D
340
20E
340
20F
340
210
340
211
340
212
340
213
340
214
340
215
340
216
340
217
340
218
340
219
340
21A
340
21B
340
21C
340
21D
340
21E
340
21F
340
220
340
221
340
222
340
223
340
224
340
225
340
226
340
227
340
228
340
229
340
22A
340
22B
340
22C
340
22D
340
22E
340
22F
340
230
340
231
340
232
340
233
340
234
340
235
340
236
340
237
340
238
340
239
340
23A
340
23B
340
23C
340
23D
340
23E
340
23F
340
240
340
241
340
242
340
243
340
244
340
245
340
246
340
247
340
248
340
249
340
24A
340
24B
340
24C
340
24D
340
24E
340
24F
340
250
340
251
340
252
340
253
340
254
340
255
340
256
340
257
340
258
340
259
340
25A
340
25B
340
25C
340
25D
340
25E
340
25F
340
260
340
261
340
262
340
263
340
264
340
265
340
266
340
267
340
268
340
269
340
26A
340
26B
340
26C
340
26D
340
26E
340
26F
340
270
340
271
340
272
340
273
340
274
340
275
340
276
340
277
340
278
340
279
340
27A
340
27B
340
27C
340
27D
340
27E
340
27F
340
280
340
281
340
282
340
283
340
284
340
285
340
286
340
287
340
288
340
289
340
28A
340
28B
340
28C
340
28D
340
28E
340
28F
340
290
340
291
340
292
340
293
340
294
340
295
340
296
340
297
340
298
340
299
340
29A
340
29B
340
29C
340
29D
340
29E
340
29F
340
2A0
340
2A1
340
2A2
340
2A3
340
2A4
340
2A5
340
2A6
340
2A7
340
2A8
340
2A9
340
2AA
340
2AB
340
2AC
340
2AD
340
2AE
340
2AF
340
2B0
340
2B1
340
2B2
340
2B3
340
2B4
340
2B5
340
2B6
340
2B7
340
2B8
340
2B9
340
2BA
340
2BB
340
2BC
340
2BD
340
2BE
340
2BF
340
2C0
340
2C1
340
2C2
340
2C3
340
2C4
340
2C5
340
2C6
340
2C7
340
2C8
340
2C9
340
2CA
340
2CB
340
2CC
340
2CD
340
2CE
340
2CF
340
2D0
340
2D1
340
2D2
340
2D3
340
2D4
340
2D5
340
2D6
340
2D7
340
2D8
340
2D9
340
2DA
340
2DB
340
2DC
340
2DD
340
2DE
340
2DF
340
2E0
340
2E1
340
2E2
340
2E3
340
2E4
340
2E5
340
2E6
340
2E7
340
2E8
340
2E9
340
2EA
340
2EB
340
2EC
340
2ED
340
2EE
340
2EF
340
2F0
340
2F1
340
2F2
340
2F3
340
2F4
340
2F5
340
2F6
340
2F7
340
2F8
340
2F9
340
2FA
340
2FB
340
2FC
340
2FD
340
2FE
340
2FF
340
300
340
301
340
302
340
303
340
304
340
305
340
306
340
307
340
308
340
309
340
30A
340
30B
340
30C
340
30D
340
30E
340
30F
340
310
340
311
340
312
340
313
340
314
340
315
340
316
340
31B
340
31B
340
31B
340
7B
340
7C
340
7D
340
7E
340
7F
340
80
340
81
340
82
340
83
340
84
340
85
340
86
340
87
340
88
340
89
340
8A
340
8B
340
8C
340
8D
340
8E
340
8F
340
90
340
91
340
92
340
93
340
94
340
95
340
96
340
97
340
98
340
99
340
9A
340
9B
340
9C
340
9D
340
9E
340
9F
340
A0
340
A1
340
A2
340
A3
340
A4
340
A5
340
A6
340
A7
340
A8
340
A9
340
AA
340
AB
340
AC
340
AD
340
AE
340
AF
340
B0
340
B1
340
B2
340
B3
340
B4
340
B5
340
B6
340
B7
340
B8
340
B9
340
BA
340
BB
340
BD
340
BE
340
BF
340
C0
340
C1
340
C2
340
C3
340
C4
340
C5
340
C6
340
C7
340
C8
340
C9
340
CA
340
CB
340
CC
340
CD
340
CE
340
CF
340
D0
340
D1
340
D2
340
D3
340
D4
340
D5
340
D6
340
D7
340
D8
340
D9
340
DA
340
DB
340
DC
340
DD
340
DE
340
DF
340
E0
340
E1
340
E2
340
E3
340
E4
340
E5
340
E6
340
E7
340
E8
340
E9
340
EA
340
EB
340
EC
340
ED
340
EE
340
EF
340
F0
340
F1
340
F2
340
F3
340
F4
340
F5
340
F6
340
F7
340
F8
340
F9
340
FA
340
FB
340
FC
340
FD
340
FE
340
FF
340
100
340
101
340
102
340
103
340
104
340
105
340
106
340
107
340
108
340
109
340
10A
340
10B
340
10C
340
10D
340
10E
340
10F
340
110
340
111
340
112
340
113
340
114
340
115
340
116
340
117
340
118
340
119
340
11A
340
11B
340
11C
340
11D
340
11E
340
11F
340
120
340
121
340
122
340
123
340
124
340
125
340
126
340
127
340
128
340
129
340
12A
340
12B
340
12C
340
12D
340
12E
340
12F
340
130
340
131
340
132
340
133
340
134
340
135
340
136
340
137
340
138
340
139
340
13A
340
13B
340
13C
340
13D
340
13E
340
13F
340
140
340
141
340
142
340
143
340
144
340
145
340
146
340
147
340
148
340
149
340
14A
340
14B
340
14C
340
14D
340
14E
340
14F
340
150
340
151
340
152
340
153
340
154
340
155
340
156
340
157
340
158
340
159
340
15A
340
15B
340
15C
340
15D
340
15E
340
15F
340
160
340
161
340
162
340
163
340
164
340
165
340
166
340
167
340
168
340
169
340
16A
340
16B
340
16C
340
16D
340
16E
340
16F
340
170
340
171
340
172
340
173
340
174
340
175
340
176
340
177
340
178
340
179
340
17A
340
17B
340
17C
340
17D
340
17E
340
17F
340
180
340
181
340
182
340
183
340
184
340
185
340
186
340
187
340
188
340
189
340
18A
340
18B
340
18C
340
18D
340
18E
340
18F
340
190
340
191
340
192
340
193
340
194
340
195
340
196
340
197
340
198
340
199
340
19A
340
19B
340
19C
340
19D
340
19E
340
19F
340
1A0
340
1A1
340
1A2
340
1A3
340
1A4
340
1A5
340
1A6
340
1A7
340
1A8
340
1A9
340
1AA
340
1AB
340
1AC
340
1AD
340
1AE
340
1AF
340
1B0
340
1B1
340
1B2
340
1B3
340
1B4
340
1B5
340
1B6
340
1B7
340
1B8
340
1BA
340
1BB
340
1BC
340
1BD
340
1BE
340
1BF
340
1C0
340
1C1
340
1C2
340
1C3
340
1C4
340
1C5
340
1C6
340
1C7
340
1C8
340
1C9
340
1CA
340
1CB
340
1CC
340
1CD
340
1CE
340
1CF
340
1D0
340
1D1
340
1D2
340
1D3
340
1D4
340
1D5
340
1D6
340
1D7
340
1D8
340
1D9
340
1DA
340
1DB
340
1DC
340
1DD
340
1DE
340
1DF
340
1E0
340
1E1
340
1E2
340
1E3
340
1E4
340
1E5
340
1E6
340
1E7
340
1E8
340
1E9
340
1EA
340
1EB
340
1EC
340
1ED
340
1EE
340
1EF
340
1F0
340
1F1
340
1F2
340
1F3
340
1F4
340
1F5
340
1F6
340
1F7
340
1F8
340
1F9
340
1FA
340
1FB
340
1FC
340
1FD
340
1FE
340
1FF
340
200
340
201
340
202
340
203
340
204
340
205
340
206
340
207
340
208
340
209
340
20A
340
20B
340
20C
340
20D
340
20E
340
20F
340
210
340
211
340
212
340
213
340
214
340
215
340
216
340
217
340
218
340
219
340
21A
340
21B
340
21C
340
21D
340
21E
340
21F
340
220
340
221
340
222
340
223
340
224
340
225
340
226
340
227
340
228
340
229
340
22A
340
22B
340
22C
340
22D
340
22E
340
22F
340
230
340
231
340
232
340
233
340
234
340
235
340
236
340
237
340
238
340
239
340
23A
340
23B
340
23C
340
23D
340
23E
340
23F
340
240
340
241
340
242
340
243
340
244
340
245
340
246
340
247
340
248
340
249
340
24A
340
24B
340
24C
340
24D
340
24E
340
24F
340
250
340
251
340
252
340
253
340
254
340
255
340
256
340
257
340
258
340
259
340
25A
340
25B
340
25C
340
25D
340
25E
340
25F
340
260
340
261
340
262
340
263
340
264
340
265
340
266
340
267
340
268
340
269
340
26A
340
26B
340
26C
340
26D
340
26E
340
26F
340
270
340
271
340
272
340
273
340
274
340
275
340
276
340
277
340
278
340
279
340
27A
340
27B
340
27C
340
27D
340
27E
340
27F
340
280
340
281
340
282
340
283
340
284
340
285
340
286
340
287
340
288
340
289
340
28A
340
28B
340
28C
340
28D
340
28E
340
28F
340
290
340
291
340
292
340
293
340
294
340
295
340
296
340
297
340
298
340
299
340
29A
340
29B
340
29C
340
29D
340
29E
340
29F
340
2A0
340
2A1
340
2A2
340
2A3
340
2A4
340
2A5
340
2A6
340
2A7
340
2A8
340
2A9
340
2AA
340
2AB
340
2AC
340
2AD
340
2AE
340
2AF
340
2B0
340
2B1
340
2B2
340
2B3
340
2B4
340
2B5
340
2B6
340
2B7
340
2B8
340
2B9
340
2BA
340
2BB
340
2BC
340
2BD
340
2BE
340
2BF
340
2C0
340
2C1
340
2C2
340
2C3
340
2C4
340
2C5
340
2C6
340
2C7
340
2C8
340
2C9
340
2CA
340
2CB
340
2CC
340
2CD
340
2CE
340
2CF
340
2D0
340
2D1
340
2D2
340
2D3
340
2D4
340
2D5
340
2D6
340
2D7
340
2D8
340
2D9
340
2DA
340
2DB
340
2DC
340
2DD
340
2DE
340
2DF
340
2E0
340
2E1
340
2E2
340
2E3
340
2E4
340
2E5
340
2E6
340
2E7
340
2E8
340
2E9
340
2EA
340
2EB
340
2EC
340
2ED
340
2EE
340
2EF
340
2F0
340
2F1
340
2F2
340
2F3
340
2F4
340
2F5
340
2F6
340
2F7
340
2F8
340
2F9
340
2FA
340
2FB
340
2FC
340
2FD
340
2FE
340
2FF
340
300
340
301
340
302
340
303
340
304
340
305
340
306
340
307
340
308
340
309
340
30A
340
30B
340
30C
340
30D
340
30E
340
30F
340
310
340
311
340
312
340
313
340
314
340
315
340
316
340
317
340
31B
340
325
340
32F
340
339
0
MLINESTYLE
5
18
330
3ab
100
AcDbMlineStyle
2
Standard
70
0
3

62
256
51
90
52
90
71
2
49
-0.5
62
256
6
ByLayer
49
0.5
62
256
6
ByLayer
0
RASTERVARIABLES
5
396
330

100
AcDbRasterVariables
90
0
70
1
71
1
72
1
0
ENDSEC
0
EOF
