0
SECTION
2
HEADER
9
$ACADVER
1
AC1015
9
$DWGCODEPAGE
3
ANSI_1252
9
$HANDSEED
5
2ff
9
$ANGBASE
50
0
9
$ANGDIR
70
0
9
$ATTMODE
70
1
9
$AUNITS
70
0
9
$AUPREC
70
0
9
$CECOLOR
62
256
9
$CELTSCALE
40
1
9
$CELTYPE
6
ByLayer
9
$CELWEIGHT
370
18
9
$CLAYER
8
0
9
$CMLJUST
70
0
9
$CMLSCALE
40
1
9
$CMLSTYLE
2
Standard
9
$DIMSTYLE
2
Standard
9
$TEXTSIZE
40
0.2
9
$TEXTSTYLE
7
Standard
9
$LUNITS
70
2
9
$LUPREC
70
4
9
$EXTNAMES
290
1
9
$INSUNITS
70
4
9
$LTSCALE
40
1
9
$LWDISPLAY
290
1
9
$PDMODE
70
0
9
$PDSIZE
40
0
9
$PLINEGEN
70
0
0
ENDSEC
0
SECTION
2
CLASSES
0
CLASS
1
RASTERVARIABLES
2
AcDbRasterVariables
3
ISM
90
0
280
0
281
0
0
ENDSEC
0
SECTION
2
TABLES
0
TABLE
2
VPORT
5
2f5
100
AcDbSymbolTable
0
VPORT
5
1
100
AcDbSymbolTableRecord
100
AcDbViewportTableRecord
2
*Active
70
0
10
0
20
0
11
1
21
1
12
-1
22
1
13
0
23
0
14
0.5
24
0.5
15
10
25
10
16
0
26
0
36
1
17
0
27
0
37
0
0
ENDTAB
0
TABLE
2
LTYPE
5
2f6
100
AcDbSymbolTable
0
LTYPE
5
14
100
AcDbSymbolTableRecord
100
AcDbLinetypeTableRecord
70
0
2
ByBlock
3

72
65
73
0
40
0
0
LTYPE
5
15
100
AcDbSymbolTableRecord
100
AcDbLinetypeTableRecord
70
0
2
ByLayer
3

72
65
73
0
40
0
0
LTYPE
5
16
100
AcDbSymbolTableRecord
100
AcDbLinetypeTableRecord
70
0
2
CONTINUOUS
3
Solid line
72
65
73
0
40
0
0
LTYPE
5
6A
100
AcDbSymbolTableRecord
100
AcDbLinetypeTableRecord
70
0
2
CENTER
3
____ _ ____ _ ____ _ ____
72
65
73
4
40
47.5
49
22
74
0
49
-8.5
74
0
49
8.5
74
0
49
-8.5
74
0
0
LTYPE
5
6B
100
AcDbSymbolTableRecord
100
AcDbLinetypeTableRecord
70
0
2
DASHED
3
__ __ __ __ __ __ __ __ __
72
65
73
2
40
25.72
49
12.86
74
0
49
-12.86
74
0
0
ENDTAB
0
TABLE
2
LAYER
5
2f7
100
AcDbSymbolTable
0
LAYER
5
10
100
AcDbSymbolTableRecord
100
AcDbLayerTableRecord
2
0
70
0
62
7
6
CONTINUOUS
290
1
370
-3
390
0
0
LAYER
5
6D
100
AcDbSymbolTableRecord
100
AcDbLayerTableRecord
2
80
70
0
62
-6
6
CONTINUOUS
290
1
370
-3
390
0
0
LAYER
5
6F
100
AcDbSymbolTableRecord
100
AcDbLayerTableRecord
2
81
70
0
62
-3
6
CONTINUOUS
290
1
370
-3
390
0
0
LAYER
5
72
100
AcDbSymbolTableRecord
100
AcDbLayerTableRecord
2
4
70
0
62
-2
6
CENTER
290
1
370
-3
390
0
0
LAYER
5
74
100
AcDbSymbolTableRecord
100
AcDbLayerTableRecord
2
1
70
0
62
4
6
CONTINUOUS
290
1
370
-3
390
0
0
LAYER
5
236
100
AcDbSymbolTableRecord
100
AcDbLayerTableRecord
2
2
70
0
62
7
6
CONTINUOUS
290
1
370
-3
390
0
0
LAYER
5
2e0
100
AcDbSymbolTableRecord
100
AcDbLayerTableRecord
2
SK4
70
0
62
2
6
CENTER
290
1
370
-3
390
0
0
LAYER
5
2e1
100
AcDbSymbolTableRecord
100
AcDbLayerTableRecord
2
SK6
70
0
62
5
6
CONTINUOUS
290
1
370
-3
390
0
0
LAYER
5
2e2
100
AcDbSymbolTableRecord
100
AcDbLayerTableRecord
2
SK2
70
0
62
7
6
CONTINUOUS
290
1
370
-3
390
0
0
ENDTAB
0
TABLE
2
STYLE
5
2f8
100
AcDbSymbolTable
0
STYLE
5
11
100
AcDbSymbolTableRecord
100
AcDbTextStyleTableRecord
2
Standard
3
txt
70
0
71
0
40
0
41
1
42
0
50
0
0
STYLE
5
231
100
AcDbSymbolTableRecord
100
AcDbTextStyleTableRecord
2
iso_b_vert
3
simplex.shx
70
0
71
0
40
0
41
1
42
0
50
0
0
STYLE
5
232
100
AcDbSymbolTableRecord
100
AcDbTextStyleTableRecord
2
DWGDirectTextStyle
3
simplex
70
0
71
0
40
0
41
1
42
0
50
0
0
ENDTAB
0
TABLE
2
DIMSTYLE
5
2f9
100
AcDbSymbolTable
100
AcDbDimStyleTable
0
DIMSTYLE
105
27
100
AcDbSymbolTableRecord
100
AcDbDimStyleTableRecord
2
Standard
70
0
3
<>
41
0.18
42
0.0625
44
0.18
140
0.18
147
0.09
73
0
74
0
77
1
271
2
275
0
278
52
280
0
340
11
0
ENDTAB
0
TABLE
2
VIEW
5
2fa
100
AcDbSymbolTable
0
ENDTAB
0
TABLE
2
UCS
5
2fb
100
AcDbSymbolTable
0
ENDTAB
0
TABLE
2
APPID
5
2fc
100
AcDbSymbolTable
0
APPID
5
12
100
AcDbSymbolTableRecord
100
AcDbRegAppTableRecord
2
ACAD
70
0
0
ENDTAB
0
TABLE
2
BLOCK_RECORD
5
2fd
100
AcDbSymbolTable
0
BLOCK_RECORD
5
1F
100
AcDbSymbolTableRecord
100
AcDbBlockTableRecord
2
*Model_Space
340
0
70
0
0
BLOCK_RECORD
5
1B
100
AcDbSymbolTableRecord
100
AcDbBlockTableRecord
2
*Paper_Space
340
0
70
0
0
BLOCK_RECORD
5
23
100
AcDbSymbolTableRecord
100
AcDbBlockTableRecord
2
*Paper_Space0
340
0
70
0
0
BLOCK_RECORD
5
234
100
AcDbSymbolTableRecord
100
AcDbBlockTableRecord
2
DimnDraft3D1
340
0
70
0
0
BLOCK_RECORD
5
244
100
AcDbSymbolTableRecord
100
AcDbBlockTableRecord
2
_CLOSED
340
0
70
0
0
BLOCK_RECORD
5
24B
100
AcDbSymbolTableRecord
100
AcDbBlockTableRecord
2
DimnDraft3D2
340
0
70
0
0
BLOCK_RECORD
5
25B
100
AcDbSymbolTableRecord
100
AcDbBlockTableRecord
2
DimnDraft3D3
340
0
70
0
0
BLOCK_RECORD
5
26A
100
AcDbSymbolTableRecord
100
AcDbBlockTableRecord
2
DimnDraft3D4
340
0
70
0
0
BLOCK_RECORD
5
278
100
AcDbSymbolTableRecord
100
AcDbBlockTableRecord
2
DimnDraft3D5
340
0
70
0
0
ENDTAB
0
ENDSEC
0
SECTION
2
BLOCKS
0
BLOCK
5
20
100
AcDbEntity
8
0
100
AcDbBlockBegin
2
*Model_Space
70
0
10
0
20
0
30
0
3
*Model_Space
0
ENDBLK
5
21
100
AcDbEntity
8
0
100
AcDbBlockEnd
0
BLOCK
5
1C
100
AcDbEntity
8
0
100
AcDbBlockBegin
2
*Paper_Space
70
0
10
0
20
0
30
0
3
*Paper_Space
0
ENDBLK
5
1D
100
AcDbEntity
8
0
100
AcDbBlockEnd
0
BLOCK
5
24
100
AcDbEntity
8
0
100
AcDbBlockBegin
2
*Paper_Space0
70
0
10
0
20
0
30
0
3
*Paper_Space0
0
ENDBLK
5
25
100
AcDbEntity
8
0
100
AcDbBlockEnd
0
BLOCK
5
241
100
AcDbEntity
8
0
100
AcDbBlockBegin
2
DimnDraft3D1
70
0
10
0
20
0
30
0
3
DimnDraft3D1
0
MTEXT
5
235
100
AcDbEntity
8
2
62
256
6
ByLayer
370
18
48
1
60
0
100
AcDbMText
10
62.978125
20
2.932895
30
0
210
0
220
0
230
1
1
\W0.8247;52
40
4.5
41
0
44
1.084337
50
90
71
7
72
5
7
iso_b_vert
0
MTEXT
5
237
100
AcDbEntity
8
2
62
256
6
ByLayer
370
18
48
1
60
0
100
AcDbMText
10
62.646875
20
-5.648551
30
0
210
0
220
0
230
1
1
%%c
40
3.175
41
0
44
1.084337
50
90
71
7
72
5
7
iso_b_vert
0
LINE
5
238
100
AcDbEntity
8
2
62
256
6
ByLayer
370
13
48
1
60
0
100
AcDbLine
10
41.5875
20
-26
30
0
11
68.071875
21
-26
31
0
39
0
210
0
220
0
230
1
0
LINE
5
239
100
AcDbEntity
8
2
62
256
6
ByLayer
370
13
48
1
60
0
100
AcDbLine
10
41.5875
20
26
30
0
11
68.071875
21
26
31
0
39
0
210
0
220
0
230
1
0
LINE
5
23A
100
AcDbEntity
8
2
62
256
6
ByLayer
370
13
48
1
60
0
100
AcDbLine
10
64.896875
20
-26
30
0
11
64.896875
21
26
31
0
39
0
210
0
220
0
230
1
0
LINE
5
23B
100
AcDbEntity
8
2
62
256
6
ByLayer
370
13
48
1
60
0
100
AcDbLine
10
64.896875
20
-26
30
0
11
64.478878
21
-22.825002
31
0
39
0
210
0
220
0
230
1
0
LINE
5
23C
100
AcDbEntity
8
2
62
256
6
ByLayer
370
13
48
1
60
0
100
AcDbLine
10
64.896875
20
-26
30
0
11
65.314872
21
-22.824998
31
0
39
0
210
0
220
0
230
1
0
LINE
5
23D
100
AcDbEntity
8
2
62
256
6
ByLayer
370
13
48
1
60
0
100
AcDbLine
10
64.478878
20
-22.825002
30
0
11
65.314872
21
-22.824998
31
0
39
0
210
0
220
0
230
1
0
LINE
5
23E
100
AcDbEntity
8
2
62
256
6
ByLayer
370
13
48
1
60
0
100
AcDbLine
10
64.896875
20
26
30
0
11
65.314872
21
22.825002
31
0
39
0
210
0
220
0
230
1
0
LINE
5
23F
100
AcDbEntity
8
2
62
256
6
ByLayer
370
13
48
1
60
0
100
AcDbLine
10
64.896875
20
26
30
0
11
64.478878
21
22.824998
31
0
39
0
210
0
220
0
230
1
0
LINE
5
240
100
AcDbEntity
8
2
62
256
6
ByLayer
370
13
48
1
60
0
100
AcDbLine
10
65.314872
20
22.825002
30
0
11
64.478878
21
22.824998
31
0
39
0
210
0
220
0
230
1
0
ENDBLK
5
242
100
AcDbEntity
8
0
100
AcDbBlockEnd
0
BLOCK
5
245
100
AcDbEntity
8
0
100
AcDbBlockBegin
2
_CLOSED
70
0
10
0
20
0
30
0
3
_CLOSED
0
LINE
5
247
100
AcDbEntity
8
0
62
256
6
ByLayer
370
-2
48
1
60
0
100
AcDbLine
10
-1
20
0.166667
30
0
11
0
21
0
31
0
39
0
210
0
220
0
230
1
0
LINE
5
248
100
AcDbEntity
8
0
62
256
6
ByLayer
370
-2
48
1
60
0
100
AcDbLine
10
0
20
0
30
0
11
-1
21
-0.166667
31
0
39
0
210
0
220
0
230
1
0
LINE
5
249
100
AcDbEntity
8
0
62
256
6
ByLayer
370
-2
48
1
60
0
100
AcDbLine
10
-1
20
0.166667
30
0
11
-1
21
-0.166667
31
0
39
0
210
0
220
0
230
1
0
LINE
5
24A
100
AcDbEntity
8
0
62
256
6
ByLayer
370
-2
48
1
60
0
100
AcDbLine
10
0
20
0
30
0
11
-1
21
0
31
0
39
0
210
0
220
0
230
1
0
ENDBLK
5
246
100
AcDbEntity
8
0
100
AcDbBlockEnd
0
BLOCK
5
258
100
AcDbEntity
8
0
100
AcDbBlockBegin
2
DimnDraft3D2
70
0
10
0
20
0
30
0
3
DimnDraft3D2
0
MTEXT
5
24C
100
AcDbEntity
8
SK2
62
256
6
ByLayer
370
18
48
1
60
0
100
AcDbMText
10
-17.021875
20
3.35625
30
0
210
0
220
0
230
1
1
\W0.8574;41
40
4.5
41
0
44
1.084337
50
90
71
7
72
5
7
iso_b_vert
0
MTEXT
5
24E
100
AcDbEntity
8
SK2
62
256
6
ByLayer
370
18
48
1
60
0
100
AcDbMText
10
-17.353125
20
-5.225195
30
0
210
0
220
0
230
1
1
%%c
40
3.175
41
0
44
1.084337
50
90
71
7
72
5
7
iso_b_vert
0
LINE
5
24F
100
AcDbEntity
8
SK2
62
256
6
ByLayer
370
13
48
1
60
0
100
AcDbLine
10
-1.5875
20
20.5
30
0
11
-18.278125
21
20.5
31
0
39
0
210
0
220
0
230
1
0
LINE
5
250
100
AcDbEntity
8
SK2
62
256
6
ByLayer
370
13
48
1
60
0
100
AcDbLine
10
-1.5875
20
-20.5
30
0
11
-18.278125
21
-20.5
31
0
39
0
210
0
220
0
230
1
0
LINE
5
251
100
AcDbEntity
8
SK2
62
256
6
ByLayer
370
13
48
1
60
0
100
AcDbLine
10
-15.103125
20
20.5
30
0
11
-15.103125
21
-20.5
31
0
39
0
210
0
220
0
230
1
0
LINE
5
252
100
AcDbEntity
8
SK2
62
256
6
ByLayer
370
13
48
1
60
0
100
AcDbLine
10
-15.103125
20
20.5
30
0
11
-14.685128
21
17.325002
31
0
39
0
210
0
220
0
230
1
0
LINE
5
253
100
AcDbEntity
8
SK2
62
256
6
ByLayer
370
13
48
1
60
0
100
AcDbLine
10
-15.103125
20
20.5
30
0
11
-15.521122
21
17.324998
31
0
39
0
210
0
220
0
230
1
0
LINE
5
254
100
AcDbEntity
8
SK2
62
256
6
ByLayer
370
13
48
1
60
0
100
AcDbLine
10
-14.685128
20
17.325002
30
0
11
-15.521122
21
17.324998
31
0
39
0
210
0
220
0
230
1
0
LINE
5
255
100
AcDbEntity
8
SK2
62
256
6
ByLayer
370
13
48
1
60
0
100
AcDbLine
10
-15.103125
20
-20.5
30
0
11
-15.521122
21
-17.325002
31
0
39
0
210
0
220
0
230
1
0
LINE
5
256
100
AcDbEntity
8
SK2
62
256
6
ByLayer
370
13
48
1
60
0
100
AcDbLine
10
-15.103125
20
-20.5
30
0
11
-14.685128
21
-17.324998
31
0
39
0
210
0
220
0
230
1
0
LINE
5
257
100
AcDbEntity
8
SK2
62
256
6
ByLayer
370
13
48
1
60
0
100
AcDbLine
10
-15.521122
20
-17.325002
30
0
11
-14.685128
21
-17.324998
31
0
39
0
210
0
220
0
230
1
0
ENDBLK
5
259
100
AcDbEntity
8
0
100
AcDbBlockEnd
0
BLOCK
5
267
100
AcDbEntity
8
0
100
AcDbBlockBegin
2
DimnDraft3D3
70
0
10
0
20
0
30
0
3
DimnDraft3D3
0
MTEXT
5
25C
100
AcDbEntity
8
SK2
62
256
6
ByLayer
370
18
48
1
60
0
100
AcDbMText
10
-7.021875
20
2.932895
30
0
210
0
220
0
230
1
1
\W0.8247;22
40
4.5
41
0
44
1.084337
50
90
71
7
72
5
7
iso_b_vert
0
MTEXT
5
25D
100
AcDbEntity
8
SK2
62
256
6
ByLayer
370
18
48
1
60
0
100
AcDbMText
10
-7.353125
20
-5.648551
30
0
210
0
220
0
230
1
1
%%c
40
3.175
41
0
44
1.084337
50
90
71
7
72
5
7
iso_b_vert
0
LINE
5
25E
100
AcDbEntity
8
SK2
62
256
6
ByLayer
370
13
48
1
60
0
100
AcDbLine
10
-1.5875
20
11
30
0
11
-8.278125
21
11
31
0
39
0
210
0
220
0
230
1
0
LINE
5
25F
100
AcDbEntity
8
SK2
62
256
6
ByLayer
370
13
48
1
60
0
100
AcDbLine
10
-1.5875
20
-11
30
0
11
-8.278125
21
-11
31
0
39
0
210
0
220
0
230
1
0
LINE
5
260
100
AcDbEntity
8
SK2
62
256
6
ByLayer
370
13
48
1
60
0
100
AcDbLine
10
-5.103125
20
22.25
30
0
11
-5.103125
21
-22.25
31
0
39
0
210
0
220
0
230
1
0
LINE
5
261
100
AcDbEntity
8
SK2
62
256
6
ByLayer
370
13
48
1
60
0
100
AcDbLine
10
-5.103125
20
11
30
0
11
-5.521122
21
14.174998
31
0
39
0
210
0
220
0
230
1
0
LINE
5
262
100
AcDbEntity
8
SK2
62
256
6
ByLayer
370
13
48
1
60
0
100
AcDbLine
10
-5.103125
20
11
30
0
11
-4.685128
21
14.175002
31
0
39
0
210
0
220
0
230
1
0
LINE
5
263
100
AcDbEntity
8
SK2
62
256
6
ByLayer
370
13
48
1
60
0
100
AcDbLine
10
-5.521122
20
14.174998
30
0
11
-4.685128
21
14.175002
31
0
39
0
210
0
220
0
230
1
0
LINE
5
264
100
AcDbEntity
8
SK2
62
256
6
ByLayer
370
13
48
1
60
0
100
AcDbLine
10
-5.103125
20
-11
30
0
11
-4.685128
21
-14.174998
31
0
39
0
210
0
220
0
230
1
0
LINE
5
265
100
AcDbEntity
8
SK2
62
256
6
ByLayer
370
13
48
1
60
0
100
AcDbLine
10
-5.103125
20
-11
30
0
11
-5.521122
21
-14.175002
31
0
39
0
210
0
220
0
230
1
0
LINE
5
266
100
AcDbEntity
8
SK2
62
256
6
ByLayer
370
13
48
1
60
0
100
AcDbLine
10
-4.685128
20
-14.174998
30
0
11
-5.521122
21
-14.175002
31
0
39
0
210
0
220
0
230
1
0
ENDBLK
5
268
100
AcDbEntity
8
0
100
AcDbBlockEnd
0
BLOCK
5
275
100
AcDbEntity
8
0
100
AcDbBlockBegin
2
DimnDraft3D4
70
0
10
0
20
0
30
0
3
DimnDraft3D4
0
MTEXT
5
26B
100
AcDbEntity
8
SK2
62
256
6
ByLayer
370
18
48
1
60
0
100
AcDbMText
10
17.8625
20
52.625
30
0
210
0
220
0
230
1
1
\W0.9046;40
40
4.5
41
0
44
1.084337
50
0
71
7
72
5
7
iso_b_vert
0
LINE
5
26C
100
AcDbEntity
8
SK2
62
256
6
ByLayer
370
13
48
1
60
0
100
AcDbLine
10
0
20
12.5875
30
0
11
0
21
54.675
31
0
39
0
210
0
220
0
230
1
0
LINE
5
26D
100
AcDbEntity
8
SK2
62
256
6
ByLayer
370
13
48
1
60
0
100
AcDbLine
10
40
20
27.5875
30
0
11
40
21
54.675
31
0
39
0
210
0
220
0
230
1
0
LINE
5
26E
100
AcDbEntity
8
SK2
62
256
6
ByLayer
370
13
48
1
60
0
100
AcDbLine
10
0
20
51.5
30
0
11
40
21
51.5
31
0
39
0
210
0
220
0
230
1
0
LINE
5
26F
100
AcDbEntity
8
SK2
62
256
6
ByLayer
370
13
48
1
60
0
100
AcDbLine
10
0
20
51.5
30
0
11
3.174998
21
51.917997
31
0
39
0
210
0
220
0
230
1
0
LINE
5
270
100
AcDbEntity
8
SK2
62
256
6
ByLayer
370
13
48
1
60
0
100
AcDbLine
10
0
20
51.5
30
0
11
3.175002
21
51.082003
31
0
39
0
210
0
220
0
230
1
0
LINE
5
271
100
AcDbEntity
8
SK2
62
256
6
ByLayer
370
13
48
1
60
0
100
AcDbLine
10
3.174998
20
51.917997
30
0
11
3.175002
21
51.082003
31
0
39
0
210
0
220
0
230
1
0
LINE
5
272
100
AcDbEntity
8
SK2
62
256
6
ByLayer
370
13
48
1
60
0
100
AcDbLine
10
40
20
51.5
30
0
11
36.825002
21
51.082003
31
0
39
0
210
0
220
0
230
1
0
LINE
5
273
100
AcDbEntity
8
SK2
62
256
6
ByLayer
370
13
48
1
60
0
100
AcDbLine
10
40
20
51.5
30
0
11
36.824998
21
51.917997
31
0
39
0
210
0
220
0
230
1
0
LINE
5
274
100
AcDbEntity
8
SK2
62
256
6
ByLayer
370
13
48
1
60
0
100
AcDbLine
10
36.825002
20
51.082003
30
0
11
36.824998
21
51.917997
31
0
39
0
210
0
220
0
230
1
0
ENDBLK
5
276
100
AcDbEntity
8
0
100
AcDbBlockEnd
0
BLOCK
5
283
100
AcDbEntity
8
0
100
AcDbBlockBegin
2
DimnDraft3D5
70
0
10
0
20
0
30
0
3
DimnDraft3D5
0
MTEXT
5
279
100
AcDbEntity
8
SK2
62
256
6
ByLayer
370
18
48
1
60
0
100
AcDbMText
10
37.153947
20
32.625
30
0
210
0
220
0
230
1
1
\W0.7142;6
40
4.5
41
0
44
1.084337
50
0
71
7
72
5
7
iso_b_vert
0
LINE
5
27A
100
AcDbEntity
8
SK2
62
256
6
ByLayer
370
13
48
1
60
0
100
AcDbLine
10
34
20
27.5875
30
0
11
34
21
34.675
31
0
39
0
210
0
220
0
230
1
0
LINE
5
27B
100
AcDbEntity
8
SK2
62
256
6
ByLayer
370
13
48
1
60
0
100
AcDbLine
10
40
20
27.5875
30
0
11
40
21
34.675
31
0
39
0
210
0
220
0
230
1
0
LINE
5
27C
100
AcDbEntity
8
SK2
62
256
6
ByLayer
370
13
48
1
60
0
100
AcDbLine
10
22.75
20
31.5
30
0
11
51.25
21
31.5
31
0
39
0
210
0
220
0
230
1
0
LINE
5
27D
100
AcDbEntity
8
SK2
62
256
6
ByLayer
370
13
48
1
60
0
100
AcDbLine
10
34
20
31.5
30
0
11
30.825002
21
31.082003
31
0
39
0
210
0
220
0
230
1
0
LINE
5
27E
100
AcDbEntity
8
SK2
62
256
6
ByLayer
370
13
48
1
60
0
100
AcDbLine
10
34
20
31.5
30
0
11
30.824998
21
31.917997
31
0
39
0
210
0
220
0
230
1
0
LINE
5
27F
100
AcDbEntity
8
SK2
62
256
6
ByLayer
370
13
48
1
60
0
100
AcDbLine
10
30.825002
20
31.082003
30
0
11
30.824998
21
31.917997
31
0
39
0
210
0
220
0
230
1
0
LINE
5
280
100
AcDbEntity
8
SK2
62
256
6
ByLayer
370
13
48
1
60
0
100
AcDbLine
10
40
20
31.5
30
0
11
43.174998
21
31.917997
31
0
39
0
210
0
220
0
230
1
0
LINE
5
281
100
AcDbEntity
8
SK2
62
256
6
ByLayer
370
13
48
1
60
0
100
AcDbLine
10
40
20
31.5
30
0
11
43.175002
21
31.082003
31
0
39
0
210
0
220
0
230
1
0
LINE
5
282
100
AcDbEntity
8
SK2
62
256
6
ByLayer
370
13
48
1
60
0
100
AcDbLine
10
43.174998
20
31.917997
30
0
11
43.175002
21
31.082003
31
0
39
0
210
0
220
0
230
1
0
ENDBLK
5
284
100
AcDbEntity
8
0
100
AcDbBlockEnd
0
ENDSEC
0
SECTION
2
ENTITIES
0
ARC
5
104
100
AcDbEntity
8
1
62
256
6
ByLayer
370
18
48
1
60
0
100
AcDbCircle
39
0
10
19.188566
20
21.075415
30
0
40
2
210
0
220
0
230
1
100
AcDbArc
50
117.531815
51
159.136287
0
ARC
5
105
100
AcDbEntity
8
1
62
256
6
ByLayer
370
18
48
1
60
0
100
AcDbCircle
39
0
10
19.188566
20
-21.075415
30
0
40
2
210
0
220
0
230
1
100
AcDbArc
50
200.863713
51
242.468437
0
ARC
5
106
100
AcDbEntity
8
1
62
256
6
ByLayer
370
18
48
1
60
0
100
AcDbCircle
39
0
10
-15.450845
20
22.5
30
0
40
2
210
0
220
0
230
-1
100
AcDbArc
50
200.863713
51
270
0
ARC
5
107
100
AcDbEntity
8
1
62
256
6
ByLayer
370
18
48
1
60
0
100
AcDbCircle
39
0
10
-15.450845
20
-22.5
30
0
40
2
210
0
220
0
230
-1
100
AcDbArc
50
90
51
159.136287
0
ARC
5
108
100
AcDbEntity
8
1
62
256
6
ByLayer
370
18
48
1
60
0
100
AcDbCircle
39
0
10
0.5
20
20
30
0
40
0.5
210
0
220
0
230
1
100
AcDbArc
50
90
51
180
0
ARC
5
109
100
AcDbEntity
8
1
62
256
6
ByLayer
370
18
48
1
60
0
100
AcDbCircle
39
0
10
0.5
20
-20
30
0
40
0.5
210
0
220
0
230
1
100
AcDbArc
50
180
51
270
0
ELLIPSE
5
10A
100
AcDbEntity
8
1
62
256
6
ByLayer
370
18
48
1
60
0
100
AcDbEllipse
10
33.85641
20
5.531676
30
0
11
-3.26093067926534
21
0.399519865958548
31
0
210
0
220
0
230
1
40
0.230484
41
3.05446298673496
42
-3.07739787839848
0
ELLIPSE
5
10B
100
AcDbEntity
8
1
62
256
6
ByLayer
370
18
48
1
60
0
100
AcDbEllipse
10
34.351117
20
-0.164681
30
0
11
2.09696011011465
21
-0.112952629840829
31
0
210
0
220
0
230
1
40
0.388529
41
1.16929309741044
42
2.57554844650397
0
ELLIPSE
5
10C
100
AcDbEntity
8
1
62
256
6
ByLayer
370
18
48
1
60
0
100
AcDbEllipse
10
34.351117
20
-0.164681
30
0
11
2.09696011011465
21
-0.112952629840829
31
0
210
0
220
0
230
1
40
0.388529
41
0
42
1.16566074895734
0
ELLIPSE
5
10D
100
AcDbEntity
8
1
62
256
6
ByLayer
370
18
48
1
60
0
100
AcDbEllipse
10
34.351117
20
-0.164681
30
0
11
-1.69753913675948
21
0.0914378432044802
31
0
210
0
220
0
230
1
40
0.388529
41
1.16566087342656
42
-2.03100758439667
0
ELLIPSE
5
10E
100
AcDbEntity
8
1
62
256
6
ByLayer
370
18
48
1
60
0
100
AcDbEllipse
10
34.351117
20
-0.164681
30
0
11
-1.69753913675948
21
0.0914378432044802
31
0
210
0
220
0
230
1
40
0.388529
41
-2.03100822909126
42
-0.320509624062056
0
ELLIPSE
5
10F
100
AcDbEntity
8
1
62
256
6
ByLayer
370
18
48
1
60
0
100
AcDbEllipse
10
25.009126
20
-11.414573
30
0
11
0.114338389460974
21
-2.99782033028924
31
0
210
0
220
0
230
1
40
0.276584
41
-2.04119463845095
42
-1.32616314429468
0
ELLIPSE
5
110
100
AcDbEntity
8
1
62
256
6
ByLayer
370
18
48
1
60
0
100
AcDbEllipse
10
34.027257
20
-9.499305
30
0
11
-6.34715369389193
21
0.610378617989667
31
0
210
0
220
0
230
1
40
0.421022
41
-1.87608692132956
42
-1.455247370519
0
ELLIPSE
5
111
100
AcDbEntity
8
1
62
256
6
ByLayer
370
18
48
1
60
0
100
AcDbEllipse
10
34.027257
20
-9.499305
30
0
11
-6.34715369389193
21
0.610378617989667
31
0
210
0
220
0
230
1
40
0.421022
41
-1.11084644871529
42
-0.621895393362159
0
ELLIPSE
5
112
100
AcDbEntity
8
1
62
256
6
ByLayer
370
18
48
1
60
0
100
AcDbEllipse
10
34.071002
20
-9.04441
30
0
11
-6.47015136803175
21
0.622206778134844
31
0
210
0
220
0
230
1
40
0.421022
41
-1.02525070894433
42
-0.652026786855974
0
ELLIPSE
5
113
100
AcDbEntity
8
1
62
256
6
ByLayer
370
18
48
1
60
0
100
AcDbEllipse
10
34.071002
20
10.907247
30
0
11
-6.4635180508985
21
0.687702265307689
31
0
210
0
220
0
230
1
40
0.57141
41
0.226763529041813
42
1.98602259081854
0
ELLIPSE
5
114
100
AcDbEntity
8
1
62
256
6
ByLayer
370
18
48
1
60
0
100
AcDbEllipse
10
34.027257
20
10.496098
30
0
11
-6.34064647621645
21
0.674629034973162
31
0
210
0
220
0
230
1
40
0.57141
41
-0.284248734662915
42
1.97727462026279
0
ELLIPSE
5
115
100
AcDbEntity
8
1
62
256
6
ByLayer
370
18
48
1
60
0
100
AcDbEllipse
10
31.388958
20
13.554244
30
0
11
3.59583737297287
21
-1.75212830213189
31
0
210
0
220
0
230
1
40
0.189709
41
-2.95220155402384
42
-2.16374938901332
0
ELLIPSE
5
116
100
AcDbEntity
8
1
62
256
6
ByLayer
370
18
48
1
60
0
100
AcDbEllipse
10
29.817985
20
13.838454
30
0
11
0.685607762593491
21
1.04519950051248
31
0
210
0
220
0
230
1
40
0.548665
41
1.79970366077845
42
2.2453972185246
0
ELLIPSE
5
117
100
AcDbEntity
8
1
62
256
6
ByLayer
370
18
48
1
60
0
100
AcDbEllipse
10
34.150861
20
15.197243
30
0
11
1.6967187199885
21
-0.105572653848366
31
0
210
0
220
0
230
1
40
0.602567
41
0
42
0.359778875292002
0
ELLIPSE
5
118
100
AcDbEntity
8
1
62
256
6
ByLayer
370
18
48
1
60
0
100
AcDbEllipse
10
34.150861
20
15.197243
30
0
11
1.6967187199885
21
-0.105572653848366
31
0
210
0
220
0
230
1
40
0.602567
41
2.70016685264566
42
0
0
ELLIPSE
5
119
100
AcDbEntity
8
1
62
256
6
ByLayer
370
18
48
1
60
0
100
AcDbEllipse
10
31.431965
20
13.642508
30
0
11
-3.59583737297287
21
1.75212830213189
31
0
210
0
220
0
230
1
40
0.189709
41
0.148942105360108
42
0.977843264576471
0
ELLIPSE
5
11A
100
AcDbEntity
8
1
62
256
6
ByLayer
370
18
48
1
60
0
100
AcDbEllipse
10
34.351117
20
-18.580364
30
0
11
1.94908619978033
21
-0.781705178328666
31
0
210
0
220
0
230
1
40
0.991097
41
0.0410555467283695
42
0.384521592625455
0
ELLIPSE
5
11B
100
AcDbEntity
8
1
62
256
6
ByLayer
370
18
48
1
60
0
100
AcDbEllipse
10
34.351117
20
-18.580364
30
0
11
1.94908619978033
21
-0.781705178328666
31
0
210
0
220
0
230
1
40
0.991097
41
0.384521592625454
42
-3.141574040466
0
ELLIPSE
5
11C
100
AcDbEntity
8
1
62
256
6
ByLayer
370
18
48
1
60
0
100
AcDbEllipse
10
36.378033
20
8.822089
30
0
11
-0.963908245239563
21
0.469679449308975
31
0
210
0
220
0
230
1
40
0.189709
41
0.456542353581299
42
0.770982146864841
0
ELLIPSE
5
11D
100
AcDbEntity
8
1
62
256
6
ByLayer
370
18
48
1
60
0
100
AcDbEllipse
10
27.69245
20
28.373575
30
0
11
2.50308932209137
21
8.77093057541757
31
0
210
0
220
0
230
-1
40
0.76304
41
-2.55652583850378
42
-2.4272694222051
0
ELLIPSE
5
11E
100
AcDbEntity
8
1
62
256
6
ByLayer
370
18
48
1
60
0
100
AcDbEllipse
10
34.022659
20
20
30
0
11
4.52419577230957
21
4.52419577230976
31
0
210
0
220
0
230
1
40
0.992433
41
1.99747732334868
42
2.13491849628415
0
ELLIPSE
5
11F
100
AcDbEntity
8
1
62
256
6
ByLayer
370
18
48
1
60
0
100
AcDbEllipse
10
34.027257
20
19.995403
30
0
11
-4.5088203596497
21
-4.50882035964988
31
0
210
0
220
0
230
1
40
0.992433
41
-1.14254885659349
42
-1.00682393872595
0
ELLIPSE
5
120
100
AcDbEntity
8
1
62
256
6
ByLayer
370
18
48
1
60
0
100
AcDbEllipse
10
34.150861
20
-19.079679
30
0
11
1.57783168553646
21
-0.632808953885112
31
0
210
0
220
0
230
1
40
0.991097
41
0.160239682739856
42
0.384521282128288
0
ELLIPSE
5
121
100
AcDbEntity
8
1
62
256
6
ByLayer
370
18
48
1
60
0
100
AcDbEllipse
10
34.150861
20
-19.079679
30
0
11
1.57783168553646
21
-0.632808953885112
31
0
210
0
220
0
230
1
40
0.991097
41
0.384521874895624
42
2.98129207044975
0
ELLIPSE
5
122
100
AcDbEntity
8
1
62
256
6
ByLayer
370
18
48
1
60
0
100
AcDbEllipse
10
29.712275
20
12.075619
30
0
11
-0.416639027910852
21
1.44097603048125
31
0
210
0
220
0
230
1
40
0.704205
41
-0.687601799007656
42
1.43243125424004E-05
0
ELLIPSE
5
123
100
AcDbEntity
8
1
62
256
6
ByLayer
370
18
48
1
60
0
100
AcDbEllipse
10
37.20684
20
-11.277618
30
0
11
1.6035590492016
21
0.17061469961196
31
0
210
0
220
0
230
1
40
0.57141
41
-1.27899200364836
42
-1.11747982889507
0
ELLIPSE
5
124
100
AcDbEntity
8
1
62
256
6
ByLayer
370
18
48
1
60
0
100
AcDbEllipse
10
34.351117
20
-18.415683
30
0
11
1.6967187199885
21
0.10557265384836
31
0
210
0
220
0
230
1
40
0.602567
41
-2.52042026996999
42
-0.547794867675797
0
ELLIPSE
5
125
100
AcDbEntity
8
1
62
256
6
ByLayer
370
18
48
1
60
0
100
AcDbEllipse
10
37.20684
20
3.62784
30
0
11
1.60520473435812
21
0.154365672331334
31
0
210
0
220
0
230
1
40
0.421022
41
1.01629212996182
42
1.66083243614928
0
ELLIPSE
5
126
100
AcDbEntity
8
1
62
256
6
ByLayer
370
18
48
1
60
0
100
AcDbEllipse
10
34.150861
20
19.079679
30
0
11
1.57783168553647
21
0.632808953885104
31
0
210
0
220
0
230
1
40
0.991097
41
0.89567636475451
42
1.95301848633548
0
ELLIPSE
5
127
100
AcDbEntity
8
1
62
256
6
ByLayer
370
18
48
1
60
0
100
AcDbEllipse
10
34.382608
20
19.604427
30
0
11
-1.1458926232961
21
2.99496891907525
31
0
210
0
220
0
230
1
40
0.956214
41
0.706469141264984
42
0.742330695875482
0
ELLIPSE
5
128
100
AcDbEntity
8
1
62
256
6
ByLayer
370
18
48
1
60
0
100
AcDbEllipse
10
34.351117
20
-18.415683
30
0
11
-2.09594665410344
21
-0.130413278283264
31
0
210
0
220
0
230
1
40
0.602567
41
0.736037197495996
42
2.32342493522497
0
ELLIPSE
5
129
100
AcDbEntity
8
1
62
256
6
ByLayer
370
18
48
1
60
0
100
AcDbEllipse
10
29.988816
20
22.659179
30
0
11
-0.55334573685326
21
1.44625530323365
31
0
210
0
220
0
230
1
40
0.956214
41
-2.70215361197201
42
-2.61977137937636
0
ELLIPSE
5
12A
100
AcDbEntity
8
1
62
256
6
ByLayer
370
18
48
1
60
0
100
AcDbEllipse
10
34.442273
20
-19.880701
30
0
11
2.0019018555281
21
0.816942760684971
31
0
210
0
220
0
230
-1
40
0.66713
41
-2.20618209690671
42
-0.646990424514336
0
ELLIPSE
5
12B
100
AcDbEntity
8
1
62
256
6
ByLayer
370
18
48
1
60
0
100
AcDbEllipse
10
33.855109
20
19.603776
30
0
11
2.32678571846585
21
2.29640050238345
31
0
210
0
220
0
230
1
40
0.986438
41
-0.522910390389417
42
-0.424046122053132
0
ELLIPSE
5
12C
100
AcDbEntity
8
1
62
256
6
ByLayer
370
18
48
1
60
0
100
AcDbEllipse
10
33.85641
20
19.115792
30
0
11
-3.03152123034101
21
1.26616114624529
31
0
210
0
220
0
230
1
40
0.951696
41
-1.23715488988797
42
-0.885249854606441
0
ELLIPSE
5
12D
100
AcDbEntity
8
1
62
256
6
ByLayer
370
18
48
1
60
0
100
AcDbEllipse
10
61.070586
20
0
30
0
11
86.0655414017453
21
-6.4551716854789
31
0
210
0
220
0
230
-1
40
0.25741
41
1.94260705684958
42
1.98613435618909
0
ELLIPSE
5
12E
100
AcDbEntity
8
1
62
256
6
ByLayer
370
18
48
1
60
0
100
AcDbEllipse
10
27.69245
20
15.753743
30
0
11
7.13949729487044
21
0.404492205921456
31
0
210
0
220
0
230
-1
40
0.714765
41
1.9572082685785
42
2.68349521870337
0
ELLIPSE
5
12F
100
AcDbEntity
8
1
62
256
6
ByLayer
370
18
48
1
60
0
100
AcDbEllipse
10
50.110309
20
0
30
0
11
19.7625840596134
21
20.0624496986415
31
0
210
0
220
0
230
-1
40
0.576876
41
-2.55126548772689
42
-2.4614277909673
0
ELLIPSE
5
130
100
AcDbEntity
8
1
62
256
6
ByLayer
370
18
48
1
60
0
100
AcDbEllipse
10
61.070586
20
0
30
0
11
86.0261774402487
21
-16.8534658646616
31
0
210
0
220
0
230
-1
40
0.183221
41
-2.04131813638353
42
-1.99779083706899
0
ELLIPSE
5
131
100
AcDbEntity
8
1
62
256
6
ByLayer
370
18
48
1
60
0
100
AcDbEllipse
10
33.855109
20
5.702534
30
0
11
-3.23538433014384
21
0.468695298955829
31
0
210
0
220
0
230
1
40
0.594388
41
-2.68948243151935
42
-2.67616248433715
0
ELLIPSE
5
132
100
AcDbEntity
8
1
62
256
6
ByLayer
370
18
48
1
60
0
100
AcDbEllipse
10
33.85641
20
13.584116
30
0
11
3.23702336940374
21
0.561217180958904
31
0
210
0
220
0
230
1
40
0.721212
41
1.40170248116939
42
1.75360751645092
0
ELLIPSE
5
133
100
AcDbEntity
8
1
62
256
6
ByLayer
370
18
48
1
60
0
100
AcDbEllipse
10
50.110309
20
0
30
0
11
19.7546861585312
21
-20.0551253573947
31
0
210
0
220
0
230
-1
40
0.577759
41
2.67166605657485
42
2.76150375337861
0
ELLIPSE
5
134
100
AcDbEntity
8
1
62
256
6
ByLayer
370
18
48
1
60
0
100
AcDbEllipse
10
37.20684
20
11.277618
30
0
11
-1.6035590492016
21
0.170614699611968
31
0
210
0
220
0
230
1
40
0.57141
41
-2.02411282469474
42
-1.02846763769225
0
ELLIPSE
5
135
100
AcDbEntity
8
1
62
256
6
ByLayer
370
18
48
1
60
0
100
AcDbEllipse
10
35.576738
20
12.379642
30
0
11
2.47213819391885
21
-1.20458820771568
31
0
210
0
220
0
230
1
40
0.189709
41
-2.16374938901332
42
-1.25610450895123
0
ELLIPSE
5
136
100
AcDbEntity
8
1
62
256
6
ByLayer
370
18
48
1
60
0
100
AcDbEllipse
10
29.32285
20
-7.241003
30
0
11
0.474282317590803
21
1.91436963280596
31
0
210
0
220
0
230
1
40
0.119573
41
1.7771349870519
42
2.00260599749163
0
ELLIPSE
5
137
100
AcDbEntity
8
1
62
256
6
ByLayer
370
18
48
1
60
0
100
AcDbEllipse
10
36.153441
20
9.84099
30
0
11
-0.659610566464823
21
1.33072999378592
31
0
210
0
220
0
230
1
40
0.610293
41
1.99624193925182
42
2.81646921371556
0
ELLIPSE
5
138
100
AcDbEntity
8
1
62
256
6
ByLayer
370
18
48
1
60
0
100
AcDbEllipse
10
31.250218
20
11.066792
30
0
11
-0.416639027910852
21
1.44097603048125
31
0
210
0
220
0
230
1
40
0.704205
41
-2.25839812580255
42
-0.687601799007663
0
ELLIPSE
5
139
100
AcDbEntity
8
1
62
256
6
ByLayer
370
18
48
1
60
0
100
AcDbEllipse
10
34.136679
20
5.268141
30
0
11
-3.10722137405159
21
-0.298808187031395
31
0
210
0
220
0
230
1
40
0.421022
41
-2.71107290047892
42
-2.68424285478571
0
ELLIPSE
5
13A
100
AcDbEntity
8
1
62
256
6
ByLayer
370
18
48
1
60
0
100
AcDbEllipse
10
33.468168
20
11.560559
30
0
11
-0.685607762593491
21
-1.04519950051248
31
0
210
0
220
0
230
1
40
0.548665
41
-2.91268531960624
42
-1.34188899281134
0
ELLIPSE
5
13B
100
AcDbEntity
8
1
62
256
6
ByLayer
370
18
48
1
60
0
100
AcDbEllipse
10
50.110312
20
-3E-06
30
0
11
22.902114716565
21
-23.075416241388
31
0
210
0
220
0
230
-1
40
0.000331
41
-3.08138488771527
42
-2.99154719593245
0
ELLIPSE
5
13C
100
AcDbEntity
8
1
62
256
6
ByLayer
370
18
48
1
60
0
100
AcDbEllipse
10
37.106907
20
10.174524
30
0
11
-1.97184339417639
21
-0.0398551957950189
31
0
210
0
220
0
230
1
40
0.909915
41
0.52240489442041
42
0.747875904860142
0
ELLIPSE
5
13D
100
AcDbEntity
8
1
62
256
6
ByLayer
370
18
48
1
60
0
100
AcDbEllipse
10
33.855109
20
19.603776
30
0
11
2.32678571846585
21
2.29640050238345
31
0
210
0
220
0
230
1
40
0.986438
41
-0.405784213665968
42
-0.392464266483767
0
ELLIPSE
5
13E
100
AcDbEntity
8
1
62
256
6
ByLayer
370
18
48
1
60
0
100
AcDbEllipse
10
33.442801
20
1.165496
30
0
11
1.94723227546218
21
-0.777258680223532
31
0
210
0
220
0
230
-1
40
0.389233
41
3.10504983986075
42
-2.18346254105755
0
ELLIPSE
5
13F
100
AcDbEntity
8
1
62
256
6
ByLayer
370
18
48
1
60
0
100
AcDbEllipse
10
34.136679
20
14.052158
30
0
11
3.10403579405432
21
-0.330261698096528
31
0
210
0
220
0
230
1
40
0.57141
41
2.05106537900405
42
2.55718128530835
0
ELLIPSE
5
140
100
AcDbEntity
8
1
62
256
6
ByLayer
370
18
48
1
60
0
100
AcDbEllipse
10
31.719408
20
-26.071553
30
0
11
4.26877064892889
21
5.70112647095733
31
0
210
0
220
0
230
-1
40
0.523858
41
-0.13093134026614
42
0.26081248614749
0
ELLIPSE
5
141
100
AcDbEntity
8
1
62
256
6
ByLayer
370
18
48
1
60
0
100
AcDbEllipse
10
27.43197
20
-15.328487
30
0
11
10.1195490697639
21
-0.717875684752416
31
0
210
0
220
0
230
-1
40
0.305962
41
-2.69936305352974
42
-1.91412089461134
0
ELLIPSE
5
142
100
AcDbEntity
8
1
62
256
6
ByLayer
370
18
48
1
60
0
100
AcDbEllipse
10
34.35149
20
13.575636
30
0
11
3.00102568917888
21
-1.29662325287333
31
0
210
0
220
0
230
1
40
0.703709
41
1.42857268098703
42
1.4418926281693
0
ELLIPSE
5
143
100
AcDbEntity
8
1
62
256
6
ByLayer
370
18
48
1
60
0
100
AcDbEllipse
10
32.381351
20
-11.133393
30
0
11
4.03611853107294
21
2.30302170951238
31
0
210
0
220
0
230
-1
40
0.508326
41
-0.253824082812482
42
-0.0515201675495957
0
ELLIPSE
5
144
100
AcDbEntity
8
1
62
256
6
ByLayer
370
18
48
1
60
0
100
AcDbEllipse
10
33.442801
20
-20.62067
30
0
11
0.585336593072912
21
-3.31910642940752
31
0
210
0
220
0
230
-1
40
0.566916
41
1.98997455078258
42
2.98464747704339
0
ELLIPSE
5
145
100
AcDbEntity
8
1
62
256
6
ByLayer
370
18
48
1
60
0
100
AcDbEllipse
10
34.996133
20
11.188086
30
0
11
3.59583737297287
21
-1.75212830213189
31
0
210
0
220
0
230
1
40
0.189709
41
-2.16374938901332
42
-1.05464487799369
0
ELLIPSE
5
146
100
AcDbEntity
8
1
62
256
6
ByLayer
370
18
48
1
60
0
100
AcDbEllipse
10
34.340218
20
13.460131
30
0
11
-3.06456723210518
21
1.49325857212453
31
0
210
0
220
0
230
1
40
0.189709
41
0.245902273880648
42
1.7097842552723
0
ELLIPSE
5
147
100
AcDbEntity
8
1
62
256
6
ByLayer
370
18
48
1
60
0
100
AcDbEllipse
10
37.496235
20
11.116938
30
0
11
1.6002392229811
21
-0.7797417240949
31
0
210
0
220
0
230
1
40
0.189709
41
-2.70025587705193
42
-2.50126638545828
0
ELLIPSE
5
148
100
AcDbEntity
8
1
62
256
6
ByLayer
370
18
48
1
60
0
100
AcDbEllipse
10
28.692143
20
-6.847964
30
0
11
0.660825523833611
21
1.33012707768977
31
0
210
0
220
0
230
1
40
0.609827
41
-3.06211440067144
42
-2.24188712620753
0
ELLIPSE
5
149
100
AcDbEntity
8
1
62
256
6
ByLayer
370
18
48
1
60
0
100
AcDbEllipse
10
29.988816
20
16.320898
30
0
11
1.47885823585812
21
-0.459155991858696
31
0
210
0
220
0
230
1
40
0.387535
41
-1.58020728773528
42
-0.548613981811445
0
ELLIPSE
5
14A
100
AcDbEntity
8
1
62
256
6
ByLayer
370
18
48
1
60
0
100
AcDbEllipse
10
31.969562
20
14.745801
30
0
11
2.47213819391885
21
-1.20458820771568
31
0
210
0
220
0
230
1
40
0.189709
41
-3.07139426907518
42
-2.16374938901332
0
ELLIPSE
5
14B
100
AcDbEntity
8
1
62
256
6
ByLayer
370
18
48
1
60
0
100
AcDbEllipse
10
34.382608
20
13.995121
30
0
11
-3.0624845020174
21
0.950840367913792
31
0
210
0
220
0
230
1
40
0.387535
41
-0.363966114759895
42
0.143132940368202
0
ELLIPSE
5
14C
100
AcDbEntity
8
1
62
256
6
ByLayer
370
18
48
1
60
0
100
AcDbEllipse
10
34.35149
20
19.103581
30
0
11
-2.31787486256531
21
-2.30539436290002
31
0
210
0
220
0
230
1
40
0.91669
41
-2.74745404746064
42
-2.73413410027836
0
ELLIPSE
5
14D
100
AcDbEntity
8
1
62
256
6
ByLayer
370
18
48
1
60
0
100
AcDbEllipse
10
29.52024
20
12.020095
30
0
11
0.391943728451213
21
1.53409828422635
31
0
210
0
220
0
230
-1
40
0.775207
41
-0.183215400766249
42
-0.00057656534456238
0
ELLIPSE
5
14E
100
AcDbEntity
8
1
62
256
6
ByLayer
370
18
48
1
60
0
100
AcDbEllipse
10
29.860992
20
13.926718
30
0
11
-0.685607762593491
21
-1.04519950051248
31
0
210
0
220
0
230
1
40
0.548665
41
-2.91268531960623
42
-1.34188899281134
0
ELLIPSE
5
14F
100
AcDbEntity
8
1
62
256
6
ByLayer
370
18
48
1
60
0
100
AcDbEllipse
10
34.495974
20
2.524579
30
0
11
1.85318210742807
21
-1.17082998424544
31
0
210
0
220
0
230
-1
40
0.809031
41
0.560677954879063
42
0.724581087038753
0
ELLIPSE
5
150
100
AcDbEntity
8
1
62
256
6
ByLayer
370
18
48
1
60
0
100
AcDbEllipse
10
27.43197
20
13.305567
30
0
11
10.0990127175828
21
0.865317850429037
31
0
210
0
220
0
230
-1
40
0.786737
41
1.95972800521039
42
2.74497016412884
0
ELLIPSE
5
151
100
AcDbEntity
8
1
62
256
6
ByLayer
370
18
48
1
60
0
100
AcDbEllipse
10
28.692143
20
14.735294
30
0
11
-0.659610566464821
21
1.33072999378591
31
0
210
0
220
0
230
1
40
0.610293
41
1.85531065748378
42
2.67553793194768
0
ELLIPSE
5
152
100
AcDbEntity
8
1
62
256
6
ByLayer
370
18
48
1
60
0
100
AcDbEllipse
10
34.136679
20
19.320299
30
0
11
-2.2072733179196
21
-2.20727331791969
31
0
210
0
220
0
230
1
40
0.992433
41
-2.86540438765798
42
-2.83857434196486
0
ELLIPSE
5
153
100
AcDbEntity
8
1
62
256
6
ByLayer
370
18
48
1
60
0
100
AcDbEllipse
10
28.916735
20
13.716392
30
0
11
-0.963908245239565
21
0.469679449308976
31
0
210
0
220
0
230
1
40
0.189709
41
1.18470438226381
42
1.75078344892741
0
ELLIPSE
5
154
100
AcDbEntity
8
1
62
256
6
ByLayer
370
18
48
1
60
0
100
AcDbEllipse
10
31.058183
20
11.011268
30
0
11
0.391943726326523
21
1.53409828223946
31
0
210
0
220
0
230
-1
40
0.775207
41
0.520326523461538
42
0.702965359042257
0
ELLIPSE
5
155
100
AcDbEntity
8
1
62
256
6
ByLayer
370
18
48
1
60
0
100
AcDbEllipse
10
29.745542
20
22.424085
30
0
11
-1.14028746375637
21
-1.14028746375641
31
0
210
0
220
0
230
1
40
0.992433
41
1.86319340136138
42
2.91861271304784
0
ELLIPSE
5
156
100
AcDbEntity
8
1
62
256
6
ByLayer
370
18
48
1
60
0
100
AcDbEllipse
10
34.136679
20
14.052158
30
0
11
3.10403579405432
21
-0.330261698096528
31
0
210
0
220
0
230
1
40
0.57141
41
0.531707452044106
42
0.55853749773732
0
ELLIPSE
5
157
100
AcDbEntity
8
1
62
256
6
ByLayer
370
18
48
1
60
0
100
AcDbEllipse
10
30.820783
20
9.333779
30
0
11
-0.416639027910852
21
1.44097603048125
31
0
210
0
220
0
230
1
40
0.704205
41
-2.74604318132193
42
-2.25839812580256
0
ELLIPSE
5
158
100
AcDbEntity
8
1
62
256
6
ByLayer
370
18
48
1
60
0
100
AcDbEllipse
10
34.136679
20
14.052158
30
0
11
3.10403579405432
21
-0.330261698096528
31
0
210
0
220
0
230
1
40
0.57141
41
-0.88013356142349
42
-0.374017655119186
0
ELLIPSE
5
159
100
AcDbEntity
8
1
62
256
6
ByLayer
370
18
48
1
60
0
100
AcDbEllipse
10
37.450115
20
11.426594
30
0
11
1.47885823585814
21
-0.459155991858701
31
0
210
0
220
0
230
1
40
0.387535
41
2.41524141224319
42
-2.83635058901257
0
ELLIPSE
5
15A
100
AcDbEntity
8
1
62
256
6
ByLayer
370
18
48
1
60
0
100
AcDbEllipse
10
50.11031
20
1E-06
30
0
11
22.9021133965636
21
23.0754149112948
31
0
210
0
220
0
230
-1
40
0.000331
41
2.99154719160712
42
3.08138488600075
0
ELLIPSE
5
15B
100
AcDbEntity
8
1
62
256
6
ByLayer
370
18
48
1
60
0
100
AcDbEllipse
10
36.128533
20
21.571055
30
0
11
1.26994082834595
21
-1.27955081669311
31
0
210
0
220
0
230
1
40
0.000466
41
0.931075607644219
42
0.94875549283185
0
ELLIPSE
5
15C
100
AcDbEntity
8
1
62
256
6
ByLayer
370
18
48
1
60
0
100
AcDbEllipse
10
33.85641
20
13.584116
30
0
11
3.23702336940374
21
0.561217180958904
31
0
210
0
220
0
230
1
40
0.721212
41
-0.440335162592295
42
-0.0884301273107729
0
ELLIPSE
5
15D
100
AcDbEntity
8
1
62
256
6
ByLayer
370
18
48
1
60
0
100
AcDbEllipse
10
34.382608
20
13.995121
30
0
11
-3.0624845020174
21
0.950840367913792
31
0
210
0
220
0
230
1
40
0.387535
41
1.72349449006354
42
2.23059354519164
0
ELLIPSE
5
15E
100
AcDbEntity
8
1
62
256
6
ByLayer
370
18
48
1
60
0
100
AcDbEllipse
10
34.35149
20
13.575636
30
0
11
3.00102568917888
21
-1.29662325287333
31
0
210
0
220
0
230
1
40
0.703709
41
1.46015453655641
42
1.68678578500317
0
ELLIPSE
5
15F
100
AcDbEntity
8
1
62
256
6
ByLayer
370
18
48
1
60
0
100
AcDbEllipse
10
34.351117
20
-18.580364
30
0
11
-1.57783168553646
21
0.63280895388511
31
0
210
0
220
0
230
1
40
0.991097
41
0
42
6.28318530717959
0
ELLIPSE
5
160
100
AcDbEntity
8
1
62
256
6
ByLayer
370
18
48
1
60
0
100
AcDbEllipse
10
35.039141
20
11.276349
30
0
11
-3.59583737297287
21
1.75212830213189
31
0
210
0
220
0
230
1
40
0.189709
41
0.977843264576475
42
2.07902957532504
0
ELLIPSE
5
161
100
AcDbEntity
8
1
62
256
6
ByLayer
370
18
48
1
60
0
100
AcDbEllipse
10
33.42516
20
11.472296
30
0
11
0.685607762593491
21
1.04519950051248
31
0
210
0
220
0
230
1
40
0.548665
41
1.79970366077845
42
2.7284124276667
0
ELLIPSE
5
162
100
AcDbEntity
8
1
62
256
6
ByLayer
370
18
48
1
60
0
100
AcDbEllipse
10
31.719408
20
-3.583672
30
0
11
4.66466928108107
21
3.6396816002048
31
0
210
0
220
0
230
-1
40
0.637449
41
-0.279862851111734
42
0.111880975295769
0
ELLIPSE
5
163
100
AcDbEntity
8
1
62
256
6
ByLayer
370
18
48
1
60
0
100
AcDbEllipse
10
28.916735
20
-8.342715
30
0
11
-0.874229397833241
21
0.620838827964335
31
0
210
0
220
0
230
1
40
0.669529
41
-1.2147748967294
42
-0.648695830065804
0
ELLIPSE
5
164
100
AcDbEntity
8
1
62
256
6
ByLayer
370
18
48
1
60
0
100
AcDbEllipse
10
20
20
1E-06
30
0
11
264.760642920805
21
-2.02642976291764
31
0
210
0
220
0
230
-1
40
0.086819
41
1.54274460607616
42
1.56478007900141
0
ELLIPSE
5
165
100
AcDbEntity
8
1
62
256
6
ByLayer
370
18
48
1
60
0
100
AcDbEllipse
10
34.442273
20
-18.353077
30
0
11
1.69328445930361
21
-1.25137466228157
31
0
210
0
220
0
230
-1
40
0.95809
41
2.9715846883915
42
-1.25665265938842
0
ELLIPSE
5
166
100
AcDbEntity
8
1
62
256
6
ByLayer
370
18
48
1
60
0
100
AcDbEllipse
10
20
20
-3E-06
30
0
11
264.760650200592
21
2.02642982961295
31
0
210
0
220
0
230
-1
40
0.086819
41
-1.56478007868935
42
-1.54274460637001
0
ELLIPSE
5
167
100
AcDbEntity
8
1
62
256
6
ByLayer
370
18
48
1
60
0
100
AcDbEllipse
10
30.851361
20
-7.674941
30
0
11
-2.24213860116228
21
1.59226709228635
31
0
210
0
220
0
230
1
40
0.669529
41
-0.425516304009669
42
0.732224431222473
0
ELLIPSE
5
168
100
AcDbEntity
8
1
62
256
6
ByLayer
370
18
48
1
60
0
100
AcDbEllipse
10
34.022659
20
10.452888
30
0
11
-6.36226855213118
21
0.67692957014149
31
0
210
0
220
0
230
1
40
0.57141
41
-0.301793370025385
42
0.223543136214101
0
ELLIPSE
5
169
100
AcDbEntity
8
1
62
256
6
ByLayer
370
18
48
1
60
0
100
AcDbEllipse
10
29.745542
20
16.171922
30
0
11
-1.60355904920158
21
0.170614699611967
31
0
210
0
220
0
230
1
40
0.57141
41
2.70551536157712
42
-2.52225063391588
0
ELLIPSE
5
16A
100
AcDbEntity
8
1
62
256
6
ByLayer
370
18
48
1
60
0
100
AcDbEllipse
10
34.495974
20
-18.219181
30
0
11
0.0360227747708835
21
2.22404821964633
31
0
210
0
220
0
230
-1
40
0.935647
41
2.58668585509024
42
2.75058898721305
0
ELLIPSE
5
16B
100
AcDbEntity
8
1
62
256
6
ByLayer
370
18
48
1
60
0
100
AcDbEllipse
10
28.692143
20
21.583258
30
0
11
1.04625491926386
21
-1.0541722153755
31
0
210
0
220
0
230
1
40
0.000466
41
-2.17447675399598
42
-1.35424947953622
0
ELLIPSE
5
16C
100
AcDbEntity
8
1
62
256
6
ByLayer
370
18
48
1
60
0
100
AcDbEllipse
10
19.999998
20
4E-06
30
0
11
264.759631840959
21
-20.9415797559578
31
0
210
0
220
0
230
-1
40
0.036605
41
1.54051378708759
42
1.56254925666862
0
ELLIPSE
5
16D
100
AcDbEntity
8
1
62
256
6
ByLayer
370
18
48
1
60
0
100
AcDbEllipse
10
34.136679
20
19.320299
30
0
11
-2.2072733179196
21
-2.20727331791969
31
0
210
0
220
0
230
1
40
0.992433
41
2.83097814541817
42
2.85780819111138
0
ELLIPSE
5
16E
100
AcDbEntity
8
1
62
256
6
ByLayer
370
18
48
1
60
0
100
AcDbEllipse
10
34.136679
20
14.052158
30
0
11
3.10403579405432
21
-0.330261698096528
31
0
210
0
220
0
230
1
40
0.57141
41
1.11851022614755
42
1.14534027184067
0
ELLIPSE
5
16F
100
AcDbEntity
8
1
62
256
6
ByLayer
370
18
48
1
60
0
100
AcDbEllipse
10
25.009126
20
8.426329
30
0
11
-0.673450751662776
21
-2.92343361222465
31
0
210
0
220
0
230
1
40
0.170011
41
-2.5230460355502
42
-0.254118007957586
0
ELLIPSE
5
170
100
AcDbEntity
8
1
62
256
6
ByLayer
370
18
48
1
60
0
100
AcDbEllipse
10
33.855109
20
13.901242
30
0
11
3.24338106907003
21
0.409714885989923
31
0
210
0
220
0
230
1
40
0.39205
41
0.316731137040169
42
0.330051084222367
0
ELLIPSE
5
171
100
AcDbEntity
8
1
62
256
6
ByLayer
370
18
48
1
60
0
100
AcDbEllipse
10
61.070585
20
0
30
0
11
86.0694878364417
21
-22.3996005079261
31
0
210
0
220
0
230
-1
40
0.06441
41
1.94515012078523
42
1.98867742051028
0
ELLIPSE
5
172
100
AcDbEntity
8
1
62
256
6
ByLayer
370
18
48
1
60
0
100
AcDbEllipse
10
29.32285
20
15.280544
30
0
11
0.444500356058865
21
1.92150312028174
31
0
210
0
220
0
230
1
40
0.146979
41
-3.01828978381575
42
-2.79281877337602
0
ELLIPSE
5
173
100
AcDbEntity
8
1
62
256
6
ByLayer
370
18
48
1
60
0
100
AcDbEllipse
10
30.034937
20
16.011242
30
0
11
1.60023922298109
21
-0.779741724094895
31
0
210
0
220
0
230
1
40
0.189709
41
-1.82623239256825
42
-1.62724290097472
0
ELLIPSE
5
174
100
AcDbEntity
8
1
62
256
6
ByLayer
370
18
48
1
60
0
100
AcDbEllipse
10
19.999999
20
-3E-06
30
0
11
264.759046311896
21
-18.949270033391
31
0
210
0
220
0
230
-1
40
0.049736
41
-1.56900427610782
42
-1.54696880504568
0
ELLIPSE
5
175
100
AcDbEntity
8
1
62
256
6
ByLayer
370
18
48
1
60
0
100
AcDbEllipse
10
34.35149
20
19.103581
30
0
11
-2.31787486256531
21
-2.30539436290002
31
0
210
0
220
0
230
1
40
0.91669
41
-2.71587219189126
42
-2.48924094344454
0
ELLIPSE
5
176
100
AcDbEntity
8
1
62
256
6
ByLayer
370
18
48
1
60
0
100
AcDbEllipse
10
36.128533
20
21.571055
30
0
11
1.26994082834595
21
-1.27955081669311
31
0
210
0
220
0
230
1
40
0.000466
41
1.94663486258407
42
1.96431474776873
0
ELLIPSE
5
177
100
AcDbEntity
8
1
62
256
6
ByLayer
370
18
48
1
60
0
100
AcDbEllipse
10
32.381351
20
6.728042
30
0
11
3.9772623133294
21
-3.29951957279802
31
0
210
0
220
0
230
-1
40
0.41135
41
-0.86499191623911
42
-0.662688000979027
0
ELLIPSE
5
178
100
AcDbEntity
8
1
62
256
6
ByLayer
370
18
48
1
60
0
100
AcDbEllipse
10
33.855109
20
5.702534
30
0
11
-3.23538433014384
21
0.468695298955829
31
0
210
0
220
0
230
1
40
0.594388
41
-2.93437558835326
42
-2.70774433990652
0
ELLIPSE
5
179
100
AcDbEntity
8
1
62
256
6
ByLayer
370
18
48
1
60
0
100
AcDbEllipse
10
33.855109
20
13.901242
30
0
11
3.24338106907003
21
0.409714885989923
31
0
210
0
220
0
230
1
40
0.39205
41
0.0718379802062753
42
0.298469228653004
0
ELLIPSE
5
17A
100
AcDbEntity
8
1
62
256
6
ByLayer
370
18
48
1
60
0
100
AcDbEllipse
10
34.442273
20
1.527624
30
0
11
2.07026657738534
21
-0.555905487533275
31
0
210
0
220
0
230
-1
40
0.245596
41
-2.76134436274557
42
-0.706396403346048
0
ELLIPSE
5
17B
100
AcDbEntity
8
1
62
256
6
ByLayer
370
18
48
1
60
0
100
AcDbEllipse
10
34.136679
20
19.320299
30
0
11
-2.2072733179196
21
-2.20727331791969
31
0
210
0
220
0
230
1
40
0.992433
41
-1.93284923480148
42
-1.42673332849718
0
POINT
5
6C
100
AcDbEntity
8
80
62
256
6
ByLayer
370
18
48
1
60
0
100
AcDbPoint
10
0
20
0
30
0
39
0
210
0
220
0
230
1
50
360
0
POINT
5
6E
100
AcDbEntity
8
81
62
256
6
ByLayer
370
18
48
1
60
0
100
AcDbPoint
10
40
20
26
30
0
39
0
210
0
220
0
230
1
50
360
0
SPLINE
5
17C
100
AcDbEntity
8
1
62
256
6
ByLayer
370
18
48
1
60
0
100
AcDbSpline
70
4
71
3
72
8
73
4
40
0
40
0
40
0
40
0
40
1
40
1
40
1
40
1
41
1
10
34.3716737889683
20
5.62412131719344
30
0
41
1
10
34.4421132664985
20
5.62348311664559
30
0
41
1
10
34.5124944399865
20
5.62377525245427
30
0
41
1
10
34.582853474127
20
5.62493549055378
30
0
0
SPLINE
5
17D
100
AcDbEntity
8
1
62
256
6
ByLayer
370
18
48
1
60
0
100
AcDbSpline
70
4
71
1
72
4
73
2
40
0
40
0
40
1
40
1
41
1
10
28.0827433222267
20
12.2049729952948
30
0
41
1
10
28.0464306245613
20
12.1493986399247
30
0
0
SPLINE
5
17E
100
AcDbEntity
8
1
62
256
6
ByLayer
370
18
48
1
60
0
100
AcDbSpline
70
4
71
3
72
8
73
4
40
0
40
0
40
0
40
0
40
1
40
1
40
1
40
1
41
1
10
37.0412523855923
20
7.24202177498495
30
0
41
1
10
36.9834047853497
20
7.23521614690998
30
0
41
1
10
36.9248896956572
20
7.22790854335489
30
0
41
1
10
36.8657138661998
20
7.22010404031957
30
0
0
SPLINE
5
17F
100
AcDbEntity
8
1
62
256
6
ByLayer
370
18
48
1
60
0
100
AcDbSpline
70
4
71
3
72
27
73
23
40
0
40
0
40
0
40
0
40
0.0704304260054542
40
0.0704304260054542
40
0.140860852010908
40
0.140860852010908
40
0.281721704021817
40
0.281721704021817
40
0.352152130027273
40
0.352152130027273
40
0.42258255603273
40
0.493012982038186
40
0.493012982038186
40
0.563443408043642
40
0.563443408043642
40
0.704304260054558
40
0.704304260054558
40
0.845165112065474
40
0.845165112065474
40
0.98602596407639
40
0.98602596407639
40
1
40
1
40
1
40
1
41
1
10
28.4712120119305
20
-7.49436476594423
30
0
41
1
10
28.4377655264538
20
-7.49791991587833
30
0
41
1
10
28.404845502015
20
-7.49967900142059
30
0
41
1
10
28.3400591146398
20
-7.49934840685629
30
0
41
1
10
28.3082059923009
20
-7.4972272402261
30
0
41
1
10
28.21647075301
20
-7.48503211012118
30
0
41
1
10
28.1595857899443
20
-7.46919895558952
30
0
41
1
10
28.0807445225072
20
-7.43348895229516
30
0
41
1
10
28.0554973505517
20
-7.41950662417767
30
0
41
1
10
28.0084850698755
20
-7.3882307514298
30
0
41
1
10
27.9646099879611
20
-7.35352231553287
30
0
41
1
10
27.9268553115666
20
-7.31218988647382
30
0
41
1
10
27.8921883059956
20
-7.26756888181882
30
0
41
1
10
27.8763139660706
20
-7.24344770970859
30
0
41
1
10
27.8342303892557
20
-7.16740467372691
30
0
41
1
10
27.813496478909
20
-7.11212423891263
30
0
41
1
10
27.7859620124147
20
-6.99325321718274
30
0
41
1
10
27.7792511511869
20
-6.92885002539194
30
0
41
1
10
27.7804894322394
20
-6.79696639282977
30
0
41
1
10
27.7882000571213
20
-6.72929803407848
30
0
41
1
10
27.8043326838385
20
-6.65319591260467
30
0
41
1
10
27.8058602340213
20
-6.64630815042037
30
0
41
1
10
27.8074582108076
20
-6.63940434122489
30
0
0
SPLINE
5
180
100
AcDbEntity
8
1
62
256
6
ByLayer
370
18
48
1
60
0
100
AcDbSpline
70
4
71
3
72
14
73
10
40
0
40
0
40
0
40
0
40
0.30164415209359
40
0.30164415209359
40
0.603288304187179
40
0.603288304187179
40
0.904932456280769
40
0.904932456280769
40
1
40
1
40
1
40
1
41
1
10
19.1885663263357
20
-23.0381567314477
30
0
41
1
10
19.0521711735214
20
-23.0436718949852
30
0
41
1
10
18.9293533899689
20
-23.0355995285193
30
0
41
1
10
18.7080219166813
20
-23.0042608571797
30
0
41
1
10
18.6090664194974
20
-22.9805771624856
30
0
41
1
10
18.4415241972079
20
-22.928819285705
30
0
41
1
10
18.371636429648
20
-22.9006000069281
30
0
41
1
10
18.295913865238
20
-22.8650953332189
30
0
41
1
10
18.278966632375
20
-22.8566820287869
30
0
41
1
10
18.2632966618601
20
-22.8485118786964
30
0
0
SPLINE
5
181
100
AcDbEntity
8
1
62
256
6
ByLayer
370
18
48
1
60
0
100
AcDbSpline
70
4
71
3
72
30
73
26
40
0
40
0
40
0
40
0
40
0.0899186150615108
40
0.0899186150615108
40
0.179837230123022
40
0.179837230123022
40
0.269755845184533
40
0.269755845184533
40
0.359674460246043
40
0.359674460246043
40
0.449593075307554
40
0.449593075307554
40
0.539511690369065
40
0.539511690369065
40
0.629430305430576
40
0.629430305430576
40
0.719348920492087
40
0.719348920492087
40
0.809267535553597
40
0.809267535553597
40
0.899186150615108
40
0.899186150615108
40
0.989104765676619
40
0.989104765676619
40
1
40
1
40
1
40
1
41
1
10
30.4491353053854
20
-8.9265548859494
30
0
41
1
10
30.4020432220939
20
-8.86774741288434
30
0
41
1
10
30.3563001886556
20
-8.80632627317885
30
0
41
1
10
30.2656657607794
20
-8.67922911382979
30
0
41
1
10
30.2210898626472
20
-8.61396750183218
30
0
41
1
10
30.134325158929
20
-8.48541998314545
30
0
41
1
10
30.0917369417263
20
-8.42155589478148
30
0
41
1
10
30.0063796503346
20
-8.29593941406867
30
0
41
1
10
29.9634077598965
20
-8.23394756622523
30
0
41
1
10
29.8791204152054
20
-8.11840108886091
30
0
41
1
10
29.8373725017282
20
-8.06416747540848
30
0
41
1
10
29.7530063972516
20
-7.96361782621821
30
0
41
1
10
29.7102490761132
20
-7.91726753123351
30
0
41
1
10
29.6254316503378
20
-7.83649808199172
30
0
41
1
10
29.5829770472171
20
-7.80155157511695
30
0
41
1
10
29.4963776612547
20
-7.74271731833875
30
0
41
1
10
29.4522685910315
20
-7.7189897072839
30
0
41
1
10
29.3638024190137
20
-7.68414199592041
30
0
41
1
10
29.3190764175039
20
-7.67273861170614
30
0
41
1
10
29.2273036062175
20
-7.66193531193329
30
0
41
1
10
29.180215930948
20
-7.6626706144734
30
0
41
1
10
29.0858949324253
20
-7.67601663360182
30
0
41
1
10
29.0382668320618
20
-7.68854724051619
30
0
41
1
10
28.9840810962444
20
-7.7091461297513
30
0
41
1
10
28.9782101951615
20
-7.71146198397278
30
0
41
1
10
28.9723279274405
20
-7.71386579098149
30
0
0
SPLINE
5
182
100
AcDbEntity
8
1
62
256
6
ByLayer
370
18
48
1
60
0
100
AcDbSpline
70
4
71
3
72
12
73
8
40
0
40
0
40
0
40
0
40
0.364395198747095
40
0.364395198747095
40
0.768538725846152
40
0.768538725846152
40
1
40
1
40
1
40
1
41
1
10
29.1685571152417
20
-6.25285750168152
30
0
41
1
10
29.3139215281651
20
-6.17165006674466
30
0
41
1
10
29.458442705948
20
-6.10120020785825
30
0
41
1
10
29.7584874290322
20
-5.96803862856279
30
0
41
1
10
29.9141594467897
20
-5.90679314296301
30
0
41
1
10
30.1563174651425
20
-5.82158529351631
30
0
41
1
10
30.2439789335228
20
-5.79286294962998
30
0
41
1
10
30.330976240811
20
-5.76680631323526
30
0
0
SPLINE
5
183
100
AcDbEntity
8
1
62
256
6
ByLayer
370
18
48
1
60
0
100
AcDbSpline
70
4
71
3
72
14
73
10
40
0
40
0
40
0
40
0
40
0.225061913593972
40
0.225061913593972
40
0.450123827187945
40
0.450123827187945
40
0.900247654375902
40
0.900247654375902
40
1
40
1
40
1
40
1
41
1
10
28.4712120119305
20
13.7238584181134
30
0
41
1
10
28.4377655264539
20
13.7434719887057
30
0
41
1
10
28.404845502015
20
13.7648838117999
30
0
41
1
10
28.3400591146398
20
13.8114714946567
30
0
41
1
10
28.308205992301
20
13.8366740390726
30
0
41
1
10
28.21647075301
20
13.9162440059558
30
0
41
1
10
28.1595857899444
20
13.9750622786191
30
0
41
1
10
28.0953768889273
20
14.0541121086663
30
0
41
1
10
28.0839318103468
20
14.0687685203754
30
0
41
1
10
28.0727513350046
20
14.0836557204639
30
0
0
SPLINE
5
184
100
AcDbEntity
8
1
62
256
6
ByLayer
370
18
48
1
60
0
100
AcDbSpline
70
4
71
3
72
14
73
10
40
0
40
0
40
0
40
0
40
0.0105943300609532
40
0.0105943300609532
40
0.340396220040635
40
0.340396220040635
40
0.670198110020318
40
0.670198110020318
40
1
40
1
40
1
40
1
41
1
10
27.8010775718489
20
14.7014263190449
30
0
41
1
10
27.8006209329731
20
14.7039555318997
30
0
41
1
10
27.8001714948347
20
14.7064851123057
30
0
41
1
10
27.7859620124148
20
14.7877724977425
30
0
41
1
10
27.7792511511869
20
14.86778633364
30
0
41
1
10
27.7804894322394
20
15.0225120520925
30
0
41
1
10
27.7882000571214
20
15.0975934815367
30
0
41
1
10
27.8175533324053
20
15.2434648324383
30
0
41
1
10
27.8395013018891
20
15.3145638821095
30
0
41
1
10
27.8675585889939
20
15.3805848714959
30
0
0
SPLINE
5
185
100
AcDbEntity
8
1
62
256
6
ByLayer
370
18
48
1
60
0
100
AcDbSpline
70
4
71
3
72
26
73
22
40
0
40
0
40
0
40
0
40
0.154925243628999
40
0.154925243628999
40
0.232387865443497
40
0.232387865443497
40
0.309850487257995
40
0.309850487257995
40
0.464775730886991
40
0.464775730886991
40
0.542238352701492
40
0.542238352701492
40
0.619700974515993
40
0.619700974515993
40
0.774626218144993
40
0.774626218144993
40
0.852088839959493
40
0.852088839959493
40
0.929551461773994
40
0.929551461773994
40
1
40
1
40
1
40
1
41
1
10
37.9127321286648
20
3.9037040011807
30
0
41
1
10
37.8924101599569
20
3.79791500950552
30
0
41
1
10
37.8699793191691
20
3.69666980620775
30
0
41
1
10
37.8330189510727
20
3.55168695182195
30
0
41
1
10
37.8200746674036
20
3.50428807710102
30
0
41
1
10
37.7934017315801
20
3.41320115068567
30
0
41
1
10
37.779687313626
20
3.36952118600971
30
0
41
1
10
37.737408723043
20
3.24392867367061
30
0
41
1
10
37.7077176518818
20
3.16742207165473
30
0
41
1
10
37.6607671651304
20
3.06369150977886
30
0
41
1
10
37.6446465159676
20
3.03085905325634
30
0
41
1
10
37.6121633809889
20
2.97014198299919
30
0
41
1
10
37.595745818958
20
2.94211452296426
30
0
41
1
10
37.545955747394
20
2.86487526097915
30
0
41
1
10
37.5120485457421
20
2.82245376640114
30
0
41
1
10
37.4600327853185
20
2.77278926850653
30
0
41
1
10
37.442494727676
20
2.75860412924595
30
0
41
1
10
37.4077197796424
20
2.73548998354474
30
0
41
1
10
37.3903956465761
20
2.72646915983
30
0
41
1
10
37.3574356380879
20
2.71400275364573
30
0
41
1
10
37.3417881109393
20
2.71011413726137
30
0
41
1
10
37.3261952798029
20
2.70830713016011
30
0
0
SPLINE
5
186
100
AcDbEntity
8
1
62
256
6
ByLayer
370
18
48
1
60
0
100
AcDbSpline
70
4
71
3
72
18
73
14
40
0
40
0
40
0
40
0
40
0.138535766814225
40
0.138535766814225
40
0.277071533628451
40
0.277071533628451
40
0.415607300442676
40
0.415607300442676
40
0.554143067256901
40
0.554143067256901
40
0.831214600885353
40
0.831214600885353
40
1
40
1
40
1
40
1
41
1
10
37.00546469904
20
8.7028411542382
30
0
41
1
10
36.9979579517727
20
8.79380153521683
30
0
41
1
10
36.9938145351883
20
8.89167554567916
30
0
41
1
10
36.9925218499064
20
9.1016447698224
30
0
41
1
10
36.9954003773452
20
9.2118529648221
30
0
41
1
10
37.0078345856871
20
9.44074002413944
30
0
41
1
10
37.0173894565168
20
9.55966474260885
30
0
41
1
10
37.043088584763
20
9.80654993680679
30
0
41
1
10
37.0593742623771
20
9.9352712405788
30
0
41
1
10
37.1165687404113
20
10.3244533978064
30
0
41
1
10
37.1659023568188
20
10.5908908553638
30
0
41
1
10
37.2618856017451
20
11.0303156827464
30
0
41
1
10
37.3010785471605
20
11.1947629564422
30
0
41
1
10
37.3428894213356
20
11.3573734038357
30
0
0
SPLINE
5
187
100
AcDbEntity
8
1
62
256
6
ByLayer
370
18
48
1
60
0
100
AcDbSpline
70
4
71
3
72
18
73
14
40
0
40
0
40
0
40
0
40
0.204436153349283
40
0.204436153349283
40
0.408872306698566
40
0.408872306698566
40
0.613308460047849
40
0.613308460047849
40
0.817744613397132
40
0.817744613397132
40
0.919962690071778
40
0.919962690071778
40
1
40
1
40
1
40
1
41
1
10
37.9127321286647
20
-12.1362355572139
30
0
41
1
10
37.8923927092259
20
-12.1537543924657
30
0
41
1
10
37.8694649827603
20
-12.1614517830556
30
0
41
1
10
37.8203002482793
20
-12.1566396028136
30
0
41
1
10
37.7939166840898
20
-12.1444056403592
30
0
41
1
10
37.7373606426324
20
-12.1002155443054
30
0
41
1
10
37.7070643159299
20
-12.0679275664495
30
0
41
1
10
37.6448257910158
20
-11.9858902723008
30
0
41
1
10
37.61261403814
20
-11.93599747027
30
0
41
1
10
37.5625427346304
20
-11.8476841744558
30
0
41
1
10
37.5454755615533
20
-11.8158159803295
30
0
41
1
10
37.5150126569292
20
-11.7558588302586
30
0
41
1
10
37.5016048147176
20
-11.7284280100051
30
0
41
1
10
37.4881656799791
20
-11.6999170992218
30
0
0
SPLINE
5
188
100
AcDbEntity
8
1
62
256
6
ByLayer
370
18
48
1
60
0
100
AcDbSpline
70
4
71
3
72
8
73
4
40
0
40
0
40
0
40
0
40
1
40
1
40
1
40
1
41
1
10
36.8535446858805
20
-7.21881952994281
30
0
41
1
10
36.859201474753
20
-7.66215999489955
30
0
41
1
10
36.8719503418158
20
-8.10183617503341
30
0
41
1
10
36.8917657702228
20
-8.53786125420797
30
0
0
SPLINE
5
189
100
AcDbEntity
8
1
62
256
6
ByLayer
370
18
48
1
60
0
100
AcDbSpline
70
4
71
3
72
16
73
12
40
0
40
0
40
0
40
0
40
0.038460962627741
40
0.038460962627741
40
0.230768770102191
40
0.230768770102191
40
0.615384385051094
40
0.615384385051094
40
0.807692192525547
40
0.807692192525547
40
1
40
1
40
1
40
1
41
1
10
29.0375897783739
20
13.320614964221
30
0
41
1
10
29.0424850722015
20
13.3269514426475
30
0
41
1
10
29.0475803900864
20
13.3332145608984
30
0
41
1
10
29.0793314623722
20
13.3703331270619
30
0
41
1
10
29.1110986144209
20
13.3995979420967
30
0
41
1
10
29.2168218088669
20
13.4778330562061
30
0
41
1
10
29.3007516742033
20
13.5178725020175
30
0
41
1
10
29.4401874390591
20
13.5584885873421
30
0
41
1
10
29.489167191887
20
13.5687247882144
30
0
41
1
10
29.5880817159845
20
13.5817493413909
30
0
41
1
10
29.6383293908632
20
13.5846593030812
30
0
41
1
10
29.6889532736505
20
13.5838738180046
30
0
0
SPLINE
5
18A
100
AcDbEntity
8
1
62
256
6
ByLayer
370
18
48
1
60
0
100
AcDbSpline
70
4
71
3
72
12
73
8
40
0
40
0
40
0
40
0
40
0.426655171250734
40
0.426655171250734
40
0.853310342501468
40
0.853310342501468
40
1
40
1
40
1
40
1
41
1
10
27.7051557976568
20
-22.7095770358838
30
0
41
1
10
27.7186602595052
20
-22.6689304620632
30
0
41
1
10
27.7373722809387
20
-22.6280863822604
30
0
41
1
10
27.7850558336671
20
-22.544592699079
30
0
41
1
10
27.8142431470748
20
-22.5017309122576
30
0
41
1
10
27.8591270717203
20
-22.4433883624157
30
0
41
1
10
27.8711138874999
20
-22.4283721621302
30
0
41
1
10
27.8835972257491
20
-22.4132286986092
30
0
0
SPLINE
5
18B
100
AcDbEntity
8
1
62
256
6
ByLayer
370
18
48
1
60
0
100
AcDbSpline
70
4
71
3
72
42
73
38
40
0
40
0
40
0
40
0
40
0.0631632774071452
40
0.0631632774071452
40
0.0991954590453326
40
0.0991954590453326
40
0.13522764068352
40
0.13522764068352
40
0.207292003959894
40
0.207292003959894
40
0.243324185598082
40
0.243324185598082
40
0.279356367236269
40
0.279356367236269
40
0.351420730512645
40
0.351420730512645
40
0.387452912150832
40
0.387452912150832
40
0.42348509378902
40
0.42348509378902
40
0.495549457065393
40
0.495549457065393
40
0.531581638703579
40
0.531581638703579
40
0.567613820341766
40
0.567613820341766
40
0.639678183618138
40
0.639678183618138
40
0.71174254689451
40
0.71174254689451
40
0.783806910170883
40
0.783806910170883
40
0.855871273447255
40
0.855871273447255
40
0.927935636723628
40
0.927935636723628
40
1
40
1
40
1
40
1
41
1
10
37.7549438359931
20
12.1135598771445
30
0
41
1
10
37.7296796861785
20
12.0919689401032
30
0
41
1
10
37.7034443550029
20
12.0631171263407
30
0
41
1
10
37.6606907264913
20
12.0068239204146
30
0
41
1
10
37.6448375028692
20
11.9840861304083
30
0
41
1
10
37.6124585979771
20
11.9339684554301
30
0
41
1
10
37.5958549579448
20
11.90644831475
30
0
41
1
10
37.5455726389085
20
11.8177336682858
30
0
41
1
10
37.5116494014061
20
11.7509067077359
30
0
41
1
10
37.4601265518909
20
11.6395177231479
30
0
41
1
10
37.442845806882
20
11.6005188764326
30
0
41
1
10
37.4080638419042
20
11.5187128853303
30
0
41
1
10
37.3904782200974
20
11.4756835037696
30
0
41
1
10
37.3382639966612
20
11.3429370703205
30
0
41
1
10
37.3040435771826
20
11.2493598214008
30
0
41
1
10
37.2536206402688
20
11.1015418269348
30
0
41
1
10
37.2369656517374
20
11.0510198140228
30
0
41
1
10
37.2039826178299
20
10.9474153459446
30
0
41
1
10
37.1876118136804
20
10.8941715727614
30
0
41
1
10
37.1399688447092
20
10.733635120448
30
0
41
1
10
37.1098511906936
20
10.6246373225519
30
0
41
1
10
37.0672462825285
20
10.4581919903277
30
0
41
1
10
37.0534759465495
20
10.402215899221
30
0
41
1
10
37.0268503488704
20
10.2892409599569
30
0
41
1
10
37.0140201760685
20
10.2323170915087
30
0
41
1
10
36.9777127977839
20
10.0633892054896
30
0
41
1
10
36.9561315324724
20
9.95209023099409
30
0
41
1
10
36.9184102630478
20
9.73205774199548
30
0
41
1
10
36.9021836105089
20
9.62237347194949
30
0
41
1
10
36.8766634163892
20
9.41325755697855
30
0
41
1
10
36.8672087796186
20
9.31316596420584
30
0
41
1
10
36.8550394687724
20
9.1218816532899
30
0
41
1
10
36.8523879304628
20
9.03020077598464
30
0
41
1
10
36.8542124754777
20
8.86286963367237
30
0
41
1
10
36.8585908772937
20
8.78632270356812
30
0
41
1
10
36.8742610771602
20
8.64757248916149
30
0
41
1
10
36.8856557592781
20
8.58541412158218
30
0
41
1
10
36.9001026208774
20
8.53281924351225
30
0
0
SPLINE
5
18C
100
AcDbEntity
8
1
62
256
6
ByLayer
370
18
48
1
60
0
100
AcDbSpline
70
4
71
3
72
12
73
8
40
0
40
0
40
0
40
0
40
0.187166667470366
40
0.187166667470366
40
0.593583333735183
40
0.593583333735183
40
1
40
1
40
1
40
1
41
1
10
27.8705985390194
20
22.4168356757123
30
0
41
1
10
27.8891237322028
20
22.4083821572858
30
0
41
1
10
27.9087554617703
20
22.3999649576207
30
0
41
1
10
27.9745200517528
20
22.373406983121
30
0
41
1
10
28.0249742746718
20
22.3554211870888
30
0
41
1
10
28.1335733211599
20
22.3211047726839
30
0
41
1
10
28.1920323130133
20
22.3046342963345
30
0
41
1
10
28.254624875308
20
22.288940252888
30
0
0
SPLINE
5
18D
100
AcDbEntity
8
1
62
256
6
ByLayer
370
18
48
1
60
0
100
AcDbSpline
70
4
71
3
72
20
73
16
40
0
40
0
40
0
40
0
40
0.214264717211872
40
0.214264717211872
40
0.360514914787665
40
0.360514914787665
40
0.506765112363459
40
0.506765112363459
40
0.653015309939252
40
0.653015309939252
40
0.799265507515046
40
0.799265507515046
40
0.945515705090839
40
0.945515705090839
40
1
40
1
40
1
40
1
41
1
10
34.5301620865453
20
-20.2338253027708
30
0
41
1
10
34.455398334442
20
-20.1904009657282
30
0
41
1
10
34.3759869568222
20
-20.1498278816933
30
0
41
1
10
34.2330371005288
20
-20.0866826222643
30
0
41
1
10
34.173772700465
20
-20.0630970765365
30
0
41
1
10
34.0525882354858
20
-20.0199310245002
30
0
41
1
10
33.9903690402986
20
-20.0002683196779
30
0
41
1
10
33.8643491891951
20
-19.9653673258508
30
0
41
1
10
33.8020110145878
20
-19.9505090881028
30
0
41
1
10
33.6787523004692
20
-19.9253397594024
30
0
41
1
10
33.6174822793596
20
-19.9149848219873
30
0
41
1
10
33.498024052936
20
-19.8985415973193
30
0
41
1
10
33.4407404783088
20
-19.8925445126088
30
0
41
1
10
33.36507754281
20
-19.8866726700101
30
0
41
1
10
33.3447940610117
20
-19.8853177641529
30
0
41
1
10
33.3248213228148
20
-19.8841829736215
30
0
0
SPLINE
5
18E
100
AcDbEntity
8
1
62
256
6
ByLayer
370
18
48
1
60
0
100
AcDbSpline
70
4
71
3
72
30
73
26
40
0
40
0
40
0
40
0
40
0.0059951015297676
40
0.0059951015297676
40
0.0681204076841577
40
0.0681204076841577
40
0.130245713838548
40
0.130245713838548
40
0.254496326147328
40
0.254496326147328
40
0.378746938456108
40
0.378746938456108
40
0.440872244610498
40
0.440872244610498
40
0.502997550764888
40
0.502997550764888
40
0.627248163073666
40
0.627248163073666
40
0.689373469228056
40
0.689373469228056
40
0.751498775382445
40
0.751498775382445
40
0.875749387691223
40
0.875749387691223
40
1
40
1
40
1
40
1
41
1
10
27.1876814430611
20
-10.3366563649731
30
0
41
1
10
27.1946019835905
20
-10.3390485398878
30
0
41
1
10
27.2015444617534
20
-10.3413992390431
30
0
41
1
10
27.280673302243
20
-10.3676448481222
30
0
41
1
10
27.3555663450167
20
-10.3872500055672
30
0
41
1
10
27.5074356868359
20
-10.4177044234092
30
0
41
1
10
27.5840341003017
20
-10.4285342842728
30
0
41
1
10
27.81548794348
20
-10.448936413045
30
0
41
1
10
27.972061694778
20
-10.4465663634686
30
0
41
1
10
28.2889432990031
20
-10.4101832026094
30
0
41
1
10
28.4443602914503
20
-10.3766762206699
30
0
41
1
10
28.6736304844943
20
-10.3046927777381
30
0
41
1
10
28.749410764169
20
-10.2770510147237
30
0
41
1
10
28.8998157267366
20
-10.2144417016627
30
0
41
1
10
28.9740464363231
20
-10.1795943853911
30
0
41
1
10
29.1905064467509
20
-10.0668392006093
30
0
41
1
10
29.3279948351177
20
-9.98012571120466
30
0
41
1
10
29.5259164592655
20
-9.83572139057478
30
0
41
1
10
29.5908397318272
20
-9.78489629547863
30
0
41
1
10
29.7157742166926
20
-9.68108893361287
30
0
41
1
10
29.7759717298431
20
-9.62801044537594
30
0
41
1
10
29.9507291331878
20
-9.46646384203447
30
0
41
1
10
30.0597661969293
20
-9.35535288910765
30
0
41
1
10
30.2656966414234
20
-9.13447449346052
30
0
41
1
10
30.3600502022695
20
-9.02756223147054
30
0
41
1
10
30.4491353053853
20
-8.92655488594934
30
0
0
SPLINE
5
18F
100
AcDbEntity
8
1
62
256
6
ByLayer
370
18
48
1
60
0
100
AcDbSpline
70
4
71
3
72
8
73
4
40
0
40
0
40
0
40
0
40
1
40
1
40
1
40
1
41
1
10
36.8789398044648
20
8.21533468722609
30
0
41
1
10
36.8394571653358
20
7.16804069870341
30
0
41
1
10
36.8406426345774
20
6.10035051420888
30
0
41
1
10
36.8822464105763
20
5.01238941625169
30
0
0
SPLINE
5
190
100
AcDbEntity
8
1
62
256
6
ByLayer
370
18
48
1
60
0
100
AcDbSpline
70
4
71
3
72
16
73
12
40
0
40
0
40
0
40
0
40
0.191253882174779
40
0.191253882174779
40
0.33834630388681
40
0.33834630388681
40
0.485438725598841
40
0.485438725598841
40
0.779623569022887
40
0.779623569022887
40
1
40
1
40
1
40
1
41
1
10
29.4096294794239
20
21.3069565762138
30
0
41
1
10
29.3608958261245
20
21.3318691102299
30
0
41
1
10
29.3112097097547
20
21.3565247356852
30
0
41
1
10
29.221643457147
20
21.3997307803678
30
0
41
1
10
29.1820302321705
20
21.4184230515877
30
0
41
1
10
29.1032935663553
20
21.4547813473789
30
0
41
1
10
29.0639829776666
20
21.4725399743077
30
0
41
1
10
28.946227050962
20
21.5245942693098
30
0
41
1
10
28.8678216492299
20
21.5577363156066
30
0
41
1
10
28.7315995066284
20
21.6125812659737
30
0
41
1
10
28.6747917456241
20
21.634571909671
30
0
41
1
10
28.6194726159647
20
21.6550942424039
30
0
0
SPLINE
5
191
100
AcDbEntity
8
1
62
256
6
ByLayer
370
18
48
1
60
0
100
AcDbSpline
70
4
71
3
72
10
73
6
40
0
40
0
40
0
40
0
40
0.474910751498079
40
0.474910751498079
40
1
40
1
40
1
40
1
41
1
10
38.7420911328009
20
17.5255730744389
30
0
41
1
10
38.7955085327836
20
17.6503986637463
30
0
41
1
10
38.8430425389555
20
17.7780204714655
30
0
41
1
10
38.9306511813886
20
18.0526806949731
30
0
41
1
10
38.9693052220227
20
18.200461002038
30
0
41
1
10
39.0000000000001
20
18.3497546703491
30
0
0
SPLINE
5
192
100
AcDbEntity
8
1
62
256
6
ByLayer
370
18
48
1
60
0
100
AcDbSpline
70
4
71
3
72
22
73
18
40
0
40
0
40
0
40
0
40
0.125
40
0.125
40
0.25
40
0.25
40
0.375
40
0.375
40
0.5
40
0.5
40
0.625
40
0.625
40
0.75
40
0.75
40
0.875
40
0.875
40
1
40
1
40
1
40
1
41
1
10
28.9139520714701
20
21.3587845073683
30
0
41
1
10
28.8592529077025
20
21.4138874375628
30
0
41
1
10
28.8045997805423
20
21.4689404462355
30
0
41
1
10
28.6995046032055
20
21.5747971734794
30
0
41
1
10
28.6485747881693
20
21.6260922854377
30
0
41
1
10
28.5500682561832
20
21.7252973305386
30
0
41
1
10
28.5024889903343
20
21.7732098369669
30
0
41
1
10
28.4110141197439
20
21.8653159453286
30
0
41
1
10
28.3677012270397
20
21.9089227220967
30
0
41
1
10
28.2882808616502
20
21.9888712742725
30
0
41
1
10
28.2518004862299
20
22.0255885377112
30
0
41
1
10
28.1856093570906
20
22.0921964208795
30
0
41
1
10
28.1557028147094
20
22.1222838353044
30
0
41
1
10
28.1052955041043
20
22.1729789724443
30
0
41
1
10
28.0845111757038
20
22.1938721800698
30
0
41
1
10
28.0518570681539
20
22.226673376327
30
0
41
1
10
28.0399471729319
20
22.2386212305215
30
0
41
1
10
28.0330509716323
20
22.2455174318211
30
0
0
SPLINE
5
193
100
AcDbEntity
8
1
62
256
6
ByLayer
370
18
48
1
60
0
100
AcDbSpline
70
4
71
3
72
16
73
12
40
0
40
0
40
0
40
0
40
0.250000000000015
40
0.250000000000015
40
0.500000000000031
40
0.500000000000031
40
0.625000000000028
40
0.625000000000028
40
0.750000000000025
40
0.750000000000025
40
1
40
1
40
1
40
1
41
1
10
34.052307351246
20
-6.73220386243685
30
0
41
1
10
34.1288417044199
20
-6.7078850986573
30
0
41
1
10
34.2078142869483
20
-6.69224027748299
30
0
41
1
10
34.3668686512615
20
-6.67847841989524
30
0
41
1
10
34.4483389125335
20
-6.68047271603103
30
0
41
1
10
34.5659852510291
20
-6.69651883657932
30
0
41
1
10
34.6046661629143
20
-6.70400514142332
30
0
41
1
10
34.6809646649938
20
-6.72326828145594
30
0
41
1
10
34.7188242676672
20
-6.73514410741322
30
0
41
1
10
34.8287350592599
20
-6.77671633465579
30
0
41
1
10
34.8969638937938
20
-6.81203208349237
30
0
41
1
10
34.960315762257
20
-6.85491962118704
30
0
0
SPLINE
5
194
100
AcDbEntity
8
1
62
256
6
ByLayer
370
18
48
1
60
0
100
AcDbSpline
70
4
71
3
72
19
73
15
40
0
40
0
40
0
40
0
40
0.125
40
0.125
40
0.25
40
0.25
40
0.500000000000001
40
0.500000000000001
40
0.625000000000001
40
0.625000000000001
40
0.750000000000001
40
0.875
40
0.875
40
1
40
1
40
1
40
1
41
1
10
34.0021823900736
20
15.979846298385
30
0
41
1
10
34.0397157322639
20
15.9850131849669
30
0
41
1
10
34.0779410877892
20
15.9887166090759
30
0
41
1
10
34.1557953209323
20
15.993157763534
30
0
41
1
10
34.1956993867871
20
15.9938822276585
30
0
41
1
10
34.3150020152771
20
15.9914526097839
30
0
41
1
10
34.3941697967232
20
15.9838703230477
30
0
41
1
10
34.5123724504854
20
15.9635710525505
30
0
41
1
10
34.5518500359331
20
15.9552406697754
30
0
41
1
10
34.6285649421153
20
15.93596108375
30
0
41
1
10
34.703509378729
20
15.9140086668605
30
0
41
1
10
34.7749658224724
20
15.8867931866184
30
0
41
1
10
34.8446285715694
20
15.8568722116288
30
0
41
1
10
34.8784695615058
20
15.840569813703
30
0
41
1
10
34.9104970291924
20
15.8233513718085
30
0
0
SPLINE
5
195
100
AcDbEntity
8
1
62
256
6
ByLayer
370
18
48
1
60
0
100
AcDbSpline
70
4
71
3
72
12
73
8
40
0
40
0
40
0
40
0
40
0.499999999999998
40
0.499999999999998
40
0.749999999999999
40
0.749999999999999
40
1
40
1
40
1
40
1
41
1
10
30.8676663340207
20
21.5842778835714
30
0
41
1
10
30.484265466695
20
21.4533005829549
30
0
41
1
10
30.0716910516615
20
21.3631142743463
30
0
41
1
10
29.4046552058609
20
21.2951928981243
30
0
41
1
10
29.1783697322867
20
21.2844450817365
30
0
41
1
10
28.7209549976144
20
21.2870294402586
30
0
41
1
10
28.489335201829
20
21.3003048884421
30
0
41
1
10
28.2546248753056
20
21.3262964124329
30
0
0
SPLINE
5
196
100
AcDbEntity
8
1
62
256
6
ByLayer
370
18
48
1
60
0
100
AcDbSpline
70
4
71
3
72
10
73
6
40
0
40
0
40
0
40
0
40
0.5
40
0.5
40
1
40
1
40
1
40
1
41
1
10
39.0000000000001
20
5.54619150062496
30
0
41
1
10
38.9355620669402
20
5.76753146028113
30
0
41
1
10
38.8379516394873
20
5.98419732293311
30
0
41
1
10
38.5800453165376
20
6.4086964909105
30
0
41
1
10
38.4197307843665
20
6.61652717027656
30
0
41
1
10
38.2256298638461
20
6.81959725326729
30
0
0
SPLINE
5
197
100
AcDbEntity
8
1
62
256
6
ByLayer
370
18
48
1
60
0
100
AcDbSpline
70
4
71
3
72
14
73
10
40
0
40
0
40
0
40
0
40
0.250000000000005
40
0.250000000000005
40
0.375000000000008
40
0.375000000000008
40
0.50000000000001
40
0.50000000000001
40
1
40
1
40
1
40
1
41
1
10
38.2256298638461
20
-22.1918162147903
30
0
41
1
10
38.1478665110481
20
-22.3137717059053
30
0
41
1
10
38.0643385677211
20
-22.431562294852
30
0
41
1
10
37.9299800221822
20
-22.6016754886063
30
0
41
1
10
37.8836869228603
20
-22.6572880650965
30
0
41
1
10
37.7879467020383
20
-22.7662246774657
30
0
41
1
10
37.7382741702223
20
-22.8197761728065
30
0
41
1
10
37.4843080832105
20
-23.0788121324441
30
0
41
1
10
37.2684460354038
20
-23.25379736732
30
0
41
1
10
37.0412523855923
20
-23.3990825498061
30
0
0
SPLINE
5
198
100
AcDbEntity
8
1
62
256
6
ByLayer
370
18
48
1
60
0
100
AcDbSpline
70
4
71
3
72
18
73
14
40
0
40
0
40
0
40
0
40
0.124999999999998
40
0.124999999999998
40
0.249999999999996
40
0.249999999999996
40
0.499999999999995
40
0.499999999999995
40
0.624999999999996
40
0.624999999999996
40
0.749999999999997
40
0.749999999999997
40
1
40
1
40
1
40
1
41
1
10
30.8676663340206
20
-19.5023270902084
30
0
41
1
10
30.7710736915043
20
-19.425753305519
30
0
41
1
10
30.672257935771
20
-19.3519207475684
30
0
41
1
10
30.4720453301764
20
-19.2110743842734
30
0
41
1
10
30.3703803747076
20
-19.1438451599751
30
0
41
1
10
30.0607242165961
20
-18.9517093052435
30
0
41
1
10
29.8480959167846
20
-18.8363049140529
30
0
41
1
10
29.5195054906855
20
-18.6829687518347
30
0
41
1
10
29.4083615324996
20
-18.6351636949242
30
0
41
1
10
29.1827067624461
20
-18.5464528648609
30
0
41
1
10
29.0677660743999
20
-18.5054131748517
30
0
41
1
10
28.7207717020686
20
-18.3942593140055
30
0
41
1
10
28.4882840324406
20
-18.3364687288924
30
0
41
1
10
28.2546248753079
20
-18.2951788672278
30
0
0
SPLINE
5
199
100
AcDbEntity
8
1
62
256
6
ByLayer
370
18
48
1
60
0
100
AcDbSpline
70
4
71
3
72
26
73
22
40
0
40
0
40
0
40
0
40
0.124999999999997
40
0.124999999999997
40
0.249999999999995
40
0.249999999999995
40
0.374999999999993
40
0.374999999999993
40
0.437499999999993
40
0.437499999999993
40
0.499999999999993
40
0.499999999999993
40
0.624999999999996
40
0.624999999999996
40
0.75
40
0.75
40
0.812500000000001
40
0.812500000000001
40
0.875000000000003
40
0.875000000000003
40
1
40
1
40
1
40
1
41
1
10
27.9043408502215
20
15.4652519152518
30
0
41
1
10
27.9358843019977
20
15.5364171991186
30
0
41
1
10
27.9741124177735
20
15.6023679646346
30
0
41
1
10
28.0636595377973
20
15.7242376505604
30
0
41
1
10
28.1155135683957
20
15.7804092366717
30
0
41
1
10
28.2281391494201
20
15.8779546614452
30
0
41
1
10
28.2892733477202
20
15.920011016179
30
0
41
1
10
28.3882923276072
20
15.9730208360964
30
0
41
1
10
28.4226770440357
20
15.9890412962973
30
0
41
1
10
28.4925282467466
20
16.0170251611032
30
0
41
1
10
28.5281283695628
20
16.0290785998912
30
0
41
1
10
28.6369116805526
20
16.0595682166448
30
0
41
1
10
28.7120598704651
20
16.0723877142945
30
0
41
1
10
28.8678216492298
20
16.0824801611157
30
0
41
1
10
28.946227050962
20
16.0795829216292
30
0
41
1
10
29.0639829776665
20
16.0637707110975
30
0
41
1
10
29.1032935663553
20
16.0565772103566
30
0
41
1
10
29.1820302321705
20
16.038259242056
30
0
41
1
10
29.221643457147
20
16.0270606717269
30
0
41
1
10
29.3384573562355
20
15.9880645334102
30
0
41
1
10
29.4141040876863
20
15.9548924512908
30
0
41
1
10
29.4874841567794
20
15.9145271521375
30
0
0
SPLINE
5
19A
100
AcDbEntity
8
1
62
256
6
ByLayer
370
18
48
1
60
0
100
AcDbSpline
70
4
71
3
72
12
73
8
40
0
40
0
40
0
40
0
40
0.25
40
0.25
40
0.5
40
0.5
40
1
40
1
40
1
40
1
41
1
10
18.3799213696255
20
9.43812370161842
30
0
41
1
10
18.4365500859211
20
9.3330511681273
30
0
41
1
10
18.4955686688591
20
9.22669482104828
30
0
41
1
10
18.6191849320379
20
9.01124836627787
30
0
41
1
10
18.683845364986
20
8.90207957954911
30
0
41
1
10
18.8851284648265
20
8.57425976459919
30
0
41
1
10
19.0296186536629
20
8.3539816653203
30
0
41
1
10
19.1885663263358
20
8.1319456628564
30
0
0
SPLINE
5
19B
100
AcDbEntity
8
1
62
256
6
ByLayer
370
18
48
1
60
0
100
AcDbSpline
70
4
71
3
72
10
73
6
40
0
40
0
40
0
40
0
40
0.5
40
0.5
40
1
40
1
40
1
40
1
41
1
10
37.9967618587394
20
4.28367881649771
30
0
41
1
10
37.9820177556227
20
4.21947595386587
30
0
41
1
10
37.9670546370572
20
4.15561473819847
30
0
41
1
10
37.9382806114196
20
4.02832581208861
30
0
41
1
10
37.9245218990725
20
3.9650773819518
30
0
41
1
10
37.9127321286647
20
3.9037040011807
30
0
0
SPLINE
5
19C
100
AcDbEntity
8
1
62
256
6
ByLayer
370
18
48
1
60
0
100
AcDbSpline
70
4
71
3
72
20
73
16
40
0
40
0
40
0
40
0
40
0.25
40
0.25
40
0.375
40
0.375
40
0.4375
40
0.4375
40
0.5
40
0.5
40
0.75
40
0.75
40
0.875
40
0.875
40
1
40
1
40
1
40
1
41
1
10
24.8228503914756
20
21.6895692715424
30
0
41
1
10
24.2410731920418
20
21.7482581591055
30
0
41
1
10
23.6853855869906
20
21.8231773927575
30
0
41
1
10
22.8880776328832
20
21.9517146617812
30
0
41
1
10
22.628385996666
20
21.9972584244198
30
0
41
1
10
22.2479036426909
20
22.0685746118482
30
0
41
1
10
22.1225871656852
20
22.0928462480166
30
0
41
1
10
21.8749862017905
20
22.1422052771599
30
0
41
1
10
21.7525175147935
20
22.1673341804045
30
0
41
1
10
21.1535191796673
20
22.2933105749753
30
0
41
1
10
20.7125075576099
20
22.3959495152229
30
0
41
1
10
20.1026022568008
20
22.5430380171817
30
0
41
1
10
19.9079408748797
20
22.5909283869695
30
0
41
1
10
19.5353040882233
20
22.6828317294884
30
0
41
1
10
19.3571333710049
20
22.7268904474811
30
0
41
1
10
19.1885663263358
20
22.7678357283721
30
0
0
SPLINE
5
19D
100
AcDbEntity
8
1
62
256
6
ByLayer
370
18
48
1
60
0
100
AcDbSpline
70
4
71
3
72
12
73
8
40
0
40
0
40
0
40
0
40
0.500000000000003
40
0.500000000000003
40
0.750000000000001
40
0.750000000000001
40
1
40
1
40
1
40
1
41
1
10
37.0412523855923
20
-7.24202177498509
30
0
41
1
10
36.730787652705
20
-7.20549636176901
30
0
41
1
10
36.4010965071881
20
-7.15451201184146
30
0
41
1
10
35.8792853184643
20
-7.05752412845348
30
0
41
1
10
35.7007254460992
20
-7.02171831912247
30
0
41
1
10
35.3340505518936
20
-6.94292089288464
30
0
41
1
10
35.1480250712419
20
-6.9003710660734
30
0
41
1
10
34.9603157622548
20
-6.85491962119448
30
0
0
SPLINE
5
19E
100
AcDbEntity
8
1
62
256
6
ByLayer
370
18
48
1
60
0
100
AcDbSpline
70
4
71
3
72
8
73
4
40
0
40
0
40
0
40
0
40
1
40
1
40
1
40
1
41
1
10
35.6403707909897
20
8.89377337936571
30
0
41
1
10
35.6541484756646
20
8.89380980696589
30
0
41
1
10
35.6679242314476
20
8.89386320458561
30
0
41
1
10
35.6816980424241
20
8.89393371224048
30
0
0
SPLINE
5
19F
100
AcDbEntity
8
1
62
256
6
ByLayer
370
18
48
1
60
0
100
AcDbSpline
70
4
71
3
72
10
73
6
40
0
40
0
40
0
40
0
40
0.5
40
0.5
40
1
40
1
40
1
40
1
41
1
10
28.0842348367991
20
-9.98156600213875
30
0
41
1
10
28.0643307802039
20
-9.91958166449226
30
0
41
1
10
28.0499435137572
20
-9.85270207699585
30
0
41
1
10
28.0328068204451
20
-9.71218163667731
30
0
41
1
10
28.0299274607593
20
-9.63770501005516
30
0
41
1
10
28.0330509716323
20
-9.56006061935213
30
0
0
SPLINE
5
1A0
100
AcDbEntity
8
1
62
256
6
ByLayer
370
18
48
1
60
0
100
AcDbSpline
70
4
71
3
72
17
73
13
40
0
40
0
40
0
40
0
40
0.250000000000002
40
0.250000000000002
40
0.375000000000003
40
0.375000000000003
40
0.500000000000004
40
0.625000000000005
40
0.625000000000005
40
0.750000000000006
40
0.750000000000006
40
1
40
1
40
1
40
1
41
1
10
36.8713731562775
20
14.7009467739345
30
0
41
1
10
36.8165254346694
20
14.7497331176861
30
0
41
1
10
36.748957956795
20
14.802905794528
30
0
41
1
10
36.627981848809
20
14.8910992150559
30
0
41
1
10
36.5840217843622
20
14.9221338866493
30
0
41
1
10
36.4908434366649
20
14.9861479521856
30
0
41
1
10
36.392801948411
20
15.0518648294376
30
0
41
1
10
36.2852822453
20
15.1209968104629
30
0
41
1
10
36.1729573847008
20
15.1918115238957
30
0
41
1
10
36.1140401523978
20
15.228267939819
30
0
41
1
10
35.9343577366571
20
15.3372802147261
30
0
41
1
10
35.8097169824619
20
15.4101659420526
30
0
41
1
10
35.6801019649178
20
15.4823715409286
30
0
0
SPLINE
5
1A1
100
AcDbEntity
8
1
62
256
6
ByLayer
370
18
48
1
60
0
100
AcDbSpline
70
4
71
3
72
18
73
14
40
0
40
0
40
0
40
0
40
0.124999999999997
40
0.124999999999997
40
0.249999999999995
40
0.249999999999995
40
0.499999999999997
40
0.499999999999997
40
0.624999999999997
40
0.624999999999997
40
0.749999999999997
40
0.749999999999997
40
1
40
1
40
1
40
1
41
1
10
37.0785957308046
20
14.4011680477969
30
0
41
1
10
37.0762590710198
20
14.3989218657723
30
0
41
1
10
37.0744086995584
20
14.3943492754291
30
0
41
1
10
37.0716888960026
20
14.3805066301944
30
0
41
1
10
37.0708191924472
20
14.3711463603909
30
0
41
1
10
37.0697668592735
20
14.3364254481491
30
0
41
1
10
37.0710823568236
20
14.3046805874173
30
0
41
1
10
37.0760401900193
20
14.2442799656299
30
0
41
1
10
37.0782127067197
20
14.2218644993
30
0
41
1
10
37.0834601675364
20
14.1738301823466
30
0
41
1
10
37.0865406249936
20
14.1481102854339
30
0
41
1
10
37.0971239131028
20
14.0659314012707
30
0
41
1
10
37.1061087619825
20
14.0035556061935
30
0
41
1
10
37.1165312462602
20
13.9369619015023
30
0
0
SPLINE
5
1A2
100
AcDbEntity
8
1
62
256
6
ByLayer
370
18
48
1
60
0
100
AcDbSpline
70
4
71
3
72
8
73
4
40
0
40
0
40
0
40
0
40
1
40
1
40
1
40
1
41
1
10
37.4265315586084
20
-11.6680963830115
30
0
41
1
10
37.563102982114
20
-12.153764046089
30
0
41
1
10
37.701258646103
20
-12.6391024467434
30
0
41
1
10
37.8406459952691
20
-13.1241544693662
30
0
0
SPLINE
5
1A3
100
AcDbEntity
8
1
62
256
6
ByLayer
370
18
48
1
60
0
100
AcDbSpline
70
4
71
3
72
28
73
24
40
0
40
0
40
0
40
0
40
0.124999999999996
40
0.124999999999996
40
0.249999999999991
40
0.249999999999991
40
0.31249999999999
40
0.31249999999999
40
0.37499999999999
40
0.37499999999999
40
0.499999999999992
40
0.499999999999992
40
0.562499999999992
40
0.562499999999992
40
0.624999999999993
40
0.624999999999993
40
0.687499999999994
40
0.687499999999994
40
0.749999999999994
40
0.749999999999994
40
0.874999999999997
40
0.874999999999997
40
1
40
1
40
1
40
1
41
1
10
38.1027523821281
20
18.7024102865582
30
0
41
1
10
38.1385355941279
20
18.603808703368
30
0
41
1
10
38.1756827748104
20
18.503098315823
30
0
41
1
10
38.2536085848235
20
18.2960630315294
30
0
41
1
10
38.2944398480795
20
18.1896151971153
30
0
41
1
10
38.3580274394185
20
18.0279109744331
30
0
41
1
10
38.3796643926496
20
17.9735398095497
30
0
41
1
10
38.4240197243475
20
17.8636457691228
30
0
41
1
10
38.4467369993632
20
17.8081300724365
30
0
41
1
10
38.5154315234761
20
17.6430318230035
30
0
41
1
10
38.5623418206325
20
17.5337824298046
30
0
41
1
10
38.6353004061841
20
17.3720896603331
30
0
41
1
10
38.65924574126
20
17.3203930898499
30
0
41
1
10
38.7062890768654
20
17.2219840012961
30
0
41
1
10
38.7296505172052
20
17.1747716872815
30
0
41
1
10
38.7733960340052
20
17.0898622616448
30
0
41
1
10
38.7939515806182
20
17.0517645342312
30
0
41
1
10
38.8326080501788
20
16.983688320052
30
0
41
1
10
38.8503788098277
20
16.9543144338935
30
0
41
1
10
38.8987035679886
20
16.8794305020367
30
0
41
1
10
38.9251267138047
20
16.8458243291366
30
0
41
1
10
38.9683881685371
20
16.8019002309981
30
0
41
1
10
38.9855782837939
20
16.7910052448902
30
0
41
1
10
39.0000000000001
20
16.7870097685437
30
0
0
SPLINE
5
1A4
100
AcDbEntity
8
1
62
256
6
ByLayer
370
18
48
1
60
0
100
AcDbSpline
70
4
71
3
72
13
73
9
40
0
40
0
40
0
40
0
40
0.250000000000001
40
0.250000000000001
40
0.500000000000001
40
0.750000000000001
40
0.750000000000001
40
1
40
1
40
1
40
1
41
1
10
28.9059769888559
20
13.3112579503323
30
0
41
1
10
28.9113916518734
20
13.1902086601764
30
0
41
1
10
28.9134391326023
20
13.0592105388887
30
0
41
1
10
28.914568027457
20
12.788450619972
30
0
41
1
10
28.9126763948403
20
12.5087661121365
30
0
41
1
10
28.9070345312221
20
12.2180009998842
30
0
41
1
10
28.8983721401326
20
11.9183112987129
30
0
41
1
10
28.8925579112862
20
11.7640846099565
30
0
41
1
10
28.8833765001511
20
11.5999090900682
30
0
0
SPLINE
5
1A5
100
AcDbEntity
8
1
62
256
6
ByLayer
370
18
48
1
60
0
100
AcDbSpline
70
4
71
3
72
60
73
56
40
0
40
0
40
0
40
0
40
0.0625000000000013
40
0.0625000000000013
40
0.125000000000002
40
0.125000000000002
40
0.187500000000003
40
0.187500000000003
40
0.218750000000003
40
0.218750000000003
40
0.250000000000003
40
0.250000000000003
40
0.281250000000003
40
0.281250000000003
40
0.312500000000003
40
0.312500000000003
40
0.328125000000003
40
0.328125000000003
40
0.343750000000003
40
0.343750000000003
40
0.359375000000003
40
0.359375000000003
40
0.375000000000003
40
0.375000000000003
40
0.390625000000003
40
0.390625000000003
40
0.406250000000003
40
0.406250000000003
40
0.437500000000003
40
0.437500000000003
40
0.468750000000004
40
0.468750000000004
40
0.500000000000004
40
0.500000000000004
40
0.531250000000005
40
0.531250000000005
40
0.562500000000005
40
0.562500000000005
40
0.625000000000004
40
0.625000000000004
40
0.687500000000004
40
0.687500000000004
40
0.718750000000004
40
0.718750000000004
40
0.750000000000004
40
0.750000000000004
40
0.812500000000004
40
0.812500000000004
40
0.843750000000003
40
0.843750000000003
40
0.875000000000003
40
0.875000000000003
40
0.937500000000001
40
0.937500000000001
40
1
40
1
40
1
40
1
41
1
10
28.3414124923867
20
8.44648479944365
30
0
41
1
10
28.19522109976
20
8.37650303424903
30
0
41
1
10
28.0503012373507
20
8.30357586013724
30
0
41
1
10
27.7644875950297
20
8.14878114857046
30
0
41
1
10
27.6231684248054
20
8.06672207536747
30
0
41
1
10
27.3485355344005
20
7.89002827096485
30
0
41
1
10
27.2166206962603
20
7.7964381107862
30
0
41
1
10
27.0310305381914
20
7.6435664892434
30
0
41
1
10
26.9712374964269
20
7.59050337428587
30
0
41
1
10
26.8571096090445
20
7.47872010516841
30
0
41
1
10
26.8024153672445
20
7.41957096468491
30
0
41
1
10
26.7028771312778
20
7.29593131299879
30
0
41
1
10
26.6579336792658
20
7.23149315249086
30
0
41
1
10
26.5812767147342
20
7.09518003522027
30
0
41
1
10
26.5503301636666
20
7.0244027799591
30
0
41
1
10
26.5189827338164
20
6.91530263435723
30
0
41
1
10
26.5110017937873
20
6.87834294737343
30
0
41
1
10
26.5007177586805
20
6.8030003895739
30
0
41
1
10
26.4985087869326
20
6.76485435493922
30
0
41
1
10
26.5003119131475
20
6.68963597434654
30
0
41
1
10
26.5042749418417
20
6.65226632365366
30
0
41
1
10
26.5184391689722
20
6.57794087464549
30
0
41
1
10
26.528755768767
20
6.54078289270421
30
0
41
1
10
26.5548638234614
20
6.46906133849677
30
0
41
1
10
26.5706686122944
20
6.43423620731784
30
0
41
1
10
26.6073058045732
20
6.36640482097152
30
0
41
1
10
26.6282907927451
20
6.33319995135966
30
0
41
1
10
26.6971120529644
20
6.23761469156199
30
0
41
1
10
26.7503130936589
20
6.17948390669832
30
0
41
1
10
26.8677807110498
20
6.07125365781852
30
0
41
1
10
26.9324558334013
20
6.02104731619031
30
0
41
1
10
27.0664816629799
20
5.9299689633942
30
0
41
1
10
27.136343471927
20
5.88859956491984
30
0
41
1
10
27.280673302243
20
5.81243797175304
30
0
41
1
10
27.3555663450168
20
5.77749713599698
30
0
41
1
10
27.507435686836
20
5.71422847098415
30
0
41
1
10
27.5840341003017
20
5.68601248972971
30
0
41
1
10
27.8154879434801
20
5.61030595159139
30
0
41
1
10
27.9720616947781
20
5.5715444709397
30
0
41
1
10
28.2889432990032
20
5.51706566220153
30
0
41
1
10
28.4443602914504
20
5.50224417433816
30
0
41
1
10
28.6736304844944
20
5.49942279976875
30
0
41
1
10
28.7494107641691
20
5.50175877176824
30
0
41
1
10
28.8998157267366
20
5.51357605152432
30
0
41
1
10
28.9740464363232
20
5.52307150144105
30
0
41
1
10
29.190506446751
20
5.56224710102569
30
0
41
1
10
29.3279948351178
20
5.60264471875098
30
0
41
1
10
29.5259164592657
20
5.686857377699
30
0
41
1
10
29.5908397318273
20
5.71910342016992
30
0
41
1
10
29.7157742166927
20
5.79055115606954
30
0
41
1
10
29.7759717298432
20
5.82977730566378
30
0
41
1
10
29.950729133188
20
5.95775432088735
30
0
41
1
10
30.0597661969294
20
6.05711801002573
30
0
41
1
10
30.2656966414235
20
6.28144597256818
30
0
41
1
10
30.3600502022695
20
6.40345393283749
30
0
41
1
10
30.4491353053854
20
6.53347726919125
30
0
0
SPLINE
5
1A6
100
AcDbEntity
8
1
62
256
6
ByLayer
370
18
48
1
60
0
100
AcDbSpline
70
4
71
3
72
8
73
4
40
0
40
0
40
0
40
0
40
1
40
1
40
1
40
1
41
1
10
31.7434011261452
20
12.4160251620824
30
0
41
1
10
31.8351769190991
20
12.3558240272401
30
0
41
1
10
31.9165785062585
20
12.2807038096955
30
0
41
1
10
31.9895045567997
20
12.1912818270673
30
0
0
SPLINE
5
1A7
100
AcDbEntity
8
1
62
256
6
ByLayer
370
18
48
1
60
0
100
AcDbSpline
70
4
71
3
72
8
73
4
40
0
40
0
40
0
40
0
40
1
40
1
40
1
40
1
41
1
10
31.1695220682936
20
-23.3310682119262
30
0
41
1
10
31.1490556396653
20
-23.3158421756783
30
0
41
1
10
31.1284981326479
20
-23.3007834438405
30
0
41
1
10
31.1078500387076
20
-23.2858911136253
30
0
0
SPLINE
5
1A8
100
AcDbEntity
8
1
62
256
6
ByLayer
370
18
48
1
60
0
100
AcDbSpline
70
4
71
3
72
50
73
46
40
0
40
0
40
0
40
0
40
0.0624999999999999
40
0.0624999999999999
40
0.125
40
0.125
40
0.15625
40
0.15625
40
0.187500000000001
40
0.187500000000001
40
0.250000000000001
40
0.250000000000001
40
0.281250000000002
40
0.281250000000002
40
0.312500000000002
40
0.312500000000002
40
0.343750000000002
40
0.343750000000002
40
0.375000000000002
40
0.375000000000002
40
0.406250000000002
40
0.406250000000002
40
0.437500000000002
40
0.437500000000002
40
0.500000000000003
40
0.500000000000003
40
0.531250000000003
40
0.531250000000003
40
0.562500000000003
40
0.562500000000003
40
0.625000000000003
40
0.625000000000003
40
0.687500000000004
40
0.687500000000004
40
0.750000000000004
40
0.750000000000004
40
0.812500000000004
40
0.812500000000004
40
0.843750000000003
40
0.843750000000003
40
0.875000000000002
40
0.875000000000002
40
0.937500000000001
40
0.937500000000001
40
1
40
1
40
1
40
1
41
1
10
35.2557446866695
20
-20.2882188845728
30
0
41
1
10
35.2081406915145
20
-20.3203412179643
30
0
41
1
10
35.1527135531842
20
-20.3539636111133
30
0
41
1
10
35.0254961946739
20
-20.4203336132591
30
0
41
1
10
34.9546934318952
20
-20.4526064557055
30
0
41
1
10
34.8358949572268
20
-20.4966778208563
30
0
41
1
10
34.7941779716236
20
-20.5106387302894
30
0
41
1
10
34.7058857222933
20
-20.5364291097395
30
0
41
1
10
34.6590403303376
20
-20.5483096917538
30
0
41
1
10
34.5126505007572
20
-20.578838096786
30
0
41
1
10
34.4070086384774
20
-20.5927395862255
30
0
41
1
10
34.2330371005288
20
-20.597060399052
30
0
41
1
10
34.173772700465
20
-20.5956536157243
30
0
41
1
10
34.0525882354857
20
-20.5862044538151
30
0
41
1
10
33.9903690402986
20
-20.5781096190983
30
0
41
1
10
33.8643491891951
20
-20.5542529601314
30
0
41
1
10
33.8020110145878
20
-20.5387930685069
30
0
41
1
10
33.6787523004692
20
-20.5007343728298
30
0
41
1
10
33.6174822793596
20
-20.4779800802036
30
0
41
1
10
33.4980240529359
20
-20.425777513894
30
0
41
1
10
33.4407404783087
20
-20.3967828887385
30
0
41
1
10
33.3304881830617
20
-20.3335129516265
30
0
41
1
10
33.2771871740881
20
-20.2989786862552
30
0
41
1
10
33.1260922333779
20
-20.1900284748621
30
0
41
1
10
33.0369109509816
20
-20.1106365313924
30
0
41
1
10
32.9158587580359
20
-19.9829761844524
30
0
41
1
10
32.877520703952
20
-19.9387721425518
30
0
41
1
10
32.8057329387503
20
-19.8487832253965
30
0
41
1
10
32.7722251642991
20
-19.8029752721216
30
0
41
1
10
32.6779390613535
20
-19.6631156061123
30
0
41
1
10
32.6233297306567
20
-19.5666547252226
30
0
41
1
10
32.528072099762
20
-19.3666313412683
30
0
41
1
10
32.4872596432588
20
-19.2623968965806
30
0
41
1
10
32.4203144292865
20
-19.0491308008574
30
0
41
1
10
32.3940883545995
20
-18.9402038681949
30
0
41
1
10
32.3561637223024
20
-18.716298402897
30
0
41
1
10
32.3444479512127
20
-18.6013236901016
30
0
41
1
10
32.3394251204425
20
-18.4228351976999
30
0
41
1
10
32.33989143922
20
-18.3622740449908
30
0
41
1
10
32.3453826256688
20
-18.2412717524993
30
0
41
1
10
32.3503921458553
20
-18.1805552555941
30
0
41
1
10
32.3726337578001
20
-17.9977673018075
30
0
41
1
10
32.397080147363
20
-17.8748198346348
30
0
41
1
10
32.4684665374712
20
-17.6286926996002
30
0
41
1
10
32.5142994045281
20
-17.5093538794894
30
0
41
1
10
32.5705530477236
20
-17.3942237431912
30
0
0
SPLINE
5
1A9
100
AcDbEntity
8
1
62
256
6
ByLayer
370
18
48
1
60
0
100
AcDbSpline
70
4
71
3
72
10
73
6
40
0
40
0
40
0
40
0
40
0.5
40
0.5
40
1
40
1
40
1
40
1
41
1
10
27.466660410137
20
-22.8172780931054
30
0
41
1
10
27.4841890394527
20
-22.7996939951725
30
0
41
1
10
27.5137889224614
20
-22.7818654718754
30
0
41
1
10
27.5940389372331
20
-22.7459005541425
30
0
41
1
10
27.6448489273994
20
-22.7277228005278
30
0
41
1
10
27.7051557976567
20
-22.709577035884
30
0
0
SPLINE
5
1AA
100
AcDbEntity
8
1
62
256
6
ByLayer
370
18
48
1
60
0
100
AcDbSpline
70
4
71
3
72
22
73
18
40
0
40
0
40
0
40
0
40
0.125
40
0.125
40
0.25
40
0.25
40
0.375
40
0.375
40
0.5
40
0.5
40
0.625
40
0.625
40
0.75
40
0.75
40
0.875
40
0.875
40
1
40
1
40
1
40
1
41
1
10
36.4817184157157
20
9.73005132020242
30
0
41
1
10
36.4711800299564
20
9.65194915973694
30
0
41
1
10
36.456738755036
20
9.57641713017873
30
0
41
1
10
36.4206551169808
20
9.43520532487784
30
0
41
1
10
36.398786586941
20
9.36845185435442
30
0
41
1
10
36.3473747414625
20
9.2455145215061
30
0
41
1
10
36.3183660900468
20
9.19044654347488
30
0
41
1
10
36.2532462369343
20
9.09323883842001
30
0
41
1
10
36.2167778363873
20
9.05096315626011
30
0
41
1
10
36.1389655086721
20
8.98368635625081
30
0
41
1
10
36.0973384645334
20
8.95810097199569
30
0
41
1
10
36.0080162794977
20
8.92420414376835
30
0
41
1
10
35.9619484466048
20
8.91651166187685
30
0
41
1
10
35.8669312205304
20
8.91908563177344
30
0
41
1
10
35.8173084695055
20
8.92973981896401
30
0
41
1
10
35.7198833569911
20
8.96827850979724
30
0
41
1
10
35.6718042552562
20
8.99592545306058
30
0
41
1
10
35.6246025206338
20
9.03152928934574
30
0
0
SPLINE
5
1AB
100
AcDbEntity
8
1
62
256
6
ByLayer
370
18
48
1
60
0
100
AcDbSpline
70
4
71
3
72
8
73
4
40
0
40
0
40
0
40
0
40
1
40
1
40
1
40
1
41
1
10
37.8406459952592
20
-13.1241544693684
30
0
41
1
10
37.8647927490279
20
-13.2081824089579
30
0
41
1
10
37.8888208531188
20
-13.292447069551
30
0
41
1
10
37.9127321286649
20
-13.3769520313311
30
0
0
SPLINE
5
1AC
100
AcDbEntity
8
1
62
256
6
ByLayer
370
18
48
1
60
0
100
AcDbSpline
70
4
71
3
72
18
73
14
40
0
40
0
40
0
40
0
40
0.25
40
0.25
40
0.375
40
0.375
40
0.5
40
0.5
40
0.75
40
0.75
40
0.875
40
0.875
40
1
40
1
40
1
40
1
41
1
10
19.1885663263358
20
-10.3839211842009
30
0
41
1
10
19.3496534087959
20
-10.2815188550795
30
0
41
1
10
19.5191313892815
20
-10.1945120512489
30
0
41
1
10
19.7847697149368
20
-10.0853237287887
30
0
41
1
10
19.8752346916489
20
-10.0525079637225
30
0
41
1
10
20.0599678183344
20
-9.99402212202068
30
0
41
1
10
20.1547020067991
20
-9.96825557918439
30
0
41
1
10
20.4408159985305
20
-9.90272995778108
30
0
41
1
10
20.633569795789
20
-9.87457888151559
30
0
41
1
10
20.9255064678289
20
-9.85414832921288
30
0
41
1
10
21.0232893483472
20
-9.8509924595464
30
0
41
1
10
21.2197931986217
20
-9.85196903296199
30
0
41
1
10
21.3186001145343
20
-9.85612760678166
30
0
41
1
10
21.4169262072275
20
-9.86387499515442
30
0
0
SPLINE
5
1AD
100
AcDbEntity
8
1
62
256
6
ByLayer
370
18
48
1
60
0
100
AcDbSpline
70
4
71
3
72
19
73
15
40
0
40
0
40
0
40
0
40
0.125
40
0.125
40
0.250000000000001
40
0.375000000000001
40
0.375000000000001
40
0.500000000000002
40
0.500000000000002
40
0.625000000000002
40
0.625000000000002
40
0.750000000000003
40
0.750000000000003
40
1
40
1
40
1
40
1
41
1
10
27.7051557976566
20
-7.81043890873852
30
0
41
1
10
27.6839227130693
20
-7.73071131584481
30
0
41
1
10
27.6680393006043
20
-7.64845727435383
30
0
41
1
10
27.6480648792444
20
-7.483896004364
30
0
41
1
10
27.6396189785701
20
-7.31908440429177
30
0
41
1
10
27.6537326530258
20
-7.15377092879919
30
0
41
1
10
27.6794712075417
20
-6.98820906986069
30
0
41
1
10
27.6981472382111
20
-6.90588333746575
30
0
41
1
10
27.7460437124817
20
-6.74567053096899
30
0
41
1
10
27.7753385152449
20
-6.66724946819301
30
0
41
1
10
27.8446326801773
20
-6.51381736164134
30
0
41
1
10
27.8849464526815
20
-6.43832172660464
30
0
41
1
10
28.020451487516
20
-6.22095020583544
30
0
41
1
10
28.1286465436766
20
-6.08948483457743
30
0
41
1
10
28.2546248753079
20
-5.9716142598827
30
0
0
SPLINE
5
1AE
100
AcDbEntity
8
1
62
256
6
ByLayer
370
18
48
1
60
0
100
AcDbSpline
70
4
71
3
72
8
73
4
40
0
40
0
40
0
40
0
40
1
40
1
40
1
40
1
41
1
10
32.8875696167173
20
10.3625946957008
30
0
41
1
10
32.8980648651574
20
10.3577866060407
30
0
41
1
10
32.9085893863672
20
10.3530519654911
30
0
41
1
10
32.9191420070642
20
10.3483878301374
30
0
0
SPLINE
5
1AF
100
AcDbEntity
8
1
62
256
6
ByLayer
370
18
48
1
60
0
100
AcDbSpline
70
4
71
3
72
14
73
10
40
0
40
0
40
0
40
0
40
0.250000000000006
40
0.250000000000006
40
0.375000000000005
40
0.375000000000005
40
0.500000000000004
40
0.500000000000004
40
1
40
1
40
1
40
1
41
1
10
34.0523073512464
20
24.1600113277663
30
0
41
1
10
33.8279354932352
20
24.1664763205983
30
0
41
1
10
33.6036539636567
20
24.1584553280364
30
0
41
1
10
33.2673700460086
20
24.1242323423219
30
0
41
1
10
33.1549464455982
20
24.1090072585115
30
0
41
1
10
32.9334952163034
20
24.0714839457727
30
0
41
1
10
32.824145433948
20
24.0491517199283
30
0
41
1
10
32.2840354532665
20
23.9202611908324
30
0
41
1
10
31.8730141450658
20
23.7624763834753
30
0
41
1
10
31.4842155056029
20
23.5470191525875
30
0
0
SPLINE
5
1B0
100
AcDbEntity
8
1
62
256
6
ByLayer
370
18
48
1
60
0
100
AcDbSpline
70
4
71
3
72
8
73
4
40
0
40
0
40
0
40
0
40
1
40
1
40
1
40
1
41
1
10
31.1695220682937
20
-6.74482653215679
30
0
41
1
10
31.1490816395628
20
-6.73682663883613
30
0
41
1
10
31.1285243826957
20
-6.72888049002515
30
0
41
1
10
31.1078500387078
20
-6.72098820486468
30
0
0
SPLINE
5
1B1
100
AcDbEntity
8
1
62
256
6
ByLayer
370
18
48
1
60
0
100
AcDbSpline
70
4
71
3
72
10
73
6
40
0
40
0
40
0
40
0
40
0.5
40
0.5
40
1
40
1
40
1
40
1
41
1
10
39
20
-5.5461915006251
30
0
41
1
10
38.9355620669402
20
-5.76753146028128
30
0
41
1
10
38.8379516394873
20
-5.98419732293328
30
0
41
1
10
38.5800453165375
20
-6.40869649091067
30
0
41
1
10
38.4197307843664
20
-6.6165271702767
30
0
41
1
10
38.2256298638461
20
-6.81959725326746
30
0
0
SPLINE
5
1B2
100
AcDbEntity
8
1
62
256
6
ByLayer
370
18
48
1
60
0
100
AcDbSpline
70
4
71
3
72
12
73
8
40
0
40
0
40
0
40
0
40
0.500000000000003
40
0.500000000000003
40
0.750000000000001
40
0.750000000000001
40
1
40
1
40
1
40
1
41
1
10
37.0412523855923
20
16.1570607748209
30
0
41
1
10
36.7307876527051
20
16.3921213381632
30
0
41
1
10
36.4010965071882
20
16.6014386881194
30
0
41
1
10
35.8792853184644
20
16.8788955492207
30
0
41
1
10
35.7007254460992
20
16.9651914568944
30
0
41
1
10
35.3340505518936
20
17.124989400779
30
0
41
1
10
35.1480250712419
20
17.1975568657967
30
0
41
1
10
34.9603157622548
20
17.2624665188206
30
0
0
SPLINE
5
1B3
100
AcDbEntity
8
1
62
256
6
ByLayer
370
18
48
1
60
0
100
AcDbSpline
70
4
71
3
72
8
73
4
40
0
40
0
40
0
40
0
40
1
40
1
40
1
40
1
41
1
10
36.4986175987243
20
9.82776084320088
30
0
41
1
10
36.4917647317075
20
9.79535715650053
30
0
41
1
10
36.4861349943414
20
9.76278349953742
30
0
41
1
10
36.4817184157159
20
9.73005132020234
30
0
0
SPLINE
5
1B4
100
AcDbEntity
8
1
62
256
6
ByLayer
370
18
48
1
60
0
100
AcDbSpline
70
4
71
3
72
12
73
8
40
0
40
0
40
0
40
0
40
0.500000000000001
40
0.500000000000001
40
0.750000000000001
40
0.750000000000001
40
1
40
1
40
1
40
1
41
1
10
36.6139482090622
20
-21.1398803067089
30
0
41
1
10
36.4007576812509
20
-21.2930245552078
30
0
41
1
10
36.1764231709751
20
-21.4228361171687
30
0
41
1
10
35.8221425428786
20
-21.5803290090399
30
0
41
1
10
35.7010651876922
20
-21.6265792894291
30
0
41
1
10
35.4525518379381
20
-21.7057664642648
30
0
41
1
10
35.3249754335663
20
-21.7386494716005
30
0
41
1
10
35.1967709987417
20
-21.7638839378331
30
0
0
SPLINE
5
1B5
100
AcDbEntity
8
1
62
256
6
ByLayer
370
18
48
1
60
0
100
AcDbSpline
70
4
71
3
72
20
73
16
40
0
40
0
40
0
40
0
40
0.249999999999999
40
0.249999999999999
40
0.375
40
0.375
40
0.4375
40
0.4375
40
0.5
40
0.5
40
0.75
40
0.75
40
0.875
40
0.875
40
1
40
1
40
1
40
1
41
1
10
24.8228503914755
20
-17.6659296734496
30
0
41
1
10
24.2410731920417
20
-17.5553119094305
30
0
41
1
10
23.6853855869905
20
-17.4095621914436
30
0
41
1
10
22.8880776328831
20
-17.1371655613738
30
0
41
1
10
22.6283859966659
20
-17.0373343829616
30
0
41
1
10
22.2479036426908
20
-16.8733321898848
30
0
41
1
10
22.1225871656852
20
-16.8162851988599
30
0
41
1
10
21.8749862017905
20
-16.697269980987
30
0
41
1
10
21.7525175147935
20
-16.6351890115131
30
0
41
1
10
21.1535191796673
20
-16.3151946142135
30
0
41
1
10
20.7125075576099
20
-16.0267533678904
30
0
41
1
10
20.1026022568008
20
-15.5436254209055
30
0
41
1
10
19.9079408748797
20
-15.3741419750435
30
0
41
1
10
19.5353040882233
20
-15.0176918382606
30
0
41
1
10
19.3571333710049
20
-14.8304182087782
30
0
41
1
10
19.1885663263357
20
-14.6358900655157
30
0
0
SPLINE
5
1B6
100
AcDbEntity
8
1
62
256
6
ByLayer
370
18
48
1
60
0
100
AcDbSpline
70
4
71
3
72
12
73
8
40
0
40
0
40
0
40
0
40
0.5
40
0.5
40
0.75
40
0.75
40
1
40
1
40
1
40
1
41
1
10
38.2761482218775
20
4.47139224223744
30
0
41
1
10
38.4548280013394
20
4.51203091032883
30
0
41
1
10
38.6040910936347
20
4.55922315254455
30
0
41
1
10
38.7853975855375
20
4.63949948348287
30
0
41
1
10
38.8386464689537
20
4.66785932473343
30
0
41
1
10
38.9306511813886
20
4.72780783126024
30
0
41
1
10
38.9693052220227
20
4.75943533192549
30
0
41
1
10
39.0000000000001
20
4.79228640667847
30
0
0
SPLINE
5
1B7
100
AcDbEntity
8
1
62
256
6
ByLayer
370
18
48
1
60
0
100
AcDbSpline
70
4
71
3
72
18
73
14
40
0
40
0
40
0
40
0
40
0.250000000000003
40
0.250000000000003
40
0.375000000000003
40
0.375000000000003
40
0.500000000000003
40
0.500000000000003
40
0.750000000000001
40
0.750000000000001
40
0.875000000000001
40
0.875000000000001
40
1
40
1
40
1
40
1
41
1
10
28.3414124923867
20
8.44648479944365
30
0
41
1
10
28.253819706786
20
8.61951431169112
30
0
41
1
10
28.1808833596154
20
8.79272101238331
30
0
41
1
10
28.0870558690367
20
9.04847438078536
30
0
41
1
10
28.0583732940194
20
9.13305330431513
30
0
41
1
10
28.0050960561632
20
9.30017939624707
30
0
41
1
10
27.9804201794126
20
9.3830121953709
30
0
41
1
10
27.9114377387888
20
9.62542800724023
30
0
41
1
10
27.8724400919886
20
9.77723618024029
30
0
41
1
10
27.8178875950861
20
9.9886075272743
30
0
41
1
10
27.8003940991829
20
10.0563467724023
30
0
41
1
10
27.7661585005789
20
10.1861179975956
30
0
41
1
10
27.7493447342541
20
10.2484006029379
30
0
41
1
10
27.7329469449004
20
10.3070420772194
30
0
0
SPLINE
5
1B8
100
AcDbEntity
8
1
62
256
6
ByLayer
370
18
48
1
60
0
100
AcDbSpline
70
4
71
3
72
14
73
10
40
0
40
0
40
0
40
0
40
0.250000000000002
40
0.250000000000002
40
0.375000000000003
40
0.375000000000003
40
0.500000000000004
40
0.500000000000004
40
1
40
1
40
1
40
1
41
1
10
38.2256298638462
20
22.1918162147902
30
0
41
1
10
38.1478665110481
20
22.3137717059052
30
0
41
1
10
38.0643385677211
20
22.4315622948518
30
0
41
1
10
37.9299800221823
20
22.6016754886062
30
0
41
1
10
37.8836869228603
20
22.6572880650963
30
0
41
1
10
37.7879467020384
20
22.7662246774656
30
0
41
1
10
37.7382741702223
20
22.8197761728063
30
0
41
1
10
37.4843080832105
20
23.078812132444
30
0
41
1
10
37.2684460354039
20
23.2537973673198
30
0
41
1
10
37.0412523855924
20
23.399082549806
30
0
0
SPLINE
5
1B9
100
AcDbEntity
8
1
62
256
6
ByLayer
370
18
48
1
60
0
100
AcDbSpline
70
4
71
3
72
12
73
8
40
0
40
0
40
0
40
0
40
0.249999999999998
40
0.249999999999998
40
0.499999999999997
40
0.499999999999997
40
1
40
1
40
1
40
1
41
1
10
27.7051557976568
20
-7.81043890873841
30
0
41
1
10
27.7186602595052
20
-7.85330248363064
30
0
41
1
10
27.7373722809387
20
-7.89500093530293
30
0
41
1
10
27.7850558336671
20
-7.97469631439557
30
0
41
1
10
27.8142431470748
20
-8.01282691009951
30
0
41
1
10
27.9144444095392
20
-8.11614051511984
30
0
41
1
10
27.9982767267761
20
-8.17166047211671
30
0
41
1
10
28.0978040489233
20
-8.20588746260225
30
0
0
SPLINE
5
1BA
100
AcDbEntity
8
1
62
256
6
ByLayer
370
18
48
1
60
0
100
AcDbSpline
70
4
71
3
72
18
73
14
40
0
40
0
40
0
40
0
40
0.250000000000002
40
0.250000000000002
40
0.375000000000001
40
0.375000000000001
40
0.499999999999999
40
0.499999999999999
40
0.750000000000002
40
0.750000000000002
40
0.875000000000001
40
0.875000000000001
40
1
40
1
40
1
40
1
41
1
10
19.1885663263358
20
12.6542355472466
30
0
41
1
10
19.349653408796
20
12.750124290033
30
0
41
1
10
19.5191313892816
20
12.830793083066
30
0
41
1
10
19.7847697149368
20
12.9315417390617
30
0
41
1
10
19.8752346916489
20
12.9617193407895
30
0
41
1
10
20.0599678183345
20
13.0153878046417
30
0
41
1
10
20.1547020067991
20
13.0389665893609
30
0
41
1
10
20.4408159985305
20
13.0988370516246
30
0
41
1
10
20.633569795789
20
13.1244316890039
30
0
41
1
10
20.9255064678288
20
13.1430100659237
30
0
41
1
10
21.0232893483472
20
13.1458773180224
30
0
41
1
10
21.2197931986217
20
13.1449897478653
30
0
41
1
10
21.3186001145343
20
13.1412111556144
30
0
41
1
10
21.4169262072275
20
13.134164975668
30
0
0
SPLINE
5
1BB
100
AcDbEntity
8
1
62
256
6
ByLayer
370
18
48
1
60
0
100
AcDbSpline
70
4
71
3
72
14
73
10
40
0
40
0
40
0
40
0
40
0.249999999999999
40
0.249999999999999
40
0.374999999999999
40
0.374999999999999
40
0.499999999999999
40
0.499999999999999
40
1
40
1
40
1
40
1
41
1
10
34.0523073512464
20
17.4278074653268
30
0
41
1
10
33.8279354932352
20
17.4085460802048
30
0
41
1
10
33.6036539636567
20
17.3783166901543
30
0
41
1
10
33.2673700460086
20
17.3161704034717
30
0
41
1
10
33.1549464455982
20
17.2925266428869
30
0
41
1
10
32.9334952163034
20
17.2402446522241
30
0
41
1
10
32.824145433948
20
17.2115459687647
30
0
41
1
10
32.2840354532665
20
17.0557107018512
30
0
41
1
10
31.8730141450658
20
16.8918792935793
30
0
41
1
10
31.4842155056028
20
16.6867356873504
30
0
0
SPLINE
5
1BC
100
AcDbEntity
8
1
62
256
6
ByLayer
370
18
48
1
60
0
100
AcDbSpline
70
4
71
3
72
8
73
4
40
0
40
0
40
0
40
0
40
1
40
1
40
1
40
1
41
1
10
28.8833765001538
20
11.5999090900692
30
0
41
1
10
28.8905902564792
20
11.5744030316864
30
0
41
1
10
28.8981485271403
20
11.548847087669
30
0
41
1
10
28.9060580541919
20
11.5232402817684
30
0
0
SPLINE
5
1BD
100
AcDbEntity
8
1
62
256
6
ByLayer
370
18
48
1
60
0
100
AcDbSpline
70
4
71
3
72
16
73
12
40
0
40
0
40
0
40
0
40
0.125
40
0.125
40
0.250000000000001
40
0.250000000000001
40
0.5
40
0.5
40
0.75
40
0.75
40
1
40
1
40
1
40
1
41
1
10
38.1027523821281
20
18.7024102865585
30
0
41
1
10
38.0674459782331
20
18.7996980124568
30
0
41
1
10
38.0267047813444
20
18.8971950055906
30
0
41
1
10
37.9376961801925
20
19.0910478455577
30
0
41
1
10
37.889360367155
20
19.1874333075469
30
0
41
1
10
37.7349177580457
20
19.4737561775383
30
0
41
1
10
37.6194934090128
20
19.6608227627519
30
0
41
1
10
37.3665645690172
20
20.0241426576995
30
0
41
1
10
37.2285277666374
20
20.2007245684801
30
0
41
1
10
36.9352728572804
20
20.5345366902749
30
0
41
1
10
36.7794759499367
20
20.6926638417941
30
0
41
1
10
36.6139482090622
20
20.8411511248644
30
0
0
SPLINE
5
1BE
100
AcDbEntity
8
1
62
256
6
ByLayer
370
18
48
1
60
0
100
AcDbSpline
70
4
71
3
72
12
73
8
40
0
40
0
40
0
40
0
40
0.499999999999999
40
0.499999999999999
40
0.749999999999999
40
0.749999999999999
40
1
40
1
40
1
40
1
41
1
10
36.6139482090622
20
-0.298729181844578
30
0
41
1
10
36.4007576812509
20
-0.390028070347455
30
0
41
1
10
36.1764231709751
20
-0.459783025785072
30
0
41
1
10
35.8221425428786
20
-0.530044745524464
30
0
41
1
10
35.7010651876922
20
-0.547696909073778
30
0
41
1
10
35.4525518379381
20
-0.570708494179001
30
0
41
1
10
35.3249754335664
20
-0.575998093503244
30
0
41
1
10
35.1967709987418
20
-0.574754850063442
30
0
0
SPLINE
5
1BF
100
AcDbEntity
8
1
62
256
6
ByLayer
370
18
48
1
60
0
100
AcDbSpline
70
4
71
3
72
16
73
12
40
0
40
0
40
0
40
0
40
0.249999999999995
40
0.249999999999995
40
0.499999999999989
40
0.499999999999989
40
0.624999999999987
40
0.624999999999987
40
0.749999999999984
40
0.749999999999984
40
1
40
1
40
1
40
1
41
1
10
34.052307351246
20
-24.1600113277657
30
0
41
1
10
34.1288417044198
20
-24.1538086250164
30
0
41
1
10
34.2078142869483
20
-24.1482000354047
30
0
41
1
10
34.3668686512614
20
-24.1380222849914
30
0
41
1
10
34.4483389125335
20
-24.1333832310982
30
0
41
1
10
34.5659852510291
20
-24.1275818198339
30
0
41
1
10
34.6046661629143
20
-24.1258252554403
30
0
41
1
10
34.6809646649938
20
-24.1227215174633
30
0
41
1
10
34.7188242676672
20
-24.1213676736282
30
0
41
1
10
34.8287350592599
20
-24.1181241758225
30
0
41
1
10
34.8969638937937
20
-24.1170246989968
30
0
41
1
10
34.960315762257
20
-24.1173861400129
30
0
0
SPLINE
5
1C0
100
AcDbEntity
8
1
62
256
6
ByLayer
370
18
48
1
60
0
100
AcDbSpline
70
4
71
3
72
9
73
5
40
0
40
0
40
0
40
0
40
0.5
40
1
40
1
40
1
40
1
41
1
10
28.0842348367991
20
12.2120381709123
30
0
41
1
10
28.0805663552656
20
12.2068237921441
30
0
41
1
10
28.0733422750168
20
12.1962378173284
30
0
41
1
10
28.0663456817138
20
12.1853350106051
30
0
41
1
10
28.0629047562937
20
12.1798037035959
30
0
0
SPLINE
5
1C1
100
AcDbEntity
8
1
62
256
6
ByLayer
370
18
48
1
60
0
100
AcDbSpline
70
4
71
3
72
20
73
16
40
0
40
0
40
0
40
0
40
0.250000000000001
40
0.250000000000001
40
0.375000000000002
40
0.375000000000002
40
0.437500000000001
40
0.437500000000001
40
0.500000000000001
40
0.500000000000001
40
0.75
40
0.75
40
0.875
40
0.875
40
1
40
1
40
1
40
1
41
1
10
24.8228503914756
20
4.02363959809281
30
0
41
1
10
24.2410731920417
20
4.192946249675
30
0
41
1
10
23.6853855869905
20
4.413615201314
30
0
41
1
10
22.8880776328831
20
4.81454910040733
30
0
41
1
10
22.628385996666
20
4.95992404145818
30
0
41
1
10
22.2479036426908
20
5.19524242196337
30
0
41
1
10
22.1225871656852
20
5.2765610491567
30
0
41
1
10
21.8749862017905
20
5.4449352961729
30
0
41
1
10
21.7525175147935
20
5.53214516889139
30
0
41
1
10
21.1535191796673
20
5.97811596076173
30
0
41
1
10
20.7125075576099
20
6.36919614733247
30
0
41
1
10
20.1026022568008
20
6.9994125962763
30
0
41
1
10
19.9079408748797
20
7.21678641192599
30
0
41
1
10
19.5353040882233
20
7.66513989122782
30
0
41
1
10
19.3571333710049
20
7.89647223870301
30
0
41
1
10
19.1885663263358
20
8.1319456628564
30
0
0
SPLINE
5
1C2
100
AcDbEntity
8
1
62
256
6
ByLayer
370
18
48
1
60
0
100
AcDbSpline
70
4
71
3
72
12
73
8
40
0
40
0
40
0
40
0
40
0.5
40
0.5
40
0.75
40
0.75
40
1
40
1
40
1
40
1
41
1
10
18.3799213696255
20
22.7927592696511
30
0
41
1
10
18.4930569630395
20
22.8175512526628
30
0
41
1
10
18.6150449823877
20
22.8299994875628
30
0
41
1
10
18.8160895390808
20
22.8258959032513
30
0
41
1
10
18.8863903774082
20
22.8206598466724
30
0
41
1
10
19.0332596932047
20
22.8012046672133
30
0
41
1
10
19.1093553143858
20
22.7870762456411
30
0
41
1
10
19.1885663263358
20
22.7678357283721
30
0
0
SPLINE
5
1C3
100
AcDbEntity
8
1
62
256
6
ByLayer
370
18
48
1
60
0
100
AcDbSpline
70
4
71
3
72
8
73
4
40
0
40
0
40
0
40
0
40
1
40
1
40
1
40
1
41
1
10
28.9139520714699
20
13.3332959303358
30
0
41
1
10
28.9112548708435
20
13.3259613725407
30
0
41
1
10
28.9085966013394
20
13.3186153523051
30
0
41
1
10
28.9059769888546
20
13.3112579503327
30
0
0
SPLINE
5
1C4
100
AcDbEntity
8
1
62
256
6
ByLayer
370
18
48
1
60
0
100
AcDbSpline
70
4
71
3
72
8
73
4
40
0
40
0
40
0
40
0
40
1
40
1
40
1
40
1
41
1
10
36.5190784163484
20
8.45138891517897
30
0
41
1
10
36.6520363267939
20
8.44547494133312
30
0
41
1
10
36.7755804992439
20
8.47450034183879
30
0
41
1
10
36.9001026208773
20
8.53281924351259
30
0
0
SPLINE
5
1C5
100
AcDbEntity
8
1
62
256
6
ByLayer
370
18
48
1
60
0
100
AcDbSpline
70
4
71
3
72
22
73
18
40
0
40
0
40
0
40
0
40
0.125
40
0.125
40
0.25
40
0.25
40
0.375
40
0.375
40
0.5
40
0.5
40
0.625
40
0.625
40
0.75
40
0.75
40
0.875
40
0.875
40
1
40
1
40
1
40
1
41
1
10
28.0330509716323
20
12.6854568124689
30
0
41
1
10
28.0399471729319
20
12.7502722476232
30
0
41
1
10
28.0518570681539
20
12.8125370233209
30
0
41
1
10
28.0845111757038
20
12.9269640648223
30
0
41
1
10
28.1052955041043
20
12.9798311862548
30
0
41
1
10
28.1557028147093
20
13.076946638021
30
0
41
1
10
28.1856093570906
20
13.1213413715689
30
0
41
1
10
28.2518004862298
20
13.1980904981498
30
0
41
1
10
28.2882808616501
20
13.2309685629489
30
0
41
1
10
28.3677012270397
20
13.2862351074006
30
0
41
1
10
28.4110141197438
20
13.3087452867777
30
0
41
1
10
28.5024889903342
20
13.342456635597
30
0
41
1
10
28.5500682561832
20
13.35356348144
30
0
41
1
10
28.6485747881692
20
13.36532720005
30
0
41
1
10
28.6995046032055
20
13.3659761170448
30
0
41
1
10
28.8045997805423
20
13.357174972872
30
0
41
1
10
28.8592529077025
20
13.3475609999848
30
0
41
1
10
28.9139520714701
20
13.3332959303359
30
0
0
SPLINE
5
1C6
100
AcDbEntity
8
1
62
256
6
ByLayer
370
18
48
1
60
0
100
AcDbSpline
70
4
71
3
72
12
73
8
40
0
40
0
40
0
40
0
40
0.499999999999997
40
0.499999999999997
40
0.749999999999998
40
0.749999999999998
40
1
40
1
40
1
40
1
41
1
10
36.3187973331617
20
7.2503489487932
30
0
41
1
10
36.3067823911124
20
7.18225260613011
30
0
41
1
10
36.2891212575475
20
7.11884130930974
30
0
41
1
10
36.2541084947743
20
7.0307948943622
30
0
41
1
10
36.2409353946036
20
7.00252904618344
30
0
41
1
10
36.2122944122518
20
6.94957339806905
30
0
41
1
10
36.1967818887179
20
6.92473372578829
30
0
41
1
10
36.18012298965
20
6.90146946134348
30
0
0
SPLINE
5
1C7
100
AcDbEntity
8
1
62
256
6
ByLayer
370
18
48
1
60
0
100
AcDbSpline
70
4
71
3
72
44
73
40
40
0
40
0
40
0
40
0
40
0.125000000000002
40
0.125000000000002
40
0.187500000000003
40
0.187500000000003
40
0.250000000000005
40
0.250000000000005
40
0.375000000000007
40
0.375000000000007
40
0.437500000000008
40
0.437500000000008
40
0.500000000000009
40
0.500000000000009
40
0.56250000000001
40
0.56250000000001
40
0.59375000000001
40
0.59375000000001
40
0.609375000000008
40
0.609375000000008
40
0.625000000000007
40
0.625000000000007
40
0.656250000000007
40
0.656250000000007
40
0.687500000000007
40
0.687500000000007
40
0.718750000000007
40
0.718750000000007
40
0.750000000000006
40
0.750000000000006
40
0.781250000000006
40
0.781250000000006
40
0.812500000000006
40
0.812500000000006
40
0.875000000000004
40
0.875000000000004
40
0.937500000000002
40
0.937500000000002
40
1
40
1
40
1
40
1
41
1
10
31.4584433364806
20
21.6019547994335
30
0
41
1
10
31.4609776862048
20
21.4672865695405
30
0
41
1
10
31.4855476299689
20
21.3403567110259
30
0
41
1
10
31.5536012954399
20
21.1587194238022
30
0
41
1
10
31.5817019608758
20
21.0994842013517
30
0
41
1
10
31.6483043974461
20
20.9852151776545
30
0
41
1
10
31.6868270150526
20
20.9300218202068
30
0
41
1
10
31.8193752643074
20
20.7700193419124
30
0
41
1
10
31.9294407231094
20
20.6705449092194
30
0
41
1
10
32.1438533269325
20
20.5341565462373
30
0
41
1
10
32.2228954923933
20
20.4914573002273
30
0
41
1
10
32.4000025949259
20
20.4134272436648
30
0
41
1
10
32.4990667076452
20
20.3777904016133
30
0
41
1
10
32.7174072238231
20
20.3189999504014
30
0
41
1
10
32.8368875523839
20
20.2954306135801
30
0
41
1
10
33.0397962328016
20
20.2737261252363
30
0
41
1
10
33.1095474260361
20
20.2690333821851
30
0
41
1
10
33.217773941347
20
20.2663559473348
30
0
41
1
10
33.2544517795593
20
20.2661926631706
30
0
41
1
10
33.329115256243
20
20.2674545165016
30
0
41
1
10
33.367189597
20
20.2688957481861
30
0
41
1
10
33.4806798280496
20
20.2756144088046
30
0
41
1
10
33.5562447253396
20
20.2832753882589
30
0
41
1
10
33.7071751757836
20
20.3050113316829
30
0
41
1
10
33.7828799200196
20
20.3192396413735
30
0
41
1
10
33.9274369365403
20
20.3525636872392
30
0
41
1
10
33.9971972985716
20
20.3717582949862
30
0
41
1
10
34.1321708513652
20
20.4146484407193
30
0
41
1
10
34.1956352371958
20
20.4377744441572
30
0
41
1
10
34.3161733638799
20
20.4867661508391
30
0
41
1
10
34.3732339718322
20
20.5126370889882
30
0
41
1
10
34.4819559985197
20
20.5667627792679
30
0
41
1
10
34.5336076401375
20
20.5950511985783
30
0
41
1
10
34.6785191405091
20
20.6812289831747
30
0
41
1
10
34.763232889764
20
20.741048541816
30
0
41
1
10
34.9153239377773
20
20.8645553994937
30
0
41
1
10
34.9829006878756
20
20.9286360017257
30
0
41
1
10
35.1013078588942
20
21.0578440893893
30
0
41
1
10
35.1524071703589
20
21.1231183556077
30
0
41
1
10
35.1967709987418
20
21.1891290877697
30
0
0
SPLINE
5
1C8
100
AcDbEntity
8
1
62
256
6
ByLayer
370
18
48
1
60
0
100
AcDbSpline
70
4
71
3
72
10
73
6
40
0
40
0
40
0
40
0
40
0.5
40
0.5
40
1
40
1
40
1
40
1
41
1
10
28.0330509716323
20
22.245517431821
30
0
41
1
10
28.0299274607593
20
22.2486064030471
30
0
41
1
10
28.0328068204452
20
22.2456471881891
30
0
41
1
10
28.0499435137573
20
22.2282667497548
30
0
41
1
10
28.0643307802039
20
22.2137139208929
30
0
41
1
10
28.0842348367992
20
22.1936041730508
30
0
0
SPLINE
5
1C9
100
AcDbEntity
8
1
62
256
6
ByLayer
370
18
48
1
60
0
100
AcDbSpline
70
4
71
3
72
8
73
4
40
0
40
0
40
0
40
0
40
1
40
1
40
1
40
1
41
1
10
28.9059769888547
20
21.3172636489394
30
0
41
1
10
28.9085966013394
20
21.3311075361387
30
0
41
1
10
28.9112548708435
20
21.3449478307728
30
0
41
1
10
28.91395207147
20
21.3587845073683
30
0
0
SPLINE
5
1CA
100
AcDbEntity
8
1
62
256
6
ByLayer
370
18
48
1
60
0
100
AcDbSpline
70
4
71
3
72
32
73
28
40
0
40
0
40
0
40
0
40
0.0624999999999999
40
0.0624999999999999
40
0.125
40
0.125
40
0.1875
40
0.1875
40
0.249999999999999
40
0.249999999999999
40
0.374999999999999
40
0.374999999999999
40
0.437499999999999
40
0.437499999999999
40
0.5
40
0.5
40
0.5625
40
0.5625
40
0.625
40
0.625
40
0.6875
40
0.6875
40
0.75
40
0.75
40
0.875
40
0.875
40
1
40
1
40
1
40
1
41
1
10
28.2546248753082
20
-5.97161425988298
30
0
41
1
10
28.3085151930627
20
-5.92119223379373
30
0
41
1
10
28.3659485835512
20
-5.87348680639684
30
0
41
1
10
28.4845490674082
20
-5.7864248123544
30
0
41
1
10
28.5460567293185
20
-5.74671195763895
30
0
41
1
10
28.6734093361364
20
-5.67502167605699
30
0
41
1
10
28.7392535950674
20
-5.64304251277372
30
0
41
1
10
28.8753921005219
20
-5.58723480200706
30
0
41
1
10
28.9458533704648
20
-5.56344620220756
30
0
41
1
10
29.1576174472343
20
-5.50682014169496
30
0
41
1
10
29.3012807668535
20
-5.48756258411356
30
0
41
1
10
29.5203491298334
20
-5.48765223505495
30
0
41
1
10
29.5933815160186
20
-5.49263288727653
30
0
41
1
10
29.7364012674557
20
-5.51204246521976
30
0
41
1
10
29.8068558657884
20
-5.52646529623206
30
0
41
1
10
29.9457138991075
20
-5.56467332985582
30
0
41
1
10
30.0144936589755
20
-5.5886250270097
30
0
41
1
10
30.1482273802268
20
-5.64543624028033
30
0
41
1
10
30.2126676577843
20
-5.67801035920868
30
0
41
1
10
30.3370509878594
20
-5.75109706406988
30
0
41
1
10
30.3969927628207
20
-5.79161136521142
30
0
41
1
10
30.5125635628327
20
-5.88052406982101
30
0
41
1
10
30.5683117404844
20
-5.92911726276012
30
0
41
1
10
30.725341449321
20
-6.08292262873596
30
0
41
1
10
30.8180028941335
20
-6.19704839151561
30
0
41
1
10
30.9817142688501
20
-6.44743957365279
30
0
41
1
10
31.0509057746691
20
-6.58106673489044
30
0
41
1
10
31.1078500387077
20
-6.72098820486474
30
0
0
SPLINE
5
1CB
100
AcDbEntity
8
1
62
256
6
ByLayer
370
18
48
1
60
0
100
AcDbSpline
70
4
71
3
72
10
73
6
40
0
40
0
40
0
40
0
40
0.5
40
0.5
40
1
40
1
40
1
40
1
41
1
10
39.0000000000001
20
14.6623793893338
30
0
41
1
10
38.9355620669402
20
14.7975477176731
30
0
41
1
10
38.8379516394873
20
14.9240606261702
30
0
41
1
10
38.5800453165375
20
15.1607304514351
30
0
41
1
10
38.4197307843666
20
15.2708825054923
30
0
41
1
10
38.2256298638463
20
15.3722189615227
30
0
0
SPLINE
5
1CC
100
AcDbEntity
8
1
62
256
6
ByLayer
370
18
48
1
60
0
100
AcDbSpline
70
4
71
3
72
8
73
4
40
0
40
0
40
0
40
0
40
1
40
1
40
1
40
1
41
1
10
38.0517424605562
20
-12.0684141943668
30
0
41
1
10
38.1310307446382
20
-12.1210623860453
30
0
41
1
10
38.2057877974505
20
-12.1754441407315
30
0
41
1
10
38.2761482218775
20
-12.2315079619188
30
0
0
SPLINE
5
1CD
100
AcDbEntity
8
1
62
256
6
ByLayer
370
18
48
1
60
0
100
AcDbSpline
70
4
71
3
72
8
73
4
40
0
40
0
40
0
40
0
40
1
40
1
40
1
40
1
41
1
10
31.4842155056028
20
-6.86028346523716
30
0
41
1
10
31.3771107062145
20
-6.8234687115073
30
0
41
1
10
31.2721831237059
20
-6.78500560581
30
0
41
1
10
31.1695220682937
20
-6.74482653215679
30
0
0
SPLINE
5
1CE
100
AcDbEntity
8
1
62
256
6
ByLayer
370
18
48
1
60
0
100
AcDbSpline
70
4
71
3
72
17
73
13
40
0
40
0
40
0
40
0
40
0.250000000000003
40
0.250000000000003
40
0.500000000000006
40
0.500000000000006
40
0.625000000000005
40
0.625000000000005
40
0.750000000000003
40
0.875000000000002
40
0.875000000000002
40
1
40
1
40
1
40
1
41
1
10
27.7051557976568
20
14.8991381271456
30
0
41
1
10
27.662672791768
20
15.028589618905
30
0
41
1
10
27.6424558545926
20
15.1597351966657
30
0
41
1
10
27.6480305460016
20
15.4239791628832
30
0
41
1
10
27.6736342223242
20
15.5516485681759
30
0
41
1
10
27.7454056052761
20
15.7368659737442
30
0
41
1
10
27.7752368463929
20
15.7979044374261
30
0
41
1
10
27.8447882547937
20
15.9146411801867
30
0
41
1
10
27.9243302593444
20
16.0266869454118
30
0
41
1
10
28.0235403336044
20
16.1297126277303
30
0
41
1
10
28.1329465958403
20
16.228191294364
30
0
41
1
10
28.1920245824083
20
16.274450533123
30
0
41
1
10
28.2546248753079
20
16.3173259930047
30
0
0
SPLINE
5
1CF
100
AcDbEntity
8
1
62
256
6
ByLayer
370
18
48
1
60
0
100
AcDbSpline
70
4
71
3
72
28
73
24
40
0
40
0
40
0
40
0
40
0.124999999999997
40
0.124999999999997
40
0.249999999999994
40
0.249999999999994
40
0.312499999999995
40
0.312499999999995
40
0.374999999999995
40
0.374999999999995
40
0.499999999999999
40
0.499999999999999
40
0.5625
40
0.5625
40
0.625000000000001
40
0.625000000000001
40
0.687500000000001
40
0.687500000000001
40
0.750000000000002
40
0.750000000000002
40
0.875000000000001
40
0.875000000000001
40
1
40
1
40
1
40
1
41
1
10
38.102752382128
20
-2.10305310671077
30
0
41
1
10
38.1385355941278
20
-2.20120116044078
30
0
41
1
10
38.1756827748103
20
-2.29657290306841
30
0
41
1
10
38.2536085848234
20
-2.4799247001373
30
0
41
1
10
38.2944398480794
20
-2.56796182212784
30
0
41
1
10
38.3580274394184
20
-2.68898537462383
30
0
41
1
10
38.3796643926495
20
-2.72759036194429
30
0
41
1
10
38.4240197243474
20
-2.80054367826872
30
0
41
1
10
38.4467369993631
20
-2.83487263107486
30
0
41
1
10
38.515431523476
20
-2.9277157544534
30
0
41
1
10
38.5623418206323
20
-2.9773151461026
30
0
41
1
10
38.6353004061839
20
-3.0219782923995
30
0
41
1
10
38.6592457412598
20
-3.03121749818857
30
0
41
1
10
38.7062890768652
20
-3.03690525972749
30
0
41
1
10
38.729650517205
20
-3.03318303269379
30
0
41
1
10
38.7733960340052
20
-3.01239258131184
30
0
41
1
10
38.7939515806181
20
-2.99551070939685
30
0
41
1
10
38.8326080501787
20
-2.9496591027908
30
0
41
1
10
38.8503788098277
20
-2.92098946579952
30
0
41
1
10
38.8987035679885
20
-2.82329774015992
30
0
41
1
10
38.9251267138047
20
-2.74088616405879
30
0
41
1
10
38.968388168537
20
-2.56211175427344
30
0
41
1
10
38.9855782837939
20
-2.46516376227419
30
0
41
1
10
39
20
-2.3635021687866
30
0
0
SPLINE
5
1D0
100
AcDbEntity
8
1
62
256
6
ByLayer
370
18
48
1
60
0
100
AcDbSpline
70
4
71
3
72
16
73
12
40
0
40
0
40
0
40
0
40
0.125
40
0.125
40
0.25
40
0.25
40
0.5
40
0.5
40
0.75
40
0.75
40
1
40
1
40
1
40
1
41
1
10
38.102752382128
20
-2.10305310671035
30
0
41
1
10
38.067445978233
20
-2.00621286703273
30
0
41
1
10
38.0267047813443
20
-1.91623397014112
30
0
41
1
10
37.9376961801925
20
-1.74346263348471
30
0
41
1
10
37.8893603671548
20
-1.6608002140687
30
0
41
1
10
37.7349177580456
20
-1.41955226728189
30
0
41
1
10
37.6194934090128
20
-1.26750452699457
30
0
41
1
10
37.3665645690172
20
-0.972413407900916
30
0
41
1
10
37.2285277666373
20
-0.829340220867806
30
0
41
1
10
36.9352728572804
20
-0.55578447196703
30
0
41
1
10
36.7794759499366
20
-0.424579304942881
30
0
41
1
10
36.6139482090622
20
-0.29872918184455
30
0
0
SPLINE
5
1D1
100
AcDbEntity
8
1
62
256
6
ByLayer
370
18
48
1
60
0
100
AcDbSpline
70
4
71
3
72
9
73
5
40
0
40
0
40
0
40
0
40
0.5
40
1
40
1
40
1
40
1
41
1
10
37.9967618587394
20
-12.0266418263683
30
0
41
1
10
38.0051043099588
20
-12.0339253556082
30
0
41
1
10
38.0226022406733
20
-12.0481740607438
30
0
41
1
10
38.0417477713572
20
-12.0617776235441
30
0
41
1
10
38.0517424605563
20
-12.0684141943668
30
0
0
SPLINE
5
1D2
100
AcDbEntity
8
1
62
256
6
ByLayer
370
18
48
1
60
0
100
AcDbSpline
70
4
71
3
72
16
73
12
40
0
40
0
40
0
40
0
40
0.250000000000006
40
0.250000000000006
40
0.500000000000012
40
0.500000000000012
40
0.625000000000004
40
0.625000000000004
40
0.749999999999996
40
0.749999999999996
40
1
40
1
40
1
40
1
41
1
10
34.0523073512461
20
17.4278074653288
30
0
41
1
10
34.1288417044199
20
17.445923526359
30
0
41
1
10
34.2078142869484
20
17.4559597579217
30
0
41
1
10
34.3668686512615
20
17.459543865096
30
0
41
1
10
34.4483389125336
20
17.4529105150671
30
0
41
1
10
34.5659852510291
20
17.4310629832545
30
0
41
1
10
34.6046661629144
20
17.4218201140169
30
0
41
1
10
34.6809646649938
20
17.3994532360073
30
0
41
1
10
34.7188242676673
20
17.3862235662148
30
0
41
1
10
34.82873505926
20
17.3414078411667
30
0
41
1
10
34.8969638937938
20
17.3049926155044
30
0
41
1
10
34.9603157622571
20
17.2624665188258
30
0
0
SPLINE
5
1D3
100
AcDbEntity
8
1
62
256
6
ByLayer
370
18
48
1
60
0
100
AcDbSpline
70
4
71
3
72
29
73
25
40
0
40
0
40
0
40
0
40
0.125000000000001
40
0.125000000000001
40
0.187500000000001
40
0.187500000000001
40
0.250000000000001
40
0.250000000000001
40
0.374999999999999
40
0.374999999999999
40
0.437499999999999
40
0.437499999999999
40
0.5
40
0.5625
40
0.5625
40
0.625
40
0.625
40
0.750000000000001
40
0.750000000000001
40
0.812500000000001
40
0.812500000000001
40
0.875000000000001
40
0.875000000000001
40
1
40
1
40
1
40
1
41
1
10
35.5617208061591
20
0.735750044454306
30
0
41
1
10
35.6754489348265
20
0.713315993637764
30
0
41
1
10
35.7809482949851
20
0.69513143448799
30
0
41
1
10
35.9275594759819
20
0.677062280329153
30
0
41
1
10
35.9746969988703
20
0.672578067593037
30
0
41
1
10
36.063277099319
20
0.667370712955091
30
0
41
1
10
36.1048501689131
20
0.66661563001739
30
0
41
1
10
36.2215394363673
20
0.67036023425166
30
0
41
1
10
36.288737834116
20
0.680849177039278
30
0
41
1
10
36.3722069247736
20
0.710757185823326
30
0
41
1
10
36.3969309878818
20
0.723082639257768
30
0
41
1
10
36.4390586919616
20
0.751855589343791
30
0
41
1
10
36.4742326919827
20
0.784867381182949
30
0
41
1
10
36.4953852568723
20
0.825979500678727
30
0
41
1
10
36.5092405615051
20
0.870928772864346
30
0
41
1
10
36.5124846789492
20
0.895477999600189
30
0
41
1
10
36.5106968057566
20
0.972572682116748
30
0
41
1
10
36.4945532015266
20
1.02887246823627
30
0
41
1
10
36.4477430885087
20
1.11725065047367
30
0
41
1
10
36.4281931395825
20
1.14752921187642
30
0
41
1
10
36.3822120610072
20
1.20750129960359
30
0
41
1
10
36.3557634792642
20
1.23729986596706
30
0
41
1
10
36.2662509495922
20
1.32528863017234
30
0
41
1
10
36.1931374093002
20
1.382090126462
30
0
41
1
10
36.1057570054477
20
1.43477548756113
30
0
0
SPLINE
5
1D4
100
AcDbEntity
8
1
62
256
6
ByLayer
370
18
48
1
60
0
100
AcDbSpline
70
4
71
3
72
10
73
6
40
0
40
0
40
0
40
0
40
0.5
40
0.5
40
1
40
1
40
1
40
1
41
1
10
32.149067791316
20
8.72680997383509
30
0
41
1
10
32.2087437376424
20
8.80394786165201
30
0
41
1
10
32.2723895753677
20
8.87794441459519
30
0
41
1
10
32.4050576843028
20
9.01694631074969
30
0
41
1
10
32.4725922259309
20
9.08049453383006
30
0
41
1
10
32.5411962668409
20
9.13873954724792
30
0
0
SPLINE
5
1D5
100
AcDbEntity
8
1
62
256
6
ByLayer
370
18
48
1
60
0
100
AcDbSpline
70
4
71
3
72
8
73
4
40
0
40
0
40
0
40
0
40
1
40
1
40
1
40
1
41
1
10
37.8406459952582
20
2.09964763715752
30
0
41
1
10
37.8647927490267
20
2.0715142483233
30
0
41
1
10
37.8888208531189
20
2.04226683473351
30
0
41
1
10
37.9127321286649
20
2.0118834882054
30
0
0
SPLINE
5
1D6
100
AcDbEntity
8
1
62
256
6
ByLayer
370
18
48
1
60
0
100
AcDbSpline
70
4
71
3
72
8
73
4
40
0
40
0
40
0
40
0
40
1
40
1
40
1
40
1
41
1
10
31.4584433364799
20
-20.2577944166264
30
0
41
1
10
31.3573864400118
20
-20.1399552566822
30
0
41
1
10
31.2612238697664
20
-20.0182932863944
30
0
41
1
10
31.1695220682937
20
-19.8931471443877
30
0
0
SPLINE
5
1D7
100
AcDbEntity
8
1
62
256
6
ByLayer
370
18
48
1
60
0
100
AcDbSpline
70
4
71
3
72
10
73
6
40
0
40
0
40
0
40
0
40
0.5
40
0.5
40
1
40
1
40
1
40
1
41
1
10
39
20
-20.208570889959
30
0
41
1
10
38.9355620669402
20
-20.5650791779545
30
0
41
1
10
38.8379516394872
20
-20.9082579491035
30
0
41
1
10
38.5800453165375
20
-21.5694269423459
30
0
41
1
10
38.4197307843664
20
-21.8874096757692
30
0
41
1
10
38.2256298638461
20
-22.1918162147903
30
0
0
SPLINE
5
1D8
100
AcDbEntity
8
1
62
256
6
ByLayer
370
18
48
1
60
0
100
AcDbSpline
70
4
71
3
72
29
73
25
40
0
40
0
40
0
40
0
40
0.125000000000002
40
0.125000000000002
40
0.187500000000004
40
0.187500000000004
40
0.250000000000006
40
0.250000000000006
40
0.375000000000006
40
0.375000000000006
40
0.437500000000006
40
0.437500000000006
40
0.500000000000006
40
0.562500000000006
40
0.562500000000006
40
0.625000000000005
40
0.625000000000005
40
0.750000000000005
40
0.750000000000005
40
0.812500000000005
40
0.812500000000005
40
0.875000000000004
40
0.875000000000004
40
1
40
1
40
1
40
1
41
1
10
35.561720806159
20
-20.1272673740612
30
0
41
1
10
35.6754489348264
20
-20.0610214792567
30
0
41
1
10
35.780948294985
20
-19.9842230823583
30
0
41
1
10
35.9275594759819
20
-19.8519980559279
30
0
41
1
10
35.9746969988703
20
-19.804779715119
30
0
41
1
10
36.0632770993189
20
-19.7060337581614
30
0
41
1
10
36.104850168913
20
-19.6544427700781
30
0
41
1
10
36.2215394363673
20
-19.4928649342413
30
0
41
1
10
36.288737834116
20
-19.3761393140771
30
0
41
1
10
36.3722069247735
20
-19.185815368896
30
0
41
1
10
36.3969309878818
20
-19.1200899922259
30
0
41
1
10
36.4390586919616
20
-18.9869785114647
30
0
41
1
10
36.4742326919827
20
-18.8514077598185
30
0
41
1
10
36.4953852568723
20
-18.7110007529344
30
0
41
1
10
36.5092405615051
20
-18.5681806535695
30
0
41
1
10
36.5124846789492
20
-18.4951575462249
30
0
41
1
10
36.5106968057565
20
-18.2777048987365
30
0
41
1
10
36.4945532015266
20
-18.1336628834335
30
0
41
1
10
36.4477430885087
20
-17.9194938710116
30
0
41
1
10
36.4281931395824
20
-17.8480566316356
30
0
41
1
10
36.3822120610072
20
-17.7089824657773
30
0
41
1
10
36.3557634792641
20
-17.641073381921
30
0
41
1
10
36.2662509495922
20
-17.4421981286709
30
0
41
1
10
36.1931374093002
20
-17.3160278742702
30
0
41
1
10
36.1057570054477
20
-17.1968305669655
30
0
0
SPLINE
5
1D9
100
AcDbEntity
8
1
62
256
6
ByLayer
370
18
48
1
60
0
100
AcDbSpline
70
4
71
3
72
10
73
6
40
0
40
0
40
0
40
0
40
0.5
40
0.5
40
1
40
1
40
1
40
1
41
1
10
27.4666604101371
20
-8.42787633707025
30
0
41
1
10
27.4841890394527
20
-8.31813162305025
30
0
41
1
10
27.5137889224615
20
-8.21208414842397
30
0
41
1
10
27.5940389372331
20
-8.00647881393593
30
0
41
1
10
27.6448489273995
20
-7.90671029406272
30
0
41
1
10
27.7051557976567
20
-7.81043890873838
30
0
0
SPLINE
5
1DA
100
AcDbEntity
8
1
62
256
6
ByLayer
370
18
48
1
60
0
100
AcDbSpline
70
4
71
3
72
50
73
46
40
0
40
0
40
0
40
0
40
0.0624999999999978
40
0.0624999999999978
40
0.124999999999996
40
0.124999999999996
40
0.156249999999994
40
0.156249999999994
40
0.187499999999993
40
0.187499999999993
40
0.249999999999991
40
0.249999999999991
40
0.281249999999991
40
0.281249999999991
40
0.312499999999992
40
0.312499999999992
40
0.343749999999992
40
0.343749999999992
40
0.374999999999992
40
0.374999999999992
40
0.406249999999992
40
0.406249999999992
40
0.437499999999992
40
0.437499999999992
40
0.499999999999993
40
0.499999999999993
40
0.531249999999993
40
0.531249999999993
40
0.562499999999993
40
0.562499999999993
40
0.624999999999994
40
0.624999999999994
40
0.687499999999995
40
0.687499999999995
40
0.749999999999996
40
0.749999999999996
40
0.812499999999997
40
0.812499999999997
40
0.843749999999997
40
0.843749999999997
40
0.874999999999997
40
0.874999999999997
40
0.937499999999999
40
0.937499999999999
40
1
40
1
40
1
40
1
41
1
10
35.2557446866695
20
0.654131232038111
30
0
41
1
10
35.2081406915145
20
0.538573480524263
30
0
41
1
10
35.1527135531842
20
0.424551243613791
30
0
41
1
10
35.0254961946739
20
0.203532897145749
30
0
41
1
10
34.9546934318952
20
0.0981086494433612
30
0
41
1
10
34.8358949572269
20
-0.0504642113293698
30
0
41
1
10
34.7941779716236
20
-0.0983805270942639
30
0
41
1
10
34.7058857222934
20
-0.190413457305823
30
0
41
1
10
34.6590403303377
20
-0.23474228451704
30
0
41
1
10
34.5126505007573
20
-0.358401939741043
30
0
41
1
10
34.4070086384775
20
-0.429208492882907
30
0
41
1
10
34.2330371005288
20
-0.510377776787806
30
0
41
1
10
34.173772700465
20
-0.532556539187908
30
0
41
1
10
34.0525882354858
20
-0.566273429314947
30
0
41
1
10
33.9903690402986
20
-0.577841299420442
30
0
41
1
10
33.8643491891951
20
-0.588885634280587
30
0
41
1
10
33.8020110145878
20
-0.588283980404213
30
0
41
1
10
33.6787523004692
20
-0.575394613427449
30
0
41
1
10
33.6174822793596
20
-0.562995258216375
30
0
41
1
10
33.498024052936
20
-0.527235916574853
30
0
41
1
10
33.4407404783088
20
-0.504238376129791
30
0
41
1
10
33.3304881830617
20
-0.449524598246313
30
0
41
1
10
33.2771871740881
20
-0.417547382423379
30
0
41
1
10
33.126092233378
20
-0.312192676136306
30
0
41
1
10
33.0369109509816
20
-0.229979522845753
30
0
41
1
10
32.9158587580359
20
-0.0945072545861194
30
0
41
1
10
32.877520703952
20
-0.0470584166552896
30
0
41
1
10
32.8057329387503
20
0.0500604587728617
30
0
41
1
10
32.7722251642992
20
0.0997514513802571
30
0
41
1
10
32.6779390613535
20
0.251532993553468
30
0
41
1
10
32.6233297306568
20
0.356302477390415
30
0
41
1
10
32.528072099762
20
0.570574944751911
30
0
41
1
10
32.4872596432588
20
0.680788435606217
30
0
41
1
10
32.4203144292865
20
0.900352304412394
30
0
41
1
10
32.3940883545995
20
1.00963113060058
30
0
41
1
10
32.3561637223025
20
1.22554819417161
30
0
41
1
10
32.3444479512127
20
1.33218579680252
30
0
41
1
10
32.3394251204425
20
1.48896429511893
30
0
41
1
10
32.33989143922
20
1.5407219378618
30
0
41
1
10
32.3453826256689
20
1.64104656714355
30
0
41
1
10
32.3503921458553
20
1.68985954924941
30
0
41
1
10
32.3726337578001
20
1.83210783379491
30
0
41
1
10
32.3970801473631
20
1.92144167579539
30
0
41
1
10
32.4684665374712
20
2.08847225566171
30
0
41
1
10
32.5142994045281
20
2.16362794864392
30
0
41
1
10
32.5705530477236
20
2.23253364460217
30
0
0
SPLINE
5
1DB
100
AcDbEntity
8
1
62
256
6
ByLayer
370
18
48
1
60
0
100
AcDbSpline
70
4
71
3
72
8
73
4
40
0
40
0
40
0
40
0
40
1
40
1
40
1
40
1
41
1
10
36.9001026208775
20
8.53281924351248
30
0
41
1
10
36.8898800821258
20
8.42320573326404
30
0
41
1
10
36.8827856647207
20
8.31734778502377
30
0
41
1
10
36.8789398044648
20
8.21533468722609
30
0
0
SPLINE
5
1DC
100
AcDbEntity
8
1
62
256
6
ByLayer
370
18
48
1
60
0
100
AcDbSpline
70
4
71
3
72
8
73
4
40
0
40
0
40
0
40
0
40
1
40
1
40
1
40
1
41
1
10
29.2492272221363
20
12.7557005616969
30
0
41
1
10
29.2502735925977
20
12.7527562502281
30
0
41
1
10
29.2513413552431
20
12.7498868298185
30
0
41
1
10
29.2524314040679
20
12.7470954302214
30
0
0
SPLINE
5
1DD
100
AcDbEntity
8
1
62
256
6
ByLayer
370
18
48
1
60
0
100
AcDbSpline
70
4
71
3
72
8
73
4
40
0
40
0
40
0
40
0
40
1
40
1
40
1
40
1
41
1
10
31.4842155056027
20
-23.5470191525876
30
0
41
1
10
31.3771107062145
20
-23.4793682899494
30
0
41
1
10
31.2721831237059
20
-23.4074430880386
30
0
41
1
10
31.1695220682937
20
-23.3310682119262
30
0
0
SPLINE
5
1DE
100
AcDbEntity
8
1
62
256
6
ByLayer
370
18
48
1
60
0
100
AcDbSpline
70
4
71
3
72
8
73
4
40
0
40
0
40
0
40
0
40
1
40
1
40
1
40
1
41
1
10
36.8917657702229
20
8.53786125420788
30
0
41
1
10
36.9296423789799
20
8.59285577449
30
0
41
1
10
36.9675426273519
20
8.64784904242634
30
0
41
1
10
37.00546469904
20
8.7028411542382
30
0
0
SPLINE
5
1DF
100
AcDbEntity
8
1
62
256
6
ByLayer
370
18
48
1
60
0
100
AcDbSpline
70
4
71
3
72
8
73
4
40
0
40
0
40
0
40
0
40
1
40
1
40
1
40
1
41
1
10
31.4584433364799
20
1.34416038280639
30
0
41
1
10
31.3573864400115
20
1.4608007786301
30
0
41
1
10
31.2612238697667
20
1.57979497550383
30
0
41
1
10
31.1695220682937
20
1.70093446505973
30
0
0
SPLINE
5
1E0
100
AcDbEntity
8
1
62
256
6
ByLayer
370
18
48
1
60
0
100
AcDbSpline
70
4
71
3
72
10
73
6
40
0
40
0
40
0
40
0
40
0.5
40
0.5
40
1
40
1
40
1
40
1
41
1
10
37.9967618587394
20
12.0266418263682
30
0
41
1
10
38.0051114182051
20
12.0339315615922
30
0
41
1
10
38.0138850913361
20
12.041076664151
30
0
41
1
10
38.0323026725139
20
12.0550700988379
30
0
41
1
10
38.0418549778805
20
12.0618488097179
30
0
41
1
10
38.0517424605563
20
12.0684141943666
30
0
0
SPLINE
5
1E1
100
AcDbEntity
8
1
62
256
6
ByLayer
370
18
48
1
60
0
100
AcDbSpline
70
4
71
3
72
8
73
4
40
0
40
0
40
0
40
0
40
1
40
1
40
1
40
1
41
1
10
31.4842155056028
20
16.6867356873504
30
0
41
1
10
31.3771107062145
20
16.6558995784421
30
0
41
1
10
31.272183123706
20
16.6224374822285
30
0
41
1
10
31.1695220682938
20
16.5862416797694
30
0
0
SPLINE
5
1E2
100
AcDbEntity
8
1
62
256
6
ByLayer
370
18
48
1
60
0
100
AcDbSpline
70
4
71
3
72
22
73
18
40
0
40
0
40
0
40
0
40
0.125
40
0.125
40
0.25
40
0.25
40
0.375
40
0.375
40
0.5
40
0.5
40
0.625
40
0.625
40
0.75
40
0.75
40
0.875
40
0.875
40
1
40
1
40
1
40
1
41
1
10
35.9941811092514
20
-8.38897323198754
30
0
41
1
10
35.7655240492522
20
-8.45996175047014
30
0
41
1
10
35.5341946849687
20
-8.52722824299323
30
0
41
1
10
35.0649519961511
20
-8.64682742230943
30
0
41
1
10
34.8256491187875
20
-8.69941336749281
30
0
41
1
10
34.3528856196247
20
-8.78648945200547
30
0
41
1
10
34.1181626112858
20
-8.82153405856977
30
0
41
1
10
33.6505409572023
20
-8.87869599375063
30
0
41
1
10
33.4176544113954
20
-8.90088609885336
30
0
41
1
10
32.9529530298246
20
-8.93634284945202
30
0
41
1
10
32.7211414857272
20
-8.94965972534663
30
0
41
1
10
32.2583164939686
20
-8.96926542867126
30
0
41
1
10
32.0268881784722
20
-8.97556445364836
30
0
41
1
10
31.5677299314538
20
-8.97991805764556
30
0
41
1
10
31.3399133014355
20
-8.97794534508341
30
0
41
1
10
30.8896869369511
20
-8.96222639703339
30
0
41
1
10
30.6672777258028
20
-8.94840945824129
30
0
41
1
10
30.4491353053854
20
-8.92655488594937
30
0
0
SPLINE
5
1E3
100
AcDbEntity
8
1
62
256
6
ByLayer
370
18
48
1
60
0
100
AcDbSpline
70
4
71
3
72
18
73
14
40
0
40
0
40
0
40
0
40
0.250000000000001
40
0.250000000000001
40
0.375000000000002
40
0.375000000000002
40
0.500000000000002
40
0.500000000000002
40
0.750000000000003
40
0.750000000000003
40
0.875000000000002
40
0.875000000000002
40
1
40
1
40
1
40
1
41
1
10
19.1885663263357
20
-23.0381567314477
30
0
41
1
10
19.3496534087959
20
-23.0316431451126
30
0
41
1
10
19.5191313892815
20
-23.025305134315
30
0
41
1
10
19.7847697149368
20
-23.0168654678505
30
0
41
1
10
19.8752346916489
20
-23.0142273045121
30
0
41
1
10
20.0599678183345
20
-23.0094099266625
30
0
41
1
10
20.1547020067991
20
-23.0072221685454
30
0
41
1
10
20.4408159985305
20
-23.0015670094057
30
0
41
1
10
20.633569795789
20
-22.9990105705195
30
0
41
1
10
20.9255064678289
20
-22.9971583951366
30
0
41
1
10
21.0232893483473
20
-22.9968697775689
30
0
41
1
10
21.2197931986218
20
-22.9969587808273
30
0
41
1
10
21.3186001145343
20
-22.9973387623961
30
0
41
1
10
21.4169262072275
20
-22.9980399708225
30
0
0
SPLINE
5
1E4
100
AcDbEntity
8
1
62
256
6
ByLayer
370
18
48
1
60
0
100
AcDbSpline
70
4
71
3
72
10
73
6
40
0
40
0
40
0
40
0
40
0.5
40
0.5
40
1
40
1
40
1
40
1
41
1
10
18.3799213696254
20
-13.3546355680327
30
0
41
1
10
18.4951223481027
20
-13.5936313954996
30
0
41
1
10
18.6184129731068
20
-13.821600654514
30
0
41
1
10
18.8858240243517
20
-14.2510235889935
30
0
41
1
10
19.0298001337137
20
-14.4526722086448
30
0
41
1
10
19.188566326335
20
-14.6358900655166
30
0
0
SPLINE
5
1E5
100
AcDbEntity
8
1
62
256
6
ByLayer
370
18
48
1
60
0
100
AcDbSpline
70
4
71
3
72
8
73
4
40
0
40
0
40
0
40
0
40
1
40
1
40
1
40
1
41
1
10
38.0517424605562
20
12.0684141943667
30
0
41
1
10
38.1310307446383
20
12.1210623860452
30
0
41
1
10
38.2057877974505
20
12.1754441407314
30
0
41
1
10
38.2761482218775
20
12.2315079619186
30
0
0
SPLINE
5
1E6
100
AcDbEntity
8
1
62
256
6
ByLayer
370
18
48
1
60
0
100
AcDbSpline
70
4
71
3
72
14
73
10
40
0
40
0
40
0
40
0
40
0.250000000000003
40
0.250000000000003
40
0.375000000000004
40
0.375000000000004
40
0.500000000000005
40
0.500000000000005
40
1
40
1
40
1
40
1
41
1
10
38.2256298638464
20
15.3722189615226
30
0
41
1
10
38.1478665110484
20
15.4128177518862
30
0
41
1
10
38.0643385677211
20
15.4601419969436
30
0
41
1
10
37.9299800221822
20
15.5411449254294
30
0
41
1
10
37.8836869228603
20
15.5698257352035
30
0
41
1
10
37.7879467020383
20
15.6306186947509
30
0
41
1
10
37.7382741702223
20
15.6628811800989
30
0
41
1
10
37.4843080832105
20
15.831353719436
30
0
41
1
10
37.2684460354039
20
15.9850468175001
30
0
41
1
10
37.0412523855923
20
16.1570607748209
30
0
0
SPLINE
5
1E7
100
AcDbEntity
8
1
62
256
6
ByLayer
370
18
48
1
60
0
100
AcDbSpline
70
4
71
3
72
16
73
12
40
0
40
0
40
0
40
0
40
0.250000000000016
40
0.250000000000016
40
0.500000000000032
40
0.500000000000032
40
0.625000000000029
40
0.625000000000029
40
0.750000000000026
40
0.750000000000026
40
1
40
1
40
1
40
1
41
1
10
34.0523073512461
20
24.1600113277656
30
0
41
1
10
34.1288417044199
20
24.1538086250162
30
0
41
1
10
34.2078142869484
20
24.1482000354046
30
0
41
1
10
34.3668686512615
20
24.1380222849912
30
0
41
1
10
34.4483389125336
20
24.133383231098
30
0
41
1
10
34.5659852510292
20
24.1275818198338
30
0
41
1
10
34.6046661629144
20
24.1258252554402
30
0
41
1
10
34.6809646649939
20
24.1227215174632
30
0
41
1
10
34.7188242676673
20
24.121367673628
30
0
41
1
10
34.82873505926
20
24.1181241758224
30
0
41
1
10
34.8969638937938
20
24.1170246989967
30
0
41
1
10
34.9603157622571
20
24.1173861400128
30
0
0
SPLINE
5
1E8
100
AcDbEntity
8
1
62
256
6
ByLayer
370
18
48
1
60
0
100
AcDbSpline
70
4
71
3
72
8
73
4
40
0
40
0
40
0
40
0
40
1
40
1
40
1
40
1
41
1
10
32.5669878320583
20
10.6660922770629
30
0
41
1
10
32.5992928980286
20
10.5924677891822
30
0
41
1
10
32.6339318529622
20
10.5337017622614
30
0
41
1
10
32.6741601538707
20
10.4874811697205
30
0
0
SPLINE
5
1E9
100
AcDbEntity
8
1
62
256
6
ByLayer
370
18
48
1
60
0
100
AcDbSpline
70
4
71
3
72
8
73
4
40
0
40
0
40
0
40
0
40
1
40
1
40
1
40
1
41
1
10
29.9114982944628
20
13.5543682268192
30
0
41
1
10
30.0151348434197
20
13.5279724265838
30
0
41
1
10
30.1136822432243
20
13.4850535307601
30
0
41
1
10
30.2054580361783
20
13.4248523959179
30
0
0
SPLINE
5
1EA
100
AcDbEntity
8
1
62
256
6
ByLayer
370
18
48
1
60
0
100
AcDbSpline
70
4
71
3
72
8
73
4
40
0
40
0
40
0
40
0
40
1
40
1
40
1
40
1
41
1
10
31.1695220682937
20
-19.8931471443876
30
0
41
1
10
31.0723393666938
20
-19.7605211765255
30
0
41
1
10
30.9718282627834
20
-19.6301742353139
30
0
41
1
10
30.8676663340206
20
-19.5023270902084
30
0
0
SPLINE
5
1EB
100
AcDbEntity
8
1
62
256
6
ByLayer
370
18
48
1
60
0
100
AcDbSpline
70
4
71
3
72
22
73
18
40
0
40
0
40
0
40
0
40
0.125
40
0.125
40
0.25
40
0.25
40
0.375
40
0.375
40
0.5
40
0.5
40
0.625
40
0.625
40
0.75
40
0.75
40
0.875
40
0.875
40
1
40
1
40
1
40
1
41
1
10
28.0330509716322
20
-9.56006061935216
30
0
41
1
10
28.0399471729318
20
-9.48834898289832
30
0
41
1
10
28.0518570681539
20
-9.4141363530062
30
0
41
1
10
28.0845111757038
20
-9.26690811524756
30
0
41
1
10
28.1052955041042
20
-9.19314778618948
30
0
41
1
10
28.1557028147093
20
-9.04533719728343
30
0
41
1
10
28.1856093570906
20
-8.97085504931059
30
0
41
1
10
28.2518004862297
20
-8.82749803956139
30
0
41
1
10
28.28828086165
20
-8.75790271132362
30
0
41
1
10
28.3677012270397
20
-8.6226876146961
30
0
41
1
10
28.4110141197438
20
-8.55657065855095
30
0
41
1
10
28.5024889903341
20
-8.43075320136992
30
0
41
1
10
28.5500682561831
20
-8.3717338490986
30
0
41
1
10
28.6485747881692
20
-8.26076508538773
30
0
41
1
10
28.6995046032055
20
-8.20882105643457
30
0
41
1
10
28.8045997805423
20
-8.11176547336351
30
0
41
1
10
28.8592529077024
20
-8.06632643757803
30
0
41
1
10
28.91395207147
20
-8.02548857703246
30
0
0
SPLINE
5
1EC
100
AcDbEntity
8
1
62
256
6
ByLayer
370
18
48
1
60
0
100
AcDbSpline
70
4
71
3
72
10
73
6
40
0
40
0
40
0
40
0
40
0.5
40
0.5
40
1
40
1
40
1
40
1
41
1
10
39.0000000000001
20
20.2085708899589
30
0
41
1
10
38.9355620669402
20
20.5650791779544
30
0
41
1
10
38.8379516394873
20
20.9082579491034
30
0
41
1
10
38.5800453165376
20
21.5694269423457
30
0
41
1
10
38.4197307843665
20
21.887409675769
30
0
41
1
10
38.2256298638462
20
22.1918162147902
30
0
0
SPLINE
5
1ED
100
AcDbEntity
8
1
62
256
6
ByLayer
370
18
48
1
60
0
100
AcDbSpline
70
4
71
3
72
18
73
14
40
0
40
0
40
0
40
0
40
0.249999999999996
40
0.249999999999996
40
0.374999999999996
40
0.374999999999996
40
0.499999999999996
40
0.499999999999996
40
0.75
40
0.75
40
0.875
40
0.875
40
1
40
1
40
1
40
1
41
1
10
19.1885663263358
20
23.0381567314476
30
0
41
1
10
19.349653408796
20
23.0316431451125
30
0
41
1
10
19.5191313892816
20
23.025305134315
30
0
41
1
10
19.7847697149368
20
23.0168654678504
30
0
41
1
10
19.8752346916489
20
23.014227304512
30
0
41
1
10
20.0599678183345
20
23.0094099266624
30
0
41
1
10
20.1547020067991
20
23.0072221685453
30
0
41
1
10
20.4408159985305
20
23.0015670094057
30
0
41
1
10
20.633569795789
20
22.9990105705195
30
0
41
1
10
20.9255064678288
20
22.9971583951365
30
0
41
1
10
21.0232893483471
20
22.9968697775688
30
0
41
1
10
21.2197931986217
20
22.9969587808272
30
0
41
1
10
21.3186001145344
20
22.9973387623961
30
0
41
1
10
21.4169262072276
20
22.9980399708224
30
0
0
SPLINE
5
1EE
100
AcDbEntity
8
1
62
256
6
ByLayer
370
18
48
1
60
0
100
AcDbSpline
70
4
71
3
72
8
73
4
40
0
40
0
40
0
40
0
40
1
40
1
40
1
40
1
41
1
10
31.1695220682938
20
21.5940816094474
30
0
41
1
10
31.0720610285599
20
21.589823323269
30
0
41
1
10
30.9715223835024
20
21.5865303432516
30
0
41
1
10
30.8676663340207
20
21.5842778835714
30
0
0
SPLINE
5
1EF
100
AcDbEntity
8
1
62
256
6
ByLayer
370
18
48
1
60
0
100
AcDbSpline
70
4
71
3
72
8
73
4
40
0
40
0
40
0
40
0
40
1
40
1
40
1
40
1
41
1
10
28.9139520714699
20
-8.02548857703252
30
0
41
1
10
28.9112548708434
20
-8.01898645823218
30
0
41
1
10
28.9085966013394
20
-8.01249218383361
30
0
41
1
10
28.9059769888546
20
-8.00600569860669
30
0
0
SPLINE
5
1F0
100
AcDbEntity
8
1
62
256
6
ByLayer
370
18
48
1
60
0
100
AcDbSpline
70
4
71
3
72
8
73
4
40
0
40
0
40
0
40
0
40
1
40
1
40
1
40
1
41
1
10
31.1695220682938
20
23.3310682119261
30
0
41
1
10
31.1490654907558
20
23.3158495044146
30
0
41
1
10
31.1285080628214
20
23.3007906059263
30
0
41
1
10
31.1078500387077
20
23.2858911136252
30
0
0
SPLINE
5
1F1
100
AcDbEntity
8
1
62
256
6
ByLayer
370
18
48
1
60
0
100
AcDbSpline
70
4
71
3
72
17
73
13
40
0
40
0
40
0
40
0
40
0.24999999999999
40
0.24999999999999
40
0.374999999999991
40
0.374999999999991
40
0.499999999999991
40
0.624999999999992
40
0.624999999999992
40
0.749999999999992
40
0.749999999999992
40
1
40
1
40
1
40
1
41
1
10
36.8713731562776
20
20.8477305696046
30
0
41
1
10
36.8164882063942
20
20.9845434033245
30
0
41
1
10
36.7489003934011
20
21.114764727693
30
0
41
1
10
36.6279989455956
20
21.3001035739863
30
0
41
1
10
36.5841094850558
20
21.3605764967234
30
0
41
1
10
36.4908749738233
20
21.4760819627557
30
0
41
1
10
36.3928043785347
20
21.5855573670563
30
0
41
1
10
36.2853295324371
20
21.6832821589783
30
0
41
1
10
36.1730965237355
20
21.7750739941388
30
0
41
1
10
36.114217644069
20
21.818219624621
30
0
41
1
10
35.9344444624451
20
21.9357015976841
30
0
41
1
10
35.8097537847923
20
21.9990318977954
30
0
41
1
10
35.6801019649178
20
22.048154966326
30
0
0
SPLINE
5
1F2
100
AcDbEntity
8
1
62
256
6
ByLayer
370
18
48
1
60
0
100
AcDbSpline
70
4
71
3
72
16
73
12
40
0
40
0
40
0
40
0
40
0.25
40
0.25
40
0.499999999999999
40
0.499999999999999
40
0.624999999999998
40
0.624999999999998
40
0.749999999999997
40
0.749999999999997
40
1
40
1
40
1
40
1
41
1
10
38.0517424605562
20
-13.6829954386371
30
0
41
1
10
38.1858643147955
20
-13.8935978132493
30
0
41
1
10
38.3019362202206
20
-14.1104887845328
30
0
41
1
10
38.5066726090835
20
-14.5536635125729
30
0
41
1
10
38.5952389156115
20
-14.7799815907038
30
0
41
1
10
38.710633527147
20
-15.1253325250203
30
0
41
1
10
38.7461579611005
20
-15.2414407501258
30
0
41
1
10
38.8116600321208
20
-15.4755046552179
30
0
41
1
10
38.8416803525639
20
-15.5936801969729
30
0
41
1
10
38.9232624043817
20
-15.9481328134635
30
0
41
1
10
38.9665622922976
20
-16.1849272103254
30
0
41
1
10
38.9999999999999
20
-16.4218776922951
30
0
0
SPLINE
5
1F3
100
AcDbEntity
8
1
62
256
6
ByLayer
370
18
48
1
60
0
100
AcDbSpline
70
4
71
3
72
8
73
4
40
0
40
0
40
0
40
0
40
1
40
1
40
1
40
1
41
1
10
37.9127321286647
20
-13.3769520313315
30
0
41
1
10
37.9433990070948
20
-13.4853320039788
30
0
41
1
10
37.9905650499901
20
-13.5869327349771
30
0
41
1
10
38.0517424605572
20
-13.6829954386364
30
0
0
SPLINE
5
1F4
100
AcDbEntity
8
1
62
256
6
ByLayer
370
18
48
1
60
0
100
AcDbSpline
70
4
71
3
72
24
73
20
40
0
40
0
40
0
40
0
40
0.0624999999999985
40
0.0624999999999985
40
0.124999999999997
40
0.124999999999997
40
0.249999999999997
40
0.249999999999997
40
0.374999999999998
40
0.374999999999998
40
0.499999999999998
40
0.499999999999998
40
0.624999999999999
40
0.624999999999999
40
0.749999999999999
40
0.749999999999999
40
0.875
40
0.875
40
1
40
1
40
1
40
1
41
1
10
35.9941811092554
20
5.83299840155897
30
0
41
1
10
35.8810843864183
20
5.79540945894578
30
0
41
1
10
35.7665039193091
20
5.76296686008851
30
0
41
1
10
35.5341931485882
20
5.7082255789357
30
0
41
1
10
35.4163180733373
20
5.68595772537304
30
0
41
1
10
35.0643203293707
20
5.63440471815468
30
0
41
1
10
34.8295988044742
20
5.61973368137836
30
0
41
1
10
34.3590857893057
20
5.61974659967689
30
0
41
1
10
34.1233146840242
20
5.63440495848778
30
0
41
1
10
33.6506404081632
20
5.6840878937474
30
0
41
1
10
33.4155803736331
20
5.71885503915962
30
0
41
1
10
32.9492441530814
20
5.8006703371494
30
0
41
1
10
32.7174876470152
20
5.84775531067993
30
0
41
1
10
32.2560925482279
20
5.95134208856538
30
0
41
1
10
32.0264547279346
20
6.00784454496525
30
0
41
1
10
31.5696860541644
20
6.13188598784907
30
0
41
1
10
31.3425562998536
20
6.19944750227259
30
0
41
1
10
30.8922491781371
20
6.35144524428623
30
0
41
1
10
30.6690640357681
20
6.43589379915201
30
0
41
1
10
30.4491353053859
20
6.53347726919091
30
0
0
SPLINE
5
1F5
100
AcDbEntity
8
1
62
256
6
ByLayer
370
18
48
1
60
0
100
AcDbSpline
70
4
71
3
72
18
73
14
40
0
40
0
40
0
40
0
40
0.125000000000001
40
0.125000000000001
40
0.250000000000001
40
0.250000000000001
40
0.500000000000002
40
0.500000000000002
40
0.625000000000002
40
0.625000000000002
40
0.750000000000002
40
0.750000000000002
40
1
40
1
40
1
40
1
41
1
10
35.9941811092511
20
-8.38897323198648
30
0
41
1
10
36.021510786846
20
-8.33574192799861
30
0
41
1
10
36.0469878959426
20
-8.28114175434445
30
0
41
1
10
36.092983970833
20
-8.17180788911543
30
0
41
1
10
36.1136889930822
20
-8.1167273481548
30
0
41
1
10
36.1688161751009
20
-7.95022526810263
30
0
41
1
10
36.1962085606618
20
-7.83671356967716
30
0
41
1
10
36.2204798840179
20
-7.67337845889682
30
0
41
1
10
36.2259050468491
20
-7.61971026382969
30
0
41
1
10
36.231335301846
20
-7.51395364785816
30
0
41
1
10
36.2312929059761
20
-7.4615908437344
30
0
41
1
10
36.2229597811237
20
-7.31135068265968
30
0
41
1
10
36.206762464048
20
-7.2189091455617
30
0
41
1
10
36.1801229896467
20
-7.13404130502201
30
0
0
SPLINE
5
1F6
100
AcDbEntity
8
1
62
256
6
ByLayer
370
18
48
1
60
0
100
AcDbSpline
70
4
71
3
72
10
73
6
40
0
40
0
40
0
40
0
40
0.5
40
0.5
40
1
40
1
40
1
40
1
41
1
10
27.4666604101371
20
14.3894017560351
30
0
41
1
10
27.4841890394528
20
14.4815623721222
30
0
41
1
10
27.5137889224615
20
14.5697813234513
30
0
41
1
10
27.5940389372332
20
14.7394217402065
30
0
41
1
10
27.6448489273996
20
14.821012506465
30
0
41
1
10
27.7051557976568
20
14.8991381271456
30
0
0
SPLINE
5
1F7
100
AcDbEntity
8
1
62
256
6
ByLayer
370
18
48
1
60
0
100
AcDbSpline
70
4
71
3
72
14
73
10
40
0
40
0
40
0
40
0
40
0.249999999999999
40
0.249999999999999
40
0.374999999999998
40
0.374999999999998
40
0.499999999999997
40
0.499999999999997
40
1
40
1
40
1
40
1
41
1
10
34.0523073512464
20
-6.73220386243955
30
0
41
1
10
33.827935493235
20
-6.75793024039356
30
0
41
1
10
33.6036539636566
20
-6.7801386378822
30
0
41
1
10
33.2673700460085
20
-6.80806193885024
30
0
41
1
10
33.1549464455981
20
-6.81648061562464
30
0
41
1
10
32.9334952163033
20
-6.83123929354869
30
0
41
1
10
32.8241454339479
20
-6.83760575116358
30
0
41
1
10
32.2840354532664
20
-6.86455048898134
30
0
41
1
10
31.8730141450658
20
-6.87059708989605
30
0
41
1
10
31.4842155056028
20
-6.86028346523719
30
0
0
SPLINE
5
1F8
100
AcDbEntity
8
1
62
256
6
ByLayer
370
18
48
1
60
0
100
AcDbSpline
70
4
71
3
72
8
73
4
40
0
40
0
40
0
40
0
40
1
40
1
40
1
40
1
41
1
10
31.4584433364799
20
21.6019547994328
30
0
41
1
10
31.3573864400119
20
21.600756035312
30
0
41
1
10
31.2612238697665
20
21.5980882618986
30
0
41
1
10
31.1695220682938
20
21.5940816094474
30
0
0
SPLINE
5
1F9
100
AcDbEntity
8
1
62
256
6
ByLayer
370
18
48
1
60
0
100
AcDbSpline
70
4
71
3
72
17
73
13
40
0
40
0
40
0
40
0
40
0.125
40
0.125
40
0.250000000000001
40
0.375000000000001
40
0.375000000000001
40
0.500000000000001
40
0.500000000000001
40
0.750000000000001
40
0.750000000000001
40
1
40
1
40
1
40
1
41
1
10
27.7051557976565
20
-22.709577035884
30
0
41
1
10
27.6839639997253
20
-22.6945787572018
30
0
41
1
10
27.668132144887
20
-22.6787331049359
30
0
41
1
10
27.6480519467151
20
-22.6457955103097
30
0
41
1
10
27.6396222431063
20
-22.6119574797443
30
0
41
1
10
27.6537479681315
20
-22.5763394284765
30
0
41
1
10
27.6793708432929
20
-22.5398452491189
30
0
41
1
10
27.6980951797224
20
-22.5210951353467
30
0
41
1
10
27.7700958474322
20
-22.46526192579
30
0
41
1
10
27.8391856708079
20
-22.4280327571355
30
0
41
1
10
28.0205664903758
20
-22.3548388259513
30
0
41
1
10
28.128958966495
20
-22.3204488884241
30
0
41
1
10
28.2546248753078
20
-22.2889402528873
30
0
0
SPLINE
5
1FA
100
AcDbEntity
8
1
62
256
6
ByLayer
370
18
48
1
60
0
100
AcDbSpline
70
4
71
3
72
22
73
18
40
0
40
0
40
0
40
0
40
0.125
40
0.125
40
0.25
40
0.25
40
0.375
40
0.375
40
0.5
40
0.5
40
0.625
40
0.625
40
0.75
40
0.75
40
0.875
40
0.875
40
1
40
1
40
1
40
1
41
1
10
36.1246233771121
20
11.560837575514
30
0
41
1
10
36.1653312664598
20
11.5263589504965
30
0
41
1
10
36.2038788245982
20
11.4846238008086
30
0
41
1
10
36.2768865860689
20
11.3868627645959
30
0
41
1
10
36.3114422550361
20
11.3303950125571
30
0
41
1
10
36.3736195648149
20
11.2076700531273
30
0
41
1
10
36.40164948322
20
11.1409669268665
30
0
41
1
10
36.4514893501467
20
10.9966674366773
30
0
41
1
10
36.4729608582653
20
10.9197653348073
30
0
41
1
10
36.5078628831283
20
10.7611092567856
30
0
41
1
10
36.5215564803172
20
10.6784198995119
30
0
41
1
10
36.5406854218259
20
10.5078761556412
30
0
41
1
10
36.5459181151849
20
10.4221049996032
30
0
41
1
10
36.5477368669108
20
10.249583748994
30
0
41
1
10
36.54420319589
20
10.1619054156545
30
0
41
1
10
36.5281167448259
20
9.99144198840062
30
0
41
1
10
36.5156825470958
20
9.90845221503523
30
0
41
1
10
36.4986175987243
20
9.82776084320045
30
0
0
SPLINE
5
1FB
100
AcDbEntity
8
1
62
256
6
ByLayer
370
18
48
1
60
0
100
AcDbSpline
70
4
71
3
72
12
73
8
40
0
40
0
40
0
40
0
40
0.5
40
0.5
40
0.75
40
0.75
40
1
40
1
40
1
40
1
41
1
10
37.0412523855924
20
23.399082549806
30
0
41
1
10
36.7307876527051
20
23.5976176999321
30
0
41
1
10
36.4010965071882
20
23.7559506999608
30
0
41
1
10
35.8792853184644
20
23.9364196776741
30
0
41
1
10
35.7007254460992
20
23.9869097760168
30
0
41
1
10
35.3340505518936
20
24.0679102936636
30
0
41
1
10
35.1480250712419
20
24.0979279318701
30
0
41
1
10
34.9603157622549
20
24.117386140015
30
0
0
SPLINE
5
1FC
100
AcDbEntity
8
1
62
256
6
ByLayer
370
18
48
1
60
0
100
AcDbSpline
70
4
71
3
72
14
73
10
40
0
40
0
40
0
40
0
40
0.250000000000004
40
0.250000000000004
40
0.375000000000007
40
0.375000000000007
40
0.500000000000009
40
0.500000000000009
40
1
40
1
40
1
40
1
41
1
10
38.2256298638461
20
6.81959725326732
30
0
41
1
10
38.1478665110481
20
6.90095395401866
30
0
41
1
10
38.0643385677211
20
6.9714202979082
30
0
41
1
10
37.9299800221823
20
7.06053056317671
30
0
41
1
10
37.8836869228603
20
7.08746232989276
30
0
41
1
10
37.7879467020383
20
7.13560598271459
30
0
41
1
10
37.7382741702223
20
7.15689499270735
30
0
41
1
10
37.4843080832105
20
7.24745841300793
30
0
41
1
10
37.2684460354039
20
7.26875054981957
30
0
41
1
10
37.0412523855923
20
7.24202177498495
30
0
0
SPLINE
5
1FD
100
AcDbEntity
8
1
62
256
6
ByLayer
370
18
48
1
60
0
100
AcDbSpline
70
4
71
3
72
8
73
4
40
0
40
0
40
0
40
0
40
1
40
1
40
1
40
1
41
1
10
38.0517424605562
20
4.32169232230984
30
0
41
1
10
38.1310307446383
20
4.37091801007887
30
0
41
1
10
38.2057877974506
20
4.42082472684342
30
0
41
1
10
38.2761482218775
20
4.47139224223747
30
0
0
SPLINE
5
1FE
100
AcDbEntity
8
1
62
256
6
ByLayer
370
18
48
1
60
0
100
AcDbSpline
70
4
71
3
72
10
73
6
40
0
40
0
40
0
40
0
40
0.5
40
0.5
40
1
40
1
40
1
40
1
41
1
10
28.0842348367992
20
12.2120381709121
30
0
41
1
10
28.0643307802039
20
12.2941322564006
30
0
41
1
10
28.0499435137572
20
12.3755646727589
30
0
41
1
10
28.0328068204451
20
12.5334655515118
30
0
41
1
10
28.0299274607593
20
12.6109013929919
30
0
41
1
10
28.0330509716323
20
12.6854568124689
30
0
0
SPLINE
5
1FF
100
AcDbEntity
8
1
62
256
6
ByLayer
370
18
48
1
60
0
100
AcDbSpline
70
4
71
3
72
12
73
8
40
0
40
0
40
0
40
0
40
0.499999999999996
40
0.499999999999996
40
0.749999999999998
40
0.749999999999998
40
1
40
1
40
1
40
1
41
1
10
28.0978040489233
20
22.1812850234085
30
0
41
1
10
27.9982767267762
20
22.2816300168143
30
0
41
1
10
27.9144444095393
20
22.3714838985277
30
0
41
1
10
27.8142431470749
20
22.5017309122576
30
0
41
1
10
27.7850558336672
20
22.5445926990789
30
0
41
1
10
27.7373722809388
20
22.6280863822603
30
0
41
1
10
27.7186602595052
20
22.6689304620631
30
0
41
1
10
27.7051557976569
20
22.7095770358838
30
0
0
SPLINE
5
200
100
AcDbEntity
8
1
62
256
6
ByLayer
370
18
48
1
60
0
100
AcDbSpline
70
4
71
3
72
12
73
8
40
0
40
0
40
0
40
0
40
0.500000000000002
40
0.500000000000002
40
0.750000000000001
40
0.750000000000001
40
1
40
1
40
1
40
1
41
1
10
28.5139295786665
20
11.1113107083566
30
0
41
1
10
28.4283239106447
20
11.0006557322255
30
0
41
1
10
28.3564542083342
20
10.8774352836896
30
0
41
1
10
28.2782516274763
20
10.6834570999033
30
0
41
1
10
28.2568476636023
20
10.6170329732608
30
0
41
1
10
28.2236959647127
20
10.4806469010308
30
0
41
1
10
28.2120578968733
20
10.4106623169696
30
0
41
1
10
28.2055608091734
20
10.3412695884244
30
0
0
SPLINE
5
201
100
AcDbEntity
8
1
62
256
6
ByLayer
370
18
48
1
60
0
100
AcDbSpline
70
4
71
3
72
13
73
9
40
0
40
0
40
0
40
0
40
0.25
40
0.25
40
0.5
40
0.75
40
0.75
40
1
40
1
40
1
40
1
41
1
10
32.6651905327113
20
9.11919506740918
30
0
41
1
10
32.915494204354
20
9.12520432960451
30
0
41
1
10
33.1647034857397
20
9.11977390283764
30
0
41
1
10
33.6621580275245
20
9.09883611361354
30
0
41
1
10
34.1586308476345
20
9.06763636295943
30
0
41
1
10
34.6538847802839
20
9.0236955509323
30
0
41
1
10
35.1481569912585
20
8.96949277747498
30
0
41
1
10
35.3948110862525
20
8.93735292290108
30
0
41
1
10
35.6403707909894
20
8.8937733793648
30
0
0
SPLINE
5
202
100
AcDbEntity
8
1
62
256
6
ByLayer
370
18
48
1
60
0
100
AcDbSpline
70
4
71
3
72
28
73
24
40
0
40
0
40
0
40
0
40
0.124999999999996
40
0.124999999999996
40
0.249999999999992
40
0.249999999999992
40
0.312499999999991
40
0.312499999999991
40
0.374999999999991
40
0.374999999999991
40
0.499999999999991
40
0.499999999999991
40
0.562499999999992
40
0.562499999999992
40
0.624999999999993
40
0.624999999999993
40
0.687499999999994
40
0.687499999999994
40
0.749999999999995
40
0.749999999999995
40
0.874999999999998
40
0.874999999999998
40
1
40
1
40
1
40
1
41
1
10
38.102752382128
20
-20.8054633932692
30
0
41
1
10
38.1385355941278
20
-20.8050098638089
30
0
41
1
10
38.1756827748103
20
-20.7996712188916
30
0
41
1
10
38.2536085848233
20
-20.7759877316668
30
0
41
1
10
38.2944398480794
20
-20.7575770192433
30
0
41
1
10
38.3580274394183
20
-20.7168963490571
30
0
41
1
10
38.3796643926495
20
-20.7011301714941
30
0
41
1
10
38.4240197243474
20
-20.6641894473916
30
0
41
1
10
38.446736999363
20
-20.6430027035115
30
0
41
1
10
38.5154315234759
20
-20.5707475774571
30
0
41
1
10
38.5623418206323
20
-20.5110975759073
30
0
41
1
10
38.6353004061839
20
-20.3940679527327
30
0
41
1
10
38.6592457412598
20
-20.3516105880386
30
0
41
1
10
38.7062890768652
20
-20.2588892610237
30
0
41
1
10
38.729650517205
20
-20.2079547199753
30
0
41
1
10
38.7733960340051
20
-20.1022548429566
30
0
41
1
10
38.793951580618
20
-20.0472752436281
30
0
41
1
10
38.8326080501787
20
-19.9333474228428
30
0
41
1
10
38.8503788098277
20
-19.875303899693
30
0
41
1
10
38.8987035679885
20
-19.7027282421966
30
0
41
1
10
38.9251267138047
20
-19.5867104931954
30
0
41
1
10
38.968388168537
20
-19.3640119852715
30
0
41
1
10
38.9855782837938
20
-19.2561690071643
30
0
41
1
10
39
20
-19.1505119373302
30
0
0
SPLINE
5
203
100
AcDbEntity
8
1
62
256
6
ByLayer
370
18
48
1
60
0
100
AcDbSpline
70
4
71
3
72
22
73
18
40
0
40
0
40
0
40
0
40
0.125
40
0.125
40
0.25
40
0.25
40
0.375
40
0.375
40
0.5
40
0.5
40
0.625
40
0.625
40
0.75
40
0.75
40
0.875
40
0.875
40
1
40
1
40
1
40
1
41
1
10
35.6816980424241
20
8.89393371224077
30
0
41
1
10
35.7317742358898
20
8.83960917394216
30
0
41
1
10
35.7803579996964
20
8.78206001101248
30
0
41
1
10
35.8742745892925
20
8.65993753179421
30
0
41
1
10
35.9188880510012
20
8.59625419121289
30
0
41
1
10
36.0023443363945
20
8.46497087159042
30
0
41
1
10
36.0413558918077
20
8.39715853076626
30
0
41
1
10
36.11358829417
20
8.25690680069184
30
0
41
1
10
36.146961585461
20
8.18397732553547
30
0
41
1
10
36.2054341383151
20
8.03757495600286
30
0
41
1
10
36.2308022887759
20
7.96368263920655
30
0
41
1
10
36.2733694408404
20
7.81443839429772
30
0
41
1
10
36.2901971002927
20
7.74024972781561
30
0
41
1
10
36.3145401006456
20
7.59474081898472
30
0
41
1
10
36.3221521325094
20
7.5230975917917
30
0
41
1
10
36.3277454103193
20
7.38215833904218
30
0
41
1
10
36.3256326737932
20
7.31459237183392
30
0
41
1
10
36.3187973331617
20
7.2503489487932
30
0
0
SPLINE
5
204
100
AcDbEntity
8
1
62
256
6
ByLayer
370
18
48
1
60
0
100
AcDbSpline
70
4
71
3
72
8
73
4
40
0
40
0
40
0
40
0
40
1
40
1
40
1
40
1
41
1
10
36.8917657702228
20
-8.53786125420797
30
0
41
1
10
36.9296423775276
20
-8.59285577238148
30
0
41
1
10
36.967542625936
20
-8.64784904037336
30
0
41
1
10
37.0054646990399
20
-8.70284115423831
30
0
0
SPLINE
5
205
100
AcDbEntity
8
1
62
256
6
ByLayer
370
18
48
1
60
0
100
AcDbSpline
70
4
71
3
72
20
73
16
40
0
40
0
40
0
40
0
40
0.250000000000004
40
0.250000000000004
40
0.375000000000003
40
0.375000000000003
40
0.500000000000003
40
0.500000000000003
40
0.625000000000002
40
0.625000000000002
40
0.750000000000001
40
0.750000000000001
40
0.875000000000001
40
0.875000000000001
40
1
40
1
40
1
40
1
41
1
10
32.1260340692187
20
11.9852493346502
30
0
41
1
10
32.1799241647536
20
11.8844139793588
30
0
41
1
10
32.2248184854457
20
11.7764311786195
30
0
41
1
10
32.2852240603556
20
11.6044295086377
30
0
41
1
10
32.3041559800351
20
11.5454038899624
30
0
41
1
10
32.3397750177387
20
11.4270672157948
30
0
41
1
10
32.3565868720889
20
11.3673978115904
30
0
41
1
10
32.3893369436733
20
11.247322242509
30
0
41
1
10
32.4051756194598
20
11.1872659295781
30
0
41
1
10
32.4361677880545
20
11.0707924401062
30
0
41
1
10
32.4514384278457
20
11.0139141412543
30
0
41
1
10
32.4828658525422
20
10.9034505516464
30
0
41
1
10
32.498745294358
20
10.8509247017845
30
0
41
1
10
32.5315759281444
20
10.7533533315832
30
0
41
1
10
32.5486124248516
20
10.7079705368512
30
0
41
1
10
32.5669878320583
20
10.6660922770629
30
0
0
SPLINE
5
206
100
AcDbEntity
8
1
62
256
6
ByLayer
370
18
48
1
60
0
100
AcDbSpline
70
4
71
3
72
8
73
4
40
0
40
0
40
0
40
0
40
1
40
1
40
1
40
1
41
1
10
32.5411962668409
20
9.13873954724792
30
0
41
1
10
32.5824531748984
20
9.13208273350983
30
0
41
1
10
32.623784986449
20
9.12556864927254
30
0
41
1
10
32.6651905327113
20
9.11919506740918
30
0
0
SPLINE
5
207
100
AcDbEntity
8
1
62
256
6
ByLayer
370
18
48
1
60
0
100
AcDbSpline
70
4
71
3
72
17
73
13
40
0
40
0
40
0
40
0
40
0.25000000000001
40
0.25000000000001
40
0.500000000000021
40
0.500000000000021
40
0.625000000000016
40
0.625000000000016
40
0.75000000000001
40
0.875000000000005
40
0.875000000000005
40
1
40
1
40
1
40
1
41
1
10
34.0021823900737
20
22.2564344704117
30
0
41
1
10
34.0772926394154
20
22.2404653214127
30
0
41
1
10
34.1556745574954
20
22.2273986074644
30
0
41
1
10
34.3150652207322
20
22.2079569651515
30
0
41
1
10
34.3942535208829
20
22.2017448150156
30
0
41
1
10
34.5122853412679
20
22.1976481378703
30
0
41
1
10
34.5517534834496
20
22.1971710466158
30
0
41
1
10
34.6286007241874
20
22.1980401367743
30
0
41
1
10
34.7036043114416
20
22.2006991197132
30
0
41
1
10
34.7749942357177
20
22.206870709873
30
0
41
1
10
34.8445355064734
20
22.2148409105952
30
0
41
1
10
34.878452719163
20
22.2197541979407
30
0
41
1
10
34.9104970291926
20
22.2254387926177
30
0
0
SPLINE
5
208
100
AcDbEntity
8
1
62
256
6
ByLayer
370
18
48
1
60
0
100
AcDbSpline
70
4
71
3
72
12
73
8
40
0
40
0
40
0
40
0
40
0.25
40
0.25
40
0.5
40
0.5
40
1
40
1
40
1
40
1
41
1
10
27.7051557976568
20
14.8991381271456
30
0
41
1
10
27.7186602595052
20
14.8156279784326
30
0
41
1
10
27.7373722809387
20
14.7330854469576
30
0
41
1
10
27.7850558336671
20
14.5698963846835
30
0
41
1
10
27.8142431470748
20
14.4889040021582
30
0
41
1
10
27.9144444095392
20
14.2553433834079
30
0
41
1
10
27.9982767267762
20
14.1099695446976
30
0
41
1
10
28.0978040489233
20
13.9753975608063
30
0
0
SPLINE
5
209
100
AcDbEntity
8
1
62
256
6
ByLayer
370
18
48
1
60
0
100
AcDbSpline
70
4
71
3
72
8
73
4
40
0
40
0
40
0
40
0
40
1
40
1
40
1
40
1
41
1
10
37.9127321286647
20
2.01188348820438
30
0
41
1
10
37.9433990070944
20
1.97291599805638
30
0
41
1
10
37.9905650499886
20
1.92950703254553
30
0
41
1
10
38.0517424605542
20
1.8798178655874
30
0
0
SPLINE
5
20A
100
AcDbEntity
8
1
62
256
6
ByLayer
370
18
48
1
60
0
100
AcDbSpline
70
4
71
3
72
24
73
20
40
0
40
0
40
0
40
0
40
0.125000000000001
40
0.125000000000001
40
0.250000000000002
40
0.250000000000002
40
0.375000000000003
40
0.375000000000003
40
0.437500000000003
40
0.437500000000003
40
0.500000000000003
40
0.500000000000003
40
0.625000000000003
40
0.625000000000003
40
0.687500000000003
40
0.687500000000003
40
0.750000000000003
40
0.750000000000003
40
1
40
1
40
1
40
1
41
1
10
37.00546469904
20
4.98287758813797
30
0
41
1
10
36.9979529107544
20
4.84721270181774
30
0
41
1
10
36.9937954012855
20
4.71203794475687
30
0
41
1
10
36.9925332211018
20
4.4467699330508
30
0
41
1
10
36.9954012302017
20
4.31832983579201
30
0
41
1
10
37.0078222406907
20
4.06950004256103
30
0
41
1
10
37.017375881906
20
3.94911118187889
30
0
41
1
10
37.0367061173596
20
3.77466821289576
30
0
41
1
10
37.0440176884548
20
3.71734433405138
30
0
41
1
10
37.0601289453924
20
3.60616791456886
30
0
41
1
10
37.0689277247665
20
3.55224810081452
30
0
41
1
10
37.097461615813
20
3.39537907561532
30
0
41
1
10
37.119325634842
20
3.29729761009369
30
0
41
1
10
37.1561830657143
20
3.15989257259528
30
0
41
1
10
37.1691479671235
20
3.11571611061828
30
0
41
1
10
37.196429146909
20
3.03067935514156
30
0
41
1
10
37.2108014799846
20
2.98968580957444
30
0
41
1
10
37.2850760820779
20
2.79576763511932
30
0
41
1
10
37.3523373021882
20
2.67406163059198
30
0
41
1
10
37.4265315586084
20
2.58611457103046
30
0
0
SPLINE
5
20B
100
AcDbEntity
8
1
62
256
6
ByLayer
370
18
48
1
60
0
100
AcDbSpline
70
4
71
3
72
10
73
6
40
0
40
0
40
0
40
0
40
0.5
40
0.5
40
1
40
1
40
1
40
1
41
1
10
27.4666604101372
20
22.8172780931053
30
0
41
1
10
27.4841890394529
20
22.7996939951724
30
0
41
1
10
27.5137889224616
20
22.7818654718753
30
0
41
1
10
27.5940389372332
20
22.7459005541424
30
0
41
1
10
27.6448489273996
20
22.7277228005277
30
0
41
1
10
27.7051557976568
20
22.7095770358839
30
0
0
SPLINE
5
20C
100
AcDbEntity
8
1
62
256
6
ByLayer
370
18
48
1
60
0
100
AcDbSpline
70
4
71
3
72
33
73
29
40
0
40
0
40
0
40
0
40
0.0625000000000018
40
0.0625000000000018
40
0.125000000000003
40
0.125000000000003
40
0.187500000000005
40
0.187500000000005
40
0.250000000000007
40
0.250000000000007
40
0.375000000000008
40
0.375000000000008
40
0.437500000000007
40
0.437500000000007
40
0.500000000000006
40
0.562500000000005
40
0.562500000000005
40
0.625000000000004
40
0.625000000000004
40
0.687500000000003
40
0.687500000000003
40
0.750000000000002
40
0.750000000000002
40
0.875000000000002
40
0.875000000000002
40
0.937500000000001
40
0.937500000000001
40
1
40
1
40
1
40
1
41
1
10
28.2546248753095
20
-22.2889402528877
30
0
41
1
10
28.3082454504142
20
-22.275495785934
30
0
41
1
10
28.3652592027002
20
-22.2634012274542
30
0
41
1
10
28.4848523128315
20
-22.2430006025469
30
0
41
1
10
28.5466845704683
20
-22.2348074607089
30
0
41
1
10
28.6742537273156
20
-22.2229338785506
30
0
41
1
10
28.7399906230932
20
-22.2192518186087
30
0
41
1
10
28.8753758756939
20
-22.2170053078987
30
0
41
1
10
28.9454177713263
20
-22.2184652350816
30
0
41
1
10
29.1589851722664
20
-22.2315027959293
30
0
41
1
10
29.3028243857414
20
-22.2513745473172
30
0
41
1
10
29.5204463410064
20
-22.2990899511063
30
0
41
1
10
29.5938561629352
20
-22.3181792166722
30
0
41
1
10
29.7377165591497
20
-22.3615729991264
30
0
41
1
10
29.8789186952231
20
-22.4101409921646
30
0
41
1
10
30.0150434826071
20
-22.4684954254836
30
0
41
1
10
30.1486791901981
20
-22.5315520666637
30
0
41
1
10
30.2139035629476
20
-22.5653074152877
30
0
41
1
10
30.3385568721798
20
-22.6352705652372
30
0
41
1
10
30.3984212722376
20
-22.6716796820369
30
0
41
1
10
30.5135061155731
20
-22.7468472321659
30
0
41
1
10
30.5689629563578
20
-22.7857871239749
30
0
41
1
10
30.7268974058093
20
-22.9041784722151
30
0
41
1
10
30.8193791334216
20
-22.9838051817382
30
0
41
1
10
30.9413728343842
20
-23.1010512482855
30
0
41
1
10
30.9794048839165
20
-23.1399866539294
30
0
41
1
10
31.048520577379
20
-23.2150128985776
30
0
41
1
10
31.0797413092806
20
-23.2512073549244
30
0
41
1
10
31.1078500387076
20
-23.2858911136253
30
0
0
SPLINE
5
20D
100
AcDbEntity
8
1
62
256
6
ByLayer
370
18
48
1
60
0
100
AcDbSpline
70
4
71
3
72
14
73
10
40
0
40
0
40
0
40
0
40
0.249999999999997
40
0.249999999999997
40
0.374999999999996
40
0.374999999999996
40
0.499999999999995
40
0.499999999999995
40
1
40
1
40
1
40
1
41
1
10
34.0523073512464
20
-24.1600113277664
30
0
41
1
10
33.827935493235
20
-24.1664763205984
30
0
41
1
10
33.6036539636566
20
-24.1584553280365
30
0
41
1
10
33.2673700460085
20
-24.124232342322
30
0
41
1
10
33.1549464455981
20
-24.1090072585116
30
0
41
1
10
32.9334952163033
20
-24.0714839457728
30
0
41
1
10
32.8241454339479
20
-24.0491517199284
30
0
41
1
10
32.2840354532664
20
-23.9202611908326
30
0
41
1
10
31.8730141450657
20
-23.7624763834754
30
0
41
1
10
31.4842155056028
20
-23.5470191525876
30
0
0
SPLINE
5
20E
100
AcDbEntity
8
1
62
256
6
ByLayer
370
18
48
1
60
0
100
AcDbSpline
70
4
71
3
72
36
73
32
40
0
40
0
40
0
40
0
40
0.0312499999999999
40
0.0312499999999999
40
0.0624999999999998
40
0.0624999999999998
40
0.0937499999999998
40
0.0937499999999998
40
0.125
40
0.125
40
0.187499999999999
40
0.187499999999999
40
0.249999999999999
40
0.249999999999999
40
0.375
40
0.375
40
0.5
40
0.5
40
0.625
40
0.625
40
0.750000000000001
40
0.750000000000001
40
0.8125
40
0.8125
40
0.875
40
0.875
40
0.9375
40
0.9375
40
0.96875
40
0.96875
40
1
40
1
40
1
40
1
41
1
10
28.2055608091741
20
10.3412695884245
30
0
41
1
10
28.2330643158522
20
10.3735947966705
30
0
41
1
10
28.2645468999402
20
10.4004579523622
30
0
41
1
10
28.3324500584852
20
10.4438894099314
30
0
41
1
10
28.3683735454967
20
10.4602854117837
30
0
41
1
10
28.4432163620451
20
10.4849953618246
30
0
41
1
10
28.4820041139501
20
10.4931797296912
30
0
41
1
10
28.5596628594528
20
10.5029536022143
30
0
41
1
10
28.5988559009509
20
10.5046349769601
30
0
41
1
10
28.7172720978197
20
10.502300719045
30
0
41
1
10
28.7973206360085
20
10.4910097419365
30
0
41
1
10
28.9588961235796
20
10.4553963186431
30
0
41
1
10
29.0402566003514
20
10.4309856542355
30
0
41
1
10
29.2823658432865
20
10.3447823480735
30
0
41
1
10
29.4429245859466
20
10.269827364322
30
0
41
1
10
29.7584874290322
20
10.1019642808094
30
0
41
1
10
29.9141594467897
20
10.0085926933388
30
0
41
1
10
30.2221073901013
20
9.80665125912046
30
0
41
1
10
30.3744881776649
20
9.69800860650642
30
0
41
1
10
30.6745560409413
20
9.46193715996432
30
0
41
1
10
30.8207770161773
20
9.33586447680156
30
0
41
1
10
31.0305016547449
20
9.12650616165573
30
0
41
1
10
31.0987807614932
20
9.05328622231559
30
0
41
1
10
31.2305982154281
20
8.89685375771634
30
0
41
1
10
31.294660167709
20
8.8129147921897
30
0
41
1
10
31.4112566662827
20
8.63490968199071
30
0
41
1
10
31.4644833430509
20
8.54028927610273
30
0
41
1
10
31.5296828281542
20
8.3866393905279
30
0
41
1
10
31.5485087473718
20
8.33440644297914
30
0
41
1
10
31.5787304694907
20
8.2273431145392
30
0
41
1
10
31.5901734336665
20
8.17181638613576
30
0
41
1
10
31.5962472504783
20
8.11711913336748
30
0
0
SPLINE
5
20F
100
AcDbEntity
8
1
62
256
6
ByLayer
370
18
48
1
60
0
100
AcDbSpline
70
4
71
3
72
8
73
4
40
0
40
0
40
0
40
0
40
1
40
1
40
1
40
1
41
1
10
37.4265315586084
20
2.58611457103046
30
0
41
1
10
37.5631033195485
20
2.42422758174908
30
0
41
1
10
37.7012560021644
20
2.26205095286557
30
0
41
1
10
37.8406459952698
20
2.09964763715541
30
0
0
SPLINE
5
210
100
AcDbEntity
8
1
62
256
6
ByLayer
370
18
48
1
60
0
100
AcDbSpline
70
4
71
3
72
31
73
27
40
0
40
0
40
0
40
0
40
0.125
40
0.125
40
0.25
40
0.25
40
0.312500000000001
40
0.312500000000001
40
0.375000000000001
40
0.437500000000001
40
0.437500000000001
40
0.500000000000001
40
0.500000000000001
40
0.625000000000001
40
0.625000000000001
40
0.687500000000001
40
0.687500000000001
40
0.750000000000001
40
0.750000000000001
40
0.8125
40
0.8125
40
0.875
40
0.875
40
0.9375
40
0.9375
40
1
40
1
40
1
40
1
41
1
10
28.2546248753079
20
16.3173259930046
30
0
41
1
10
28.3617203155266
20
16.390676548376
30
0
41
1
10
28.4801040692697
20
16.4571872530587
30
0
41
1
10
28.7387635590172
20
16.5786766586075
30
0
41
1
10
28.8740435989866
20
16.6314067482651
30
0
41
1
10
29.0853322516362
20
16.7008834024126
30
0
41
1
10
29.1575754668899
20
16.7225170047497
30
0
41
1
10
29.3031738797031
20
16.7620685170428
30
0
41
1
10
29.4482581308149
20
16.7975131033966
30
0
41
1
10
29.592267230304
20
16.8252273858937
30
0
41
1
10
29.7357320071105
20
16.8490143533974
30
0
41
1
10
29.8076548160448
20
16.858977772043
30
0
41
1
10
30.0170039858988
20
16.8819022696392
30
0
41
1
10
30.1493636776933
20
16.888365943257
30
0
41
1
10
30.3379428148032
20
16.8832574039972
30
0
41
1
10
30.3984904423219
20
16.8790394145568
30
0
41
1
10
30.5135823112701
20
16.8655092589491
30
0
41
1
10
30.5684178699742
20
16.8561907208907
30
0
41
1
10
30.6729810678802
20
16.8320912427454
30
0
41
1
10
30.7229542882645
20
16.8172123250175
30
0
41
1
10
30.816704056482
20
16.7818593206707
30
0
41
1
10
30.8602571635013
20
16.7615159677608
30
0
41
1
10
30.9412595444342
20
16.7152761959397
30
0
41
1
10
30.9787072579271
20
16.6893801296113
30
0
41
1
10
31.0477688435931
20
16.6316230829027
30
0
41
1
10
31.0795370655206
20
16.5995367862226
30
0
41
1
10
31.1078500387078
20
16.5649029087606
30
0
0
SPLINE
5
211
100
AcDbEntity
8
1
62
256
6
ByLayer
370
18
48
1
60
0
100
AcDbSpline
70
4
71
3
72
14
73
10
40
0
40
0
40
0
40
0
40
0.500000000000008
40
0.500000000000008
40
0.625000000000007
40
0.625000000000007
40
0.750000000000006
40
0.750000000000006
40
1
40
1
40
1
40
1
41
1
10
30.8676663340206
20
2.08195079336298
30
0
41
1
10
30.4834835837181
20
2.25526713147593
30
0
41
1
10
30.0708323927271
20
2.42297881274652
30
0
41
1
10
29.516376402257
20
2.62501086175476
30
0
41
1
10
29.4036471329268
20
2.66497099100766
30
0
41
1
10
29.1776324981383
20
2.74287143846803
30
0
41
1
10
29.0639305838541
20
2.78096553716736
30
0
41
1
10
28.7207300042079
20
2.89266584327871
30
0
41
1
10
28.4891479908022
20
2.96370422115692
30
0
41
1
10
28.2546248753079
20
3.03111754520492
30
0
0
SPLINE
5
212
100
AcDbEntity
8
1
62
256
6
ByLayer
370
18
48
1
60
0
100
AcDbSpline
70
4
71
3
72
8
73
4
40
0
40
0
40
0
40
0
40
1
40
1
40
1
40
1
41
1
10
31.1695220682928
20
1.70093446506084
30
0
41
1
10
31.0720369443372
20
1.82971381252821
30
0
41
1
10
30.9714960824343
20
1.95676325182623
30
0
41
1
10
30.8676663340206
20
2.08195079336298
30
0
0
SPLINE
5
213
100
AcDbEntity
8
1
62
256
6
ByLayer
370
18
48
1
60
0
100
AcDbSpline
70
4
71
3
72
16
73
12
40
0
40
0
40
0
40
0
40
0.125
40
0.125
40
0.249999999999999
40
0.249999999999999
40
0.499999999999999
40
0.499999999999999
40
0.75
40
0.75
40
1
40
1
40
1
40
1
41
1
10
38.1027523821279
20
-20.805463393269
30
0
41
1
10
38.0674459782329
20
-20.8059108794896
30
0
41
1
10
38.0267047813442
20
-20.8134289757318
30
0
41
1
10
37.9376961801923
20
-20.8345104790425
30
0
41
1
10
37.8893603671548
20
-20.8482335216157
30
0
41
1
10
37.7349177580456
20
-20.8933084448203
30
0
41
1
10
37.6194934090127
20
-20.9283272897465
30
0
41
1
10
37.3665645690171
20
-20.9965560656004
30
0
41
1
10
37.2285277666373
20
-21.0300647893479
30
0
41
1
10
36.9352728572803
20
-21.0903211622419
30
0
41
1
10
36.7794759499366
20
-21.117243146737
30
0
41
1
10
36.6139482090622
20
-21.1398803067089
30
0
0
SPLINE
5
214
100
AcDbEntity
8
1
62
256
6
ByLayer
370
18
48
1
60
0
100
AcDbSpline
70
4
71
3
72
8
73
4
40
0
40
0
40
0
40
0
40
1
40
1
40
1
40
1
41
1
10
27.8675585889937
20
15.3805848714956
30
0
41
1
10
27.8793169882718
20
15.4082533039795
30
0
41
1
10
27.8916612855908
20
15.4366455083605
30
0
41
1
10
27.9043408502216
20
15.4652519152517
30
0
0
SPLINE
5
215
100
AcDbEntity
8
1
62
256
6
ByLayer
370
18
48
1
60
0
100
AcDbSpline
70
4
71
3
72
12
73
8
40
0
40
0
40
0
40
0
40
0.500000000000001
40
0.500000000000001
40
0.750000000000001
40
0.750000000000001
40
1
40
1
40
1
40
1
41
1
10
28.9060580541919
20
11.5232402817684
30
0
41
1
10
28.8365050046815
20
11.4641895575216
30
0
41
1
10
28.7689484613199
20
11.4004386287365
30
0
41
1
10
28.6707176681657
20
11.2975047009562
30
0
41
1
10
28.6384939190593
20
11.2619695563448
30
0
41
1
10
28.5751402693855
20
11.188324112585
30
0
41
1
10
28.5439573129736
20
11.1501249399333
30
0
41
1
10
28.5139295786673
20
11.1113107083558
30
0
0
SPLINE
5
216
100
AcDbEntity
8
1
62
256
6
ByLayer
370
18
48
1
60
0
100
AcDbSpline
70
4
71
3
72
14
73
10
40
0
40
0
40
0
40
0
40
0.250000000000001
40
0.250000000000001
40
0.375000000000002
40
0.375000000000002
40
0.500000000000002
40
0.500000000000002
40
1
40
1
40
1
40
1
41
1
10
38.2256298638461
20
-6.81959725326746
30
0
41
1
10
38.1478665110481
20
-6.9009539540188
30
0
41
1
10
38.0643385677211
20
-6.97142029790837
30
0
41
1
10
37.9299800221822
20
-7.06053056317685
30
0
41
1
10
37.8836869228603
20
-7.08746232989287
30
0
41
1
10
37.7879467020383
20
-7.13560598271474
30
0
41
1
10
37.7382741702223
20
-7.15689499270749
30
0
41
1
10
37.4843080832105
20
-7.24745841300808
30
0
41
1
10
37.2684460354038
20
-7.26875054981971
30
0
41
1
10
37.0412523855923
20
-7.24202177498506
30
0
0
SPLINE
5
217
100
AcDbEntity
8
1
62
256
6
ByLayer
370
18
48
1
60
0
100
AcDbSpline
70
4
71
3
72
9
73
5
40
0
40
0
40
0
40
0
40
0.5
40
1
40
1
40
1
40
1
41
1
10
28.0629047562937
20
22.2150628195537
30
0
41
1
10
28.0663456817138
20
22.2116014073054
30
0
41
1
10
28.0733422750168
20
22.2045628941108
30
0
41
1
10
28.0805663552656
20
22.1972950179768
30
0
41
1
10
28.0842348367991
20
22.193604173051
30
0
0
SPLINE
5
218
100
AcDbEntity
8
1
62
256
6
ByLayer
370
18
48
1
60
0
100
AcDbSpline
70
4
71
3
72
12
73
8
40
0
40
0
40
0
40
0
40
0.499999999999989
40
0.499999999999989
40
0.749999999999995
40
0.749999999999995
40
1
40
1
40
1
40
1
41
1
10
31.5962472504661
20
8.11711913336873
30
0
41
1
10
31.6968482045262
20
8.19977429518025
30
0
41
1
10
31.7912926631662
20
8.29516981272351
30
0
41
1
10
31.9300233842596
20
8.45270162134554
30
0
41
1
10
31.9752846151598
20
8.50710025899508
30
0
41
1
10
32.0632959922368
20
8.61636758175726
30
0
41
1
10
32.1063328811645
20
8.67157028501452
30
0
41
1
10
32.149067791316
20
8.72680997383509
30
0
0
SPLINE
5
219
100
AcDbEntity
8
1
62
256
6
ByLayer
370
18
48
1
60
0
100
AcDbSpline
70
4
71
3
72
12
73
8
40
0
40
0
40
0
40
0
40
0.5
40
0.5
40
0.75
40
0.75
40
1
40
1
40
1
40
1
41
1
10
37.0412523855923
20
-23.3990825498061
30
0
41
1
10
36.730787652705
20
-23.5976176999323
30
0
41
1
10
36.4010965071881
20
-23.755950699961
30
0
41
1
10
35.8792853184643
20
-23.9364196776742
30
0
41
1
10
35.7007254460991
20
-23.9869097760169
30
0
41
1
10
35.3340505518936
20
-24.0679102936637
30
0
41
1
10
35.1480250712418
20
-24.0979279318702
30
0
41
1
10
34.9603157622548
20
-24.1173861400152
30
0
0
SPLINE
5
21A
100
AcDbEntity
8
1
62
256
6
ByLayer
370
18
48
1
60
0
100
AcDbSpline
70
4
71
3
72
8
73
4
40
0
40
0
40
0
40
0
40
1
40
1
40
1
40
1
41
1
10
31.1695220682937
20
16.5862416797694
30
0
41
1
10
31.1490673909832
20
16.5790298558082
30
0
41
1
10
31.1285099805038
20
16.5719169969549
30
0
41
1
10
31.1078500387077
20
16.5649029087606
30
0
0
SPLINE
5
21B
100
AcDbEntity
8
1
62
256
6
ByLayer
370
18
48
1
60
0
100
AcDbSpline
70
4
71
3
72
44
73
40
40
0
40
0
40
0
40
0
40
0.124999999999996
40
0.124999999999996
40
0.187499999999994
40
0.187499999999994
40
0.249999999999992
40
0.249999999999992
40
0.374999999999988
40
0.374999999999988
40
0.437499999999987
40
0.437499999999987
40
0.499999999999986
40
0.499999999999986
40
0.562499999999985
40
0.562499999999985
40
0.593749999999985
40
0.593749999999985
40
0.609374999999987
40
0.609374999999987
40
0.624999999999989
40
0.624999999999989
40
0.656249999999989
40
0.656249999999989
40
0.68749999999999
40
0.68749999999999
40
0.71874999999999
40
0.71874999999999
40
0.749999999999991
40
0.749999999999991
40
0.781249999999991
40
0.781249999999991
40
0.812499999999992
40
0.812499999999992
40
0.874999999999995
40
0.874999999999995
40
0.937499999999997
40
0.937499999999997
40
1
40
1
40
1
40
1
41
1
10
31.4584433364805
20
1.34416038280696
30
0
41
1
10
31.4609776862047
20
1.04312028893042
30
0
41
1
10
31.4855476299688
20
0.743622412820372
30
0
41
1
10
31.5536012954399
20
0.296383899119093
30
0
41
1
10
31.5817019608757
20
0.147198255093826
30
0
41
1
10
31.6483043974461
20
-0.146529108336438
30
0
41
1
10
31.6868270150525
20
-0.291434627013473
30
0
41
1
10
31.8193752643073
20
-0.719900727668147
30
0
41
1
10
31.9294407231093
20
-0.997546507873267
30
0
41
1
10
32.1438533269324
20
-1.39640270527391
30
0
41
1
10
32.2228954923933
20
-1.52467806689989
30
0
41
1
10
32.4000025949259
20
-1.76748358898445
30
0
41
1
10
32.4990667076452
20
-1.88305943539666
30
0
41
1
10
32.7174072238231
20
-2.08722896623436
30
0
41
1
10
32.8368875523839
20
-2.17691162615156
30
0
41
1
10
33.0397962328016
20
-2.28222325957
30
0
41
1
10
33.109547426036
20
-2.311305390337
30
0
41
1
10
33.2177739413469
20
-2.34466489765424
30
0
41
1
10
33.2544517795592
20
-2.35406759950485
30
0
41
1
10
33.329115256243
20
-2.36914257064586
30
0
41
1
10
33.367189597
20
-2.37479559613405
30
0
41
1
10
33.4806798280496
20
-2.38549236193475
30
0
41
1
10
33.5562447253396
20
-2.3845173820757
30
0
41
1
10
33.7071751757836
20
-2.36642304827808
30
0
41
1
10
33.7828799200196
20
-2.3489894247638
30
0
41
1
10
33.9274369365402
20
-2.30035970899434
30
0
41
1
10
33.9971972985715
20
-2.26913514048681
30
0
41
1
10
34.1321708513652
20
-2.19455673802725
30
0
41
1
10
34.1956352371958
20
-2.1522051352479
30
0
41
1
10
34.3161733638798
20
-2.0594612281416
30
0
41
1
10
34.3732339718322
20
-2.00905238697518
30
0
41
1
10
34.4819559985197
20
-1.90144373311676
30
0
41
1
10
34.5336076401374
20
-1.84416570839292
30
0
41
1
10
34.6785191405091
20
-1.66734133230025
30
0
41
1
10
34.763232889764
20
-1.54165804999616
30
0
41
1
10
34.9153239377773
20
-1.27890864500063
30
0
41
1
10
34.9829006878755
20
-1.14094639546258
30
0
41
1
10
35.1013078588941
20
-0.861079399967338
30
0
41
1
10
35.1524071703589
20
-0.718868357526048
30
0
41
1
10
35.1967709987418
20
-0.574754850063357
30
0
0
SPLINE
5
21C
100
AcDbEntity
8
1
62
256
6
ByLayer
370
18
48
1
60
0
100
AcDbSpline
70
4
71
3
72
28
73
24
40
0
40
0
40
0
40
0
40
0.124999999999999
40
0.124999999999999
40
0.249999999999998
40
0.249999999999998
40
0.374999999999996
40
0.374999999999996
40
0.437499999999997
40
0.437499999999997
40
0.499999999999998
40
0.499999999999998
40
0.624999999999998
40
0.624999999999998
40
0.687499999999999
40
0.687499999999999
40
0.749999999999999
40
0.749999999999999
40
0.875
40
0.875
40
0.9375
40
0.9375
40
1
40
1
40
1
40
1
41
1
10
19.1885663263358
20
-10.3839211842009
30
0
41
1
10
19.0521711735215
20
-10.4706269654204
30
0
41
1
10
18.9293533899689
20
-10.5614293484417
30
0
41
1
10
18.7080219166813
20
-10.7556477432028
30
0
41
1
10
18.6090664194974
20
-10.8600193378325
30
0
41
1
10
18.4415241972079
20
-11.0760887420018
30
0
41
1
10
18.371636429648
20
-11.1886456966468
30
0
41
1
10
18.2852716880351
20
-11.3667437291345
30
0
41
1
10
18.2595007893143
20
-11.427925703757
30
0
41
1
10
18.2146199905644
20
-11.5521580259368
30
0
41
1
10
18.1954611503782
20
-11.6152235568325
30
0
41
1
10
18.1472521212674
20
-11.8076603296879
30
0
41
1
10
18.1273702548768
20
-11.9402926334492
30
0
41
1
10
18.1155319570123
20
-12.1469415154465
30
0
41
1
10
18.1146431552314
20
-12.2171608601722
30
0
41
1
10
18.1189495269295
20
-12.3577474629307
30
0
41
1
10
18.1241177741269
20
-12.4284149271893
30
0
41
1
10
18.1486150345698
20
-12.6413869327434
30
0
41
1
10
18.1768507412517
20
-12.7847055741168
30
0
41
1
10
18.2384664582566
20
-13.0002848156403
30
0
41
1
10
18.2623209259597
20
-13.0724152844766
30
0
41
1
10
18.3163041117779
20
-13.2148036321442
30
0
41
1
10
18.3464617712826
20
-13.2852203208849
30
0
41
1
10
18.3799213696254
20
-13.3546355680327
30
0
0
SPLINE
5
21D
100
AcDbEntity
8
1
62
256
6
ByLayer
370
18
48
1
60
0
100
AcDbSpline
70
4
71
3
72
12
73
8
40
0
40
0
40
0
40
0
40
0.5
40
0.5
40
0.75
40
0.75
40
1
40
1
40
1
40
1
41
1
10
38.2761482218775
20
12.2315079619186
30
0
41
1
10
38.4548280013394
20
12.4381172326774
30
0
41
1
10
38.6040910936347
20
12.6521538873977
30
0
41
1
10
38.7853975855376
20
12.9839618993747
30
0
41
1
10
38.8386464689537
20
13.0963791095297
30
0
41
1
10
38.9306511813886
20
13.3248728637128
30
0
41
1
10
38.9693052220227
20
13.4410256701125
30
0
41
1
10
39.0000000000001
20
13.5574682636706
30
0
0
SPLINE
5
21E
100
AcDbEntity
8
1
62
256
6
ByLayer
370
18
48
1
60
0
100
AcDbSpline
70
4
71
3
72
8
73
4
40
0
40
0
40
0
40
0
40
1
40
1
40
1
40
1
41
1
10
31.4842155056028
20
23.5470191525875
30
0
41
1
10
31.3771107062146
20
23.4793682899493
30
0
41
1
10
31.272183123706
20
23.4074430880384
30
0
41
1
10
31.1695220682938
20
23.3310682119261
30
0
0
SPLINE
5
21F
100
AcDbEntity
8
1
62
256
6
ByLayer
370
18
48
1
60
0
100
AcDbSpline
70
4
71
3
72
16
73
12
40
0
40
0
40
0
40
0
40
0.249999999999998
40
0.249999999999998
40
0.499999999999997
40
0.499999999999997
40
0.624999999999997
40
0.624999999999997
40
0.749999999999997
40
0.749999999999997
40
1
40
1
40
1
40
1
41
1
10
38.0517424605562
20
1.87981786559399
30
0
41
1
10
38.1858643147963
20
1.77088217926104
30
0
41
1
10
38.3019362202186
20
1.65024970037945
30
0
41
1
10
38.5066726090828
20
1.39021603590533
30
0
41
1
10
38.5952389156113
20
1.25075198283599
30
0
41
1
10
38.7106335271474
20
1.02890384485539
30
0
41
1
10
38.7461579611011
20
0.952834392053205
30
0
41
1
10
38.8116600321217
20
0.796551296902635
30
0
41
1
10
38.8416803525648
20
0.716182377286316
30
0
41
1
10
38.9232624043828
20
0.470688350027388
30
0
41
1
10
38.9665622922974
20
0.300879622299391
30
0
41
1
10
38.9999999999999
20
0.12474801142497
30
0
0
SPLINE
5
220
100
AcDbEntity
8
1
62
256
6
ByLayer
370
18
48
1
60
0
100
AcDbSpline
70
4
71
3
72
18
73
14
40
0
40
0
40
0
40
0
40
0.125000000000002
40
0.125000000000002
40
0.250000000000003
40
0.250000000000003
40
0.500000000000001
40
0.500000000000001
40
0.625000000000001
40
0.625000000000001
40
0.750000000000001
40
0.750000000000001
40
1
40
1
40
1
40
1
41
1
10
35.994181109254
20
5.83299840156064
30
0
41
1
10
36.0215107868486
20
5.85872339670172
30
0
41
1
10
36.0469878959449
20
5.88768560950606
30
0
41
1
10
36.0929839708348
20
5.95074122831699
30
0
41
1
10
36.1136889930838
20
5.98499421288864
30
0
41
1
10
36.1688161751019
20
6.09605804393706
30
0
41
1
10
36.1962085606625
20
6.18204632704391
30
0
41
1
10
36.2204798840182
20
6.32104200818034
30
0
41
1
10
36.2259050468493
20
6.36928293997263
30
0
41
1
10
36.231335301846
20
6.46964699527655
30
0
41
1
10
36.2312929059761
20
6.52209257753182
30
0
41
1
10
36.2229597811236
20
6.68084703106302
30
0
41
1
10
36.206762464048
20
6.78968539098418
30
0
41
1
10
36.1801229896467
20
6.90146946134436
30
0
0
SPLINE
5
221
100
AcDbEntity
8
1
62
256
6
ByLayer
370
18
48
1
60
0
100
AcDbSpline
70
4
71
3
72
16
73
12
40
0
40
0
40
0
40
0
40
0.125000000000004
40
0.125000000000004
40
0.250000000000007
40
0.250000000000007
40
0.500000000000005
40
0.500000000000005
40
0.750000000000002
40
0.750000000000002
40
1
40
1
40
1
40
1
41
1
10
-3.5358875152E-06
20
-6.32750353588756
30
0
41
1
10
3.5358874015E-06
20
-6.32749646411264
30
0
41
1
10
0.005210463903893
20
-6.32228953609612
30
0
41
1
10
0.0232921538654978
20
-6.30420784613455
30
0
41
1
10
0.0362638855934847
20
-6.29123611440653
30
0
41
1
10
0.0825163458912925
20
-6.24498365410872
30
0
41
1
10
0.124086734927289
20
-6.20341326507278
30
0
41
1
10
0.21686585751155
20
-6.11063414248849
30
0
41
1
10
0.269447450209555
20
-6.05805254979052
30
0
41
1
10
0.380259312515648
20
-5.94724068748442
30
0
41
1
10
0.438946966817184
20
-5.88855303318289
30
0
41
1
10
0.499999999999943
20
-5.8275000000001
30
0
0
SPLINE
5
222
100
AcDbEntity
8
1
62
256
6
ByLayer
370
18
48
1
60
0
100
AcDbSpline
70
4
71
3
72
20
73
16
40
0
40
0
40
0
40
0
40
0.25
40
0.25
40
0.375
40
0.375
40
0.5
40
0.5
40
0.625
40
0.625
40
0.75
40
0.75
40
0.875
40
0.875
40
1
40
1
40
1
40
1
41
1
10
0.5
20
5.82749999999993
30
0
41
1
10
0.438846999912982
20
5.88865300008695
30
0
41
1
10
0.380692906376623
20
5.94680709362331
30
0
41
1
10
0.297547951543436
20
6.02995204845652
30
0
41
1
10
0.270336321225784
20
6.05716367877415
30
0
41
1
10
0.218582251471617
20
6.10891774852831
30
0
41
1
10
0.194037431187212
20
6.13346256881269
30
0
41
1
10
0.147770380686438
20
6.17972961931349
30
0
41
1
10
0.12604159161657
20
6.20145840838336
30
0
41
1
10
0.0859201813158847
20
6.24157981868404
30
0
41
1
10
0.067498770575412
20
6.26000122942449
30
0
41
1
10
0.0364241569914157
20
6.29107584300849
30
0
41
1
10
0.0234281591950776
20
6.30407184080488
30
0
41
1
10
0.0052292408745984
20
6.32227075912533
30
0
41
1
10
-7.7789523516E-06
20
6.32750777895242
30
0
41
1
10
3.359093057E-06
20
6.32749664090682
30
0
0
SPLINE
5
223
100
AcDbEntity
8
1
62
256
6
ByLayer
370
18
48
1
60
0
100
AcDbSpline
70
4
71
3
72
10
73
6
40
0
40
0
40
0
40
0
40
0.5
40
0.5
40
1
40
1
40
1
40
1
41
1
10
32.6741601538707
20
10.4874811697204
30
0
41
1
10
32.7018494812065
20
10.4556673200768
30
0
41
1
10
32.734095328101
20
10.4287588555876
30
0
41
1
10
32.8055845862848
20
10.3868996229122
30
0
41
1
10
32.8451960058427
20
10.3716910131128
30
0
41
1
10
32.8875696167173
20
10.3625946957009
30
0
0
SPLINE
5
224
100
AcDbEntity
8
1
62
256
6
ByLayer
370
18
48
1
60
0
100
AcDbSpline
70
4
71
3
72
12
73
8
40
0
40
0
40
0
40
0
40
0.500000000000002
40
0.500000000000002
40
0.750000000000001
40
0.750000000000001
40
1
40
1
40
1
40
1
41
1
10
38.2761482218775
20
-12.2315079619188
30
0
41
1
10
38.4548280013394
20
-12.4381172326775
30
0
41
1
10
38.6040910936347
20
-12.6521538873978
30
0
41
1
10
38.7853975855375
20
-12.9839618993748
30
0
41
1
10
38.8386464689536
20
-13.0963791095298
30
0
41
1
10
38.9306511813886
20
-13.3248728637129
30
0
41
1
10
38.9693052220227
20
-13.4410256701126
30
0
41
1
10
39
20
-13.5574682636707
30
0
0
SPLINE
5
225
100
AcDbEntity
8
1
62
256
6
ByLayer
370
18
48
1
60
0
100
AcDbSpline
70
4
71
3
72
34
73
30
40
0
40
0
40
0
40
0
40
0.0624999999999998
40
0.0624999999999998
40
0.125
40
0.125
40
0.1875
40
0.1875
40
0.249999999999999
40
0.249999999999999
40
0.312499999999999
40
0.312499999999999
40
0.374999999999999
40
0.374999999999999
40
0.5
40
0.5
40
0.625
40
0.625
40
0.6875
40
0.6875
40
0.75
40
0.75
40
0.8125
40
0.8125
40
0.875
40
0.875
40
0.9375
40
0.9375
40
1
40
1
40
1
40
1
41
1
10
30.4491353053855
20
6.53347726919111
30
0
41
1
10
30.4020129956463
20
6.54641243969783
30
0
41
1
10
30.3557784775458
20
6.56535649733348
30
0
41
1
10
30.2649729666414
20
6.61558003965527
30
0
41
1
10
30.2210939350609
20
6.64639292026911
30
0
41
1
10
30.1344815686196
20
6.71915775484874
30
0
41
1
10
30.091760466043
20
6.76110806760889
30
0
41
1
10
30.0056935848987
20
6.8563791488487
30
0
41
1
10
29.9632894611945
20
6.90869072050842
30
0
41
1
10
29.8792579113213
20
7.02000857231889
30
0
41
1
10
29.8374345797377
20
7.07925070017981
30
0
41
1
10
29.752493938011
20
7.20407757857669
30
0
41
1
10
29.7101985787488
20
7.26845063974437
30
0
41
1
10
29.5832172306961
20
7.46279387977123
30
0
41
1
10
29.4964815307425
20
7.59678587310944
30
0
41
1
10
29.3197679478718
20
7.84557559344736
30
0
41
1
10
29.2273456520413
20
7.96339139609626
30
0
41
1
10
29.0861448978954
20
8.11342907761593
30
0
41
1
10
29.0384219235889
20
8.15944944636618
30
0
41
1
10
28.9411508476304
20
8.24300369087905
30
0
41
1
10
28.8922266736743
20
8.27993473822843
30
0
41
1
10
28.7958077029257
20
8.34306791605312
30
0
41
1
10
28.7480183793721
20
8.36952899003796
30
0
41
1
10
28.6539493166505
20
8.41242537623478
30
0
41
1
10
28.6077866942406
20
8.42871335854656
30
0
41
1
10
28.5212557536963
20
8.45065156652905
30
0
41
1
10
28.4804597104925
20
8.45651342543835
30
0
41
1
10
28.4052295415153
20
8.4586169566459
30
0
41
1
10
28.370663009173
20
8.45472532382712
30
0
41
1
10
28.3414124923867
20
8.44648479944365
30
0
0
SPLINE
5
226
100
AcDbEntity
8
1
62
256
6
ByLayer
370
18
48
1
60
0
100
AcDbSpline
70
4
71
3
72
8
73
4
40
0
40
0
40
0
40
0
40
1
40
1
40
1
40
1
41
1
10
37.9967618587394
20
-12.0266418263683
30
0
41
1
10
37.9669290672141
20
-12.0782053390136
30
0
41
1
10
37.9364808030468
20
-12.1157802479945
30
0
41
1
10
37.9127321286629
20
-12.1362355572147
30
0
0
SPLINE
5
227
100
AcDbEntity
8
1
62
256
6
ByLayer
370
18
48
1
60
0
100
AcDbSpline
70
4
71
3
72
28
73
24
40
0
40
0
40
0
40
0
40
0.125
40
0.125
40
0.250000000000001
40
0.250000000000001
40
0.375000000000001
40
0.375000000000001
40
0.437500000000001
40
0.437500000000001
40
0.500000000000001
40
0.500000000000001
40
0.625
40
0.625
40
0.687499999999999
40
0.687499999999999
40
0.749999999999999
40
0.749999999999999
40
0.875
40
0.875
40
0.9375
40
0.9375
40
1
40
1
40
1
40
1
41
1
10
19.1885663263358
20
12.6542355472467
30
0
41
1
10
19.0521711735215
20
12.5730449295647
30
0
41
1
10
18.9293533899689
20
12.4741701800775
30
0
41
1
10
18.7080219166814
20
12.2486131139769
30
0
41
1
10
18.6090664194975
20
12.1205578246531
30
0
41
1
10
18.441524197208
20
11.8527305437032
30
0
41
1
10
18.371636429648
20
11.7119543102812
30
0
41
1
10
18.2852716880351
20
11.4933617172244
30
0
41
1
10
18.2595007893144
20
11.4189206497086
30
0
41
1
10
18.2146199905644
20
11.2698315218856
30
0
41
1
10
18.1954611503782
20
11.1951564700976
30
0
41
1
10
18.1472521212675
20
10.9711385078389
30
0
41
1
10
18.1273702548768
20
10.8218400478955
30
0
41
1
10
18.1155319570123
20
10.5988555919203
30
0
41
1
10
18.1146431552314
20
10.5246350713809
30
0
41
1
10
18.1189495269296
20
10.3790854663497
30
0
41
1
10
18.124117774127
20
10.3074269677018
30
0
41
1
10
18.1486150345698
20
10.0956260898171
30
0
41
1
10
18.1768507412517
20
9.95868487593944
30
0
41
1
10
18.2384664582566
20
9.75851224848287
30
0
41
1
10
18.2623209259597
20
9.69249339679345
30
0
41
1
10
18.3163041117779
20
9.56341650094353
30
0
41
1
10
18.3464617712826
20
9.50020677532132
30
0
41
1
10
18.3799213696255
20
9.43812370161839
30
0
0
SPLINE
5
228
100
AcDbEntity
8
1
62
256
6
ByLayer
370
18
48
1
60
0
100
AcDbSpline
70
4
71
3
72
24
73
20
40
0
40
0
40
0
40
0
40
0.0625000000000005
40
0.0625000000000005
40
0.125000000000001
40
0.125000000000001
40
0.250000000000001
40
0.250000000000001
40
0.375000000000001
40
0.375000000000001
40
0.500000000000001
40
0.500000000000001
40
0.625
40
0.625
40
0.75
40
0.75
40
0.875
40
0.875
40
1
40
1
40
1
40
1
41
1
10
37.0054646990399
20
-8.70284115423829
30
0
41
1
10
37.0016773628614
20
-8.74873287397133
30
0
41
1
10
36.9987385832775
20
-8.79664517372123
30
0
41
1
10
36.9946467865545
20
-8.8949092759062
30
0
41
1
10
36.9934762272105
20
-8.94543486796974
30
0
41
1
10
36.9925400342543
20
-9.10109729301755
30
0
41
1
10
36.9953411547557
20
-9.2103006004308
30
0
41
1
10
37.0077444984056
20
-9.43953839599524
30
0
41
1
10
37.01746421287
20
-9.56053121240336
30
0
41
1
10
37.0432246041722
20
-9.80770711855041
30
0
41
1
10
37.0592190753211
20
-9.93404138812164
30
0
41
1
10
37.097094944183
20
-10.1921144647033
30
0
41
1
10
37.118976376506
20
-10.3238529064314
30
0
41
1
10
37.1685741584933
20
-10.5929705904533
30
0
41
1
10
37.1959418935725
20
-10.7283731765131
30
0
41
1
10
37.2547816114115
20
-10.9978352532887
30
0
41
1
10
37.2863445874258
20
-11.1323863651844
30
0
41
1
10
37.3535594969688
20
-11.4011842444707
30
0
41
1
10
37.3895064443269
20
-11.5364297409961
30
0
41
1
10
37.4265315586083
20
-11.6680963830115
30
0
0
SPLINE
5
229
100
AcDbEntity
8
1
62
256
6
ByLayer
370
18
48
1
60
0
100
AcDbSpline
70
4
71
3
72
30
73
26
40
0
40
0
40
0
40
0
40
0.125000000000002
40
0.125000000000002
40
0.187500000000002
40
0.187500000000002
40
0.250000000000003
40
0.250000000000003
40
0.312500000000003
40
0.312500000000003
40
0.375000000000004
40
0.375000000000004
40
0.437500000000005
40
0.437500000000005
40
0.500000000000005
40
0.500000000000005
40
0.625000000000004
40
0.625000000000004
40
0.687500000000003
40
0.687500000000003
40
0.750000000000001
40
0.750000000000001
40
0.875000000000001
40
0.875000000000001
40
1
40
1
40
1
40
1
41
1
10
28.2546248753071
20
22.2889402528876
30
0
41
1
10
28.3622961567384
20
22.2619434707337
30
0
41
1
10
28.4804561572086
20
22.2410322980942
30
0
41
1
10
28.6737217331924
20
22.2229535123215
30
0
41
1
10
28.740677333597
20
22.2192199878274
30
0
41
1
10
28.8762938933027
20
22.2170107539373
30
0
41
1
10
28.9453862700047
20
22.2184860792862
30
0
41
1
10
29.0860753301102
20
22.2270294134758
30
0
41
1
10
29.1576714935605
20
22.2340954009131
30
0
41
1
10
29.3034385642753
20
22.2543966908854
30
0
41
1
10
29.3764596478188
20
22.2674952830593
30
0
41
1
10
29.5211773287741
20
22.2992749371245
30
0
41
1
10
29.5931270940445
20
22.3179904286452
30
0
41
1
10
29.7362071202189
20
22.3610870510406
30
0
41
1
10
29.8078076600519
20
22.3856561315642
30
0
41
1
10
30.0178265166846
20
22.4666415968229
30
0
41
1
10
30.1500842724146
20
22.5295432909478
30
0
41
1
10
30.3379395391588
20
22.6348967741342
30
0
41
1
10
30.3988105742836
20
22.6719192114845
30
0
41
1
10
30.5140624577415
20
22.7472254707446
30
0
41
1
10
30.5688770976832
20
22.7857406569111
30
0
41
1
10
30.7254393338605
20
22.9030499562568
30
0
41
1
10
30.8199941646243
20
22.9843721045099
30
0
41
1
10
30.9820523000768
20
23.1401718567299
30
0
41
1
10
31.0508870251484
20
23.2156036457305
30
0
41
1
10
31.1078500387077
20
23.2858911136252
30
0
0
SPLINE
5
22A
100
AcDbEntity
8
1
62
256
6
ByLayer
370
18
48
1
60
0
100
AcDbSpline
70
4
71
3
72
28
73
24
40
0
40
0
40
0
40
0
40
0.125000000000001
40
0.125000000000001
40
0.250000000000001
40
0.250000000000001
40
0.375000000000002
40
0.375000000000002
40
0.437500000000002
40
0.437500000000002
40
0.500000000000001
40
0.500000000000001
40
0.625000000000001
40
0.625000000000001
40
0.687500000000001
40
0.687500000000001
40
0.750000000000001
40
0.750000000000001
40
0.875000000000001
40
0.875000000000001
40
0.9375
40
0.9375
40
1
40
1
40
1
40
1
41
1
10
19.1885663263358
20
23.0381567314476
30
0
41
1
10
19.0521711735215
20
23.0436718949851
30
0
41
1
10
18.9293533899689
20
23.0355995285192
30
0
41
1
10
18.7080219166814
20
23.0042608571796
30
0
41
1
10
18.6090664194975
20
22.9805771624856
30
0
41
1
10
18.441524197208
20
22.928819285705
30
0
41
1
10
18.371636429648
20
22.900600006928
30
0
41
1
10
18.2852716880352
20
22.8601054463589
30
0
41
1
10
18.2595007893144
20
22.8468463534656
30
0
41
1
10
18.2146199905644
20
22.8219895478224
30
0
41
1
10
18.1954611503782
20
22.8103800269301
30
0
41
1
10
18.1472521212675
20
22.7787988375268
30
0
41
1
10
18.1273702548769
20
22.7621326813447
30
0
41
1
10
18.1155319570124
20
22.7457971073668
30
0
41
1
10
18.1146431552315
20
22.741795931553
30
0
41
1
10
18.1189495269296
20
22.7368329292804
30
0
41
1
10
18.1241177741271
20
22.7358418948912
30
0
41
1
10
18.1486150345698
20
22.7370130225605
30
0
41
1
10
18.1768507412518
20
22.7433904500562
30
0
41
1
10
18.2384664582567
20
22.7587970641232
30
0
41
1
10
18.2623209259597
20
22.76490868127
30
0
41
1
10
18.3163041117779
20
22.7782201330877
30
0
41
1
10
18.3464617712827
20
22.7854270962062
30
0
41
1
10
18.3799213696255
20
22.7927592696511
30
0
0
SPLINE
5
22B
100
AcDbEntity
8
1
62
256
6
ByLayer
370
18
48
1
60
0
100
AcDbSpline
70
4
71
3
72
17
73
13
40
0
40
0
40
0
40
0
40
0.249999999999998
40
0.249999999999998
40
0.374999999999998
40
0.374999999999998
40
0.499999999999998
40
0.624999999999998
40
0.624999999999998
40
0.749999999999998
40
0.749999999999998
40
1
40
1
40
1
40
1
41
1
10
37.0785957308046
20
5.63951332367924
30
0
41
1
10
37.0738703308812
20
5.57229045141182
30
0
41
1
10
37.0711789539318
20
5.51134627824371
30
0
41
1
10
37.0701189947557
20
5.42914416605041
30
0
41
1
10
37.0702744592826
20
5.40314245194819
30
0
41
1
10
37.0716007046819
20
5.35543949316659
30
0
41
1
10
37.0739248807502
20
5.31189274944759
30
0
41
1
10
37.078191565936
20
5.27645758448907
30
0
41
1
10
37.0834448640758
20
5.24515426353756
30
0
41
1
10
37.0865828299478
20
5.23156063725685
30
0
41
1
10
37.0972391137051
20
5.19810126057308
30
0
41
1
10
37.1060352579129
20
5.18499638338895
30
0
41
1
10
37.1165312462599
20
5.18119442201555
30
0
0
SPLINE
5
22C
100
AcDbEntity
8
1
62
256
6
ByLayer
370
18
48
1
60
0
100
AcDbSpline
70
4
71
3
72
44
73
40
40
0
40
0
40
0
40
0
40
0.124999999999993
40
0.124999999999993
40
0.187499999999989
40
0.187499999999989
40
0.249999999999985
40
0.249999999999985
40
0.374999999999977
40
0.374999999999977
40
0.437499999999973
40
0.437499999999973
40
0.499999999999968
40
0.499999999999968
40
0.562499999999964
40
0.562499999999964
40
0.593749999999962
40
0.593749999999962
40
0.609374999999962
40
0.609374999999962
40
0.624999999999962
40
0.624999999999962
40
0.656249999999966
40
0.656249999999966
40
0.687499999999969
40
0.687499999999969
40
0.718749999999972
40
0.718749999999972
40
0.749999999999975
40
0.749999999999975
40
0.781249999999979
40
0.781249999999979
40
0.812499999999982
40
0.812499999999982
40
0.874999999999988
40
0.874999999999988
40
0.937499999999994
40
0.937499999999994
40
1
40
1
40
1
40
1
41
1
10
31.4584433364805
20
-20.2577944166265
30
0
41
1
10
31.4609776862047
20
-20.4241662806101
30
0
41
1
10
31.4855476299688
20
-20.5967342982055
30
0
41
1
10
31.5536012954399
20
-20.8623355246831
30
0
41
1
10
31.5817019608757
20
-20.9522859462579
30
0
41
1
10
31.648304397446
20
-21.1317442859909
30
0
41
1
10
31.6868270150525
20
-21.2214564472202
30
0
41
1
10
31.8193752643073
20
-21.4899200695806
30
0
41
1
10
31.9294407231093
20
-21.6680914170927
30
0
41
1
10
32.1438533269324
20
-21.9305592515111
30
0
41
1
10
32.2228954923933
20
-22.0161353671272
30
0
41
1
10
32.4000025949258
20
-22.1809108326492
30
0
41
1
10
32.4990667076452
20
-22.26084983701
30
0
41
1
10
32.7174072238231
20
-22.4062289166357
30
0
41
1
10
32.8368875523839
20
-22.4723422397316
30
0
41
1
10
33.0397962328016
20
-22.5559493848063
30
0
41
1
10
33.109547426036
20
-22.5803387725221
30
0
41
1
10
33.217773941347
20
-22.611020844989
30
0
41
1
10
33.2544517795592
20
-22.6202602626754
30
0
41
1
10
33.329115256243
20
-22.6365970871475
30
0
41
1
10
33.367189597
20
-22.6436913443202
30
0
41
1
10
33.4806798280496
20
-22.6611067707393
30
0
41
1
10
33.5562447253396
20
-22.6677927703346
30
0
41
1
10
33.7071751757836
20
-22.671434379961
30
0
41
1
10
33.7828799200196
20
-22.6682290661372
30
0
41
1
10
33.9274369365402
20
-22.6529233962334
30
0
41
1
10
33.9971972985715
20
-22.640893435473
30
0
41
1
10
34.1321708513652
20
-22.6092051787465
30
0
41
1
10
34.1956352371958
20
-22.589979579405
30
0
41
1
10
34.3161733638798
20
-22.5462273789807
30
0
41
1
10
34.3732339718322
20
-22.5216894759633
30
0
41
1
10
34.4819559985197
20
-22.4682065123846
30
0
41
1
10
34.5336076401374
20
-22.4392169069712
30
0
41
1
10
34.6785191405091
20
-22.348570315475
30
0
41
1
10
34.763232889764
20
-22.2827065918121
30
0
41
1
10
34.9153239377772
20
-22.1434640444944
30
0
41
1
10
34.9829006878755
20
-22.0695823971882
30
0
41
1
10
35.1013078588941
20
-21.9189234893567
30
0
41
1
10
35.1524071703589
20
-21.8419867131338
30
0
41
1
10
35.1967709987417
20
-21.763883937833
30
0
0
SPLINE
5
22D
100
AcDbEntity
8
1
62
256
6
ByLayer
370
18
48
1
60
0
100
AcDbSpline
70
4
71
3
72
12
73
8
40
0
40
0
40
0
40
0
40
0.499999999999994
40
0.499999999999994
40
0.749999999999997
40
0.749999999999997
40
1
40
1
40
1
40
1
41
1
10
36.6139482090622
20
20.8411511248644
30
0
41
1
10
36.4007576812509
20
20.9029964848604
30
0
41
1
10
36.1764231709751
20
20.9630530913836
30
0
41
1
10
35.8221425428787
20
21.0502842635154
30
0
41
1
10
35.7010651876923
20
21.0788823803554
30
0
41
1
10
35.4525518379381
20
21.1350579700859
30
0
41
1
10
35.3249754335664
20
21.1626513780973
30
0
41
1
10
35.1967709987418
20
21.1891290877696
30
0
0
SPLINE
5
22E
100
AcDbEntity
8
1
62
256
6
ByLayer
370
18
48
1
60
0
100
AcDbSpline
70
4
71
3
72
9
73
5
40
0
40
0
40
0
40
0
40
0.5
40
1
40
1
40
1
40
1
41
1
10
28.084234836799
20
-9.98156600213869
30
0
41
1
10
28.0805663552655
20
-9.99047122583275
30
0
41
1
10
28.0733422750168
20
-10.0083250767825
30
0
41
1
10
28.0663456817137
20
-10.0262663967004
30
0
41
1
10
28.0629047562937
20
-10.0352591159578
30
0
0
SPLINE
5
22F
100
AcDbEntity
8
1
62
256
6
ByLayer
370
18
48
1
60
0
100
AcDbSpline
70
4
71
3
72
10
73
6
40
0
40
0
40
0
40
0
40
0.5
40
0.5
40
1
40
1
40
1
40
1
41
1
10
37.9967618587394
20
4.28367881649771
30
0
41
1
10
38.0051148940402
20
4.29015142759047
30
0
41
1
10
38.013903461034
20
4.29658093872081
30
0
41
1
10
38.0323110934169
20
4.30930755119334
30
0
41
1
10
38.0418587162298
20
4.31555605491755
30
0
41
1
10
38.0517424605563
20
4.32169232230981
30
0
0
LINE
5
70
100
AcDbEntity
8
80
62
256
6
ByLayer
370
18
48
1
60
0
100
AcDbLine
10
0
20
0
30
0
11
-5
21
0
31
0
39
0
210
0
220
0
230
1
0
LINE
5
71
100
AcDbEntity
8
4
62
256
6
ByLayer
370
18
48
0.05
60
0
100
AcDbLine
10
0
20
0
30
0
11
45
21
0
31
0
39
0
210
0
220
0
230
1
0
LINE
5
73
100
AcDbEntity
8
1
62
256
6
ByLayer
370
18
48
1
60
0
100
AcDbLine
10
15.450845
20
20.5
30
0
11
0.5
21
20.5
31
0
39
0
210
0
220
0
230
1
0
LINE
5
75
100
AcDbEntity
8
SK4
62
256
6
ByLayer
370
18
48
0.05
60
0
100
AcDbLine
10
-5
20
0
30
0
11
45
21
0
31
0
39
0
210
0
220
0
230
1
0
LINE
5
77
100
AcDbEntity
8
81
62
256
6
ByLayer
370
18
48
1
60
0
100
AcDbLine
10
40
20
26
30
0
11
45
21
26
31
0
39
0
210
0
220
0
230
1
0
LINE
5
78
100
AcDbEntity
8
1
62
256
6
ByLayer
370
18
48
1
60
0
100
AcDbLine
10
39
20
17.003476
30
0
11
37.890414
21
19.18301
31
0
39
0
210
0
220
0
230
1
0
LINE
5
79
100
AcDbEntity
8
1
62
256
6
ByLayer
370
18
48
1
60
0
100
AcDbLine
10
0.5
20
-20.5
30
0
11
15.450845
21
-20.5
31
0
39
0
210
0
220
0
230
1
0
LINE
5
7A
100
AcDbEntity
8
1
62
256
6
ByLayer
370
18
48
1
60
0
100
AcDbLine
10
37.041252
20
7.242022
30
0
11
36.861049
21
7.152494
31
0
39
0
210
0
220
0
230
1
0
LINE
5
7B
100
AcDbEntity
8
1
62
256
6
ByLayer
370
18
48
1
60
0
100
AcDbLine
10
17.319706
20
21.787707
30
0
11
17.319706
21
-21.787707
31
0
39
0
210
0
220
0
230
1
0
LINE
5
7C
100
AcDbEntity
8
1
62
256
6
ByLayer
370
18
48
1
60
0
100
AcDbLine
10
15.450845
20
-20.5
30
0
11
15.450845
21
20.5
31
0
39
0
210
0
220
0
230
1
0
LINE
5
7D
100
AcDbEntity
8
1
62
256
6
ByLayer
370
18
48
1
60
0
100
AcDbLine
10
0.5
20
-20.5
30
0
11
0.5
21
-5.8275
31
0
39
0
210
0
220
0
230
1
0
LINE
5
7E
100
AcDbEntity
8
1
62
256
6
ByLayer
370
18
48
1
60
0
100
AcDbLine
10
0.5
20
20.5
30
0
11
0.5
21
5.8275
31
0
39
0
210
0
220
0
230
1
0
LINE
5
7F
100
AcDbEntity
8
1
62
256
6
ByLayer
370
18
48
1
60
0
100
AcDbLine
10
0
20
6.3275
30
0
11
0
21
20
31
0
39
0
210
0
220
0
230
1
0
LINE
5
80
100
AcDbEntity
8
1
62
256
6
ByLayer
370
18
48
1
60
0
100
AcDbLine
10
0
20
-6.3275
30
0
11
0
21
-20
31
0
39
0
210
0
220
0
230
1
0
LINE
5
81
100
AcDbEntity
8
1
62
256
6
ByLayer
370
18
48
1
60
0
100
AcDbLine
10
38.276148
20
4.471392
30
0
11
37.003339
21
4.919071
31
0
39
0
210
0
220
0
230
1
0
LINE
5
82
100
AcDbEntity
8
1
62
256
6
ByLayer
370
18
48
1
60
0
100
AcDbLine
10
28.895493
20
11.558965
30
0
11
29.252431
21
12.747095
31
0
39
0
210
0
220
0
230
1
0
LINE
5
83
100
AcDbEntity
8
1
62
256
6
ByLayer
370
18
48
1
60
0
100
AcDbLine
10
37.912732
20
2.014434
30
0
11
37.912732
21
3.903704
31
0
39
0
210
0
220
0
230
1
0
LINE
5
84
100
AcDbEntity
8
1
62
256
6
ByLayer
370
18
48
1
60
0
100
AcDbLine
10
37.912732
20
-13.400078
30
0
11
37.912732
21
-12.136236
31
0
39
0
210
0
220
0
230
1
0
LINE
5
85
100
AcDbEntity
8
1
62
256
6
ByLayer
370
18
48
1
60
0
100
AcDbLine
10
39
20
16.939967
30
0
11
39
21
17.003476
31
0
39
0
210
0
220
0
230
1
0
LINE
5
86
100
AcDbEntity
8
1
62
256
6
ByLayer
370
18
48
1
60
0
100
AcDbLine
10
38.051742
20
-12.068414
30
0
11
38.051742
21
-13.693805
31
0
39
0
210
0
220
0
230
1
0
LINE
5
87
100
AcDbEntity
8
1
62
256
6
ByLayer
370
18
48
1
60
0
100
AcDbLine
10
39
20
-13.557468
30
0
11
39
21
-16.427858
31
0
39
0
210
0
220
0
230
1
0
LINE
5
88
100
AcDbEntity
8
1
62
256
6
ByLayer
370
18
48
1
60
0
100
AcDbLine
10
38.051742
20
4.321692
30
0
11
38.051742
21
1.880617
31
0
39
0
210
0
220
0
230
1
0
LINE
5
89
100
AcDbEntity
8
1
62
256
6
ByLayer
370
18
48
1
60
0
100
AcDbLine
10
39
20
4.792286
30
0
11
39
21
0.125106
31
0
39
0
210
0
220
0
230
1
0
LINE
5
8A
100
AcDbEntity
8
1
62
256
6
ByLayer
370
18
48
1
60
0
100
AcDbLine
10
31.651914
20
21.171289
30
0
11
31.53161
21
21.292517
31
0
39
0
210
0
220
0
230
1
0
LINE
5
8B
100
AcDbEntity
8
1
62
256
6
ByLayer
370
18
48
1
60
0
100
AcDbLine
10
31.230697
20
21.595743
30
0
11
31.157854
21
21.669145
31
0
39
0
210
0
220
0
230
1
0
LINE
5
8C
100
AcDbEntity
8
1
62
256
6
ByLayer
370
18
48
1
60
0
100
AcDbLine
10
39
20
18.349755
30
0
11
39
21
17.0035
31
0
39
0
210
0
220
0
230
1
0
LINE
5
8D
100
AcDbEntity
8
1
62
256
6
ByLayer
370
18
48
1
60
0
100
AcDbLine
10
37.930867
20
19.103557
30
0
11
39
21
19.084389
31
0
39
0
210
0
220
0
230
1
0
LINE
5
8E
100
AcDbEntity
8
1
62
256
6
ByLayer
370
18
48
1
60
0
100
AcDbLine
10
39
20
20.006234
30
0
11
37.349874
21
20.035818
31
0
39
0
210
0
220
0
230
1
0
LINE
5
8F
100
AcDbEntity
8
1
62
256
6
ByLayer
370
18
48
1
60
0
100
AcDbLine
10
29.001628
20
13.452403
30
0
11
29.249227
21
12.755701
31
0
39
0
210
0
220
0
230
1
0
LINE
5
90
100
AcDbEntity
8
1
62
256
6
ByLayer
370
18
48
1
60
0
100
AcDbLine
10
31.169522
20
-19.893147
30
0
11
31.169522
21
-23.331068
31
0
39
0
210
0
220
0
230
1
0
LINE
5
91
100
AcDbEntity
8
1
62
256
6
ByLayer
370
18
48
1
60
0
100
AcDbLine
10
29.001628
20
-7.577706
30
0
11
29.249227
21
-5.604991
31
0
39
0
210
0
220
0
230
1
0
LINE
5
92
100
AcDbEntity
8
1
62
256
6
ByLayer
370
18
48
1
60
0
100
AcDbLine
10
6.55
20
-4.4275
30
0
11
6.55
21
4.4275
31
0
39
0
210
0
220
0
230
1
0
LINE
5
93
100
AcDbEntity
8
1
62
256
6
ByLayer
370
18
48
1
60
0
100
AcDbLine
10
39
20
16.78701
30
0
11
39
21
14.662379
31
0
39
0
210
0
220
0
230
1
0
LINE
5
94
100
AcDbEntity
8
1
62
256
6
ByLayer
370
18
48
1
60
0
100
AcDbLine
10
32.126034
20
11.985249
30
0
11
32.711081
21
11.601482
31
0
39
0
210
0
220
0
230
1
0
LINE
5
95
100
AcDbEntity
8
1
62
256
6
ByLayer
370
18
48
1
60
0
100
AcDbLine
10
36.87894
20
8.215335
30
0
11
36.519078
21
8.451389
31
0
39
0
210
0
220
0
230
1
0
LINE
5
96
100
AcDbEntity
8
1
62
256
6
ByLayer
370
18
48
1
60
0
100
AcDbLine
10
39
20
14.662379
30
0
11
39
21
14.581962
31
0
39
0
210
0
220
0
230
1
0
LINE
5
97
100
AcDbEntity
8
1
62
256
6
ByLayer
370
18
48
1
60
0
100
AcDbLine
10
31.485816
20
1.914545
30
0
11
31.458443
21
1.34416
31
0
39
0
210
0
220
0
230
1
0
LINE
5
98
100
AcDbEntity
8
1
62
256
6
ByLayer
370
18
48
1
60
0
100
AcDbLine
10
36.871373
20
6.146784
30
0
11
38.22563
21
6.819597
31
0
39
0
210
0
220
0
230
1
0
LINE
5
99
100
AcDbEntity
8
1
62
256
6
ByLayer
370
18
48
1
60
0
100
AcDbLine
10
36.88713
20
20.807675
30
0
11
36.92505
21
20.769474
31
0
39
0
210
0
220
0
230
1
0
LINE
5
9A
100
AcDbEntity
8
1
62
256
6
ByLayer
370
18
48
1
60
0
100
AcDbLine
10
39
20
-1.759195
30
0
11
38.102752
21
-2.103053
31
0
39
0
210
0
220
0
230
1
0
LINE
5
9B
100
AcDbEntity
8
1
62
256
6
ByLayer
370
18
48
1
60
0
100
AcDbLine
10
19.188566
20
22.767836
30
0
11
19.188566
21
12.654236
31
0
39
0
210
0
220
0
230
1
0
LINE
5
9C
100
AcDbEntity
8
1
62
256
6
ByLayer
370
18
48
1
60
0
100
AcDbLine
10
32.869925
20
15.777768
30
0
11
31.484216
21
16.686736
31
0
39
0
210
0
220
0
230
1
0
LINE
5
9D
100
AcDbEntity
8
1
62
256
6
ByLayer
370
18
48
1
60
0
100
AcDbLine
10
39
20
19.084389
30
0
11
39
21
20.006234
31
0
39
0
210
0
220
0
230
1
0
LINE
5
9E
100
AcDbEntity
8
1
62
256
6
ByLayer
370
18
48
1
60
0
100
AcDbLine
10
35.642138
20
15.503286
30
0
11
35.606909
21
15.539924
31
0
39
0
210
0
220
0
230
1
0
LINE
5
9F
100
AcDbEntity
8
1
62
256
6
ByLayer
370
18
48
1
60
0
100
AcDbLine
10
24.232357
20
-12.171329
30
0
11
37.426532
21
-11.668096
31
0
39
0
210
0
220
0
230
1
0
LINE
5
A0
100
AcDbEntity
8
1
62
256
6
ByLayer
370
18
48
1
60
0
100
AcDbLine
10
28.906351
20
13.339547
30
0
11
28.913952
21
13.333296
31
0
39
0
210
0
220
0
230
1
0
LINE
5
A1
100
AcDbEntity
8
1
62
256
6
ByLayer
370
18
48
1
60
0
100
AcDbLine
10
34.052307
20
24.160011
30
0
11
34.002182
21
22.256434
31
0
39
0
210
0
220
0
230
1
0
LINE
5
A2
100
AcDbEntity
8
1
62
256
6
ByLayer
370
18
48
1
60
0
100
AcDbLine
10
38.276148
20
12.231508
30
0
11
36.957175
21
13.0967
31
0
39
0
210
0
220
0
230
1
0
LINE
5
A3
100
AcDbEntity
8
1
62
256
6
ByLayer
370
18
48
1
60
0
100
AcDbLine
10
37.041252
20
16.157061
30
0
11
35.680102
21
15.482372
31
0
39
0
210
0
220
0
230
1
0
LINE
5
A4
100
AcDbEntity
8
1
62
256
6
ByLayer
370
18
48
1
60
0
100
AcDbLine
10
39
20
-18.699162
30
0
11
38.102752
21
-20.805463
31
0
39
0
210
0
220
0
230
1
0
LINE
5
A5
100
AcDbEntity
8
1
62
256
6
ByLayer
370
18
48
1
60
0
100
AcDbLine
10
39
20
14.114187
30
0
11
39
21
13.557468
31
0
39
0
210
0
220
0
230
1
0
LINE
5
A6
100
AcDbEntity
8
1
62
256
6
ByLayer
370
18
48
1
60
0
100
AcDbLine
10
1.1
20
5.2275
30
0
11
0.5
21
5.8275
31
0
39
0
210
0
220
0
230
1
0
LINE
5
A7
100
AcDbEntity
8
1
62
256
6
ByLayer
370
18
48
1
60
0
100
AcDbLine
10
5.75
20
5.2275
30
0
11
6.55
21
4.4275
31
0
39
0
210
0
220
0
230
1
0
LINE
5
A8
100
AcDbEntity
8
1
62
256
6
ByLayer
370
18
48
1
60
0
100
AcDbLine
10
31.869381
20
8.645942
30
0
11
32.149068
21
8.72681
31
0
39
0
210
0
220
0
230
1
0
LINE
5
A9
100
AcDbEntity
8
1
62
256
6
ByLayer
370
18
48
1
60
0
100
AcDbLine
10
39
20
14.114187
30
0
11
39
21
14.581962
31
0
39
0
210
0
220
0
230
1
0
LINE
5
AA
100
AcDbEntity
8
1
62
256
6
ByLayer
370
18
48
1
60
0
100
AcDbLine
10
29.146914
20
14.055904
30
0
11
29.103906
21
13.967641
31
0
39
0
210
0
220
0
230
1
0
LINE
5
AB
100
AcDbEntity
8
1
62
256
6
ByLayer
370
18
48
1
60
0
100
AcDbLine
10
28.906351
20
-8.026898
30
0
11
28.913952
21
-8.025489
31
0
39
0
210
0
220
0
230
1
0
LINE
5
AC
100
AcDbEntity
8
1
62
256
6
ByLayer
370
18
48
1
60
0
100
AcDbLine
10
24.232357
20
5.625563
30
0
11
37.426532
21
2.586115
31
0
39
0
210
0
220
0
230
1
0
LINE
5
AD
100
AcDbEntity
8
1
62
256
6
ByLayer
370
18
48
1
60
0
100
AcDbLine
10
32.711081
20
11.601482
30
0
11
32.754089
21
11.689746
31
0
39
0
210
0
220
0
230
1
0
LINE
5
AE
100
AcDbEntity
8
1
62
256
6
ByLayer
370
18
48
1
60
0
100
AcDbLine
10
28.062905
20
-10.035259
30
0
11
27.250154
21
-10.321124
31
0
39
0
210
0
220
0
230
1
0
LINE
5
AF
100
AcDbEntity
8
1
62
256
6
ByLayer
370
18
48
1
60
0
100
AcDbLine
10
36.105757
20
-17.196831
30
0
11
37.840646
21
-13.124154
31
0
39
0
210
0
220
0
230
1
0
LINE
5
B0
100
AcDbEntity
8
1
62
256
6
ByLayer
370
18
48
1
60
0
100
AcDbLine
10
32.754089
20
11.689746
30
0
11
31.989505
21
12.191282
31
0
39
0
210
0
220
0
230
1
0
LINE
5
B1
100
AcDbEntity
8
1
62
256
6
ByLayer
370
18
48
1
60
0
100
AcDbLine
10
29.103906
20
13.967641
30
0
11
29.688953
21
13.583874
31
0
39
0
210
0
220
0
230
1
0
LINE
5
B2
100
AcDbEntity
8
1
62
256
6
ByLayer
370
18
48
1
60
0
100
AcDbLine
10
37.005465
20
-8.702841
30
0
11
36.351827
21
-8.727771
31
0
39
0
210
0
220
0
230
1
0
LINE
5
B3
100
AcDbEntity
8
1
62
256
6
ByLayer
370
18
48
1
60
0
100
AcDbLine
10
30.398589
20
15.030011
30
0
11
34.005765
21
12.663853
31
0
39
0
210
0
220
0
230
1
0
LINE
5
B4
100
AcDbEntity
8
1
62
256
6
ByLayer
370
18
48
1
60
0
100
AcDbLine
10
39
20
4.970202
30
0
11
39
21
4.792286
31
0
39
0
210
0
220
0
230
1
0
LINE
5
B5
100
AcDbEntity
8
1
62
256
6
ByLayer
370
18
48
1
60
0
100
AcDbLine
10
19.188566
20
-14.63589
30
0
11
19.188566
21
-23.038157
31
0
39
0
210
0
220
0
230
1
0
LINE
5
B6
100
AcDbEntity
8
1
62
256
6
ByLayer
370
18
48
1
60
0
100
AcDbLine
10
35.968633
20
12.474572
30
0
11
36.462694
21
12.150489
31
0
39
0
210
0
220
0
230
1
0
LINE
5
B7
100
AcDbEntity
8
1
62
256
6
ByLayer
370
18
48
1
60
0
100
AcDbLine
10
35.255745
20
-20.288219
30
0
11
35.196771
21
-21.763884
31
0
39
0
210
0
220
0
230
1
0
LINE
5
B8
100
AcDbEntity
8
1
62
256
6
ByLayer
370
18
48
1
60
0
100
AcDbLine
10
31.169522
20
1.700934
30
0
11
31.169522
21
-6.744827
31
0
39
0
210
0
220
0
230
1
0
LINE
5
B9
100
AcDbEntity
8
1
62
256
6
ByLayer
370
18
48
1
60
0
100
AcDbLine
10
35.689551
20
8.890047
30
0
11
35.685942
21
8.925093
31
0
39
0
210
0
220
0
230
1
0
LINE
5
BA
100
AcDbEntity
8
1
62
256
6
ByLayer
370
18
48
1
60
0
100
AcDbLine
10
24.82285
20
4.02364
30
0
11
24.232357
21
5.625563
31
0
39
0
210
0
220
0
230
1
0
LINE
5
BB
100
AcDbEntity
8
1
62
256
6
ByLayer
370
18
48
1
60
0
100
AcDbLine
10
37.078596
20
5.639513
30
0
11
39
21
5.424271
31
0
39
0
210
0
220
0
230
1
0
LINE
5
BC
100
AcDbEntity
8
1
62
256
6
ByLayer
370
18
48
1
60
0
100
AcDbLine
10
39
20
-16.421878
30
0
11
39
21
-18.699162
31
0
39
0
210
0
220
0
230
1
0
LINE
5
BD
100
AcDbEntity
8
1
62
256
6
ByLayer
370
18
48
1
60
0
100
AcDbLine
10
28.254625
20
-5.971614
30
0
11
28.254625
21
3.031118
31
0
39
0
210
0
220
0
230
1
0
LINE
5
BE
100
AcDbEntity
8
1
62
256
6
ByLayer
370
18
48
1
60
0
100
AcDbLine
10
36.871373
20
14.700947
30
0
11
38.22563
21
15.372219
31
0
39
0
210
0
220
0
230
1
0
LINE
5
BF
100
AcDbEntity
8
1
62
256
6
ByLayer
370
18
48
1
60
0
100
AcDbLine
10
28.906351
20
21.366445
30
0
11
28.916459
21
21.356284
31
0
39
0
210
0
220
0
230
1
0
LINE
5
C0
100
AcDbEntity
8
1
62
256
6
ByLayer
370
18
48
1
60
0
100
AcDbLine
10
31.485816
20
-19.572868
30
0
11
31.458443
21
-20.257794
31
0
39
0
210
0
220
0
230
1
0
LINE
5
C1
100
AcDbEntity
8
1
62
256
6
ByLayer
370
18
48
1
60
0
100
AcDbLine
10
39
20
16.939967
30
0
11
38.102752
21
18.70241
31
0
39
0
210
0
220
0
230
1
0
LINE
5
C2
100
AcDbEntity
8
1
62
256
6
ByLayer
370
18
48
1
60
0
100
AcDbLine
10
39
20
0.124748
30
0
11
39
21
-1.759195
31
0
39
0
210
0
220
0
230
1
0
LINE
5
C3
100
AcDbEntity
8
1
62
256
6
ByLayer
370
18
48
1
60
0
100
AcDbLine
10
35.589718
20
15.531403
30
0
11
35.606909
21
15.539924
31
0
39
0
210
0
220
0
230
1
0
LINE
5
C4
100
AcDbEntity
8
1
62
256
6
ByLayer
370
18
48
1
60
0
100
AcDbLine
10
1.1
20
5.2275
30
0
11
5.75
21
5.2275
31
0
39
0
210
0
220
0
230
1
0
LINE
5
C5
100
AcDbEntity
8
1
62
256
6
ByLayer
370
18
48
1
60
0
100
AcDbLine
10
37.005465
20
4.982878
30
0
11
36.351827
21
5.133452
31
0
39
0
210
0
220
0
230
1
0
LINE
5
C6
100
AcDbEntity
8
1
62
256
6
ByLayer
370
18
48
1
60
0
100
AcDbLine
10
38.22563
20
22.191816
30
0
11
36.871373
21
20.847731
31
0
39
0
210
0
220
0
230
1
0
LINE
5
C7
100
AcDbEntity
8
1
62
256
6
ByLayer
370
18
48
1
60
0
100
AcDbLine
10
5.75
20
-5.2275
30
0
11
1.1
21
-5.2275
31
0
39
0
210
0
220
0
230
1
0
LINE
5
C8
100
AcDbEntity
8
1
62
256
6
ByLayer
370
18
48
1
60
0
100
AcDbLine
10
36.92505
20
6.094196
30
0
11
36.88713
21
6.121053
31
0
39
0
210
0
220
0
230
1
0
LINE
5
C9
100
AcDbEntity
8
1
62
256
6
ByLayer
370
18
48
1
60
0
100
AcDbLine
10
39
20
14.114187
30
0
11
37.116531
21
13.936962
31
0
39
0
210
0
220
0
230
1
0
LINE
5
CA
100
AcDbEntity
8
1
62
256
6
ByLayer
370
18
48
1
60
0
100
AcDbLine
10
39
20
-19.150512
30
0
11
39
21
-20.208571
31
0
39
0
210
0
220
0
230
1
0
LINE
5
CB
100
AcDbEntity
8
1
62
256
6
ByLayer
370
18
48
1
60
0
100
AcDbLine
10
35.606909
20
22.097743
30
0
11
35.642138
21
22.062233
31
0
39
0
210
0
220
0
230
1
0
LINE
5
CC
100
AcDbEntity
8
1
62
256
6
ByLayer
370
18
48
1
60
0
100
AcDbLine
10
35.986143
20
11.692292
30
0
11
34.484233
21
12.677483
31
0
39
0
210
0
220
0
230
1
0
LINE
5
CD
100
AcDbEntity
8
1
62
256
6
ByLayer
370
18
48
1
60
0
100
AcDbLine
10
27.732947
20
10.307042
30
0
11
25.269606
21
10.874505
31
0
39
0
210
0
220
0
230
1
0
LINE
5
CE
100
AcDbEntity
8
1
62
256
6
ByLayer
370
18
48
1
60
0
100
AcDbLine
10
35.680102
20
22.048155
30
0
11
37.041252
21
23.399083
31
0
39
0
210
0
220
0
230
1
0
LINE
5
CF
100
AcDbEntity
8
1
62
256
6
ByLayer
370
18
48
1
60
0
100
AcDbLine
10
28.062905
20
12.179804
30
0
11
27.250154
21
12.712935
31
0
39
0
210
0
220
0
230
1
0
LINE
5
D0
100
AcDbEntity
8
1
62
256
6
ByLayer
370
18
48
1
60
0
100
AcDbLine
10
28.097804
20
13.975398
30
0
11
27.46666
21
14.389402
31
0
39
0
210
0
220
0
230
1
0
LINE
5
D1
100
AcDbEntity
8
1
62
256
6
ByLayer
370
18
48
1
60
0
100
AcDbLine
10
28.254625
20
16.317326
30
0
11
28.254625
21
21.326296
31
0
39
0
210
0
220
0
230
1
0
LINE
5
D2
100
AcDbEntity
8
1
62
256
6
ByLayer
370
18
48
1
60
0
100
AcDbLine
10
31.572294
20
12.366552
30
0
11
31.743401
21
12.416025
31
0
39
0
210
0
220
0
230
1
0
LINE
5
D3
100
AcDbEntity
8
1
62
256
6
ByLayer
370
18
48
1
60
0
100
AcDbLine
10
39
20
4.970202
30
0
11
37.116531
21
5.181194
31
0
39
0
210
0
220
0
230
1
0
LINE
5
D4
100
AcDbEntity
8
1
62
256
6
ByLayer
370
18
48
1
60
0
100
AcDbLine
10
29.911498
20
13.554368
30
0
11
29.146914
21
14.055904
31
0
39
0
210
0
220
0
230
1
0
LINE
5
D5
100
AcDbEntity
8
1
62
256
6
ByLayer
370
18
48
1
60
0
100
AcDbLine
10
35.255745
20
0.654131
30
0
11
35.196771
21
-0.574755
31
0
39
0
210
0
220
0
230
1
0
LINE
5
D6
100
AcDbEntity
8
1
62
256
6
ByLayer
370
18
48
1
60
0
100
AcDbLine
10
32.919142
20
10.348388
30
0
11
35.41616
21
9.244735
31
0
39
0
210
0
220
0
230
1
0
LINE
5
D7
100
AcDbEntity
8
1
62
256
6
ByLayer
370
18
48
1
60
0
100
AcDbLine
10
28.913952
20
21.358785
30
0
11
28.906351
21
21.366445
31
0
39
0
210
0
220
0
230
1
0
LINE
5
D8
100
AcDbEntity
8
1
62
256
6
ByLayer
370
18
48
1
60
0
100
AcDbLine
10
0.5
20
-5.8275
30
0
11
1.1
21
-5.2275
31
0
39
0
210
0
220
0
230
1
0
LINE
5
D9
100
AcDbEntity
8
1
62
256
6
ByLayer
370
18
48
1
60
0
100
AcDbLine
10
36.351827
20
-8.727771
30
0
11
36.891766
21
-8.537861
31
0
39
0
210
0
220
0
230
1
0
LINE
5
DA
100
AcDbEntity
8
1
62
256
6
ByLayer
370
18
48
1
60
0
100
AcDbLine
10
27.46666
20
22.817278
30
0
11
28.097804
21
22.181285
31
0
39
0
210
0
220
0
230
1
0
LINE
5
DB
100
AcDbEntity
8
1
62
256
6
ByLayer
370
18
48
1
60
0
100
AcDbLine
10
31.572294
20
12.366552
30
0
11
30.034351
21
13.375379
31
0
39
0
210
0
220
0
230
1
0
LINE
5
DC
100
AcDbEntity
8
1
62
256
6
ByLayer
370
18
48
1
60
0
100
AcDbLine
10
28.097804
20
-8.205887
30
0
11
27.46666
21
-8.427876
31
0
39
0
210
0
220
0
230
1
0
LINE
5
DD
100
AcDbEntity
8
1
62
256
6
ByLayer
370
18
48
1
60
0
100
AcDbLine
10
36.105757
20
1.434775
30
0
11
37.840646
21
2.099648
31
0
39
0
210
0
220
0
230
1
0
LINE
5
DE
100
AcDbEntity
8
1
62
256
6
ByLayer
370
18
48
1
60
0
100
AcDbLine
10
32.517392
20
9.130393
30
0
11
32.541196
21
9.13874
31
0
39
0
210
0
220
0
230
1
0
LINE
5
DF
100
AcDbEntity
8
1
62
256
6
ByLayer
370
18
48
1
60
0
100
AcDbLine
10
39
20
19.084389
30
0
11
39
21
18.349755
31
0
39
0
210
0
220
0
230
1
0
LINE
5
E0
100
AcDbEntity
8
1
62
256
6
ByLayer
370
18
48
1
60
0
100
AcDbLine
10
39
20
16.939967
30
0
11
39
21
16.78701
31
0
39
0
210
0
220
0
230
1
0
LINE
5
E1
100
AcDbEntity
8
1
62
256
6
ByLayer
370
18
48
1
60
0
100
AcDbLine
10
39
20
-18.699162
30
0
11
39
21
-19.150512
31
0
39
0
210
0
220
0
230
1
0
LINE
5
E2
100
AcDbEntity
8
1
62
256
6
ByLayer
370
18
48
1
60
0
100
AcDbLine
10
39
20
20.208571
30
0
11
39
21
20.006234
31
0
39
0
210
0
220
0
230
1
0
LINE
5
E3
100
AcDbEntity
8
1
62
256
6
ByLayer
370
18
48
1
60
0
100
AcDbLine
10
34.960316
20
17.262467
30
0
11
34.910497
21
15.823351
31
0
39
0
210
0
220
0
230
1
0
LINE
5
E4
100
AcDbEntity
8
1
62
256
6
ByLayer
370
18
48
1
60
0
100
AcDbLine
10
39
20
5.546192
30
0
11
39
21
5.424271
31
0
39
0
210
0
220
0
230
1
0
LINE
5
E5
100
AcDbEntity
8
1
62
256
6
ByLayer
370
18
48
1
60
0
100
AcDbLine
10
30.867666
20
2.081951
30
0
11
31.485816
21
1.914545
31
0
39
0
210
0
220
0
230
1
0
LINE
5
E6
100
AcDbEntity
8
1
62
256
6
ByLayer
370
18
48
1
60
0
100
AcDbLine
10
28.062905
20
22.215063
30
0
11
27.250154
21
23.034059
31
0
39
0
210
0
220
0
230
1
0
LINE
5
E7
100
AcDbEntity
8
1
62
256
6
ByLayer
370
18
48
1
60
0
100
AcDbLine
10
39
20
-2.363502
30
0
11
39
21
-5.546192
31
0
39
0
210
0
220
0
230
1
0
LINE
5
E8
100
AcDbEntity
8
1
62
256
6
ByLayer
370
18
48
1
60
0
100
AcDbLine
10
6.55
20
-4.4275
30
0
11
5.75
21
-5.2275
31
0
39
0
210
0
220
0
230
1
0
LINE
5
E9
100
AcDbEntity
8
1
62
256
6
ByLayer
370
18
48
1
60
0
100
AcDbLine
10
32.67416
20
10.487481
30
0
11
32.298816
21
10.378955
31
0
39
0
210
0
220
0
230
1
0
LINE
5
EA
100
AcDbEntity
8
1
62
256
6
ByLayer
370
18
48
1
60
0
100
AcDbLine
10
31.298878
20
14.766944
30
0
11
29.796968
21
15.752136
31
0
39
0
210
0
220
0
230
1
0
LINE
5
EB
100
AcDbEntity
8
1
62
256
6
ByLayer
370
18
48
1
60
0
100
AcDbLine
10
32.298816
20
10.378955
30
0
11
31.869381
21
8.645942
31
0
39
0
210
0
220
0
230
1
0
LINE
5
EC
100
AcDbEntity
8
1
62
256
6
ByLayer
370
18
48
1
60
0
100
AcDbLine
10
39
20
4.970202
30
0
11
39
21
5.424271
31
0
39
0
210
0
220
0
230
1
0
LINE
5
ED
100
AcDbEntity
8
1
62
256
6
ByLayer
370
18
48
1
60
0
100
AcDbLine
10
35.606909
20
22.097743
30
0
11
35.589718
21
22.080681
31
0
39
0
210
0
220
0
230
1
0
LINE
5
EE
100
AcDbEntity
8
1
62
256
6
ByLayer
370
18
48
1
60
0
100
AcDbLine
10
34.002182
20
15.979846
30
0
11
34.052307
21
17.427807
31
0
39
0
210
0
220
0
230
1
0
LINE
5
EF
100
AcDbEntity
8
1
62
256
6
ByLayer
370
18
48
1
60
0
100
AcDbLine
10
28.916459
20
-7.990689
30
0
11
28.906351
21
-8.026898
31
0
39
0
210
0
220
0
230
1
0
LINE
5
F0
100
AcDbEntity
8
1
62
256
6
ByLayer
370
18
48
1
60
0
100
AcDbLine
10
30.867666
20
-19.502327
30
0
11
31.485816
21
-19.572868
31
0
39
0
210
0
220
0
230
1
0
LINE
5
F1
100
AcDbEntity
8
1
62
256
6
ByLayer
370
18
48
1
60
0
100
AcDbLine
10
31.169522
20
21.594082
30
0
11
31.169522
21
16.586242
31
0
39
0
210
0
220
0
230
1
0
LINE
5
F2
100
AcDbEntity
8
1
62
256
6
ByLayer
370
18
48
1
60
0
100
AcDbLine
10
19.188566
20
8.131946
30
0
11
19.188566
21
-10.383921
31
0
39
0
210
0
220
0
230
1
0
LINE
5
F3
100
AcDbEntity
8
1
62
256
6
ByLayer
370
18
48
1
60
0
100
AcDbLine
10
36.907859
20
20.752411
30
0
11
36.92505
21
20.769474
31
0
39
0
210
0
220
0
230
1
0
LINE
5
F4
100
AcDbEntity
8
1
62
256
6
ByLayer
370
18
48
1
60
0
100
AcDbLine
10
24.82285
20
-17.66593
30
0
11
24.232357
21
-12.171329
31
0
39
0
210
0
220
0
230
1
0
LINE
5
F5
100
AcDbEntity
8
1
62
256
6
ByLayer
370
18
48
1
60
0
100
AcDbLine
10
34.910497
20
22.225439
30
0
11
34.960316
21
24.117386
31
0
39
0
210
0
220
0
230
1
0
LINE
5
F6
100
AcDbEntity
8
1
62
256
6
ByLayer
370
18
48
1
60
0
100
AcDbLine
10
36.92505
20
6.094196
30
0
11
36.907859
21
6.085655
31
0
39
0
210
0
220
0
230
1
0
LINE
5
F7
100
AcDbEntity
8
1
62
256
6
ByLayer
370
18
48
1
60
0
100
AcDbLine
10
37.078596
20
14.401168
30
0
11
39
21
14.581962
31
0
39
0
210
0
220
0
230
1
0
LINE
5
F8
100
AcDbEntity
8
1
62
256
6
ByLayer
370
18
48
1
60
0
100
AcDbLine
10
28.254625
20
-22.28894
30
0
11
28.254625
21
-18.295179
31
0
39
0
210
0
220
0
230
1
0
LINE
5
F9
100
AcDbEntity
8
1
62
256
6
ByLayer
370
18
48
1
60
0
100
AcDbLine
10
28.916459
20
13.365594
30
0
11
28.906351
21
13.339547
31
0
39
0
210
0
220
0
230
1
0
LINE
5
FA
100
AcDbEntity
8
1
62
256
6
ByLayer
370
18
48
1
60
0
100
AcDbLine
10
36.92505
20
14.675278
30
0
11
36.88713
21
14.686622
31
0
39
0
210
0
220
0
230
1
0
LINE
5
FB
100
AcDbEntity
8
1
62
256
6
ByLayer
370
18
48
1
60
0
100
AcDbLine
10
36.92505
20
6.094196
30
0
11
36.869006
21
6.113908
31
0
39
0
210
0
220
0
230
1
0
LINE
5
FC
100
AcDbEntity
8
1
62
256
6
ByLayer
370
18
48
1
60
0
100
AcDbLine
10
32.88757
20
10.362595
30
0
11
32.517392
21
9.130393
31
0
39
0
210
0
220
0
230
1
0
LINE
5
FD
100
AcDbEntity
8
1
62
256
6
ByLayer
370
18
48
1
60
0
100
AcDbLine
10
31.484216
20
23.547019
30
0
11
32.869925
21
22.150663
31
0
39
0
210
0
220
0
230
1
0
LINE
5
FE
100
AcDbEntity
8
1
62
256
6
ByLayer
370
18
48
1
60
0
100
AcDbLine
10
36.92505
20
14.675278
30
0
11
36.907859
21
14.666756
31
0
39
0
210
0
220
0
230
1
0
LINE
5
FF
100
AcDbEntity
8
1
62
256
6
ByLayer
370
18
48
1
60
0
100
AcDbLine
10
35.681698
20
8.893934
30
0
11
35.689551
21
8.890047
31
0
39
0
210
0
220
0
230
1
0
LINE
5
100
100
AcDbEntity
8
1
62
256
6
ByLayer
370
18
48
1
60
0
100
AcDbLine
10
31.157854
20
15.630245
30
0
11
31.651914
21
15.306162
31
0
39
0
210
0
220
0
230
1
0
LINE
5
101
100
AcDbEntity
8
1
62
256
6
ByLayer
370
18
48
1
60
0
100
AcDbLine
10
30.205458
20
13.424852
30
0
11
31.743401
21
12.416025
31
0
39
0
210
0
220
0
230
1
0
LINE
5
102
100
AcDbEntity
8
1
62
256
6
ByLayer
370
18
48
1
60
0
100
AcDbLine
10
30.205458
20
13.424852
30
0
11
30.034351
21
13.375379
31
0
39
0
210
0
220
0
230
1
0
LINE
5
103
100
AcDbEntity
8
1
62
256
6
ByLayer
370
18
48
1
60
0
100
AcDbLine
10
39
20
-1.759195
30
0
11
39
21
-2.363502
31
0
39
0
210
0
220
0
230
1
0
MTEXT
5
230
100
AcDbEntity
8
SK6
62
256
6
ByLayer
370
18
48
1
60
0
100
AcDbMText
10
-59
20
-18.98867
30
0
210
0
220
0
230
1
1
\W0.7506;600-052Q22-12HX
40
4
41
0
44
1.084337
50
89.9999999999998
71
7
72
5
7
iso_b_vert
0
DIMENSION
5
243
100
AcDbEntity
8
2
62
256
6
ByLayer
370
13
48
1
60
0
100
AcDbDimension
2
DimnDraft3D1
10
64.896875
20
26
30
0
11
64.896875
21
0
31
0
70
32
71
5
72
1
41
1
210
0
220
0
230
1
3
Standard
100
AcDbAlignedDimension
13
41.5875
23
-26
33
0
14
41.5875
24
26
34
0
50
90
100
AcDbRotatedDimension
1001
ACAD
1000
DSTYLE
1002
{
1070
    74
1070
     0
1070
   279
1070
     0
1070
   172
1070
     1
1070
   173
1070
     1
1070
   340
1005
231
1070
   271
1070
     2
1070
   272
1070
     2
1070
    77
1070
     1
1070
    73
1070
     0
1070
   171
1070
     3
1070
   274
1070
     4
1070
   177
1070
   150
1070
   176
1070
     9
1070
   178
1070
    43
1070
    78
1070
     8
1070
    48
1040
-0.005
1070
    41
1041
3.175
1070
   147
1041
2.25
1070
    42
1041
1.5875
1070
    44
1041
3.175
1070
   140
1041
4.5
1070
   343
1005
244
1070
   344
1005
244
1002
}
0
DIMENSION
5
25A
100
AcDbEntity
8
SK2
62
256
6
ByLayer
370
13
48
1
60
0
100
AcDbDimension
2
DimnDraft3D2
10
-15.103125
20
-20.5
30
0
11
-15.103125
21
0
31
0
70
32
71
5
72
1
41
1
210
0
220
0
230
1
3
Standard
100
AcDbAlignedDimension
13
-1.5875
23
20.5
33
0
14
-1.5875
24
-20.5
34
0
50
90
100
AcDbRotatedDimension
1001
ACAD
1000
DSTYLE
1002
{
1070
    74
1070
     0
1070
   279
1070
     0
1070
   172
1070
     1
1070
   173
1070
     1
1070
   340
1005
231
1070
   271
1070
     1
1070
   272
1070
     2
1070
    77
1070
     1
1070
    73
1070
     0
1070
   171
1070
     3
1070
   274
1070
     4
1070
   177
1070
   150
1070
   176
1070
     9
1070
   178
1070
    43
1070
    78
1070
     8
1070
    48
1040
-0.005
1070
    41
1041
3.175
1070
   147
1041
2.25
1070
    42
1041
1.5875
1070
    44
1041
3.175
1070
   140
1041
4.5
1070
   343
1005
244
1070
   344
1005
244
1002
}
0
DIMENSION
5
269
100
AcDbEntity
8
SK2
62
256
6
ByLayer
370
13
48
1
60
0
100
AcDbDimension
2
DimnDraft3D3
10
-5.103125
20
-11
30
0
11
-5.103125
21
0
31
0
70
32
71
5
72
1
41
1
210
0
220
0
230
1
3
Standard
100
AcDbAlignedDimension
13
-1.5875
23
11
33
0
14
-1.5875
24
-11
34
0
50
90
100
AcDbRotatedDimension
1001
ACAD
1000
DSTYLE
1002
{
1070
    74
1070
     0
1070
   279
1070
     0
1070
   172
1070
     1
1070
   173
1070
     1
1070
   340
1005
231
1070
   271
1070
     1
1070
   272
1070
     2
1070
    77
1070
     1
1070
    73
1070
     0
1070
   171
1070
     3
1070
   274
1070
     4
1070
   177
1070
   150
1070
   176
1070
     9
1070
   178
1070
    43
1070
    78
1070
     8
1070
    48
1040
-0.005
1070
    41
1041
3.175
1070
   147
1041
2.25
1070
    42
1041
1.5875
1070
    44
1041
3.175
1070
   140
1041
4.5
1070
   343
1005
244
1070
   344
1005
244
1002
}
0
DIMENSION
5
277
100
AcDbEntity
8
SK2
62
256
6
ByLayer
370
13
48
1
60
0
100
AcDbDimension
2
DimnDraft3D4
10
40
20
51.5
30
0
11
20
21
51.5
31
0
70
32
71
5
72
1
41
1
210
0
220
0
230
1
3
Standard
100
AcDbAlignedDimension
13
0
23
12.5875
33
0
14
40
24
27.5875
34
0
50
0
100
AcDbRotatedDimension
1001
ACAD
1000
DSTYLE
1002
{
1070
   279
1070
     0
1070
   172
1070
     1
1070
   173
1070
     1
1070
   340
1005
231
1070
   271
1070
     2
1070
   272
1070
     2
1070
    77
1070
     1
1070
    73
1070
     0
1070
   171
1070
     3
1070
   274
1070
     4
1070
   177
1070
   150
1070
   176
1070
     9
1070
   178
1070
    43
1070
    78
1070
     8
1070
    48
1040
-0.005
1070
    41
1041
3.175
1070
   147
1041
2.25
1070
    42
1041
1.5875
1070
    44
1041
3.175
1070
   140
1041
4.5
1070
   343
1005
244
1070
   344
1005
244
1002
}
0
DIMENSION
5
285
100
AcDbEntity
8
SK2
62
256
6
ByLayer
370
13
48
1
60
0
100
AcDbDimension
2
DimnDraft3D5
10
40
20
31.5
30
0
11
37
21
31.5
31
0
70
32
71
5
72
1
41
1
210
0
220
0
230
1
3
Standard
100
AcDbAlignedDimension
13
34
23
27.5875
33
0
14
40
24
27.5875
34
0
50
0
100
AcDbRotatedDimension
1001
ACAD
1000
DSTYLE
1002
{
1070
   279
1070
     0
1070
   172
1070
     1
1070
   173
1070
     1
1070
   340
1005
231
1070
   271
1070
     2
1070
   272
1070
     2
1070
    77
1070
     1
1070
    73
1070
     0
1070
   171
1070
     3
1070
   274
1070
     4
1070
   177
1070
   150
1070
   176
1070
     9
1070
   178
1070
    43
1070
    78
1070
     8
1070
    48
1040
-0.005
1070
    41
1041
3.175
1070
   147
1041
2.25
1070
    42
1041
1.5875
1070
    44
1041
3.175
1070
   140
1041
4.5
1070
   343
1005
244
1070
   344
1005
244
1002
}
0
ENDSEC
0
SECTION
2
OBJECTS
0
DICTIONARY
5
2f1
330
0
100
AcDbDictionary
280
0
281
1
3
ACAD_GROUP
350
2f2
3
ACAD_GROUP
350
2f3
3
ACAD_MLINESTYLE
350
2f4
0
DICTIONARY
5
2f2
330
0
100
AcDbDictionary
280
0
281
1
0
DICTIONARY
5
2f3
330
0
100
AcDbDictionary
280
0
281
1
3
14848343535477090_1_ASS2D_2D
350
28E
0
DICTIONARY
5
2f4
330
0
100
AcDbDictionary
280
0
281
1
3
Standard
350
18
0
GROUP
5
28E
330
2f3
100
AcDbGroup
300

70
0
71
1
340
6C
340
6E
340
70
340
71
340
73
340
75
340
77
340
78
340
79
340
7A
340
7B
340
7C
340
7D
340
7E
340
7F
340
80
340
81
340
82
340
83
340
84
340
85
340
86
340
87
340
88
340
89
340
8A
340
8B
340
8C
340
8D
340
8E
340
8F
340
90
340
91
340
92
340
93
340
94
340
95
340
96
340
97
340
98
340
99
340
9A
340
9B
340
9C
340
9D
340
9E
340
9F
340
A0
340
A1
340
A2
340
A3
340
A4
340
A5
340
A6
340
A7
340
A8
340
A9
340
AA
340
AB
340
AC
340
AD
340
AE
340
AF
340
B0
340
B1
340
B2
340
B3
340
B4
340
B5
340
B6
340
B7
340
B8
340
B9
340
BA
340
BB
340
BC
340
BD
340
BE
340
BF
340
C0
340
C1
340
C2
340
C3
340
C4
340
C5
340
C6
340
C7
340
C8
340
C9
340
CA
340
CB
340
CC
340
CD
340
CE
340
CF
340
D0
340
D1
340
D2
340
D3
340
D4
340
D5
340
D6
340
D7
340
D8
340
D9
340
DA
340
DB
340
DC
340
DD
340
DE
340
DF
340
E0
340
E1
340
E2
340
E3
340
E4
340
E5
340
E6
340
E7
340
E8
340
E9
340
EA
340
EB
340
EC
340
ED
340
EE
340
EF
340
F0
340
F1
340
F2
340
F3
340
F4
340
F5
340
F6
340
F7
340
F8
340
F9
340
FA
340
FB
340
FC
340
FD
340
FE
340
FF
340
100
340
101
340
102
340
103
340
104
340
105
340
106
340
107
340
108
340
109
340
10A
340
10B
340
10C
340
10D
340
10E
340
10F
340
110
340
111
340
112
340
113
340
114
340
115
340
116
340
117
340
118
340
119
340
11A
340
11B
340
11C
340
11D
340
11E
340
11F
340
120
340
121
340
122
340
123
340
124
340
125
340
126
340
127
340
128
340
129
340
12A
340
12B
340
12C
340
12D
340
12E
340
12F
340
130
340
131
340
132
340
133
340
134
340
135
340
136
340
137
340
138
340
139
340
13A
340
13B
340
13C
340
13D
340
13E
340
13F
340
140
340
141
340
142
340
143
340
144
340
145
340
146
340
147
340
148
340
149
340
14A
340
14B
340
14C
340
14D
340
14E
340
14F
340
150
340
151
340
152
340
153
340
154
340
155
340
156
340
157
340
158
340
159
340
15A
340
15B
340
15C
340
15D
340
15E
340
15F
340
160
340
161
340
162
340
163
340
164
340
165
340
166
340
167
340
168
340
169
340
16A
340
16B
340
16C
340
16D
340
16E
340
16F
340
170
340
171
340
172
340
173
340
174
340
175
340
176
340
177
340
178
340
179
340
17A
340
17B
340
17C
340
17D
340
17E
340
17F
340
180
340
181
340
182
340
183
340
184
340
185
340
186
340
187
340
188
340
189
340
18A
340
18B
340
18C
340
18D
340
18E
340
18F
340
190
340
191
340
192
340
193
340
194
340
195
340
196
340
197
340
198
340
199
340
19A
340
19B
340
19C
340
19D
340
19E
340
19F
340
1A0
340
1A1
340
1A2
340
1A3
340
1A4
340
1A5
340
1A6
340
1A7
340
1A8
340
1A9
340
1AA
340
1AB
340
1AC
340
1AD
340
1AE
340
1AF
340
1B0
340
1B1
340
1B2
340
1B3
340
1B4
340
1B5
340
1B6
340
1B7
340
1B8
340
1B9
340
1BA
340
1BB
340
1BC
340
1BD
340
1BE
340
1BF
340
1C0
340
1C1
340
1C2
340
1C3
340
1C4
340
1C5
340
1C6
340
1C7
340
1C8
340
1C9
340
1CA
340
1CB
340
1CC
340
1CD
340
1CE
340
1CF
340
1D0
340
1D1
340
1D2
340
1D3
340
1D4
340
1D5
340
1D6
340
1D7
340
1D8
340
1D9
340
1DA
340
1DB
340
1DC
340
1DD
340
1DE
340
1DF
340
1E0
340
1E1
340
1E2
340
1E3
340
1E4
340
1E5
340
1E6
340
1E7
340
1E8
340
1E9
340
1EA
340
1EB
340
1EC
340
1ED
340
1EE
340
1EF
340
1F0
340
1F1
340
1F2
340
1F3
340
1F4
340
1F5
340
1F6
340
1F7
340
1F8
340
1F9
340
1FA
340
1FB
340
1FC
340
1FD
340
1FE
340
1FF
340
200
340
201
340
202
340
203
340
204
340
205
340
206
340
207
340
208
340
209
340
20A
340
20B
340
20C
340
20D
340
20E
340
20F
340
210
340
211
340
212
340
213
340
214
340
215
340
216
340
217
340
218
340
219
340
21A
340
21B
340
21C
340
21D
340
21E
340
21F
340
220
340
221
340
222
340
223
340
224
340
225
340
226
340
227
340
228
340
229
340
22A
340
22B
340
22C
340
22D
340
22E
340
22F
340
230
340
243
340
25A
340
269
340
277
340
285
0
MLINESTYLE
5
18
330
2f4
100
AcDbMlineStyle
2
Standard
70
0
3

62
256
51
90
52
90
71
2
49
-0.5
62
256
6
ByLayer
49
0.5
62
256
6
ByLayer
0
RASTERVARIABLES
5
2df
330

100
AcDbRasterVariables
90
0
70
1
71
1
72
1
0
ENDSEC
0
EOF
