0
SECTION
2
HEADER
9
$ACADVER
1
AC1015
9
$DWGCODEPAGE
3
ANSI_1252
9
$HANDSEED
5
30d
9
$ANGBASE
50
0
9
$ANGDIR
70
0
9
$ATTMODE
70
1
9
$AUNITS
70
0
9
$AUPREC
70
0
9
$CECOLOR
62
256
9
$CELTSCALE
40
1
9
$CELTYPE
6
ByLayer
9
$CELWEIGHT
370
18
9
$CLAYER
8
0
9
$CMLJUST
70
0
9
$CMLSCALE
40
1
9
$CMLSTYLE
2
Standard
9
$DIMSTYLE
2
Standard
9
$TEXTSIZE
40
0.2
9
$TEXTSTYLE
7
Standard
9
$LUNITS
70
2
9
$LUPREC
70
4
9
$EXTNAMES
290
1
9
$INSUNITS
70
4
9
$LTSCALE
40
1
9
$LWDISPLAY
290
1
9
$PDMODE
70
0
9
$PDSIZE
40
0
9
$PLINEGEN
70
0
0
ENDSEC
0
SECTION
2
CLASSES
0
CLASS
1
RASTERVARIABLES
2
AcDbRasterVariables
3
ISM
90
0
280
0
281
0
0
ENDSEC
0
SECTION
2
TABLES
0
TABLE
2
VPORT
5
303
100
AcDbSymbolTable
0
VPORT
5
1
100
AcDbSymbolTableRecord
100
AcDbViewportTableRecord
2
*Active
70
0
10
0
20
0
11
1
21
1
12
-1
22
1
13
0
23
0
14
0.5
24
0.5
15
10
25
10
16
0
26
0
36
1
17
0
27
0
37
0
0
ENDTAB
0
TABLE
2
LTYPE
5
304
100
AcDbSymbolTable
0
LTYPE
5
14
100
AcDbSymbolTableRecord
100
AcDbLinetypeTableRecord
70
0
2
ByBlock
3

72
65
73
0
40
0
0
LTYPE
5
15
100
AcDbSymbolTableRecord
100
AcDbLinetypeTableRecord
70
0
2
ByLayer
3

72
65
73
0
40
0
0
LTYPE
5
16
100
AcDbSymbolTableRecord
100
AcDbLinetypeTableRecord
70
0
2
CONTINUOUS
3
Solid line
72
65
73
0
40
0
0
LTYPE
5
6A
100
AcDbSymbolTableRecord
100
AcDbLinetypeTableRecord
70
0
2
CENTER
3
____ _ ____ _ ____ _ ____
72
65
73
4
40
47.5
49
22
74
0
49
-8.5
74
0
49
8.5
74
0
49
-8.5
74
0
0
LTYPE
5
6B
100
AcDbSymbolTableRecord
100
AcDbLinetypeTableRecord
70
0
2
DASHED
3
__ __ __ __ __ __ __ __ __
72
65
73
2
40
25.72
49
12.86
74
0
49
-12.86
74
0
0
ENDTAB
0
TABLE
2
LAYER
5
305
100
AcDbSymbolTable
0
LAYER
5
10
100
AcDbSymbolTableRecord
100
AcDbLayerTableRecord
2
0
70
0
62
7
6
CONTINUOUS
290
1
370
-3
390
0
0
LAYER
5
6D
100
AcDbSymbolTableRecord
100
AcDbLayerTableRecord
2
80
70
0
62
-6
6
CONTINUOUS
290
1
370
-3
390
0
0
LAYER
5
6F
100
AcDbSymbolTableRecord
100
AcDbLayerTableRecord
2
81
70
0
62
-3
6
CONTINUOUS
290
1
370
-3
390
0
0
LAYER
5
72
100
AcDbSymbolTableRecord
100
AcDbLayerTableRecord
2
4
70
0
62
-2
6
CENTER
290
1
370
-3
390
0
0
LAYER
5
74
100
AcDbSymbolTableRecord
100
AcDbLayerTableRecord
2
1
70
0
62
4
6
CONTINUOUS
290
1
370
-3
390
0
0
LAYER
5
244
100
AcDbSymbolTableRecord
100
AcDbLayerTableRecord
2
2
70
0
62
7
6
CONTINUOUS
290
1
370
-3
390
0
0
LAYER
5
2ee
100
AcDbSymbolTableRecord
100
AcDbLayerTableRecord
2
SK4
70
0
62
2
6
CENTER
290
1
370
-3
390
0
0
LAYER
5
2ef
100
AcDbSymbolTableRecord
100
AcDbLayerTableRecord
2
SK6
70
0
62
5
6
CONTINUOUS
290
1
370
-3
390
0
0
LAYER
5
2f0
100
AcDbSymbolTableRecord
100
AcDbLayerTableRecord
2
SK2
70
0
62
7
6
CONTINUOUS
290
1
370
-3
390
0
0
ENDTAB
0
TABLE
2
STYLE
5
306
100
AcDbSymbolTable
0
STYLE
5
11
100
AcDbSymbolTableRecord
100
AcDbTextStyleTableRecord
2
Standard
3
txt
70
0
71
0
40
0
41
1
42
0
50
0
0
STYLE
5
23F
100
AcDbSymbolTableRecord
100
AcDbTextStyleTableRecord
2
iso_b_vert
3
simplex.shx
70
0
71
0
40
0
41
1
42
0
50
0
0
STYLE
5
240
100
AcDbSymbolTableRecord
100
AcDbTextStyleTableRecord
2
DWGDirectTextStyle
3
simplex
70
0
71
0
40
0
41
1
42
0
50
0
0
ENDTAB
0
TABLE
2
DIMSTYLE
5
307
100
AcDbSymbolTable
100
AcDbDimStyleTable
0
DIMSTYLE
105
27
100
AcDbSymbolTableRecord
100
AcDbDimStyleTableRecord
2
Standard
70
0
3
<>
41
0.18
42
0.0625
44
0.18
140
0.18
147
0.09
73
0
74
0
77
1
271
2
275
0
278
52
280
0
340
11
0
ENDTAB
0
TABLE
2
VIEW
5
308
100
AcDbSymbolTable
0
ENDTAB
0
TABLE
2
UCS
5
309
100
AcDbSymbolTable
0
ENDTAB
0
TABLE
2
APPID
5
30a
100
AcDbSymbolTable
0
APPID
5
12
100
AcDbSymbolTableRecord
100
AcDbRegAppTableRecord
2
ACAD
70
0
0
ENDTAB
0
TABLE
2
BLOCK_RECORD
5
30b
100
AcDbSymbolTable
0
BLOCK_RECORD
5
1F
100
AcDbSymbolTableRecord
100
AcDbBlockTableRecord
2
*Model_Space
340
0
70
0
0
BLOCK_RECORD
5
1B
100
AcDbSymbolTableRecord
100
AcDbBlockTableRecord
2
*Paper_Space
340
0
70
0
0
BLOCK_RECORD
5
23
100
AcDbSymbolTableRecord
100
AcDbBlockTableRecord
2
*Paper_Space0
340
0
70
0
0
BLOCK_RECORD
5
242
100
AcDbSymbolTableRecord
100
AcDbBlockTableRecord
2
DimnDraft3D1
340
0
70
0
0
BLOCK_RECORD
5
252
100
AcDbSymbolTableRecord
100
AcDbBlockTableRecord
2
_CLOSED
340
0
70
0
0
BLOCK_RECORD
5
259
100
AcDbSymbolTableRecord
100
AcDbBlockTableRecord
2
DimnDraft3D2
340
0
70
0
0
BLOCK_RECORD
5
269
100
AcDbSymbolTableRecord
100
AcDbBlockTableRecord
2
DimnDraft3D3
340
0
70
0
0
BLOCK_RECORD
5
278
100
AcDbSymbolTableRecord
100
AcDbBlockTableRecord
2
DimnDraft3D4
340
0
70
0
0
BLOCK_RECORD
5
286
100
AcDbSymbolTableRecord
100
AcDbBlockTableRecord
2
DimnDraft3D5
340
0
70
0
0
ENDTAB
0
ENDSEC
0
SECTION
2
BLOCKS
0
BLOCK
5
20
100
AcDbEntity
8
0
100
AcDbBlockBegin
2
*Model_Space
70
0
10
0
20
0
30
0
3
*Model_Space
0
ENDBLK
5
21
100
AcDbEntity
8
0
100
AcDbBlockEnd
0
BLOCK
5
1C
100
AcDbEntity
8
0
100
AcDbBlockBegin
2
*Paper_Space
70
0
10
0
20
0
30
0
3
*Paper_Space
0
ENDBLK
5
1D
100
AcDbEntity
8
0
100
AcDbBlockEnd
0
BLOCK
5
24
100
AcDbEntity
8
0
100
AcDbBlockBegin
2
*Paper_Space0
70
0
10
0
20
0
30
0
3
*Paper_Space0
0
ENDBLK
5
25
100
AcDbEntity
8
0
100
AcDbBlockEnd
0
BLOCK
5
24F
100
AcDbEntity
8
0
100
AcDbBlockBegin
2
DimnDraft3D1
70
0
10
0
20
0
30
0
3
DimnDraft3D1
0
MTEXT
5
243
100
AcDbEntity
8
2
62
256
6
ByLayer
370
18
48
1
60
0
100
AcDbMText
10
62.978125
20
2.932895
30
0
210
0
220
0
230
1
1
\W0.8247;50
40
4.5
41
0
44
1.084337
50
90
71
7
72
5
7
iso_b_vert
0
MTEXT
5
245
100
AcDbEntity
8
2
62
256
6
ByLayer
370
18
48
1
60
0
100
AcDbMText
10
62.646875
20
-5.648551
30
0
210
0
220
0
230
1
1
%%c
40
3.175
41
0
44
1.084337
50
90
71
7
72
5
7
iso_b_vert
0
LINE
5
246
100
AcDbEntity
8
2
62
256
6
ByLayer
370
13
48
1
60
0
100
AcDbLine
10
41.5875
20
-25
30
0
11
68.071875
21
-25
31
0
39
0
210
0
220
0
230
1
0
LINE
5
247
100
AcDbEntity
8
2
62
256
6
ByLayer
370
13
48
1
60
0
100
AcDbLine
10
41.5875
20
25
30
0
11
68.071875
21
25
31
0
39
0
210
0
220
0
230
1
0
LINE
5
248
100
AcDbEntity
8
2
62
256
6
ByLayer
370
13
48
1
60
0
100
AcDbLine
10
64.896875
20
-25
30
0
11
64.896875
21
25
31
0
39
0
210
0
220
0
230
1
0
LINE
5
249
100
AcDbEntity
8
2
62
256
6
ByLayer
370
13
48
1
60
0
100
AcDbLine
10
64.896875
20
-25
30
0
11
64.478878
21
-21.825002
31
0
39
0
210
0
220
0
230
1
0
LINE
5
24A
100
AcDbEntity
8
2
62
256
6
ByLayer
370
13
48
1
60
0
100
AcDbLine
10
64.896875
20
-25
30
0
11
65.314872
21
-21.824998
31
0
39
0
210
0
220
0
230
1
0
LINE
5
24B
100
AcDbEntity
8
2
62
256
6
ByLayer
370
13
48
1
60
0
100
AcDbLine
10
64.478878
20
-21.825002
30
0
11
65.314872
21
-21.824998
31
0
39
0
210
0
220
0
230
1
0
LINE
5
24C
100
AcDbEntity
8
2
62
256
6
ByLayer
370
13
48
1
60
0
100
AcDbLine
10
64.896875
20
25
30
0
11
65.314872
21
21.825002
31
0
39
0
210
0
220
0
230
1
0
LINE
5
24D
100
AcDbEntity
8
2
62
256
6
ByLayer
370
13
48
1
60
0
100
AcDbLine
10
64.896875
20
25
30
0
11
64.478878
21
21.824998
31
0
39
0
210
0
220
0
230
1
0
LINE
5
24E
100
AcDbEntity
8
2
62
256
6
ByLayer
370
13
48
1
60
0
100
AcDbLine
10
65.314872
20
21.825002
30
0
11
64.478878
21
21.824998
31
0
39
0
210
0
220
0
230
1
0
ENDBLK
5
250
100
AcDbEntity
8
0
100
AcDbBlockEnd
0
BLOCK
5
253
100
AcDbEntity
8
0
100
AcDbBlockBegin
2
_CLOSED
70
0
10
0
20
0
30
0
3
_CLOSED
0
LINE
5
255
100
AcDbEntity
8
0
62
256
6
ByLayer
370
-2
48
1
60
0
100
AcDbLine
10
-1
20
0.166667
30
0
11
0
21
0
31
0
39
0
210
0
220
0
230
1
0
LINE
5
256
100
AcDbEntity
8
0
62
256
6
ByLayer
370
-2
48
1
60
0
100
AcDbLine
10
0
20
0
30
0
11
-1
21
-0.166667
31
0
39
0
210
0
220
0
230
1
0
LINE
5
257
100
AcDbEntity
8
0
62
256
6
ByLayer
370
-2
48
1
60
0
100
AcDbLine
10
-1
20
0.166667
30
0
11
-1
21
-0.166667
31
0
39
0
210
0
220
0
230
1
0
LINE
5
258
100
AcDbEntity
8
0
62
256
6
ByLayer
370
-2
48
1
60
0
100
AcDbLine
10
0
20
0
30
0
11
-1
21
0
31
0
39
0
210
0
220
0
230
1
0
ENDBLK
5
254
100
AcDbEntity
8
0
100
AcDbBlockEnd
0
BLOCK
5
266
100
AcDbEntity
8
0
100
AcDbBlockBegin
2
DimnDraft3D2
70
0
10
0
20
0
30
0
3
DimnDraft3D2
0
MTEXT
5
25A
100
AcDbEntity
8
SK2
62
256
6
ByLayer
370
18
48
1
60
0
100
AcDbMText
10
-17.021875
20
3.35625
30
0
210
0
220
0
230
1
1
\W0.8574;41
40
4.5
41
0
44
1.084337
50
90
71
7
72
5
7
iso_b_vert
0
MTEXT
5
25C
100
AcDbEntity
8
SK2
62
256
6
ByLayer
370
18
48
1
60
0
100
AcDbMText
10
-17.353125
20
-5.225195
30
0
210
0
220
0
230
1
1
%%c
40
3.175
41
0
44
1.084337
50
90
71
7
72
5
7
iso_b_vert
0
LINE
5
25D
100
AcDbEntity
8
SK2
62
256
6
ByLayer
370
13
48
1
60
0
100
AcDbLine
10
-1.5875
20
20.5
30
0
11
-18.278125
21
20.5
31
0
39
0
210
0
220
0
230
1
0
LINE
5
25E
100
AcDbEntity
8
SK2
62
256
6
ByLayer
370
13
48
1
60
0
100
AcDbLine
10
-1.5875
20
-20.5
30
0
11
-18.278125
21
-20.5
31
0
39
0
210
0
220
0
230
1
0
LINE
5
25F
100
AcDbEntity
8
SK2
62
256
6
ByLayer
370
13
48
1
60
0
100
AcDbLine
10
-15.103125
20
20.5
30
0
11
-15.103125
21
-20.5
31
0
39
0
210
0
220
0
230
1
0
LINE
5
260
100
AcDbEntity
8
SK2
62
256
6
ByLayer
370
13
48
1
60
0
100
AcDbLine
10
-15.103125
20
20.5
30
0
11
-14.685128
21
17.325002
31
0
39
0
210
0
220
0
230
1
0
LINE
5
261
100
AcDbEntity
8
SK2
62
256
6
ByLayer
370
13
48
1
60
0
100
AcDbLine
10
-15.103125
20
20.5
30
0
11
-15.521122
21
17.324998
31
0
39
0
210
0
220
0
230
1
0
LINE
5
262
100
AcDbEntity
8
SK2
62
256
6
ByLayer
370
13
48
1
60
0
100
AcDbLine
10
-14.685128
20
17.325002
30
0
11
-15.521122
21
17.324998
31
0
39
0
210
0
220
0
230
1
0
LINE
5
263
100
AcDbEntity
8
SK2
62
256
6
ByLayer
370
13
48
1
60
0
100
AcDbLine
10
-15.103125
20
-20.5
30
0
11
-15.521122
21
-17.325002
31
0
39
0
210
0
220
0
230
1
0
LINE
5
264
100
AcDbEntity
8
SK2
62
256
6
ByLayer
370
13
48
1
60
0
100
AcDbLine
10
-15.103125
20
-20.5
30
0
11
-14.685128
21
-17.324998
31
0
39
0
210
0
220
0
230
1
0
LINE
5
265
100
AcDbEntity
8
SK2
62
256
6
ByLayer
370
13
48
1
60
0
100
AcDbLine
10
-15.521122
20
-17.325002
30
0
11
-14.685128
21
-17.324998
31
0
39
0
210
0
220
0
230
1
0
ENDBLK
5
267
100
AcDbEntity
8
0
100
AcDbBlockEnd
0
BLOCK
5
275
100
AcDbEntity
8
0
100
AcDbBlockBegin
2
DimnDraft3D3
70
0
10
0
20
0
30
0
3
DimnDraft3D3
0
MTEXT
5
26A
100
AcDbEntity
8
SK2
62
256
6
ByLayer
370
18
48
1
60
0
100
AcDbMText
10
-7.021875
20
2.932895
30
0
210
0
220
0
230
1
1
\W0.8247;22
40
4.5
41
0
44
1.084337
50
90
71
7
72
5
7
iso_b_vert
0
MTEXT
5
26B
100
AcDbEntity
8
SK2
62
256
6
ByLayer
370
18
48
1
60
0
100
AcDbMText
10
-7.353125
20
-5.648551
30
0
210
0
220
0
230
1
1
%%c
40
3.175
41
0
44
1.084337
50
90
71
7
72
5
7
iso_b_vert
0
LINE
5
26C
100
AcDbEntity
8
SK2
62
256
6
ByLayer
370
13
48
1
60
0
100
AcDbLine
10
-1.5875
20
11
30
0
11
-8.278125
21
11
31
0
39
0
210
0
220
0
230
1
0
LINE
5
26D
100
AcDbEntity
8
SK2
62
256
6
ByLayer
370
13
48
1
60
0
100
AcDbLine
10
-1.5875
20
-11
30
0
11
-8.278125
21
-11
31
0
39
0
210
0
220
0
230
1
0
LINE
5
26E
100
AcDbEntity
8
SK2
62
256
6
ByLayer
370
13
48
1
60
0
100
AcDbLine
10
-5.103125
20
22.25
30
0
11
-5.103125
21
-22.25
31
0
39
0
210
0
220
0
230
1
0
LINE
5
26F
100
AcDbEntity
8
SK2
62
256
6
ByLayer
370
13
48
1
60
0
100
AcDbLine
10
-5.103125
20
11
30
0
11
-5.521122
21
14.174998
31
0
39
0
210
0
220
0
230
1
0
LINE
5
270
100
AcDbEntity
8
SK2
62
256
6
ByLayer
370
13
48
1
60
0
100
AcDbLine
10
-5.103125
20
11
30
0
11
-4.685128
21
14.175002
31
0
39
0
210
0
220
0
230
1
0
LINE
5
271
100
AcDbEntity
8
SK2
62
256
6
ByLayer
370
13
48
1
60
0
100
AcDbLine
10
-5.521122
20
14.174998
30
0
11
-4.685128
21
14.175002
31
0
39
0
210
0
220
0
230
1
0
LINE
5
272
100
AcDbEntity
8
SK2
62
256
6
ByLayer
370
13
48
1
60
0
100
AcDbLine
10
-5.103125
20
-11
30
0
11
-4.685128
21
-14.174998
31
0
39
0
210
0
220
0
230
1
0
LINE
5
273
100
AcDbEntity
8
SK2
62
256
6
ByLayer
370
13
48
1
60
0
100
AcDbLine
10
-5.103125
20
-11
30
0
11
-5.521122
21
-14.175002
31
0
39
0
210
0
220
0
230
1
0
LINE
5
274
100
AcDbEntity
8
SK2
62
256
6
ByLayer
370
13
48
1
60
0
100
AcDbLine
10
-4.685128
20
-14.174998
30
0
11
-5.521122
21
-14.175002
31
0
39
0
210
0
220
0
230
1
0
ENDBLK
5
276
100
AcDbEntity
8
0
100
AcDbBlockEnd
0
BLOCK
5
283
100
AcDbEntity
8
0
100
AcDbBlockBegin
2
DimnDraft3D4
70
0
10
0
20
0
30
0
3
DimnDraft3D4
0
MTEXT
5
279
100
AcDbEntity
8
SK2
62
256
6
ByLayer
370
18
48
1
60
0
100
AcDbMText
10
17.8625
20
51.625
30
0
210
0
220
0
230
1
1
\W0.9046;40
40
4.5
41
0
44
1.084337
50
0
71
7
72
5
7
iso_b_vert
0
LINE
5
27A
100
AcDbEntity
8
SK2
62
256
6
ByLayer
370
13
48
1
60
0
100
AcDbLine
10
0
20
12.5875
30
0
11
0
21
53.675
31
0
39
0
210
0
220
0
230
1
0
LINE
5
27B
100
AcDbEntity
8
SK2
62
256
6
ByLayer
370
13
48
1
60
0
100
AcDbLine
10
40
20
26.5875
30
0
11
40
21
53.675
31
0
39
0
210
0
220
0
230
1
0
LINE
5
27C
100
AcDbEntity
8
SK2
62
256
6
ByLayer
370
13
48
1
60
0
100
AcDbLine
10
0
20
50.5
30
0
11
40
21
50.5
31
0
39
0
210
0
220
0
230
1
0
LINE
5
27D
100
AcDbEntity
8
SK2
62
256
6
ByLayer
370
13
48
1
60
0
100
AcDbLine
10
0
20
50.5
30
0
11
3.174998
21
50.917997
31
0
39
0
210
0
220
0
230
1
0
LINE
5
27E
100
AcDbEntity
8
SK2
62
256
6
ByLayer
370
13
48
1
60
0
100
AcDbLine
10
0
20
50.5
30
0
11
3.175002
21
50.082003
31
0
39
0
210
0
220
0
230
1
0
LINE
5
27F
100
AcDbEntity
8
SK2
62
256
6
ByLayer
370
13
48
1
60
0
100
AcDbLine
10
3.174998
20
50.917997
30
0
11
3.175002
21
50.082003
31
0
39
0
210
0
220
0
230
1
0
LINE
5
280
100
AcDbEntity
8
SK2
62
256
6
ByLayer
370
13
48
1
60
0
100
AcDbLine
10
40
20
50.5
30
0
11
36.825002
21
50.082003
31
0
39
0
210
0
220
0
230
1
0
LINE
5
281
100
AcDbEntity
8
SK2
62
256
6
ByLayer
370
13
48
1
60
0
100
AcDbLine
10
40
20
50.5
30
0
11
36.824998
21
50.917997
31
0
39
0
210
0
220
0
230
1
0
LINE
5
282
100
AcDbEntity
8
SK2
62
256
6
ByLayer
370
13
48
1
60
0
100
AcDbLine
10
36.825002
20
50.082003
30
0
11
36.824998
21
50.917997
31
0
39
0
210
0
220
0
230
1
0
ENDBLK
5
284
100
AcDbEntity
8
0
100
AcDbBlockEnd
0
BLOCK
5
291
100
AcDbEntity
8
0
100
AcDbBlockBegin
2
DimnDraft3D5
70
0
10
0
20
0
30
0
3
DimnDraft3D5
0
MTEXT
5
287
100
AcDbEntity
8
SK2
62
256
6
ByLayer
370
18
48
1
60
0
100
AcDbMText
10
37.153947
20
31.625
30
0
210
0
220
0
230
1
1
\W0.7142;6
40
4.5
41
0
44
1.084337
50
0
71
7
72
5
7
iso_b_vert
0
LINE
5
288
100
AcDbEntity
8
SK2
62
256
6
ByLayer
370
13
48
1
60
0
100
AcDbLine
10
34
20
26.5875
30
0
11
34
21
33.675
31
0
39
0
210
0
220
0
230
1
0
LINE
5
289
100
AcDbEntity
8
SK2
62
256
6
ByLayer
370
13
48
1
60
0
100
AcDbLine
10
40
20
26.5875
30
0
11
40
21
33.675
31
0
39
0
210
0
220
0
230
1
0
LINE
5
28A
100
AcDbEntity
8
SK2
62
256
6
ByLayer
370
13
48
1
60
0
100
AcDbLine
10
22.75
20
30.5
30
0
11
51.25
21
30.5
31
0
39
0
210
0
220
0
230
1
0
LINE
5
28B
100
AcDbEntity
8
SK2
62
256
6
ByLayer
370
13
48
1
60
0
100
AcDbLine
10
34
20
30.5
30
0
11
30.825002
21
30.082003
31
0
39
0
210
0
220
0
230
1
0
LINE
5
28C
100
AcDbEntity
8
SK2
62
256
6
ByLayer
370
13
48
1
60
0
100
AcDbLine
10
34
20
30.5
30
0
11
30.824998
21
30.917997
31
0
39
0
210
0
220
0
230
1
0
LINE
5
28D
100
AcDbEntity
8
SK2
62
256
6
ByLayer
370
13
48
1
60
0
100
AcDbLine
10
30.825002
20
30.082003
30
0
11
30.824998
21
30.917997
31
0
39
0
210
0
220
0
230
1
0
LINE
5
28E
100
AcDbEntity
8
SK2
62
256
6
ByLayer
370
13
48
1
60
0
100
AcDbLine
10
40
20
30.5
30
0
11
43.174998
21
30.917997
31
0
39
0
210
0
220
0
230
1
0
LINE
5
28F
100
AcDbEntity
8
SK2
62
256
6
ByLayer
370
13
48
1
60
0
100
AcDbLine
10
40
20
30.5
30
0
11
43.175002
21
30.082003
31
0
39
0
210
0
220
0
230
1
0
LINE
5
290
100
AcDbEntity
8
SK2
62
256
6
ByLayer
370
13
48
1
60
0
100
AcDbLine
10
43.174998
20
30.917997
30
0
11
43.175002
21
30.082003
31
0
39
0
210
0
220
0
230
1
0
ENDBLK
5
292
100
AcDbEntity
8
0
100
AcDbBlockEnd
0
ENDSEC
0
SECTION
2
ENTITIES
0
ARC
5
101
100
AcDbEntity
8
1
62
256
6
ByLayer
370
18
48
1
60
0
100
AcDbCircle
39
0
10
19.151403
20
-20.116241
30
0
40
2
210
0
220
0
230
1
100
AcDbArc
50
216.579647
51
243.065268
0
ARC
5
102
100
AcDbEntity
8
1
62
256
6
ByLayer
370
18
48
1
60
0
100
AcDbCircle
39
0
10
19.151403
20
20.116241
30
0
40
2
210
0
220
0
230
1
100
AcDbArc
50
116.93577
51
143.420353
0
ARC
5
103
100
AcDbEntity
8
1
62
256
6
ByLayer
370
18
48
1
60
0
100
AcDbCircle
39
0
10
-15.939287
20
22.5
30
0
40
2
210
0
220
0
230
-1
100
AcDbArc
50
216.579647
51
270
0
ARC
5
104
100
AcDbEntity
8
1
62
256
6
ByLayer
370
18
48
1
60
0
100
AcDbCircle
39
0
10
-15.939287
20
-22.5
30
0
40
2
210
0
220
0
230
-1
100
AcDbArc
50
90
51
143.420353
0
ARC
5
105
100
AcDbEntity
8
1
62
256
6
ByLayer
370
18
48
1
60
0
100
AcDbCircle
39
0
10
0.5
20
20
30
0
40
0.5
210
0
220
0
230
1
100
AcDbArc
50
90
51
180
0
ARC
5
106
100
AcDbEntity
8
1
62
256
6
ByLayer
370
18
48
1
60
0
100
AcDbCircle
39
0
10
0.5
20
-20
30
0
40
0.5
210
0
220
0
230
1
100
AcDbArc
50
180
51
270
0
ELLIPSE
5
107
100
AcDbEntity
8
1
62
256
6
ByLayer
370
18
48
1
60
0
100
AcDbEllipse
10
34.351117
20
0.335319
30
0
11
2.09696011011465
21
-0.112952629840829
31
0
210
0
220
0
230
1
40
0.388529
41
0.231648325535785
42
2.79157780543913
0
ELLIPSE
5
108
100
AcDbEntity
8
1
62
256
6
ByLayer
370
18
48
1
60
0
100
AcDbEllipse
10
34.351117
20
0.335319
30
0
11
-1.69753913675948
21
0.0914378432044794
31
0
210
0
220
0
230
1
40
0.388529
41
1.53464259325013
42
1.80937713391948
0
ELLIPSE
5
109
100
AcDbEntity
8
1
62
256
6
ByLayer
370
18
48
1
60
0
100
AcDbEllipse
10
34.351117
20
0.335319
30
0
11
-1.69753913675948
21
0.0914378432044794
31
0
210
0
220
0
230
1
40
0.388529
41
-3.0068320326497
42
0.869030525600693
0
ELLIPSE
5
10A
100
AcDbEntity
8
1
62
256
6
ByLayer
370
18
48
1
60
0
100
AcDbEllipse
10
25.009126
20
-10.914573
30
0
11
0.114338389460966
21
-2.99782033028924
31
0
210
0
220
0
230
1
40
0.276584
41
-2.03523864654476
42
-1.32616314429468
0
ELLIPSE
5
10B
100
AcDbEntity
8
1
62
256
6
ByLayer
370
18
48
1
60
0
100
AcDbEllipse
10
34.027257
20
-8.999305
30
0
11
-6.34715369389193
21
0.61037861798967
31
0
210
0
220
0
230
1
40
0.421022
41
-1.87608692132956
42
-1.45556763825605
0
ELLIPSE
5
10C
100
AcDbEntity
8
1
62
256
6
ByLayer
370
18
48
1
60
0
100
AcDbEllipse
10
34.027257
20
-8.999305
30
0
11
-6.34715369389193
21
0.61037861798967
31
0
210
0
220
0
230
1
40
0.421022
41
-1.10960092479239
42
-0.621895393362159
0
ELLIPSE
5
10D
100
AcDbEntity
8
1
62
256
6
ByLayer
370
18
48
1
60
0
100
AcDbEllipse
10
34.071002
20
-8.54441
30
0
11
-6.47015136803175
21
0.622206778134847
31
0
210
0
220
0
230
1
40
0.421022
41
-1.02492810753612
42
-0.65202700886832
0
ELLIPSE
5
10E
100
AcDbEntity
8
1
62
256
6
ByLayer
370
18
48
1
60
0
100
AcDbEllipse
10
34.071002
20
10.407247
30
0
11
-6.4635180508985
21
0.687702265307689
31
0
210
0
220
0
230
1
40
0.57141
41
0.226763529041808
42
1.98602259081854
0
ELLIPSE
5
10F
100
AcDbEntity
8
1
62
256
6
ByLayer
370
18
48
1
60
0
100
AcDbEllipse
10
34.027257
20
9.996098
30
0
11
-6.34064647621645
21
0.674629034973162
31
0
210
0
220
0
230
1
40
0.57141
41
-0.284248734662915
42
1.97727462026279
0
ELLIPSE
5
110
100
AcDbEntity
8
1
62
256
6
ByLayer
370
18
48
1
60
0
100
AcDbEllipse
10
31.388958
20
13.054244
30
0
11
3.59583737297287
21
-1.75212830213189
31
0
210
0
220
0
230
1
40
0.189709
41
-2.95220155402383
42
-2.16374938901332
0
ELLIPSE
5
111
100
AcDbEntity
8
1
62
256
6
ByLayer
370
18
48
1
60
0
100
AcDbEllipse
10
34.150861
20
14.697243
30
0
11
1.6967187199885
21
-0.105572653848367
31
0
210
0
220
0
230
1
40
0.602567
41
0
42
0.359778875292002
0
ELLIPSE
5
112
100
AcDbEntity
8
1
62
256
6
ByLayer
370
18
48
1
60
0
100
AcDbEllipse
10
34.150861
20
14.697243
30
0
11
1.6967187199885
21
-0.105572653848367
31
0
210
0
220
0
230
1
40
0.602567
41
2.70016685264565
42
0
0
ELLIPSE
5
113
100
AcDbEntity
8
1
62
256
6
ByLayer
370
18
48
1
60
0
100
AcDbEllipse
10
31.431965
20
13.142508
30
0
11
-3.59583737297287
21
1.75212830213189
31
0
210
0
220
0
230
1
40
0.189709
41
0.148942105360108
42
0.977843264576471
0
ELLIPSE
5
114
100
AcDbEntity
8
1
62
256
6
ByLayer
370
18
48
1
60
0
100
AcDbEllipse
10
34.351117
20
-17.580364
30
0
11
1.94908619978033
21
-0.781705178328666
31
0
210
0
220
0
230
1
40
0.991097
41
7.99443886778443E-05
42
3.1028827803429
0
ELLIPSE
5
115
100
AcDbEntity
8
1
62
256
6
ByLayer
370
18
48
1
60
0
100
AcDbEllipse
10
36.378033
20
8.322089
30
0
11
-0.963908245239563
21
0.469679449308975
31
0
210
0
220
0
230
1
40
0.189709
41
0.456542353581281
42
0.770982146864837
0
ELLIPSE
5
116
100
AcDbEntity
8
1
62
256
6
ByLayer
370
18
48
1
60
0
100
AcDbEllipse
10
27.69245
20
27.373575
30
0
11
2.50308932208956
21
8.77093057541638
31
0
210
0
220
0
230
-1
40
0.76304
41
-2.55689171689759
42
-2.42212563804661
0
ELLIPSE
5
117
100
AcDbEntity
8
1
62
256
6
ByLayer
370
18
48
1
60
0
100
AcDbEllipse
10
34.022659
20
19
30
0
11
4.52419577230957
21
4.52419577230976
31
0
210
0
220
0
230
1
40
0.992433
41
1.99747732334868
42
2.13922783065723
0
ELLIPSE
5
118
100
AcDbEntity
8
1
62
256
6
ByLayer
370
18
48
1
60
0
100
AcDbEllipse
10
34.027257
20
18.995403
30
0
11
-4.5088203596497
21
-4.50882035964988
31
0
210
0
220
0
230
1
40
0.992433
41
-1.14254885659349
42
-1.00682393872595
0
ELLIPSE
5
119
100
AcDbEntity
8
1
62
256
6
ByLayer
370
18
48
1
60
0
100
AcDbEllipse
10
34.150861
20
-18.079679
30
0
11
1.57783168553646
21
-0.632808953885112
31
0
210
0
220
0
230
1
40
0.991097
41
0.160239682739856
42
0.384521282128288
0
ELLIPSE
5
11A
100
AcDbEntity
8
1
62
256
6
ByLayer
370
18
48
1
60
0
100
AcDbEllipse
10
34.150861
20
-18.079679
30
0
11
1.57783168553646
21
-0.632808953885112
31
0
210
0
220
0
230
1
40
0.991097
41
0.384521874895622
42
2.98129207044974
0
ELLIPSE
5
11B
100
AcDbEntity
8
1
62
256
6
ByLayer
370
18
48
1
60
0
100
AcDbEllipse
10
29.712275
20
11.575619
30
0
11
-0.416639027910852
21
1.44097603048125
31
0
210
0
220
0
230
1
40
0.704205
41
-0.687601799007656
42
1.43243125424004E-05
0
ELLIPSE
5
11C
100
AcDbEntity
8
1
62
256
6
ByLayer
370
18
48
1
60
0
100
AcDbEllipse
10
29.32285
20
21.521547
30
0
11
0.0323780612451992
21
-1.97198034192507
31
0
210
0
220
0
230
1
40
0.266553
41
-0.942993117682083
42
-0.873984915841725
0
ELLIPSE
5
11D
100
AcDbEntity
8
1
62
256
6
ByLayer
370
18
48
1
60
0
100
AcDbEllipse
10
37.20684
20
-10.777618
30
0
11
1.6035590492016
21
0.17061469961196
31
0
210
0
220
0
230
1
40
0.57141
41
-1.27975043742132
42
-1.12175027620591
0
ELLIPSE
5
11E
100
AcDbEntity
8
1
62
256
6
ByLayer
370
18
48
1
60
0
100
AcDbEllipse
10
33.326589
20
-21.272463
30
0
11
0.286642166854711
21
2.54777811056412
31
0
210
0
220
0
230
-1
40
0.776261
41
-0.242135615437669
42
-0.193230552141109
0
ELLIPSE
5
11F
100
AcDbEntity
8
1
62
256
6
ByLayer
370
18
48
1
60
0
100
AcDbEllipse
10
37.20684
20
3.12784
30
0
11
1.60520473435812
21
0.154365672331333
31
0
210
0
220
0
230
1
40
0.421022
41
1.02056257727274
42
1.67171006392285
0
ELLIPSE
5
120
100
AcDbEntity
8
1
62
256
6
ByLayer
370
18
48
1
60
0
100
AcDbEllipse
10
34.351117
20
-17.915683
30
0
11
1.6967187199885
21
0.10557265384836
31
0
210
0
220
0
230
1
40
0.602567
41
-1.66535031039941
42
-0.5557915783298
0
ELLIPSE
5
121
100
AcDbEntity
8
1
62
256
6
ByLayer
370
18
48
1
60
0
100
AcDbEllipse
10
34.351117
20
-17.915683
30
0
11
1.6967187199885
21
0.10557265384836
31
0
210
0
220
0
230
1
40
0.602567
41
0.74063882003675
42
0.812877151363715
0
ELLIPSE
5
122
100
AcDbEntity
8
1
62
256
6
ByLayer
370
18
48
1
60
0
100
AcDbEllipse
10
34.351117
20
-17.915683
30
0
11
1.6967187199885
21
0.10557265384836
31
0
210
0
220
0
230
1
40
0.602567
41
-2.53451130909493
42
-2.33096237804888
0
ELLIPSE
5
123
100
AcDbEntity
8
1
62
256
6
ByLayer
370
18
48
1
60
0
100
AcDbEllipse
10
34.150861
20
18.079679
30
0
11
1.57783168553647
21
0.632808953885104
31
0
210
0
220
0
230
1
40
0.991097
41
0.872015985022384
42
1.97550015406561
0
ELLIPSE
5
124
100
AcDbEntity
8
1
62
256
6
ByLayer
370
18
48
1
60
0
100
AcDbEllipse
10
33.855109
20
18.603776
30
0
11
2.32678571846585
21
2.29640050238345
31
0
210
0
220
0
230
1
40
0.986438
41
-0.539419284731414
42
-0.424046122053132
0
ELLIPSE
5
125
100
AcDbEntity
8
1
62
256
6
ByLayer
370
18
48
1
60
0
100
AcDbEllipse
10
34.382608
20
18.604427
30
0
11
-1.1458926232961
21
2.99496891907525
31
0
210
0
220
0
230
1
40
0.956214
41
0.706469141264984
42
0.747195659781325
0
ELLIPSE
5
126
100
AcDbEntity
8
1
62
256
6
ByLayer
370
18
48
1
60
0
100
AcDbEllipse
10
34.351117
20
-17.915683
30
0
11
-2.09594665410344
21
-0.130413278283264
31
0
210
0
220
0
230
1
40
0.602567
41
1.6303833613866
42
1.9616406948356
0
ELLIPSE
5
127
100
AcDbEntity
8
1
62
256
6
ByLayer
370
18
48
1
60
0
100
AcDbEllipse
10
29.817985
20
13.338454
30
0
11
0.685607762593491
21
1.04519950051249
31
0
210
0
220
0
230
1
40
0.548665
41
1.79970366077846
42
2.2453972185246
0
ELLIPSE
5
128
100
AcDbEntity
8
1
62
256
6
ByLayer
370
18
48
1
60
0
100
AcDbEllipse
10
29.988816
20
21.659179
30
0
11
-0.55334573685326
21
1.44625530323365
31
0
210
0
220
0
230
1
40
0.956214
41
-2.72072254711417
42
-2.61977137937637
0
ELLIPSE
5
129
100
AcDbEntity
8
1
62
256
6
ByLayer
370
18
48
1
60
0
100
AcDbEllipse
10
34.394478
20
-18.612554
30
0
11
2.00190185552807
21
0.816942760684908
31
0
210
0
220
0
230
-1
40
0.66713
41
-2.23712353889356
42
-0.72037074159513
0
ELLIPSE
5
12A
100
AcDbEntity
8
1
62
256
6
ByLayer
370
18
48
1
60
0
100
AcDbEllipse
10
37.106907
20
9.674524
30
0
11
-1.97184339417639
21
-0.0398551957950189
31
0
210
0
220
0
230
1
40
0.909915
41
0.52240489442041
42
0.747875904860137
0
ELLIPSE
5
12B
100
AcDbEntity
8
1
62
256
6
ByLayer
370
18
48
1
60
0
100
AcDbEllipse
10
34.394478
20
-17.472249
30
0
11
1.6932844593028
21
-1.25137466228287
31
0
210
0
220
0
230
-1
40
0.95809
41
2.70284159135766
42
-1.1055912189101
0
ELLIPSE
5
12C
100
AcDbEntity
8
1
62
256
6
ByLayer
370
18
48
1
60
0
100
AcDbEllipse
10
21
20
-3E-06
30
0
11
253.755337293928
21
-1.94219708702051
31
0
210
0
220
0
230
-1
40
0.086819
41
1.54564974541
42
1.56855773817368
0
ELLIPSE
5
12D
100
AcDbEntity
8
1
62
256
6
ByLayer
370
18
48
1
60
0
100
AcDbEllipse
10
33.442801
20
0.665496
30
0
11
1.9472322754629
21
-0.77725868022404
31
0
210
0
220
0
230
-1
40
0.389233
41
3.10504983986073
42
-2.31138017125564
0
ELLIPSE
5
12E
100
AcDbEntity
8
1
62
256
6
ByLayer
370
18
48
1
60
0
100
AcDbEllipse
10
34.136679
20
13.552158
30
0
11
3.10403579405432
21
-0.330261698096531
31
0
210
0
220
0
230
1
40
0.57141
41
-0.880133561423489
42
-0.374017655119185
0
ELLIPSE
5
12F
100
AcDbEntity
8
1
62
256
6
ByLayer
370
18
48
1
60
0
100
AcDbEllipse
10
34.35149
20
13.075636
30
0
11
3.00102568917887
21
-1.29662325287334
31
0
210
0
220
0
230
1
40
0.703709
41
1.46015453655641
42
1.68678578500317
0
ELLIPSE
5
130
100
AcDbEntity
8
1
62
256
6
ByLayer
370
18
48
1
60
0
100
AcDbEllipse
10
33.855109
20
13.401242
30
0
11
3.24338106907003
21
0.409714885989923
31
0
210
0
220
0
230
1
40
0.39205
41
0.0718379802062767
42
0.298469228653008
0
ELLIPSE
5
131
100
AcDbEntity
8
1
62
256
6
ByLayer
370
18
48
1
60
0
100
AcDbEllipse
10
34.382608
20
13.495121
30
0
11
-3.0624845020174
21
0.950840367913792
31
0
210
0
220
0
230
1
40
0.387535
41
1.72349449006354
42
2.23059354519165
0
ELLIPSE
5
132
100
AcDbEntity
8
1
62
256
6
ByLayer
370
18
48
1
60
0
100
AcDbEllipse
10
34.351117
20
-17.580364
30
0
11
-1.57783168553646
21
0.63280895388511
31
0
210
0
220
0
230
1
40
0.991097
41
1.89205968782997
42
1.22644762018052
0
ELLIPSE
5
133
100
AcDbEntity
8
1
62
256
6
ByLayer
370
18
48
1
60
0
100
AcDbEllipse
10
33.855109
20
5.202534
30
0
11
-3.23538433014384
21
0.46869529895583
31
0
210
0
220
0
230
1
40
0.594388
41
-2.93437558835326
42
-2.70774433990652
0
ELLIPSE
5
134
100
AcDbEntity
8
1
62
256
6
ByLayer
370
18
48
1
60
0
100
AcDbEllipse
10
29.988816
20
15.820898
30
0
11
1.47885823585812
21
-0.459155991858696
31
0
210
0
220
0
230
1
40
0.387535
41
-1.58020728773527
42
-0.548613981811452
0
ELLIPSE
5
135
100
AcDbEntity
8
1
62
256
6
ByLayer
370
18
48
1
60
0
100
AcDbEllipse
10
31.574364
20
-25.555001
30
0
11
4.44260826610829
21
5.65941024360846
31
0
210
0
220
0
230
-1
40
0.517655
41
-0.221163626837789
42
0.217297917893744
0
ELLIPSE
5
136
100
AcDbEntity
8
1
62
256
6
ByLayer
370
18
48
1
60
0
100
AcDbEllipse
10
33.326589
20
-23.028583
30
0
11
0.0593400327529971
21
4.2007368313365
31
0
210
0
220
0
230
-1
40
0.475517
41
-0.287435862125117
42
-0.0789966996133957
0
ELLIPSE
5
137
100
AcDbEntity
8
1
62
256
6
ByLayer
370
18
48
1
60
0
100
AcDbEllipse
10
21
20
2E-06
30
0
11
253.7553465706
21
1.94219718505969
31
0
210
0
220
0
230
-1
40
0.086819
41
-1.5685577370282
42
-1.54564974510181
0
ELLIPSE
5
138
100
AcDbEntity
8
1
62
256
6
ByLayer
370
18
48
1
60
0
100
AcDbEllipse
10
29.745542
20
15.671922
30
0
11
-1.60355904920158
21
0.170614699611967
31
0
210
0
220
0
230
1
40
0.57141
41
2.70551536157712
42
-2.51818374456429
0
ELLIPSE
5
139
100
AcDbEntity
8
1
62
256
6
ByLayer
370
18
48
1
60
0
100
AcDbEllipse
10
30.851361
20
-7.174941
30
0
11
-2.24213860116228
21
1.59226709228636
31
0
210
0
220
0
230
1
40
0.669529
41
-0.425516304009664
42
0.732224431222473
0
ELLIPSE
5
13A
100
AcDbEntity
8
1
62
256
6
ByLayer
370
18
48
1
60
0
100
AcDbEllipse
10
27.43197
20
12.805567
30
0
11
10.0990127175829
21
0.86531785042943
31
0
210
0
220
0
230
-1
40
0.786737
41
1.95972800521042
42
2.74962948687912
0
ELLIPSE
5
13B
100
AcDbEntity
8
1
62
256
6
ByLayer
370
18
48
1
60
0
100
AcDbEllipse
10
27.69245
20
15.253743
30
0
11
7.13949729487465
21
0.404492205926328
31
0
210
0
220
0
230
-1
40
0.714765
41
1.95720826857934
42
2.68863900286221
0
ELLIPSE
5
13C
100
AcDbEntity
8
1
62
256
6
ByLayer
370
18
48
1
60
0
100
AcDbEllipse
10
36.128533
20
20.571055
30
0
11
1.26994082834595
21
-1.27955081669311
31
0
210
0
220
0
230
1
40
0.000466
41
0.931075607644219
42
0.94875549283185
0
ELLIPSE
5
13D
100
AcDbEntity
8
1
62
256
6
ByLayer
370
18
48
1
60
0
100
AcDbEllipse
10
34.136679
20
13.552158
30
0
11
3.10403579405432
21
-0.330261698096531
31
0
210
0
220
0
230
1
40
0.57141
41
0.531707452044105
42
0.558537497737317
0
ELLIPSE
5
13E
100
AcDbEntity
8
1
62
256
6
ByLayer
370
18
48
1
60
0
100
AcDbEllipse
10
31.574364
20
-4.044391
30
0
11
4.83583295657911
21
3.55811345231743
31
0
210
0
220
0
230
-1
40
0.624292
41
-0.373549220178527
42
0.0649123245522049
0
ELLIPSE
5
13F
100
AcDbEntity
8
1
62
256
6
ByLayer
370
18
48
1
60
0
100
AcDbEllipse
10
21
20
-2E-06
30
0
11
253.754327023425
21
-20.0710977630613
31
0
210
0
220
0
230
-1
40
0.036605
41
1.54341892758369
42
1.56632692059109
0
ELLIPSE
5
140
100
AcDbEntity
8
1
62
256
6
ByLayer
370
18
48
1
60
0
100
AcDbEllipse
10
33.42516
20
10.972296
30
0
11
0.685607762593491
21
1.04519950051249
31
0
210
0
220
0
230
1
40
0.548665
41
1.79970366077844
42
2.72841242766669
0
ELLIPSE
5
141
100
AcDbEntity
8
1
62
256
6
ByLayer
370
18
48
1
60
0
100
AcDbEllipse
10
29.32285
20
14.780544
30
0
11
0.444500356058867
21
1.92150312028174
31
0
210
0
220
0
230
1
40
0.146979
41
-3.01828978381572
42
-2.792818773376
0
ELLIPSE
5
142
100
AcDbEntity
8
1
62
256
6
ByLayer
370
18
48
1
60
0
100
AcDbEllipse
10
29.860992
20
13.426718
30
0
11
-0.685607762593491
21
-1.04519950051249
31
0
210
0
220
0
230
1
40
0.548665
41
-2.91268531960624
42
-1.34188899281134
0
ELLIPSE
5
143
100
AcDbEntity
8
1
62
256
6
ByLayer
370
18
48
1
60
0
100
AcDbEllipse
10
28.916735
20
-7.842715
30
0
11
-0.874229397833241
21
0.620838827964335
31
0
210
0
220
0
230
1
40
0.669529
41
-1.2147748967294
42
-0.648695830065796
0
ELLIPSE
5
144
100
AcDbEntity
8
1
62
256
6
ByLayer
370
18
48
1
60
0
100
AcDbEllipse
10
34.35149
20
18.103581
30
0
11
-2.31787486256531
21
-2.30539436290002
31
0
210
0
220
0
230
1
40
0.91669
41
-2.71587219189125
42
-2.48924094344454
0
ELLIPSE
5
145
100
AcDbEntity
8
1
62
256
6
ByLayer
370
18
48
1
60
0
100
AcDbEllipse
10
33.326589
20
-23.028583
30
0
11
0.0593400334290794
21
4.20073683404366
31
0
210
0
220
0
230
-1
40
0.475517
41
0.453036945351184
42
0.631907611686159
0
ELLIPSE
5
146
100
AcDbEntity
8
1
62
256
6
ByLayer
370
18
48
1
60
0
100
AcDbEllipse
10
34.136679
20
13.552158
30
0
11
3.10403579405432
21
-0.330261698096531
31
0
210
0
220
0
230
1
40
0.57141
41
2.05106537900405
42
2.55718128530835
0
ELLIPSE
5
147
100
AcDbEntity
8
1
62
256
6
ByLayer
370
18
48
1
60
0
100
AcDbEllipse
10
37.496235
20
10.616938
30
0
11
1.6002392229811
21
-0.7797417240949
31
0
210
0
220
0
230
1
40
0.189709
41
-2.70025587705193
42
-2.50126638545827
0
ELLIPSE
5
148
100
AcDbEntity
8
1
62
256
6
ByLayer
370
18
48
1
60
0
100
AcDbEllipse
10
33.326589
20
-1.75612
30
0
11
1.99455830002612
21
-0.150712140331204
31
0
210
0
220
0
230
-1
40
0.822329
41
-1.89059091839073
42
-1.68215175591424
0
ELLIPSE
5
149
100
AcDbEntity
8
1
62
256
6
ByLayer
370
18
48
1
60
0
100
AcDbEllipse
10
33.85641
20
18.115792
30
0
11
-3.03152123034101
21
1.26616114624529
31
0
210
0
220
0
230
1
40
0.951696
41
-1.23715488988797
42
-0.885249854606442
0
ELLIPSE
5
14A
100
AcDbEntity
8
1
62
256
6
ByLayer
370
18
48
1
60
0
100
AcDbEllipse
10
34.136679
20
13.552158
30
0
11
3.10403579405432
21
-0.330261698096531
31
0
210
0
220
0
230
1
40
0.57141
41
1.11851022614755
42
1.14534027184067
0
ELLIPSE
5
14B
100
AcDbEntity
8
1
62
256
6
ByLayer
370
18
48
1
60
0
100
AcDbEllipse
10
31.250218
20
10.566792
30
0
11
-0.416639027910852
21
1.44097603048125
31
0
210
0
220
0
230
1
40
0.704205
41
-2.25839812580255
42
-0.687601799007656
0
ELLIPSE
5
14C
100
AcDbEntity
8
1
62
256
6
ByLayer
370
18
48
1
60
0
100
AcDbEllipse
10
34.382608
20
13.495121
30
0
11
-3.0624845020174
21
0.950840367913792
31
0
210
0
220
0
230
1
40
0.387535
41
-0.363966114759899
42
0.143132940368205
0
ELLIPSE
5
14D
100
AcDbEntity
8
1
62
256
6
ByLayer
370
18
48
1
60
0
100
AcDbEllipse
10
33.85641
20
13.084116
30
0
11
3.23702336940374
21
0.561217180958904
31
0
210
0
220
0
230
1
40
0.721212
41
1.40170248116939
42
1.75360751645092
0
ELLIPSE
5
14E
100
AcDbEntity
8
1
62
256
6
ByLayer
370
18
48
1
60
0
100
AcDbEllipse
10
33.326589
20
-21.272463
30
0
11
0.286642167255609
21
2.54777810988645
31
0
210
0
220
0
230
-1
40
0.776261
41
0.338803092819785
42
0.517673759205299
0
ELLIPSE
5
14F
100
AcDbEntity
8
1
62
256
6
ByLayer
370
18
48
1
60
0
100
AcDbEllipse
10
33.855109
20
5.202534
30
0
11
-3.23538433014384
21
0.46869529895583
31
0
210
0
220
0
230
1
40
0.594388
41
-2.68948243151935
42
-2.67616248433716
0
ELLIPSE
5
150
100
AcDbEntity
8
1
62
256
6
ByLayer
370
18
48
1
60
0
100
AcDbEllipse
10
58.439159
20
0
30
0
11
82.4880630877768
21
-6.18685019415226
31
0
210
0
220
0
230
-1
40
0.25741
41
1.92598754911366
42
1.97118963397773
0
ELLIPSE
5
151
100
AcDbEntity
8
1
62
256
6
ByLayer
370
18
48
1
60
0
100
AcDbEllipse
10
37.20684
20
10.777618
30
0
11
-1.6035590492016
21
0.170614699611968
31
0
210
0
220
0
230
1
40
0.57141
41
-2.01984237738382
42
-1.02846763769224
0
ELLIPSE
5
152
100
AcDbEntity
8
1
62
256
6
ByLayer
370
18
48
1
60
0
100
AcDbEllipse
10
36.153441
20
9.34099
30
0
11
-0.659610566464821
21
1.33072999378592
31
0
210
0
220
0
230
1
40
0.610293
41
1.99624193925182
42
2.81646921371557
0
ELLIPSE
5
153
100
AcDbEntity
8
1
62
256
6
ByLayer
370
18
48
1
60
0
100
AcDbEllipse
10
32.381351
20
-10.633393
30
0
11
4.03611853239016
21
2.30302171046467
31
0
210
0
220
0
230
-1
40
0.508326
41
-0.253824082749106
42
-0.05152016752185
0
ELLIPSE
5
154
100
AcDbEntity
8
1
62
256
6
ByLayer
370
18
48
1
60
0
100
AcDbEllipse
10
33.326589
20
-1.75612
30
0
11
1.99455829768971
21
-0.150712143265607
31
0
210
0
220
0
230
-1
40
0.822329
41
-1.15011811241648
42
-0.97124744589059
0
ELLIPSE
5
155
100
AcDbEntity
8
1
62
256
6
ByLayer
370
18
48
1
60
0
100
AcDbEllipse
10
49.11782
20
0
30
0
11
18.9411146100233
21
19.2285157646729
31
0
210
0
220
0
230
-1
40
0.576876
41
-2.54836034893223
42
-2.45465333739827
0
ELLIPSE
5
156
100
AcDbEntity
8
1
62
256
6
ByLayer
370
18
48
1
60
0
100
AcDbEllipse
10
35.039141
20
10.776349
30
0
11
-3.59583737297287
21
1.75212830213189
31
0
210
0
220
0
230
1
40
0.189709
41
0.977843264576472
42
2.07902957532504
0
ELLIPSE
5
157
100
AcDbEntity
8
1
62
256
6
ByLayer
370
18
48
1
60
0
100
AcDbEllipse
10
33.468168
20
11.060559
30
0
11
-0.685607762593491
21
-1.04519950051249
31
0
210
0
220
0
230
1
40
0.548665
41
-2.91268531960624
42
-1.34188899281134
0
ELLIPSE
5
158
100
AcDbEntity
8
1
62
256
6
ByLayer
370
18
48
1
60
0
100
AcDbEllipse
10
58.439159
20
0
30
0
11
82.4918455123214
21
-21.468518419745
31
0
210
0
220
0
230
-1
40
0.06441
41
1.9285306134019
42
1.97373269865747
0
ELLIPSE
5
159
100
AcDbEntity
8
1
62
256
6
ByLayer
370
18
48
1
60
0
100
AcDbEllipse
10
36.128533
20
20.571055
30
0
11
1.26994082834595
21
-1.27955081669311
31
0
210
0
220
0
230
1
40
0.000466
41
1.94663486258407
42
1.96431474777668
0
ELLIPSE
5
15A
100
AcDbEntity
8
1
62
256
6
ByLayer
370
18
48
1
60
0
100
AcDbEllipse
10
25.009126
20
7.926329
30
0
11
-0.673450751662779
21
-2.92343361222465
31
0
210
0
220
0
230
1
40
0.170011
41
-2.5230460355502
42
-0.254118007957572
0
ELLIPSE
5
15B
100
AcDbEntity
8
1
62
256
6
ByLayer
370
18
48
1
60
0
100
AcDbEllipse
10
49.117818
20
2E-06
30
0
11
21.9501406055324
21
-22.1162384911137
31
0
210
0
220
0
230
-1
40
0.000331
41
-3.07847974330514
42
-2.98477272817016
0
ELLIPSE
5
15C
100
AcDbEntity
8
1
62
256
6
ByLayer
370
18
48
1
60
0
100
AcDbEllipse
10
28.692143
20
14.235294
30
0
11
-0.659610566464818
21
1.33072999378592
31
0
210
0
220
0
230
1
40
0.610293
41
1.85531065748378
42
2.67553793194768
0
ELLIPSE
5
15D
100
AcDbEntity
8
1
62
256
6
ByLayer
370
18
48
1
60
0
100
AcDbEllipse
10
28.692143
20
20.583258
30
0
11
1.04625491926386
21
-1.0541722153755
31
0
210
0
220
0
230
1
40
0.000466
41
-2.17447675399598
42
-1.3542494795342
0
ELLIPSE
5
15E
100
AcDbEntity
8
1
62
256
6
ByLayer
370
18
48
1
60
0
100
AcDbEllipse
10
34.35149
20
18.103581
30
0
11
-2.31787486256531
21
-2.30539436290002
31
0
210
0
220
0
230
1
40
0.91669
41
-2.74745404746064
42
-2.73413410027836
0
ELLIPSE
5
15F
100
AcDbEntity
8
1
62
256
6
ByLayer
370
18
48
1
60
0
100
AcDbEllipse
10
34.136679
20
18.320299
30
0
11
-2.2072733179196
21
-2.20727331791969
31
0
210
0
220
0
230
1
40
0.992433
41
-2.86540438765798
42
-2.83857434196486
0
ELLIPSE
5
160
100
AcDbEntity
8
1
62
256
6
ByLayer
370
18
48
1
60
0
100
AcDbEllipse
10
21
20
0
30
0
11
253.753808276927
21
-18.1616058480611
31
0
210
0
220
0
230
-1
40
0.049736
41
-1.57278193480605
42
-1.54987394409002
0
ELLIPSE
5
161
100
AcDbEntity
8
1
62
256
6
ByLayer
370
18
48
1
60
0
100
AcDbEllipse
10
30.820783
20
8.833779
30
0
11
-0.416639027910852
21
1.44097603048125
31
0
210
0
220
0
230
1
40
0.704205
41
-2.74604318132192
42
-2.25839812580255
0
ELLIPSE
5
162
100
AcDbEntity
8
1
62
256
6
ByLayer
370
18
48
1
60
0
100
AcDbEllipse
10
36.128533
20
7.255275
30
0
11
0.802107877991974
21
-1.6145039337404
31
0
210
0
220
0
230
1
40
0.609827
41
-0.0611178461562782
42
-0.0434379609686051
0
ELLIPSE
5
163
100
AcDbEntity
8
1
62
256
6
ByLayer
370
18
48
1
60
0
100
AcDbEllipse
10
27.43197
20
-14.828487
30
0
11
10.1195490697612
21
-0.717875684751565
31
0
210
0
220
0
230
-1
40
0.305962
41
-2.70402237627995
42
-1.91412089461114
0
ELLIPSE
5
164
100
AcDbEntity
8
1
62
256
6
ByLayer
370
18
48
1
60
0
100
AcDbEllipse
10
34.394478
20
1.140304
30
0
11
2.07026657738528
21
-0.555905487533251
31
0
210
0
220
0
230
-1
40
0.245596
41
-3.03008745977878
42
-0.555334962866908
0
ELLIPSE
5
165
100
AcDbEntity
8
1
62
256
6
ByLayer
370
18
48
1
60
0
100
AcDbEllipse
10
31.969562
20
14.245801
30
0
11
2.47213819391885
21
-1.20458820771568
31
0
210
0
220
0
230
1
40
0.189709
41
-3.07139426907516
42
-2.16374938901332
0
ELLIPSE
5
166
100
AcDbEntity
8
1
62
256
6
ByLayer
370
18
48
1
60
0
100
AcDbEllipse
10
29.32285
20
-6.741003
30
0
11
0.474282317590803
21
1.91436963280596
31
0
210
0
220
0
230
1
40
0.119573
41
1.7771349870519
42
2.00260599749163
0
ELLIPSE
5
167
100
AcDbEntity
8
1
62
256
6
ByLayer
370
18
48
1
60
0
100
AcDbEllipse
10
33.442801
20
-20.12067
30
0
11
0.585336593071847
21
-3.31910642940608
31
0
210
0
220
0
230
-1
40
0.566916
41
1.98997455078214
42
2.8567298468454
0
ELLIPSE
5
168
100
AcDbEntity
8
1
62
256
6
ByLayer
370
18
48
1
60
0
100
AcDbEllipse
10
37.450115
20
10.926594
30
0
11
1.47885823585814
21
-0.459155991858701
31
0
210
0
220
0
230
1
40
0.387535
41
2.41524141224319
42
-2.83635058901257
0
ELLIPSE
5
169
100
AcDbEntity
8
1
62
256
6
ByLayer
370
18
48
1
60
0
100
AcDbEllipse
10
58.439159
20
0
30
0
11
82.450334800163
21
-16.1529192191663
31
0
210
0
220
0
230
-1
40
0.183221
41
-2.02637341186852
42
-1.98117132676033
0
ELLIPSE
5
16A
100
AcDbEntity
8
1
62
256
6
ByLayer
370
18
48
1
60
0
100
AcDbEllipse
10
29.52024
20
11.520095
30
0
11
0.391943728456125
21
1.5340982845566
31
0
210
0
220
0
230
-1
40
0.775207
41
-0.183215400709901
42
-0.000576565306867414
0
ELLIPSE
5
16B
100
AcDbEntity
8
1
62
256
6
ByLayer
370
18
48
1
60
0
100
AcDbEllipse
10
49.117819
20
0
30
0
11
21.9501420345937
21
22.1162399311153
31
0
210
0
220
0
230
-1
40
0.000331
41
2.98477273328083
42
3.07847974534096
0
ELLIPSE
5
16C
100
AcDbEntity
8
1
62
256
6
ByLayer
370
18
48
1
60
0
100
AcDbEllipse
10
32.381351
20
6.228042
30
0
11
3.97726231194741
21
-3.29951957224999
31
0
210
0
220
0
230
-1
40
0.41135
41
-0.86499191638176
42
-0.66268800108806
0
ELLIPSE
5
16D
100
AcDbEntity
8
1
62
256
6
ByLayer
370
18
48
1
60
0
100
AcDbEllipse
10
34.136679
20
18.320299
30
0
11
-2.2072733179196
21
-2.20727331791969
31
0
210
0
220
0
230
1
40
0.992433
41
-1.93284923480148
42
-1.42673332849717
0
ELLIPSE
5
16E
100
AcDbEntity
8
1
62
256
6
ByLayer
370
18
48
1
60
0
100
AcDbEllipse
10
33.855109
20
13.401242
30
0
11
3.24338106907003
21
0.409714885989923
31
0
210
0
220
0
230
1
40
0.39205
41
0.316731137040169
42
0.330051084222368
0
ELLIPSE
5
16F
100
AcDbEntity
8
1
62
256
6
ByLayer
370
18
48
1
60
0
100
AcDbEllipse
10
28.916735
20
13.216392
30
0
11
-0.963908245239565
21
0.469679449308976
31
0
210
0
220
0
230
1
40
0.189709
41
1.18470438226381
42
1.75078344892741
0
ELLIPSE
5
170
100
AcDbEntity
8
1
62
256
6
ByLayer
370
18
48
1
60
0
100
AcDbEllipse
10
49.11782
20
0
30
0
11
18.9335450228714
21
-19.2214958841592
31
0
210
0
220
0
230
-1
40
0.577759
41
2.67457119563783
42
2.76827820717294
0
ELLIPSE
5
171
100
AcDbEntity
8
1
62
256
6
ByLayer
370
18
48
1
60
0
100
AcDbEllipse
10
34.136679
20
4.768141
30
0
11
-3.10722137405159
21
-0.298808187031395
31
0
210
0
220
0
230
1
40
0.421022
41
-2.71107290047892
42
-2.68424285478571
0
ELLIPSE
5
172
100
AcDbEntity
8
1
62
256
6
ByLayer
370
18
48
1
60
0
100
AcDbEllipse
10
33.855109
20
18.603776
30
0
11
2.32678571846585
21
2.29640050238345
31
0
210
0
220
0
230
1
40
0.986438
41
-0.40578421366597
42
-0.392464266483768
0
ELLIPSE
5
173
100
AcDbEntity
8
1
62
256
6
ByLayer
370
18
48
1
60
0
100
AcDbEllipse
10
33.85641
20
13.084116
30
0
11
3.23702336940374
21
0.561217180958904
31
0
210
0
220
0
230
1
40
0.721212
41
-0.440335162592295
42
-0.0884301273107692
0
ELLIPSE
5
174
100
AcDbEntity
8
1
62
256
6
ByLayer
370
18
48
1
60
0
100
AcDbEllipse
10
34.340218
20
12.960131
30
0
11
-3.06456723210518
21
1.49325857212453
31
0
210
0
220
0
230
1
40
0.189709
41
0.245902273880642
42
1.7097842552723
0
ELLIPSE
5
175
100
AcDbEntity
8
1
62
256
6
ByLayer
370
18
48
1
60
0
100
AcDbEllipse
10
34.022659
20
9.952888
30
0
11
-6.36226855213118
21
0.67692957014149
31
0
210
0
220
0
230
1
40
0.57141
41
-0.30179337002538
42
0.223543136214103
0
ELLIPSE
5
176
100
AcDbEntity
8
1
62
256
6
ByLayer
370
18
48
1
60
0
100
AcDbEllipse
10
34.996133
20
10.688086
30
0
11
3.59583737297287
21
-1.75212830213189
31
0
210
0
220
0
230
1
40
0.189709
41
-2.16374938901332
42
-1.05464487799369
0
ELLIPSE
5
177
100
AcDbEntity
8
1
62
256
6
ByLayer
370
18
48
1
60
0
100
AcDbEllipse
10
31.058183
20
10.511268
30
0
11
0.391943728441181
21
1.53409828340887
31
0
210
0
220
0
230
-1
40
0.775207
41
0.520326522355554
42
0.702965357823291
0
ELLIPSE
5
178
100
AcDbEntity
8
1
62
256
6
ByLayer
370
18
48
1
60
0
100
AcDbEllipse
10
34.35149
20
13.075636
30
0
11
3.00102568917887
21
-1.29662325287334
31
0
210
0
220
0
230
1
40
0.703709
41
1.42857268098703
42
1.4418926281693
0
ELLIPSE
5
179
100
AcDbEntity
8
1
62
256
6
ByLayer
370
18
48
1
60
0
100
AcDbEllipse
10
34.136679
20
18.320299
30
0
11
-2.2072733179196
21
-2.20727331791969
31
0
210
0
220
0
230
1
40
0.992433
41
2.83097814541816
42
2.85780819111137
0
ELLIPSE
5
17A
100
AcDbEntity
8
1
62
256
6
ByLayer
370
18
48
1
60
0
100
AcDbEllipse
10
29.745542
20
21.424085
30
0
11
-1.14028746375637
21
-1.14028746375641
31
0
210
0
220
0
230
1
40
0.992433
41
1.86319340136138
42
2.92267960240054
0
ELLIPSE
5
17B
100
AcDbEntity
8
1
62
256
6
ByLayer
370
18
48
1
60
0
100
AcDbEllipse
10
30.034937
20
15.511242
30
0
11
1.60023922298109
21
-0.779741724094895
31
0
210
0
220
0
230
1
40
0.189709
41
-1.82623239256825
42
-1.62724290097472
0
ELLIPSE
5
17C
100
AcDbEntity
8
1
62
256
6
ByLayer
370
18
48
1
60
0
100
AcDbEllipse
10
33.85641
20
5.031676
30
0
11
-3.26093067926534
21
0.399519865958548
31
0
210
0
220
0
230
1
40
0.230484
41
2.85388239349959
42
-3.07739787839848
0
ELLIPSE
5
17D
100
AcDbEntity
8
1
62
256
6
ByLayer
370
18
48
1
60
0
100
AcDbEllipse
10
35.576738
20
11.879642
30
0
11
2.47213819391885
21
-1.20458820771568
31
0
210
0
220
0
230
1
40
0.189709
41
-2.16374938901332
42
-1.25610450895123
0
ELLIPSE
5
17E
100
AcDbEntity
8
1
62
256
6
ByLayer
370
18
48
1
60
0
100
AcDbEllipse
10
28.692143
20
-6.347964
30
0
11
0.660825523833611
21
1.33012707768977
31
0
210
0
220
0
230
1
40
0.609827
41
-3.06211440067144
42
-2.24188712620754
0
POINT
5
6C
100
AcDbEntity
8
80
62
256
6
ByLayer
370
18
48
1
60
0
100
AcDbPoint
10
0
20
0
30
0
39
0
210
0
220
0
230
1
50
360
0
POINT
5
6E
100
AcDbEntity
8
81
62
256
6
ByLayer
370
18
48
1
60
0
100
AcDbPoint
10
40
20
25
30
0
39
0
210
0
220
0
230
1
50
360
0
SPLINE
5
17F
100
AcDbEntity
8
1
62
256
6
ByLayer
370
18
48
1
60
0
100
AcDbSpline
70
4
71
3
72
8
73
4
40
0
40
0
40
0
40
0
40
1
40
1
40
1
40
1
41
1
10
30.0469975153949
20
6.2365606810169
30
0
41
1
10
30.0888125147705
20
6.21186628093244
30
0
41
1
10
30.1310521119174
20
6.18761116693463
30
0
41
1
10
30.1737650984541
20
6.16382749360449
30
0
0
SPLINE
5
180
100
AcDbEntity
8
1
62
256
6
ByLayer
370
18
48
1
60
0
100
AcDbSpline
70
4
71
1
72
4
73
2
40
0
40
0
40
1
40
1
41
1
10
28.0827433222267
20
11.7049729952948
30
0
41
1
10
28.0464306245613
20
11.6493986399247
30
0
0
SPLINE
5
181
100
AcDbEntity
8
1
62
256
6
ByLayer
370
18
48
1
60
0
100
AcDbSpline
70
4
71
3
72
27
73
23
40
0
40
0
40
0
40
0
40
0.0710013863072951
40
0.0710013863072951
40
0.14200277261459
40
0.14200277261459
40
0.28400554522918
40
0.28400554522918
40
0.355006931536473
40
0.355006931536473
40
0.426008317843766
40
0.497009704151059
40
0.497009704151059
40
0.568011090458353
40
0.568011090458353
40
0.710013863072933
40
0.710013863072933
40
0.852016635687514
40
0.852016635687514
40
0.994019408302095
40
0.994019408302095
40
1
40
1
40
1
40
1
41
1
10
28.4712120119304
20
-6.9943647659442
30
0
41
1
10
28.4377655264538
20
-6.9979199158783
30
0
41
1
10
28.4048455020149
20
-6.99967900142056
30
0
41
1
10
28.3400591146398
20
-6.99934840685629
30
0
41
1
10
28.3082059923009
20
-6.9972272402261
30
0
41
1
10
28.21647075301
20
-6.98503211012118
30
0
41
1
10
28.1595857899443
20
-6.96919895558949
30
0
41
1
10
28.0807445225071
20
-6.93348895229514
30
0
41
1
10
28.0554973505516
20
-6.91950662417767
30
0
41
1
10
28.0084850698755
20
-6.88823075142977
30
0
41
1
10
27.9646099879611
20
-6.85352231553287
30
0
41
1
10
27.9268553115666
20
-6.81218988647382
30
0
41
1
10
27.8921883059956
20
-6.76756888181879
30
0
41
1
10
27.8763139660706
20
-6.74344770970859
30
0
41
1
10
27.8342303892557
20
-6.66740467372688
30
0
41
1
10
27.813496478909
20
-6.61212423891263
30
0
41
1
10
27.7859620124146
20
-6.49325321718274
30
0
41
1
10
27.7792511511869
20
-6.42885002539191
30
0
41
1
10
27.7804894322394
20
-6.29696639282977
30
0
41
1
10
27.7882000571213
20
-6.22929803407848
30
0
41
1
10
27.8034948163367
20
-6.15714836842707
30
0
41
1
10
27.8041258355018
20
-6.15422900956281
30
0
41
1
10
27.8047696654518
20
-6.15130640518851
30
0
0
SPLINE
5
182
100
AcDbEntity
8
1
62
256
6
ByLayer
370
18
48
1
60
0
100
AcDbSpline
70
4
71
3
72
14
73
10
40
0
40
0
40
0
40
0
40
0.302771036419025
40
0.302771036419025
40
0.605542072838049
40
0.605542072838049
40
0.908313109257074
40
0.908313109257074
40
1
40
1
40
1
40
1
41
1
10
19.1514033835436
20
-22.0780590246504
30
0
41
1
10
19.0171206635691
20
-22.0837883579321
30
0
41
1
10
18.8962367947312
20
-22.0763188372529
30
0
41
1
10
18.6784621377362
20
-22.0466111308167
30
0
41
1
10
18.5810626719191
20
-22.0239617901682
30
0
41
1
10
18.4160683061875
20
-21.9742635309355
30
0
41
1
10
18.34727485913
20
-21.9471033095459
30
0
41
1
10
18.2734925047593
20
-21.9131984495257
30
0
41
1
10
18.2574362729919
20
-21.9053986809112
30
0
41
1
10
18.2425306193868
20
-21.8977991879476
30
0
0
SPLINE
5
183
100
AcDbEntity
8
1
62
256
6
ByLayer
370
18
48
1
60
0
100
AcDbSpline
70
4
71
3
72
26
73
22
40
0
40
0
40
0
40
0
40
0.0855249242493621
40
0.0855249242493621
40
0.171049848498724
40
0.171049848498724
40
0.342099696997448
40
0.342099696997448
40
0.427624621246812
40
0.427624621246812
40
0.513149545496176
40
0.513149545496176
40
0.59867446974554
40
0.59867446974554
40
0.684199393994904
40
0.684199393994904
40
0.855249242493636
40
0.855249242493636
40
0.940774166743004
40
0.940774166743004
40
1
40
1
40
1
40
1
41
1
10
30.0569498428064
20
-8.37749751076905
30
0
41
1
10
30.0176164793997
20
-8.33872329694182
30
0
41
1
10
29.9787590013905
20
-8.2995124656419
30
0
41
1
10
29.9014193479717
20
-8.22081677334046
30
0
41
1
10
29.8626641516065
20
-8.18105149021628
30
0
41
1
10
29.748295383119
20
-8.06460442237778
30
0
41
1
10
29.6748878336867
20
-7.99111413551964
30
0
41
1
10
29.5653900725203
20
-7.89041813426712
30
0
41
1
10
29.5287673112703
20
-7.85825699927494
30
0
41
1
10
29.4562869909379
20
-7.79869422310168
30
0
41
1
10
29.4206336080182
20
-7.77143590050687
30
0
41
1
10
29.3498859163928
20
-7.7221289653659
30
0
41
1
10
29.3147933782525
20
-7.70007903423715
30
0
41
1
10
29.2446198644046
20
-7.6614583228021
30
0
41
1
10
29.2093248209355
20
-7.64482164218467
30
0
41
1
10
29.1049593691165
20
-7.60454045909432
30
0
41
1
10
29.0369813776071
20
-7.59005663810311
30
0
41
1
10
28.9348289094403
20
-7.58698541344378
30
0
41
1
10
28.9006629379084
20
-7.58915015298044
30
0
41
1
10
28.8439431549906
20
-7.59806760118408
30
0
41
1
10
28.8209529945492
20
-7.60319212856564
30
0
41
1
10
28.7981485468642
20
-7.60977600504049
30
0
0
SPLINE
5
184
100
AcDbEntity
8
1
62
256
6
ByLayer
370
18
48
1
60
0
100
AcDbSpline
70
4
71
3
72
30
73
26
40
0
40
0
40
0
40
0
40
0.134309311619163
40
0.134309311619163
40
0.201463967428746
40
0.201463967428746
40
0.268618623238329
40
0.268618623238329
40
0.335773279047912
40
0.335773279047912
40
0.402927934857496
40
0.402927934857496
40
0.470082590667079
40
0.470082590667079
40
0.537237246476662
40
0.537237246476662
40
0.671546558095832
40
0.671546558095832
40
0.738701213905418
40
0.738701213905418
40
0.805855869715004
40
0.805855869715004
40
0.940165181334175
40
0.940165181334175
40
1
40
1
40
1
40
1
41
1
10
28.2591641175678
20
15.823732229588
30
0
41
1
10
28.3665676111121
20
15.8960721725221
30
0
41
1
10
28.4845820501971
20
15.9612477746204
30
0
41
1
10
28.6780747939126
20
16.0507526183652
30
0
41
1
10
28.7449404552988
20
16.0789705548379
30
0
41
1
10
28.8804381577129
20
16.131436380325
30
0
41
1
10
28.949473556304
20
16.15587435619
30
0
41
1
10
29.09005885865
20
16.2014811097816
30
0
41
1
10
29.1616081969135
20
16.2226502733207
30
0
41
1
10
29.3072982009225
20
16.2617970772135
30
0
41
1
10
29.3803088026416
20
16.2794571870973
30
0
41
1
10
29.5249171774524
20
16.3107691844214
30
0
41
1
10
29.5967904341241
20
16.3244948687307
30
0
41
1
10
29.7396755428997
20
16.3480641818553
30
0
41
1
10
29.811160226754
20
16.3579560076063
30
0
41
1
10
30.0207389244338
20
16.3809423268824
30
0
41
1
10
30.1526166942407
20
16.387462832356
30
0
41
1
10
30.3397994496526
20
16.3827096904091
30
0
41
1
10
30.4003977068331
20
16.3786189159498
30
0
41
1
10
30.5150889186194
20
16.3653740141496
30
0
41
1
10
30.5696152478631
20
16.356220365134
30
0
41
1
10
30.7252920647835
20
16.3206935021314
30
0
41
1
10
30.8191834862903
20
16.2857430902674
30
0
41
1
10
30.9353430169377
20
16.2195876514412
30
0
41
1
10
30.9686707936294
20
16.1970262014858
30
0
41
1
10
30.9996409858311
20
16.172163293742
30
0
0
SPLINE
5
185
100
AcDbEntity
8
1
62
256
6
ByLayer
370
18
48
1
60
0
100
AcDbSpline
70
4
71
3
72
8
73
4
40
0
40
0
40
0
40
0
40
1
40
1
40
1
40
1
41
1
10
31.0558659920006
20
16.1219006190725
30
0
41
1
10
31.0729431305999
20
16.1049045286663
30
0
41
1
10
31.0891343961237
20
16.0870355095892
30
0
41
1
10
31.1043758984425
20
16.0683367431427
30
0
0
SPLINE
5
186
100
AcDbEntity
8
1
62
256
6
ByLayer
370
18
48
1
60
0
100
AcDbSpline
70
4
71
3
72
12
73
8
40
0
40
0
40
0
40
0
40
0.364284710947493
40
0.364284710947493
40
0.768305698187199
40
0.768305698187199
40
1
40
1
40
1
40
1
41
1
10
29.1685571152198
20
-5.75285750169374
30
0
41
1
10
29.3139215281506
20
-5.67165006675171
30
0
41
1
10
29.4584427059409
20
-5.60120020786141
30
0
41
1
10
29.7584874290321
20
-5.46803862856279
30
0
41
1
10
29.9141594467896
20
-5.40679314296301
30
0
41
1
10
30.1564330191763
20
-5.32154463365796
30
0
41
1
10
30.2442086711475
20
-5.2927876795971
30
0
41
1
10
30.3313182342754
20
-5.26670389519387
30
0
0
SPLINE
5
187
100
AcDbEntity
8
1
62
256
6
ByLayer
370
18
48
1
60
0
100
AcDbSpline
70
4
71
3
72
8
73
4
40
0
40
0
40
0
40
0
40
1
40
1
40
1
40
1
41
1
10
37.0456949193187
20
6.74422888716703
30
0
41
1
10
36.979877518094
20
6.73645663080302
30
0
41
1
10
36.9131980014738
20
6.72803464347334
30
0
41
1
10
36.8456664642679
20
6.71897053310454
30
0
0
SPLINE
5
188
100
AcDbEntity
8
1
62
256
6
ByLayer
370
18
48
1
60
0
100
AcDbSpline
70
4
71
3
72
8
73
4
40
0
40
0
40
0
40
0
40
1
40
1
40
1
40
1
41
1
10
34.6239685466716
20
-19.2106484200373
30
0
41
1
10
34.6013340867135
20
-19.1964345085371
30
0
41
1
10
34.5781472999886
20
-19.1824274812665
30
0
41
1
10
34.554378005523
20
-19.1686243347881
30
0
0
SPLINE
5
189
100
AcDbEntity
8
1
62
256
6
ByLayer
370
18
48
1
60
0
100
AcDbSpline
70
4
71
3
72
26
73
22
40
0
40
0
40
0
40
0
40
0.155081495660777
40
0.155081495660777
40
0.232622243491166
40
0.232622243491166
40
0.310162991321555
40
0.310162991321555
40
0.465244486982333
40
0.465244486982333
40
0.542785234812723
40
0.542785234812723
40
0.620325982643112
40
0.620325982643112
40
0.775407478303889
40
0.775407478303889
40
0.852948226134277
40
0.852948226134277
40
0.930488973964665
40
0.930488973964665
40
1
40
1
40
1
40
1
41
1
10
37.9123009288117
20
3.41445077927597
30
0
41
1
10
37.8922745232961
20
3.30763574493093
30
0
41
1
10
37.8700759062418
20
3.20541629497018
30
0
41
1
10
37.8333650662051
20
3.05903788375343
30
0
41
1
10
37.8204886008641
20
3.01118480194188
30
0
41
1
10
37.7938896740315
20
2.9191453644404
30
0
41
1
10
37.7801943414816
20
2.87501314845417
30
0
41
1
10
37.7379185716747
20
2.7481298629327
30
0
41
1
10
37.7081573866662
20
2.67084980167883
30
0
41
1
10
37.6609806839938
20
2.5660844755144
30
0
41
1
10
37.6447619299663
20
2.53292351486345
30
0
41
1
10
37.6120426643425
20
2.47160575865053
30
0
41
1
10
37.5954883165318
20
2.44330701178831
30
0
41
1
10
37.5452299110317
20
2.36533801332609
30
0
41
1
10
37.5109336464923
20
2.32254090836466
30
0
41
1
10
37.4582039820757
20
2.27249029885331
30
0
41
1
10
37.440414243218
20
2.25821412280882
30
0
41
1
10
37.4051047402907
20
2.23498029091556
30
0
41
1
10
37.3874960687298
20
2.22593035857375
30
0
41
1
10
37.3541877726723
20
2.21355289351604
30
0
41
1
10
37.3384785171734
20
2.20971767924433
30
0
41
1
10
37.3228079607018
20
2.20793118413045
30
0
0
SPLINE
5
18A
100
AcDbEntity
8
1
62
256
6
ByLayer
370
18
48
1
60
0
100
AcDbSpline
70
4
71
3
72
24
73
20
40
0
40
0
40
0
40
0
40
0.139193414400212
40
0.139193414400212
40
0.278386828800425
40
0.278386828800425
40
0.417580243200638
40
0.417580243200638
40
0.487176950400743
40
0.487176950400743
40
0.556773657600848
40
0.556773657600848
40
0.835160486401275
40
0.835160486401275
40
0.904757193601383
40
0.904757193601383
40
0.974353900801491
40
0.974353900801491
40
1
40
1
40
1
40
1
41
1
10
36.9849580943896
20
8.20362328655125
30
0
41
1
10
36.9778475140312
20
8.29465071980428
30
0
41
1
10
36.9742166463243
20
8.39232074105735
30
0
41
1
10
36.9740538304484
20
8.60106897798644
30
0
41
1
10
36.9775968192632
20
8.7124242285237
30
0
41
1
10
36.9915303834418
20
8.94190624094779
30
0
41
1
10
37.001899846421
20
9.0608059777218
30
0
41
1
10
37.0223881530919
20
9.24533870491356
30
0
41
1
10
37.0300421799875
20
9.30788390545231
30
0
41
1
10
37.046998363913
20
9.435079900342
30
0
41
1
10
37.0563401060099
20
9.49997336264266
30
0
41
1
10
37.1065633109007
20
9.82579535486502
30
0
41
1
10
37.1578526061257
20
10.0917364422791
30
0
41
1
10
37.2343617714944
20
10.431068521158
30
0
41
1
10
37.2503571811502
20
10.4995373071605
30
0
41
1
10
37.2831847456872
20
10.6354500817609
30
0
41
1
10
37.300034104955
20
10.7029903828413
30
0
41
1
10
37.3236545612895
20
10.79486579902
30
0
41
1
10
37.3300704064612
20
10.8195504675681
30
0
41
1
10
37.3365411199576
20
10.8441805713516
30
0
0
SPLINE
5
18B
100
AcDbEntity
8
1
62
256
6
ByLayer
370
18
48
1
60
0
100
AcDbSpline
70
4
71
3
72
18
73
14
40
0
40
0
40
0
40
0
40
0.204206547107278
40
0.204206547107278
40
0.408413094214557
40
0.408413094214557
40
0.612619641321835
40
0.612619641321835
40
0.816826188429113
40
0.816826188429113
40
0.918929461982751
40
0.918929461982751
40
1
40
1
40
1
40
1
41
1
10
37.9123009288116
20
-11.6354795093116
30
0
41
1
10
37.8922744157071
20
-11.6536562682138
30
0
41
1
10
37.8695834999452
20
-11.6619263615234
30
0
41
1
10
37.8207131541477
20
-11.657979036308
30
0
41
1
10
37.7944138005358
20
-11.6460489977687
30
0
41
1
10
37.7378947851419
20
-11.602267001508
30
0
41
1
10
37.7075146949715
20
-11.5700474301403
30
0
41
1
10
37.6449566694148
20
-11.4879116101895
30
0
41
1
10
37.6125171282122
20
-11.4378699378684
30
0
41
1
10
37.5619906803116
20
-11.3492071470406
30
0
41
1
10
37.5447490772922
20
-11.3171959875483
30
0
41
1
10
37.5137378216779
20
-11.2565445932221
30
0
41
1
10
37.49997144116
20
-11.2285578331922
30
0
41
1
10
37.4861623980324
20
-11.1994502619308
30
0
0
SPLINE
5
18C
100
AcDbEntity
8
1
62
256
6
ByLayer
370
18
48
1
60
0
100
AcDbSpline
70
4
71
3
72
8
73
4
40
0
40
0
40
0
40
0
40
1
40
1
40
1
40
1
41
1
10
36.8325980777156
20
-6.71752888949845
30
0
41
1
10
36.8386576104643
20
-7.16374207622957
30
0
41
1
10
36.8525293333496
20
-7.60590893447579
30
0
41
1
10
36.8741804714752
20
-8.04404644001397
30
0
0
SPLINE
5
18D
100
AcDbEntity
8
1
62
256
6
ByLayer
370
18
48
1
60
0
100
AcDbSpline
70
4
71
3
72
42
73
38
40
0
40
0
40
0
40
0
40
0.061624276107559
40
0.061624276107559
40
0.133807024099288
40
0.133807024099288
40
0.205989772091017
40
0.205989772091017
40
0.242081146086881
40
0.242081146086881
40
0.278172520082745
40
0.278172520082745
40
0.350355268074472
40
0.350355268074472
40
0.386446642070334
40
0.386446642070334
40
0.422538016066197
40
0.422538016066197
40
0.494720764057923
40
0.494720764057923
40
0.530812138053786
40
0.530812138053786
40
0.566903512049649
40
0.566903512049649
40
0.639086260041374
40
0.639086260041374
40
0.711269008033099
40
0.711269008033099
40
0.783451756024825
40
0.783451756024825
40
0.85563450401655
40
0.85563450401655
40
0.927817252008276
40
0.927817252008276
40
0.963908626004138
40
0.963908626004138
40
1
40
1
40
1
40
1
41
1
10
37.7534675579512
20
11.6137724807147
30
0
41
1
10
37.7287773725765
20
11.5924927413243
30
0
41
1
10
37.703117437789
20
11.5642418487184
30
0
41
1
10
37.6452581297022
20
11.4883448057561
30
0
41
1
10
37.6125148505848
20
11.4378893968957
30
0
41
1
10
37.544810061231
20
11.3190353693759
30
0
41
1
10
37.5104919947306
20
11.2518443329483
30
0
41
1
10
37.4582739568551
20
11.1398140104297
30
0
41
1
10
37.4407442549373
20
11.1005852450194
30
0
41
1
10
37.4054278699305
20
11.0182884831478
30
0
41
1
10
37.3875534485876
20
10.974992840208
30
0
41
1
10
37.3344166086376
20
10.8413787629141
30
0
41
1
10
37.2995282991547
20
10.7471888545454
30
0
41
1
10
37.2480231283346
20
10.5984055468209
30
0
41
1
10
37.2309939888481
20
10.547553893385
30
0
41
1
10
37.1972356287158
20
10.4432734241321
30
0
41
1
10
37.1804648689293
20
10.3896898676782
30
0
41
1
10
37.1316143706653
20
10.2281575719987
30
0
41
1
10
37.1006678154617
20
10.1184996155607
30
0
41
1
10
37.0567969819536
20
9.95106380898281
30
0
41
1
10
37.0426009711771
20
9.8947574760422
30
0
41
1
10
37.0151198487097
20
9.7811202240793
30
0
41
1
10
37.0018743378726
20
9.72392394949091
30
0
41
1
10
36.9643403664631
20
9.55418657603752
30
0
41
1
10
36.9419661643877
20
9.44237963412027
30
0
41
1
10
36.9027461580528
20
9.22139077541786
30
0
41
1
10
36.885819432514
20
9.1113088141737
30
0
41
1
10
36.8590989382046
20
8.90173128104814
30
0
41
1
10
36.8491234146821
20
8.80146275140095
30
0
41
1
10
36.8361118006571
20
8.60995350326925
30
0
41
1
10
36.8331473365737
20
8.51835352189607
30
0
41
1
10
36.8345761014195
20
8.35147700508753
30
0
41
1
10
36.8388678822174
20
8.27523178955391
30
0
41
1
10
36.8506762386996
20
8.17177875024882
30
0
41
1
10
36.8555416855229
20
8.13898643716979
30
0
41
1
10
36.8669508050441
20
8.078074379008
30
0
41
1
10
36.8734847852184
20
8.04992044494418
30
0
41
1
10
36.8808204998935
20
8.02402779473036
30
0
0
SPLINE
5
18E
100
AcDbEntity
8
1
62
256
6
ByLayer
370
18
48
1
60
0
100
AcDbSpline
70
4
71
3
72
16
73
12
40
0
40
0
40
0
40
0
40
0.0384609626267791
40
0.0384609626267791
40
0.230768770101425
40
0.230768770101425
40
0.615384385050717
40
0.615384385050717
40
0.807692192525359
40
0.807692192525359
40
1
40
1
40
1
40
1
41
1
10
29.0375897783742
20
12.8206149642215
30
0
41
1
10
29.0424850722018
20
12.8269514426479
30
0
41
1
10
29.0475803900865
20
12.8332145608985
30
0
41
1
10
29.0793314623722
20
12.8703331270619
30
0
41
1
10
29.1110986144209
20
12.8995979420967
30
0
41
1
10
29.2168218088669
20
12.9778330562061
30
0
41
1
10
29.3007516742033
20
13.0178725020175
30
0
41
1
10
29.4401874390591
20
13.0584885873421
30
0
41
1
10
29.489167191887
20
13.0687247882144
30
0
41
1
10
29.5880817159845
20
13.0817493413909
30
0
41
1
10
29.6383293908632
20
13.0846593030812
30
0
41
1
10
29.6889532736505
20
13.0838738180046
30
0
0
SPLINE
5
18F
100
AcDbEntity
8
1
62
256
6
ByLayer
370
18
48
1
60
0
100
AcDbSpline
70
4
71
3
72
12
73
8
40
0
40
0
40
0
40
0
40
0.445293823704005
40
0.445293823704005
40
0.89058764740801
40
0.89058764740801
40
1
40
1
40
1
40
1
41
1
10
27.6993918946797
20
-21.7279932775906
30
0
41
1
10
27.7117624778207
20
-21.6858617815945
30
0
41
1
10
27.7297736394926
20
-21.6436197344801
30
0
41
1
10
27.7768370987986
20
-21.5573818706184
30
0
41
1
10
27.8061657525487
20
-21.5130777784735
30
0
41
1
10
27.8484956849553
20
-21.4571030198709
30
0
41
1
10
27.8571234331972
20
-21.446017276007
30
0
41
1
10
27.8660267042543
20
-21.4348710797066
30
0
0
SPLINE
5
190
100
AcDbEntity
8
1
62
256
6
ByLayer
370
18
48
1
60
0
100
AcDbSpline
70
4
71
3
72
12
73
8
40
0
40
0
40
0
40
0
40
0.255924358451268
40
0.255924358451268
40
0.627962179225634
40
0.627962179225634
40
1
40
1
40
1
40
1
41
1
10
27.8506323042178
20
21.4376485592441
30
0
41
1
10
27.8767228841289
20
21.424569798565
30
0
41
1
10
27.9052338849902
20
21.4115666469768
30
0
41
1
10
27.9811345366474
20
21.3799026948651
30
0
41
1
10
28.0312950064264
20
21.3613986866947
30
0
41
1
10
28.1391283787228
20
21.3260738162558
30
0
41
1
10
28.1971172559317
20
21.3091123627505
30
0
41
1
10
28.2591641175679
20
21.2929431627859
30
0
0
SPLINE
5
191
100
AcDbEntity
8
1
62
256
6
ByLayer
370
18
48
1
60
0
100
AcDbSpline
70
4
71
3
72
8
73
4
40
0
40
0
40
0
40
0
40
1
40
1
40
1
40
1
41
1
10
38.9554008634923
20
-0.0055787783465462
30
0
41
1
10
38.9718338865325
20
0.0552851668737162
30
0
41
1
10
38.9866788798251
20
0.116952588095529
30
0
41
1
10
39.0000000000001
20
0.17939581158106
30
0
0
SPLINE
5
192
100
AcDbEntity
8
1
62
256
6
ByLayer
370
18
48
1
60
0
100
AcDbSpline
70
4
71
3
72
42
73
38
40
0
40
0
40
0
40
0
40
0.0179019435494454
40
0.0179019435494454
40
0.0444451342643265
40
0.0444451342643265
40
0.0975315156940875
40
0.0975315156940875
40
0.150617897123848
40
0.150617897123848
40
0.20370427855361
40
0.20370427855361
40
0.256790659983371
40
0.256790659983371
40
0.309877041413131
40
0.309877041413131
40
0.362963422842893
40
0.362963422842893
40
0.469136185702413
40
0.469136185702413
40
0.522222567132172
40
0.522222567132172
40
0.575308948561931
40
0.575308948561931
40
0.628395329991691
40
0.628395329991691
40
0.68148171142145
40
0.68148171142145
40
0.787654474280967
40
0.787654474280967
40
0.840740855710725
40
0.840740855710725
40
0.893827237140483
40
0.893827237140483
40
0.946913618570242
40
0.946913618570242
40
1
40
1
40
1
40
1
41
1
10
25.9405160434391
20
-9.73342922911434
30
0
41
1
10
25.9567900995915
20
-9.75774916082884
30
0
41
1
10
25.9744800785468
20
-9.78130782510169
30
0
41
1
10
26.0209732894527
20
-9.83730780972982
30
0
41
1
10
26.0511936413146
20
-9.86885412520891
30
0
41
1
10
26.1480732839622
20
-9.95850758422216
30
0
41
1
10
26.2214435225897
20
-10.0118649923463
30
0
41
1
10
26.3751910703231
20
-10.1041564400782
30
0
41
1
10
26.4561897763637
20
-10.1437095523363
30
0
41
1
10
26.6245841847265
20
-10.2117930602636
30
0
41
1
10
26.7125059424948
20
-10.240375687622
30
0
41
1
10
26.8897929887024
20
-10.2862016347744
30
0
41
1
10
26.9795262705809
20
-10.3036443763586
30
0
41
1
10
27.1608196884552
20
-10.328383374332
30
0
41
1
10
27.2523827504295
20
-10.3356699492141
30
0
41
1
10
27.4372465513519
20
-10.3400256053683
30
0
41
1
10
27.5310091050564
20
-10.3370068961563
30
0
41
1
10
27.8087061650579
20
-10.3123413143638
30
0
41
1
10
27.9906168102634
20
-10.2755099684384
30
0
41
1
10
28.2591164573784
20
-10.1877787549484
30
0
41
1
10
28.3484293329053
20
-10.1527631931125
30
0
41
1
10
28.5210253093504
20
-10.0733149647474
30
0
41
1
10
28.6047562298479
20
-10.0288056741973
30
0
41
1
10
28.7674654420378
20
-9.930599911781
30
0
41
1
10
28.8464426758621
20
-9.8769022724629
30
0
41
1
10
28.9999999085585
20
-9.76057328408754
30
0
41
1
10
29.0750064312491
20
-9.69747281401641
30
0
41
1
10
29.2874412655852
20
-9.50145684395093
30
0
41
1
10
29.4144310592756
20
-9.36065066363699
30
0
41
1
10
29.5880235477973
20
-9.14047382080918
30
0
41
1
10
29.6423890553146
20
-9.0663627854365
30
0
41
1
10
29.7432906651709
20
-8.92054090795608
30
0
41
1
10
29.790165583737
20
-8.84839850397273
30
0
41
1
10
29.8776984127717
20
-8.70652111126392
30
0
41
1
10
29.918630283948
20
-8.63627190026665
30
0
41
1
10
29.9930577273681
20
-8.50214973254782
30
0
41
1
10
30.0266437791026
20
-8.43820295458272
30
0
41
1
10
30.0569498428112
20
-8.37749751077226
30
0
0
SPLINE
5
193
100
AcDbEntity
8
1
62
256
6
ByLayer
370
18
48
1
60
0
100
AcDbSpline
70
4
71
3
72
8
73
4
40
0
40
0
40
0
40
0
40
1
40
1
40
1
40
1
41
1
10
36.8604359249167
20
7.72747246900849
30
0
41
1
10
36.8173616110237
20
6.67942323816652
30
0
41
1
10
36.8187092847933
20
5.60908947010256
30
0
41
1
10
36.8641701592825
20
4.51662606950435
30
0
0
SPLINE
5
194
100
AcDbEntity
8
1
62
256
6
ByLayer
370
18
48
1
60
0
100
AcDbSpline
70
4
71
3
72
16
73
12
40
0
40
0
40
0
40
0
40
0.266729869622234
40
0.266729869622234
40
0.400094804433349
40
0.400094804433349
40
0.533459739244463
40
0.533459739244463
40
0.800189608866678
40
0.800189608866678
40
1
40
1
40
1
40
1
41
1
10
29.4874841567794
20
20.2665065574167
30
0
41
1
10
29.4141040876863
20
20.3052628071222
30
0
41
1
10
29.3384573562355
20
20.3433806887136
30
0
41
1
10
29.221643457147
20
20.3997307803678
30
0
41
1
10
29.1820302321705
20
20.4184230515877
30
0
41
1
10
29.1032935663553
20
20.4547813473789
30
0
41
1
10
29.0639829776665
20
20.4725399743077
30
0
41
1
10
28.946227050962
20
20.5245942693098
30
0
41
1
10
28.8678216492298
20
20.5577363156066
30
0
41
1
10
28.731599296286
20
20.6125813506604
30
0
41
1
10
28.674791335997
20
20.6345720682402
30
0
41
1
10
28.6194720176254
20
20.6550944643763
30
0
0
SPLINE
5
195
100
AcDbEntity
8
1
62
256
6
ByLayer
370
18
48
1
60
0
100
AcDbSpline
70
4
71
3
72
10
73
6
40
0
40
0
40
0
40
0
40
0.423526966087324
40
0.423526966087324
40
1
40
1
40
1
40
1
41
1
10
38.7701837075267
20
16.5994748148308
30
0
41
1
10
38.8120685126025
20
16.7016573848199
30
0
41
1
10
38.850029135993
20
16.805728136867
30
0
41
1
10
38.9303336002213
20
17.0559391817786
30
0
41
1
10
38.9691784189668
20
17.2037055930578
30
0
41
1
10
39.0000000000001
20
17.3530129501075
30
0
0
SPLINE
5
196
100
AcDbEntity
8
1
62
256
6
ByLayer
370
18
48
1
60
0
100
AcDbSpline
70
4
71
3
72
20
73
16
40
0
40
0
40
0
40
0
40
0.125
40
0.125
40
0.25
40
0.25
40
0.375
40
0.375
40
0.499999999999999
40
0.499999999999999
40
0.624999999999999
40
0.624999999999999
40
0.749999999999998
40
0.749999999999998
40
1
40
1
40
1
40
1
41
1
10
36.9849580943895
20
4.48760154980349
30
0
41
1
10
36.9778475181801
20
4.35181210851616
30
0
41
1
10
36.9741906161731
20
4.2172130172892
30
0
41
1
10
36.9740783782492
20
3.95086987522777
30
0
41
1
10
36.9776200328586
20
3.82206190811849
30
0
41
1
10
36.9915163103446
20
3.57276244224417
30
0
41
1
10
37.0018719404801
20
3.45227235665345
30
0
41
1
10
37.0293120619149
20
3.21969333625029
30
0
41
1
10
37.0465134337913
20
3.10731434508978
30
0
41
1
10
37.0864696368641
20
2.89752738712622
30
0
41
1
10
37.1092980039401
20
2.79925044650639
30
0
41
1
10
37.1603262706946
20
2.61580906390489
30
0
41
1
10
37.1886400692431
20
2.53035782389188
30
0
41
1
10
37.280837137389
20
2.29649647099046
30
0
41
1
10
37.3499502927455
20
2.17448487498388
30
0
41
1
10
37.425655465355
20
2.08631639044492
30
0
0
SPLINE
5
197
100
AcDbEntity
8
1
62
256
6
ByLayer
370
18
48
1
60
0
100
AcDbSpline
70
4
71
3
72
9
73
5
40
0
40
0
40
0
40
0
40
0.5
40
1
40
1
40
1
40
1
41
1
10
37.9907807334149
20
11.5290036839778
30
0
41
1
10
37.9999624052623
20
11.5372800178041
30
0
41
1
10
38.0193363857717
20
11.5534221748146
30
0
41
1
10
38.0407509621511
20
11.5687354620386
30
0
41
1
10
38.0519802881975
20
11.5761800590553
30
0
0
SPLINE
5
198
100
AcDbEntity
8
1
62
256
6
ByLayer
370
18
48
1
60
0
100
AcDbSpline
70
4
71
3
72
20
73
16
40
0
40
0
40
0
40
0
40
0.125000000000001
40
0.125000000000001
40
0.250000000000002
40
0.250000000000002
40
0.375000000000003
40
0.375000000000003
40
0.500000000000003
40
0.500000000000003
40
0.625000000000004
40
0.625000000000004
40
0.750000000000005
40
0.750000000000005
40
1
40
1
40
1
40
1
41
1
10
38.4055306198159
20
17.1495513217067
30
0
41
1
10
38.4282354157524
20
17.0915851010793
30
0
41
1
10
38.4516623321701
20
17.0331328963331
30
0
41
1
10
38.4995726400033
20
16.9170268705633
30
0
41
1
10
38.5241471430516
20
16.859120101603
30
0
41
1
10
38.5749625493059
20
16.7437000427182
30
0
41
1
10
38.6012379648607
20
16.6861890246014
30
0
41
1
10
38.6529840786122
20
16.5782864007113
30
0
41
1
10
38.6791601312381
20
16.5265102352905
30
0
41
1
10
38.7283548868761
20
16.4352656893258
30
0
41
1
10
38.7518215855709
20
16.3948976081619
30
0
41
1
10
38.7950942663718
20
16.3265519893904
30
0
41
1
10
38.8145677502994
20
16.2989983566527
30
0
41
1
10
38.8679849684223
20
16.2316492869508
30
0
41
1
10
38.8952577133799
20
16.2087641038243
30
0
41
1
10
38.918159079363
20
16.1972956866837
30
0
0
SPLINE
5
199
100
AcDbEntity
8
1
62
256
6
ByLayer
370
18
48
1
60
0
100
AcDbSpline
70
4
71
3
72
8
73
4
40
0
40
0
40
0
40
0
40
1
40
1
40
1
40
1
41
1
10
31.1683222152631
20
-22.338210806858
30
0
41
1
10
31.1471044162006
20
-22.3224274405761
30
0
41
1
10
31.1257887994979
20
-22.3068234525116
30
0
41
1
10
31.1043758984424
20
-22.2913978647207
30
0
0
SPLINE
5
19A
100
AcDbEntity
8
1
62
256
6
ByLayer
370
18
48
1
60
0
100
AcDbSpline
70
4
71
3
72
40
73
36
40
0
40
0
40
0
40
0
40
0.125000000000003
40
0.125000000000003
40
0.187500000000004
40
0.187500000000004
40
0.250000000000005
40
0.250000000000005
40
0.375000000000006
40
0.375000000000006
40
0.437500000000006
40
0.437500000000006
40
0.500000000000007
40
0.500000000000007
40
0.562500000000007
40
0.562500000000007
40
0.593750000000007
40
0.593750000000007
40
0.625000000000007
40
0.625000000000007
40
0.656250000000007
40
0.656250000000007
40
0.687500000000007
40
0.687500000000007
40
0.718750000000008
40
0.718750000000008
40
0.750000000000008
40
0.750000000000008
40
0.812500000000006
40
0.812500000000006
40
0.875000000000004
40
0.875000000000004
40
0.937500000000002
40
0.937500000000002
40
1
40
1
40
1
40
1
41
1
10
31.4629465363283
20
20.5831108867602
30
0
41
1
10
31.4657752353645
20
20.4464156310492
30
0
41
1
10
31.4909203589289
20
20.3176106670082
30
0
41
1
10
31.5601362482985
20
20.1333312530176
30
0
41
1
10
31.5886884472172
20
20.0731948080671
30
0
41
1
10
31.6565101504146
20
19.9569309000516
30
0
41
1
10
31.6957110288723
20
19.9008094153431
30
0
41
1
10
31.830480019177
20
19.7382290749659
30
0
41
1
10
31.9422703997069
20
19.6372964812485
30
0
41
1
10
32.1596675916053
20
19.4992546421956
30
0
41
1
10
32.239660070956
20
19.4561644777086
30
0
41
1
10
32.4185905324186
20
19.3776250527339
30
0
41
1
10
32.518691916326
20
19.3418311670868
30
0
41
1
10
32.7383133598416
20
19.28320308752
30
0
41
1
10
32.8578837537961
20
19.2600002921728
30
0
41
1
10
33.0592416913326
20
19.2389315682469
30
0
41
1
10
33.1295247300766
20
19.2343726946987
30
0
41
1
10
33.2727717655275
20
19.2311992061975
30
0
41
1
10
33.3467004496669
20
19.2325352367703
30
0
41
1
10
33.497326378771
20
19.2418054106206
30
0
41
1
10
33.5720867525276
20
19.249594761704
30
0
41
1
10
33.7205353140718
20
19.2713168893769
30
0
41
1
10
33.794983635274
20
19.2854497709119
30
0
41
1
10
33.9380831998883
20
19.3187287839032
30
0
41
1
10
34.0068779306311
20
19.337810233688
30
0
41
1
10
34.1396950898411
20
19.3802629902572
30
0
41
1
10
34.2034720094442
20
19.4036054547898
30
0
41
1
10
34.383243959969
20
19.477091520591
30
0
41
1
10
34.490483003952
20
19.5315537717112
30
0
41
1
10
34.6845192210161
20
19.6475586188037
30
0
41
1
10
34.7692676662883
20
19.7078251459132
30
0
41
1
10
34.9211622771679
20
19.832018849893
30
0
41
1
10
34.9881960365188
20
19.8959583496944
30
0
41
1
10
35.1076246603249
20
20.0272637110767
30
0
41
1
10
35.1590871124539
20
20.0936376745105
30
0
41
1
10
35.203592850808
20
20.160582634369
30
0
0
SPLINE
5
19B
100
AcDbEntity
8
1
62
256
6
ByLayer
370
18
48
1
60
0
100
AcDbSpline
70
4
71
3
72
18
73
14
40
0
40
0
40
0
40
0
40
0.250000000000004
40
0.250000000000004
40
0.375000000000011
40
0.375000000000011
40
0.500000000000019
40
0.500000000000019
40
0.750000000000018
40
0.750000000000018
40
0.875000000000009
40
0.875000000000009
40
1
40
1
40
1
40
1
41
1
10
33.2281101178726
20
-18.7293731597769
30
0
41
1
10
33.2941552151737
20
-18.7325665470427
30
0
41
1
10
33.3660918055518
20
-18.7375310592796
30
0
41
1
10
33.48485764241
20
-18.7501911389659
30
0
41
1
10
33.5265483189705
20
-18.7553384743805
30
0
41
1
10
33.6116923580099
20
-18.7676265308013
30
0
41
1
10
33.6553299309672
20
-18.7747778471491
30
0
41
1
10
33.7895405514925
20
-18.7998603077082
30
0
41
1
10
33.8850175588469
20
-18.8219584820193
30
0
41
1
10
34.025003837065
20
-18.8621187658989
30
0
41
1
10
34.0714154699011
20
-18.8766940869766
30
0
41
1
10
34.1636904053868
20
-18.9083434601339
30
0
41
1
10
34.2095678720621
20
-18.9254408646133
30
0
41
1
10
34.2542552429328
20
-18.9434709219029
30
0
0
SPLINE
5
19C
100
AcDbEntity
8
1
62
256
6
ByLayer
370
18
48
1
60
0
100
AcDbSpline
70
4
71
3
72
12
73
8
40
0
40
0
40
0
40
0
40
0.499999999999994
40
0.499999999999994
40
0.749999999999997
40
0.749999999999997
40
1
40
1
40
1
40
1
41
1
10
36.5441010605739
20
-20.5244851684828
30
0
41
1
10
36.3396650883249
20
-20.6629536629432
30
0
41
1
10
36.1260036446346
20
-20.780374039874
30
0
41
1
10
35.7910408278907
20
-20.9234894938686
30
0
41
1
10
35.6769679068519
20
-20.9656764443866
30
0
41
1
10
35.4437292138888
20
-21.03843089327
30
0
41
1
10
35.3240519817795
20
-21.0690901688803
30
0
41
1
10
35.2035928508079
20
-21.0931846133318
30
0
0
SPLINE
5
19D
100
AcDbEntity
8
1
62
256
6
ByLayer
370
18
48
1
60
0
100
AcDbSpline
70
4
71
3
72
8
73
4
40
0
40
0
40
0
40
0
40
1
40
1
40
1
40
1
41
1
10
31.1683222152631
20
1.29311659021803
30
0
41
1
10
31.0992480076297
20
1.38227836417391
30
0
41
1
10
31.0286569948981
20
1.47055358141188
30
0
41
1
10
30.9564761477935
20
1.55789955708451
30
0
0
SPLINE
5
19E
100
AcDbEntity
8
1
62
256
6
ByLayer
370
18
48
1
60
0
100
AcDbSpline
70
4
71
3
72
8
73
4
40
0
40
0
40
0
40
0
40
1
40
1
40
1
40
1
41
1
10
35.2333909778605
20
0.424230134559309
30
0
41
1
10
35.2450115823721
20
0.406334317734348
30
0
41
1
10
35.2558969912217
20
0.388263367944148
30
0
41
1
10
35.2661059325317
20
0.370037533317714
30
0
0
SPLINE
5
19F
100
AcDbEntity
8
1
62
256
6
ByLayer
370
18
48
1
60
0
100
AcDbSpline
70
4
71
3
72
8
73
4
40
0
40
0
40
0
40
0
40
1
40
1
40
1
40
1
41
1
10
31.4629465363276
20
0.937997478843329
30
0
41
1
10
31.3599006383234
20
1.05396485178073
30
0
41
1
10
31.2618352734679
20
1.17240886959047
30
0
41
1
10
31.1683222152631
20
1.29311659021801
30
0
0
SPLINE
5
1A0
100
AcDbEntity
8
1
62
256
6
ByLayer
370
18
48
1
60
0
100
AcDbSpline
70
4
71
3
72
28
73
24
40
0
40
0
40
0
40
0
40
0.062500000000002
40
0.062500000000002
40
0.125000000000004
40
0.125000000000004
40
0.250000000000009
40
0.250000000000009
40
0.31250000000001
40
0.31250000000001
40
0.37500000000001
40
0.37500000000001
40
0.500000000000008
40
0.500000000000008
40
0.562500000000007
40
0.562500000000007
40
0.625000000000006
40
0.625000000000006
40
0.750000000000004
40
0.750000000000004
40
0.875000000000002
40
0.875000000000002
40
1
40
1
40
1
40
1
41
1
10
35.2333909778605
20
-19.3793582269724
30
0
41
1
10
35.2965153084188
20
-19.3546871567521
30
0
41
1
10
35.3579628501202
20
-19.3270321614995
30
0
41
1
10
35.4776823479156
20
-19.2656554345397
30
0
41
1
10
35.5361793989148
20
-19.2317840817998
30
0
41
1
10
35.7054057824207
20
-19.1216160129396
30
0
41
1
10
35.8085592530434
20
-19.0379186719881
30
0
41
1
10
35.9497909501982
20
-18.8964267211309
30
0
41
1
10
35.9945945997692
20
-18.8465837703314
30
0
41
1
10
36.0795341247686
20
-18.7411736347443
30
0
41
1
10
36.1195424880066
20
-18.6856795174456
30
0
41
1
10
36.2296812253422
20
-18.5142230136583
30
0
41
1
10
36.2910486477543
20
-18.3921309197354
30
0
41
1
10
36.3642368186223
20
-18.1966830979087
30
0
41
1
10
36.3855587697078
20
-18.1290725147064
30
0
41
1
10
36.4209002926228
20
-17.9914319660824
30
0
41
1
10
36.4348543229953
20
-17.9218503521403
30
0
41
1
10
36.4657265277444
20
-17.7109665596807
30
0
41
1
10
36.4717742681312
20
-17.5675324266054
30
0
41
1
10
36.4528387385005
20
-17.275552791347
30
0
41
1
10
36.4282019188237
20
-17.1323454688367
30
0
41
1
10
36.3493731780447
20
-16.8521241786426
30
0
41
1
10
36.2945959157383
20
-16.7142618498535
30
0
41
1
10
36.2256140797565
20
-16.5837098312112
30
0
0
SPLINE
5
1A1
100
AcDbEntity
8
1
62
256
6
ByLayer
370
18
48
1
60
0
100
AcDbSpline
70
4
71
3
72
14
73
10
40
0
40
0
40
0
40
0
40
0.250000000000009
40
0.250000000000009
40
0.375000000000008
40
0.375000000000008
40
0.500000000000006
40
0.500000000000006
40
1
40
1
40
1
40
1
41
1
10
38.2289588953793
20
-21.1951202438353
30
0
41
1
10
38.1514857853114
20
-21.3172970132884
30
0
41
1
10
38.0682086427135
20
-21.4353029842156
30
0
41
1
10
37.9341398162665
20
-21.6057111998817
30
0
41
1
10
37.8879290055652
20
-21.6614175330435
30
0
41
1
10
37.7923214536524
20
-21.7705305585504
30
0
41
1
10
37.7426889234284
20
-21.8241747422501
30
0
41
1
10
37.4889937303074
20
-22.0834775880316
30
0
41
1
10
37.2731442126092
20
-22.2584744127925
30
0
41
1
10
37.0456949193187
20
-22.403491718154
30
0
0
SPLINE
5
1A2
100
AcDbEntity
8
1
62
256
6
ByLayer
370
18
48
1
60
0
100
AcDbSpline
70
4
71
3
72
8
73
4
40
0
40
0
40
0
40
0
40
1
40
1
40
1
40
1
41
1
10
28.8833765001538
20
11.0999090900692
30
0
41
1
10
28.8905902564792
20
11.0744030316864
30
0
41
1
10
28.8981485271403
20
11.048847087669
30
0
41
1
10
28.9060580541919
20
11.0232402817684
30
0
0
SPLINE
5
1A3
100
AcDbEntity
8
1
62
256
6
ByLayer
370
18
48
1
60
0
100
AcDbSpline
70
4
71
3
72
16
73
12
40
0
40
0
40
0
40
0
40
0.125000000000001
40
0.125000000000001
40
0.250000000000001
40
0.250000000000001
40
0.500000000000001
40
0.500000000000001
40
0.75
40
0.75
40
1
40
1
40
1
40
1
41
1
10
38.4055306198158
20
-2.63250969557041
30
0
41
1
10
38.3549275671811
20
-2.54314441546447
30
0
41
1
10
38.300372233155
20
-2.45685594225495
30
0
41
1
10
38.1848425473104
20
-2.28603726736006
30
0
41
1
10
38.1237989149727
20
-2.2017023008998
30
0
41
1
10
37.9311388523016
20
-1.95062040377448
30
0
41
1
10
37.7900332155497
20
-1.78590566207498
30
0
41
1
10
37.4810324954855
20
-1.46073296794282
30
0
41
1
10
37.3131330081582
20
-1.30031491776393
30
0
41
1
10
36.9464687311009
20
-0.985184809893013
30
0
41
1
10
36.7515864878736
20
-0.833803566237094
30
0
41
1
10
36.5441010605739
20
-0.689602492286099
30
0
0
SPLINE
5
1A4
100
AcDbEntity
8
1
62
256
6
ByLayer
370
18
48
1
60
0
100
AcDbSpline
70
4
71
3
72
12
73
8
40
0
40
0
40
0
40
0
40
0.25
40
0.25
40
0.5
40
0.5
40
1
40
1
40
1
40
1
41
1
10
27.6993918946797
20
-7.29092648606849
30
0
41
1
10
27.7117624778207
20
-7.3357658797124
30
0
41
1
10
27.7297736394926
20
-7.37944589248735
30
0
41
1
10
27.7768370987986
20
-7.46301032062254
30
0
41
1
10
27.8061657525487
20
-7.50312469220793
30
0
41
1
10
27.908107599948
20
-7.61194871681113
30
0
41
1
10
27.9945164029134
20
-7.67036731395371
30
0
41
1
10
28.0978040489233
20
-7.70588746260222
30
0
0
SPLINE
5
1A5
100
AcDbEntity
8
1
62
256
6
ByLayer
370
18
48
1
60
0
100
AcDbSpline
70
4
71
3
72
12
73
8
40
0
40
0
40
0
40
0
40
0.500000000000001
40
0.500000000000001
40
0.75
40
0.75
40
1
40
1
40
1
40
1
41
1
10
38.2710893200632
20
11.734826392852
30
0
41
1
10
38.4511747879727
20
11.9409281031702
30
0
41
1
10
38.6015453132197
20
12.1546652001483
30
0
41
1
10
38.7841364108607
20
12.4863108138348
30
0
41
1
10
38.8377468839604
20
12.5987231004355
30
0
41
1
10
38.9303336002213
20
12.8273080040983
30
0
41
1
10
38.9691784189668
20
12.9434708232784
30
0
41
1
10
39.0000000000001
20
13.0599374447274
30
0
0
SPLINE
5
1A6
100
AcDbEntity
8
1
62
256
6
ByLayer
370
18
48
1
60
0
100
AcDbSpline
70
4
71
3
72
14
73
10
40
0
40
0
40
0
40
0
40
0.249999999999995
40
0.249999999999995
40
0.374999999999996
40
0.374999999999996
40
0.499999999999997
40
0.499999999999997
40
1
40
1
40
1
40
1
41
1
10
34.0523204470729
20
-23.1605086630618
30
0
41
1
10
33.8276463204092
20
-23.1674473047563
30
0
41
1
10
33.603030347008
20
-23.1598920769956
30
0
41
1
10
33.2661955377197
20
-23.1263396694436
30
0
41
1
10
33.1535786310304
20
-23.111334146991
30
0
41
1
10
32.9317321358311
20
-23.0742303246336
30
0
41
1
10
32.8221797245055
20
-23.0520996448411
30
0
41
1
10
32.2810370246305
20
-22.9241654468202
30
0
41
1
10
31.8691235143935
20
-22.7669928205642
30
0
41
1
10
31.4794114200213
20
-22.5518601506556
30
0
0
SPLINE
5
1A7
100
AcDbEntity
8
1
62
256
6
ByLayer
370
18
48
1
60
0
100
AcDbSpline
70
4
71
3
72
12
73
8
40
0
40
0
40
0
40
0
40
0.499999999999998
40
0.499999999999998
40
0.749999999999999
40
0.749999999999999
40
1
40
1
40
1
40
1
41
1
10
28.0978040489233
20
21.1812850234085
30
0
41
1
10
27.9945164029135
20
21.2854212337894
30
0
41
1
10
27.9081075999481
20
21.3782755244828
30
0
41
1
10
27.8061657525489
20
21.5130777784734
30
0
41
1
10
27.7768370987987
20
21.5573818706183
30
0
41
1
10
27.7297736394927
20
21.64361973448
30
0
41
1
10
27.7117624778209
20
21.6858617815944
30
0
41
1
10
27.6993918946798
20
21.7279932775905
30
0
0
SPLINE
5
1A8
100
AcDbEntity
8
1
62
256
6
ByLayer
370
18
48
1
60
0
100
AcDbSpline
70
4
71
3
72
8
73
4
40
0
40
0
40
0
40
0
40
1
40
1
40
1
40
1
41
1
10
37.9176455500714
20
1.51913744542455
30
0
41
1
10
37.948570821634
20
1.48562034922429
30
0
41
1
10
37.9939251790439
20
1.44862553949733
30
0
41
1
10
38.0519802881975
20
1.40657581619226
30
0
0
SPLINE
5
1A9
100
AcDbEntity
8
1
62
256
6
ByLayer
370
18
48
1
60
0
100
AcDbSpline
70
4
71
3
72
8
73
4
40
0
40
0
40
0
40
0
40
1
40
1
40
1
40
1
41
1
10
32.5411962668409
20
8.63873954724795
30
0
41
1
10
32.5824531748984
20
8.63208273350983
30
0
41
1
10
32.623784986449
20
8.62556864927254
30
0
41
1
10
32.6651905327113
20
8.61919506740918
30
0
0
SPLINE
5
1AA
100
AcDbEntity
8
1
62
256
6
ByLayer
370
18
48
1
60
0
100
AcDbSpline
70
4
71
3
72
8
73
4
40
0
40
0
40
0
40
0
40
1
40
1
40
1
40
1
41
1
10
31.7434011261452
20
11.9160251620824
30
0
41
1
10
31.8351769190991
20
11.8558240272401
30
0
41
1
10
31.9165785062585
20
11.7807038096955
30
0
41
1
10
31.9895045567997
20
11.6912818270673
30
0
0
SPLINE
5
1AB
100
AcDbEntity
8
1
62
256
6
ByLayer
370
18
48
1
60
0
100
AcDbSpline
70
4
71
3
72
22
73
18
40
0
40
0
40
0
40
0
40
0.125
40
0.125
40
0.25
40
0.25
40
0.375
40
0.375
40
0.5
40
0.5
40
0.625
40
0.625
40
0.75
40
0.75
40
0.875
40
0.875
40
1
40
1
40
1
40
1
41
1
10
36.4817184157157
20
9.23005132020242
30
0
41
1
10
36.4711800299564
20
9.15194915973694
30
0
41
1
10
36.456738755036
20
9.07641713017873
30
0
41
1
10
36.4206551169808
20
8.93520532487784
30
0
41
1
10
36.398786586941
20
8.86845185435442
30
0
41
1
10
36.3473747414625
20
8.7455145215061
30
0
41
1
10
36.3183660900468
20
8.69044654347488
30
0
41
1
10
36.2532462369343
20
8.59323883842001
30
0
41
1
10
36.2167778363873
20
8.55096315626011
30
0
41
1
10
36.1389655086721
20
8.48368635625081
30
0
41
1
10
36.0973384645334
20
8.45810097199569
30
0
41
1
10
36.0080162794977
20
8.42420414376835
30
0
41
1
10
35.9619484466047
20
8.41651166187685
30
0
41
1
10
35.8669312205304
20
8.41908563177344
30
0
41
1
10
35.8173084695055
20
8.42973981896401
30
0
41
1
10
35.7198833569911
20
8.46827850979724
30
0
41
1
10
35.6718042552562
20
8.49592545306058
30
0
41
1
10
35.6246025206337
20
8.53152928934577
30
0
0
SPLINE
5
1AC
100
AcDbEntity
8
1
62
256
6
ByLayer
370
18
48
1
60
0
100
AcDbSpline
70
4
71
3
72
16
73
12
40
0
40
0
40
0
40
0
40
0.25
40
0.25
40
0.5
40
0.5
40
0.625
40
0.625
40
0.750000000000001
40
0.750000000000001
40
1
40
1
40
1
40
1
41
1
10
34.0523204470726
20
-6.23232289822101
30
0
41
1
10
34.1288570016876
20
-6.20792464085247
30
0
41
1
10
34.2077796672879
20
-6.1922359447382
30
0
41
1
10
34.3668026058662
20
-6.17840983349851
30
0
41
1
10
34.4482505536489
20
-6.18039266635839
30
0
41
1
10
34.5658811605543
20
-6.19645237345046
30
0
41
1
10
34.604561709441
20
-6.20394882845918
30
0
41
1
10
34.6808684936831
20
-6.22324585839596
30
0
41
1
10
34.7187369472577
20
-6.2351457021955
30
0
41
1
10
34.8286843050236
20
-6.27681193595163
30
0
41
1
10
34.8969523015048
20
-6.31221939326267
30
0
41
1
10
34.960350183494
20
-6.35523249635548
30
0
0
SPLINE
5
1AD
100
AcDbEntity
8
1
62
256
6
ByLayer
370
18
48
1
60
0
100
AcDbSpline
70
4
71
3
72
8
73
4
40
0
40
0
40
0
40
0
40
1
40
1
40
1
40
1
41
1
10
31.1683222152631
20
20.5767418791954
30
0
41
1
10
31.0992664807487
20
20.5741226774209
30
0
41
1
10
31.0286766143371
20
20.5719877531069
30
0
41
1
10
30.9564761477719
20
20.5703612448905
30
0
0
SPLINE
5
1AE
100
AcDbEntity
8
1
62
256
6
ByLayer
370
18
48
1
60
0
100
AcDbSpline
70
4
71
3
72
8
73
4
40
0
40
0
40
0
40
0
40
1
40
1
40
1
40
1
41
1
10
32.8875696167173
20
9.86259469570084
30
0
41
1
10
32.8980648651574
20
9.85778660604072
30
0
41
1
10
32.9085893863672
20
9.85305196549112
30
0
41
1
10
32.9191420070642
20
9.84838783013745
30
0
0
SPLINE
5
1AF
100
AcDbEntity
8
1
62
256
6
ByLayer
370
18
48
1
60
0
100
AcDbSpline
70
4
71
3
72
18
73
14
40
0
40
0
40
0
40
0
40
0.250000000000003
40
0.250000000000003
40
0.375000000000003
40
0.375000000000003
40
0.500000000000003
40
0.500000000000003
40
0.750000000000003
40
0.750000000000003
40
0.875000000000002
40
0.875000000000002
40
1
40
1
40
1
40
1
41
1
10
32.8172079508713
20
-0.151714208800882
30
0
41
1
10
32.7080546512503
20
-0.0027143511635472
30
0
41
1
10
32.6205367579494
20
0.155536269718056
30
0
41
1
10
32.5124291389012
20
0.399732603325134
30
0
41
1
10
32.4803833607506
20
0.482328922259057
30
0
41
1
10
32.4238889442237
20
0.649185967180102
30
0
41
1
10
32.3993970704061
20
0.733758677514857
30
0
41
1
10
32.338698488791
20
0.984025942701663
30
0
41
1
10
32.3143388581927
20
1.14764671676645
30
0
41
1
10
32.305246506644
20
1.38366932275625
30
0
41
1
10
32.3068808863083
20
1.46087402864828
30
0
41
1
10
32.3212584434339
20
1.61099438241536
30
0
41
1
10
32.3338416124091
20
1.68212348951772
30
0
41
1
10
32.3522601646929
20
1.74933478689442
30
0
0
SPLINE
5
1B0
100
AcDbEntity
8
1
62
256
6
ByLayer
370
18
48
1
60
0
100
AcDbSpline
70
4
71
3
72
22
73
18
40
0
40
0
40
0
40
0
40
0.125
40
0.125
40
0.25
40
0.25
40
0.375
40
0.375
40
0.5
40
0.5
40
0.625
40
0.625
40
0.75
40
0.75
40
0.875
40
0.875
40
1
40
1
40
1
40
1
41
1
10
36.1246233771121
20
11.060837575514
30
0
41
1
10
36.1653312664598
20
11.0263589504965
30
0
41
1
10
36.2038788245982
20
10.9846238008086
30
0
41
1
10
36.2768865860688
20
10.8868627645959
30
0
41
1
10
36.3114422550361
20
10.8303950125571
30
0
41
1
10
36.3736195648149
20
10.7076700531273
30
0
41
1
10
36.4016494832199
20
10.6409669268665
30
0
41
1
10
36.4514893501467
20
10.4966674366773
30
0
41
1
10
36.4729608582652
20
10.4197653348073
30
0
41
1
10
36.5078628831283
20
10.2611092567856
30
0
41
1
10
36.5215564803172
20
10.1784198995119
30
0
41
1
10
36.5406854218259
20
10.0078761556412
30
0
41
1
10
36.5459181151849
20
9.92210499960316
30
0
41
1
10
36.5477368669108
20
9.74958374899398
30
0
41
1
10
36.5442031958899
20
9.66190541565445
30
0
41
1
10
36.5281167448259
20
9.49144198840062
30
0
41
1
10
36.5156825470958
20
9.40845221503523
30
0
41
1
10
36.4986175987243
20
9.32776084320045
30
0
0
SPLINE
5
1B1
100
AcDbEntity
8
1
62
256
6
ByLayer
370
18
48
1
60
0
100
AcDbSpline
70
4
71
3
72
26
73
22
40
0
40
0
40
0
40
0
40
0.0624999999999985
40
0.0624999999999985
40
0.124999999999997
40
0.124999999999997
40
0.249999999999997
40
0.249999999999997
40
0.374999999999998
40
0.374999999999998
40
0.499999999999998
40
0.499999999999998
40
0.624999999999998
40
0.624999999999998
40
0.749999999999998
40
0.749999999999998
40
0.874999999999998
40
0.874999999999998
40
0.937499999999999
40
0.937499999999999
40
1
40
1
40
1
40
1
41
1
10
35.9941811092456
20
5.33299840155576
30
0
41
1
10
35.8725744938044
20
5.29258110232286
30
0
41
1
10
35.7492688403052
20
5.25812134300551
30
0
41
1
10
35.4990394211107
20
5.20090995928692
30
0
41
1
10
35.3722072037195
20
5.17824900742195
30
0
41
1
10
34.9936066778004
20
5.12754373026939
30
0
41
1
10
34.7411191410233
20
5.11607285224017
30
0
41
1
10
34.2349081734196
20
5.1253827776228
30
0
41
1
10
33.9807022845366
20
5.1461884996902
30
0
41
1
10
33.4732903177655
20
5.20895603130086
30
0
41
1
10
33.2219987340765
20
5.25050255880242
30
0
41
1
10
32.7223171039194
20
5.34626176174663
30
0
41
1
10
32.4739292619051
20
5.40045843841767
30
0
41
1
10
31.9796395550602
20
5.51974598384462
30
0
41
1
10
31.7337397862734
20
5.58485250941567
30
0
41
1
10
31.2454709037563
20
5.73023734377438
30
0
41
1
10
31.0030999076134
20
5.8105484965227
30
0
41
1
10
30.6440396902718
20
5.94949292925935
30
0
41
1
10
30.5251132902509
20
5.99892371237735
30
0
41
1
10
30.2892451383987
20
6.10562490086699
30
0
41
1
10
30.1718255893509
20
6.16315966372556
30
0
41
1
10
30.056949842809
20
6.22487954374228
30
0
0
SPLINE
5
1B2
100
AcDbEntity
8
1
62
256
6
ByLayer
370
18
48
1
60
0
100
AcDbSpline
70
4
71
3
72
18
73
14
40
0
40
0
40
0
40
0
40
0.125000000000001
40
0.125000000000001
40
0.250000000000001
40
0.250000000000001
40
0.500000000000003
40
0.500000000000003
40
0.625000000000003
40
0.625000000000003
40
0.750000000000003
40
0.750000000000003
40
1
40
1
40
1
40
1
41
1
10
35.9941811092511
20
-7.88897323198648
30
0
41
1
10
36.021510786846
20
-7.83574192799858
30
0
41
1
10
36.0469878959426
20
-7.78114175434445
30
0
41
1
10
36.092983970833
20
-7.67180788911543
30
0
41
1
10
36.1136889930822
20
-7.6167273481548
30
0
41
1
10
36.1688161751009
20
-7.4502252681026
30
0
41
1
10
36.1962085606617
20
-7.33671356967713
30
0
41
1
10
36.2204798840179
20
-7.17337845889682
30
0
41
1
10
36.2259050468491
20
-7.11971026382966
30
0
41
1
10
36.231335301846
20
-7.01395364785816
30
0
41
1
10
36.2312929059761
20
-6.9615908437344
30
0
41
1
10
36.2229597811237
20
-6.81135068265968
30
0
41
1
10
36.206762464048
20
-6.7189091455617
30
0
41
1
10
36.1801229896467
20
-6.63404130502201
30
0
0
SPLINE
5
1B3
100
AcDbEntity
8
1
62
256
6
ByLayer
370
18
48
1
60
0
100
AcDbSpline
70
4
71
3
72
13
73
9
40
0
40
0
40
0
40
0
40
0.25
40
0.25
40
0.5
40
0.75
40
0.75
40
1
40
1
40
1
40
1
41
1
10
28.9059769888559
20
12.8112579503323
30
0
41
1
10
28.9113916518734
20
12.6902086601764
30
0
41
1
10
28.9134391326023
20
12.5592105388887
30
0
41
1
10
28.914568027457
20
12.2884506199721
30
0
41
1
10
28.9126763948403
20
12.0087661121365
30
0
41
1
10
28.9070345312221
20
11.7180009998842
30
0
41
1
10
28.8983721401326
20
11.4183112987129
30
0
41
1
10
28.8925579112862
20
11.2640846099565
30
0
41
1
10
28.8833765001511
20
11.0999090900682
30
0
0
SPLINE
5
1B4
100
AcDbEntity
8
1
62
256
6
ByLayer
370
18
48
1
60
0
100
AcDbSpline
70
4
71
3
72
14
73
10
40
0
40
0
40
0
40
0
40
0.250000000000002
40
0.250000000000002
40
0.375000000000003
40
0.375000000000003
40
0.500000000000004
40
0.500000000000004
40
1
40
1
40
1
40
1
41
1
10
34.0523204470729
20
-6.23232289822374
30
0
41
1
10
33.8276463204092
20
-6.25819653439893
30
0
41
1
10
33.603030347008
20
-6.28055374539267
30
0
41
1
10
33.2661955377197
20
-6.30869876949814
30
0
41
1
10
33.1535786310304
20
-6.31719143570058
30
0
41
1
10
32.9317321358312
20
-6.33209426967494
30
0
41
1
10
32.8221797245055
20
-6.33853135760424
30
0
41
1
10
32.2810370246306
20
-6.36581890679716
30
0
41
1
10
31.8691235143936
20
-6.37210984086758
30
0
41
1
10
31.4794114200213
20
-6.36197318131053
30
0
0
SPLINE
5
1B5
100
AcDbEntity
8
1
62
256
6
ByLayer
370
18
48
1
60
0
100
AcDbSpline
70
4
71
3
72
12
73
8
40
0
40
0
40
0
40
0
40
0.5
40
0.5
40
0.75
40
0.75
40
1
40
1
40
1
40
1
41
1
10
18.3589165525393
20
21.8370177533853
30
0
41
1
10
18.4700644260466
20
21.8592144601035
30
0
41
1
10
18.5897991200403
20
21.8693762693849
30
0
41
1
10
18.7868344209019
20
21.8624545041422
30
0
41
1
10
18.8556443974997
20
21.8563881148833
30
0
41
1
10
18.9994926044718
20
21.8355309619481
30
0
41
1
10
19.0739654000151
20
21.8208431134966
30
0
41
1
10
19.1514033835437
20
21.8012390661255
30
0
0
SPLINE
5
1B6
100
AcDbEntity
8
1
62
256
6
ByLayer
370
18
48
1
60
0
100
AcDbSpline
70
4
71
3
72
8
73
4
40
0
40
0
40
0
40
0
40
1
40
1
40
1
40
1
41
1
10
29.9114982944628
20
13.0543682268192
30
0
41
1
10
30.0151348434197
20
13.0279724265838
30
0
41
1
10
30.1136822432243
20
12.9850535307601
30
0
41
1
10
30.2054580361782
20
12.9248523959179
30
0
0
SPLINE
5
1B7
100
AcDbEntity
8
1
62
256
6
ByLayer
370
18
48
1
60
0
100
AcDbSpline
70
4
71
3
72
28
73
24
40
0
40
0
40
0
40
0
40
0.0624999999999982
40
0.0624999999999982
40
0.124999999999996
40
0.124999999999996
40
0.249999999999993
40
0.249999999999993
40
0.312499999999993
40
0.312499999999993
40
0.374999999999993
40
0.374999999999993
40
0.499999999999993
40
0.499999999999993
40
0.562499999999993
40
0.562499999999993
40
0.624999999999993
40
0.624999999999993
40
0.749999999999996
40
0.749999999999996
40
0.874999999999998
40
0.874999999999998
40
1
40
1
40
1
40
1
41
1
10
35.2333909778605
20
0.424230134559309
30
0
41
1
10
35.2965153084188
20
0.412741959293498
30
0
41
1
10
35.3579628501202
20
0.401801979938995
30
0
41
1
10
35.4776823479156
20
0.381499649622441
30
0
41
1
10
35.5361793989148
20
0.3721037783491
30
0
41
1
10
35.7054057824208
20
0.347321918308125
30
0
41
1
10
35.8085592530435
20
0.335509632109961
30
0
41
1
10
35.9497909501983
20
0.327259571684039
30
0
41
1
10
35.9945945997692
20
0.326092167293041
30
0
41
1
10
36.0795341247687
20
0.327405066477667
30
0
41
1
10
36.1195424880066
20
0.329913030611294
30
0
41
1
10
36.2296812253422
20
0.343203757738166
30
0
41
1
10
36.2910486477544
20
0.359751036315828
30
0
41
1
10
36.3642368186223
20
0.396924950792965
30
0
41
1
10
36.3855587697079
20
0.411472638918013
30
0
41
1
10
36.4209002926228
20
0.44433644543318
30
0
41
1
10
36.4348543229954
20
0.462523868900377
30
0
41
1
10
36.4657265277445
20
0.521812090401824
30
0
41
1
10
36.4717742681312
20
0.56765479556654
30
0
41
1
10
36.4528387385006
20
0.668839661611116
30
0
41
1
10
36.4282019188237
20
0.72228042110126
30
0
41
1
10
36.3493731780447
20
0.8300445450827
30
0
41
1
10
36.2945959157383
20
0.884728844431777
30
0
41
1
10
36.2256140797565
20
0.936006347661447
30
0
0
SPLINE
5
1B8
100
AcDbEntity
8
1
62
256
6
ByLayer
370
18
48
1
60
0
100
AcDbSpline
70
4
71
3
72
16
73
12
40
0
40
0
40
0
40
0
40
0.25
40
0.25
40
0.5
40
0.5
40
0.625
40
0.625
40
0.75
40
0.75
40
1
40
1
40
1
40
1
41
1
10
34.0523204470727
20
23.160508663061
30
0
41
1
10
34.1288570016877
20
23.1539870183494
30
0
41
1
10
34.207779667288
20
23.1481580475387
30
0
41
1
10
34.3668026058663
20
23.1377323044273
30
0
41
1
10
34.448250553649
20
23.133069642762
30
0
41
1
10
34.5658811605544
20
23.1273795161134
30
0
41
1
10
34.6045617094411
20
23.1256840124173
30
0
41
1
10
34.6808684936832
20
23.1227500606553
30
0
41
1
10
34.7187369472578
20
23.1215058903711
30
0
41
1
10
34.8286843050236
20
23.1186572910307
30
0
41
1
10
34.8969523015049
20
23.1179054886049
30
0
41
1
10
34.9603501834941
20
23.1186933424258
30
0
0
SPLINE
5
1B9
100
AcDbEntity
8
1
62
256
6
ByLayer
370
18
48
1
60
0
100
AcDbSpline
70
4
71
3
72
10
73
6
40
0
40
0
40
0
40
0
40
0.5
40
0.5
40
1
40
1
40
1
40
1
41
1
10
28.0842348367992
20
11.7120381709121
30
0
41
1
10
28.0643307802039
20
11.7941322564006
30
0
41
1
10
28.0499435137572
20
11.875564672759
30
0
41
1
10
28.0328068204451
20
12.0334655515118
30
0
41
1
10
28.0299274607593
20
12.110901392992
30
0
41
1
10
28.0330509716323
20
12.1854568124689
30
0
0
SPLINE
5
1BA
100
AcDbEntity
8
1
62
256
6
ByLayer
370
18
48
1
60
0
100
AcDbSpline
70
4
71
3
72
12
73
8
40
0
40
0
40
0
40
0
40
0.5
40
0.5
40
0.75
40
0.75
40
1
40
1
40
1
40
1
41
1
10
37.0456949193187
20
-6.74422888716717
30
0
41
1
10
36.7345256392923
20
-6.70748347680524
30
0
41
1
10
36.404086552036
20
-6.65621542768284
30
0
41
1
10
35.8811233480194
20
-6.55873533537294
30
0
41
1
10
35.7021763677827
20
-6.52275566486978
30
0
41
1
10
35.3347200007186
20
-6.44358964167199
30
0
41
1
10
35.1483851190046
20
-6.40086597325771
30
0
41
1
10
34.9603501834918
20
-6.35523249636299
30
0
0
SPLINE
5
1BB
100
AcDbEntity
8
1
62
256
6
ByLayer
370
18
48
1
60
0
100
AcDbSpline
70
4
71
3
72
10
73
6
40
0
40
0
40
0
40
0
40
0.5
40
0.5
40
1
40
1
40
1
40
1
41
1
10
39
20
-5.04772565379432
30
0
41
1
10
38.9357871353461
20
-5.26896910831209
30
0
41
1
10
38.8386010837506
20
-5.48560244774865
30
0
41
1
10
38.5818262201924
20
-5.91014434344592
30
0
41
1
10
38.4222136464622
20
-6.11804957747694
30
0
41
1
10
38.2289588953798
20
-6.32125116216304
30
0
0
SPLINE
5
1BC
100
AcDbEntity
8
1
62
256
6
ByLayer
370
18
48
1
60
0
100
AcDbSpline
70
4
71
3
72
12
73
8
40
0
40
0
40
0
40
0
40
0.500000000000002
40
0.500000000000002
40
0.750000000000001
40
0.750000000000001
40
1
40
1
40
1
40
1
41
1
10
38.2710893200632
20
-11.7348263928521
30
0
41
1
10
38.4511747879727
20
-11.9409281031703
30
0
41
1
10
38.6015453132196
20
-12.1546652001484
30
0
41
1
10
38.7841364108607
20
-12.4863108138349
30
0
41
1
10
38.8377468839604
20
-12.5987231004356
30
0
41
1
10
38.9303336002213
20
-12.8273080040984
30
0
41
1
10
38.9691784189668
20
-12.9434708232785
30
0
41
1
10
39
20
-13.0599374447275
30
0
0
SPLINE
5
1BD
100
AcDbEntity
8
1
62
256
6
ByLayer
370
18
48
1
60
0
100
AcDbSpline
70
4
71
3
72
8
73
4
40
0
40
0
40
0
40
0
40
1
40
1
40
1
40
1
41
1
10
31.4794114200211
20
16.1898869693449
30
0
41
1
10
31.3735573843611
20
16.1593430253342
30
0
41
1
10
31.2698321874893
20
16.1262304669922
30
0
41
1
10
31.1683222152631
20
16.0904450628701
30
0
0
SPLINE
5
1BE
100
AcDbEntity
8
1
62
256
6
ByLayer
370
18
48
1
60
0
100
AcDbSpline
70
4
71
3
72
16
73
12
40
0
40
0
40
0
40
0
40
0.25
40
0.25
40
0.499999999999999
40
0.499999999999999
40
0.624999999999999
40
0.624999999999999
40
0.749999999999999
40
0.749999999999999
40
1
40
1
40
1
40
1
41
1
10
34.0523204470725
20
-23.1605086630611
30
0
41
1
10
34.1288570016876
20
-23.1539870183496
30
0
41
1
10
34.2077796672879
20
-23.1481580475389
30
0
41
1
10
34.3668026058662
20
-23.1377323044275
30
0
41
1
10
34.4482505536489
20
-23.1330696427621
30
0
41
1
10
34.5658811605542
20
-23.1273795161135
30
0
41
1
10
34.6045617094409
20
-23.1256840124174
30
0
41
1
10
34.6808684936831
20
-23.1227500606554
30
0
41
1
10
34.7187369472577
20
-23.1215058903712
30
0
41
1
10
34.8286843050235
20
-23.1186572910308
30
0
41
1
10
34.8969523015048
20
-23.117905488605
30
0
41
1
10
34.960350183494
20
-23.118693342426
30
0
0
SPLINE
5
1BF
100
AcDbEntity
8
1
62
256
6
ByLayer
370
18
48
1
60
0
100
AcDbSpline
70
4
71
3
72
20
73
16
40
0
40
0
40
0
40
0
40
0.249999999999996
40
0.249999999999996
40
0.374999999999997
40
0.374999999999997
40
0.499999999999997
40
0.499999999999997
40
0.624999999999998
40
0.624999999999998
40
0.749999999999999
40
0.749999999999999
40
0.874999999999999
40
0.874999999999999
40
1
40
1
40
1
40
1
41
1
10
32.1260340692187
20
11.4852493346502
30
0
41
1
10
32.1799241647536
20
11.3844139793588
30
0
41
1
10
32.2248184854457
20
11.2764311786195
30
0
41
1
10
32.2852240603556
20
11.1044295086377
30
0
41
1
10
32.3041559800351
20
11.0454038899624
30
0
41
1
10
32.3397750177387
20
10.9270672157948
30
0
41
1
10
32.3565868720889
20
10.8673978115904
30
0
41
1
10
32.3893369436733
20
10.747322242509
30
0
41
1
10
32.4051756194598
20
10.6872659295781
30
0
41
1
10
32.4361677880545
20
10.5707924401062
30
0
41
1
10
32.4514384278457
20
10.5139141412543
30
0
41
1
10
32.4828658525422
20
10.4034505516464
30
0
41
1
10
32.498745294358
20
10.3509247017845
30
0
41
1
10
32.5315759281444
20
10.2533533315832
30
0
41
1
10
32.5486124248516
20
10.2079705368512
30
0
41
1
10
32.5669878320582
20
10.1660922770629
30
0
0
SPLINE
5
1C0
100
AcDbEntity
8
1
62
256
6
ByLayer
370
18
48
1
60
0
100
AcDbSpline
70
4
71
3
72
10
73
6
40
0
40
0
40
0
40
0
40
0.5
40
0.5
40
1
40
1
40
1
40
1
41
1
10
18.3589165525392
20
-12.8662639082417
30
0
41
1
10
18.4721178730723
20
-13.100442696646
30
0
41
1
10
18.5931559274275
20
-13.3237847057277
30
0
41
1
10
18.8553125387974
20
-13.7444999443031
30
0
41
1
10
18.9963023997366
20
-13.9420507175717
30
0
41
1
10
19.1514033835436
20
-14.1217343409842
30
0
0
SPLINE
5
1C1
100
AcDbEntity
8
1
62
256
6
ByLayer
370
18
48
1
60
0
100
AcDbSpline
70
4
71
3
72
18
73
14
40
0
40
0
40
0
40
0
40
0.249999999999989
40
0.249999999999989
40
0.37499999999999
40
0.37499999999999
40
0.499999999999992
40
0.499999999999992
40
0.749999999999995
40
0.749999999999995
40
0.874999999999997
40
0.874999999999997
40
1
40
1
40
1
40
1
41
1
10
33.2281101178726
20
-0.109347228090996
30
0
41
1
10
33.2941552151738
20
-0.170789030964812
30
0
41
1
10
33.3660918055518
20
-0.225178074897627
30
0
41
1
10
33.48485764241
20
-0.292616396736662
30
0
41
1
10
33.5265483189705
20
-0.312788394705734
30
0
41
1
10
33.6116923580099
20
-0.346538233573426
30
0
41
1
10
33.6553299309672
20
-0.36026158549592
30
0
41
1
10
33.7895405514925
20
-0.391227051171313
30
0
41
1
10
33.885017558847
20
-0.397837162417574
30
0
41
1
10
34.025003837065
20
-0.384794024446194
30
0
41
1
10
34.0714154699011
20
-0.376787230956865
30
0
41
1
10
34.1636904053869
20
-0.353720728530874
30
0
41
1
10
34.2095678720621
20
-0.338609903268434
30
0
41
1
10
34.2542552429328
20
-0.320488344436029
30
0
0
SPLINE
5
1C2
100
AcDbEntity
8
1
62
256
6
ByLayer
370
18
48
1
60
0
100
AcDbSpline
70
4
71
3
72
22
73
18
40
0
40
0
40
0
40
0
40
0.125
40
0.125
40
0.25
40
0.25
40
0.375
40
0.375
40
0.5
40
0.5
40
0.625
40
0.625
40
0.75
40
0.75
40
0.875
40
0.875
40
1
40
1
40
1
40
1
41
1
10
28.0330509716322
20
-9.06006061935213
30
0
41
1
10
28.0399471729318
20
-8.98834898289829
30
0
41
1
10
28.0518570681539
20
-8.91413635300617
30
0
41
1
10
28.0845111757037
20
-8.76690811524756
30
0
41
1
10
28.1052955041042
20
-8.69314778618946
30
0
41
1
10
28.1557028147093
20
-8.54533719728343
30
0
41
1
10
28.1856093570905
20
-8.47085504931059
30
0
41
1
10
28.2518004862297
20
-8.32749803956136
30
0
41
1
10
28.28828086165
20
-8.2579027113236
30
0
41
1
10
28.3677012270397
20
-8.12268761469608
30
0
41
1
10
28.4110141197438
20
-8.05657065855092
30
0
41
1
10
28.5024889903341
20
-7.93075320136992
30
0
41
1
10
28.5500682561831
20
-7.8717338490986
30
0
41
1
10
28.6485747881692
20
-7.76076508538773
30
0
41
1
10
28.6995046032054
20
-7.70882105643457
30
0
41
1
10
28.8045997805423
20
-7.61176547336351
30
0
41
1
10
28.8592529077024
20
-7.56632643757803
30
0
41
1
10
28.91395207147
20
-7.52548857703246
30
0
0
SPLINE
5
1C3
100
AcDbEntity
8
1
62
256
6
ByLayer
370
18
48
1
60
0
100
AcDbSpline
70
4
71
3
72
8
73
4
40
0
40
0
40
0
40
0
40
1
40
1
40
1
40
1
41
1
10
39.0000000000001
20
16.1342886262188
30
0
41
1
10
38.9768018974125
20
16.1595017656955
30
0
41
1
10
38.949172026755
20
16.181765197467
30
0
41
1
10
38.918159079363
20
16.1972956866837
30
0
0
SPLINE
5
1C4
100
AcDbEntity
8
1
62
256
6
ByLayer
370
18
48
1
60
0
100
AcDbSpline
70
4
71
3
72
17
73
13
40
0
40
0
40
0
40
0
40
0.250000000000001
40
0.250000000000001
40
0.375000000000001
40
0.375000000000001
40
0.500000000000001
40
0.625000000000001
40
0.625000000000001
40
0.750000000000002
40
0.750000000000002
40
1
40
1
40
1
40
1
41
1
10
37.0785957308046
20
5.13951332367924
30
0
41
1
10
37.0738703308812
20
5.07229045141182
30
0
41
1
10
37.0711789539318
20
5.01134627824371
30
0
41
1
10
37.0701189947557
20
4.92914416605041
30
0
41
1
10
37.0702744592826
20
4.90314245194819
30
0
41
1
10
37.0716007046818
20
4.85543949316659
30
0
41
1
10
37.0739248537183
20
4.81189266170657
30
0
41
1
10
37.078191565936
20
4.77645758448904
30
0
41
1
10
37.0834448640758
20
4.74515426353756
30
0
41
1
10
37.0865828299477
20
4.73156063725685
30
0
41
1
10
37.0972391137051
20
4.69810126057308
30
0
41
1
10
37.1060352579129
20
4.68499638338895
30
0
41
1
10
37.1165312462599
20
4.68119442201555
30
0
0
SPLINE
5
1C5
100
AcDbEntity
8
1
62
256
6
ByLayer
370
18
48
1
60
0
100
AcDbSpline
70
4
71
3
72
10
73
6
40
0
40
0
40
0
40
0
40
0.5
40
0.5
40
1
40
1
40
1
40
1
41
1
10
39.0000000000001
20
19.2111169499892
30
0
41
1
10
38.9357871353461
20
19.5675028872408
30
0
41
1
10
38.8386010837506
20
19.9106989716494
30
0
41
1
10
38.5818262201924
20
20.5721289423114
30
0
41
1
10
38.4222136464623
20
20.89035332344
30
0
41
1
10
38.2289588953799
20
21.1951202438342
30
0
0
SPLINE
5
1C6
100
AcDbEntity
8
1
62
256
6
ByLayer
370
18
48
1
60
0
100
AcDbSpline
70
4
71
3
72
8
73
4
40
0
40
0
40
0
40
0
40
1
40
1
40
1
40
1
41
1
10
35.2333909778605
20
-19.3793582269724
30
0
41
1
10
35.2450115823721
20
-19.4290969746386
30
0
41
1
10
35.2558969912217
20
-19.4789664872038
30
0
41
1
10
35.2661059325316
20
-19.5289553220527
30
0
0
SPLINE
5
1C7
100
AcDbEntity
8
1
62
256
6
ByLayer
370
18
48
1
60
0
100
AcDbSpline
70
4
71
3
72
19
73
15
40
0
40
0
40
0
40
0
40
0.250000000000002
40
0.250000000000002
40
0.375000000000002
40
0.375000000000002
40
0.500000000000002
40
0.500000000000002
40
0.625000000000002
40
0.625000000000002
40
0.750000000000002
40
0.875
40
0.875
40
1
40
1
40
1
40
1
41
1
10
27.6993918946797
20
14.4370667915222
30
0
41
1
10
27.6597494971643
20
14.5646831850755
30
0
41
1
10
27.6420628573979
20
14.693158877911
30
0
41
1
10
27.649111187442
20
14.8870271627341
30
0
41
1
10
27.6571431215719
20
14.9509695612735
30
0
41
1
10
27.6840199085186
20
15.0759833297078
30
0
41
1
10
27.7028731965304
20
15.1373123944257
30
0
41
1
10
27.7514656599357
20
15.2576598079187
30
0
41
1
10
27.781481136224
20
15.3170931218401
30
0
41
1
10
27.8515026740355
20
15.4312816762727
30
0
41
1
10
27.9311972790579
20
15.5406536768091
30
0
41
1
10
28.0297693720204
20
15.6408490239741
30
0
41
1
10
28.1380291978323
20
15.7364653901213
30
0
41
1
10
28.197016700908
20
15.7818738092861
30
0
41
1
10
28.2591641175678
20
15.823732229588
30
0
0
SPLINE
5
1C8
100
AcDbEntity
8
1
62
256
6
ByLayer
370
18
48
1
60
0
100
AcDbSpline
70
4
71
3
72
14
73
10
40
0
40
0
40
0
40
0
40
0.25
40
0.25
40
0.5
40
0.5
40
0.75
40
0.75
40
1
40
1
40
1
40
1
41
1
10
30.9564761477706
20
20.5703612448879
30
0
41
1
10
30.7598970610115
20
20.5005637886372
30
0
41
1
10
30.5551862438047
20
20.4418677786029
30
0
41
1
10
30.1292713314316
20
20.3469923974434
30
0
41
1
10
29.90766950248
20
20.3107601777629
30
0
41
1
10
29.4483002227233
20
20.2628219138377
30
0
41
1
10
29.2152457199356
20
20.2515715006208
30
0
41
1
10
28.7423836462503
20
20.2545584688744
30
0
41
1
10
28.5025780426828
20
20.2687884251418
30
0
41
1
10
28.2591641175671
20
20.2966371036386
30
0
0
SPLINE
5
1C9
100
AcDbEntity
8
1
62
256
6
ByLayer
370
18
48
1
60
0
100
AcDbSpline
70
4
71
3
72
12
73
8
40
0
40
0
40
0
40
0
40
0.25
40
0.25
40
0.5
40
0.5
40
1
40
1
40
1
40
1
41
1
10
27.6993918946797
20
14.4370667915222
30
0
41
1
10
27.7117624778208
20
14.3500959018822
30
0
41
1
10
27.7297736394926
20
14.2641738419929
30
0
41
1
10
27.7768370987986
20
14.0943715499959
30
0
41
1
10
27.8061657525487
20
14.0099530862656
30
0
41
1
10
27.908107599948
20
13.7663268076718
30
0
41
1
10
27.9945164029134
20
13.6150539198358
30
0
41
1
10
28.0978040489233
20
13.4753975608063
30
0
0
SPLINE
5
1CA
100
AcDbEntity
8
1
62
256
6
ByLayer
370
18
48
1
60
0
100
AcDbSpline
70
4
71
3
72
12
73
8
40
0
40
0
40
0
40
0
40
0.499999999999999
40
0.499999999999999
40
0.749999999999999
40
0.749999999999999
40
1
40
1
40
1
40
1
41
1
10
37.0456949193187
20
15.6592628309867
30
0
41
1
10
36.7345256392924
20
15.8944038039282
30
0
41
1
10
36.404086552036
20
16.1036408094131
30
0
41
1
10
35.8811233480194
20
16.3807913955106
30
0
41
1
10
35.7021763677827
20
16.4669564146803
30
0
41
1
10
35.3347200007187
20
16.6264319254066
30
0
41
1
10
35.1483851190046
20
16.698779526756
30
0
41
1
10
34.9603501834919
20
16.7634608460652
30
0
0
SPLINE
5
1CB
100
AcDbEntity
8
1
62
256
6
ByLayer
370
18
48
1
60
0
100
AcDbSpline
70
4
71
3
72
14
73
10
40
0
40
0
40
0
40
0
40
0.249999999999997
40
0.249999999999997
40
0.374999999999999
40
0.374999999999999
40
0.500000000000001
40
0.500000000000001
40
1
40
1
40
1
40
1
41
1
10
34.052320447073
20
23.1605086630617
30
0
41
1
10
33.8276463204093
20
23.1674473047561
30
0
41
1
10
33.6030303470081
20
23.1598920769954
30
0
41
1
10
33.2661955377198
20
23.1263396694435
30
0
41
1
10
33.1535786310305
20
23.1113341469909
30
0
41
1
10
32.9317321358313
20
23.0742303246335
30
0
41
1
10
32.8221797245057
20
23.052099644841
30
0
41
1
10
32.2810370246306
20
22.9241654468201
30
0
41
1
10
31.8691235143936
20
22.7669928205641
30
0
41
1
10
31.4794114200214
20
22.5518601506555
30
0
0
SPLINE
5
1CC
100
AcDbEntity
8
1
62
256
6
ByLayer
370
18
48
1
60
0
100
AcDbSpline
70
4
71
3
72
22
73
18
40
0
40
0
40
0
40
0
40
0.125
40
0.125
40
0.25
40
0.25
40
0.375
40
0.375
40
0.5
40
0.5
40
0.625
40
0.625
40
0.75
40
0.75
40
0.875
40
0.875
40
1
40
1
40
1
40
1
41
1
10
35.6816980424241
20
8.39393371224077
30
0
41
1
10
35.7317742358898
20
8.33960917394216
30
0
41
1
10
35.7803579996964
20
8.28206001101248
30
0
41
1
10
35.8742745892925
20
8.15993753179421
30
0
41
1
10
35.9188880510012
20
8.09625419121289
30
0
41
1
10
36.0023443363945
20
7.96497087159042
30
0
41
1
10
36.0413558918077
20
7.89715853076626
30
0
41
1
10
36.11358829417
20
7.75690680069184
30
0
41
1
10
36.146961585461
20
7.68397732553547
30
0
41
1
10
36.2054341383151
20
7.53757495600286
30
0
41
1
10
36.2308022887759
20
7.46368263920655
30
0
41
1
10
36.2733694408403
20
7.31443839429772
30
0
41
1
10
36.2901971002927
20
7.24024972781561
30
0
41
1
10
36.3145401006456
20
7.09474081898472
30
0
41
1
10
36.3221521325094
20
7.0230975917917
30
0
41
1
10
36.3277454103193
20
6.88215833904218
30
0
41
1
10
36.3256326737932
20
6.81459237183392
30
0
41
1
10
36.3187973331617
20
6.75034894879323
30
0
0
SPLINE
5
1CD
100
AcDbEntity
8
1
62
256
6
ByLayer
370
18
48
1
60
0
100
AcDbSpline
70
4
71
3
72
12
73
8
40
0
40
0
40
0
40
0
40
0.249999999999998
40
0.249999999999998
40
0.499999999999997
40
0.499999999999997
40
1
40
1
40
1
40
1
41
1
10
35.2333909778605
20
-19.3793582269724
30
0
41
1
10
35.1948631907977
20
-19.4048563222945
30
0
41
1
10
35.1522170732992
20
-19.430869225801
30
0
41
1
10
35.0579668354387
20
-19.4825891507935
30
0
41
1
10
35.0060729224659
20
-19.5084340656711
30
0
41
1
10
34.8366933961216
20
-19.5821969055926
30
0
41
1
10
34.7076455761069
20
-19.6263148882565
30
0
41
1
10
34.554378005523
20
-19.6556672694997
30
0
0
SPLINE
5
1CE
100
AcDbEntity
8
1
62
256
6
ByLayer
370
18
48
1
60
0
100
AcDbSpline
70
4
71
3
72
8
73
4
40
0
40
0
40
0
40
0
40
1
40
1
40
1
40
1
41
1
10
29.2492272221362
20
12.2557005616969
30
0
41
1
10
29.2502735925977
20
12.2527562502281
30
0
41
1
10
29.2513413552431
20
12.2498868298185
30
0
41
1
10
29.2524314040679
20
12.2470954302214
30
0
0
SPLINE
5
1CF
100
AcDbEntity
8
1
62
256
6
ByLayer
370
18
48
1
60
0
100
AcDbSpline
70
4
71
3
72
8
73
4
40
0
40
0
40
0
40
0
40
1
40
1
40
1
40
1
41
1
10
31.4794114200213
20
-6.36197318131053
30
0
41
1
10
31.3735573843612
20
-6.32553829103389
30
0
41
1
10
31.2698321874894
20
-6.28749095565598
30
0
41
1
10
31.1683222152631
20
-6.24776574398794
30
0
0
SPLINE
5
1D0
100
AcDbEntity
8
1
62
256
6
ByLayer
370
18
48
1
60
0
100
AcDbSpline
70
4
71
3
72
26
73
22
40
0
40
0
40
0
40
0
40
0.125000000000001
40
0.125000000000001
40
0.250000000000002
40
0.250000000000002
40
0.375000000000004
40
0.375000000000004
40
0.437500000000003
40
0.437500000000003
40
0.500000000000003
40
0.500000000000003
40
0.625000000000002
40
0.625000000000002
40
0.75
40
0.75
40
0.812499999999999
40
0.812499999999999
40
0.874999999999997
40
0.874999999999997
40
1
40
1
40
1
40
1
41
1
10
27.9043408502215
20
14.9652519152518
30
0
41
1
10
27.9358843019976
20
15.0364171991186
30
0
41
1
10
27.9741124177735
20
15.1023679646346
30
0
41
1
10
28.0636595377973
20
15.2242376505604
30
0
41
1
10
28.1155135683956
20
15.2804092366717
30
0
41
1
10
28.2281391494201
20
15.3779546614452
30
0
41
1
10
28.2892733477202
20
15.4200110161791
30
0
41
1
10
28.3882923276072
20
15.4730208360964
30
0
41
1
10
28.4226770440357
20
15.4890412962973
30
0
41
1
10
28.4925282467466
20
15.5170251611033
30
0
41
1
10
28.5281283695628
20
15.5290785998912
30
0
41
1
10
28.6369116805525
20
15.5595682166448
30
0
41
1
10
28.7120598704651
20
15.5723877142945
30
0
41
1
10
28.8678216492298
20
15.5824801611158
30
0
41
1
10
28.946227050962
20
15.5795829216292
30
0
41
1
10
29.0639829776665
20
15.5637707110975
30
0
41
1
10
29.1032935663553
20
15.5565772103566
30
0
41
1
10
29.1820302321705
20
15.538259242056
30
0
41
1
10
29.221643457147
20
15.5270606717269
30
0
41
1
10
29.3384573562355
20
15.4880645334102
30
0
41
1
10
29.4141040876863
20
15.4548924512908
30
0
41
1
10
29.4874841567794
20
15.4145271521375
30
0
0
SPLINE
5
1D1
100
AcDbEntity
8
1
62
256
6
ByLayer
370
18
48
1
60
0
100
AcDbSpline
70
4
71
3
72
17
73
13
40
0
40
0
40
0
40
0
40
0.249999999999989
40
0.249999999999989
40
0.499999999999978
40
0.499999999999978
40
0.624999999999984
40
0.624999999999984
40
0.749999999999989
40
0.874999999999995
40
0.874999999999995
40
1
40
1
40
1
40
1
41
1
10
34.0021823900737
20
21.2564344704117
30
0
41
1
10
34.0772926394154
20
21.2404653214127
30
0
41
1
10
34.1556745574954
20
21.2273986074644
30
0
41
1
10
34.3150652207322
20
21.2079569651515
30
0
41
1
10
34.3942535208829
20
21.2017448150156
30
0
41
1
10
34.5122853412679
20
21.1976481378703
30
0
41
1
10
34.5517534834496
20
21.1971710466158
30
0
41
1
10
34.6286007241874
20
21.1980401367743
30
0
41
1
10
34.7036043114416
20
21.2006991197132
30
0
41
1
10
34.7749942357176
20
21.206870709873
30
0
41
1
10
34.8445355064733
20
21.2148409105952
30
0
41
1
10
34.878452719163
20
21.2197541979407
30
0
41
1
10
34.9104970291926
20
21.2254387926177
30
0
0
SPLINE
5
1D2
100
AcDbEntity
8
1
62
256
6
ByLayer
370
18
48
1
60
0
100
AcDbSpline
70
4
71
3
72
14
73
10
40
0
40
0
40
0
40
0
40
0.25
40
0.25
40
0.5
40
0.5
40
0.75
40
0.75
40
1
40
1
40
1
40
1
41
1
10
38.0519802881974
20
-13.1343651609441
30
0
41
1
10
38.1846048203944
20
-13.3325788750962
30
0
41
1
10
38.2998066871118
20
-13.5373540683116
30
0
41
1
10
38.5035361419807
20
-13.9568900733661
30
0
41
1
10
38.5919774499101
20
-14.1716824756726
30
0
41
1
10
38.7460821126303
20
-14.6097560076574
30
0
41
1
10
38.811746423728
20
-14.8334711497812
30
0
41
1
10
38.9218968249791
20
-15.286939982191
30
0
41
1
10
38.9659318979778
20
-15.5146813510885
30
0
41
1
10
39
20
-15.7433116661316
30
0
0
SPLINE
5
1D3
100
AcDbEntity
8
1
62
256
6
ByLayer
370
18
48
1
60
0
100
AcDbSpline
70
4
71
3
72
8
73
4
40
0
40
0
40
0
40
0
40
1
40
1
40
1
40
1
41
1
10
36.8741804714751
20
-8.04404644001397
30
0
41
1
10
36.9110803635059
20
-8.0972401240505
30
0
41
1
10
36.9480069471951
20
-8.15043236795523
30
0
41
1
10
36.9849580943895
20
-8.20362328655133
30
0
0
SPLINE
5
1D4
100
AcDbEntity
8
1
62
256
6
ByLayer
370
18
48
1
60
0
100
AcDbSpline
70
4
71
3
72
19
73
15
40
0
40
0
40
0
40
0
40
0.125
40
0.125
40
0.25
40
0.374999999999999
40
0.374999999999999
40
0.499999999999999
40
0.499999999999999
40
0.624999999999999
40
0.624999999999999
40
0.749999999999999
40
0.749999999999999
40
1
40
1
40
1
40
1
41
1
10
27.6993918946795
20
-7.2909264860686
30
0
41
1
10
27.6795998919662
20
-7.21152214501066
30
0
41
1
10
27.6650742272624
20
-7.12969688854264
30
0
41
1
10
27.6475527973395
20
-6.9662546999364
30
0
41
1
10
27.6412867272476
20
-6.80267313366394
30
0
41
1
10
27.6570669536901
20
-6.63880966622298
30
0
41
1
10
27.6842057647415
20
-6.47481226420595
30
0
41
1
10
27.703448167882
20
-6.39328768225451
30
0
41
1
10
27.7521922316716
20
-6.23470891032295
30
0
41
1
10
27.7817727585422
20
-6.15712410773793
30
0
41
1
10
27.851352754545
20
-6.00539967840436
30
0
41
1
10
27.8916322565536
20
-5.93082722133519
30
0
41
1
10
28.0268951931604
20
-5.71573109380353
30
0
41
1
10
28.13442662542
20
-5.58573208362606
30
0
41
1
10
28.2591641175678
20
-5.46921093319656
30
0
0
SPLINE
5
1D5
100
AcDbEntity
8
1
62
256
6
ByLayer
370
18
48
1
60
0
100
AcDbSpline
70
4
71
3
72
8
73
4
40
0
40
0
40
0
40
0
40
1
40
1
40
1
40
1
41
1
10
37.4256554653551
20
2.08631639044498
30
0
41
1
10
37.5859960063307
20
1.89957905109725
30
0
41
1
10
37.7483892379999
20
1.71246913994315
30
0
41
1
10
37.9123009288116
20
1.52508362220715
30
0
0
SPLINE
5
1D6
100
AcDbEntity
8
1
62
256
6
ByLayer
370
18
48
1
60
0
100
AcDbSpline
70
4
71
3
72
33
73
29
40
0
40
0
40
0
40
0
40
0.0625000000000015
40
0.0625000000000015
40
0.125000000000003
40
0.125000000000003
40
0.187500000000004
40
0.187500000000004
40
0.250000000000006
40
0.250000000000006
40
0.375000000000006
40
0.375000000000006
40
0.437500000000006
40
0.437500000000006
40
0.500000000000005
40
0.562500000000004
40
0.562500000000004
40
0.625000000000003
40
0.625000000000003
40
0.687500000000002
40
0.687500000000002
40
0.750000000000001
40
0.750000000000001
40
0.875000000000001
40
0.875000000000001
40
0.937500000000001
40
0.937500000000001
40
1
40
1
40
1
40
1
41
1
10
28.2591641175678
20
-21.2929431627861
30
0
41
1
10
28.312833733174
20
-21.2789570444897
30
0
41
1
10
28.3699071332102
20
-21.2663432332584
30
0
41
1
10
28.48955032024
20
-21.2449859440669
30
0
41
1
10
28.551400757925
20
-21.2363546631234
30
0
41
1
10
28.6789971587016
20
-21.2236868852448
30
0
41
1
10
28.7447430861715
20
-21.2196487391767
30
0
41
1
10
28.8801418234037
20
-21.2167775864272
30
0
41
1
10
28.9502056001949
20
-21.217969120837
30
0
41
1
10
29.1636932124385
20
-21.2303460138704
30
0
41
1
10
29.3074363378041
20
-21.2499767927598
30
0
41
1
10
29.5248598374464
20
-21.2976229856769
30
0
41
1
10
29.5981871758315
20
-21.3167392167447
30
0
41
1
10
29.7417630804227
20
-21.3602463669917
30
0
41
1
10
29.8826558251118
20
-21.4090113391377
30
0
41
1
10
30.0184248414214
20
-21.4677171899557
30
0
41
1
10
30.151682070228
20
-21.5311998793178
30
0
41
1
10
30.2166070855091
20
-21.5651537474225
30
0
41
1
10
30.3407098533388
20
-21.6355837004478
30
0
41
1
10
30.4002953610073
20
-21.6722513237391
30
0
41
1
10
30.5148143172016
20
-21.7479825369761
30
0
41
1
10
30.5700158285729
20
-21.7872554134066
30
0
41
1
10
30.7268691692747
20
-21.9064612013225
30
0
41
1
10
30.8186699985257
20
-21.9866959314924
30
0
41
1
10
30.9396688197314
20
-22.104947962202
30
0
41
1
10
30.9773532390096
20
-22.1442192338966
30
0
41
1
10
31.0457332882689
20
-22.219860297377
30
0
41
1
10
31.0766042431902
20
-22.256376969299
30
0
41
1
10
31.1043758984424
20
-22.2913978647207
30
0
0
SPLINE
5
1D7
100
AcDbEntity
8
1
62
256
6
ByLayer
370
18
48
1
60
0
100
AcDbSpline
70
4
71
3
72
8
73
4
40
0
40
0
40
0
40
0
40
1
40
1
40
1
40
1
41
1
10
38.0519802881974
20
3.82744560476667
30
0
41
1
10
38.1292821035586
20
3.87537823075957
30
0
41
1
10
38.2022754219026
20
3.92396003989185
30
0
41
1
10
38.2710893200632
20
3.97317158350111
30
0
0
SPLINE
5
1D8
100
AcDbEntity
8
1
62
256
6
ByLayer
370
18
48
1
60
0
100
AcDbSpline
70
4
71
3
72
16
73
12
40
0
40
0
40
0
40
0
40
0.25
40
0.25
40
0.5
40
0.5
40
0.625000000000001
40
0.625000000000001
40
0.750000000000002
40
0.750000000000002
40
1
40
1
40
1
40
1
41
1
10
34.0523204470727
20
16.92818576484
30
0
41
1
10
34.1288570016877
20
16.946062377497
30
0
41
1
10
34.2077796672879
20
16.9559221028006
30
0
41
1
10
34.3668026058663
20
16.9593224709289
30
0
41
1
10
34.448250553649
20
16.9526769764036
30
0
41
1
10
34.5658811605543
20
16.930927142663
30
0
41
1
10
34.604561709441
20
16.9217351839582
30
0
41
1
10
34.6808684936832
20
16.8995042022594
30
0
41
1
10
34.7187369472578
20
16.8863601881756
30
0
41
1
10
34.8286843050236
20
16.8418453550791
30
0
41
1
10
34.8969523015049
20
16.8056860953422
30
0
41
1
10
34.9603501834941
20
16.7634608460704
30
0
0
SPLINE
5
1D9
100
AcDbEntity
8
1
62
256
6
ByLayer
370
18
48
1
60
0
100
AcDbSpline
70
4
71
3
72
8
73
4
40
0
40
0
40
0
40
0
40
1
40
1
40
1
40
1
41
1
10
37.425655465355
20
-11.168129797653
30
0
41
1
10
37.58599855775
20
-11.7258213802085
30
0
41
1
10
37.7483915984057
20
-12.2830474789358
30
0
41
1
10
37.9123009288116
20
-12.8399292722136
30
0
0
SPLINE
5
1DA
100
AcDbEntity
8
1
62
256
6
ByLayer
370
18
48
1
60
0
100
AcDbSpline
70
4
71
3
72
8
73
4
40
0
40
0
40
0
40
0
40
1
40
1
40
1
40
1
41
1
10
38.0519802881974
20
-11.5761800590554
30
0
41
1
10
38.1292821035585
20
-11.627428091363
30
0
41
1
10
38.2022754219026
20
-11.6803266855068
30
0
41
1
10
38.2710893200632
20
-11.7348263928521
30
0
0
SPLINE
5
1DB
100
AcDbEntity
8
1
62
256
6
ByLayer
370
18
48
1
60
0
100
AcDbSpline
70
4
71
3
72
8
73
4
40
0
40
0
40
0
40
0
40
1
40
1
40
1
40
1
41
1
10
31.1683222152631
20
-6.24776574398791
30
0
41
1
10
31.147125521831
20
-6.23947056751624
30
0
41
1
10
31.1258101027635
20
-6.23123568328765
30
0
41
1
10
31.1043758984424
20
-6.22306112157793
30
0
0
SPLINE
5
1DC
100
AcDbEntity
8
1
62
256
6
ByLayer
370
18
48
1
60
0
100
AcDbSpline
70
4
71
3
72
12
73
8
40
0
40
0
40
0
40
0
40
0.499999999999994
40
0.499999999999994
40
0.749999999999997
40
0.749999999999997
40
1
40
1
40
1
40
1
41
1
10
28.9060580541918
20
11.0232402817684
30
0
41
1
10
28.8365050046815
20
10.9641895575216
30
0
41
1
10
28.7689484613199
20
10.9004386287365
30
0
41
1
10
28.6707176681657
20
10.7975047009562
30
0
41
1
10
28.6384939190593
20
10.7619695563448
30
0
41
1
10
28.5751402693855
20
10.688324112585
30
0
41
1
10
28.5439573129736
20
10.6501249399333
30
0
41
1
10
28.5139295786673
20
10.6113107083559
30
0
0
SPLINE
5
1DD
100
AcDbEntity
8
1
62
256
6
ByLayer
370
18
48
1
60
0
100
AcDbSpline
70
4
71
3
72
12
73
8
40
0
40
0
40
0
40
0
40
0.500000000000005
40
0.500000000000005
40
0.750000000000002
40
0.750000000000002
40
1
40
1
40
1
40
1
41
1
10
37.0456949193187
20
-22.403491718154
30
0
41
1
10
36.7345256392923
20
-22.6018872807336
30
0
41
1
10
36.4040865520359
20
-22.759856237096
30
0
41
1
10
35.8811233480193
20
-22.9395267308837
30
0
41
1
10
35.7021763677827
20
-22.9897120795502
30
0
41
1
10
35.3347200007186
20
-23.0700215670787
30
0
41
1
10
35.1483851190046
20
-23.0996455000138
30
0
41
1
10
34.9603501834918
20
-23.1186933424283
30
0
0
SPLINE
5
1DE
100
AcDbEntity
8
1
62
256
6
ByLayer
370
18
48
1
60
0
100
AcDbSpline
70
4
71
3
72
14
73
10
40
0
40
0
40
0
40
0
40
0.249999999999994
40
0.249999999999994
40
0.374999999999991
40
0.374999999999991
40
0.499999999999988
40
0.499999999999988
40
1
40
1
40
1
40
1
41
1
10
34.052320447073
20
16.928185764838
30
0
41
1
10
33.8276463204092
20
16.9092507703573
30
0
41
1
10
33.603030347008
20
16.8793383316028
30
0
41
1
10
33.2661955377196
20
16.8176408999454
30
0
41
1
10
33.1535786310302
20
16.7941427112903
30
0
41
1
10
32.931732135831
20
16.7421360549585
30
0
41
1
10
32.8221797245053
20
16.7135682872367
30
0
41
1
10
32.2810370246302
20
16.5583465400229
30
0
41
1
10
31.8691235143917
20
16.3948829796958
30
0
41
1
10
31.4794114200196
20
16.1898869693441
30
0
0
SPLINE
5
1DF
100
AcDbEntity
8
1
62
256
6
ByLayer
370
18
48
1
60
0
100
AcDbSpline
70
4
71
3
72
8
73
4
40
0
40
0
40
0
40
0
40
1
40
1
40
1
40
1
41
1
10
36.8741804714752
20
8.04404644001389
30
0
41
1
10
36.9110803660362
20
8.09724012769789
30
0
41
1
10
36.9480069496597
20
8.15043237150286
30
0
41
1
10
36.9849580943896
20
8.20362328655125
30
0
0
SPLINE
5
1E0
100
AcDbEntity
8
1
62
256
6
ByLayer
370
18
48
1
60
0
100
AcDbSpline
70
4
71
3
72
9
73
5
40
0
40
0
40
0
40
0
40
0.5
40
1
40
1
40
1
40
1
41
1
10
28.0842348367989
20
-9.48156600213869
30
0
41
1
10
28.0805663552655
20
-9.49047122583275
30
0
41
1
10
28.0733422750167
20
-9.50832507678246
30
0
41
1
10
28.0663456817137
20
-9.52626639670035
30
0
41
1
10
28.0629047562936
20
-9.53525911595776
30
0
0
SPLINE
5
1E1
100
AcDbEntity
8
1
62
256
6
ByLayer
370
18
48
1
60
0
100
AcDbSpline
70
4
71
3
72
9
73
5
40
0
40
0
40
0
40
0
40
0.5
40
1
40
1
40
1
40
1
41
1
10
28.084234836799
20
11.7120381709123
30
0
41
1
10
28.0805663552655
20
11.7068237921441
30
0
41
1
10
28.0733422750168
20
11.6962378173284
30
0
41
1
10
28.0663456817138
20
11.6853350106051
30
0
41
1
10
28.0629047562937
20
11.6798037035959
30
0
0
SPLINE
5
1E2
100
AcDbEntity
8
1
62
256
6
ByLayer
370
18
48
1
60
0
100
AcDbSpline
70
4
71
3
72
10
73
6
40
0
40
0
40
0
40
0
40
0.5
40
0.5
40
1
40
1
40
1
40
1
41
1
10
39.0000000000001
20
5.04772565379417
30
0
41
1
10
38.9357871353461
20
5.26896910831195
30
0
41
1
10
38.8386010837506
20
5.48560244774848
30
0
41
1
10
38.5818262201924
20
5.91014434344578
30
0
41
1
10
38.4222136464617
20
6.11804957747734
30
0
41
1
10
38.2289588953793
20
6.32125116216343
30
0
0
SPLINE
5
1E3
100
AcDbEntity
8
1
62
256
6
ByLayer
370
18
48
1
60
0
100
AcDbSpline
70
4
71
3
72
20
73
16
40
0
40
0
40
0
40
0
40
0.250000000000001
40
0.250000000000001
40
0.375000000000001
40
0.375000000000001
40
0.437500000000001
40
0.437500000000001
40
0.500000000000001
40
0.500000000000001
40
0.750000000000001
40
0.750000000000001
40
0.875
40
0.875
40
1
40
1
40
1
40
1
41
1
10
24.820316670091
20
3.53051321971179
30
0
41
1
10
24.2342598008378
20
3.70033836118563
30
0
41
1
10
23.6744057861416
20
3.92221379256634
30
0
41
1
10
22.8711303640435
20
4.3261762022606
30
0
41
1
10
22.609496953643
20
4.47276513526759
30
0
41
1
10
22.2261911275071
20
4.71024709662819
30
0
41
1
10
22.0999483911272
20
4.79234410535369
30
0
41
1
10
21.8505281726695
20
4.9623965923366
30
0
41
1
10
21.72724162037
20
5.05045538364513
30
0
41
1
10
21.1245057108072
20
5.50073882778295
30
0
41
1
10
20.6810079484946
20
5.89596378007954
30
0
41
1
10
20.0682151705415
20
6.53340282022251
30
0
41
1
10
19.8727315491313
20
6.75335173956438
30
0
41
1
10
19.4987436998356
20
7.20718206627001
30
0
41
1
10
19.3201535303026
20
7.44128816794156
30
0
41
1
10
19.1514033835436
20
7.6795047251413
30
0
0
SPLINE
5
1E4
100
AcDbEntity
8
1
62
256
6
ByLayer
370
18
48
1
60
0
100
AcDbSpline
70
4
71
3
72
27
73
23
40
0
40
0
40
0
40
0
40
0.0624999999999954
40
0.0624999999999954
40
0.124999999999991
40
0.124999999999991
40
0.249999999999985
40
0.249999999999985
40
0.312499999999985
40
0.312499999999985
40
0.374999999999984
40
0.437499999999984
40
0.437499999999984
40
0.499999999999984
40
0.499999999999984
40
0.624999999999988
40
0.624999999999988
40
0.749999999999992
40
0.749999999999992
40
0.874999999999996
40
0.874999999999996
40
1
40
1
40
1
40
1
41
1
10
28.4712120119305
20
13.2238584181134
30
0
41
1
10
28.4377655264539
20
13.2434719887057
30
0
41
1
10
28.404845502015
20
13.2648838117999
30
0
41
1
10
28.3400591146398
20
13.3114714946567
30
0
41
1
10
28.3082059923009
20
13.3366740390726
30
0
41
1
10
28.21647075301
20
13.4162440059558
30
0
41
1
10
28.1595857899444
20
13.4750622786191
30
0
41
1
10
28.0807445225072
20
13.5721265281685
30
0
41
1
10
28.0554973505517
20
13.6060902803307
30
0
41
1
10
28.0084850698755
20
13.6752765838967
30
0
41
1
10
27.9646099879611
20
13.7461073781803
30
0
41
1
10
27.9268553115667
20
13.8201492791344
30
0
41
1
10
27.8921883059957
20
13.8958132272897
30
0
41
1
10
27.8763139660707
20
13.9347073922376
30
0
41
1
10
27.8342303892557
20
14.0518582837111
30
0
41
1
10
27.813496478909
20
14.1302576267174
30
0
41
1
10
27.7859620124148
20
14.2877724977425
30
0
41
1
10
27.7792511511869
20
14.36778633364
30
0
41
1
10
27.7804894322394
20
14.5225120520925
30
0
41
1
10
27.7882000571214
20
14.5975934815367
30
0
41
1
10
27.8175533324053
20
14.7434648324383
30
0
41
1
10
27.8395013018891
20
14.8145638821095
30
0
41
1
10
27.8675585889939
20
14.8805848714959
30
0
0
SPLINE
5
1E5
100
AcDbEntity
8
1
62
256
6
ByLayer
370
18
48
1
60
0
100
AcDbSpline
70
4
71
3
72
8
73
4
40
0
40
0
40
0
40
0
40
1
40
1
40
1
40
1
41
1
10
31.4794114200214
20
22.5518601506555
30
0
41
1
10
31.3735573843613
20
22.4848813163681
30
0
41
1
10
31.2698321874894
20
22.4137214226482
30
0
41
1
10
31.1683222152631
20
22.3382108068579
30
0
0
SPLINE
5
1E6
100
AcDbEntity
8
1
62
256
6
ByLayer
370
18
48
1
60
0
100
AcDbSpline
70
4
71
3
72
8
73
4
40
0
40
0
40
0
40
0
40
1
40
1
40
1
40
1
41
1
10
35.6403707909897
20
8.39377337936571
30
0
41
1
10
35.6541484756646
20
8.39380980696589
30
0
41
1
10
35.6679242314476
20
8.39386320458561
30
0
41
1
10
35.6816980424241
20
8.39393371224048
30
0
0
SPLINE
5
1E7
100
AcDbEntity
8
1
62
256
6
ByLayer
370
18
48
1
60
0
100
AcDbSpline
70
4
71
3
72
34
73
30
40
0
40
0
40
0
40
0
40
0.0624999999999994
40
0.0624999999999994
40
0.124999999999999
40
0.124999999999999
40
0.187499999999998
40
0.187499999999998
40
0.249999999999998
40
0.249999999999998
40
0.374999999999997
40
0.374999999999997
40
0.437499999999997
40
0.437499999999997
40
0.499999999999997
40
0.499999999999997
40
0.562499999999997
40
0.562499999999997
40
0.624999999999997
40
0.624999999999997
40
0.687499999999997
40
0.687499999999997
40
0.749999999999997
40
0.749999999999997
40
0.874999999999998
40
0.874999999999998
40
0.937499999999999
40
0.937499999999999
40
1
40
1
40
1
40
1
41
1
10
28.2591641175686
20
-5.46921093319713
30
0
41
1
10
28.3130445982336
20
-5.418879509303
30
0
41
1
10
28.3705470359722
20
-5.37118342709616
30
0
41
1
10
28.4893207138204
20
-5.28414504601943
30
0
41
1
10
28.5508797075468
20
-5.24448062004845
30
0
41
1
10
28.6782539499086
20
-5.17293614549322
30
0
41
1
10
28.7440685967925
20
-5.14105448526064
30
0
41
1
10
28.88005320206
20
-5.08546792423948
30
0
41
1
10
28.9505630405041
20
-5.06173872580635
30
0
41
1
10
29.1624742343546
20
-5.00534975424702
30
0
41
1
10
29.3060292289824
20
-4.98636067371308
30
0
41
1
10
29.5245972825603
20
-4.98683293721561
30
0
41
1
10
29.5976705736243
20
-4.99195248744903
30
0
41
1
10
29.7405180421321
20
-5.01165655726777
30
0
41
1
10
29.8108297375296
20
-5.02623022747463
30
0
41
1
10
29.9492983300123
20
-5.06471932623649
30
0
41
1
10
30.0177642088595
20
-5.088770785657
30
0
41
1
10
30.1511623409391
20
-5.14590761659201
30
0
41
1
10
30.2153858273425
20
-5.17863537226523
30
0
41
1
10
30.3392576455665
20
-5.25199335498144
30
0
41
1
10
30.3989045901848
20
-5.29262543968755
30
0
41
1
10
30.5138215170648
20
-5.38172234437357
30
0
41
1
10
30.5692636147782
20
-5.43042586093159
30
0
41
1
10
30.7253768854272
20
-5.58456851118902
30
0
41
1
10
30.8173342503194
20
-5.69883338488606
30
0
41
1
10
30.938998395728
20
-5.8866696305561
30
0
41
1
10
30.9765599132617
20
-5.95171806575075
30
0
41
1
10
31.0451029182032
20
-6.08480009761465
30
0
41
1
10
31.0762469339817
20
-6.15308012795336
30
0
41
1
10
31.1043758984424
20
-6.22306112157793
30
0
0
SPLINE
5
1E8
100
AcDbEntity
8
1
62
256
6
ByLayer
370
18
48
1
60
0
100
AcDbSpline
70
4
71
3
72
32
73
28
40
0
40
0
40
0
40
0
40
0.125000000000003
40
0.125000000000003
40
0.187500000000003
40
0.187500000000003
40
0.250000000000004
40
0.250000000000004
40
0.375000000000005
40
0.375000000000005
40
0.437500000000004
40
0.437500000000004
40
0.500000000000003
40
0.500000000000003
40
0.625000000000002
40
0.625000000000002
40
0.687500000000002
40
0.687500000000002
40
0.750000000000001
40
0.750000000000001
40
0.812500000000001
40
0.812500000000001
40
0.875000000000001
40
0.875000000000001
40
0.9375
40
0.9375
40
1
40
1
40
1
40
1
41
1
10
28.2591641175679
20
21.2929431627859
30
0
41
1
10
28.3667811459077
20
21.2648985332119
30
0
41
1
10
28.4849951881056
20
21.2430035085936
30
0
41
1
10
28.6787135925833
20
21.223687332627
30
0
41
1
10
28.7454158282145
20
21.2196163290842
30
0
41
1
10
28.8808663191048
20
21.2167805560047
30
0
41
1
10
28.9499244063247
20
21.2179813638104
30
0
41
1
10
29.1610290429536
20
21.2301351185032
30
0
41
1
10
29.3086463377945
20
21.2502042043599
30
0
41
1
10
29.5252917292582
20
21.2977366402041
30
0
41
1
10
29.5971504258638
20
21.3164626474692
30
0
41
1
10
29.7401514595863
20
21.3597211024178
30
0
41
1
10
29.8118147894827
20
21.384472317211
30
0
41
1
10
30.0208760161085
20
21.4656937025946
30
0
41
1
10
30.152713891098
20
21.5289547667263
30
0
41
1
10
30.3401508697023
20
21.6352362074207
30
0
41
1
10
30.4005616187121
20
21.6724188490781
30
0
41
1
10
30.5150846889557
20
21.7481699240479
30
0
41
1
10
30.569584237782
20
21.7869547770884
30
0
41
1
10
30.6733989077017
20
21.8657977983224
30
0
41
1
10
30.72288526352
20
21.9060073934629
30
0
41
1
10
30.8160499582275
20
21.9865050026141
30
0
41
1
10
30.8592737776345
20
22.0263745086682
30
0
41
1
10
30.9395724584666
20
22.1048572527512
30
0
41
1
10
30.9766455808663
20
22.1434716903992
30
0
41
1
10
31.0449343180489
20
22.2189419991865
30
0
41
1
10
31.0762464866768
20
22.2559258275382
30
0
41
1
10
31.1043758984426
20
22.2913978647207
30
0
0
SPLINE
5
1E9
100
AcDbEntity
8
1
62
256
6
ByLayer
370
18
48
1
60
0
100
AcDbSpline
70
4
71
3
72
12
73
8
40
0
40
0
40
0
40
0
40
0.499999999999997
40
0.499999999999997
40
0.749999999999998
40
0.749999999999998
40
1
40
1
40
1
40
1
41
1
10
36.3187973331617
20
6.75034894879323
30
0
41
1
10
36.3067823911124
20
6.68225260613011
30
0
41
1
10
36.2891212575475
20
6.61884130930977
30
0
41
1
10
36.2541084947743
20
6.5307948943622
30
0
41
1
10
36.2409353946036
20
6.50252904618344
30
0
41
1
10
36.2122944122518
20
6.44957339806905
30
0
41
1
10
36.1967818887179
20
6.42473372578829
30
0
41
1
10
36.18012298965
20
6.40146946134348
30
0
0
SPLINE
5
1EA
100
AcDbEntity
8
1
62
256
6
ByLayer
370
18
48
1
60
0
100
AcDbSpline
70
4
71
3
72
8
73
4
40
0
40
0
40
0
40
0
40
1
40
1
40
1
40
1
41
1
10
31.1683222152631
20
22.3382108068579
30
0
41
1
10
31.1471151198572
20
22.3224354027463
30
0
41
1
10
31.1257995927904
20
22.3068312278652
30
0
41
1
10
31.1043758984425
20
22.2913978647206
30
0
0
SPLINE
5
1EB
100
AcDbEntity
8
1
62
256
6
ByLayer
370
18
48
1
60
0
100
AcDbSpline
70
4
71
3
72
36
73
32
40
0
40
0
40
0
40
0
40
0.0312500000000001
40
0.0312500000000001
40
0.0625000000000002
40
0.0625000000000002
40
0.0937500000000003
40
0.0937500000000003
40
0.125
40
0.125
40
0.187500000000001
40
0.187500000000001
40
0.250000000000001
40
0.250000000000001
40
0.375000000000001
40
0.375000000000001
40
0.5
40
0.5
40
0.625
40
0.625
40
0.75
40
0.75
40
0.8125
40
0.8125
40
0.875
40
0.875
40
0.9375
40
0.9375
40
0.96875
40
0.96875
40
1
40
1
40
1
40
1
41
1
10
28.2055608091741
20
9.84126958842452
30
0
41
1
10
28.2330643158522
20
9.87359479667046
30
0
41
1
10
28.2645468999402
20
9.90045795236222
30
0
41
1
10
28.3324500584852
20
9.94388940993136
30
0
41
1
10
28.3683735454966
20
9.96028541178373
30
0
41
1
10
28.4432163620451
20
9.98499536182464
30
0
41
1
10
28.4820041139501
20
9.99317972969118
30
0
41
1
10
28.5596628594528
20
10.0029536022143
30
0
41
1
10
28.5988559009509
20
10.0046349769601
30
0
41
1
10
28.7172720978197
20
10.002300719045
30
0
41
1
10
28.7973206360084
20
9.99100974193647
30
0
41
1
10
28.9588961235796
20
9.9553963186431
30
0
41
1
10
29.0402566003513
20
9.93098565423554
30
0
41
1
10
29.2823658432865
20
9.84478234807347
30
0
41
1
10
29.4429245859466
20
9.76982736432197
30
0
41
1
10
29.7584874290322
20
9.6019642808094
30
0
41
1
10
29.9141594467897
20
9.50859269333881
30
0
41
1
10
30.2221073901013
20
9.30665125912046
30
0
41
1
10
30.3744881776649
20
9.19800860650639
30
0
41
1
10
30.6745560409413
20
8.96193715996435
30
0
41
1
10
30.8207770161773
20
8.83586447680156
30
0
41
1
10
31.0305016547449
20
8.62650616165573
30
0
41
1
10
31.0987807614932
20
8.55328622231559
30
0
41
1
10
31.2305982154281
20
8.39685375771634
30
0
41
1
10
31.294660167709
20
8.3129147921897
30
0
41
1
10
31.4112566662827
20
8.13490968199071
30
0
41
1
10
31.4644833430509
20
8.04028927610273
30
0
41
1
10
31.5296828281542
20
7.8866393905279
30
0
41
1
10
31.5485087473718
20
7.83440644297914
30
0
41
1
10
31.5787304694907
20
7.7273431145392
30
0
41
1
10
31.5901734336665
20
7.67181638613576
30
0
41
1
10
31.5962472504783
20
7.61711913336751
30
0
0
SPLINE
5
1EC
100
AcDbEntity
8
1
62
256
6
ByLayer
370
18
48
1
60
0
100
AcDbSpline
70
4
71
3
72
14
73
10
40
0
40
0
40
0
40
0
40
0.25
40
0.25
40
0.5
40
0.5
40
0.75
40
0.75
40
1
40
1
40
1
40
1
41
1
10
38.0519802881974
20
1.40657581619229
30
0
41
1
10
38.1846048203944
20
1.31051493604488
30
0
41
1
10
38.2998066871118
20
1.20285734166671
30
0
41
1
10
38.5035361419807
20
0.969260247016422
30
0
41
1
10
38.5919774499101
20
0.843255391132629
30
0
41
1
10
38.7460821126303
20
0.57529820271435
30
0
41
1
10
38.8117464237281
20
0.433089257637533
30
0
41
1
10
38.9218968249791
20
0.134920887667192
30
0
41
1
10
38.9659318979778
20
-0.019700374532988
30
0
41
1
10
39
20
-0.179395811581316
30
0
0
SPLINE
5
1ED
100
AcDbEntity
8
1
62
256
6
ByLayer
370
18
48
1
60
0
100
AcDbSpline
70
4
71
3
72
20
73
16
40
0
40
0
40
0
40
0
40
0.124999999999999
40
0.124999999999999
40
0.249999999999999
40
0.249999999999999
40
0.374999999999998
40
0.374999999999998
40
0.499999999999997
40
0.499999999999997
40
0.624999999999997
40
0.624999999999997
40
0.749999999999996
40
0.749999999999996
40
1
40
1
40
1
40
1
41
1
10
38.4055306198158
20
-2.63250969557066
30
0
41
1
10
38.4282354157523
20
-2.67260649493312
30
0
41
1
10
38.45166233217
20
-2.70985826179657
30
0
41
1
10
38.4995726400032
20
-2.77561854786853
30
0
41
1
10
38.5241471430515
20
-2.80434969076967
30
0
41
1
10
38.5749625493059
20
-2.85064881491354
30
0
41
1
10
38.6012379648606
20
-2.86800343672965
30
0
41
1
10
38.6529840786122
20
-2.88591970944287
30
0
41
1
10
38.6791601312381
20
-2.88646376027484
30
0
41
1
10
38.7283548868761
20
-2.8690866834263
30
0
41
1
10
38.751821585571
20
-2.85121604007023
30
0
41
1
10
38.7950942663718
20
-2.79976971872904
30
0
41
1
10
38.8145677502995
20
-2.76689662761069
30
0
41
1
10
38.8679849684224
20
-2.65173775806287
30
0
41
1
10
38.8952577133799
20
-2.55803832262996
30
0
41
1
10
38.918159079363
20
-2.45584064324777
30
0
0
SPLINE
5
1EE
100
AcDbEntity
8
1
62
256
6
ByLayer
370
18
48
1
60
0
100
AcDbSpline
70
4
71
3
72
12
73
8
40
0
40
0
40
0
40
0
40
0.499999999999998
40
0.499999999999998
40
0.749999999999999
40
0.749999999999999
40
1
40
1
40
1
40
1
41
1
10
27.4381722656785
20
-21.8459851279716
30
0
41
1
10
27.4573980662901
20
-21.8266947827024
30
0
41
1
10
27.4899154260194
20
-21.8071419698393
30
0
41
1
10
27.5558970864859
20
-21.7775800454486
30
0
41
1
10
27.5807777163959
20
-21.7676874598941
30
0
41
1
10
27.6360447899963
20
-21.7478543651422
30
0
41
1
10
27.6665910551055
20
-21.7378673863531
30
0
41
1
10
27.6993918946794
20
-21.7279932775907
30
0
0
SPLINE
5
1EF
100
AcDbEntity
8
1
62
256
6
ByLayer
370
18
48
1
60
0
100
AcDbSpline
70
4
71
3
72
8
73
4
40
0
40
0
40
0
40
0
40
1
40
1
40
1
40
1
41
1
10
36.8808204998936
20
8.0240277947307
30
0
41
1
10
36.8711885931594
20
7.92182134284377
30
0
41
1
10
36.8643598656771
20
7.82294660949137
30
0
41
1
10
36.8604359249167
20
7.72747246900849
30
0
0
SPLINE
5
1F0
100
AcDbEntity
8
1
62
256
6
ByLayer
370
18
48
1
60
0
100
AcDbSpline
70
4
71
3
72
8
73
4
40
0
40
0
40
0
40
0
40
1
40
1
40
1
40
1
41
1
10
28.9139520714699
20
-7.52548857703252
30
0
41
1
10
28.9112548708434
20
-7.51898645823215
30
0
41
1
10
28.9085966013393
20
-7.51249218383361
30
0
41
1
10
28.9059769888546
20
-7.50600569860666
30
0
0
SPLINE
5
1F1
100
AcDbEntity
8
1
62
256
6
ByLayer
370
18
48
1
60
0
100
AcDbSpline
70
4
71
3
72
20
73
16
40
0
40
0
40
0
40
0
40
0.250000000000001
40
0.250000000000001
40
0.375000000000001
40
0.375000000000001
40
0.500000000000001
40
0.500000000000001
40
0.625000000000001
40
0.625000000000001
40
0.75
40
0.75
40
0.875
40
0.875
40
1
40
1
40
1
40
1
41
1
10
0.499999999999943
20
5.82749999999993
30
0
41
1
10
0.438846999912982
20
5.88865300008695
30
0
41
1
10
0.380692906376567
20
5.94680709362331
30
0
41
1
10
0.297547951543379
20
6.02995204845649
30
0
41
1
10
0.270336321225784
20
6.05716367877415
30
0
41
1
10
0.218582251471617
20
6.10891774852828
30
0
41
1
10
0.194037431187212
20
6.13346256881269
30
0
41
1
10
0.147770380686381
20
6.17972961931349
30
0
41
1
10
0.12604159161657
20
6.20145840838336
30
0
41
1
10
0.0859201813158847
20
6.24157981868402
30
0
41
1
10
0.067498770575412
20
6.26000122942449
30
0
41
1
10
0.0364241569914157
20
6.29107584300849
30
0
41
1
10
0.0234281591950207
20
6.30407184080485
30
0
41
1
10
0.0052292408745416
20
6.32227075912533
30
0
41
1
10
-7.7789524653E-06
20
6.32750777895234
30
0
41
1
10
3.359093057E-06
20
6.32749664090684
30
0
0
SPLINE
5
1F2
100
AcDbEntity
8
1
62
256
6
ByLayer
370
18
48
1
60
0
100
AcDbSpline
70
4
71
3
72
8
73
4
40
0
40
0
40
0
40
0
40
1
40
1
40
1
40
1
41
1
10
37.9907807334149
20
-11.5290036839779
30
0
41
1
10
37.9631932938997
20
-11.5786040661723
30
0
41
1
10
37.9348631623454
20
-11.6150012424684
30
0
41
1
10
37.9123009288058
20
-11.6354795093141
30
0
0
SPLINE
5
1F3
100
AcDbEntity
8
1
62
256
6
ByLayer
370
18
48
1
60
0
100
AcDbSpline
70
4
71
3
72
16
73
12
40
0
40
0
40
0
40
0
40
0.125
40
0.125
40
0.25
40
0.25
40
0.5
40
0.5
40
0.75
40
0.75
40
1
40
1
40
1
40
1
41
1
10
38.4055306198091
20
-19.7820610172897
30
0
41
1
10
38.3549275671751
20
-19.8218872842738
30
0
41
1
10
38.3003722331474
20
-19.8629992965857
30
0
41
1
10
38.184842547303
20
-19.9430356127189
30
0
41
1
10
38.1237989149654
20
-19.9821689995439
30
0
41
1
10
37.9311388522947
20
-20.09541423921
30
0
41
1
10
37.7900332155433
20
-20.165543387786
30
0
41
1
10
37.4810324954803
20
-20.2926035228337
30
0
41
1
10
37.3131330081536
20
-20.3495840944628
30
0
41
1
10
36.9464687310983
20
-20.4493972651216
30
0
41
1
10
36.7515864878723
20
-20.4911155422085
30
0
41
1
10
36.5441010605739
20
-20.5244851684828
30
0
0
SPLINE
5
1F4
100
AcDbEntity
8
1
62
256
6
ByLayer
370
18
48
1
60
0
100
AcDbSpline
70
4
71
3
72
9
73
5
40
0
40
0
40
0
40
0
40
0.5
40
1
40
1
40
1
40
1
41
1
10
37.9907807334149
20
3.78463198375189
30
0
41
1
10
37.9999966243457
20
3.79196557041971
30
0
41
1
10
38.0194123563525
20
3.8064347776355
30
0
41
1
10
38.0407929560063
20
3.82050866276504
30
0
41
1
10
38.0519802881975
20
3.82744560476667
30
0
0
SPLINE
5
1F5
100
AcDbEntity
8
1
62
256
6
ByLayer
370
18
48
1
60
0
100
AcDbSpline
70
4
71
3
72
20
73
16
40
0
40
0
40
0
40
0
40
0.125000000000002
40
0.125000000000002
40
0.250000000000004
40
0.250000000000004
40
0.375000000000005
40
0.375000000000005
40
0.500000000000007
40
0.500000000000007
40
0.625000000000008
40
0.625000000000008
40
0.750000000000008
40
0.750000000000008
40
1
40
1
40
1
40
1
41
1
10
38.4055306198158
20
-19.7820610172775
30
0
41
1
10
38.4282354157523
20
-19.7641915960125
30
0
41
1
10
38.45166233217
20
-19.7429911581298
30
0
41
1
10
38.4995726400032
20
-19.6926454184318
30
0
41
1
10
38.5241471430514
20
-19.6634697923726
30
0
41
1
10
38.5749625493058
20
-19.5943488576316
30
0
41
1
10
38.6012379648606
20
-19.554192461331
30
0
41
1
10
38.6529840786121
20
-19.464206110154
30
0
41
1
10
38.6791601312381
20
-19.4129739955652
30
0
41
1
10
38.728354886876
20
-19.3043523727519
30
0
41
1
10
38.7518215855709
20
-19.2461136482319
30
0
41
1
10
38.7950942663717
20
-19.1263217081193
30
0
41
1
10
38.8145677502994
20
-19.0658949842632
30
0
41
1
10
38.8679849684223
20
-18.8833870450134
30
0
41
1
10
38.8952577133798
20
-18.7668024264541
30
0
41
1
10
38.918159079363
20
-18.6531363299314
30
0
0
SPLINE
5
1F6
100
AcDbEntity
8
1
62
256
6
ByLayer
370
18
48
1
60
0
100
AcDbSpline
70
4
71
3
72
22
73
18
40
0
40
0
40
0
40
0
40
0.125
40
0.125
40
0.25
40
0.25
40
0.375
40
0.375
40
0.5
40
0.5
40
0.625
40
0.625
40
0.75
40
0.75
40
0.875
40
0.875
40
1
40
1
40
1
40
1
41
1
10
28.0330509716323
20
12.1854568124689
30
0
41
1
10
28.0399471729319
20
12.2502722476232
30
0
41
1
10
28.0518570681539
20
12.3125370233209
30
0
41
1
10
28.0845111757038
20
12.4269640648223
30
0
41
1
10
28.1052955041043
20
12.4798311862548
30
0
41
1
10
28.1557028147093
20
12.576946638021
30
0
41
1
10
28.1856093570906
20
12.6213413715689
30
0
41
1
10
28.2518004862298
20
12.6980904981498
30
0
41
1
10
28.2882808616501
20
12.7309685629489
30
0
41
1
10
28.3677012270397
20
12.7862351074006
30
0
41
1
10
28.4110141197438
20
12.8087452867777
30
0
41
1
10
28.5024889903342
20
12.842456635597
30
0
41
1
10
28.5500682561832
20
12.85356348144
30
0
41
1
10
28.6485747881692
20
12.86532720005
30
0
41
1
10
28.6995046032055
20
12.8659761170448
30
0
41
1
10
28.8045997805423
20
12.857174972872
30
0
41
1
10
28.8592529077025
20
12.8475609999848
30
0
41
1
10
28.91395207147
20
12.8332959303359
30
0
0
SPLINE
5
1F7
100
AcDbEntity
8
1
62
256
6
ByLayer
370
18
48
1
60
0
100
AcDbSpline
70
4
71
3
72
10
73
6
40
0
40
0
40
0
40
0
40
0.5
40
0.5
40
1
40
1
40
1
40
1
41
1
10
37.9907807334149
20
3.78463198375189
30
0
41
1
10
37.9771513416526
20
3.72207760977818
30
0
41
1
10
37.9632725655006
20
3.659859218896
30
0
41
1
10
37.9364362658562
20
3.53589142417371
30
0
41
1
10
37.9235180689578
20
3.47427974903522
30
0
41
1
10
37.9123009288115
20
3.41445077927597
30
0
0
SPLINE
5
1F8
100
AcDbEntity
8
1
62
256
6
ByLayer
370
18
48
1
60
0
100
AcDbSpline
70
4
71
3
72
18
73
14
40
0
40
0
40
0
40
0
40
0.250000000000006
40
0.250000000000006
40
0.375000000000006
40
0.375000000000006
40
0.500000000000007
40
0.500000000000007
40
0.750000000000003
40
0.750000000000003
40
0.875000000000002
40
0.875000000000002
40
1
40
1
40
1
40
1
41
1
10
32.8172079508713
20
-18.9921868870127
30
0
41
1
10
32.7080546512503
20
-18.8567889851403
30
0
41
1
10
32.6205367579493
20
-18.7147133650303
30
0
41
1
10
32.5124291389012
20
-18.4904977489374
30
0
41
1
10
32.4803833607506
20
-18.4138766422556
30
0
41
1
10
32.4238889442236
20
-18.2562617610252
30
0
41
1
10
32.399397070406
20
-18.1749490347009
30
0
41
1
10
32.338698488791
20
-17.9280551452627
30
0
41
1
10
32.3143388581926
20
-17.7583346987171
30
0
41
1
10
32.3052465066439
20
-17.4918523597189
30
0
41
1
10
32.3068808863083
20
-17.4008954910601
30
0
41
1
10
32.3212584434339
20
-17.2146391884334
30
0
41
1
10
32.3338416124091
20
-17.1215375103238
30
0
41
1
10
32.3522601646929
20
-17.0285771188879
30
0
0
SPLINE
5
1F9
100
AcDbEntity
8
1
62
256
6
ByLayer
370
18
48
1
60
0
100
AcDbSpline
70
4
71
3
72
8
73
4
40
0
40
0
40
0
40
0
40
1
40
1
40
1
40
1
41
1
10
28.9059769888546
20
20.3172636489394
30
0
41
1
10
28.9085966013394
20
20.3311075361387
30
0
41
1
10
28.9112548708435
20
20.3449478307728
30
0
41
1
10
28.91395207147
20
20.3587845073683
30
0
0
SPLINE
5
1FA
100
AcDbEntity
8
1
62
256
6
ByLayer
370
18
48
1
60
0
100
AcDbSpline
70
4
71
3
72
12
73
8
40
0
40
0
40
0
40
0
40
0.500000000000002
40
0.500000000000002
40
0.750000000000001
40
0.750000000000001
40
1
40
1
40
1
40
1
41
1
10
28.5139295786665
20
10.6113107083566
30
0
41
1
10
28.4283239106447
20
10.5006557322255
30
0
41
1
10
28.3564542083342
20
10.3774352836896
30
0
41
1
10
28.2782516274763
20
10.1834570999033
30
0
41
1
10
28.2568476636023
20
10.1170329732608
30
0
41
1
10
28.2236959647126
20
9.98064690103081
30
0
41
1
10
28.2120578968733
20
9.91066231696959
30
0
41
1
10
28.2055608091734
20
9.84126958842441
30
0
0
SPLINE
5
1FB
100
AcDbEntity
8
1
62
256
6
ByLayer
370
18
48
1
60
0
100
AcDbSpline
70
4
71
3
72
9
73
5
40
0
40
0
40
0
40
0
40
0.5
40
1
40
1
40
1
40
1
41
1
10
28.0629047562937
20
21.2150628195537
30
0
41
1
10
28.0663456817138
20
21.2116014073054
30
0
41
1
10
28.0733422750168
20
21.2045628941108
30
0
41
1
10
28.0805663552656
20
21.1972950179768
30
0
41
1
10
28.0842348367991
20
21.193604173051
30
0
0
SPLINE
5
1FC
100
AcDbEntity
8
1
62
256
6
ByLayer
370
18
48
1
60
0
100
AcDbSpline
70
4
71
3
72
40
73
36
40
0
40
0
40
0
40
0
40
0.125000000000003
40
0.125000000000003
40
0.187500000000004
40
0.187500000000004
40
0.250000000000006
40
0.250000000000006
40
0.375000000000008
40
0.375000000000008
40
0.437500000000009
40
0.437500000000009
40
0.50000000000001
40
0.50000000000001
40
0.562500000000011
40
0.562500000000011
40
0.59375000000001
40
0.59375000000001
40
0.625000000000009
40
0.625000000000009
40
0.656250000000008
40
0.656250000000008
40
0.687500000000008
40
0.687500000000008
40
0.718750000000007
40
0.718750000000007
40
0.750000000000006
40
0.750000000000006
40
0.812500000000005
40
0.812500000000005
40
0.875000000000003
40
0.875000000000003
40
0.937500000000002
40
0.937500000000002
40
1
40
1
40
1
40
1
41
1
10
31.4629465363282
20
0.93799747884384
30
0
41
1
10
31.4657752353645
20
0.640822647939984
30
0
41
1
10
31.4909203589289
20
0.345452865012646
30
0
41
1
10
31.5601362482985
20
-0.0952061466002476
30
0
41
1
10
31.5886884472171
20
-0.242236135846383
30
0
41
1
10
31.6565101504145
20
-0.532279877184379
30
0
41
1
10
31.6957110288723
20
-0.675237554032151
30
0
41
1
10
31.8304800191769
20
-1.09752190579025
30
0
41
1
10
31.9422703997068
20
-1.37061332090843
30
0
41
1
10
32.1596675916052
20
-1.76167355345373
30
0
41
1
10
32.2396600709559
20
-1.8870417296142
30
0
41
1
10
32.4185905324185
20
-2.123652330277
30
0
41
1
10
32.5186919163259
20
-2.23604782338478
30
0
41
1
10
32.7383133598416
20
-2.43316474210243
30
0
41
1
10
32.8578837537961
20
-2.51882001121163
30
0
41
1
10
33.0592416913326
20
-2.61822459963304
30
0
41
1
10
33.1295247300765
20
-2.64594776791577
30
0
41
1
10
33.2727717655275
20
-2.68727980114511
30
0
41
1
10
33.3467004496669
20
-2.70122779833812
30
0
41
1
10
33.497326378771
20
-2.71349964265625
30
0
41
1
10
33.5720867525275
20
-2.71173399005127
30
0
41
1
10
33.7205353140717
20
-2.69298662379194
30
0
41
1
10
33.794983635274
20
-2.6756805939433
30
0
41
1
10
33.9380831998882
20
-2.62761911009397
30
0
41
1
10
34.006877930631
20
-2.59705473166053
30
0
41
1
10
34.1396950898411
20
-2.52461989113522
30
0
41
1
10
34.2034720094442
20
-2.48276612861602
30
0
41
1
10
34.3832439599689
20
-2.34665117822468
30
0
41
1
10
34.490483003952
20
-2.24042687427905
30
0
41
1
10
34.6845192210161
20
-2.00813137454995
30
0
41
1
10
34.7692676662882
20
-1.88462175150656
30
0
41
1
10
34.9211622771679
20
-1.6270320932689
30
0
41
1
10
34.9881960365187
20
-1.49288479601506
30
0
41
1
10
35.1076246603249
20
-1.21579106789363
30
0
41
1
10
35.1590871124538
20
-1.07493434808944
30
0
41
1
10
35.203592850808
20
-0.93260197896285
30
0
0
SPLINE
5
1FD
100
AcDbEntity
8
1
62
256
6
ByLayer
370
18
48
1
60
0
100
AcDbSpline
70
4
71
3
72
8
73
4
40
0
40
0
40
0
40
0
40
1
40
1
40
1
40
1
41
1
10
39
20
-18.1833515455674
30
0
41
1
10
38.9768018974125
20
-18.3421695686884
30
0
41
1
10
38.949172026755
20
-18.4992101111067
30
0
41
1
10
38.918159079363
20
-18.6531363299314
30
0
0
SPLINE
5
1FE
100
AcDbEntity
8
1
62
256
6
ByLayer
370
18
48
1
60
0
100
AcDbSpline
70
4
71
3
72
8
73
4
40
0
40
0
40
0
40
0
40
1
40
1
40
1
40
1
41
1
10
39
20
-2.04906291934864
30
0
41
1
10
38.9768018974125
20
-2.18266780299288
30
0
41
1
10
38.949172026755
20
-2.3174449136398
30
0
41
1
10
38.9181590793631
20
-2.45584064324783
30
0
0
SPLINE
5
1FF
100
AcDbEntity
8
1
62
256
6
ByLayer
370
18
48
1
60
0
100
AcDbSpline
70
4
71
3
72
12
73
8
40
0
40
0
40
0
40
0
40
0.499999999999997
40
0.499999999999997
40
0.749999999999999
40
0.749999999999999
40
1
40
1
40
1
40
1
41
1
10
27.4381722656786
20
13.9080888037931
30
0
41
1
10
27.4573980662902
20
14.0043237842615
30
0
41
1
10
27.4899154260195
20
14.0961230541387
30
0
41
1
10
27.555897086486
20
14.228149584646
30
0
41
1
10
27.580777716396
20
14.2712070033115
30
0
41
1
10
27.6360447899965
20
14.3555239202599
30
0
41
1
10
27.6665910551057
20
14.3969701858491
30
0
41
1
10
27.6993918946796
20
14.4370667915223
30
0
0
SPLINE
5
200
100
AcDbEntity
8
1
62
256
6
ByLayer
370
18
48
1
60
0
100
AcDbSpline
70
4
71
3
72
12
73
8
40
0
40
0
40
0
40
0
40
0.499999999999994
40
0.499999999999994
40
0.749999999999997
40
0.749999999999997
40
1
40
1
40
1
40
1
41
1
10
36.5441010605739
20
19.8348826761967
30
0
41
1
10
36.3396650883249
20
19.8928444689094
30
0
41
1
10
36.1260036446346
20
19.9490478703061
30
0
41
1
10
35.7910408278907
20
20.0305948404635
30
0
41
1
10
35.6769679068519
20
20.0573161650746
30
0
41
1
10
35.4437292138889
20
20.1097881078318
30
0
41
1
10
35.3240519817795
20
20.1356429313717
30
0
41
1
10
35.203592850808
20
20.160582634369
30
0
0
SPLINE
5
201
100
AcDbEntity
8
1
62
256
6
ByLayer
370
18
48
1
60
0
100
AcDbSpline
70
4
71
3
72
10
73
6
40
0
40
0
40
0
40
0
40
0.5
40
0.5
40
1
40
1
40
1
40
1
41
1
10
28.0842348367991
20
-9.48156600213872
30
0
41
1
10
28.0643307802038
20
-9.41958166449223
30
0
41
1
10
28.0499435137572
20
-9.35270207699585
30
0
41
1
10
28.0328068204451
20
-9.21218163667729
30
0
41
1
10
28.0299274607593
20
-9.13770501005513
30
0
41
1
10
28.0330509716323
20
-9.06006061935213
30
0
0
SPLINE
5
202
100
AcDbEntity
8
1
62
256
6
ByLayer
370
18
48
1
60
0
100
AcDbSpline
70
4
71
3
72
12
73
8
40
0
40
0
40
0
40
0
40
0.5
40
0.5
40
0.75
40
0.75
40
1
40
1
40
1
40
1
41
1
10
36.5441010605739
20
-0.689602492286127
30
0
41
1
10
36.3396650883249
20
-0.770109194033779
30
0
41
1
10
36.1260036446346
20
-0.831326169567802
30
0
41
1
10
35.7910408278907
20
-0.892894653405108
30
0
41
1
10
35.6769679068519
20
-0.90836027931195
30
0
41
1
10
35.4437292138888
20
-0.9286427854382
30
0
41
1
10
35.3240519817795
20
-0.933447237508545
30
0
41
1
10
35.2035928508079
20
-0.93260197896285
30
0
0
SPLINE
5
203
100
AcDbEntity
8
1
62
256
6
ByLayer
370
18
48
1
60
0
100
AcDbSpline
70
4
71
3
72
14
73
10
40
0
40
0
40
0
40
0
40
0.250000000000003
40
0.250000000000003
40
0.375000000000002
40
0.375000000000002
40
0.500000000000002
40
0.500000000000002
40
1
40
1
40
1
40
1
41
1
10
38.2289588953794
20
14.8738690816716
30
0
41
1
10
38.1514857853115
20
14.9145851954453
30
0
41
1
10
38.0682086427135
20
14.9620143122349
30
0
41
1
10
37.9341398162665
20
15.0431602747513
30
0
41
1
10
37.8879290055652
20
15.0718864422415
30
0
41
1
10
37.7923214536524
20
15.1327671695734
30
0
41
1
10
37.7426889234284
20
15.1650789893403
30
0
41
1
10
37.4889937303075
20
15.3336859284919
30
0
41
1
10
37.2731442126092
20
15.4873864551611
30
0
41
1
10
37.0456949193187
20
15.6592628309867
30
0
0
SPLINE
5
204
100
AcDbEntity
8
1
62
256
6
ByLayer
370
18
48
1
60
0
100
AcDbSpline
70
4
71
3
72
10
73
6
40
0
40
0
40
0
40
0
40
0.5
40
0.5
40
1
40
1
40
1
40
1
41
1
10
28.0330509716323
20
21.245517431821
30
0
41
1
10
28.0299274607593
20
21.2486064030471
30
0
41
1
10
28.0328068204452
20
21.2456471881891
30
0
41
1
10
28.0499435137573
20
21.2282667497548
30
0
41
1
10
28.0643307802039
20
21.2137139208929
30
0
41
1
10
28.0842348367992
20
21.1936041730508
30
0
0
SPLINE
5
205
100
AcDbEntity
8
1
62
256
6
ByLayer
370
18
48
1
60
0
100
AcDbSpline
70
4
71
3
72
20
73
16
40
0
40
0
40
0
40
0
40
0.125
40
0.125
40
0.25
40
0.25
40
0.375000000000001
40
0.375000000000001
40
0.500000000000001
40
0.500000000000001
40
0.625000000000001
40
0.625000000000001
40
0.750000000000001
40
0.750000000000001
40
1
40
1
40
1
40
1
41
1
10
36.9849580943895
20
-8.20362328655136
30
0
41
1
10
36.9778476037259
20
-8.29464957155949
30
0
41
1
10
36.9741909602401
20
-8.39267354979773
30
0
41
1
10
36.9740780496789
20
-8.60294392192921
30
0
41
1
10
36.9776199922545
20
-8.71282912568176
30
0
41
1
10
36.9915165728308
20
-8.94165552398121
30
0
41
1
10
37.0018722295815
20
-9.06059829335922
30
0
41
1
10
37.0293107627181
20
-9.30764765664543
30
0
41
1
10
37.0465123947307
20
-9.43627589978161
30
0
41
1
10
37.0864704596125
20
-9.69538347408738
30
0
41
1
10
37.1092993384923
20
-9.82671152123888
30
0
41
1
10
37.1603266701946
20
-10.0929416191088
30
0
41
1
10
37.1886350400324
20
-10.2283282017922
30
0
41
1
10
37.28083953692
20
-10.6370727479029
30
0
41
1
10
37.3499545556335
20
-10.9048333904744
30
0
41
1
10
37.425655465355
20
-11.168129797653
30
0
0
SPLINE
5
206
100
AcDbEntity
8
1
62
256
6
ByLayer
370
18
48
1
60
0
100
AcDbSpline
70
4
71
3
72
26
73
22
40
0
40
0
40
0
40
0
40
0.125000000000002
40
0.125000000000002
40
0.250000000000005
40
0.250000000000005
40
0.375000000000007
40
0.375000000000007
40
0.437500000000008
40
0.437500000000008
40
0.500000000000008
40
0.500000000000008
40
0.625000000000006
40
0.625000000000006
40
0.687500000000005
40
0.687500000000005
40
0.750000000000004
40
0.750000000000004
40
0.875000000000002
40
0.875000000000002
40
1
40
1
40
1
40
1
41
1
10
19.1514033835437
20
12.1640101777668
30
0
41
1
10
19.0171206635691
20
12.082545022849
30
0
41
1
10
18.8962367947313
20
11.9838960356056
30
0
41
1
10
18.6784621377362
20
11.7595990524686
30
0
41
1
10
18.5810626719192
20
11.6325287258014
30
0
41
1
10
18.4160683061876
20
11.3668704939324
30
0
41
1
10
18.3472748591301
20
11.2274031813462
30
0
41
1
10
18.2623260279722
20
11.011034058523
30
0
41
1
10
18.2369910130547
20
10.9373994135625
30
0
41
1
10
18.1927967347781
20
10.7895852290624
30
0
41
1
10
18.1739526676308
20
10.7155705308117
30
0
41
1
10
18.1266024109752
20
10.493586713253
30
0
41
1
10
18.1071827341042
20
10.3457139170292
30
0
41
1
10
18.0958184970716
20
10.1249289187201
30
0
41
1
10
18.0950427984055
20
10.0512594077617
30
0
41
1
10
18.0995346871127
20
9.90663873842851
30
0
41
1
10
18.1047707125925
20
9.83544120331624
30
0
41
1
10
18.1293678565624
20
9.62500512717568
30
0
41
1
10
18.1575370268672
20
9.48894767992107
30
0
41
1
10
18.2390479224475
20
9.2237706677721
30
0
41
1
10
18.2926364815745
20
9.09463055502573
30
0
41
1
10
18.3589165525393
20
8.97075384514358
30
0
0
SPLINE
5
207
100
AcDbEntity
8
1
62
256
6
ByLayer
370
18
48
1
60
0
100
AcDbSpline
70
4
71
3
72
12
73
8
40
0
40
0
40
0
40
0
40
0.499999999999998
40
0.499999999999998
40
0.749999999999999
40
0.749999999999999
40
1
40
1
40
1
40
1
41
1
10
27.4381722656786
20
21.8459851279714
30
0
41
1
10
27.4573980662903
20
21.8266947827023
30
0
41
1
10
27.4899154260195
20
21.8071419698392
30
0
41
1
10
27.555897086486
20
21.7775800454485
30
0
41
1
10
27.580777716396
20
21.767687459894
30
0
41
1
10
27.6360447899965
20
21.7478543651421
30
0
41
1
10
27.6665910551057
20
21.737867386353
30
0
41
1
10
27.6993918946795
20
21.7279932775906
30
0
0
SPLINE
5
208
100
AcDbEntity
8
1
62
256
6
ByLayer
370
18
48
1
60
0
100
AcDbSpline
70
4
71
3
72
22
73
18
40
0
40
0
40
0
40
0
40
0.125
40
0.125
40
0.25
40
0.25
40
0.375
40
0.375
40
0.5
40
0.5
40
0.625
40
0.625
40
0.75
40
0.75
40
0.875
40
0.875
40
1
40
1
40
1
40
1
41
1
10
28.9139520714701
20
20.3587845073683
30
0
41
1
10
28.8592529077025
20
20.4138874375628
30
0
41
1
10
28.8045997805423
20
20.4689404462355
30
0
41
1
10
28.6995046032055
20
20.5747971734794
30
0
41
1
10
28.6485747881693
20
20.6260922854377
30
0
41
1
10
28.5500682561832
20
20.7252973305386
30
0
41
1
10
28.5024889903342
20
20.7732098369669
30
0
41
1
10
28.4110141197439
20
20.8653159453286
30
0
41
1
10
28.3677012270397
20
20.9089227220967
30
0
41
1
10
28.2882808616502
20
20.9888712742725
30
0
41
1
10
28.2518004862298
20
21.0255885377112
30
0
41
1
10
28.1856093570906
20
21.0921964208795
30
0
41
1
10
28.1557028147093
20
21.1222838353044
30
0
41
1
10
28.1052955041043
20
21.1729789724443
30
0
41
1
10
28.0845111757038
20
21.1938721800698
30
0
41
1
10
28.0518570681539
20
21.226673376327
30
0
41
1
10
28.0399471729319
20
21.2386212305215
30
0
41
1
10
28.0330509716323
20
21.2455174318211
30
0
0
SPLINE
5
209
100
AcDbEntity
8
1
62
256
6
ByLayer
370
18
48
1
60
0
100
AcDbSpline
70
4
71
3
72
17
73
13
40
0
40
0
40
0
40
0
40
0.125
40
0.125
40
0.25
40
0.375
40
0.375
40
0.5
40
0.5
40
0.75
40
0.75
40
1
40
1
40
1
40
1
41
1
10
27.6993918946794
20
-21.7279932775907
30
0
41
1
10
27.6796167148423
20
-21.7123164820607
30
0
41
1
10
27.6650990998992
20
-21.6957300138306
30
0
41
1
10
27.6475361950901
20
-21.6615239105249
30
0
41
1
10
27.6412931956701
20
-21.6263960949881
30
0
41
1
10
27.6571003615043
20
-21.5894448493649
30
0
41
1
10
27.6842044098287
20
-21.5515951114208
30
0
41
1
10
27.7035043251224
20
-21.5322262174993
30
0
41
1
10
27.7767683352444
20
-21.474576457129
30
0
41
1
10
27.8464581010265
20
-21.4360363712754
30
0
41
1
10
28.0272921652913
20
-21.3606973602
30
0
41
1
10
28.1348725112914
20
-21.3253331303494
30
0
41
1
10
28.2591641175678
20
-21.2929431627861
30
0
0
SPLINE
5
20A
100
AcDbEntity
8
1
62
256
6
ByLayer
370
18
48
1
60
0
100
AcDbSpline
70
4
71
3
72
12
73
8
40
0
40
0
40
0
40
0
40
0.5
40
0.5
40
0.75
40
0.75
40
1
40
1
40
1
40
1
41
1
10
37.0456949193187
20
22.4034917181538
30
0
41
1
10
36.7345256392924
20
22.6018872807334
30
0
41
1
10
36.4040865520361
20
22.7598562370959
30
0
41
1
10
35.8811233480194
20
22.9395267308835
30
0
41
1
10
35.7021763677827
20
22.98971207955
30
0
41
1
10
35.3347200007187
20
23.0700215670786
30
0
41
1
10
35.1483851190046
20
23.0996455000137
30
0
41
1
10
34.9603501834919
20
23.1186933424282
30
0
0
SPLINE
5
20B
100
AcDbEntity
8
1
62
256
6
ByLayer
370
18
48
1
60
0
100
AcDbSpline
70
4
71
3
72
8
73
4
40
0
40
0
40
0
40
0
40
1
40
1
40
1
40
1
41
1
10
31.4629465363276
20
-19.6451134079163
30
0
41
1
10
31.3599006383234
20
-19.5284901573456
30
0
41
1
10
31.2618352734678
20
-19.4078798485418
30
0
41
1
10
31.1683222152631
20
-19.2836252889774
30
0
0
SPLINE
5
20C
100
AcDbEntity
8
1
62
256
6
ByLayer
370
18
48
1
60
0
100
AcDbSpline
70
4
71
3
72
20
73
16
40
0
40
0
40
0
40
0
40
0.125000000000001
40
0.125000000000001
40
0.250000000000002
40
0.250000000000002
40
0.500000000000001
40
0.500000000000001
40
0.625000000000001
40
0.625000000000001
40
0.75
40
0.75
40
0.875
40
0.875
40
1
40
1
40
1
40
1
41
1
10
28.4060427609135
20
7.82384665727292
30
0
41
1
10
28.3564419704548
20
7.91428910449358
30
0
41
1
10
28.3102943663334
20
8.00662622172879
30
0
41
1
10
28.2261055265169
20
8.18997512771193
30
0
41
1
10
28.1877995755816
20
8.28142184679106
30
0
41
1
10
28.0823088544263
20
8.55380328689819
30
0
41
1
10
28.024555058375
20
8.73277088449444
30
0
41
1
10
27.9488796816615
20
8.99245080722653
30
0
41
1
10
27.9256512368434
20
9.07695351442314
30
0
41
1
10
27.8822327344302
20
9.23952802014642
30
0
41
1
10
27.8619531591835
20
9.31790014133867
30
0
41
1
10
27.8230662440339
20
9.46851768916704
30
0
41
1
10
27.8044569514847
20
9.54076541528079
30
0
41
1
10
27.7681206001847
20
9.67883362934634
30
0
41
1
10
27.7503445575234
20
9.74482505325471
30
0
41
1
10
27.7329469449005
20
9.80704207721936
30
0
0
SPLINE
5
20D
100
AcDbEntity
8
1
62
256
6
ByLayer
370
18
48
1
60
0
100
AcDbSpline
70
4
71
3
72
24
73
20
40
0
40
0
40
0
40
0
40
0.124999999999997
40
0.124999999999997
40
0.187499999999997
40
0.187499999999997
40
0.249999999999996
40
0.249999999999996
40
0.374999999999996
40
0.374999999999996
40
0.499999999999995
40
0.499999999999995
40
0.624999999999995
40
0.624999999999995
40
0.749999999999995
40
0.749999999999995
40
0.874999999999997
40
0.874999999999997
40
1
40
1
40
1
40
1
41
1
10
35.9941811092514
20
-7.88897323198754
30
0
41
1
10
35.7481669514284
20
-7.9653504083129
30
0
41
1
10
35.4990459355198
20
-8.03736665093695
30
0
41
1
10
35.119609216268
20
-8.1320979292411
30
0
41
1
10
34.9918730263456
20
-8.16160198991375
30
0
41
1
10
34.7359598471535
20
-8.21570019322891
30
0
41
1
10
34.608617719664
20
-8.24013947063145
30
0
41
1
10
34.2279264577927
20
-8.30633030940868
30
0
41
1
10
33.975881420585
20
-8.34094894155851
30
0
41
1
10
33.4736353323722
20
-8.39638115325968
30
0
41
1
10
33.2234481523065
20
-8.41729299886339
30
0
41
1
10
32.7241553824936
20
-8.4498134250284
30
0
41
1
10
32.4750523225021
20
-8.46148026135776
30
0
41
1
10
31.9777788331017
20
-8.47663097626162
30
0
41
1
10
31.7298834268236
20
-8.48007072602917
30
0
41
1
10
31.2397505543134
20
-8.47584105774965
30
0
41
1
10
30.9971214392165
20
-8.46810123894119
30
0
41
1
10
30.5198484934027
20
-8.43630325955951
30
0
41
1
10
30.2851938697776
20
-8.41212835943702
30
0
41
1
10
30.0569498428038
20
-8.37749751077183
30
0
0
SPLINE
5
20E
100
AcDbEntity
8
1
62
256
6
ByLayer
370
18
48
1
60
0
100
AcDbSpline
70
4
71
3
72
8
73
4
40
0
40
0
40
0
40
0
40
1
40
1
40
1
40
1
41
1
10
28.9139520714699
20
12.8332959303358
30
0
41
1
10
28.9112548708434
20
12.8259613725407
30
0
41
1
10
28.9085966013394
20
12.8186153523051
30
0
41
1
10
28.9059769888546
20
12.8112579503327
30
0
0
SPLINE
5
20F
100
AcDbEntity
8
1
62
256
6
ByLayer
370
18
48
1
60
0
100
AcDbSpline
70
4
71
3
72
10
73
6
40
0
40
0
40
0
40
0
40
0.5
40
0.5
40
1
40
1
40
1
40
1
41
1
10
39
20
-19.2111169499893
30
0
41
1
10
38.9357871353461
20
-19.5675028872409
30
0
41
1
10
38.8386010837506
20
-19.9106989716496
30
0
41
1
10
38.5818262201923
20
-20.5721289423115
30
0
41
1
10
38.4222136464617
20
-20.8903533234412
30
0
41
1
10
38.2289588953793
20
-21.1951202438353
30
0
0
SPLINE
5
210
100
AcDbEntity
8
1
62
256
6
ByLayer
370
18
48
1
60
0
100
AcDbSpline
70
4
71
3
72
8
73
4
40
0
40
0
40
0
40
0
40
1
40
1
40
1
40
1
41
1
10
31.4629465363276
20
20.5831108867596
30
0
41
1
10
31.3599006383235
20
20.5824550091263
30
0
41
1
10
31.261835273468
20
20.5802887181322
30
0
41
1
10
31.1683222152631
20
20.5767418791954
30
0
0
SPLINE
5
211
100
AcDbEntity
8
1
62
256
6
ByLayer
370
18
48
1
60
0
100
AcDbSpline
70
4
71
3
72
26
73
22
40
0
40
0
40
0
40
0
40
0.125000000000002
40
0.125000000000002
40
0.250000000000004
40
0.250000000000004
40
0.375000000000005
40
0.375000000000005
40
0.437500000000005
40
0.437500000000005
40
0.500000000000004
40
0.500000000000004
40
0.625000000000004
40
0.625000000000004
40
0.687500000000003
40
0.687500000000003
40
0.750000000000002
40
0.750000000000002
40
0.875000000000001
40
0.875000000000001
40
1
40
1
40
1
40
1
41
1
10
19.1514033835436
20
-9.9140488468835
30
0
41
1
10
19.0171206635691
20
-10.001243335083
30
0
41
1
10
18.8962367947312
20
-10.0924228016472
30
0
41
1
10
18.6784621377362
20
-10.2870120783481
30
0
41
1
10
18.5810626719192
20
-10.3914330643668
30
0
41
1
10
18.4160683061875
20
-10.607393037003
30
0
41
1
10
18.3472748591301
20
-10.7197001281997
30
0
41
1
10
18.2623260279721
20
-10.8970331121811
30
0
41
1
10
18.2369910130546
20
-10.9578765281107
30
0
41
1
10
18.1927967347781
20
-11.0816236738628
30
0
41
1
10
18.1739526676307
20
-11.1443842751691
30
0
41
1
10
18.1266024109752
20
-11.3357007623021
30
0
41
1
10
18.1071827341042
20
-11.4673132883132
30
0
41
1
10
18.0958184970715
20
-11.6719275683574
30
0
41
1
10
18.0950427984055
20
-11.7415630324729
30
0
41
1
10
18.0995346871127
20
-11.8810104021027
30
0
41
1
10
18.1047707125925
20
-11.9510414704411
30
0
41
1
10
18.1293678565623
20
-12.1619055498996
30
0
41
1
10
18.1575370268671
20
-12.3035526738867
30
0
41
1
10
18.2390479224474
20
-12.5871441246933
30
0
41
1
10
18.2926364815744
20
-12.7291507841121
30
0
41
1
10
18.3589165525392
20
-12.8662639082417
30
0
0
SPLINE
5
212
100
AcDbEntity
8
1
62
256
6
ByLayer
370
18
48
1
60
0
100
AcDbSpline
70
4
71
3
72
12
73
8
40
0
40
0
40
0
40
0
40
0.250000000000002
40
0.250000000000002
40
0.500000000000004
40
0.500000000000004
40
1
40
1
40
1
40
1
41
1
10
35.2333909778605
20
0.424230134559309
30
0
41
1
10
35.1948631907977
20
0.338154140400604
30
0
41
1
10
35.1522170732992
20
0.25359722797154
30
0
41
1
10
35.0579668354387
20
0.0881377896246818
30
0
41
1
10
35.0060729224659
20
0.0068221114111395
30
0
41
1
10
34.8366933961217
20
-0.227086482978393
30
0
41
1
10
34.707645576107
20
-0.368686029997804
30
0
41
1
10
34.5543780055231
20
-0.48704293471161
30
0
0
SPLINE
5
213
100
AcDbEntity
8
1
62
256
6
ByLayer
370
18
48
1
60
0
100
AcDbSpline
70
4
71
3
72
18
73
14
40
0
40
0
40
0
40
0
40
0.125000000000001
40
0.125000000000001
40
0.250000000000003
40
0.250000000000003
40
0.500000000000002
40
0.500000000000002
40
0.625000000000001
40
0.625000000000001
40
0.75
40
0.75
40
1
40
1
40
1
40
1
41
1
10
37.0785957308046
20
13.9011680477969
30
0
41
1
10
37.0762590710198
20
13.8989218657723
30
0
41
1
10
37.0744086995584
20
13.8943492754291
30
0
41
1
10
37.0716888960026
20
13.8805066301944
30
0
41
1
10
37.0708191924472
20
13.8711463603909
30
0
41
1
10
37.0697668592735
20
13.8364254481491
30
0
41
1
10
37.0710823568236
20
13.8046805874173
30
0
41
1
10
37.0760401900193
20
13.7442799656299
30
0
41
1
10
37.0782127067197
20
13.7218644993
30
0
41
1
10
37.0834601675364
20
13.6738301823466
30
0
41
1
10
37.0865406249936
20
13.6481102854339
30
0
41
1
10
37.0971239131028
20
13.5659314012707
30
0
41
1
10
37.1061087619825
20
13.5035556061935
30
0
41
1
10
37.1165312462601
20
13.4369619015023
30
0
0
SPLINE
5
214
100
AcDbEntity
8
1
62
256
6
ByLayer
370
18
48
1
60
0
100
AcDbSpline
70
4
71
3
72
12
73
8
40
0
40
0
40
0
40
0
40
0.5
40
0.5
40
0.75
40
0.75
40
1
40
1
40
1
40
1
41
1
10
18.3589165525393
20
8.97075384514358
30
0
41
1
10
18.4703812948222
20
8.76242749091853
30
0
41
1
10
18.5919059999776
20
8.54782655472891
30
0
41
1
10
18.7889033043039
20
8.22430449055412
30
0
41
1
10
18.8571131759278
20
8.11601483889214
30
0
41
1
10
18.9994968899033
20
7.89848427155275
30
0
41
1
10
19.0738572965042
20
7.78897284848003
30
0
41
1
10
19.1514033835437
20
7.67950472514124
30
0
0
SPLINE
5
215
100
AcDbEntity
8
1
62
256
6
ByLayer
370
18
48
1
60
0
100
AcDbSpline
70
4
71
3
72
8
73
4
40
0
40
0
40
0
40
0
40
1
40
1
40
1
40
1
41
1
10
37.9123009288115
20
1.52508362220718
30
0
41
1
10
37.9140287345911
20
1.52310837700679
30
0
41
1
10
37.9158105001724
20
1.52112628952807
30
0
41
1
10
37.9176455500714
20
1.51913744542455
30
0
0
SPLINE
5
216
100
AcDbEntity
8
1
62
256
6
ByLayer
370
18
48
1
60
0
100
AcDbSpline
70
4
71
3
72
16
73
12
40
0
40
0
40
0
40
0
40
0.249999999999998
40
0.249999999999998
40
0.374999999999997
40
0.374999999999997
40
0.499999999999996
40
0.499999999999996
40
0.749999999999998
40
0.749999999999998
40
1
40
1
40
1
40
1
41
1
10
19.1514033835436
20
-9.91404884688353
30
0
41
1
10
19.3130741342163
20
-9.80907034805358
30
0
41
1
10
19.4835038227103
20
-9.71975880822851
30
0
41
1
10
19.7510739911024
20
-9.60751932562314
30
0
41
1
10
19.8422680086572
20
-9.57375524838199
30
0
41
1
10
20.0286328481117
20
-9.51352252764363
30
0
41
1
10
20.1242892304629
20
-9.48695484229674
30
0
41
1
10
20.4128893722525
20
-9.41940579074432
30
0
41
1
10
20.6075108632444
20
-9.39024848910407
30
0
41
1
10
21.0009016827192
20
-9.36175898981773
30
0
41
1
10
21.2006951529137
20
-9.36258032266994
30
0
41
1
10
21.3994345546724
20
-9.37826721094399
30
0
0
SPLINE
5
217
100
AcDbEntity
8
1
62
256
6
ByLayer
370
18
48
1
60
0
100
AcDbSpline
70
4
71
3
72
8
73
4
40
0
40
0
40
0
40
0
40
1
40
1
40
1
40
1
41
1
10
31.1683222152631
20
-19.2836252889774
30
0
41
1
10
31.0993864675403
20
-19.1920275898328
30
0
41
1
10
31.0288045637672
20
-19.1016156270478
30
0
41
1
10
30.9564761477781
20
-19.0124616877875
30
0
0
SPLINE
5
218
100
AcDbEntity
8
1
62
256
6
ByLayer
370
18
48
1
60
0
100
AcDbSpline
70
4
71
3
72
16
73
12
40
0
40
0
40
0
40
0
40
0.25
40
0.25
40
0.375
40
0.375
40
0.5
40
0.5
40
0.75
40
0.75
40
1
40
1
40
1
40
1
41
1
10
19.1514033835436
20
-22.0780590246504
30
0
41
1
10
19.3130741342163
20
-22.0711611481949
30
0
41
1
10
19.4835038227102
20
-22.0644137242907
30
0
41
1
10
19.7510739911023
20
-22.0553994364954
30
0
41
1
10
19.8422680086571
20
-22.0525760738002
30
0
41
1
10
20.0286328481116
20
-22.0474119732888
30
0
41
1
10
20.1242892304627
20
-22.0450620471326
30
0
41
1
10
20.4128893722523
20
-22.0389861198145
30
0
41
1
10
20.6075108632443
20
-22.0362231063165
30
0
41
1
10
21.000901682719
20
-22.0335273104803
30
0
41
1
10
21.2006951529137
20
-22.033606765073
30
0
41
1
10
21.3994345546724
20
-22.0350892525293
30
0
0
SPLINE
5
219
100
AcDbEntity
8
1
62
256
6
ByLayer
370
18
48
1
60
0
100
AcDbSpline
70
4
71
3
72
16
73
12
40
0
40
0
40
0
40
0
40
0.25
40
0.25
40
0.375
40
0.375
40
0.499999999999999
40
0.499999999999999
40
0.75
40
0.75
40
1
40
1
40
1
40
1
41
1
10
19.1514033835436
20
12.1640101777668
30
0
41
1
10
19.3130741342163
20
12.2620908001412
30
0
41
1
10
19.4835038227103
20
12.3446549160621
30
0
41
1
10
19.7510739911024
20
12.4478801108722
30
0
41
1
10
19.8422680086572
20
12.4788208254182
30
0
41
1
10
20.0286328481117
20
12.5338894456451
30
0
41
1
10
20.1242892304628
20
12.5581072048358
30
0
41
1
10
20.4128893722525
20
12.6195803290701
30
0
41
1
10
20.6075108632444
20
12.6459746172124
30
0
41
1
10
21.0009016827192
20
12.6717683206625
30
0
41
1
10
21.2006951529138
20
12.671026442403
30
0
41
1
10
21.3994345546724
20
12.6568220415852
30
0
0
SPLINE
5
21A
100
AcDbEntity
8
1
62
256
6
ByLayer
370
18
48
1
60
0
100
AcDbSpline
70
4
71
3
72
8
73
4
40
0
40
0
40
0
40
0
40
1
40
1
40
1
40
1
41
1
10
27.8675585889937
20
14.8805848714956
30
0
41
1
10
27.8793169882718
20
14.9082533039795
30
0
41
1
10
27.8916612855907
20
14.9366455083605
30
0
41
1
10
27.9043408502216
20
14.9652519152517
30
0
0
SPLINE
5
21B
100
AcDbEntity
8
1
62
256
6
ByLayer
370
18
48
1
60
0
100
AcDbSpline
70
4
71
3
72
62
73
58
40
0
40
0
40
0
40
0
40
0.0624999999999989
40
0.0624999999999989
40
0.124999999999998
40
0.124999999999998
40
0.187499999999997
40
0.187499999999997
40
0.218749999999996
40
0.218749999999996
40
0.249999999999995
40
0.249999999999995
40
0.281249999999994
40
0.281249999999994
40
0.312499999999993
40
0.312499999999993
40
0.343749999999992
40
0.343749999999992
40
0.37499999999999
40
0.37499999999999
40
0.406249999999989
40
0.406249999999989
40
0.421874999999989
40
0.421874999999989
40
0.437499999999989
40
0.437499999999989
40
0.468749999999989
40
0.468749999999989
40
0.49999999999999
40
0.49999999999999
40
0.53124999999999
40
0.53124999999999
40
0.562499999999991
40
0.562499999999991
40
0.62499999999999
40
0.62499999999999
40
0.656249999999991
40
0.656249999999991
40
0.687499999999991
40
0.687499999999991
40
0.718749999999992
40
0.718749999999992
40
0.749999999999992
40
0.749999999999992
40
0.812499999999994
40
0.812499999999994
40
0.843749999999995
40
0.843749999999995
40
0.874999999999996
40
0.874999999999996
40
0.906249999999997
40
0.906249999999997
40
0.937499999999998
40
0.937499999999998
40
0.968749999999999
40
0.968749999999999
40
1
40
1
40
1
40
1
41
1
10
28.4060427609134
20
7.823846657274
30
0
41
1
10
28.2186546657086
20
7.77961909422697
30
0
41
1
10
28.0333587790623
20
7.72803670961366
30
0
41
1
10
27.6678374068144
20
7.61144423911406
30
0
41
1
10
27.4869336203623
20
7.54615877414921
30
0
41
1
10
27.1335079998768
20
7.40061633005936
30
0
41
1
10
26.9614152100134
20
7.32067595864976
30
0
41
1
10
26.7129425772452
20
7.18597115756702
30
0
41
1
10
26.6317484124933
20
7.13857265032263
30
0
41
1
10
26.4735462326581
20
7.03735375773309
30
0
41
1
10
26.3962838399795
20
6.98332706985494
30
0
41
1
10
26.2502531855442
20
6.86861543802732
30
0
41
1
10
26.1811277628908
20
6.80777948481472
30
0
41
1
10
26.0541802716227
20
6.67637380723696
30
0
41
1
10
25.9976985668695
20
6.60722760710311
30
0
41
1
10
25.9041539089516
20
6.45908234058388
30
0
41
1
10
25.8668857291845
20
6.37871642778555
30
0
41
1
10
25.8248917651512
20
6.21396300188354
30
0
41
1
10
25.8201041191604
20
6.12746375893173
30
0
41
1
10
25.8467706940667
20
5.96093228995787
30
0
41
1
10
25.8783577383453
20
5.87873132248333
30
0
41
1
10
25.9453397128047
20
5.7652616003339
30
0
41
1
10
25.9710929731709
20
5.72854048676911
30
0
41
1
10
26.0277003602325
20
5.65814862356416
30
0
41
1
10
26.0582916183476
20
5.62473545690617
30
0
41
1
10
26.1556980322799
20
5.52874920875036
30
0
41
1
10
26.2284395581978
20
5.47011872795929
30
0
41
1
10
26.3836845173022
20
5.36189876482553
30
0
41
1
10
26.4648904262236
20
5.31314918974442
30
0
41
1
10
26.6326443042646
20
5.22331603469488
30
0
41
1
10
26.719216764249
20
5.18227238462796
30
0
41
1
10
26.8969526134682
20
5.10651006713707
30
0
41
1
10
26.9877366561435
20
5.0720128341982
30
0
41
1
10
27.2600532843815
20
4.97907693821202
30
0
41
1
10
27.4434967771797
20
4.93001802804179
30
0
41
1
10
27.7212783098227
20
4.87538357069019
30
0
41
1
10
27.8142711073491
20
4.86048500933001
30
0
41
1
10
27.9964799717709
20
4.83843584173482
30
0
41
1
10
28.0862977634855
20
4.83115513115999
30
0
41
1
10
28.2634765783046
20
4.82476136534555
30
0
41
1
10
28.3508364455286
20
4.82564615910647
30
0
41
1
10
28.5232324192513
20
4.83682901495536
30
0
41
1
10
28.6085175596732
20
4.84726276421228
30
0
41
1
10
28.8535081371999
20
4.89356595353718
30
0
41
1
10
29.0050096517909
20
4.94426463043487
30
0
41
1
10
29.2175849782511
20
5.05613242717408
30
0
41
1
10
29.285778401782
20
5.09948036981081
30
0
41
1
10
29.4136624855192
20
5.19604625494639
30
0
41
1
10
29.4739456283739
20
5.24954471915825
30
0
41
1
10
29.5881777652683
20
5.36718554991484
30
0
41
1
10
29.6423531141547
20
5.43163934095259
30
0
41
1
10
29.7440801179828
20
5.57037539427245
30
0
41
1
10
29.790966699874
20
5.64364596435521
30
0
41
1
10
29.8780173581702
20
5.79761837353772
30
0
41
1
10
29.9181798117114
20
5.87831894783238
30
0
41
1
10
29.9924698851693
20
6.04714239104115
30
0
41
1
10
30.0266054803838
20
6.13548912004578
30
0
41
1
10
30.0569498428104
20
6.22487954374185
30
0
0
SPLINE
5
21C
100
AcDbEntity
8
1
62
256
6
ByLayer
370
18
48
1
60
0
100
AcDbSpline
70
4
71
3
72
10
73
6
40
0
40
0
40
0
40
0
40
0.5
40
0.5
40
1
40
1
40
1
40
1
41
1
10
32.149067791316
20
8.22680997383509
30
0
41
1
10
32.2087437376424
20
8.30394786165203
30
0
41
1
10
32.2723895753677
20
8.37794441459519
30
0
41
1
10
32.4050576843028
20
8.51694631074969
30
0
41
1
10
32.4725922259309
20
8.58049453383006
30
0
41
1
10
32.5411962668409
20
8.63873954724792
30
0
0
SPLINE
5
21D
100
AcDbEntity
8
1
62
256
6
ByLayer
370
18
48
1
60
0
100
AcDbSpline
70
4
71
3
72
17
73
13
40
0
40
0
40
0
40
0
40
0.25
40
0.25
40
0.374999999999999
40
0.374999999999999
40
0.499999999999998
40
0.624999999999997
40
0.624999999999997
40
0.749999999999996
40
0.749999999999996
40
1
40
1
40
1
40
1
41
1
10
36.8713731562776
20
19.8477305696046
30
0
41
1
10
36.8164882063942
20
19.9845434033245
30
0
41
1
10
36.7489003934011
20
20.114764727693
30
0
41
1
10
36.6279989455956
20
20.3001035739863
30
0
41
1
10
36.5841094850558
20
20.3605764967234
30
0
41
1
10
36.4908749738233
20
20.4760819627556
30
0
41
1
10
36.3928046150485
20
20.5855576397427
30
0
41
1
10
36.2853295324371
20
20.6832821589783
30
0
41
1
10
36.1730965237355
20
20.7750739941388
30
0
41
1
10
36.114217644069
20
20.8182196246209
30
0
41
1
10
35.9344444624451
20
20.9357015976841
30
0
41
1
10
35.8097537847923
20
20.9990318977954
30
0
41
1
10
35.6801019649178
20
21.048154966326
30
0
0
SPLINE
5
21E
100
AcDbEntity
8
1
62
256
6
ByLayer
370
18
48
1
60
0
100
AcDbSpline
70
4
71
3
72
16
73
12
40
0
40
0
40
0
40
0
40
0.249999999999999
40
0.249999999999999
40
0.499999999999998
40
0.499999999999998
40
0.749999999999997
40
0.749999999999997
40
0.874999999999999
40
0.874999999999999
40
1
40
1
40
1
40
1
41
1
10
30.956476147778
20
-19.0124616877875
30
0
41
1
10
30.7598010564791
20
-18.8529476166665
30
0
41
1
10
30.551523439647
20
-18.7035109308425
30
0
41
1
10
30.1249320673679
20
-18.4348337293836
30
0
41
1
10
29.9054584573906
20
-18.3144722001955
30
0
41
1
10
29.4539185594468
20
-18.1022390950419
30
0
41
1
10
29.2218588869797
20
-18.0103525520243
30
0
41
1
10
28.8634993238167
20
-17.8957579358788
30
0
41
1
10
28.7424386414278
20
-17.861536376326
30
0
41
1
10
28.5010380662108
20
-17.8022723933356
30
0
41
1
10
28.3801802781224
20
-17.7770542253094
30
0
41
1
10
28.2591641175678
20
-17.7562743174623
30
0
0
SPLINE
5
21F
100
AcDbEntity
8
1
62
256
6
ByLayer
370
18
48
1
60
0
100
AcDbSpline
70
4
71
3
72
14
73
10
40
0
40
0
40
0
40
0
40
0.249999999999999
40
0.249999999999999
40
0.374999999999998
40
0.374999999999998
40
0.499999999999998
40
0.499999999999998
40
1
40
1
40
1
40
1
41
1
10
38.2289588953802
20
-6.32125116216343
30
0
41
1
10
38.1514857853123
20
-6.40271181784297
30
0
41
1
10
38.0682086427134
20
-6.47328867198058
30
0
41
1
10
37.9341398162665
20
-6.56255092513032
30
0
41
1
10
37.8879290055652
20
-6.58953109080184
30
0
41
1
10
37.7923214536523
20
-6.63776338897691
30
0
41
1
10
37.7426889234283
20
-6.65909575290976
30
0
41
1
10
37.4889937303074
20
-6.74979165953957
30
0
41
1
10
37.2731442126092
20
-6.77108795763127
30
0
41
1
10
37.0456949193187
20
-6.74422888716717
30
0
0
SPLINE
5
220
100
AcDbEntity
8
1
62
256
6
ByLayer
370
18
48
1
60
0
100
AcDbSpline
70
4
71
3
72
18
73
14
40
0
40
0
40
0
40
0
40
0.249999999999976
40
0.249999999999976
40
0.37499999999997
40
0.37499999999997
40
0.499999999999965
40
0.499999999999965
40
0.749999999999974
40
0.749999999999974
40
0.874999999999987
40
0.874999999999987
40
1
40
1
40
1
40
1
41
1
10
33.2281101178726
20
-18.8387203878679
30
0
41
1
10
33.2941552151737
20
-18.9033555780075
30
0
41
1
10
33.3660918055518
20
-18.9627091341771
30
0
41
1
10
33.48485764241
20
-19.0428075357024
30
0
41
1
10
33.5265483189705
20
-19.0681268690862
30
0
41
1
10
33.6116923580099
20
-19.1141647643747
30
0
41
1
10
33.6553299309672
20
-19.1350394326449
30
0
41
1
10
33.7895405514925
20
-19.1910873588795
30
0
41
1
10
33.8850175588469
20
-19.2197956444369
30
0
41
1
10
34.025003837065
20
-19.2469127903451
30
0
41
1
10
34.071415469901
20
-19.2534813179333
30
0
41
1
10
34.1636904053868
20
-19.2620641886647
30
0
41
1
10
34.2095678720621
20
-19.2640507678817
30
0
41
1
10
34.2542552429327
20
-19.2639592663389
30
0
0
SPLINE
5
221
100
AcDbEntity
8
1
62
256
6
ByLayer
370
18
48
1
60
0
100
AcDbSpline
70
4
71
3
72
14
73
10
40
0
40
0
40
0
40
0
40
0.249999999999999
40
0.249999999999999
40
0.374999999999999
40
0.374999999999999
40
0.499999999999998
40
0.499999999999998
40
1
40
1
40
1
40
1
41
1
10
38.2289588953803
20
21.1951202438342
30
0
41
1
10
38.1514857853126
20
21.3172970132874
30
0
41
1
10
38.0682086427135
20
21.4353029842155
30
0
41
1
10
37.9341398162665
20
21.6057111998816
30
0
41
1
10
37.8879290055652
20
21.6614175330433
30
0
41
1
10
37.7923214536524
20
21.7705305585502
30
0
41
1
10
37.7426889234284
20
21.8241747422501
30
0
41
1
10
37.4889937303075
20
22.0834775880314
30
0
41
1
10
37.2731442126092
20
22.2584744127924
30
0
41
1
10
37.0456949193187
20
22.4034917181538
30
0
0
SPLINE
5
222
100
AcDbEntity
8
1
62
256
6
ByLayer
370
18
48
1
60
0
100
AcDbSpline
70
4
71
3
72
8
73
4
40
0
40
0
40
0
40
0
40
1
40
1
40
1
40
1
41
1
10
36.4986175987243
20
9.32776084320088
30
0
41
1
10
36.4917647317075
20
9.29535715650053
30
0
41
1
10
36.4861349943414
20
9.26278349953742
30
0
41
1
10
36.4817184157159
20
9.23005132020234
30
0
0
SPLINE
5
223
100
AcDbEntity
8
1
62
256
6
ByLayer
370
18
48
1
60
0
100
AcDbSpline
70
4
71
3
72
40
73
36
40
0
40
0
40
0
40
0
40
0.125000000000001
40
0.125000000000001
40
0.187500000000001
40
0.187500000000001
40
0.250000000000001
40
0.250000000000001
40
0.375000000000002
40
0.375000000000002
40
0.437500000000003
40
0.437500000000003
40
0.500000000000004
40
0.500000000000004
40
0.562500000000004
40
0.562500000000004
40
0.593750000000005
40
0.593750000000005
40
0.625000000000005
40
0.625000000000005
40
0.656250000000006
40
0.656250000000006
40
0.687500000000006
40
0.687500000000006
40
0.718750000000006
40
0.718750000000006
40
0.750000000000007
40
0.750000000000007
40
0.812500000000005
40
0.812500000000005
40
0.875000000000003
40
0.875000000000003
40
0.937500000000002
40
0.937500000000002
40
1
40
1
40
1
40
1
41
1
10
31.4629465363282
20
-19.6451134079164
30
0
41
1
10
31.4657752353645
20
-19.8055929831092
30
0
41
1
10
31.4909203589288
20
-19.9721578019956
30
0
41
1
10
31.5601362482984
20
-20.2285373996178
30
0
41
1
10
31.5886884472171
20
-20.3154309439134
30
0
41
1
10
31.6565101504145
20
-20.489210777236
30
0
41
1
10
31.6957110288723
20
-20.5760469693752
30
0
41
1
10
31.8304800191769
20
-20.8357509807562
30
0
41
1
10
31.9422703997068
20
-21.0079098021568
30
0
41
1
10
32.1596675916052
20
-21.2609281956493
30
0
41
1
10
32.2396600709559
20
-21.3432062073228
30
0
41
1
10
32.4185905324185
20
-21.5012773830108
30
0
41
1
10
32.5186919163258
20
-21.5778789904716
30
0
41
1
10
32.7383133598415
20
-21.7163678296224
30
0
41
1
10
32.857883753796
20
-21.7788203033844
30
0
41
1
10
33.0592416913325
20
-21.8571561678799
30
0
41
1
10
33.1295247300765
20
-21.8803204626145
30
0
41
1
10
33.2727717655274
20
-21.9184790073426
30
0
41
1
10
33.3467004496668
20
-21.9337630351084
30
0
41
1
10
33.4973263787709
20
-21.9553050532768
30
0
41
1
10
33.5720867525275
20
-21.9613287517553
30
0
41
1
10
33.7205353140716
20
-21.9643035131688
30
0
41
1
10
33.7949836352739
20
-21.9611303648552
30
0
41
1
10
33.9380831998882
20
-21.9463478939972
30
0
41
1
10
34.0068779306309
20
-21.9348649653485
30
0
41
1
10
34.139695089841
20
-21.9048828813924
30
0
41
1
10
34.2034720094441
20
-21.8863715834058
30
0
41
1
10
34.3832439599689
20
-21.8237426988156
30
0
41
1
10
34.4904830039519
20
-21.7719806459903
30
0
41
1
10
34.684519221016
20
-21.6556899933537
30
0
41
1
10
34.7692676662882
20
-21.5924468974197
30
0
41
1
10
34.9211622771679
20
-21.4590509431618
30
0
41
1
10
34.9881960365187
20
-21.3888431457095
30
0
41
1
10
35.1076246603248
20
-21.2430547789704
30
0
41
1
10
35.1590871124537
20
-21.1685720225999
30
0
41
1
10
35.2035928508079
20
-21.0931846133318
30
0
0
SPLINE
5
224
100
AcDbEntity
8
1
62
256
6
ByLayer
370
18
48
1
60
0
100
AcDbSpline
70
4
71
3
72
12
73
8
40
0
40
0
40
0
40
0
40
0.499999999999998
40
0.499999999999998
40
0.749999999999999
40
0.749999999999999
40
1
40
1
40
1
40
1
41
1
10
27.4381722656785
20
-7.93789632417841
30
0
41
1
10
27.4573980662901
20
-7.82237099844076
30
0
41
1
10
27.4899154260194
20
-7.71101891570049
30
0
41
1
10
27.5558970864859
20
-7.54943046080257
30
0
41
1
10
27.5807777163959
20
-7.49648045658253
30
0
41
1
10
27.6360447899964
20
-7.39233044488222
30
0
41
1
10
27.6665910551056
20
-7.34089720050392
30
0
41
1
10
27.6993918946795
20
-7.29092648606837
30
0
0
SPLINE
5
225
100
AcDbEntity
8
1
62
256
6
ByLayer
370
18
48
1
60
0
100
AcDbSpline
70
4
71
3
72
20
73
16
40
0
40
0
40
0
40
0
40
0.250000000000005
40
0.250000000000005
40
0.375000000000007
40
0.375000000000007
40
0.437500000000007
40
0.437500000000007
40
0.500000000000008
40
0.500000000000008
40
0.750000000000004
40
0.750000000000004
40
0.875000000000002
40
0.875000000000002
40
1
40
1
40
1
40
1
41
1
10
24.8203166700911
20
20.6728663615844
30
0
41
1
10
24.2342598008378
20
20.7339960514514
30
0
41
1
10
23.6744057861417
20
20.8122262331383
30
0
41
1
10
22.8711303640436
20
20.9466807892186
30
0
41
1
10
22.6094969536431
20
20.9943552613171
30
0
41
1
10
22.2261911275072
20
21.0690540218161
30
0
41
1
10
22.0999483911272
20
21.0944841952881
30
0
41
1
10
21.8505281726695
20
21.146212722787
30
0
41
1
10
21.72724162037
20
21.1725386123607
30
0
41
1
10
21.1245057108073
20
21.3044898195995
30
0
41
1
10
20.6810079484946
20
21.4120496445398
30
0
41
1
10
20.0682151705415
20
21.5661264703394
30
0
41
1
10
19.8727315491313
20
21.6162803005202
30
0
41
1
10
19.4987436998357
20
21.7124668838396
30
0
41
1
10
19.3201535303027
20
21.7585186113796
30
0
41
1
10
19.1514033835436
20
21.8012390661255
30
0
0
SPLINE
5
226
100
AcDbEntity
8
1
62
256
6
ByLayer
370
18
48
1
60
0
100
AcDbSpline
70
4
71
3
72
14
73
10
40
0
40
0
40
0
40
0
40
0.250000000000007
40
0.250000000000007
40
0.375000000000006
40
0.375000000000006
40
0.500000000000006
40
0.500000000000006
40
1
40
1
40
1
40
1
41
1
10
38.2289588953793
20
6.32125116216343
30
0
41
1
10
38.1514857853115
20
6.40271181784289
30
0
41
1
10
38.0682086427136
20
6.47328867198041
30
0
41
1
10
37.9341398162665
20
6.56255092513015
30
0
41
1
10
37.8879290055652
20
6.58953109080167
30
0
41
1
10
37.7923214536524
20
6.63776338897677
30
0
41
1
10
37.7426889234284
20
6.65909575290959
30
0
41
1
10
37.4889937303075
20
6.74979165953943
30
0
41
1
10
37.2731442126092
20
6.77108795763112
30
0
41
1
10
37.0456949193187
20
6.74422888716703
30
0
0
SPLINE
5
227
100
AcDbEntity
8
1
62
256
6
ByLayer
370
18
48
1
60
0
100
AcDbSpline
70
4
71
3
72
26
73
22
40
0
40
0
40
0
40
0
40
0.125
40
0.125
40
0.249999999999999
40
0.249999999999999
40
0.374999999999999
40
0.374999999999999
40
0.437499999999999
40
0.437499999999999
40
0.499999999999999
40
0.499999999999999
40
0.624999999999999
40
0.624999999999999
40
0.687499999999999
40
0.687499999999999
40
0.749999999999999
40
0.749999999999999
40
0.875
40
0.875
40
1
40
1
40
1
40
1
41
1
10
19.1514033835437
20
22.0780590246503
30
0
41
1
10
19.0171206635691
20
22.083788357932
30
0
41
1
10
18.8962367947313
20
22.0763188372528
30
0
41
1
10
18.6784621377362
20
22.0466111308166
30
0
41
1
10
18.5810626719192
20
22.0239617901681
30
0
41
1
10
18.4160683061876
20
21.9742635309354
30
0
41
1
10
18.3472748591301
20
21.9471033095459
30
0
41
1
10
18.2623260279722
20
21.908067170704
30
0
41
1
10
18.2369910130547
20
21.8952759416732
30
0
41
1
10
18.1927967347781
20
21.8712089029252
30
0
41
1
10
18.1739526676308
20
21.8599548059808
30
0
41
1
10
18.1266024109752
20
21.829287475555
30
0
41
1
10
18.1071827341043
20
21.8130272053425
30
0
41
1
10
18.0958184970716
20
21.7968564870776
30
0
41
1
10
18.0950427984056
20
21.7928224402346
30
0
41
1
10
18.0995346871128
20
21.7876491405312
30
0
41
1
10
18.1047707125926
20
21.7864826737573
30
0
41
1
10
18.1293678565625
20
21.7869106770753
30
0
41
1
10
18.1575370268672
20
21.7925003538078
30
0
41
1
10
18.2390479224475
20
21.8109147924654
30
0
41
1
10
18.2926364815745
20
21.8237813391378
30
0
41
1
10
18.3589165525393
20
21.8370177533853
30
0
0
SPLINE
5
228
100
AcDbEntity
8
1
62
256
6
ByLayer
370
18
48
1
60
0
100
AcDbSpline
70
4
71
3
72
16
73
12
40
0
40
0
40
0
40
0
40
0.125000000000001
40
0.125000000000001
40
0.250000000000002
40
0.250000000000002
40
0.500000000000001
40
0.500000000000001
40
0.750000000000001
40
0.750000000000001
40
1
40
1
40
1
40
1
41
1
10
38.4055306198159
20
17.149551321707
30
0
41
1
10
38.3549275671813
20
17.2787428687987
30
0
41
1
10
38.3003722331551
20
17.4061433543251
30
0
41
1
10
38.1848425473106
20
17.6569983453539
30
0
41
1
10
38.1237989149728
20
17.7804666986395
30
0
41
1
10
37.9311388523017
20
18.1447938354318
30
0
41
1
10
37.7900332155498
20
18.3796377257081
30
0
41
1
10
37.4810324954856
20
18.831870554889
30
0
41
1
10
37.3131330081582
20
19.0492691766975
30
0
41
1
10
36.946468731101
20
19.464212455228
30
0
41
1
10
36.7515864878737
20
19.6573119759712
30
0
41
1
10
36.5441010605739
20
19.8348826761967
30
0
0
SPLINE
5
229
100
AcDbEntity
8
1
62
256
6
ByLayer
370
18
48
1
60
0
100
AcDbSpline
70
4
71
3
72
20
73
16
40
0
40
0
40
0
40
0
40
0.25
40
0.25
40
0.375
40
0.375
40
0.437500000000001
40
0.437500000000001
40
0.500000000000001
40
0.500000000000001
40
0.750000000000002
40
0.750000000000002
40
0.875000000000001
40
0.875000000000001
40
1
40
1
40
1
40
1
41
1
10
24.820316670091
20
-17.1423531418726
30
0
41
1
10
24.2342598008378
20
-17.0336576902658
30
0
41
1
10
23.6744057861416
20
-16.890012440572
30
0
41
1
10
22.8711303640435
20
-16.620504586958
30
0
41
1
10
22.609496953643
20
-16.5215901260495
30
0
41
1
10
22.226191127507
20
-16.3588069251879
30
0
41
1
10
22.0999483911272
20
-16.3021400899344
30
0
41
1
10
21.8505281726694
20
-16.1838161304504
30
0
41
1
10
21.7272416203699
20
-16.1220832287155
30
0
41
1
10
21.1245057108072
20
-15.8037509918166
30
0
41
1
10
20.6810079484946
20
-15.5160858644603
30
0
41
1
10
20.0682151705415
20
-15.032723650117
30
0
41
1
10
19.8727315491312
20
-14.8629285609559
30
0
41
1
10
19.4987436998356
20
-14.5052848175696
30
0
41
1
10
19.3201535303026
20
-14.317230443438
30
0
41
1
10
19.1514033835436
20
-14.1217343409842
30
0
0
SPLINE
5
22A
100
AcDbEntity
8
1
62
256
6
ByLayer
370
18
48
1
60
0
100
AcDbSpline
70
4
71
3
72
8
73
4
40
0
40
0
40
0
40
0
40
1
40
1
40
1
40
1
41
1
10
38.0519802881974
20
11.5761800590553
30
0
41
1
10
38.1292821035586
20
11.6274280913629
30
0
41
1
10
38.2022754219026
20
11.6803266855067
30
0
41
1
10
38.2710893200632
20
11.734826392852
30
0
0
SPLINE
5
22B
100
AcDbEntity
8
1
62
256
6
ByLayer
370
18
48
1
60
0
100
AcDbSpline
70
4
71
3
72
12
73
8
40
0
40
0
40
0
40
0
40
0.5
40
0.5
40
0.75
40
0.75
40
1
40
1
40
1
40
1
41
1
10
38.2710893200632
20
3.97317158350111
30
0
41
1
10
38.4511747879727
20
4.01344830585799
30
0
41
1
10
38.6015453132197
20
4.0603874560004
30
0
41
1
10
38.7841364108607
20
4.14042935295637
30
0
41
1
10
38.8377468839604
20
4.16873624098571
30
0
41
1
10
38.9303336002213
20
4.22863117768026
30
0
41
1
10
38.9691784189668
20
4.2602347697794
30
0
41
1
10
39.0000000000001
20
4.29307550538005
30
0
0
SPLINE
5
22C
100
AcDbEntity
8
1
62
256
6
ByLayer
370
18
48
1
60
0
100
AcDbSpline
70
4
71
3
72
16
73
12
40
0
40
0
40
0
40
0
40
0.125
40
0.125
40
0.249999999999999
40
0.249999999999999
40
0.5
40
0.5
40
0.75
40
0.75
40
1
40
1
40
1
40
1
41
1
10
-3.5358875152E-06
20
-6.32750353588756
30
0
41
1
10
3.5358874015E-06
20
-6.32749646411264
30
0
41
1
10
0.005210463903893
20
-6.32228953609615
30
0
41
1
10
0.0232921538654978
20
-6.30420784613455
30
0
41
1
10
0.0362638855934847
20
-6.29123611440656
30
0
41
1
10
0.0825163458912925
20
-6.24498365410875
30
0
41
1
10
0.124086734927232
20
-6.20341326507281
30
0
41
1
10
0.21686585751155
20
-6.11063414248852
30
0
41
1
10
0.269447450209498
20
-6.05805254979055
30
0
41
1
10
0.380259312515591
20
-5.94724068748445
30
0
41
1
10
0.438946966817127
20
-5.88855303318292
30
0
41
1
10
0.499999999999943
20
-5.82750000000013
30
0
0
SPLINE
5
22D
100
AcDbEntity
8
1
62
256
6
ByLayer
370
18
48
1
60
0
100
AcDbSpline
70
4
71
3
72
16
73
12
40
0
40
0
40
0
40
0
40
0.250000000000002
40
0.250000000000002
40
0.500000000000004
40
0.500000000000004
40
0.625000000000003
40
0.625000000000003
40
0.750000000000003
40
0.750000000000003
40
1
40
1
40
1
40
1
41
1
10
30.9564761477969
20
1.55789955709457
30
0
41
1
10
30.7591854694471
20
1.64786278813281
30
0
41
1
10
30.5541515287186
20
1.7362584433678
30
0
41
1
10
30.1285901793132
20
1.90991319662484
30
0
41
1
10
29.9080681488207
20
1.99517338342724
30
0
41
1
10
29.5648926273027
20
2.12055488319385
30
0
41
1
10
29.4482487116269
20
2.16197993837466
30
0
41
1
10
29.2143810649507
20
2.24266379401808
30
0
41
1
10
29.0967219245254
20
2.28208609158094
30
0
41
1
10
28.7415623037484
20
2.3975861713439
30
0
41
1
10
28.5018923300142
20
2.47091325071884
30
0
41
1
10
28.2591641175667
20
2.54036278617647
30
0
0
SPLINE
5
22E
100
AcDbEntity
8
1
62
256
6
ByLayer
370
18
48
1
60
0
100
AcDbSpline
70
4
71
3
72
13
73
9
40
0
40
0
40
0
40
0
40
0.25
40
0.25
40
0.5
40
0.75
40
0.75
40
1
40
1
40
1
40
1
41
1
10
32.6651905327113
20
8.61919506740918
30
0
41
1
10
32.915494204354
20
8.62520432960451
30
0
41
1
10
33.1647034857397
20
8.61977390283764
30
0
41
1
10
33.6621580275245
20
8.59883611361354
30
0
41
1
10
34.1586308476345
20
8.56763636295943
30
0
41
1
10
34.6538847802839
20
8.5236955509323
30
0
41
1
10
35.1481569912585
20
8.46949277747501
30
0
41
1
10
35.3948110862525
20
8.43735292290108
30
0
41
1
10
35.6403707909894
20
8.3937733793648
30
0
0
SPLINE
5
22F
100
AcDbEntity
8
1
62
256
6
ByLayer
370
18
48
1
60
0
100
AcDbSpline
70
4
71
3
72
8
73
4
40
0
40
0
40
0
40
0
40
1
40
1
40
1
40
1
41
1
10
31.1683222152631
20
16.09044506287
30
0
41
1
10
31.1471175132307
20
16.0829697497074
30
0
41
1
10
31.1258020091872
20
16.0756003720422
30
0
41
1
10
31.1043758984425
20
16.0683367431427
30
0
0
SPLINE
5
230
100
AcDbEntity
8
1
62
256
6
ByLayer
370
18
48
1
60
0
100
AcDbSpline
70
4
71
3
72
18
73
14
40
0
40
0
40
0
40
0
40
0.125
40
0.125
40
0.249999999999999
40
0.249999999999999
40
0.499999999999999
40
0.499999999999999
40
0.624999999999999
40
0.624999999999999
40
0.75
40
0.75
40
1
40
1
40
1
40
1
41
1
10
35.994181109247
20
5.33299840155408
30
0
41
1
10
36.0215107868422
20
5.3587233966949
30
0
41
1
10
36.0469878959391
20
5.3876856094991
30
0
41
1
10
36.0929839708303
20
5.45074122830991
30
0
41
1
10
36.1136889930798
20
5.48499421288153
30
0
41
1
10
36.1688161750994
20
5.59605804393007
30
0
41
1
10
36.1962085606608
20
5.68204632703734
30
0
41
1
10
36.2204798840175
20
5.82104200817477
30
0
41
1
10
36.2259050468488
20
5.86928293996743
30
0
41
1
10
36.231335301846
20
5.96964699527217
30
0
41
1
10
36.2312929059762
20
6.02209257752793
30
0
41
1
10
36.222959781124
20
6.18084703106072
30
0
41
1
10
36.2067624640483
20
6.28968539098301
30
0
41
1
10
36.1801229896467
20
6.40146946134439
30
0
0
SPLINE
5
231
100
AcDbEntity
8
1
62
256
6
ByLayer
370
18
48
1
60
0
100
AcDbSpline
70
4
71
3
72
8
73
4
40
0
40
0
40
0
40
0
40
1
40
1
40
1
40
1
41
1
10
36.5190784163484
20
7.95138891517897
30
0
41
1
10
36.6451718385918
20
7.94578027407755
30
0
41
1
10
36.7627775853392
20
7.97167672602245
30
0
41
1
10
36.8808204998933
20
8.02402779473098
30
0
0
SPLINE
5
232
100
AcDbEntity
8
1
62
256
6
ByLayer
370
18
48
1
60
0
100
AcDbSpline
70
4
71
3
72
9
73
5
40
0
40
0
40
0
40
0
40
0.5
40
1
40
1
40
1
40
1
41
1
10
37.9907807334149
20
-11.5290036839779
30
0
41
1
10
38.0000063743472
20
-11.5373196514169
30
0
41
1
10
38.0194339089198
20
-11.5534974325929
30
0
41
1
10
38.0408048071376
20
-11.5687711591256
30
0
41
1
10
38.0519802881975
20
-11.5761800590554
30
0
0
SPLINE
5
233
100
AcDbEntity
8
1
62
256
6
ByLayer
370
18
48
1
60
0
100
AcDbSpline
70
4
71
3
72
10
73
6
40
0
40
0
40
0
40
0
40
0.5
40
0.5
40
1
40
1
40
1
40
1
41
1
10
39.0000000000001
20
14.1633912961949
30
0
41
1
10
38.9357871353461
20
14.2985337789288
30
0
41
1
10
38.8386010837506
20
14.4250965239008
30
0
41
1
10
38.5818262201924
20
14.6619845988655
30
0
41
1
10
38.4222136464617
20
14.7723037459636
30
0
41
1
10
38.2289588953793
20
14.8738690816716
30
0
0
SPLINE
5
234
100
AcDbEntity
8
1
62
256
6
ByLayer
370
18
48
1
60
0
100
AcDbSpline
70
4
71
3
72
19
73
15
40
0
40
0
40
0
40
0
40
0.124999999999993
40
0.124999999999993
40
0.249999999999985
40
0.249999999999985
40
0.499999999999992
40
0.499999999999992
40
0.624999999999994
40
0.624999999999994
40
0.749999999999997
40
0.874999999999999
40
0.874999999999999
40
1
40
1
40
1
40
1
41
1
10
34.0021823900736
20
15.479846298385
30
0
41
1
10
34.0397157322639
20
15.4850131849669
30
0
41
1
10
34.0779410877892
20
15.4887166090759
30
0
41
1
10
34.1557953209323
20
15.493157763534
30
0
41
1
10
34.1956993867871
20
15.4938822276585
30
0
41
1
10
34.3150020152771
20
15.4914526097839
30
0
41
1
10
34.3941697967232
20
15.4838703230477
30
0
41
1
10
34.5123724504854
20
15.4635710525505
30
0
41
1
10
34.5518500359331
20
15.4552406697754
30
0
41
1
10
34.6285649421153
20
15.43596108375
30
0
41
1
10
34.703509378729
20
15.4140086668606
30
0
41
1
10
34.7749658224724
20
15.3867931866184
30
0
41
1
10
34.8446285715694
20
15.3568722116288
30
0
41
1
10
34.8784695615058
20
15.340569813703
30
0
41
1
10
34.9104970291924
20
15.3233513718085
30
0
0
SPLINE
5
235
100
AcDbEntity
8
1
62
256
6
ByLayer
370
18
48
1
60
0
100
AcDbSpline
70
4
71
3
72
8
73
4
40
0
40
0
40
0
40
0
40
1
40
1
40
1
40
1
41
1
10
32.5669878320582
20
10.1660922770629
30
0
41
1
10
32.5992928980286
20
10.0924677891822
30
0
41
1
10
32.6339318529622
20
10.0337017622614
30
0
41
1
10
32.6741601538707
20
9.98748116972047
30
0
0
SPLINE
5
236
100
AcDbEntity
8
1
62
256
6
ByLayer
370
18
48
1
60
0
100
AcDbSpline
70
4
71
3
72
9
73
5
40
0
40
0
40
0
40
0
40
0.5
40
1
40
1
40
1
40
1
41
1
10
37.9123009288115
20
-12.8399292722137
30
0
41
1
10
37.9131642438144
20
-12.8428623841105
30
0
41
1
10
37.9149184094415
20
-12.8487190808161
30
0
41
1
10
37.9167274025159
20
-12.8545568076966
30
0
41
1
10
37.9176455500714
20
-12.857470948002
30
0
0
SPLINE
5
237
100
AcDbEntity
8
1
62
256
6
ByLayer
370
18
48
1
60
0
100
AcDbSpline
70
4
71
3
72
16
73
12
40
0
40
0
40
0
40
0
40
0.25
40
0.25
40
0.375
40
0.375
40
0.5
40
0.5
40
0.75
40
0.75
40
1
40
1
40
1
40
1
41
1
10
19.1514033835437
20
22.0780590246503
30
0
41
1
10
19.3130741342163
20
22.0711611481947
30
0
41
1
10
19.4835038227103
20
22.0644137242906
30
0
41
1
10
19.7510739911025
20
22.0553994364953
30
0
41
1
10
19.8422680086573
20
22.0525760738001
30
0
41
1
10
20.0286328481117
20
22.0474119732887
30
0
41
1
10
20.1242892304629
20
22.0450620471325
30
0
41
1
10
20.4128893722525
20
22.0389861198144
30
0
41
1
10
20.6075108632444
20
22.0362231063164
30
0
41
1
10
21.0009016827192
20
22.0335273104802
30
0
41
1
10
21.2006951529138
20
22.0336067650729
30
0
41
1
10
21.3994345546725
20
22.0350892525292
30
0
0
SPLINE
5
238
100
AcDbEntity
8
1
62
256
6
ByLayer
370
18
48
1
60
0
100
AcDbSpline
70
4
71
3
72
12
73
8
40
0
40
0
40
0
40
0
40
0.50000000000001
40
0.50000000000001
40
0.750000000000005
40
0.750000000000005
40
1
40
1
40
1
40
1
41
1
10
31.5962472504661
20
7.61711913336873
30
0
41
1
10
31.6968482045261
20
7.69977429518025
30
0
41
1
10
31.7912926631662
20
7.79516981272351
30
0
41
1
10
31.9300233842596
20
7.95270162134557
30
0
41
1
10
31.9752846151598
20
8.00710025899508
30
0
41
1
10
32.0632959922368
20
8.11636758175726
30
0
41
1
10
32.1063328811645
20
8.17157028501452
30
0
41
1
10
32.149067791316
20
8.22680997383509
30
0
0
SPLINE
5
239
100
AcDbEntity
8
1
62
256
6
ByLayer
370
18
48
1
60
0
100
AcDbSpline
70
4
71
3
72
17
73
13
40
0
40
0
40
0
40
0
40
0.250000000000004
40
0.250000000000004
40
0.375000000000005
40
0.375000000000005
40
0.500000000000006
40
0.625000000000007
40
0.625000000000007
40
0.750000000000008
40
0.750000000000008
40
1
40
1
40
1
40
1
41
1
10
36.8713731562775
20
14.2009467739345
30
0
41
1
10
36.8165254346694
20
14.2497331176861
30
0
41
1
10
36.748957956795
20
14.302905794528
30
0
41
1
10
36.627981848809
20
14.3910992150559
30
0
41
1
10
36.5840217843622
20
14.4221338866493
30
0
41
1
10
36.4908434366649
20
14.4861479521856
30
0
41
1
10
36.392801948411
20
14.5518648294376
30
0
41
1
10
36.2852822453
20
14.6209968104629
30
0
41
1
10
36.1729573847008
20
14.6918115238957
30
0
41
1
10
36.1140401523978
20
14.728267939819
30
0
41
1
10
35.9343577366571
20
14.8372802147261
30
0
41
1
10
35.8097169824619
20
14.9101659420526
30
0
41
1
10
35.6801019649178
20
14.9823715409286
30
0
0
SPLINE
5
23A
100
AcDbEntity
8
1
62
256
6
ByLayer
370
18
48
1
60
0
100
AcDbSpline
70
4
71
3
72
29
73
25
40
0
40
0
40
0
40
0
40
0.125000000000001
40
0.125000000000001
40
0.250000000000002
40
0.250000000000002
40
0.312500000000002
40
0.312500000000002
40
0.375000000000003
40
0.375000000000003
40
0.500000000000003
40
0.500000000000003
40
0.562500000000003
40
0.562500000000003
40
0.625000000000003
40
0.625000000000003
40
0.750000000000002
40
0.750000000000002
40
0.812500000000002
40
0.812500000000002
40
0.875000000000001
40
0.937500000000001
40
0.937500000000001
40
1
40
1
40
1
40
1
41
1
10
30.0569498428096
20
6.22487954374199
30
0
41
1
10
29.9781069034395
20
6.26410552750707
30
0
41
1
10
29.8996762406889
20
6.3157509677124
30
0
41
1
10
29.7486721632828
20
6.43676886764104
30
0
41
1
10
29.6752749520315
20
6.50631849208963
30
0
41
1
10
29.5647712152348
20
6.62256030381846
30
0
41
1
10
29.5282324210155
20
6.66293260005011
30
0
41
1
10
29.4563807180381
20
6.74500278145999
30
0
41
1
10
29.4208739739159
20
6.78690614933996
30
0
41
1
10
29.314739513161
20
6.91449064142139
30
0
41
1
10
29.2438073394349
20
7.00288458953312
30
0
41
1
10
29.1400673670862
20
7.13026571858484
30
0
41
1
10
29.1057574016506
20
7.17208356766722
30
0
41
1
10
29.0372162624677
20
7.2540883503448
30
0
41
1
10
29.0028126392546
20
7.29447227252561
30
0
41
1
10
28.9003763537194
20
7.41123595495952
30
0
41
1
10
28.8339185102077
20
7.48229614796736
30
0
41
1
10
28.7355142052519
20
7.57803748525913
30
0
41
1
10
28.7027507608878
20
7.60830098548371
30
0
41
1
10
28.6386814837812
20
7.66411039692446
30
0
41
1
10
28.5762506271388
20
7.71509462969985
30
0
41
1
10
28.5171758708411
20
7.75675599493428
30
0
41
1
10
28.4600123066175
20
7.79380465943828
30
0
41
1
10
28.4322197212132
20
7.81010517290332
30
0
41
1
10
28.4060427609135
20
7.8238466572727
30
0
0
SPLINE
5
23B
100
AcDbEntity
8
1
62
256
6
ByLayer
370
18
48
1
60
0
100
AcDbSpline
70
4
71
3
72
8
73
4
40
0
40
0
40
0
40
0
40
1
40
1
40
1
40
1
41
1
10
31.4794114200213
20
-22.5518601506556
30
0
41
1
10
31.3735573843612
20
-22.4848813163682
30
0
41
1
10
31.2698321874893
20
-22.4137214226483
30
0
41
1
10
31.1683222152631
20
-22.3382108068581
30
0
0
SPLINE
5
23C
100
AcDbEntity
8
1
62
256
6
ByLayer
370
18
48
1
60
0
100
AcDbSpline
70
4
71
3
72
8
73
4
40
0
40
0
40
0
40
0
40
1
40
1
40
1
40
1
41
1
10
37.9176455500714
20
-12.857470948002
30
0
41
1
10
37.9485708216339
20
-12.9556257377995
30
0
41
1
10
37.9939251790439
20
-13.0475990203198
30
0
41
1
10
38.0519802881975
20
-13.134365160944
30
0
0
SPLINE
5
23D
100
AcDbEntity
8
1
62
256
6
ByLayer
370
18
48
1
60
0
100
AcDbSpline
70
4
71
3
72
10
73
6
40
0
40
0
40
0
40
0
40
0.5
40
0.5
40
1
40
1
40
1
40
1
41
1
10
32.6741601538707
20
9.98748116972044
30
0
41
1
10
32.7018494812065
20
9.95566732007683
30
0
41
1
10
32.734095328101
20
9.9287588555876
30
0
41
1
10
32.8055845862848
20
9.88689962291218
30
0
41
1
10
32.8451960058427
20
9.87169101311284
30
0
41
1
10
32.8875696167173
20
9.86259469570086
30
0
0
LINE
5
70
100
AcDbEntity
8
80
62
256
6
ByLayer
370
18
48
1
60
0
100
AcDbLine
10
0
20
0
30
0
11
-5
21
0
31
0
39
0
210
0
220
0
230
1
0
LINE
5
71
100
AcDbEntity
8
4
62
256
6
ByLayer
370
18
48
0.05
60
0
100
AcDbLine
10
0
20
0
30
0
11
45
21
0
31
0
39
0
210
0
220
0
230
1
0
LINE
5
73
100
AcDbEntity
8
1
62
256
6
ByLayer
370
18
48
1
60
0
100
AcDbLine
10
39
20
16.155423
30
0
11
38.033517
21
17.950756
31
0
39
0
210
0
220
0
230
1
0
LINE
5
75
100
AcDbEntity
8
SK4
62
256
6
ByLayer
370
18
48
0.05
60
0
100
AcDbLine
10
-5
20
0
30
0
11
45
21
0
31
0
39
0
210
0
220
0
230
1
0
LINE
5
77
100
AcDbEntity
8
81
62
256
6
ByLayer
370
18
48
1
60
0
100
AcDbLine
10
40
20
25
30
0
11
45
21
25
31
0
39
0
210
0
220
0
230
1
0
LINE
5
78
100
AcDbEntity
8
1
62
256
6
ByLayer
370
18
48
1
60
0
100
AcDbLine
10
15.939287
20
20.5
30
0
11
0.5
21
20.5
31
0
39
0
210
0
220
0
230
1
0
LINE
5
79
100
AcDbEntity
8
1
62
256
6
ByLayer
370
18
48
1
60
0
100
AcDbLine
10
0.5
20
-20.5
30
0
11
15.939287
21
-20.5
31
0
39
0
210
0
220
0
230
1
0
LINE
5
7A
100
AcDbEntity
8
1
62
256
6
ByLayer
370
18
48
1
60
0
100
AcDbLine
10
17.545345
20
21.308121
30
0
11
17.545345
21
-21.308121
31
0
39
0
210
0
220
0
230
1
0
LINE
5
7B
100
AcDbEntity
8
1
62
256
6
ByLayer
370
18
48
1
60
0
100
AcDbLine
10
15.939287
20
-20.5
30
0
11
15.939287
21
20.5
31
0
39
0
210
0
220
0
230
1
0
LINE
5
7C
100
AcDbEntity
8
1
62
256
6
ByLayer
370
18
48
1
60
0
100
AcDbLine
10
0.5
20
-20.5
30
0
11
0.5
21
-5.8275
31
0
39
0
210
0
220
0
230
1
0
LINE
5
7D
100
AcDbEntity
8
1
62
256
6
ByLayer
370
18
48
1
60
0
100
AcDbLine
10
0.5
20
20.5
30
0
11
0.5
21
5.8275
31
0
39
0
210
0
220
0
230
1
0
LINE
5
7E
100
AcDbEntity
8
1
62
256
6
ByLayer
370
18
48
1
60
0
100
AcDbLine
10
0
20
6.3275
30
0
11
0
21
20
31
0
39
0
210
0
220
0
230
1
0
LINE
5
7F
100
AcDbEntity
8
1
62
256
6
ByLayer
370
18
48
1
60
0
100
AcDbLine
10
0
20
-6.3275
30
0
11
0
21
-20
31
0
39
0
210
0
220
0
230
1
0
LINE
5
80
100
AcDbEntity
8
1
62
256
6
ByLayer
370
18
48
1
60
0
100
AcDbLine
10
37.912301
20
1.528945
30
0
11
37.912301
21
3.414451
31
0
39
0
210
0
220
0
230
1
0
LINE
5
81
100
AcDbEntity
8
1
62
256
6
ByLayer
370
18
48
1
60
0
100
AcDbLine
10
37.912301
20
-12.868711
30
0
11
37.912301
21
-11.63548
31
0
39
0
210
0
220
0
230
1
0
LINE
5
82
100
AcDbEntity
8
1
62
256
6
ByLayer
370
18
48
1
60
0
100
AcDbLine
10
39
20
16.134289
30
0
11
39
21
16.155423
31
0
39
0
210
0
220
0
230
1
0
LINE
5
83
100
AcDbEntity
8
1
62
256
6
ByLayer
370
18
48
1
60
0
100
AcDbLine
10
38.05198
20
-11.57618
30
0
11
38.05198
21
-13.147464
31
0
39
0
210
0
220
0
230
1
0
LINE
5
84
100
AcDbEntity
8
1
62
256
6
ByLayer
370
18
48
1
60
0
100
AcDbLine
10
38.05198
20
3.827446
30
0
11
38.05198
21
1.407295
31
0
39
0
210
0
220
0
230
1
0
LINE
5
85
100
AcDbEntity
8
1
62
256
6
ByLayer
370
18
48
1
60
0
100
AcDbLine
10
31.651914
20
20.171289
30
0
11
31.537786
21
20.286294
31
0
39
0
210
0
220
0
230
1
0
LINE
5
86
100
AcDbEntity
8
1
62
256
6
ByLayer
370
18
48
1
60
0
100
AcDbLine
10
31.24785
20
20.578458
30
0
11
31.157854
21
20.669145
31
0
39
0
210
0
220
0
230
1
0
LINE
5
87
100
AcDbEntity
8
1
62
256
6
ByLayer
370
18
48
1
60
0
100
AcDbLine
10
37.045695
20
6.744229
30
0
11
36.840493
21
6.642282
31
0
39
0
210
0
220
0
230
1
0
LINE
5
88
100
AcDbEntity
8
1
62
256
6
ByLayer
370
18
48
1
60
0
100
AcDbLine
10
39
20
19.006234
30
0
11
37.2898
21
19.036895
31
0
39
0
210
0
220
0
230
1
0
LINE
5
89
100
AcDbEntity
8
1
62
256
6
ByLayer
370
18
48
1
60
0
100
AcDbLine
10
37.936017
20
18.103464
30
0
11
39
21
18.084389
31
0
39
0
210
0
220
0
230
1
0
LINE
5
8A
100
AcDbEntity
8
1
62
256
6
ByLayer
370
18
48
1
60
0
100
AcDbLine
10
28.895493
20
11.058965
30
0
11
29.252431
21
12.247095
31
0
39
0
210
0
220
0
230
1
0
LINE
5
8B
100
AcDbEntity
8
1
62
256
6
ByLayer
370
18
48
1
60
0
100
AcDbLine
10
39
20
17.353013
30
0
11
39
21
16.155435
31
0
39
0
210
0
220
0
230
1
0
LINE
5
8C
100
AcDbEntity
8
1
62
256
6
ByLayer
370
18
48
1
60
0
100
AcDbLine
10
32.711081
20
11.101482
30
0
11
32.754089
21
11.189746
31
0
39
0
210
0
220
0
230
1
0
LINE
5
8D
100
AcDbEntity
8
1
62
256
6
ByLayer
370
18
48
1
60
0
100
AcDbLine
10
35.266106
20
0.370038
30
0
11
35.203593
21
-0.932602
31
0
39
0
210
0
220
0
230
1
0
LINE
5
8E
100
AcDbEntity
8
1
62
256
6
ByLayer
370
18
48
1
60
0
100
AcDbLine
10
35.680102
20
21.048155
30
0
11
37.045695
21
22.403492
31
0
39
0
210
0
220
0
230
1
0
LINE
5
8F
100
AcDbEntity
8
1
62
256
6
ByLayer
370
18
48
1
60
0
100
AcDbLine
10
32.869925
20
15.277768
30
0
11
31.479411
21
16.189887
31
0
39
0
210
0
220
0
230
1
0
LINE
5
90
100
AcDbEntity
8
1
62
256
6
ByLayer
370
18
48
1
60
0
100
AcDbLine
10
19.151403
20
-14.121734
30
0
11
19.151403
21
-22.078059
31
0
39
0
210
0
220
0
230
1
0
LINE
5
91
100
AcDbEntity
8
1
62
256
6
ByLayer
370
18
48
1
60
0
100
AcDbLine
10
31.168322
20
-19.283625
30
0
11
31.168322
21
-22.338211
31
0
39
0
210
0
220
0
230
1
0
LINE
5
92
100
AcDbEntity
8
1
62
256
6
ByLayer
370
18
48
1
60
0
100
AcDbLine
10
39
20
5.047726
30
0
11
39
21
4.924271
31
0
39
0
210
0
220
0
230
1
0
LINE
5
93
100
AcDbEntity
8
1
62
256
6
ByLayer
370
18
48
1
60
0
100
AcDbLine
10
27.732947
20
9.807042
30
0
11
25.269606
21
10.374505
31
0
39
0
210
0
220
0
230
1
0
LINE
5
94
100
AcDbEntity
8
1
62
256
6
ByLayer
370
18
48
1
60
0
100
AcDbLine
10
36.871373
20
5.646784
30
0
11
38.228959
21
6.321251
31
0
39
0
210
0
220
0
230
1
0
LINE
5
95
100
AcDbEntity
8
1
62
256
6
ByLayer
370
18
48
1
60
0
100
AcDbLine
10
35.642138
20
15.003286
30
0
11
35.606909
21
15.039924
31
0
39
0
210
0
220
0
230
1
0
LINE
5
96
100
AcDbEntity
8
1
62
256
6
ByLayer
370
18
48
1
60
0
100
AcDbLine
10
38.918159
20
16.197296
30
0
11
38.405531
21
17.149551
31
0
39
0
210
0
220
0
230
1
0
LINE
5
97
100
AcDbEntity
8
1
62
256
6
ByLayer
370
18
48
1
60
0
100
AcDbLine
10
31.572294
20
11.866552
30
0
11
31.743401
21
11.916025
31
0
39
0
210
0
220
0
230
1
0
LINE
5
98
100
AcDbEntity
8
1
62
256
6
ByLayer
370
18
48
1
60
0
100
AcDbLine
10
38.271089
20
3.973172
30
0
11
36.957175
21
4.435308
31
0
39
0
210
0
220
0
230
1
0
LINE
5
99
100
AcDbEntity
8
1
62
256
6
ByLayer
370
18
48
1
60
0
100
AcDbLine
10
36.351827
20
-8.227771
30
0
11
36.87418
21
-8.044046
31
0
39
0
210
0
220
0
230
1
0
LINE
5
9A
100
AcDbEntity
8
1
62
256
6
ByLayer
370
18
48
1
60
0
100
AcDbLine
10
39
20
13.614187
30
0
11
39
21
13.059937
31
0
39
0
210
0
220
0
230
1
0
LINE
5
9B
100
AcDbEntity
8
1
62
256
6
ByLayer
370
18
48
1
60
0
100
AcDbLine
10
39
20
14.163391
30
0
11
39
21
14.081962
31
0
39
0
210
0
220
0
230
1
0
LINE
5
9C
100
AcDbEntity
8
1
62
256
6
ByLayer
370
18
48
1
60
0
100
AcDbLine
10
28.062905
20
21.215063
30
0
11
27.211841
21
22.072666
31
0
39
0
210
0
220
0
230
1
0
LINE
5
9D
100
AcDbEntity
8
1
62
256
6
ByLayer
370
18
48
1
60
0
100
AcDbLine
10
19.151403
20
21.801239
30
0
11
19.151403
21
12.16401
31
0
39
0
210
0
220
0
230
1
0
LINE
5
9E
100
AcDbEntity
8
1
62
256
6
ByLayer
370
18
48
1
60
0
100
AcDbLine
10
27.438172
20
21.845985
30
0
11
28.097804
21
21.181285
31
0
39
0
210
0
220
0
230
1
0
LINE
5
9F
100
AcDbEntity
8
1
62
256
6
ByLayer
370
18
48
1
60
0
100
AcDbLine
10
32.88757
20
9.862595
30
0
11
32.517392
21
8.630393
31
0
39
0
210
0
220
0
230
1
0
LINE
5
A0
100
AcDbEntity
8
1
62
256
6
ByLayer
370
18
48
1
60
0
100
AcDbLine
10
28.062905
20
11.679804
30
0
11
27.211841
21
12.238067
31
0
39
0
210
0
220
0
230
1
0
LINE
5
A1
100
AcDbEntity
8
1
62
256
6
ByLayer
370
18
48
1
60
0
100
AcDbLine
10
28.259164
20
15.823732
30
0
11
28.259164
21
20.296637
31
0
39
0
210
0
220
0
230
1
0
LINE
5
A2
100
AcDbEntity
8
1
62
256
6
ByLayer
370
18
48
1
60
0
100
AcDbLine
10
31.479411
20
22.55186
30
0
11
32.869925
21
21.150663
31
0
39
0
210
0
220
0
230
1
0
LINE
5
A3
100
AcDbEntity
8
1
62
256
6
ByLayer
370
18
48
1
60
0
100
AcDbLine
10
31.869381
20
8.145942
30
0
11
32.149068
21
8.22681
31
0
39
0
210
0
220
0
230
1
0
LINE
5
A4
100
AcDbEntity
8
1
62
256
6
ByLayer
370
18
48
1
60
0
100
AcDbLine
10
38.271089
20
11.734826
30
0
11
36.957175
21
12.5967
31
0
39
0
210
0
220
0
230
1
0
LINE
5
A5
100
AcDbEntity
8
1
62
256
6
ByLayer
370
18
48
1
60
0
100
AcDbLine
10
39
20
-18.183352
30
0
11
39
21
-19.211117
31
0
39
0
210
0
220
0
230
1
0
LINE
5
A6
100
AcDbEntity
8
1
62
256
6
ByLayer
370
18
48
1
60
0
100
AcDbLine
10
28.259164
20
-21.292943
30
0
11
28.259164
21
-17.756274
31
0
39
0
210
0
220
0
230
1
0
LINE
5
A7
100
AcDbEntity
8
1
62
256
6
ByLayer
370
18
48
1
60
0
100
AcDbLine
10
39
20
16.134289
30
0
11
39
21
14.163391
31
0
39
0
210
0
220
0
230
1
0
LINE
5
A8
100
AcDbEntity
8
1
62
256
6
ByLayer
370
18
48
1
60
0
100
AcDbLine
10
34.96035
20
16.763461
30
0
11
34.910497
21
15.323351
31
0
39
0
210
0
220
0
230
1
0
LINE
5
A9
100
AcDbEntity
8
1
62
256
6
ByLayer
370
18
48
1
60
0
100
AcDbLine
10
35.968633
20
11.974572
30
0
11
36.462694
21
11.650489
31
0
39
0
210
0
220
0
230
1
0
LINE
5
AA
100
AcDbEntity
8
1
62
256
6
ByLayer
370
18
48
1
60
0
100
AcDbLine
10
35.606909
20
21.097743
30
0
11
35.589718
21
21.080681
31
0
39
0
210
0
220
0
230
1
0
LINE
5
AB
100
AcDbEntity
8
1
62
256
6
ByLayer
370
18
48
1
60
0
100
AcDbLine
10
39
20
19.211117
30
0
11
39
21
19.006234
31
0
39
0
210
0
220
0
230
1
0
LINE
5
AC
100
AcDbEntity
8
1
62
256
6
ByLayer
370
18
48
1
60
0
100
AcDbLine
10
30.205458
20
12.924852
30
0
11
31.743401
21
11.916025
31
0
39
0
210
0
220
0
230
1
0
LINE
5
AD
100
AcDbEntity
8
1
62
256
6
ByLayer
370
18
48
1
60
0
100
AcDbLine
10
36.871373
20
14.200947
30
0
11
38.228959
21
14.873869
31
0
39
0
210
0
220
0
230
1
0
LINE
5
AE
100
AcDbEntity
8
1
62
256
6
ByLayer
370
18
48
1
60
0
100
AcDbLine
10
36.92505
20
14.175278
30
0
11
36.88713
21
14.186622
31
0
39
0
210
0
220
0
230
1
0
LINE
5
AF
100
AcDbEntity
8
1
62
256
6
ByLayer
370
18
48
1
60
0
100
AcDbLine
10
39
20
-13.059937
30
0
11
39
21
-15.563916
31
0
39
0
210
0
220
0
230
1
0
LINE
5
B0
100
AcDbEntity
8
1
62
256
6
ByLayer
370
18
48
1
60
0
100
AcDbLine
10
34.05232
20
23.160509
30
0
11
34.002182
21
21.256434
31
0
39
0
210
0
220
0
230
1
0
LINE
5
B1
100
AcDbEntity
8
1
62
256
6
ByLayer
370
18
48
1
60
0
100
AcDbLine
10
28.259164
20
-5.469211
30
0
11
28.259164
21
2.540363
31
0
39
0
210
0
220
0
230
1
0
LINE
5
B2
100
AcDbEntity
8
1
62
256
6
ByLayer
370
18
48
1
60
0
100
AcDbLine
10
34.910497
20
21.225439
30
0
11
34.96035
21
23.118693
31
0
39
0
210
0
220
0
230
1
0
LINE
5
B3
100
AcDbEntity
8
1
62
256
6
ByLayer
370
18
48
1
60
0
100
AcDbLine
10
39
20
-2.049063
30
0
11
39
21
-5.047726
31
0
39
0
210
0
220
0
230
1
0
LINE
5
B4
100
AcDbEntity
8
1
62
256
6
ByLayer
370
18
48
1
60
0
100
AcDbLine
10
1.1
20
5.2275
30
0
11
0.5
21
5.8275
31
0
39
0
210
0
220
0
230
1
0
LINE
5
B5
100
AcDbEntity
8
1
62
256
6
ByLayer
370
18
48
1
60
0
100
AcDbLine
10
39
20
-0.179396
30
0
11
39
21
-2.049063
31
0
39
0
210
0
220
0
230
1
0
LINE
5
B6
100
AcDbEntity
8
1
62
256
6
ByLayer
370
18
48
1
60
0
100
AcDbLine
10
39
20
4.470202
30
0
11
39
21
4.924271
31
0
39
0
210
0
220
0
230
1
0
LINE
5
B7
100
AcDbEntity
8
1
62
256
6
ByLayer
370
18
48
1
60
0
100
AcDbLine
10
28.097804
20
-7.705887
30
0
11
27.438172
21
-7.937896
31
0
39
0
210
0
220
0
230
1
0
LINE
5
B8
100
AcDbEntity
8
1
62
256
6
ByLayer
370
18
48
1
60
0
100
AcDbLine
10
39
20
4.470202
30
0
11
39
21
4.293076
31
0
39
0
210
0
220
0
230
1
0
LINE
5
B9
100
AcDbEntity
8
1
62
256
6
ByLayer
370
18
48
1
60
0
100
AcDbLine
10
24.820317
20
3.530513
30
0
11
24.232357
21
5.125563
31
0
39
0
210
0
220
0
230
1
0
LINE
5
BA
100
AcDbEntity
8
1
62
256
6
ByLayer
370
18
48
1
60
0
100
AcDbLine
10
34.002182
20
15.479846
30
0
11
34.05232
21
16.928186
31
0
39
0
210
0
220
0
230
1
0
LINE
5
BB
100
AcDbEntity
8
1
62
256
6
ByLayer
370
18
48
1
60
0
100
AcDbLine
10
37.078596
20
13.901168
30
0
11
39
21
14.081962
31
0
39
0
210
0
220
0
230
1
0
LINE
5
BC
100
AcDbEntity
8
1
62
256
6
ByLayer
370
18
48
1
60
0
100
AcDbLine
10
36.984958
20
-8.203623
30
0
11
36.351827
21
-8.227771
31
0
39
0
210
0
220
0
230
1
0
LINE
5
BD
100
AcDbEntity
8
1
62
256
6
ByLayer
370
18
48
1
60
0
100
AcDbLine
10
32.298816
20
9.878955
30
0
11
31.869381
21
8.145942
31
0
39
0
210
0
220
0
230
1
0
LINE
5
BE
100
AcDbEntity
8
1
62
256
6
ByLayer
370
18
48
1
60
0
100
AcDbLine
10
37.078596
20
5.139513
30
0
11
39
21
4.924271
31
0
39
0
210
0
220
0
230
1
0
LINE
5
BF
100
AcDbEntity
8
1
62
256
6
ByLayer
370
18
48
1
60
0
100
AcDbLine
10
28.906351
20
12.839547
30
0
11
28.913952
21
12.833296
31
0
39
0
210
0
220
0
230
1
0
LINE
5
C0
100
AcDbEntity
8
1
62
256
6
ByLayer
370
18
48
1
60
0
100
AcDbLine
10
24.820317
20
-17.142353
30
0
11
24.232357
21
-11.671329
31
0
39
0
210
0
220
0
230
1
0
LINE
5
C1
100
AcDbEntity
8
1
62
256
6
ByLayer
370
18
48
1
60
0
100
AcDbLine
10
28.097804
20
13.475398
30
0
11
27.438172
21
13.908089
31
0
39
0
210
0
220
0
230
1
0
LINE
5
C2
100
AcDbEntity
8
1
62
256
6
ByLayer
370
18
48
1
60
0
100
AcDbLine
10
30.956476
20
1.5579
30
0
11
31.485816
21
1.414545
31
0
39
0
210
0
220
0
230
1
0
LINE
5
C3
100
AcDbEntity
8
1
62
256
6
ByLayer
370
18
48
1
60
0
100
AcDbLine
10
39
20
4.293076
30
0
11
39
21
0.179396
31
0
39
0
210
0
220
0
230
1
0
LINE
5
C4
100
AcDbEntity
8
1
62
256
6
ByLayer
370
18
48
1
60
0
100
AcDbLine
10
5.75
20
5.2275
30
0
11
6.55
21
4.4275
31
0
39
0
210
0
220
0
230
1
0
LINE
5
C5
100
AcDbEntity
8
1
62
256
6
ByLayer
370
18
48
1
60
0
100
AcDbLine
10
38.918159
20
-2.455841
30
0
11
38.405531
21
-2.63251
31
0
39
0
210
0
220
0
230
1
0
LINE
5
C6
100
AcDbEntity
8
1
62
256
6
ByLayer
370
18
48
1
60
0
100
AcDbLine
10
36.225614
20
0.936006
30
0
11
37.917646
21
1.519137
31
0
39
0
210
0
220
0
230
1
0
LINE
5
C7
100
AcDbEntity
8
1
62
256
6
ByLayer
370
18
48
1
60
0
100
AcDbLine
10
0.5
20
-5.8275
30
0
11
1.1
21
-5.2275
31
0
39
0
210
0
220
0
230
1
0
LINE
5
C8
100
AcDbEntity
8
1
62
256
6
ByLayer
370
18
48
1
60
0
100
AcDbLine
10
29.911498
20
13.054368
30
0
11
29.146914
21
13.555904
31
0
39
0
210
0
220
0
230
1
0
LINE
5
C9
100
AcDbEntity
8
1
62
256
6
ByLayer
370
18
48
1
60
0
100
AcDbLine
10
35.589718
20
15.031403
30
0
11
35.606909
21
15.039924
31
0
39
0
210
0
220
0
230
1
0
LINE
5
CA
100
AcDbEntity
8
1
62
256
6
ByLayer
370
18
48
1
60
0
100
AcDbLine
10
35.606909
20
21.097743
30
0
11
35.642138
21
21.062233
31
0
39
0
210
0
220
0
230
1
0
LINE
5
CB
100
AcDbEntity
8
1
62
256
6
ByLayer
370
18
48
1
60
0
100
AcDbLine
10
24.232357
20
-11.671329
30
0
11
37.425655
21
-11.16813
31
0
39
0
210
0
220
0
230
1
0
LINE
5
CC
100
AcDbEntity
8
1
62
256
6
ByLayer
370
18
48
1
60
0
100
AcDbLine
10
28.062905
20
-9.535259
30
0
11
27.211841
21
-9.834599
31
0
39
0
210
0
220
0
230
1
0
LINE
5
CD
100
AcDbEntity
8
1
62
256
6
ByLayer
370
18
48
1
60
0
100
AcDbLine
10
36.92505
20
5.594196
30
0
11
36.88713
21
5.621053
31
0
39
0
210
0
220
0
230
1
0
LINE
5
CE
100
AcDbEntity
8
1
62
256
6
ByLayer
370
18
48
1
60
0
100
AcDbLine
10
30.398589
20
14.530011
30
0
11
34.005765
21
12.163853
31
0
39
0
210
0
220
0
230
1
0
LINE
5
CF
100
AcDbEntity
8
1
62
256
6
ByLayer
370
18
48
1
60
0
100
AcDbLine
10
39
20
4.470202
30
0
11
37.116531
21
4.681194
31
0
39
0
210
0
220
0
230
1
0
LINE
5
D0
100
AcDbEntity
8
1
62
256
6
ByLayer
370
18
48
1
60
0
100
AcDbLine
10
31.168322
20
20.576742
30
0
11
31.168322
21
16.090445
31
0
39
0
210
0
220
0
230
1
0
LINE
5
D1
100
AcDbEntity
8
1
62
256
6
ByLayer
370
18
48
1
60
0
100
AcDbLine
10
35.681698
20
8.393934
30
0
11
35.689551
21
8.390047
31
0
39
0
210
0
220
0
230
1
0
LINE
5
D2
100
AcDbEntity
8
1
62
256
6
ByLayer
370
18
48
1
60
0
100
AcDbLine
10
36.92505
20
5.594196
30
0
11
36.907859
21
5.585655
31
0
39
0
210
0
220
0
230
1
0
LINE
5
D3
100
AcDbEntity
8
1
62
256
6
ByLayer
370
18
48
1
60
0
100
AcDbLine
10
32.517392
20
8.630393
30
0
11
32.541196
21
8.63874
31
0
39
0
210
0
220
0
230
1
0
LINE
5
D4
100
AcDbEntity
8
1
62
256
6
ByLayer
370
18
48
1
60
0
100
AcDbLine
10
32.126034
20
11.485249
30
0
11
32.711081
21
11.101482
31
0
39
0
210
0
220
0
230
1
0
LINE
5
D5
100
AcDbEntity
8
1
62
256
6
ByLayer
370
18
48
1
60
0
100
AcDbLine
10
30.205458
20
12.924852
30
0
11
30.034351
21
12.875379
31
0
39
0
210
0
220
0
230
1
0
LINE
5
D6
100
AcDbEntity
8
1
62
256
6
ByLayer
370
18
48
1
60
0
100
AcDbLine
10
36.88713
20
19.807675
30
0
11
36.92505
21
19.769474
31
0
39
0
210
0
220
0
230
1
0
LINE
5
D7
100
AcDbEntity
8
1
62
256
6
ByLayer
370
18
48
1
60
0
100
AcDbLine
10
31.485816
20
-19.072868
30
0
11
31.462947
21
-19.645113
31
0
39
0
210
0
220
0
230
1
0
LINE
5
D8
100
AcDbEntity
8
1
62
256
6
ByLayer
370
18
48
1
60
0
100
AcDbLine
10
36.225614
20
-16.58371
30
0
11
37.917646
21
-12.857471
31
0
39
0
210
0
220
0
230
1
0
LINE
5
D9
100
AcDbEntity
8
1
62
256
6
ByLayer
370
18
48
1
60
0
100
AcDbLine
10
32.754089
20
11.189746
30
0
11
31.989505
21
11.691282
31
0
39
0
210
0
220
0
230
1
0
LINE
5
DA
100
AcDbEntity
8
1
62
256
6
ByLayer
370
18
48
1
60
0
100
AcDbLine
10
29.103906
20
13.467641
30
0
11
29.688953
21
13.083874
31
0
39
0
210
0
220
0
230
1
0
LINE
5
DB
100
AcDbEntity
8
1
62
256
6
ByLayer
370
18
48
1
60
0
100
AcDbLine
10
36.92505
20
14.175278
30
0
11
36.907859
21
14.166756
31
0
39
0
210
0
220
0
230
1
0
LINE
5
DC
100
AcDbEntity
8
1
62
256
6
ByLayer
370
18
48
1
60
0
100
AcDbLine
10
39
20
-15.743312
30
0
11
39
21
-18.183352
31
0
39
0
210
0
220
0
230
1
0
LINE
5
DD
100
AcDbEntity
8
1
62
256
6
ByLayer
370
18
48
1
60
0
100
AcDbLine
10
39
20
18.084389
30
0
11
39
21
19.006234
31
0
39
0
210
0
220
0
230
1
0
LINE
5
DE
100
AcDbEntity
8
1
62
256
6
ByLayer
370
18
48
1
60
0
100
AcDbLine
10
36.860436
20
7.727472
30
0
11
36.519078
21
7.951389
31
0
39
0
210
0
220
0
230
1
0
LINE
5
DF
100
AcDbEntity
8
1
62
256
6
ByLayer
370
18
48
1
60
0
100
AcDbLine
10
29.001628
20
12.952403
30
0
11
29.249227
21
12.255701
31
0
39
0
210
0
220
0
230
1
0
LINE
5
E0
100
AcDbEntity
8
1
62
256
6
ByLayer
370
18
48
1
60
0
100
AcDbLine
10
29.146914
20
13.555904
30
0
11
29.103906
21
13.467641
31
0
39
0
210
0
220
0
230
1
0
LINE
5
E1
100
AcDbEntity
8
1
62
256
6
ByLayer
370
18
48
1
60
0
100
AcDbLine
10
5.75
20
-5.2275
30
0
11
1.1
21
-5.2275
31
0
39
0
210
0
220
0
230
1
0
LINE
5
E2
100
AcDbEntity
8
1
62
256
6
ByLayer
370
18
48
1
60
0
100
AcDbLine
10
37.045695
20
15.659263
30
0
11
35.680102
21
14.982372
31
0
39
0
210
0
220
0
230
1
0
LINE
5
E3
100
AcDbEntity
8
1
62
256
6
ByLayer
370
18
48
1
60
0
100
AcDbLine
10
31.168322
20
1.293117
30
0
11
31.168322
21
-6.247766
31
0
39
0
210
0
220
0
230
1
0
LINE
5
E4
100
AcDbEntity
8
1
62
256
6
ByLayer
370
18
48
1
60
0
100
AcDbLine
10
31.572294
20
11.866552
30
0
11
30.034351
21
12.875379
31
0
39
0
210
0
220
0
230
1
0
LINE
5
E5
100
AcDbEntity
8
1
62
256
6
ByLayer
370
18
48
1
60
0
100
AcDbLine
10
31.485816
20
1.414545
30
0
11
31.462947
21
0.937997
31
0
39
0
210
0
220
0
230
1
0
LINE
5
E6
100
AcDbEntity
8
1
62
256
6
ByLayer
370
18
48
1
60
0
100
AcDbLine
10
28.906351
20
20.366445
30
0
11
28.916459
21
20.356284
31
0
39
0
210
0
220
0
230
1
0
LINE
5
E7
100
AcDbEntity
8
1
62
256
6
ByLayer
370
18
48
1
60
0
100
AcDbLine
10
28.913952
20
20.358785
30
0
11
28.906351
21
20.366445
31
0
39
0
210
0
220
0
230
1
0
LINE
5
E8
100
AcDbEntity
8
1
62
256
6
ByLayer
370
18
48
1
60
0
100
AcDbLine
10
24.232357
20
5.125563
30
0
11
37.425655
21
2.086316
31
0
39
0
210
0
220
0
230
1
0
LINE
5
E9
100
AcDbEntity
8
1
62
256
6
ByLayer
370
18
48
1
60
0
100
AcDbLine
10
28.916459
20
12.865594
30
0
11
28.906351
21
12.839547
31
0
39
0
210
0
220
0
230
1
0
LINE
5
EA
100
AcDbEntity
8
1
62
256
6
ByLayer
370
18
48
1
60
0
100
AcDbLine
10
39
20
18.084389
30
0
11
39
21
17.353013
31
0
39
0
210
0
220
0
230
1
0
LINE
5
EB
100
AcDbEntity
8
1
62
256
6
ByLayer
370
18
48
1
60
0
100
AcDbLine
10
6.55
20
-4.4275
30
0
11
6.55
21
4.4275
31
0
39
0
210
0
220
0
230
1
0
LINE
5
EC
100
AcDbEntity
8
1
62
256
6
ByLayer
370
18
48
1
60
0
100
AcDbLine
10
31.157854
20
15.130245
30
0
11
31.651914
21
14.806162
31
0
39
0
210
0
220
0
230
1
0
LINE
5
ED
100
AcDbEntity
8
1
62
256
6
ByLayer
370
18
48
1
60
0
100
AcDbLine
10
6.55
20
-4.4275
30
0
11
5.75
21
-5.2275
31
0
39
0
210
0
220
0
230
1
0
LINE
5
EE
100
AcDbEntity
8
1
62
256
6
ByLayer
370
18
48
1
60
0
100
AcDbLine
10
28.906351
20
-7.526898
30
0
11
28.913952
21
-7.525489
31
0
39
0
210
0
220
0
230
1
0
LINE
5
EF
100
AcDbEntity
8
1
62
256
6
ByLayer
370
18
48
1
60
0
100
AcDbLine
10
32.67416
20
9.987481
30
0
11
32.298816
21
9.878955
31
0
39
0
210
0
220
0
230
1
0
LINE
5
F0
100
AcDbEntity
8
1
62
256
6
ByLayer
370
18
48
1
60
0
100
AcDbLine
10
38.228959
20
21.19512
30
0
11
36.871373
21
19.847731
31
0
39
0
210
0
220
0
230
1
0
LINE
5
F1
100
AcDbEntity
8
1
62
256
6
ByLayer
370
18
48
1
60
0
100
AcDbLine
10
36.907859
20
19.752411
30
0
11
36.92505
21
19.769474
31
0
39
0
210
0
220
0
230
1
0
LINE
5
F2
100
AcDbEntity
8
1
62
256
6
ByLayer
370
18
48
1
60
0
100
AcDbLine
10
35.689551
20
8.390047
30
0
11
35.685942
21
8.425093
31
0
39
0
210
0
220
0
230
1
0
LINE
5
F3
100
AcDbEntity
8
1
62
256
6
ByLayer
370
18
48
1
60
0
100
AcDbLine
10
28.916459
20
-7.490689
30
0
11
28.906351
21
-7.526898
31
0
39
0
210
0
220
0
230
1
0
LINE
5
F4
100
AcDbEntity
8
1
62
256
6
ByLayer
370
18
48
1
60
0
100
AcDbLine
10
29.001628
20
-7.077706
30
0
11
29.249227
21
-5.104991
31
0
39
0
210
0
220
0
230
1
0
LINE
5
F5
100
AcDbEntity
8
1
62
256
6
ByLayer
370
18
48
1
60
0
100
AcDbLine
10
36.984958
20
4.487602
30
0
11
36.351827
21
4.633452
31
0
39
0
210
0
220
0
230
1
0
LINE
5
F6
100
AcDbEntity
8
1
62
256
6
ByLayer
370
18
48
1
60
0
100
AcDbLine
10
19.151403
20
7.679505
30
0
11
19.151403
21
-9.914049
31
0
39
0
210
0
220
0
230
1
0
LINE
5
F7
100
AcDbEntity
8
1
62
256
6
ByLayer
370
18
48
1
60
0
100
AcDbLine
10
36.92505
20
5.594196
30
0
11
36.869006
21
5.613908
31
0
39
0
210
0
220
0
230
1
0
LINE
5
F8
100
AcDbEntity
8
1
62
256
6
ByLayer
370
18
48
1
60
0
100
AcDbLine
10
39
20
13.614187
30
0
11
39
21
14.081962
31
0
39
0
210
0
220
0
230
1
0
LINE
5
F9
100
AcDbEntity
8
1
62
256
6
ByLayer
370
18
48
1
60
0
100
AcDbLine
10
35.986143
20
11.192292
30
0
11
34.484233
21
12.177483
31
0
39
0
210
0
220
0
230
1
0
LINE
5
FA
100
AcDbEntity
8
1
62
256
6
ByLayer
370
18
48
1
60
0
100
AcDbLine
10
39
20
13.614187
30
0
11
37.116531
21
13.436962
31
0
39
0
210
0
220
0
230
1
0
LINE
5
FB
100
AcDbEntity
8
1
62
256
6
ByLayer
370
18
48
1
60
0
100
AcDbLine
10
35.266106
20
-19.528955
30
0
11
35.203593
21
-21.093185
31
0
39
0
210
0
220
0
230
1
0
LINE
5
FC
100
AcDbEntity
8
1
62
256
6
ByLayer
370
18
48
1
60
0
100
AcDbLine
10
30.956476
20
-19.012462
30
0
11
31.485816
21
-19.072868
31
0
39
0
210
0
220
0
230
1
0
LINE
5
FD
100
AcDbEntity
8
1
62
256
6
ByLayer
370
18
48
1
60
0
100
AcDbLine
10
1.1
20
5.2275
30
0
11
5.75
21
5.2275
31
0
39
0
210
0
220
0
230
1
0
LINE
5
FE
100
AcDbEntity
8
1
62
256
6
ByLayer
370
18
48
1
60
0
100
AcDbLine
10
38.918159
20
-18.653136
30
0
11
38.405531
21
-19.782061
31
0
39
0
210
0
220
0
230
1
0
LINE
5
FF
100
AcDbEntity
8
1
62
256
6
ByLayer
370
18
48
1
60
0
100
AcDbLine
10
31.298878
20
14.266944
30
0
11
29.796968
21
15.252136
31
0
39
0
210
0
220
0
230
1
0
LINE
5
100
100
AcDbEntity
8
1
62
256
6
ByLayer
370
18
48
1
60
0
100
AcDbLine
10
32.919142
20
9.848388
30
0
11
35.41616
21
8.744735
31
0
39
0
210
0
220
0
230
1
0
MTEXT
5
23E
100
AcDbEntity
8
SK6
62
256
6
ByLayer
370
18
48
1
60
0
100
AcDbMText
10
-59
20
-18.98867
30
0
210
0
220
0
230
1
1
\W0.7506;600-050Q22-12HX
40
4
41
0
44
1.084337
50
89.9999999999998
71
7
72
5
7
iso_b_vert
0
DIMENSION
5
251
100
AcDbEntity
8
2
62
256
6
ByLayer
370
13
48
1
60
0
100
AcDbDimension
2
DimnDraft3D1
10
64.896875
20
25
30
0
11
64.896875
21
0
31
0
70
32
71
5
72
1
41
1
210
0
220
0
230
1
3
Standard
100
AcDbAlignedDimension
13
41.5875
23
-25
33
0
14
41.5875
24
25
34
0
50
90
100
AcDbRotatedDimension
1001
ACAD
1000
DSTYLE
1002
{
1070
    74
1070
     0
1070
   279
1070
     0
1070
   172
1070
     1
1070
   173
1070
     1
1070
   340
1005
23F
1070
   271
1070
     2
1070
   272
1070
     2
1070
    77
1070
     1
1070
    73
1070
     0
1070
   171
1070
     3
1070
   274
1070
     4
1070
   177
1070
   150
1070
   176
1070
     9
1070
   178
1070
    43
1070
    78
1070
     8
1070
    48
1040
-0.005
1070
    41
1041
3.175
1070
   147
1041
2.25
1070
    42
1041
1.5875
1070
    44
1041
3.175
1070
   140
1041
4.5
1070
   343
1005
252
1070
   344
1005
252
1002
}
0
DIMENSION
5
268
100
AcDbEntity
8
SK2
62
256
6
ByLayer
370
13
48
1
60
0
100
AcDbDimension
2
DimnDraft3D2
10
-15.103125
20
-20.5
30
0
11
-15.103125
21
0
31
0
70
32
71
5
72
1
41
1
210
0
220
0
230
1
3
Standard
100
AcDbAlignedDimension
13
-1.5875
23
20.5
33
0
14
-1.5875
24
-20.5
34
0
50
90
100
AcDbRotatedDimension
1001
ACAD
1000
DSTYLE
1002
{
1070
    74
1070
     0
1070
   279
1070
     0
1070
   172
1070
     1
1070
   173
1070
     1
1070
   340
1005
23F
1070
   271
1070
     1
1070
   272
1070
     2
1070
    77
1070
     1
1070
    73
1070
     0
1070
   171
1070
     3
1070
   274
1070
     4
1070
   177
1070
   150
1070
   176
1070
     9
1070
   178
1070
    43
1070
    78
1070
     8
1070
    48
1040
-0.005
1070
    41
1041
3.175
1070
   147
1041
2.25
1070
    42
1041
1.5875
1070
    44
1041
3.175
1070
   140
1041
4.5
1070
   343
1005
252
1070
   344
1005
252
1002
}
0
DIMENSION
5
277
100
AcDbEntity
8
SK2
62
256
6
ByLayer
370
13
48
1
60
0
100
AcDbDimension
2
DimnDraft3D3
10
-5.103125
20
-11
30
0
11
-5.103125
21
0
31
0
70
32
71
5
72
1
41
1
210
0
220
0
230
1
3
Standard
100
AcDbAlignedDimension
13
-1.5875
23
11
33
0
14
-1.5875
24
-11
34
0
50
90
100
AcDbRotatedDimension
1001
ACAD
1000
DSTYLE
1002
{
1070
    74
1070
     0
1070
   279
1070
     0
1070
   172
1070
     1
1070
   173
1070
     1
1070
   340
1005
23F
1070
   271
1070
     1
1070
   272
1070
     2
1070
    77
1070
     1
1070
    73
1070
     0
1070
   171
1070
     3
1070
   274
1070
     4
1070
   177
1070
   150
1070
   176
1070
     9
1070
   178
1070
    43
1070
    78
1070
     8
1070
    48
1040
-0.005
1070
    41
1041
3.175
1070
   147
1041
2.25
1070
    42
1041
1.5875
1070
    44
1041
3.175
1070
   140
1041
4.5
1070
   343
1005
252
1070
   344
1005
252
1002
}
0
DIMENSION
5
285
100
AcDbEntity
8
SK2
62
256
6
ByLayer
370
13
48
1
60
0
100
AcDbDimension
2
DimnDraft3D4
10
40
20
50.5
30
0
11
20
21
50.5
31
0
70
32
71
5
72
1
41
1
210
0
220
0
230
1
3
Standard
100
AcDbAlignedDimension
13
0
23
12.5875
33
0
14
40
24
26.5875
34
0
50
0
100
AcDbRotatedDimension
1001
ACAD
1000
DSTYLE
1002
{
1070
   279
1070
     0
1070
   172
1070
     1
1070
   173
1070
     1
1070
   340
1005
23F
1070
   271
1070
     2
1070
   272
1070
     2
1070
    77
1070
     1
1070
    73
1070
     0
1070
   171
1070
     3
1070
   274
1070
     4
1070
   177
1070
   150
1070
   176
1070
     9
1070
   178
1070
    43
1070
    78
1070
     8
1070
    48
1040
-0.005
1070
    41
1041
3.175
1070
   147
1041
2.25
1070
    42
1041
1.5875
1070
    44
1041
3.175
1070
   140
1041
4.5
1070
   343
1005
252
1070
   344
1005
252
1002
}
0
DIMENSION
5
293
100
AcDbEntity
8
SK2
62
256
6
ByLayer
370
13
48
1
60
0
100
AcDbDimension
2
DimnDraft3D5
10
40
20
30.5
30
0
11
37
21
30.5
31
0
70
32
71
5
72
1
41
1
210
0
220
0
230
1
3
Standard
100
AcDbAlignedDimension
13
34
23
26.5875
33
0
14
40
24
26.5875
34
0
50
0
100
AcDbRotatedDimension
1001
ACAD
1000
DSTYLE
1002
{
1070
   279
1070
     0
1070
   172
1070
     1
1070
   173
1070
     1
1070
   340
1005
23F
1070
   271
1070
     2
1070
   272
1070
     2
1070
    77
1070
     1
1070
    73
1070
     0
1070
   171
1070
     3
1070
   274
1070
     4
1070
   177
1070
   150
1070
   176
1070
     9
1070
   178
1070
    43
1070
    78
1070
     8
1070
    48
1040
-0.005
1070
    41
1041
3.175
1070
   147
1041
2.25
1070
    42
1041
1.5875
1070
    44
1041
3.175
1070
   140
1041
4.5
1070
   343
1005
252
1070
   344
1005
252
1002
}
0
ENDSEC
0
SECTION
2
OBJECTS
0
DICTIONARY
5
2ff
330
0
100
AcDbDictionary
280
0
281
1
3
ACAD_GROUP
350
300
3
ACAD_GROUP
350
301
3
ACAD_MLINESTYLE
350
302
0
DICTIONARY
5
300
330
0
100
AcDbDictionary
280
0
281
1
0
DICTIONARY
5
301
330
0
100
AcDbDictionary
280
0
281
1
3
14848290478026951_1_ASS2D_2D
350
29C
0
DICTIONARY
5
302
330
0
100
AcDbDictionary
280
0
281
1
3
Standard
350
18
0
GROUP
5
29C
330
301
100
AcDbGroup
300

70
0
71
1
340
6C
340
6E
340
70
340
71
340
73
340
75
340
77
340
78
340
79
340
7A
340
7B
340
7C
340
7D
340
7E
340
7F
340
80
340
81
340
82
340
83
340
84
340
85
340
86
340
87
340
88
340
89
340
8A
340
8B
340
8C
340
8D
340
8E
340
8F
340
90
340
91
340
92
340
93
340
94
340
95
340
96
340
97
340
98
340
99
340
9A
340
9B
340
9C
340
9D
340
9E
340
9F
340
A0
340
A1
340
A2
340
A3
340
A4
340
A5
340
A6
340
A7
340
A8
340
A9
340
AA
340
AB
340
AC
340
AD
340
AE
340
AF
340
B0
340
B1
340
B2
340
B3
340
B4
340
B5
340
B6
340
B7
340
B8
340
B9
340
BA
340
BB
340
BC
340
BD
340
BE
340
BF
340
C0
340
C1
340
C2
340
C3
340
C4
340
C5
340
C6
340
C7
340
C8
340
C9
340
CA
340
CB
340
CC
340
CD
340
CE
340
CF
340
D0
340
D1
340
D2
340
D3
340
D4
340
D5
340
D6
340
D7
340
D8
340
D9
340
DA
340
DB
340
DC
340
DD
340
DE
340
DF
340
E0
340
E1
340
E2
340
E3
340
E4
340
E5
340
E6
340
E7
340
E8
340
E9
340
EA
340
EB
340
EC
340
ED
340
EE
340
EF
340
F0
340
F1
340
F2
340
F3
340
F4
340
F5
340
F6
340
F7
340
F8
340
F9
340
FA
340
FB
340
FC
340
FD
340
FE
340
FF
340
100
340
101
340
102
340
103
340
104
340
105
340
106
340
107
340
108
340
109
340
10A
340
10B
340
10C
340
10D
340
10E
340
10F
340
110
340
111
340
112
340
113
340
114
340
115
340
116
340
117
340
118
340
119
340
11A
340
11B
340
11C
340
11D
340
11E
340
11F
340
120
340
121
340
122
340
123
340
124
340
125
340
126
340
127
340
128
340
129
340
12A
340
12B
340
12C
340
12D
340
12E
340
12F
340
130
340
131
340
132
340
133
340
134
340
135
340
136
340
137
340
138
340
139
340
13A
340
13B
340
13C
340
13D
340
13E
340
13F
340
140
340
141
340
142
340
143
340
144
340
145
340
146
340
147
340
148
340
149
340
14A
340
14B
340
14C
340
14D
340
14E
340
14F
340
150
340
151
340
152
340
153
340
154
340
155
340
156
340
157
340
158
340
159
340
15A
340
15B
340
15C
340
15D
340
15E
340
15F
340
160
340
161
340
162
340
163
340
164
340
165
340
166
340
167
340
168
340
169
340
16A
340
16B
340
16C
340
16D
340
16E
340
16F
340
170
340
171
340
172
340
173
340
174
340
175
340
176
340
177
340
178
340
179
340
17A
340
17B
340
17C
340
17D
340
17E
340
17F
340
180
340
181
340
182
340
183
340
184
340
185
340
186
340
187
340
188
340
189
340
18A
340
18B
340
18C
340
18D
340
18E
340
18F
340
190
340
191
340
192
340
193
340
194
340
195
340
196
340
197
340
198
340
199
340
19A
340
19B
340
19C
340
19D
340
19E
340
19F
340
1A0
340
1A1
340
1A2
340
1A3
340
1A4
340
1A5
340
1A6
340
1A7
340
1A8
340
1A9
340
1AA
340
1AB
340
1AC
340
1AD
340
1AE
340
1AF
340
1B0
340
1B1
340
1B2
340
1B3
340
1B4
340
1B5
340
1B6
340
1B7
340
1B8
340
1B9
340
1BA
340
1BB
340
1BC
340
1BD
340
1BE
340
1BF
340
1C0
340
1C1
340
1C2
340
1C3
340
1C4
340
1C5
340
1C6
340
1C7
340
1C8
340
1C9
340
1CA
340
1CB
340
1CC
340
1CD
340
1CE
340
1CF
340
1D0
340
1D1
340
1D2
340
1D3
340
1D4
340
1D5
340
1D6
340
1D7
340
1D8
340
1D9
340
1DA
340
1DB
340
1DC
340
1DD
340
1DE
340
1DF
340
1E0
340
1E1
340
1E2
340
1E3
340
1E4
340
1E5
340
1E6
340
1E7
340
1E8
340
1E9
340
1EA
340
1EB
340
1EC
340
1ED
340
1EE
340
1EF
340
1F0
340
1F1
340
1F2
340
1F3
340
1F4
340
1F5
340
1F6
340
1F7
340
1F8
340
1F9
340
1FA
340
1FB
340
1FC
340
1FD
340
1FE
340
1FF
340
200
340
201
340
202
340
203
340
204
340
205
340
206
340
207
340
208
340
209
340
20A
340
20B
340
20C
340
20D
340
20E
340
20F
340
210
340
211
340
212
340
213
340
214
340
215
340
216
340
217
340
218
340
219
340
21A
340
21B
340
21C
340
21D
340
21E
340
21F
340
220
340
221
340
222
340
223
340
224
340
225
340
226
340
227
340
228
340
229
340
22A
340
22B
340
22C
340
22D
340
22E
340
22F
340
230
340
231
340
232
340
233
340
234
340
235
340
236
340
237
340
238
340
239
340
23A
340
23B
340
23C
340
23D
340
23E
340
251
340
268
340
277
340
285
340
293
0
MLINESTYLE
5
18
330
302
100
AcDbMlineStyle
2
Standard
70
0
3

62
256
51
90
52
90
71
2
49
-0.5
62
256
6
ByLayer
49
0.5
62
256
6
ByLayer
0
RASTERVARIABLES
5
2ed
330

100
AcDbRasterVariables
90
0
70
1
71
1
72
1
0
ENDSEC
0
EOF
