0
SECTION
2
HEADER
9
$ACADVER
1
AC1015
9
$DWGCODEPAGE
3
ANSI_1252
9
$HANDSEED
5
30a
9
$ANGBASE
50
0
9
$ANGDIR
70
0
9
$ATTMODE
70
1
9
$AUNITS
70
0
9
$AUPREC
70
0
9
$CECOLOR
62
256
9
$CELTSCALE
40
1
9
$CELTYPE
6
ByLayer
9
$CELWEIGHT
370
18
9
$CLAYER
8
0
9
$CMLJUST
70
0
9
$CMLSCALE
40
1
9
$CMLSTYLE
2
Standard
9
$DIMSTYLE
2
Standard
9
$TEXTSIZE
40
0.2
9
$TEXTSTYLE
7
Standard
9
$LUNITS
70
2
9
$LUPREC
70
4
9
$EXTNAMES
290
1
9
$INSUNITS
70
4
9
$LTSCALE
40
1
9
$LWDISPLAY
290
1
9
$PDMODE
70
0
9
$PDSIZE
40
0
9
$PLINEGEN
70
0
0
ENDSEC
0
SECTION
2
CLASSES
0
CLASS
1
RASTERVARIABLES
2
AcDbRasterVariables
3
ISM
90
0
280
0
281
0
0
ENDSEC
0
SECTION
2
TABLES
0
TABLE
2
VPORT
5
300
100
AcDbSymbolTable
0
VPORT
5
1
100
AcDbSymbolTableRecord
100
AcDbViewportTableRecord
2
*Active
70
0
10
0
20
0
11
1
21
1
12
-1
22
1
13
0
23
0
14
0.5
24
0.5
15
10
25
10
16
0
26
0
36
1
17
0
27
0
37
0
0
ENDTAB
0
TABLE
2
LTYPE
5
301
100
AcDbSymbolTable
0
LTYPE
5
14
100
AcDbSymbolTableRecord
100
AcDbLinetypeTableRecord
70
0
2
ByBlock
3

72
65
73
0
40
0
0
LTYPE
5
15
100
AcDbSymbolTableRecord
100
AcDbLinetypeTableRecord
70
0
2
ByLayer
3

72
65
73
0
40
0
0
LTYPE
5
16
100
AcDbSymbolTableRecord
100
AcDbLinetypeTableRecord
70
0
2
CONTINUOUS
3
Solid line
72
65
73
0
40
0
0
LTYPE
5
6A
100
AcDbSymbolTableRecord
100
AcDbLinetypeTableRecord
70
0
2
CENTER
3
____ _ ____ _ ____ _ ____
72
65
73
4
40
47.5
49
22
74
0
49
-8.5
74
0
49
8.5
74
0
49
-8.5
74
0
0
LTYPE
5
6B
100
AcDbSymbolTableRecord
100
AcDbLinetypeTableRecord
70
0
2
DASHED
3
__ __ __ __ __ __ __ __ __
72
65
73
2
40
25.72
49
12.86
74
0
49
-12.86
74
0
0
ENDTAB
0
TABLE
2
LAYER
5
302
100
AcDbSymbolTable
0
LAYER
5
10
100
AcDbSymbolTableRecord
100
AcDbLayerTableRecord
2
0
70
0
62
7
6
CONTINUOUS
290
1
370
-3
390
0
0
LAYER
5
6D
100
AcDbSymbolTableRecord
100
AcDbLayerTableRecord
2
80
70
0
62
-6
6
CONTINUOUS
290
1
370
-3
390
0
0
LAYER
5
6F
100
AcDbSymbolTableRecord
100
AcDbLayerTableRecord
2
81
70
0
62
-3
6
CONTINUOUS
290
1
370
-3
390
0
0
LAYER
5
71
100
AcDbSymbolTableRecord
100
AcDbLayerTableRecord
2
1
70
0
62
4
6
CONTINUOUS
290
1
370
-3
390
0
0
LAYER
5
74
100
AcDbSymbolTableRecord
100
AcDbLayerTableRecord
2
4
70
0
62
-2
6
CENTER
290
1
370
-3
390
0
0
LAYER
5
26F
100
AcDbSymbolTableRecord
100
AcDbLayerTableRecord
2
2
70
0
62
7
6
CONTINUOUS
290
1
370
-3
390
0
0
LAYER
5
2eb
100
AcDbSymbolTableRecord
100
AcDbLayerTableRecord
2
SK4
70
0
62
2
6
CENTER
290
1
370
-3
390
0
0
LAYER
5
2ec
100
AcDbSymbolTableRecord
100
AcDbLayerTableRecord
2
SK1
70
0
62
4
6
CONTINUOUS
290
1
370
-3
390
0
0
LAYER
5
2ed
100
AcDbSymbolTableRecord
100
AcDbLayerTableRecord
2
SK6
70
0
62
5
6
CONTINUOUS
290
1
370
-3
390
0
0
ENDTAB
0
TABLE
2
STYLE
5
303
100
AcDbSymbolTable
0
STYLE
5
11
100
AcDbSymbolTableRecord
100
AcDbTextStyleTableRecord
2
Standard
3
txt
70
0
71
0
40
0
41
1
42
0
50
0
0
STYLE
5
26B
100
AcDbSymbolTableRecord
100
AcDbTextStyleTableRecord
2
iso_b_vert
3
simplex.shx
70
0
71
0
40
0
41
1
42
0
50
0
0
STYLE
5
26C
100
AcDbSymbolTableRecord
100
AcDbTextStyleTableRecord
2
DWGDirectTextStyle
3
simplex
70
0
71
0
40
0
41
1
42
0
50
0
0
ENDTAB
0
TABLE
2
DIMSTYLE
5
304
100
AcDbSymbolTable
100
AcDbDimStyleTable
0
DIMSTYLE
105
27
100
AcDbSymbolTableRecord
100
AcDbDimStyleTableRecord
2
Standard
70
0
3
<>
41
0.18
42
0.0625
44
0.18
140
0.18
147
0.09
73
0
74
0
77
1
271
2
275
0
278
52
280
0
340
11
0
ENDTAB
0
TABLE
2
VIEW
5
305
100
AcDbSymbolTable
0
ENDTAB
0
TABLE
2
UCS
5
306
100
AcDbSymbolTable
0
ENDTAB
0
TABLE
2
APPID
5
307
100
AcDbSymbolTable
0
APPID
5
12
100
AcDbSymbolTableRecord
100
AcDbRegAppTableRecord
2
ACAD
70
0
0
ENDTAB
0
TABLE
2
BLOCK_RECORD
5
308
100
AcDbSymbolTable
0
BLOCK_RECORD
5
1F
100
AcDbSymbolTableRecord
100
AcDbBlockTableRecord
2
*Model_Space
340
0
70
0
0
BLOCK_RECORD
5
1B
100
AcDbSymbolTableRecord
100
AcDbBlockTableRecord
2
*Paper_Space
340
0
70
0
0
BLOCK_RECORD
5
23
100
AcDbSymbolTableRecord
100
AcDbBlockTableRecord
2
*Paper_Space0
340
0
70
0
0
BLOCK_RECORD
5
270
100
AcDbSymbolTableRecord
100
AcDbBlockTableRecord
2
DimnDraft3D1
340
0
70
0
0
BLOCK_RECORD
5
27A
100
AcDbSymbolTableRecord
100
AcDbBlockTableRecord
2
DimnDraft3D2
340
0
70
0
0
BLOCK_RECORD
5
284
100
AcDbSymbolTableRecord
100
AcDbBlockTableRecord
2
DimnDraft3D3
340
0
70
0
0
ENDTAB
0
ENDSEC
0
SECTION
2
BLOCKS
0
BLOCK
5
20
100
AcDbEntity
8
0
100
AcDbBlockBegin
2
*Model_Space
70
0
10
0
20
0
30
0
3
*Model_Space
0
ENDBLK
5
21
100
AcDbEntity
8
0
100
AcDbBlockEnd
0
BLOCK
5
1C
100
AcDbEntity
8
0
100
AcDbBlockBegin
2
*Paper_Space
70
0
10
0
20
0
30
0
3
*Paper_Space
0
ENDBLK
5
1D
100
AcDbEntity
8
0
100
AcDbBlockEnd
0
BLOCK
5
24
100
AcDbEntity
8
0
100
AcDbBlockBegin
2
*Paper_Space0
70
0
10
0
20
0
30
0
3
*Paper_Space0
0
ENDBLK
5
25
100
AcDbEntity
8
0
100
AcDbBlockEnd
0
BLOCK
5
277
100
AcDbEntity
8
0
100
AcDbBlockBegin
2
DimnDraft3D1
70
0
10
0
20
0
30
0
3
DimnDraft3D1
0
MTEXT
5
271
100
AcDbEntity
8
2
62
256
6
ByLayer
370
18
48
1
60
0
100
AcDbMText
10
12.307895
20
104.25
30
0
210
0
220
0
230
1
1
\W0.6961;30.0
40
3
41
0
44
1.084337
50
0
71
7
72
5
7
iso_b_vert
0
LINE
5
272
100
AcDbEntity
8
2
62
256
6
ByLayer
370
13
48
1
60
0
100
AcDbLine
10
0
20
2
30
0
11
0
21
105.5
31
0
39
0
210
0
220
0
230
1
0
LINE
5
273
100
AcDbEntity
8
2
62
256
6
ByLayer
370
13
48
1
60
0
100
AcDbLine
10
30
20
85
30
0
11
30
21
105.5
31
0
39
0
210
0
220
0
230
1
0
LINE
5
274
100
AcDbEntity
8
2
62
256
6
ByLayer
370
13
48
1
60
0
100
AcDbLine
10
0
20
103.5
30
0
11
30
21
103.5
31
0
39
0
210
0
220
0
230
1
0
SOLID
5
275
100
AcDbEntity
8
2
62
256
6
ByLayer
370
13
48
1
60
0
100
AcDbTrace
10
0
20
103.5
30
0
11
3.174998
21
103.917997
31
0
12
3.175002
22
103.082003
32
0
13
0
23
103.5
33
0
39
0
210
0
220
0
230
1
0
SOLID
5
276
100
AcDbEntity
8
2
62
256
6
ByLayer
370
13
48
1
60
0
100
AcDbTrace
10
30
20
103.5
30
0
11
26.825002
21
103.082003
31
0
12
26.824998
22
103.917997
32
0
13
30
23
103.5
33
0
39
0
210
0
220
0
230
1
0
ENDBLK
5
278
100
AcDbEntity
8
0
100
AcDbBlockEnd
0
BLOCK
5
281
100
AcDbEntity
8
0
100
AcDbBlockBegin
2
DimnDraft3D2
70
0
10
0
20
0
30
0
3
DimnDraft3D2
0
MTEXT
5
27B
100
AcDbEntity
8
2
62
256
6
ByLayer
370
18
48
1
60
0
100
AcDbMText
10
58.552244
20
0.333362
30
0
210
0
220
0
230
1
1
\W0.3160; 
40
3
41
0
44
1.084337
50
90
71
7
72
5
7
iso_b_vert
0
LINE
5
27C
100
AcDbEntity
8
2
62
256
6
ByLayer
370
13
48
1
60
0
100
AcDbLine
10
32
20
83
30
0
11
61.302244
21
83
31
0
39
0
210
0
220
0
230
1
0
LINE
5
27D
100
AcDbEntity
8
2
62
256
6
ByLayer
370
13
48
1
60
0
100
AcDbLine
10
31.513915
20
-82.964856
30
0
11
61.302244
21
-82.964856
31
0
39
0
210
0
220
0
230
1
0
LINE
5
27E
100
AcDbEntity
8
2
62
256
6
ByLayer
370
13
48
1
60
0
100
AcDbLine
10
59.302244
20
83
30
0
11
59.302244
21
-82.964856
31
0
39
0
210
0
220
0
230
1
0
SOLID
5
27F
100
AcDbEntity
8
2
62
256
6
ByLayer
370
13
48
1
60
0
100
AcDbTrace
10
59.302244
20
83
30
0
11
59.720241
21
79.825002
31
0
12
58.884247
22
79.824998
32
0
13
59.302244
23
83
33
0
39
0
210
0
220
0
230
1
0
SOLID
5
280
100
AcDbEntity
8
2
62
256
6
ByLayer
370
13
48
1
60
0
100
AcDbTrace
10
59.302244
20
-82.964856
30
0
11
58.884247
21
-79.789857
31
0
12
59.720241
22
-79.789854
32
0
13
59.302244
23
-82.964856
33
0
39
0
210
0
220
0
230
1
0
ENDBLK
5
282
100
AcDbEntity
8
0
100
AcDbBlockEnd
0
BLOCK
5
28B
100
AcDbEntity
8
0
100
AcDbBlockBegin
2
DimnDraft3D3
70
0
10
0
20
0
30
0
3
DimnDraft3D3
0
MTEXT
5
285
100
AcDbEntity
8
2
62
256
6
ByLayer
370
18
48
1
60
0
100
AcDbMText
10
42.892737
20
68.551139
30
0
210
0
220
0
230
1
1
\W0.6258;84%%d
40
3
41
0
44
1.084337
50
48
71
7
72
5
7
iso_b_vert
0
LINE
5
286
100
AcDbEntity
8
2
62
256
6
ByLayer
370
13
48
1
60
0
100
AcDbLine
10
31.767668
20
66.226475
30
0
11
32.303892
21
61.124642
31
0
39
0
210
0
220
0
230
1
0
LINE
5
287
100
AcDbEntity
8
2
62
256
6
ByLayer
370
13
48
1
60
0
100
AcDbLine
10
32
20
83
30
0
11
52.000553
21
83
31
0
39
0
210
0
220
0
230
1
0
ARC
5
288
100
AcDbEntity
8
2
62
256
6
ByLayer
370
13
48
1
60
0
100
AcDbCircle
39
0
10
30.004699
20
83
30
0
40
19.9958539414082
210
0
220
0
230
1
100
AcDbArc
50
276
51
0
0
SOLID
5
289
100
AcDbEntity
8
2
62
256
6
ByLayer
370
13
48
1
60
0
100
AcDbTrace
10
32.094835
20
63.113685
30
0
11
35.176699
21
63.984002
31
0
12
35.296944
22
63.156701
32
0
13
32.094835
23
63.113685
33
0
39
0
210
0
220
0
230
1
0
SOLID
5
28A
100
AcDbEntity
8
2
62
256
6
ByLayer
370
13
48
1
60
0
100
AcDbTrace
10
50.000553
20
83
30
0
11
50.292485
21
79.810939
31
0
12
49.457147
22
79.844043
32
0
13
50.000553
23
83
33
0
39
0
210
0
220
0
230
1
0
ENDBLK
5
28C
100
AcDbEntity
8
0
100
AcDbBlockEnd
0
ENDSEC
0
SECTION
2
ENTITIES
0
ARC
5
167
100
AcDbEntity
8
1
62
256
6
ByLayer
370
13
48
0.05
60
0
100
AcDbCircle
39
0
10
29.278697
20
-82.19615
30
0
40
0.803888192516291
210
0
220
0
230
1
100
AcDbArc
50
264.82989
51
309.197527
0
ARC
5
168
100
AcDbEntity
8
1
62
256
6
ByLayer
370
13
48
0.05
60
0
100
AcDbCircle
39
0
10
29.28416
20
-82.202849
30
0
40
0.795243704087409
210
0
220
0
230
1
100
AcDbArc
50
309.197527
51
354
0
ARC
5
169
100
AcDbEntity
8
1
62
256
6
ByLayer
370
13
48
0.05
60
0
100
AcDbCircle
39
0
10
15.123751
20
-80.926945
30
0
40
0.792384300383063
210
0
220
0
230
1
100
AcDbArc
50
259.492188
51
264.82989
0
ARC
5
16A
100
AcDbEntity
8
1
62
256
6
ByLayer
370
13
48
0.05
60
0
100
AcDbCircle
39
0
10
15.122942
20
-80.931304
30
0
40
0.78795085804584
210
0
220
0
230
1
100
AcDbArc
50
254.124496
51
259.492188
0
ARC
5
16B
100
AcDbEntity
8
1
62
256
6
ByLayer
370
13
48
0.05
60
0
100
AcDbCircle
39
0
10
15.122328
20
-80.933465
30
0
40
0.785704427499782
210
0
220
0
230
1
100
AcDbArc
50
248.756473
51
254.124496
0
ARC
5
16C
100
AcDbEntity
8
1
62
256
6
ByLayer
370
13
48
0.05
60
0
100
AcDbCircle
39
0
10
15.12077
20
-80.937472
30
0
40
0.781404874934454
210
0
220
0
230
1
100
AcDbArc
50
243.358956
51
248.756473
0
ARC
5
16D
100
AcDbEntity
8
1
62
256
6
ByLayer
370
13
48
0.05
60
0
100
AcDbCircle
39
0
10
15.119862
20
-80.939283
30
0
40
0.779379077898435
210
0
220
0
230
1
100
AcDbArc
50
237.961128
51
243.358956
0
ARC
5
16E
100
AcDbEntity
8
1
62
256
6
ByLayer
370
13
48
0.05
60
0
100
AcDbCircle
39
0
10
15.117966
20
-80.942312
30
0
40
0.775805672162834
210
0
220
0
230
1
100
AcDbArc
50
232.538475
51
237.961128
0
ARC
5
16F
100
AcDbEntity
8
1
62
256
6
ByLayer
370
13
48
0.05
60
0
100
AcDbCircle
39
0
10
15.117037
20
-80.943524
30
0
40
0.774278886844157
210
0
220
0
230
1
100
AcDbArc
50
227.115578
51
232.538475
0
ARC
5
170
100
AcDbEntity
8
1
62
256
6
ByLayer
370
13
48
0.05
60
0
100
AcDbCircle
39
0
10
15.115432
20
-80.945252
30
0
40
0.771920164042817
210
0
220
0
230
1
100
AcDbArc
50
221.676136
51
227.115578
0
ARC
5
171
100
AcDbEntity
8
1
62
256
6
ByLayer
370
13
48
0.05
60
0
100
AcDbCircle
39
0
10
15.11482
20
-80.945797
30
0
40
0.771101015981059
210
0
220
0
230
1
100
AcDbArc
50
216.236561
51
221.676136
0
ARC
5
172
100
AcDbEntity
8
1
62
256
6
ByLayer
370
13
48
0.05
60
0
100
AcDbCircle
39
0
10
15.114156
20
-80.946284
30
0
40
0.770277584253905
210
0
220
0
230
1
100
AcDbArc
50
210.791179
51
216.236561
0
ARC
5
173
100
AcDbEntity
8
1
62
256
6
ByLayer
370
18
48
1
60
0
100
AcDbCircle
39
0
10
13.341863
20
-35.423164
30
0
40
7
210
0
220
0
230
1
100
AcDbArc
50
285.931298
51
298.552634
0
ARC
5
174
100
AcDbEntity
8
1
62
256
6
ByLayer
370
18
48
1
60
0
100
AcDbCircle
39
0
10
13.341863
20
-35.423164
30
0
40
7
210
0
220
0
230
1
100
AcDbArc
50
232.778203
51
264.754991
0
ARC
5
176
100
AcDbEntity
8
1
62
256
6
ByLayer
370
18
48
1
60
0
100
AcDbCircle
39
0
10
29.004699
20
34.3
30
0
40
10
210
0
220
0
230
1
100
AcDbArc
50
148
51
180
0
ARC
5
177
100
AcDbEntity
8
1
62
256
6
ByLayer
370
18
48
1
60
0
100
AcDbCircle
39
0
10
-8.495301
20
71.3
30
0
40
1.26132486540519
210
0
220
0
230
1
100
AcDbArc
50
15
51
345
0
ARC
5
178
100
AcDbEntity
8
1
62
256
6
ByLayer
370
18
48
1
60
0
100
AcDbCircle
39
0
10
-8.495301
20
71.3
30
0
40
0.95
210
0
220
0
230
1
100
AcDbArc
50
15
51
345
0
CIRCLE
5
175
100
AcDbEntity
8
1
62
256
6
ByLayer
370
18
48
1
60
0
100
AcDbCircle
10
8.495301
20
71.3
30
0
40
1.52500000000002
39
0
210
0
220
0
230
-1
0
ELLIPSE
5
179
100
AcDbEntity
8
1
62
256
6
ByLayer
370
18
48
1
60
0
100
AcDbEllipse
10
20.900831
20
-99.565157
30
0
11
6.82453437835983
21
-64.5170939003325
31
0
210
0
220
0
230
-1
40
0.001619
41
3.02352778179101
42
-3.14099130610175
0
ELLIPSE
5
17A
100
AcDbEntity
8
1
62
256
6
ByLayer
370
18
48
1
60
0
100
AcDbEllipse
10
14.863995
20
-35.018523
30
0
11
0.547017978853437
21
2.67349396379675
31
0
210
0
220
0
230
-1
40
0.009679
41
3.04018989511483
42
-3.12432920401865
0
ELLIPSE
5
17B
100
AcDbEntity
8
1
62
256
6
ByLayer
370
18
48
1
60
0
100
AcDbEllipse
10
13.583862
20
61.023111
30
0
11
4.28149804567561
21
-2.58240196171132
31
0
210
0
220
0
230
-1
40
0.981935
41
0.0976303297128341
42
3.13633928374313
0
ELLIPSE
5
17C
100
AcDbEntity
8
1
62
256
6
ByLayer
370
18
48
1
60
0
100
AcDbEllipse
10
14.863995
20
80.472262
30
0
11
0.381055367825195
21
-0.835269338375742
31
0
210
0
220
0
230
-1
40
0.470881
41
2.19169260248701
42
2.31035882613216
0
ELLIPSE
5
17D
100
AcDbEntity
8
1
62
256
6
ByLayer
370
18
48
1
60
0
100
AcDbEllipse
10
26.761209
20
-24.789508
30
0
11
-2.02242393346229
21
-0.189150722596901
31
0
210
0
220
0
230
1
40
0.311552
41
1.43755931006945
42
3.00835563686427
0
ELLIPSE
5
17E
100
AcDbEntity
8
1
62
256
6
ByLayer
370
18
48
1
60
0
100
AcDbEllipse
10
26.792179
20
-25.120643
30
0
11
-2.37090313430502
21
-0.221742847105904
31
0
210
0
220
0
230
1
40
0.311552
41
1.43755931006934
42
3.00835563686426
0
ELLIPSE
5
17F
100
AcDbEntity
8
1
62
256
6
ByLayer
370
18
48
1
60
0
100
AcDbEllipse
10
28.473361
20
-27.243247
30
0
11
2.37090313430502
21
0.22174284710591
31
0
210
0
220
0
230
1
40
0.311552
41
-0.133237016725545
42
1.06114400246641E-05
0
ELLIPSE
5
180
100
AcDbEntity
8
1
62
256
6
ByLayer
370
18
48
1
60
0
100
AcDbEllipse
10
15.752228
20
-25.357216
30
0
11
2.02242393346229
21
0.189150722596905
31
0
210
0
220
0
230
1
40
0.311552
41
-2.29985632041031
42
-1.70403334352043
0
ELLIPSE
5
181
100
AcDbEntity
8
1
62
256
6
ByLayer
370
18
48
1
60
0
100
AcDbEllipse
10
15.783198
20
-25.688351
30
0
11
2.37090313430502
21
0.22174284710591
31
0
210
0
220
0
230
1
40
0.311552
41
-3.01000294110668
42
-1.70403334352043
0
ELLIPSE
5
182
100
AcDbEntity
8
1
62
256
6
ByLayer
370
18
48
1
60
0
100
AcDbEllipse
10
16.314112
20
-31.364951
30
0
11
2.37090313430502
21
0.22174284710591
31
0
210
0
220
0
230
1
40
0.311552
41
-3.14158233457408
42
-1.70403334352046
0
ELLIPSE
5
183
100
AcDbEntity
8
1
62
256
6
ByLayer
370
18
48
1
60
0
100
AcDbEllipse
10
27.323093
20
-30.797244
30
0
11
2.37090313430502
21
0.22174284710591
31
0
210
0
220
0
230
1
40
0.311552
41
-1.70403334352043
42
-0.133237016725526
0
ELLIPSE
5
184
100
AcDbEntity
8
1
62
256
6
ByLayer
370
18
48
1
60
0
100
AcDbEllipse
10
27.911477
20
-21.235511
30
0
11
2.02242393346229
21
0.189150722596904
31
0
210
0
220
0
230
1
40
0.311552
41
-0.133237016725532
42
0.462585681900924
0
ELLIPSE
5
185
100
AcDbEntity
8
1
62
256
6
ByLayer
370
18
48
1
60
0
100
AcDbEllipse
10
27.942447
20
-21.566646
30
0
11
2.37090313430502
21
0.221742847105909
31
0
210
0
220
0
230
1
40
0.311552
41
-0.133237016725531
42
0.334049884965586
0
ELLIPSE
5
186
100
AcDbEntity
8
1
62
256
6
ByLayer
370
18
48
1
60
0
100
AcDbEllipse
10
22.95562
20
74.539243
30
0
11
2.72744792836274
21
-1.62531621479322
31
0
210
0
220
0
230
1
40
0.984948
41
0.213055591844651
42
0.544101025210824
0
ELLIPSE
5
187
100
AcDbEntity
8
1
62
256
6
ByLayer
370
18
48
1
60
0
100
AcDbEllipse
10
22.95562
20
74.539243
30
0
11
2.72744792836274
21
-1.62531621479322
31
0
210
0
220
0
230
1
40
0.984948
41
0.544101025210829
42
2.80113903833194
0
ELLIPSE
5
188
100
AcDbEntity
8
1
62
256
6
ByLayer
370
18
48
1
60
0
100
AcDbEllipse
10
15.139234
20
80.93414
30
0
11
-0.682076741770087
21
0.406457031353011
31
0
210
0
220
0
230
1
40
0.984948
41
-0.935927557362624
42
0.634868769432298
0
ELLIPSE
5
189
100
AcDbEntity
8
1
62
256
6
ByLayer
370
18
48
1
60
0
100
AcDbEllipse
10
29.293143
20
82.214802
30
0
11
-0.682076741770087
21
0.406457031353011
31
0
210
0
220
0
230
1
40
0.984948
41
-2.50672388415749
42
-0.935927557362664
0
ELLIPSE
5
18A
100
AcDbEntity
8
1
62
256
6
ByLayer
370
18
48
1
60
0
100
AcDbEllipse
10
30.772007
20
68.144346
30
0
11
-0.682076741770087
21
0.406457031353011
31
0
210
0
220
0
230
1
40
0.984948
41
2.2056650962272
42
-2.50672388415747
0
ELLIPSE
5
18B
100
AcDbEntity
8
1
62
256
6
ByLayer
370
18
48
1
60
0
100
AcDbEllipse
10
13.535555
20
55.588604
30
0
11
3.10426520874877
21
4.54021337755749
31
0
210
0
220
0
230
1
40
0.010928
41
1.89361901762333
42
2.29903818963656
0
ELLIPSE
5
18C
100
AcDbEntity
8
1
62
256
6
ByLayer
370
18
48
1
60
0
100
AcDbEllipse
10
8.582891
20
58.974873
30
0
11
3.10426520874877
21
4.54021337755749
31
0
210
0
220
0
230
1
40
0.010928
41
1.89361901762309
42
2.29903818963656
0
ELLIPSE
5
18D
100
AcDbEntity
8
1
62
256
6
ByLayer
370
18
48
1
60
0
100
AcDbEllipse
10
14.04096
20
45.932651
30
0
11
3.95088299295298
21
5.77845338961862
31
0
210
0
220
0
230
1
40
0.010928
41
-0.867289855828426
42
-0.836610798670926
0
ELLIPSE
5
18E
100
AcDbEntity
8
1
62
256
6
ByLayer
370
18
48
1
60
0
100
AcDbEllipse
10
23.36044
20
75.201281
30
0
11
1.67414122491211
21
-2.37460851193064
31
0
210
0
220
0
230
-1
40
0.755047
41
-1.83217818948611
42
-1.38246821348399
0
ELLIPSE
5
18F
100
AcDbEntity
8
1
62
256
6
ByLayer
370
18
48
1
60
0
100
AcDbEllipse
10
23.36044
20
75.201281
30
0
11
2.82715797723899
21
-0.527091863354037
31
0
210
0
220
0
230
-1
40
0.751359
41
-1.68711429254801
42
-1.2374043165448
0
ELLIPSE
5
190
100
AcDbEntity
8
1
62
256
6
ByLayer
370
18
48
1
60
0
100
AcDbEllipse
10
14.082986
20
61.749817
30
0
11
4.40866409574062
21
-2.66198814627857
31
0
210
0
220
0
230
1
40
0.981787
41
-0.0202451385399922
42
3.08404114892927
0
ELLIPSE
5
191
100
AcDbEntity
8
1
62
256
6
ByLayer
370
18
48
1
60
0
100
AcDbEllipse
10
4.846928
20
58.899611
30
0
11
-2.568153842179
21
1.55067270657003
31
0
210
0
220
0
230
1
40
0.981787
41
3.08404114892926
42
3.1209655464158
0
ELLIPSE
5
192
100
AcDbEntity
8
1
62
256
6
ByLayer
370
18
48
1
60
0
100
AcDbEllipse
10
13.540361
20
51.272286
30
0
11
3.10988993124514
21
-1.60624397368494
31
0
210
0
220
0
230
-1
40
0.992228
41
0.522478753038742
42
1.69471358375008
0
ELLIPSE
5
193
100
AcDbEntity
8
1
62
256
6
ByLayer
370
18
48
1
60
0
100
AcDbEllipse
10
15.480486
20
54.340555
30
0
11
0.232837468434891
21
-4.8940229247996
31
0
210
0
220
0
230
-1
40
0.519295
41
-0.600090923493686
42
0.517881750675952
0
ELLIPSE
5
194
100
AcDbEntity
8
1
62
256
6
ByLayer
370
18
48
1
60
0
100
AcDbEllipse
10
4.675092
20
57.333707
30
0
11
3.10988993097271
21
-1.6062439741832
31
0
210
0
220
0
230
-1
40
0.992228
41
1.69471358358656
42
2.86694841430134
0
ELLIPSE
5
195
100
AcDbEntity
8
1
62
256
6
ByLayer
370
18
48
1
60
0
100
AcDbEllipse
10
6.615217
20
60.401976
30
0
11
4.50940572089904
21
1.71048942618508
31
0
210
0
220
0
230
-1
40
0.509293
41
2.656782246197
42
-2.5084303868127
0
ELLIPSE
5
196
100
AcDbEntity
8
1
62
256
6
ByLayer
370
18
48
1
60
0
100
AcDbEllipse
10
26.761209
20
-52.941269
30
0
11
2.01703544489536
21
-0.239884506660527
31
0
210
0
220
0
230
1
40
0.662273
41
-0.486166262616205
42
-0.0255054247121586
0
ELLIPSE
5
197
100
AcDbEntity
8
1
62
256
6
ByLayer
370
18
48
1
60
0
100
AcDbEllipse
10
28.473361
20
-40.944585
30
0
11
-2.3645861677081
21
0.281218452423572
31
0
210
0
220
0
230
1
40
0.662273
41
-3.14157267762458
42
-2.52525612226816
0
ELLIPSE
5
198
100
AcDbEntity
8
1
62
256
6
ByLayer
370
18
48
1
60
0
100
AcDbEllipse
10
26.792179
20
-52.680862
30
0
11
2.3645861677081
21
-0.281218452423572
31
0
210
0
220
0
230
1
40
0.662273
41
-0.719380180250736
42
-0.0255054247121416
0
ELLIPSE
5
199
100
AcDbEntity
8
1
62
256
6
ByLayer
370
18
48
1
60
0
100
AcDbEllipse
10
27.911477
20
-45.669108
30
0
11
-2.01703544489536
21
0.239884506660527
31
0
210
0
220
0
230
1
40
0.662273
41
3.11608722887765
42
-2.64363006621842
0
ELLIPSE
5
19A
100
AcDbEntity
8
1
62
256
6
ByLayer
370
18
48
1
60
0
100
AcDbEllipse
10
27.942447
20
-45.408701
30
0
11
-2.3645861677081
21
0.281218452423571
31
0
210
0
220
0
230
1
40
0.662273
41
3.11608722887762
42
-2.43105712267278
0
ELLIPSE
5
19B
100
AcDbEntity
8
1
62
256
6
ByLayer
370
18
48
1
60
0
100
AcDbEllipse
10
-0.668878
20
57.798226
30
0
11
3.16307317000616
21
4.58724331846479
31
0
210
0
220
0
230
-1
40
0.717822
41
-1.2663856724927
42
-0.00283434142593948
0
ELLIPSE
5
19C
100
AcDbEntity
8
1
62
256
6
ByLayer
370
18
48
1
60
0
100
AcDbEllipse
10
15.840003
20
46.510663
30
0
11
3.16307316979429
21
4.58724331830002
31
0
210
0
220
0
230
-1
40
0.717822
41
-0.00283434141566483
42
0.456434542342879
0
ELLIPSE
5
19D
100
AcDbEntity
8
1
62
256
6
ByLayer
370
18
48
1
60
0
100
AcDbEllipse
10
25.431494
20
68.523698
30
0
11
3.79850819463514
21
-0.421639423576774
31
0
210
0
220
0
230
-1
40
0.42989
41
0.841200371213824
42
1.12862246670538
0
ELLIPSE
5
19E
100
AcDbEntity
8
1
62
256
6
ByLayer
370
18
48
1
60
0
100
AcDbEllipse
10
15.159889
20
45.499385
30
0
11
-3.88568441363993
21
-5.77771947819612
31
0
210
1.35720642422996E-15
220
-2.9582283945788E-31
230
1
40
0.574482
41
2.05450470895251
42
2.66897247924284
0
ELLIPSE
5
19F
100
AcDbEntity
8
1
62
256
6
ByLayer
370
18
48
1
60
0
100
AcDbEllipse
10
14.515459
20
62.403646
30
0
11
0.386567422917554
21
-0.23035977847463
31
0
210
0
220
0
230
1
40
0.984948
41
0.0909491562219357
42
2.92411763463698
0
ELLIPSE
5
1A0
100
AcDbEntity
8
1
62
256
6
ByLayer
370
18
48
1
60
0
100
AcDbEllipse
10
13.920413
20
61.587878
30
0
11
1.22413017257226
21
-0.729472631836328
31
0
210
0
220
0
230
1
40
0.984948
41
-0.193459835623221
42
0.0669339728924173
0
ELLIPSE
5
1A1
100
AcDbEntity
8
1
62
256
6
ByLayer
370
18
48
1
60
0
100
AcDbEllipse
10
14.052008
20
63.438008
30
0
11
0.429519358797282
21
-0.255955309416256
31
0
210
0
220
0
230
1
40
0.984948
41
-0.731436670979421
42
-0.217475018952799
0
ELLIPSE
5
1A2
100
AcDbEntity
8
1
62
256
6
ByLayer
370
18
48
1
60
0
100
AcDbEllipse
10
15.60174
20
62.378415
30
0
11
0.429519358797282
21
-0.255955309416256
31
0
210
0
220
0
230
1
40
0.984948
41
-1.7786342221759
42
-1.26467257014917
0
ELLIPSE
5
1A3
100
AcDbEntity
8
1
62
256
6
ByLayer
370
18
48
1
60
0
100
AcDbEllipse
10
12.239087
20
60.797342
30
0
11
0.429519358797282
21
-0.255955309416256
31
0
210
0
220
0
230
1
40
0.984948
41
0.0909491562219809
42
0.604910808248637
0
ELLIPSE
5
1A4
100
AcDbEntity
8
1
62
256
6
ByLayer
370
18
48
1
60
0
100
AcDbEllipse
10
15.160891
20
61.079354
30
0
11
0.386567422917554
21
-0.23035977847463
31
0
210
0
220
0
230
1
40
0.984948
41
0.531652311925721
42
1.87692008344037
0
ELLIPSE
5
1A5
100
AcDbEntity
8
1
62
256
6
ByLayer
370
18
48
1
60
0
100
AcDbEllipse
10
12.370682
20
62.647471
30
0
11
0.429519358797282
21
-0.255955309416256
31
0
210
0
220
0
230
1
40
0.984948
41
-0.956248394974667
42
-0.442286742947921
0
ELLIPSE
5
1A6
100
AcDbEntity
8
1
62
256
6
ByLayer
370
18
48
1
60
0
100
AcDbEllipse
10
13.920413
20
61.587878
30
0
11
1.22413017257226
21
-0.729472631836328
31
0
210
0
220
0
230
1
40
0.984948
41
-1.2406573868198
42
-0.980263578304179
0
ELLIPSE
5
1A7
100
AcDbEntity
8
1
62
256
6
ByLayer
370
18
48
1
60
0
100
AcDbEllipse
10
13.920413
20
61.587878
30
0
11
1.22413017257226
21
-0.729472631836328
31
0
210
0
220
0
230
1
40
0.984948
41
-2.28785493801641
42
-2.02746112950076
0
ELLIPSE
5
1A8
100
AcDbEntity
8
1
62
256
6
ByLayer
370
18
48
1
60
0
100
AcDbEllipse
10
13.690351
20
61.201809
30
0
11
1.20265420463239
21
-0.716674866365516
31
0
210
0
220
0
230
1
40
0.984948
41
0.154873366192967
42
0.892333460656131
0
ELLIPSE
5
1A9
100
AcDbEntity
8
1
62
256
6
ByLayer
370
18
48
1
60
0
100
AcDbEllipse
10
13.920413
20
61.587878
30
0
11
1.22413017257226
21
-0.729472631836328
31
0
210
0
220
0
230
1
40
0.984948
41
1.90093526677001
42
2.16132907528564
0
ELLIPSE
5
1AA
100
AcDbEntity
8
1
62
256
6
ByLayer
370
18
48
1
60
0
100
AcDbEllipse
10
13.690351
20
61.201809
30
0
11
1.20265420463239
21
-0.716674866365516
31
0
210
0
220
0
230
1
40
0.984948
41
-0.612430400950381
42
-0.154864090540547
0
ELLIPSE
5
1AB
100
AcDbEntity
8
1
62
256
6
ByLayer
370
18
48
1
60
0
100
AcDbEllipse
10
15.240083
20
60.142216
30
0
11
-0.429519358797284
21
0.255955309416254
31
0
210
0
220
0
230
1
40
0.984948
41
0.195748117692394
42
0.829722532243774
0
ELLIPSE
5
1AC
100
AcDbEntity
8
1
62
256
6
ByLayer
370
18
48
1
60
0
100
AcDbEllipse
10
15.470145
20
60.528285
30
0
11
0.429519358797282
21
-0.255955309416256
31
0
210
0
220
0
230
1
40
0.984948
41
-2.82583177337277
42
-2.31187012134598
0
ELLIPSE
5
1AD
100
AcDbEntity
8
1
62
256
6
ByLayer
370
18
48
1
60
0
100
AcDbEllipse
10
13.584168
20
61.023624
30
0
11
4.29519358797282
21
-2.55955309416256
31
0
210
0
220
0
230
1
40
0.984948
41
-3.14157612920663
42
-8.16287158335922E-05
0
ELLIPSE
5
1AE
100
AcDbEntity
8
1
62
256
6
ByLayer
370
18
48
1
60
0
100
AcDbEllipse
10
13.615138
20
61.075594
30
0
11
-1.20265420463239
21
0.71667486636551
31
0
210
0
220
0
230
1
40
0.984948
41
-2.98665610842754
42
-0.0533900269829067
0
ELLIPSE
5
1AF
100
AcDbEntity
8
1
62
256
6
ByLayer
370
18
48
1
60
0
100
AcDbEllipse
10
13.821945
20
63.051939
30
0
11
-0.429519358797284
21
0.255955309416254
31
0
210
0
220
0
230
1
40
0.984948
41
2.29014322008568
42
2.92411763463716
0
ELLIPSE
5
1B0
100
AcDbEntity
8
1
62
256
6
ByLayer
370
18
48
1
60
0
100
AcDbEllipse
10
13.916582
20
61.581448
30
0
11
-1.20265420463239
21
0.71667486636551
31
0
210
0
220
0
230
1
40
0.984948
41
1.93953101185207
42
2.12273333020298
0
ELLIPSE
5
1B1
100
AcDbEntity
8
1
62
256
6
ByLayer
370
18
48
1
60
0
100
AcDbEllipse
10
13.916582
20
61.581448
30
0
11
-1.20265420463239
21
0.71667486636551
31
0
210
0
220
0
230
1
40
0.984948
41
0.892333460656092
42
1.0755357790063
0
ELLIPSE
5
1B2
100
AcDbEntity
8
1
62
256
6
ByLayer
370
18
48
1
60
0
100
AcDbEllipse
10
13.916582
20
61.581448
30
0
11
-1.20265420463239
21
0.71667486636551
31
0
210
0
220
0
230
1
40
0.984948
41
-0.154864090540959
42
0.0283382278101189
0
ELLIPSE
5
1B3
100
AcDbEntity
8
1
62
256
6
ByLayer
370
18
48
1
60
0
100
AcDbEllipse
10
13.916582
20
61.581448
30
0
11
-1.20265420463239
21
0.71667486636551
31
0
210
0
220
0
230
1
40
0.984948
41
-1.20206164173718
42
-1.01885932338691
0
ELLIPSE
5
1B4
100
AcDbEntity
8
1
62
256
6
ByLayer
370
18
48
1
60
0
100
AcDbEllipse
10
13.916582
20
61.581448
30
0
11
-1.20265420463239
21
0.71667486636551
31
0
210
0
220
0
230
1
40
0.984948
41
-2.24925919293371
42
-2.06605687458347
0
ELLIPSE
5
1B5
100
AcDbEntity
8
1
62
256
6
ByLayer
370
18
48
1
60
0
100
AcDbEllipse
10
13.916582
20
61.581448
30
0
11
-1.20265420463239
21
0.71667486636551
31
0
210
0
220
0
230
1
40
0.984948
41
2.98672856304888
42
-3.11325442578005
0
ELLIPSE
5
1B6
100
AcDbEntity
8
1
62
256
6
ByLayer
370
18
48
1
60
0
100
AcDbEllipse
10
14.565846
20
60.263586
30
0
11
-0.386567422917556
21
0.230359778474628
31
0
210
0
220
0
230
1
40
0.984948
41
1.13814670741856
42
-2.31187012134598
0
ELLIPSE
5
1B7
100
AcDbEntity
8
1
62
256
6
ByLayer
370
18
48
1
60
0
100
AcDbEllipse
10
15.371677
20
61.992346
30
0
11
0.429519358797282
21
-0.255955309416256
31
0
210
0
220
0
230
1
40
0.984948
41
-1.89864698470076
42
-1.26467257014917
0
ELLIPSE
5
1B8
100
AcDbEntity
8
1
62
256
6
ByLayer
370
18
48
1
60
0
100
AcDbEllipse
10
13.788819
20
59.737749
30
0
11
0.429519358797282
21
-0.255955309416256
31
0
210
0
220
0
230
1
40
0.984948
41
2.41015598261026
42
2.92411763463707
0
ELLIPSE
5
1B9
100
AcDbEntity
8
1
62
256
6
ByLayer
370
18
48
1
60
0
100
AcDbEllipse
10
13.788819
20
59.737749
30
0
11
0.429519358797282
21
-0.255955309416256
31
0
210
0
220
0
230
1
40
0.984948
41
1.13814670741851
42
1.6521083594453
0
ELLIPSE
5
1BA
100
AcDbEntity
8
1
62
256
6
ByLayer
370
18
48
1
60
0
100
AcDbEllipse
10
13.095305
20
60.386041
30
0
11
-0.386567422917556
21
0.230359778474628
31
0
210
0
220
0
230
1
40
0.984948
41
0.0909491562219839
42
2.92411763463693
0
ELLIPSE
5
1BB
100
AcDbEntity
8
1
62
256
6
ByLayer
370
18
48
1
60
0
100
AcDbEllipse
10
15.390954
20
61.465423
30
0
11
-0.386567422917556
21
0.230359778474628
31
0
210
0
220
0
230
1
40
0.984948
41
2.18534425861527
42
-1.26467257014944
0
ELLIPSE
5
1BC
100
AcDbEntity
8
1
62
256
6
ByLayer
370
18
48
1
60
0
100
AcDbEllipse
10
12.219811
20
61.324264
30
0
11
0.386567422917554
21
-0.23035977847463
31
0
210
0
220
0
230
1
40
0.984948
41
2.18534425861525
42
2.60992058211153
0
ELLIPSE
5
1BD
100
AcDbEntity
8
1
62
256
6
ByLayer
370
18
48
1
60
0
100
AcDbEllipse
10
14.052008
20
63.438008
30
0
11
0.429519358797282
21
-0.255955309416256
31
0
210
0
220
0
230
1
40
0.984948
41
-2.00344594617115
42
-1.48948429414449
0
ELLIPSE
5
1BE
100
AcDbEntity
8
1
62
256
6
ByLayer
370
18
48
1
60
0
100
AcDbEllipse
10
15.60174
20
62.378415
30
0
11
0.429519358797282
21
-0.255955309416256
31
0
210
0
220
0
230
1
40
0.984948
41
-3.05064349736781
42
-2.5366818453411
0
ELLIPSE
5
1BF
100
AcDbEntity
8
1
62
256
6
ByLayer
370
18
48
1
60
0
100
AcDbEllipse
10
13.920413
20
61.587878
30
0
11
1.22413017257226
21
-0.729472631836328
31
0
210
0
220
0
230
1
40
0.984948
41
0.853737715573375
42
1.114131524089
0
ELLIPSE
5
1C0
100
AcDbEntity
8
1
62
256
6
ByLayer
370
18
48
1
60
0
100
AcDbEllipse
10
13.690351
20
61.201809
30
0
11
1.20265420463239
21
-0.716674866365516
31
0
210
0
220
0
230
1
40
0.984948
41
-1.87026758717249
42
-1.45414614478842
0
ELLIPSE
5
1C1
100
AcDbEntity
8
1
62
256
6
ByLayer
370
18
48
1
60
0
100
AcDbEllipse
10
13.775353
20
61.344452
30
0
11
-4.29519358797284
21
2.55955309416253
31
0
210
0
220
0
230
1
40
0.984948
41
0
42
6.28318530717959
0
ELLIPSE
5
1C2
100
AcDbEntity
8
1
62
256
6
ByLayer
370
18
48
1
60
0
100
AcDbEllipse
10
13.920413
20
61.587878
30
0
11
2.14759679398641
21
-1.27977654708128
31
0
210
0
220
0
230
1
40
0.984948
41
0
42
6.28318530717959
0
ELLIPSE
5
1C3
100
AcDbEntity
8
1
62
256
6
ByLayer
370
18
48
1
60
0
100
AcDbEllipse
10
13.690351
20
61.201809
30
0
11
1.20265420463239
21
-0.716674866365516
31
0
210
0
220
0
230
1
40
0.984948
41
2.12273333020293
42
2.98672856304928
0
ELLIPSE
5
1C4
100
AcDbEntity
8
1
62
256
6
ByLayer
370
18
48
1
60
0
100
AcDbEllipse
10
13.690351
20
61.201809
30
0
11
1.20265420463239
21
-0.716674866365516
31
0
210
0
220
0
230
1
40
0.984948
41
-3.11325442578007
42
-2.66396356643862
0
ELLIPSE
5
1C5
100
AcDbEntity
8
1
62
256
6
ByLayer
370
18
48
1
60
0
100
AcDbEllipse
10
13.690351
20
61.201809
30
0
11
1.20265420463239
21
-0.716674866365516
31
0
210
0
220
0
230
1
40
0.984948
41
1.07553577900635
42
1.93953101185276
0
ELLIPSE
5
1C6
100
AcDbEntity
8
1
62
256
6
ByLayer
370
18
48
1
60
0
100
AcDbEllipse
10
15.371677
20
61.992346
30
0
11
-0.429519358797284
21
0.255955309416254
31
0
210
0
220
0
230
1
40
0.984948
41
0.0909491562219662
42
0.724923570773393
0
ELLIPSE
5
1C7
100
AcDbEntity
8
1
62
256
6
ByLayer
370
18
48
1
60
0
100
AcDbEllipse
10
14.745522
20
62.789715
30
0
11
-0.386567422917556
21
0.230359778474628
31
0
210
0
220
0
230
1
40
0.984948
41
-3.05064349736779
42
-0.21747501895281
0
ELLIPSE
5
1C8
100
AcDbEntity
8
1
62
256
6
ByLayer
370
18
48
1
60
0
100
AcDbEllipse
10
12.140619
20
62.261402
30
0
11
-0.429519358797284
21
0.255955309416254
31
0
210
0
220
0
230
1
40
0.984948
41
2.18534425861495
42
2.81931867316656
0
ELLIPSE
5
1C9
100
AcDbEntity
8
1
62
256
6
ByLayer
370
18
48
1
60
0
100
AcDbEllipse
10
13.044919
20
62.526101
30
0
11
0.386567422917554
21
-0.23035977847463
31
0
210
0
220
0
230
1
40
0.984948
41
1.13814670741868
42
2.60988908046312
0
ELLIPSE
5
1CA
100
AcDbEntity
8
1
62
256
6
ByLayer
370
18
48
1
60
0
100
AcDbEllipse
10
12.239087
20
60.797342
30
0
11
0.429519358797282
21
-0.255955309416256
31
0
210
0
220
0
230
1
40
0.984948
41
1.36295843141369
42
1.87692008344039
0
ELLIPSE
5
1CB
100
AcDbEntity
8
1
62
256
6
ByLayer
370
18
48
1
60
0
100
AcDbEllipse
10
12.449873
20
61.710333
30
0
11
-0.386567422917556
21
0.230359778474628
31
0
210
0
220
0
230
1
40
0.984948
41
-0.956248394974743
42
1.87692008344081
0
ELLIPSE
5
1CC
100
AcDbEntity
8
1
62
256
6
ByLayer
370
18
48
1
60
0
100
AcDbEllipse
10
12.370682
20
62.647471
30
0
11
0.429519358797282
21
-0.255955309416256
31
0
210
0
220
0
230
1
40
0.984948
41
0.315760880217217
42
0.829722532243842
0
ELLIPSE
5
1CD
100
AcDbEntity
8
1
62
256
6
ByLayer
370
18
48
1
60
0
100
AcDbEllipse
10
13.274981
20
62.91217
30
0
11
-0.386567422917556
21
0.230359778474628
31
0
210
0
220
0
230
1
40
0.984948
41
-2.00344594617115
42
0.829722532243718
0
ELLIPSE
5
1CE
100
AcDbEntity
8
1
62
256
6
ByLayer
370
18
48
1
60
0
100
AcDbEllipse
10
14.335783
20
59.877517
30
0
11
0.386567422917554
21
-0.23035977847463
31
0
210
0
220
0
230
1
40
0.984948
41
0.531663279952952
42
0.829722532243811
0
ELLIPSE
5
1CF
100
AcDbEntity
8
1
62
256
6
ByLayer
370
18
48
1
60
0
100
AcDbEllipse
10
15.470145
20
60.528285
30
0
11
0.429519358797282
21
-0.255955309416256
31
0
210
0
220
0
230
1
40
0.984948
41
2.18534425861512
42
2.69930591064181
0
ELLIPSE
5
1D0
100
AcDbEntity
8
1
62
256
6
ByLayer
370
18
48
1
60
0
100
AcDbEllipse
10
13.821945
20
63.051939
30
0
11
0.429519358797282
21
-0.255955309416256
31
0
210
0
220
0
230
1
40
0.984948
41
-2.0034459461712
42
-1.36947153161957
0
ELLIPSE
5
1D1
100
AcDbEntity
8
1
62
256
6
ByLayer
370
18
48
1
60
0
100
AcDbEllipse
10
13.920413
20
61.587878
30
0
11
1.22413017257226
21
-0.729472631836328
31
0
210
0
220
0
230
1
40
0.984948
41
2.9481328179666
42
-3.07465868069736
0
ELLIPSE
5
1D2
100
AcDbEntity
8
SK1
62
256
6
ByLayer
370
18
48
1
60
0
100
AcDbEllipse
10
-8.495301
20
-24.458165
30
0
11
-1.26132486540519
21
1.54462644440935E-16
31
0
210
0
220
0
230
1
40
0.450878
41
-2.4678923083749
42
-0.673601145432031
0
ELLIPSE
5
1D3
100
AcDbEntity
8
SK1
62
256
6
ByLayer
370
18
48
1
60
0
100
AcDbEllipse
10
-8.495301
20
-24.458165
30
0
11
0.95
21
0
31
0
210
0
220
0
230
1
40
0.450878
41
0.697818679084324
42
2.44378340198914
0
ELLIPSE
5
1D4
100
AcDbEntity
8
1
62
256
6
ByLayer
370
18
48
1
60
0
100
AcDbEllipse
10
19.402778
20
1.046258
30
0
11
4.51809580793656
21
-0.0344786424155168
31
0
210
0
220
0
230
-1
40
0.454082
41
-2.99480086987024
42
-1.66248303757849
0
ELLIPSE
5
1D5
100
AcDbEntity
8
1
62
256
6
ByLayer
370
18
48
1
60
0
100
AcDbEllipse
10
9.306689
20
7.721442
30
0
11
4.51809580793249
21
-0.0344786424135715
31
0
210
0
220
0
230
-1
40
0.454082
41
1.56733113429432
42
-1.57426151929548
0
ELLIPSE
5
1D6
100
AcDbEntity
8
1
62
256
6
ByLayer
370
18
48
1
60
0
100
AcDbEllipse
10
19.536311
20
-0.381499
30
0
11
1.06340217843084
21
-10.8092858804114
31
0
210
0
220
0
230
-1
40
0.414286
41
1.61153060237743
42
1.77512664953377
0
ELLIPSE
5
1D7
100
AcDbEntity
8
1
62
256
6
ByLayer
370
18
48
1
60
0
100
AcDbEllipse
10
19.44207
20
0.626138
30
0
11
4.85220394605384
21
-5.12071790744207
31
0
210
0
220
0
230
-1
40
0.204655
41
-1.87173067888464
42
-1.79684821940959
0
ELLIPSE
5
1D8
100
AcDbEntity
8
1
62
256
6
ByLayer
370
18
48
1
60
0
100
AcDbEllipse
10
29.004699
20
7.608244
30
0
11
9.72775878220547
21
-9.72775878220547
31
0
210
0
220
0
230
-1
40
0.238234
41
2.34921317318871
42
2.9077185338226
0
ELLIPSE
5
1D9
100
AcDbEntity
8
1
62
256
6
ByLayer
370
18
48
1
60
0
100
AcDbEllipse
10
20.25925
20
-8.111256
30
0
11
4.48044686797799
21
0.419041600830066
31
0
210
0
220
0
230
1
40
0.311552
41
1.54166608974035
42
3.11246241653524
0
ELLIPSE
5
1DA
100
AcDbEntity
8
1
62
256
6
ByLayer
370
18
48
1
60
0
100
AcDbEllipse
10
20.25925
20
-8.111256
30
0
11
2.68826812078679
21
0.251424960498039
31
0
210
0
220
0
230
1
40
0.311552
41
0
42
6.28318530717959
0
ELLIPSE
5
1DB
100
AcDbEntity
8
1
62
256
6
ByLayer
370
18
48
1
60
0
100
AcDbEllipse
10
9.627089
20
4.295681
30
0
11
4.48044686797799
21
0.419041600830066
31
0
210
0
220
0
230
1
40
0.311552
41
1.52832701976343
42
1.61869686078571
0
ELLIPSE
5
1DC
100
AcDbEntity
8
1
62
256
6
ByLayer
370
18
48
1
60
0
100
AcDbEllipse
10
-1.838595
20
-24.914343
30
0
11
1.8414690224474
21
-0.833543570602918
31
0
210
0
220
0
230
-1
40
0.936219
41
-1.12587612543178
42
1.75391714035872
0
ELLIPSE
5
1DD
100
AcDbEntity
8
1
62
256
6
ByLayer
370
18
48
1
60
0
100
AcDbEllipse
10
-12.295301
20
-34.5415
30
0
11
2.85427698479338
21
-1.29199253443412
31
0
210
0
220
0
230
-1
40
0.936219
41
0
42
6.28318530717959
0
ELLIPSE
5
1DE
100
AcDbEntity
8
SK1
62
256
6
ByLayer
370
18
48
1
60
0
100
AcDbEllipse
10
-8.495301
20
-23.578745
30
0
11
1.525
21
0
31
0
210
0
220
0
230
1
40
0.450878
41
0
42
6.28318530717959
0
ELLIPSE
5
1DF
100
AcDbEntity
8
SK1
62
256
6
ByLayer
370
18
48
1
60
0
100
AcDbEllipse
10
-8.495301
20
-46.153807
30
0
11
-0.95
21
1.16337603613126E-16
31
0
210
0
220
0
230
1
40
0.546102
41
0.304537758270323
42
2.83695645652385
0
ELLIPSE
5
1E0
100
AcDbEntity
8
SK1
62
256
6
ByLayer
370
18
48
1
60
0
100
AcDbEllipse
10
-8.495301
20
-46.153807
30
0
11
1.26132486540519
21
0
31
0
210
0
220
0
230
1
40
0.546102
41
-2.72312230665468
42
-0.418567877693582
0
ELLIPSE
5
1E1
100
AcDbEntity
8
1
62
256
6
ByLayer
370
18
48
1
60
0
100
AcDbEllipse
10
13.920413
20
-41.609096
30
0
11
-2.48913714887666
21
-0.232800889350031
31
0
210
0
220
0
230
1
40
0.311552
41
1.03044226267378
42
2.11124837214128
0
ELLIPSE
5
1E2
100
AcDbEntity
8
1
62
256
6
ByLayer
370
18
48
1
60
0
100
AcDbEllipse
10
13.775353
20
-40.058089
30
0
11
4.97827429775332
21
0.465601778700073
31
0
210
0
220
0
230
1
40
0.311552
41
-3.14159257411885
42
-1.51876361818289
0
ELLIPSE
5
1E3
100
AcDbEntity
8
1
62
256
6
ByLayer
370
18
48
1
60
0
100
AcDbEllipse
10
29.293143
20
-37.231525
30
0
11
0.790549958483228
21
0.0739375624575716
31
0
210
0
220
0
230
1
40
0.311552
41
-1.70403334352039
42
-0.133237016725523
0
ELLIPSE
5
1E4
100
AcDbEntity
8
1
62
256
6
ByLayer
370
18
48
1
60
0
100
AcDbEllipse
10
30.772007
20
-32.66226
30
0
11
0.790549958483228
21
0.0739375624575716
31
0
210
0
220
0
230
1
40
0.311552
41
-0.133237016725552
42
1.20005269918952E-05
0
ELLIPSE
5
1E5
100
AcDbEntity
8
1
62
256
6
ByLayer
370
18
48
1
60
0
100
AcDbEllipse
10
15.139234
20
-37.961409
30
0
11
0.790549958483228
21
0.0739375624575716
31
0
210
0
220
0
230
1
40
0.311552
41
-3.14158353564819
42
-1.7040333435204
0
ELLIPSE
5
1E6
100
AcDbEntity
8
1
62
256
6
ByLayer
370
18
48
1
60
0
100
AcDbEllipse
10
14.57735
20
-31.953674
30
0
11
-0.790549958483228
21
-0.0739375624575697
31
0
210
0
220
0
230
1
40
0.311552
41
-0.133237016725552
42
1.43755931006948
0
ELLIPSE
5
1E7
100
AcDbEntity
8
1
62
256
6
ByLayer
370
18
48
1
60
0
100
AcDbEllipse
10
28.731259
20
-31.22379
30
0
11
-0.790549958483228
21
-0.0739375624575697
31
0
210
0
220
0
230
1
40
0.311552
41
1.43755931006955
42
3.00835563686424
0
ELLIPSE
5
1E8
100
AcDbEntity
8
1
62
256
6
ByLayer
370
18
48
1
60
0
100
AcDbEllipse
10
30.210123
20
-26.654525
30
0
11
-0.790549958483228
21
-0.0739375624575697
31
0
210
0
220
0
230
1
40
0.311552
41
3.00835563686424
42
-2.42213338507717
0
ELLIPSE
5
1E9
100
AcDbEntity
8
1
62
256
6
ByLayer
370
18
48
1
60
0
100
AcDbEllipse
10
30.772007
20
-35.395354
30
0
11
-0.788443639752329
21
0.0937690083881641
31
0
210
0
220
0
230
1
40
0.662273
41
-3.14157194689176
42
-1.79083422536797
0
ELLIPSE
5
1EA
100
AcDbEntity
8
1
62
256
6
ByLayer
370
18
48
1
60
0
100
AcDbEllipse
10
30.210123
20
-40.119877
30
0
11
0.788443639752329
21
-0.0937690083881642
31
0
210
0
220
0
230
1
40
0.662273
41
-0.0255054247121493
42
1.13595171158935
0
ELLIPSE
5
1EB
100
AcDbEntity
8
1
62
256
6
ByLayer
370
18
48
1
60
0
100
AcDbEllipse
10
19.402778
20
-67.522358
30
0
11
4.51804733306045
21
-0.0475246490767831
31
0
210
0
220
0
230
-1
40
0.549966
41
-2.99712062422365
42
-1.66480279193115
0
ELLIPSE
5
1EC
100
AcDbEntity
8
1
62
256
6
ByLayer
370
18
48
1
60
0
100
AcDbEllipse
10
29.004699
20
-40.386326
30
0
11
9.58571519665374
21
9.58571519665374
31
0
210
0
220
0
230
-1
40
0.297163
41
2.87193928415692
42
-2.852740662385
0
ELLIPSE
5
1ED
100
AcDbEntity
8
1
62
256
6
ByLayer
370
18
48
1
60
0
100
AcDbEllipse
10
16.431828
20
-35.640763
30
0
11
5.59315934047527
21
-12.4944668874416
31
0
210
0
220
0
230
-1
40
0.454098
41
-1.15358399697772
42
0.238801171258889
0
ELLIPSE
5
1EE
100
AcDbEntity
8
1
62
256
6
ByLayer
370
18
48
1
60
0
100
AcDbEllipse
10
19.44207
20
-67.191972
30
0
11
4.79740244689246
21
4.23041992638683
31
0
210
0
220
0
230
-1
40
0.301524
41
-1.39914261451661
42
-1.32426016713253
0
ELLIPSE
5
1EF
100
AcDbEntity
8
1
62
256
6
ByLayer
370
18
48
1
60
0
100
AcDbEllipse
10
9.627089
20
-56.743348
30
0
11
-4.46850929330665
21
0.53143644552486
31
0
210
0
220
0
230
1
40
0.662273
41
0.579059952076235
42
1.63605861177681
0
ELLIPSE
5
1F0
100
AcDbEntity
8
1
62
256
6
ByLayer
370
18
48
1
60
0
100
AcDbEllipse
10
9.627089
20
-56.743348
30
0
11
3.4755072281274
21
-0.413339457630447
31
0
210
0
220
0
230
1
40
0.662273
41
0
42
0.0761834560536351
0
ELLIPSE
5
1F1
100
AcDbEntity
8
1
62
256
6
ByLayer
370
18
48
1
60
0
100
AcDbEllipse
10
9.627089
20
-56.743348
30
0
11
3.4755072281274
21
-0.413339457630447
31
0
210
0
220
0
230
1
40
0.662273
41
-2.63854529497526
42
0
0
ELLIPSE
5
1F2
100
AcDbEntity
8
SK1
62
256
6
ByLayer
370
18
48
1
60
0
100
AcDbEllipse
10
-8.495301
20
-46.979169
30
0
11
-1.525
21
1.86752468957913E-16
31
0
210
0
220
0
230
1
40
0.546102
41
0
42
6.28318530717959
0
ELLIPSE
5
1F3
100
AcDbEntity
8
1
62
256
6
ByLayer
370
18
48
1
60
0
100
AcDbEllipse
10
9.306689
20
-59.437389
30
0
11
4.51804733305978
21
-0.0475246490765273
31
0
210
0
220
0
230
-1
40
0.549966
41
1.56501137994077
42
-1.57658127364898
0
ELLIPSE
5
1F4
100
AcDbEntity
8
1
62
256
6
ByLayer
370
18
48
1
60
0
100
AcDbEllipse
10
-12.295301
20
-31.057798
30
0
11
-2.619
21
3.20724404066081E-16
31
0
210
0
220
0
230
1
40
0.892586
41
0.580409069861468
42
2.49952968722822
0
ELLIPSE
5
1F5
100
AcDbEntity
8
1
62
256
6
ByLayer
370
18
48
1
60
0
100
AcDbEllipse
10
-12.295301
20
-30.886014
30
0
11
-3
21
3.67381906146713E-16
31
0
210
0
220
0
230
1
40
0.892586
41
0.657770993192795
42
2.4306109805452
0
POINT
5
6C
100
AcDbEntity
8
80
62
256
6
ByLayer
370
13
48
1
60
0
100
AcDbPoint
10
0
20
0
30
0
39
0
210
0
220
0
230
1
50
360
0
POINT
5
6E
100
AcDbEntity
8
81
62
256
6
ByLayer
370
13
48
1
60
0
100
AcDbPoint
10
30
20
83
30
0
39
0
210
0
220
0
230
1
50
360
0
SPLINE
5
1F6
100
AcDbEntity
8
1
62
256
6
ByLayer
370
18
48
1
60
0
100
AcDbSpline
70
4
71
1
72
4
73
2
40
0
40
0
40
1
40
1
41
1
10
19.8400223062981
20
-40.9882812472666
30
0
41
1
10
21.3237669239379
20
-40.5484100195847
30
0
0
SPLINE
5
1F7
100
AcDbEntity
8
1
62
256
6
ByLayer
370
18
48
1
60
0
100
AcDbSpline
70
4
71
3
72
12
73
8
40
0
40
0
40
0
40
0
40
0.155091003128584
40
0.35953844579849
40
0.580617281933586
40
0.798438182935009
40
1
40
1
40
1
40
1
41
1
10
14.240504302265
20
-41.4418773131741
30
0
41
1
10
14.5545650437491
20
-41.4826401068679
30
0
41
1
10
15.2690710846128
20
-41.5512157938019
30
0
41
1
10
16.3675314690776
20
-41.5463340575337
30
0
41
1
10
17.5287326978835
20
-41.4565043732082
30
0
41
1
10
18.7281980248442
20
-41.2783863929932
30
0
41
1
10
19.4925202003913
20
-41.08906133916
30
0
41
1
10
19.8588046796615
20
-40.9826357364003
30
0
0
SPLINE
5
1F8
100
AcDbEntity
8
1
62
256
6
ByLayer
370
18
48
1
60
0
100
AcDbSpline
70
4
71
3
72
8
73
4
40
0
40
0
40
0
40
0
40
1
40
1
40
1
40
1
41
1
10
21.3744877926956
20
-40.5329202268945
30
0
41
1
10
21.4109406553659
20
-40.5215239287396
30
0
41
1
10
21.4473411243771
20
-40.5098154283547
30
0
41
1
10
21.4837197294453
20
-40.4978072959482
30
0
0
SPLINE
5
1F9
100
AcDbEntity
8
1
62
256
6
ByLayer
370
18
48
1
60
0
100
AcDbSpline
70
4
71
3
72
10
73
6
40
0
40
0
40
0
40
0
40
0.292969046979475
40
0.821090605931777
40
1
40
1
40
1
40
1
41
1
10
21.7376403801342
20
-40.4092943042593
30
0
41
1
10
21.8420306318516
20
-40.3710977657174
30
0
41
1
10
22.1357308494054
20
-40.257827824679
30
0
41
1
10
22.5041500571297
20
-40.101478705148
30
0
41
1
10
22.7422674465399
20
-39.9678364724653
30
0
41
1
10
22.8018803968407
20
-39.9328659131917
30
0
0
SPLINE
5
1FA
100
AcDbEntity
8
1
62
256
6
ByLayer
370
18
48
1
60
0
100
AcDbSpline
70
4
71
3
72
9
73
5
40
0
40
0
40
0
40
0
40
0.0033991803160078
40
1
40
1
40
1
40
1
41
1
10
5.4481335814362
20
-38.6334293841077
30
0
41
1
10
5.44892836441227
20
-38.6338211744906
30
0
41
1
10
5.68276242588183
20
-38.7490397318825
30
0
41
1
10
5.92188054628474
20
-38.851989533979
30
0
41
1
10
6.16659482403372
20
-38.9427013001691
30
0
0
SPLINE
5
1FB
100
AcDbEntity
8
1
62
256
6
ByLayer
370
18
48
1
60
0
100
AcDbSpline
70
4
71
3
72
11
73
7
40
0
40
0
40
0
40
0
40
0.425230898251466
40
0.744154071940065
40
0.956769521065798
40
1
40
1
40
1
40
1
41
1.0258173342201
10
8.45719257516857
20
-38.6649193345925
30
0
41
1.02559001729416
10
9.18496072351035
20
-38.9627522121599
30
0
41
1.0228008665691
10
12.356380135134
20
-40.1250662394529
30
0
41
1.01953314781965
10
17.1926401348257
20
-40.5206790530512
30
0
41
1.01775466813745
10
18.8675047880626
20
-40.3346211108166
30
0
41
1.01823166218985
10
19.3514662302149
20
-40.2138480256636
30
0
41
1.01834276704992
10
19.4291294863706
20
-40.1919290616605
30
0
0
SPLINE
5
1FC
100
AcDbEntity
8
1
62
256
6
ByLayer
370
18
48
1
60
0
100
AcDbSpline
70
4
71
3
72
9
73
5
40
0
40
0
40
0
40
0
40
0.382570902459106
40
1
40
1
40
1
40
1
41
1.01846043651045
10
19.9974863349897
20
-40.9395175000018
30
0
41
1.01815391707454
10
20.2585325890483
20
-40.855970751451
30
0
41
1.01769407958301
10
20.8500117771476
20
-40.6314371162535
30
0
41
1.01931548101018
10
21.2444813005479
20
-40.4511051188347
30
0
41
1.02052415826821
10
21.6104920340611
20
-40.2477982851701
30
0
0
SPLINE
5
1FD
100
AcDbEntity
8
1
62
256
6
ByLayer
370
18
48
1
60
0
100
AcDbSpline
70
4
71
3
72
8
73
4
40
0
40
0
40
0
40
0
40
1
40
1
40
1
40
1
41
1
10
7.96786826955423
20
-39.6407161024769
30
0
41
1
10
8.00694303240823
20
-39.6614806961397
30
0
41
1
10
8.26522444856141
20
-39.7015177115589
30
0
41
1
10
8.7549853895041
20
-39.8878955118806
30
0
0
SPLINE
5
1FE
100
AcDbEntity
8
1
62
256
6
ByLayer
370
18
48
1
60
0
100
AcDbSpline
70
4
71
3
72
8
73
4
40
0
40
0
40
0
40
0
40
1
40
1
40
1
40
1
41
1
10
10.1097674480181
20
-40.4043092996657
30
0
41
1
10
10.0644676052204
20
-40.3865050146757
30
0
41
1
10
10.0206580387257
20
-40.3695453630002
30
0
41
1
10
9.97835286021291
20
-40.3534461900072
30
0
0
SPLINE
5
1FF
100
AcDbEntity
8
1
62
256
6
ByLayer
370
18
48
1
60
0
100
AcDbSpline
70
4
71
3
72
9
73
5
40
0
40
0
40
0
40
0
40
0.240572141491327
40
1
40
1
40
1
40
1
41
1.01812490989593
10
21.7331426873283
20
-40.4081022520842
30
0
41
1.01805471934813
10
21.8264964218411
20
-40.3722428861414
30
0
41
1.01799725122879
10
22.1909131399447
20
-40.2220456107612
30
0
41
1.01931548101
10
22.4840875018057
20
-40.0836112151648
30
0
41
1.02052415826788
10
22.7902762990018
20
-39.8980392047873
30
0
0
SPLINE
5
200
100
AcDbEntity
8
1
62
256
6
ByLayer
370
18
48
1
60
0
100
AcDbSpline
70
4
71
3
72
10
73
6
40
0
40
0
40
0
40
0
40
0.0801582713538904
40
0.0801582713538904
40
1
40
1
40
1
40
1
41
1
10
19.4490989742717
20
-37.9854942916137
30
0
41
1
10
19.4317100825242
20
-38.0429296984376
30
0
41
1
10
19.4156813561864
20
-38.1004502106165
30
0
41
1
10
19.2302734286454
20
-38.8176155367204
30
0
41
1
10
19.3201128728113
20
-39.5094343806218
30
0
41
1
10
19.4291294863706
20
-40.1919290616606
30
0
0
SPLINE
5
201
100
AcDbEntity
8
1
62
256
6
ByLayer
370
18
48
1
60
0
100
AcDbSpline
70
4
71
3
72
20
73
16
40
0
40
0
40
0
40
0
40
0.118962056339779
40
0.118962056339779
40
0.191173230286442
40
0.191173230286442
40
0.263712164126313
40
0.263712164126313
40
0.333306822588764
40
0.333306822588764
40
0.451479822004391
40
0.451479822004391
40
0.65441453400902
40
0.65441453400902
40
1
40
1
40
1
40
1
41
1
10
19.4291294863706
20
-40.1919290616606
30
0
41
1
10
19.4400813702906
20
-40.2556147614273
30
0
41
1
10
19.4654131708832
20
-40.3206378222642
30
0
41
1
10
19.5429284978182
20
-40.4157109527461
30
0
41
1
10
19.5817526809749
20
-40.4501300631441
30
0
41
1
10
19.675777812594
20
-40.5090830075622
30
0
41
1
10
19.7322358579254
20
-40.534232261925
30
0
41
1
10
19.8506082816547
20
-40.5715424039802
30
0
41
1
10
19.9133827306118
20
-40.5847347119195
30
0
41
1
10
20.0833915016653
20
-40.607925253212
30
0
41
1
10
20.1941572890112
20
-40.6101866376751
30
0
41
1
10
20.4836561378487
20
-40.5956985069961
30
0
41
1
10
20.6611025602438
20
-40.5646380719469
30
0
41
1
10
21.1096633645799
20
-40.4544429491086
30
0
41
1
10
21.3683880431584
20
-40.3555070785681
30
0
41
1
10
21.6104920340612
20
-40.2477982851701
30
0
0
SPLINE
5
202
100
AcDbEntity
8
1
62
256
6
ByLayer
370
18
48
1
60
0
100
AcDbSpline
70
4
71
3
72
10
73
6
40
0
40
0
40
0
40
0
40
0.914968234315967
40
0.914968234315967
40
1
40
1
40
1
40
1
41
1
10
21.6104920340612
20
-40.2477982851701
30
0
41
1
10
22.0074008981083
20
-40.0713171485377
30
0
41
1
10
22.3959152763002
20
-39.8884223062545
30
0
41
1
10
22.81123075775
20
-39.6823494156872
30
0
41
1
10
22.8464764340993
20
-39.6647690394185
30
0
41
1
10
22.8816407394711
20
-39.6471339235562
30
0
0
SPLINE
5
203
100
AcDbEntity
8
1
62
256
6
ByLayer
370
18
48
1
60
0
100
AcDbSpline
70
4
71
3
72
8
73
4
40
0
40
0
40
0
40
0
40
1
40
1
40
1
40
1
41
1
10
23.4582379266286
20
-38.9974587633224
30
0
41
1
10
23.7250569941969
20
-38.5711208475384
30
0
41
1
10
23.992391385976
20
-38.1435804980367
30
0
41
1
10
24.248517797654
20
-37.7315120168163
30
0
0
SPLINE
5
204
100
AcDbEntity
8
1
62
256
6
ByLayer
370
18
48
1
60
0
100
AcDbSpline
70
4
71
3
72
8
73
4
40
0
40
0
40
0
40
0
40
1
40
1
40
1
40
1
41
1
10
22.7902762990922
20
-39.8980392047325
30
0
41
1
10
22.7792211611236
20
-39.933560541588
30
0
41
1
10
22.7751406806552
20
-39.9585970292714
30
0
41
1
10
22.7952357806379
20
-39.9462602066594
30
0
0
SPLINE
5
205
100
AcDbEntity
8
1
62
256
6
ByLayer
370
18
48
1
60
0
100
AcDbSpline
70
4
71
3
72
12
73
8
40
0
40
0
40
0
40
0
40
0.0813469862493425
40
0.0813469862493425
40
0.540673493124671
40
0.540673493124671
40
1
40
1
40
1
40
1
41
1
10
22.8416346353608
20
-39.9010109378698
30
0
41
1
10
22.8483179843924
20
-39.8933476585221
30
0
41
1
10
22.8556616111258
20
-39.884660779375
30
0
41
1
10
22.9091939072362
20
-39.8195974587271
30
0
41
1
10
22.9823775858038
20
-39.7217370427813
30
0
41
1
10
23.2089353894256
20
-39.389225773936
30
0
41
1
10
23.3478406960412
20
-39.1737291736701
30
0
41
1
10
23.4582379266286
20
-38.9974587633224
30
0
0
SPLINE
5
206
100
AcDbEntity
8
1
62
256
6
ByLayer
370
18
48
1
60
0
100
AcDbSpline
70
4
71
3
72
10
73
6
40
0
40
0
40
0
40
0
40
0.311681797709782
40
0.311681797709782
40
1
40
1
40
1
40
1
41
1
10
22.8816407394883
20
-39.6471339235475
30
0
41
1
10
22.8695445112709
20
-39.6771444792903
30
0
41
1
10
22.8583144375588
20
-39.7058457278683
30
0
41
1
10
22.8248162493277
20
-39.7940938363713
30
0
41
1
10
22.8054161290311
20
-39.849303602371
30
0
41
1
10
22.7902762990922
20
-39.8980392047325
30
0
0
SPLINE
5
207
100
AcDbEntity
8
1
62
256
6
ByLayer
370
18
48
1
60
0
100
AcDbSpline
70
4
71
1
72
4
73
2
40
0
40
0
40
1
40
1
41
1
10
8.45719257516862
20
-38.6649193345926
30
0
41
1
10
8.36021948953675
20
-38.4831263142012
30
0
0
SPLINE
5
208
100
AcDbEntity
8
1
62
256
6
ByLayer
370
18
48
1
60
0
100
AcDbSpline
70
4
71
3
72
10
73
6
40
0
40
0
40
0
40
0
40
0.645250623527093
40
0.645250623527093
40
1
40
1
40
1
40
1
41
1
10
10.1097674479246
20
-40.4043092996279
30
0
41
1
10
10.784521333329
20
-40.6493118730354
30
0
41
1
10
11.7526883216196
20
-40.9430557070776
30
0
41
1
10
13.4002267554524
20
-41.3405974282405
30
0
41
1
10
14.0199291822955
20
-41.45475076918
30
0
41
1
10
14.6356832023209
20
-41.486950081914
30
0
0
SPLINE
5
209
100
AcDbEntity
8
1
62
256
6
ByLayer
370
18
48
1
60
0
100
AcDbSpline
70
4
71
3
72
8
73
4
40
0
40
0
40
0
40
0
40
1
40
1
40
1
40
1
41
1
10
5.46306922574712
20
-38.6461908917922
30
0
41
1
10
5.7215416311368
20
-38.7750395427983
30
0
41
1
10
5.98824908593338
20
-38.890636618736
30
0
41
1
10
6.2608021949232
20
-38.9933425623423
30
0
0
SPLINE
5
20A
100
AcDbEntity
8
1
62
256
6
ByLayer
370
18
48
1
60
0
100
AcDbSpline
70
4
71
3
72
8
73
4
40
0
40
0
40
0
40
0
40
1
40
1
40
1
40
1
41
1
10
10.1097674479246
20
-40.4043092996279
30
0
41
1
10
9.42905686194666
20
-40.0160574702265
30
0
41
1
10
8.85641651380109
20
-39.4133344762132
30
0
41
1
10
8.45719257516862
20
-38.6649193345926
30
0
0
SPLINE
5
20B
100
AcDbEntity
8
1
62
256
6
ByLayer
370
18
48
1
60
0
100
AcDbSpline
70
4
71
3
72
12
73
8
40
0
40
0
40
0
40
0
40
0.274077856982873
40
0.274077856982873
40
0.54815536396517
40
0.54815536396517
40
1
40
1
40
1
40
1
41
1
10
16.1189279031719
20
66.9892926937554
30
0
41
1
10
16.3368305237418
20
66.9058973835512
30
0
41
1
10
16.5501310427218
20
66.8080341705565
30
0
41
1
10
16.9617382624259
20
66.5861829283915
30
0
41
1
10
17.1609882853751
20
66.4616869598159
30
0
41
1
10
17.6629072006337
20
66.1014580451836
30
0
41
1
10
17.9527418011944
20
65.8431731858929
30
0
41
1
10
18.2096486610631
20
65.5598110438384
30
0
0
SPLINE
5
20C
100
AcDbEntity
8
1
62
256
6
ByLayer
370
18
48
1
60
0
100
AcDbSpline
70
4
71
3
72
8
73
4
40
0
40
0
40
0
40
0
40
1
40
1
40
1
40
1
41
1
10
7.93981133215937
20
58.300507293158
30
0
41
1
10
7.8370518761335
20
58.0371079623671
30
0
41
1
10
7.70322041848868
20
57.791035889276
30
0
41
1
10
7.55102663336004
20
57.5666855219859
30
0
0
SPLINE
5
20D
100
AcDbEntity
8
1
62
256
6
ByLayer
370
18
48
1
60
0
100
AcDbSpline
70
4
71
3
72
12
73
8
40
0
40
0
40
0
40
0
40
0.500000000000013
40
0.500000000000013
40
0.750000000000006
40
0.750000000000006
40
1
40
1
40
1
40
1
41
1
10
22.7902762990922
20
73.1443109704687
30
0
41
1
10
22.7724240788583
20
72.765796970844
30
0
41
1
10
22.7727596106226
20
72.3674037463175
30
0
41
1
10
22.9091939072361
20
71.7061341766494
30
0
41
1
10
22.9823775858032
20
71.4676470017981
30
0
41
1
10
23.2089353894251
20
71.1148137691679
30
0
41
1
10
23.347840696041
20
71.050138431768
30
0
41
1
10
23.4582379266286
20
71.0639483348464
30
0
0
SPLINE
5
20E
100
AcDbEntity
8
1
62
256
6
ByLayer
370
18
48
1
60
0
100
AcDbSpline
70
4
71
3
72
8
73
4
40
0
40
0
40
0
40
0
40
1
40
1
40
1
40
1
41
1
10
13.0426823333667
20
54.8115380319152
30
0
41
1
10
12.8353692114772
20
54.6196248363339
30
0
41
1
10
12.6558847169182
20
54.4047669645107
30
0
41
1
10
12.5036909317895
20
54.1804165972205
30
0
0
SPLINE
5
20F
100
AcDbEntity
8
1
62
256
6
ByLayer
370
18
48
1
60
0
100
AcDbSpline
70
4
71
3
72
8
73
4
40
0
40
0
40
0
40
0
40
1
40
1
40
1
40
1
41
1
10
8.05799759110266
20
59.7065764108889
30
0
41
1
10
7.81454953943984
20
60.8486881904621
30
0
41
1
10
8.03381765755825
20
62.0555263199331
30
0
41
1
10
8.7549853895041
20
63.1059657151607
30
0
0
SPLINE
5
210
100
AcDbEntity
8
1
62
256
6
ByLayer
370
18
48
1
60
0
100
AcDbSpline
70
4
71
3
72
10
73
6
40
0
40
0
40
0
40
0
40
0.5
40
0.5
40
1
40
1
40
1
40
1
41
1
10
18.2096486610631
20
65.5598110438384
30
0
41
1
10
18.9718993270595
20
64.7189704598388
30
0
41
1
10
19.3607785477306
20
63.5959231815679
30
0
41
1
10
19.4665363753446
20
61.355701039652
30
0
41
1
10
19.1971767335668
20
60.2161426998361
30
0
41
1
10
18.6035963437174
20
59.2631131393017
30
0
0
SPLINE
5
211
100
AcDbEntity
8
1
62
256
6
ByLayer
370
18
48
1
60
0
100
AcDbSpline
70
4
71
3
72
8
73
4
40
0
40
0
40
0
40
0
40
1
40
1
40
1
40
1
41
1
10
13.1070779806582
20
50.8325981336639
30
0
41
1
10
13.2200614081369
20
50.75534834518
30
0
41
1
10
13.3369915055421
20
50.691091591336
30
0
41
1
10
13.4573483772846
20
50.6377021124633
30
0
0
SPLINE
5
212
100
AcDbEntity
8
1
62
256
6
ByLayer
370
18
48
1
60
0
100
AcDbSpline
70
4
71
3
72
10
73
6
40
0
40
0
40
0
40
0
40
0.731297369966902
40
0.731297369966902
40
1
40
1
40
1
40
1
41
1
10
13.0426823333667
20
54.8115380319152
30
0
41
1
10
13.1051056567571
20
54.8693243377769
30
0
41
1
10
13.1728146126652
20
54.9262804751237
30
0
41
1
10
13.266951839377
20
54.9960673749302
30
0
41
1
10
13.2927425887872
20
55.0142748066808
30
0
41
1
10
13.3184325717842
20
55.0314690390201
30
0
0
SPLINE
5
213
100
AcDbEntity
8
1
62
256
6
ByLayer
370
18
48
1
60
0
100
AcDbSpline
70
4
71
3
72
8
73
4
40
0
40
0
40
0
40
0
40
1
40
1
40
1
40
1
41
1
10
4.24180888646941
20
56.8940195089938
30
0
41
1
10
4.1288254589906
20
56.9712692974776
30
0
41
1
10
4.02624355201363
20
57.0570987667778
30
0
41
1
10
3.93232863745283
20
57.1502126339208
30
0
0
SPLINE
5
214
100
AcDbEntity
8
1
62
256
6
ByLayer
370
18
48
1
60
0
100
AcDbSpline
70
4
71
3
72
14
73
10
40
0
40
0
40
0
40
0
40
0.0560617400824695
40
0.0560617400824695
40
0.432699965147838
40
0.432699965147838
40
0.811345304670931
40
0.811345304670931
40
1
40
1
40
1
40
1
41
1
10
23.4256903851513
20
77.3723101252318
30
0
41
1
10
23.3880021829464
20
77.3735457027998
30
0
41
1
10
23.350162041744
20
77.374396838299
30
0
41
1
10
23.0597383002143
20
77.3778563123814
30
0
41
1
10
22.7982695539216
20
77.3625532427631
30
0
41
1
10
22.2989351551859
20
77.2913985293784
30
0
41
1
10
22.0546480589943
20
77.2341518879783
30
0
41
1
10
21.7306946784235
20
77.1241826491078
30
0
41
1
10
21.6281037357142
20
77.08312350391
30
0
41
1
10
21.5329885196384
20
77.0389611387744
30
0
0
SPLINE
5
215
100
AcDbEntity
8
1
62
256
6
ByLayer
370
18
48
1
60
0
100
AcDbSpline
70
4
71
3
72
8
73
4
40
0
40
0
40
0
40
0
40
1
40
1
40
1
40
1
41
1
10
18.6035963437175
20
59.2631131393017
30
0
41
1
10
18.5639596582033
20
59.1994795953173
30
0
41
1
10
18.5229198091274
20
59.1366996968813
30
0
41
1
10
18.4804265725168
20
59.074804845255
30
0
0
SPLINE
5
216
100
AcDbEntity
8
1
62
256
6
ByLayer
370
18
48
1
60
0
100
AcDbSpline
70
4
71
3
72
8
73
4
40
0
40
0
40
0
40
0
40
1
40
1
40
1
40
1
41
1
10
10.1097674480181
20
65.0705709255753
30
0
41
1
10
10.0644676052204
20
65.0104094042514
30
0
41
1
10
10.0206580387257
20
64.9495207624963
30
0
41
1
10
9.97835286021291
20
64.8878998327688
30
0
0
SPLINE
5
217
100
AcDbEntity
8
1
62
256
6
ByLayer
370
18
48
1
60
0
100
AcDbSpline
70
4
71
3
72
10
73
6
40
0
40
0
40
0
40
0
40
0.500000000000001
40
0.500000000000001
40
1
40
1
40
1
40
1
41
1
10
25.1461073648679
20
66.3600700756152
30
0
41
1
10
24.7992703572481
20
64.5456342075169
30
0
41
1
10
24.2957985360163
20
62.7829169311613
30
0
41
1
10
22.9497070599297
20
59.3694641783003
30
0
41
1
10
22.1111390000019
20
57.6987722274513
30
0
41
1
10
21.0679978376209
20
56.1595788240947
30
0
0
SPLINE
5
218
100
AcDbEntity
8
1
62
256
6
ByLayer
370
18
48
1
60
0
100
AcDbSpline
70
4
71
3
72
11
73
7
40
0
40
0
40
0
40
0
40
0.425230898251468
40
0.744154071940068
40
0.956769521065802
40
1
40
1
40
1
40
1
41
1.0258173342201
10
8.45719257516857
20
65.7213237724582
30
0
41
1.02559001729416
10
9.18496072351035
20
66.5973189701271
30
0
41
1.0228008665691
10
12.356380135134
20
69.1718952890653
30
0
41
1.01953314781965
10
17.1926401348257
20
72.2605683100999
30
0
41
1.01775466813745
10
18.8675047880626
20
73.3109710165801
30
0
41
1.01823166218985
10
19.3514662302149
20
73.7452379531517
30
0
41
1.01834276704992
10
19.4291294863706
20
73.8187574403112
30
0
0
SPLINE
5
219
100
AcDbEntity
8
1
62
256
6
ByLayer
370
18
48
1
60
0
100
AcDbSpline
70
4
71
3
72
8
73
4
40
0
40
0
40
0
40
0
40
1
40
1
40
1
40
1
41
1
10
13.3184325717842
20
55.0314690390201
30
0
41
1
10
13.6274229568938
20
55.2382754223804
30
0
41
1
10
13.9702743084662
20
55.3728897143944
30
0
41
1
10
14.317192962124
20
55.426997278977
30
0
0
SPLINE
5
21A
100
AcDbEntity
8
1
62
256
6
ByLayer
370
18
48
1
60
0
100
AcDbSpline
70
4
71
3
72
8
73
4
40
0
40
0
40
0
40
0
40
1
40
1
40
1
40
1
41
1
10
10.1097674479246
20
65.0705709254509
30
0
41
1
10
9.42905686194666
20
65.4091675279644
30
0
41
1
10
8.85641651380109
20
65.634662507351
30
0
41
1
10
8.45719257516862
20
65.7213237724582
30
0
0
SPLINE
5
21B
100
AcDbEntity
8
1
62
256
6
ByLayer
370
18
48
1
60
0
100
AcDbSpline
70
4
71
3
72
11
73
7
40
0
40
0
40
0
40
0
40
0.0598016998824443
40
0.468392215028714
40
0.740785891792893
40
1
40
1
40
1
40
1
41
1.0229825050537
10
16.1189279031226
20
66.9892926936899
30
0
41
1.02281639303114
10
16.2633570388985
20
67.1805557336959
30
0
41
1.02150796927553
10
17.4084754512372
20
68.6898140897013
30
0
41
1.01953314781965
10
19.3051471823734
20
71.0912050055404
30
0
41
1.01726237988674
10
20.7447719117694
20
72.81536482327
30
0
41
1.01931548101018
10
21.2444813005479
20
73.4887801151846
30
0
41
1.02052415826821
10
21.6104920340612
20
73.950960998376
30
0
0
SPLINE
5
21C
100
AcDbEntity
8
1
62
256
6
ByLayer
370
18
48
1
60
0
100
AcDbSpline
70
4
71
3
72
16
73
12
40
0
40
0
40
0
40
0
40
0.107738294188975
40
0.107738294188975
40
0.260376815889406
40
0.260376815889406
40
0.501548994683952
40
0.501548994683952
40
0.879664328740049
40
0.879664328740049
40
1
40
1
40
1
40
1
41
1
10
3.93232863745277
20
57.1502126339208
30
0
41
1
10
3.89443096624046
20
57.1877870568843
30
0
41
1
10
3.85311082042642
20
57.2256579508523
30
0
41
1
10
3.75597599913755
20
57.3116811238773
30
0
41
1
10
3.69921542445536
20
57.3594827469983
30
0
41
1
10
3.56272420076738
20
57.4717476452311
30
0
41
1
10
3.48552628926444
20
57.5323765279373
30
0
41
1
10
3.3089597614217
20
57.6641989039146
30
0
41
1
10
3.21769045383496
20
57.7245817844745
30
0
41
1
10
3.11469084492569
20
57.7802769400491
30
0
41
1
10
3.09087115953838
20
57.7920522833024
30
0
41
1
10
3.06814014633284
20
57.8021986461245
30
0
0
SPLINE
5
21D
100
AcDbEntity
8
1
62
256
6
ByLayer
370
18
48
1
60
0
100
AcDbSpline
70
4
71
2
72
6
73
3
40
0
40
0
40
0
40
1
40
1
40
1
41
0.943993462491077
10
18.6035963937758
20
59.2631130940022
30
0
41
0.955129619920243
10
19.4809164299226
20
58.4691938185399
30
0
41
1.0258173342201
10
19.850420742817
20
57.9314692270767
30
0
0
SPLINE
5
21E
100
AcDbEntity
8
1
62
256
6
ByLayer
370
18
48
1
60
0
100
AcDbSpline
70
4
71
3
72
11
73
7
40
0
40
0
40
0
40
0
40
0.425230898249521
40
0.744154071936661
40
0.956769521061422
40
1
40
1
40
1
40
1
41
1.0258173342201
10
19.850420742817
20
57.9314692270767
30
0
41
1.02559001729416
10
20.404597799758
20
58.9261532927135
30
0
41
1.0228008665691
10
21.653041357604
20
62.8155195883587
30
0
41
1.01953314781965
10
22.7967992855014
20
68.4288549458409
30
0
41
1.01775466813744
10
23.1813190969829
20
70.3615009008723
30
0
41
1.01823166218986
10
23.4167946454007
20
70.965664282958
30
0
41
1.01834276704995
10
23.4582379266286
20
71.0639483348464
30
0
0
SPLINE
5
21F
100
AcDbEntity
8
1
62
256
6
ByLayer
370
18
48
1
60
0
100
AcDbSpline
70
4
71
3
72
10
73
6
40
0
40
0
40
0
40
0
40
0.0734657164133987
40
0.699676314776428
40
1
40
1
40
1
40
1
41
1.02544020896672
10
20.6690897264827
20
76.940187207696
30
0
41
1.02527247753992
10
20.560526031876
20
76.9069286394746
30
0
41
1.02366228488755
10
19.5104317072406
20
76.5759175428548
30
0
41
1.02128760257541
10
17.8202233495048
20
75.901467301044
30
0
41
1.01951717951064
10
16.8672199518451
20
75.4648612709176
30
0
41
1.01906346594983
10
16.5822075381186
20
75.3266700038276
30
0
0
SPLINE
5
220
100
AcDbEntity
8
1
62
256
6
ByLayer
370
18
48
1
60
0
100
AcDbSpline
70
4
71
3
72
11
73
7
40
0
40
0
40
0
40
0
40
0.0598016998854991
40
0.468392215040455
40
0.740785891810425
40
1
40
1
40
1
40
1
41
1.02298250505371
10
18.2096486610194
20
65.5598110437686
30
0
41
1.02281639303115
10
18.3369475265236
20
65.7627865073188
30
0
41
1.02150796927554
10
19.3400228159935
20
67.3691635420789
30
0
41
1.01953314781965
10
20.9164900394068
20
69.9894868362644
30
0
41
1.0172623798868
10
22.0271478655087
20
71.9385701162868
30
0
41
1.01931548101
10
22.4840875018057
20
72.6412282308227
30
0
41
1.02052415826788
10
22.7902762990018
20
73.1443109703203
30
0
0
SPLINE
5
221
100
AcDbEntity
8
1
62
256
6
ByLayer
370
18
48
1
60
0
100
AcDbSpline
70
4
71
3
72
8
73
4
40
0
40
0
40
0
40
0
40
1
40
1
40
1
40
1
41
1
10
16.2571102028615
20
74.9964944656815
30
0
41
1
10
16.3626001553042
20
75.1087566162971
30
0
41
1
10
16.4704947882901
20
75.2191005365719
30
0
41
1
10
16.5817897266026
20
75.3264674175977
30
0
0
SPLINE
5
222
100
AcDbEntity
8
1
62
256
6
ByLayer
370
18
48
1
60
0
100
AcDbSpline
70
4
71
3
72
8
73
4
40
0
40
0
40
0
40
0
40
1
40
1
40
1
40
1
41
1
10
6.4441301663777
20
66.1583079264719
30
0
41
1
10
8.56755064659626
20
69.2116918668763
30
0
41
1
10
11.3527567186218
20
71.6746177778799
30
0
41
1
10
14.5033428296409
20
73.6368125817979
30
0
0
SPLINE
5
223
100
AcDbEntity
8
1
62
256
6
ByLayer
370
18
48
1
60
0
100
AcDbSpline
70
4
71
3
72
10
73
6
40
0
40
0
40
0
40
0
40
0.30043480350963
40
0.926576302243941
40
1
40
1
40
1
40
1
41
1.01906281214953
10
25.9909655112319
20
68.8931705565226
30
0
41
1.01951662816455
10
26.0171989631657
20
69.2084366491969
30
0
41
1.02128725997138
10
26.0810755414413
20
70.253037264804
30
0
41
1.02366220434836
10
26.1009885748308
20
72.0697157760933
30
0
41
1.02527232143637
10
26.0311238432916
20
73.166433194537
30
0
41
1.02543997666398
10
26.0230048218393
20
73.2794235488019
30
0
0
SPLINE
5
224
100
AcDbEntity
8
1
62
256
6
ByLayer
370
18
48
1
60
0
100
AcDbSpline
70
4
71
3
72
8
73
4
40
0
40
0
40
0
40
0
40
1
40
1
40
1
40
1
41
1
10
25.9909648772357
20
68.8931629373575
30
0
41
1
10
25.9290156372522
20
68.7520570837771
30
0
41
1
10
25.8630502546881
20
68.6130450145619
30
0
41
1
10
25.7944213709507
20
68.4755799662758
30
0
0
SPLINE
5
225
100
AcDbEntity
8
1
62
256
6
ByLayer
370
18
48
1
60
0
100
AcDbSpline
70
4
71
3
72
8
73
4
40
0
40
0
40
0
40
0
40
1
40
1
40
1
40
1
41
1
10
17.2570591018082
20
57.2928707276469
30
0
41
1
10
16.5438527147413
20
56.2540276780812
30
0
41
1
10
15.4759876751647
20
55.6077300216895
30
0
41
1
10
14.3171929621239
20
55.4269972789769
30
0
0
SPLINE
5
226
100
AcDbEntity
8
1
62
256
6
ByLayer
370
18
48
1
60
0
100
AcDbSpline
70
4
71
3
72
10
73
6
40
0
40
0
40
0
40
0
40
0.579529299651685
40
0.579529299651685
40
1
40
1
40
1
40
1
41
1
10
25.1461073648679
20
66.3600700756153
30
0
41
1
10
25.2336087968699
20
66.8178232370327
30
0
41
1
10
25.3418153037865
20
67.267596447279
30
0
41
1
10
25.5663829851774
20
67.9651926355028
30
0
41
1
10
25.676156759437
20
68.2386935469298
30
0
41
1
10
25.7944213709507
20
68.4755799662757
30
0
0
SPLINE
5
227
100
AcDbEntity
8
1
62
256
6
ByLayer
370
18
48
1
60
0
100
AcDbSpline
70
4
71
3
72
8
73
4
40
0
40
0
40
0
40
0
40
1
40
1
40
1
40
1
41
1
10
7.93981133215937
20
58.300507293158
30
0
41
1
10
6.45226068963069
20
57.9201604435194
30
0
41
1
10
5.02331040557158
20
57.5115204815589
30
0
41
1
10
3.93232863745277
20
57.1502126339208
30
0
0
SPLINE
5
228
100
AcDbEntity
8
1
62
256
6
ByLayer
370
18
48
1
60
0
100
AcDbSpline
70
4
71
3
72
10
73
6
40
0
40
0
40
0
40
0
40
0.5
40
0.5
40
1
40
1
40
1
40
1
41
1
10
20.6656541418362
20
76.9391343877453
30
0
41
1
10
19.8955520036877
20
76.4930525311365
30
0
41
1
10
19.5713653257934
20
75.9453921151607
30
0
41
1
10
19.2302734286456
20
74.88185990418
30
0
41
1
10
19.3201128728112
20
74.3458738961824
30
0
41
1
10
19.4291294863706
20
73.8187574403111
30
0
0
SPLINE
5
229
100
AcDbEntity
8
1
62
256
6
ByLayer
370
18
48
1
60
0
100
AcDbSpline
70
4
71
3
72
20
73
16
40
0
40
0
40
0
40
0
40
0.118962056339777
40
0.118962056339777
40
0.19117323028644
40
0.19117323028644
40
0.263712164126315
40
0.263712164126315
40
0.333306822588769
40
0.333306822588769
40
0.451479822004408
40
0.451479822004408
40
0.654414534009057
40
0.654414534009057
40
1
40
1
40
1
40
1
41
1
10
19.4291294863706
20
73.8187574403111
30
0
41
1
10
19.4400813702906
20
73.7696334609794
30
0
41
1
10
19.4654131708832
20
73.7206200530345
30
0
41
1
10
19.5429284978182
20
73.6522225145123
30
0
41
1
10
19.5817526809749
20
73.6283293468658
30
0
41
1
10
19.675777812594
20
73.5896271262342
30
0
41
1
10
19.7322358579254
20
73.5744362956398
30
0
41
1
10
19.8506082816547
20
73.554693923484
30
0
41
1
10
19.9133827306118
20
73.5494019013764
30
0
41
1
10
20.0833915016653
20
73.5449146267305
30
0
41
1
10
20.1941572890112
20
73.5520796383822
30
0
41
1
10
20.4836561378487
20
73.5868237478692
30
0
41
1
10
20.6611025602438
20
73.6255363697059
30
0
41
1
10
21.1096633645799
20
73.7482716369403
30
0
41
1
10
21.3683880431584
20
73.8468427210526
30
0
41
1
10
21.6104920340612
20
73.950960998376
30
0
0
SPLINE
5
22A
100
AcDbEntity
8
1
62
256
6
ByLayer
370
18
48
1
60
0
100
AcDbSpline
70
4
71
3
72
8
73
4
40
0
40
0
40
0
40
0
40
1
40
1
40
1
40
1
41
1
10
13.4573483772846
20
50.6377021124633
30
0
41
1
10
13.3793276041431
20
51.7989267798562
30
0
41
1
10
13.2316410887802
20
53.2845475171288
30
0
41
1
10
13.0426823333667
20
54.8115380319152
30
0
0
SPLINE
5
22B
100
AcDbEntity
8
1
62
256
6
ByLayer
370
18
48
1
60
0
100
AcDbSpline
70
4
71
3
72
8
73
4
40
0
40
0
40
0
40
0
40
1
40
1
40
1
40
1
41
1
10
13.3184325717841
20
55.0314690390201
30
0
41
1
10
13.8050676267154
20
53.132487737895
30
0
41
1
10
14.2199311622471
20
51.225110917139
30
0
41
1
10
14.3947335765374
20
50.0579040513214
30
0
0
SPLINE
5
22C
100
AcDbEntity
8
1
62
256
6
ByLayer
370
18
48
1
60
0
100
AcDbSpline
70
4
71
3
72
10
73
6
40
0
40
0
40
0
40
0
40
0.5
40
0.5
40
1
40
1
40
1
40
1
41
1
10
23.4582379266286
20
71.0639483348464
30
0
41
1
10
24.0073498590775
20
71.140956251939
30
0
41
1
10
24.5586443635542
20
71.2392026205056
30
0
41
1
10
25.4612308946375
20
71.9172876656952
30
0
41
1
10
25.8732055992094
20
72.4072662636573
30
0
41
1
10
26.023250343517
20
73.2760027012736
30
0
0
SPLINE
5
22D
100
AcDbEntity
8
1
62
256
6
ByLayer
370
18
48
1
60
0
100
AcDbSpline
70
4
71
3
72
16
73
12
40
0
40
0
40
0
40
0
40
0.474320436274429
40
0.474320436274429
40
0.65895402582105
40
0.65895402582105
40
0.845504004041789
40
0.845504004041789
40
0.957858191960739
40
0.957858191960739
40
1
40
1
40
1
40
1
41
1
10
14.3947335765374
20
50.0579040513214
30
0
41
1
10
14.3220019708117
20
50.1286185206467
30
0
41
1
10
14.2184303574114
20
50.2065821144358
30
0
41
1
10
14.0215267925633
20
50.3314840572054
30
0
41
1
10
13.9593769501694
20
50.3691045782768
30
0
41
1
10
13.8229499334491
20
50.4484339287843
30
0
41
1
10
13.7471010232867
20
50.4911497240875
30
0
41
1
10
13.61805119093
20
50.5598808187362
30
0
41
1
10
13.5666993518778
20
50.5863575029428
30
0
41
1
10
13.4961054652331
20
50.6201186176941
30
0
41
1
10
13.4766020338943
20
50.6291613230766
30
0
41
1
10
13.4573483772846
20
50.6377021124633
30
0
0
SPLINE
5
22E
100
AcDbEntity
8
1
62
256
6
ByLayer
370
18
48
1
60
0
100
AcDbSpline
70
4
71
3
72
14
73
10
40
0
40
0
40
0
40
0
40
0.264998964150961
40
0.264998964150961
40
0.633007150607462
40
0.633007150607462
40
0.98453381361787
40
0.98453381361787
40
1
40
1
40
1
40
1
41
1
10
25.8033428331341
20
74.119205783235
30
0
41
1
10
25.8145077898187
20
74.2641772220628
30
0
41
1
10
25.8143919817335
20
74.4211932083513
30
0
41
1
10
25.7845247083084
20
74.8103683770227
30
0
41
1
10
25.7423238163053
20
75.0538601572044
30
0
41
1
10
25.6194245859792
20
75.5218878291232
30
0
41
1
10
25.5393591058029
20
75.7522572886422
30
0
41
1
10
25.4433497584069
20
75.9791700551005
30
0
41
1
10
25.439239841442
20
75.9888048421523
30
0
41
1
10
25.4351055194967
20
75.9984193027612
30
0
0
SPLINE
5
22F
100
AcDbEntity
8
1
62
256
6
ByLayer
370
18
48
1
60
0
100
AcDbSpline
70
4
71
3
72
10
73
6
40
0
40
0
40
0
40
0
40
0.311681797709785
40
0.311681797709785
40
1
40
1
40
1
40
1
41
1
10
22.8816407394883
20
74.5252250373692
30
0
41
1
10
22.8695445112709
20
74.3842315587459
30
0
41
1
10
22.8583144375588
20
74.2423857298468
30
0
41
1
10
22.8248162493277
20
73.7849122505413
30
0
41
1
10
22.8054161290311
20
73.4664850175815
30
0
41
1
10
22.7902762990922
20
73.1443109704687
30
0
0
SPLINE
5
230
100
AcDbEntity
8
1
62
256
6
ByLayer
370
18
48
1
60
0
100
AcDbSpline
70
4
71
1
72
4
73
2
40
0
40
0
40
1
40
1
41
1
10
8.45719257516862
20
65.7213237724582
30
0
41
1
10
6.4441301663777
20
66.1583079264719
30
0
0
SPLINE
5
231
100
AcDbEntity
8
1
62
256
6
ByLayer
370
18
48
1
60
0
100
AcDbSpline
70
4
71
2
72
6
73
3
40
0
40
0
40
0
40
1
40
1
40
1
41
1.0258173342201
10
19.850420742817
20
57.9314692270767
30
0
41
1.0258173342201
10
20.4592092902189
20
57.0455240255857
30
0
41
1.0258173342201
10
21.0679978376208
20
56.1595788240947
30
0
0
SPLINE
5
232
100
AcDbEntity
8
1
62
256
6
ByLayer
370
18
48
1
60
0
100
AcDbSpline
70
4
71
3
72
10
73
6
40
0
40
0
40
0
40
0
40
0.731096563947326
40
0.731096563947326
40
1
40
1
40
1
40
1
41
1
10
8.04496859059333
20
58.6370772792226
30
0
41
1
10
8.02654681501872
20
58.5562767435958
30
0
41
1
10
8.00152870443134
20
58.4714646762479
30
0
41
1
10
7.96246651967664
20
58.360026061366
30
0
41
1
10
7.95132621191755
20
58.3300229381385
30
0
41
1
10
7.93981133215937
20
58.300507293158
30
0
0
SPLINE
5
233
100
AcDbEntity
8
1
62
256
6
ByLayer
370
18
48
1
60
0
100
AcDbSpline
70
4
71
3
72
8
73
4
40
0
40
0
40
0
40
0
40
1
40
1
40
1
40
1
41
1
10
3.0681401463379
20
57.8021986461126
30
0
41
1
10
4.19319716929624
20
58.0833278170056
30
0
41
1
10
6.10079143276437
20
58.3981665503144
30
0
41
1
10
8.04496859059333
20
58.6370772792226
30
0
0
SPLINE
5
234
100
AcDbEntity
8
1
62
256
6
ByLayer
370
18
48
1
60
0
100
AcDbSpline
70
4
71
3
72
8
73
4
40
0
40
0
40
0
40
0
40
1
40
1
40
1
40
1
41
1
10
8.05799759110261
20
59.7065764108889
30
0
41
1
10
8.13097651641186
20
59.3642032035991
30
0
41
1
10
8.12644419521769
20
58.9944409039996
30
0
41
1
10
8.04496859059333
20
58.6370772792226
30
0
0
SPLINE
5
235
100
AcDbEntity
8
1
62
256
6
ByLayer
370
18
48
1
60
0
100
AcDbSpline
70
4
71
3
72
10
73
6
40
0
40
0
40
0
40
0
40
0.5
40
0.5
40
1
40
1
40
1
40
1
41
1
10
10.1097674479246
20
65.0705709254509
30
0
41
1
10
10.784521333329
20
65.9658114697227
30
0
41
1
10
11.7526883216196
20
66.6335795286754
30
0
41
1
10
13.8788387250505
20
67.3496943352334
30
0
41
1
10
15.0584980899284
20
67.3950681867281
30
0
41
1
10
16.1189279031719
20
66.9892926937555
30
0
0
SPLINE
5
236
100
AcDbEntity
8
1
62
256
6
ByLayer
370
18
48
1
60
0
100
AcDbSpline
70
4
71
3
72
8
73
4
40
0
40
0
40
0
40
0
40
1
40
1
40
1
40
1
41
1
10
16.6449233209843
20
49.6377831627884
30
0
41
1
10
16.3461781654282
20
49.1920336422666
30
0
41
1
10
15.9595136996115
20
48.7262895120905
30
0
41
1
10
15.440011279368
20
48.3404728557592
30
0
0
SPLINE
5
237
100
AcDbEntity
8
1
62
256
6
ByLayer
370
18
48
1
60
0
100
AcDbSpline
70
4
71
3
72
8
73
4
40
0
40
0
40
0
40
0
40
1
40
1
40
1
40
1
41
1
10
14.4246753015442
20
50.0284301592981
30
0
41
1
10
14.4149334414093
20
50.038147870296
30
0
41
1
10
14.4049388090973
20
50.0479818504069
30
0
41
1
10
14.3947335765373
20
50.0579040513212
30
0
0
SPLINE
5
238
100
AcDbEntity
8
1
62
256
6
ByLayer
370
18
48
1
60
0
100
AcDbSpline
70
4
71
3
72
10
73
6
40
0
40
0
40
0
40
0
40
0.914968234315968
40
0.914968234315968
40
1
40
1
40
1
40
1
41
1
10
21.6104920340612
20
73.950960998376
30
0
41
1
10
22.0074008981083
20
74.1215768914462
30
0
41
1
10
22.3959152763002
20
74.2965514444303
30
0
41
1
10
22.81123075775
20
74.4918894337303
30
0
41
1
10
22.8464764340994
20
74.5085390279573
30
0
41
1
10
22.8816407394712
20
74.5252250373611
30
0
0
SPLINE
5
239
100
AcDbEntity
8
1
62
256
6
ByLayer
370
18
48
1
60
0
100
AcDbSpline
70
4
71
3
72
8
73
4
40
0
40
0
40
0
40
0
40
1
40
1
40
1
40
1
41
1
10
1.90452908111837
20
59.5012201332682
30
0
41
1
10
1.64210740396601
20
59.0879169369594
30
0
41
1
10
1.3989080751814
20
58.6066779795896
30
0
41
1
10
1.24952069441429
20
58.0428904636399
30
0
0
SPLINE
5
23A
100
AcDbEntity
8
1
62
256
6
ByLayer
370
18
48
1
60
0
100
AcDbSpline
70
4
71
3
72
8
73
4
40
0
40
0
40
0
40
0
40
1
40
1
40
1
40
1
41
1
10
3.0681401463379
20
57.8021986461126
30
0
41
1
10
3.05572632041719
20
57.8077397621492
30
0
41
1
10
3.04349727373318
20
57.8131044015162
30
0
41
1
10
3.03144713389577
20
57.8182847046796
30
0
0
SPLINE
5
23B
100
AcDbEntity
8
1
62
256
6
ByLayer
370
18
48
1
60
0
100
AcDbSpline
70
4
71
3
72
8
73
4
40
0
40
0
40
0
40
0
40
1
40
1
40
1
40
1
41
1
10
16.2571102028615
20
74.9964944656815
30
0
41
1
10
15.8203077666823
20
74.5316503763239
30
0
41
1
10
15.1956457392724
20
74.0679809816285
30
0
41
1
10
14.5033428296408
20
73.6368125817979
30
0
0
SPLINE
5
23C
100
AcDbEntity
8
1
62
256
6
ByLayer
370
18
48
1
60
0
100
AcDbSpline
70
4
71
3
72
10
73
6
40
0
40
0
40
0
40
0
40
0.241419349860778
40
0.431064512395583
40
1
40
1
40
1
40
1
41
1.02613459695995
10
13.1983933651668
20
47.2947897207352
30
0
41
1.02613459695995
10
13.6781624350151
20
47.2463429317221
30
0
41
1.02613459695995
10
14.5035601540205
20
47.2644132931485
30
0
41
1.02613459695995
10
16.2180304835122
20
47.6806245319045
30
0
41
1.02613459695995
10
17.2037441535689
20
48.4414247514946
30
0
41
1.02613459695995
10
17.6971798176001
20
49.1764511240189
30
0
0
SPLINE
5
23D
100
AcDbEntity
8
1
62
256
6
ByLayer
370
18
48
1
60
0
100
AcDbSpline
70
4
71
2
72
6
73
3
40
0
40
0
40
0
40
1
40
1
40
1
41
0.876787041647284
10
-1.38240912017924
20
51.4434688222124
30
0
41
0.887659407843692
10
-1.82722155876195
20
52.5355724527881
30
0
41
1.02613459695995
10
-1.32760419807209
20
53.2424254932362
30
0
0
SPLINE
5
23E
100
AcDbEntity
8
1
62
256
6
ByLayer
370
18
48
1
60
0
100
AcDbSpline
70
4
71
3
72
8
73
4
40
0
40
0
40
0
40
0
40
1
40
1
40
1
40
1
41
1
10
-4.00854219937702
20
59.5712922488327
30
0
41
1
10
-3.76087602984393
20
60.2186300867053
30
0
41
1
10
-3.38973768995942
20
60.8015744434495
30
0
41
1
10
-2.9042526329734
20
61.2966433638816
30
0
0
SPLINE
5
23F
100
AcDbEntity
8
1
62
256
6
ByLayer
370
18
48
1
60
0
100
AcDbSpline
70
4
71
3
72
11
73
7
40
0
40
0
40
0
40
0
40
0.321054568259949
40
0.642109136519897
40
0.802636420649872
40
1
40
1
40
1
40
1
41
1
10
-1.27785712924265
20
53.3128070884773
30
0
41
1
10
-2.04501476586376
20
53.8372492522836
30
0
41
1
10
-3.27293055227381
20
55.102229919782
30
0
41
1
10
-4.03521506835966
20
56.8326079291865
30
0
41
1
10
-4.23646898508412
20
58.2442965125297
30
0
41
1
10
-4.1789678960937
20
58.9479763089958
30
0
41
1
10
-4.10120784413056
20
59.3171042624838
30
0
0
SPLINE
5
240
100
AcDbEntity
8
1
62
256
6
ByLayer
370
18
48
1
60
0
100
AcDbSpline
70
4
71
3
72
11
73
7
40
0
40
0
40
0
40
0
40
0.384365746665484
40
0.768731493330968
40
0.96091436666371
40
1
40
1
40
1
40
1
41
1
10
11.9292476665693
20
44.2827566224364
30
0
41
1
10
12.696327895862
20
43.7581993597744
30
0
41
1
10
14.3162198981826
20
43.0760577436685
30
0
41
1
10
16.1926250857306
20
43.0022930922536
30
0
41
1
10
17.2341743972689
20
43.2551435042578
30
0
41
1
10
17.5969454430416
20
43.3904111462375
30
0
41
1
10
17.6574203669177
20
43.4143959127223
30
0
0
SPLINE
5
241
100
AcDbEntity
8
1
62
256
6
ByLayer
370
18
48
1
60
0
100
AcDbSpline
70
4
71
1
72
4
73
2
40
0
40
0
40
1
40
1
41
1
10
11.9292476665695
20
44.2827566224366
30
0
41
1
10
11.9789947353988
20
44.3531382176775
30
0
0
SPLINE
5
242
100
AcDbEntity
8
1
62
256
6
ByLayer
370
18
48
1
60
0
100
AcDbSpline
70
4
71
2
72
6
73
3
40
0
40
0
40
0
40
1
40
1
40
1
41
0.907607206789761
10
12.2342217148424
20
45.286093546294
30
0
41
0.944930757554167
10
12.2542201231719
20
44.7425240106117
30
0
41
1.02613459695995
10
11.9789947353988
20
44.3531382176775
30
0
0
SPLINE
5
243
100
AcDbEntity
8
1
62
256
6
ByLayer
370
18
48
1
60
0
100
AcDbSpline
70
4
71
2
72
6
73
3
40
0
40
0
40
0
40
1
40
1
40
1
41
0.894320509355251
10
19.9053890490475
20
46.2102399545955
30
0
41
0.823191570190523
10
19.6623335782741
20
47.8328229854701
30
0
41
1.02613459695995
10
17.6971798176001
20
49.1764511240189
30
0
0
SPLINE
5
244
100
AcDbEntity
8
1
62
256
6
ByLayer
370
18
48
1
60
0
100
AcDbSpline
70
4
71
3
72
24
73
20
40
0
40
0
40
0
40
0
40
0.0075875801071184
40
0.0075875801071184
40
0.3610870768734
40
0.3610870768734
40
0.420617178188588
40
0.420617178188588
40
0.596344573040322
40
0.596344573040322
40
0.714602009979803
40
0.714602009979803
40
0.833270899978115
40
0.833270899978115
40
0.947368848928903
40
0.947368848928903
40
0.994729892674147
40
0.994729892674147
40
1
40
1
40
1
40
1
41
1
10
0.884233533882764
20
54.0268228270942
30
0
41
1
10
0.882083224902544
20
54.0302675079631
30
0
41
1
10
0.879931088916351
20
54.0337200497756
30
0
41
1
10
0.778474971118499
20
54.1984449336318
30
0
41
1
10
0.699176455788233
20
54.381964599782
30
0
41
1
10
0.660926037878141
20
54.6164678445828
30
0
41
1
10
0.656713014040747
20
54.6514539860102
30
0
41
1
10
0.646583210088636
20
54.7899266614829
30
0
41
1
10
0.653083610043836
20
54.8993738300165
30
0
41
1
10
0.696390841763559
20
55.076537549943
30
0
41
1
10
0.723281482756647
20
55.1478693919628
30
0
41
1
10
0.793754325568898
20
55.2780601707446
30
0
41
1
10
0.838319166871997
20
55.3384905264093
30
0
41
1
10
0.935275087193929
20
55.4383512508998
30
0
41
1
10
0.988304600876972
20
55.4797845015306
30
0
41
1
10
1.06533434202902
20
55.5265222661483
30
0
41
1
10
1.08842822179179
20
55.5389512977677
30
0
41
1
10
1.11418616111024
20
55.5512650157783
30
0
41
1
10
1.11671725366495
20
55.5524464731537
30
0
41
1
10
1.11923780759338
20
55.5536311517985
30
0
0
SPLINE
5
245
100
AcDbEntity
8
1
62
256
6
ByLayer
370
18
48
1
60
0
100
AcDbSpline
70
4
71
2
72
6
73
3
40
0
40
0
40
0
40
1
40
1
40
1
41
1.02613459695995
10
11.8795005977397
20
44.2123750271953
30
0
41
0.919040651692078
10
11.5063001893657
20
43.6843752735608
30
0
41
0.888268081134573
10
10.7035442818485
20
43.5649468672604
30
0
0
SPLINE
5
246
100
AcDbEntity
8
1
62
256
6
ByLayer
370
18
48
1
60
0
100
AcDbSpline
70
4
71
3
72
12
73
8
40
0
40
0
40
0
40
0
40
0.274640703932185
40
0.274640703932185
40
0.549281374011987
40
0.549281374011987
40
1
40
1
40
1
40
1
41
1
10
-4.1864660569305
20
59.0576805482418
30
0
41
1
10
-4.17904731524197
20
59.0815546929896
30
0
41
1
10
-4.17152152905527
20
59.1053958351243
30
0
41
1
10
-4.15625757516204
20
59.1530095053046
30
0
41
1
10
-4.14851925544838
20
59.1767825077614
30
0
41
1
10
-4.1278030050816
20
59.239476482183
30
0
41
1
10
-4.11464589863135
20
59.2783396481456
30
0
41
1
10
-4.10120784187234
20
59.3171042640552
30
0
0
SPLINE
5
247
100
AcDbEntity
8
1
62
256
6
ByLayer
370
18
48
1
60
0
100
AcDbSpline
70
4
71
3
72
12
73
8
40
0
40
0
40
0
40
0
40
0.265235717468526
40
0.265235717468526
40
0.530471478538333
40
0.530471478538333
40
1
40
1
40
1
40
1
41
1
10
17.8968042192747
20
43.5648806234381
30
0
41
1
10
17.8758746598346
20
43.5512070399674
30
0
41
1
10
17.8548817908179
20
43.5376298708616
30
0
41
1
10
17.8127715586854
20
43.5106709768585
30
0
41
1
10
17.7916537433187
20
43.4972889624318
30
0
41
1
10
17.7329827044943
20
43.4604917992519
30
0
41
1
10
17.6952960055647
20
43.4372860889181
30
0
41
1
10
17.657420367416
20
43.414395915655
30
0
0
SPLINE
5
248
100
AcDbEntity
8
1
62
256
6
ByLayer
370
18
48
1
60
0
100
AcDbSpline
70
4
71
3
72
10
73
6
40
0
40
0
40
0
40
0
40
0.5
40
0.5
40
1
40
1
40
1
40
1
41
1
10
-1.38005913803408
20
51.4377144641026
30
0
41
1
10
-2.58627817492896
20
52.2487344514548
30
0
41
1
10
-3.42314772890541
20
53.4834043057878
30
0
41
1
10
-4.46119474552722
20
56.1824416319686
30
0
41
1
10
-4.61825857923128
20
57.668135311198
30
0
41
1
10
-4.18646605695528
20
59.0576805482418
30
0
0
SPLINE
5
249
100
AcDbEntity
8
1
62
256
6
ByLayer
370
18
48
1
60
0
100
AcDbSpline
70
4
71
3
72
12
73
8
40
0
40
0
40
0
40
0
40
0.277201647246709
40
0.277201647246709
40
0.55440326475444
40
0.55440326475444
40
1
40
1
40
1
40
1
41
1
10
-4.10120784367405
20
59.3171042646505
30
0
41
1
10
-4.09301937021604
20
59.3407254647817
30
0
41
1
10
-4.08472636547668
20
59.3643106852563
30
0
41
1
10
-4.06793297009483
20
59.4114066562381
30
0
41
1
10
-4.05943241461813
20
59.434917863522
30
0
41
1
10
-4.03699892839342
20
59.4961232111189
30
0
41
1
10
-4.02290224696844
20
59.5337586471452
30
0
41
1
10
-4.00854219778779
20
59.5712922482501
30
0
0
SPLINE
5
24A
100
AcDbEntity
8
1
62
256
6
ByLayer
370
18
48
1
60
0
100
AcDbSpline
70
4
71
3
72
10
73
6
40
0
40
0
40
0
40
0
40
0.5
40
0.5
40
1
40
1
40
1
40
1
41
1
10
17.4089740763462
20
43.2703166964631
30
0
41
1
10
16.3739168064359
20
42.694978868739
30
0
41
1
10
15.1856355637368
20
42.474656493742
30
0
41
1
10
12.8540296317942
20
42.5866777452869
30
0
41
1
10
11.6866294153303
20
42.9035731658489
30
0
41
1
10
10.7034680570441
20
43.5649355282167
30
0
0
SPLINE
5
24B
100
AcDbEntity
8
1
62
256
6
ByLayer
370
18
48
1
60
0
100
AcDbSpline
70
4
71
3
72
12
73
8
40
0
40
0
40
0
40
0
40
0.261128506751342
40
0.261128506751342
40
0.5222570667938
40
0.5222570667938
40
1
40
1
40
1
40
1
41
1
10
17.6574203687896
20
43.4143959134647
30
0
41
1
10
17.6360239879484
20
43.4014649929827
30
0
41
1
10
17.6145666639237
20
43.3886343755919
30
0
41
1
10
17.571532407433
20
43.3631764042601
30
0
41
1
10
17.5499549948313
20
43.3505487694022
30
0
41
1
10
17.488734785167
20
43.3151096561397
30
0
41
1
10
17.4489508954721
20
43.2925378627672
30
0
41
1
10
17.4089740748751
20
43.2703166990045
30
0
0
SPLINE
5
24C
100
AcDbEntity
8
1
62
256
6
ByLayer
370
18
48
1
60
0
100
AcDbSpline
70
4
71
3
72
8
73
4
40
0
40
0
40
0
40
0
40
1
40
1
40
1
40
1
41
1
10
19.9053889698339
20
46.2102404834071
30
0
41
1
10
19.56972399077
20
45.119096358565
30
0
41
1
10
18.8517793641417
20
44.1887796783441
30
0
41
1
10
17.8968042193409
20
43.564880623389
30
0
0
SPLINE
5
24D
100
AcDbEntity
8
1
62
256
6
ByLayer
370
18
48
1
60
0
100
AcDbSpline
70
4
71
1
72
4
73
2
40
0
40
0
40
1
40
1
41
1
10
11.8795005977403
20
44.2123750271959
30
0
41
1
10
11.9292476665693
20
44.2827566224364
30
0
0
SPLINE
5
24E
100
AcDbEntity
8
1
62
256
6
ByLayer
370
18
48
1
60
0
100
AcDbSpline
70
4
71
3
72
24
73
20
40
0
40
0
40
0
40
0
40
0.0052701073257725
40
0.0052701073257725
40
0.0526311520278347
40
0.0526311520278347
40
0.166729100934232
40
0.166729100934232
40
0.285397991053138
40
0.285397991053138
40
0.403655428101503
40
0.403655428101503
40
0.57938282292402
40
0.57938282292402
40
0.638912923112152
40
0.638912923112152
40
0.992412419877865
40
0.992412419877865
40
1
40
1
40
1
40
1
41
1
10
13.1983933651668
20
47.2947897207352
30
0
41
1
10
13.198234493996
20
47.291990296478
30
0
41
1
10
13.198082206956
20
47.2891823861975
30
0
41
1
10
13.1962618574193
20
47.2605018978811
30
0
41
1
10
13.1933257022888
20
47.2342904906699
30
0
41
1
10
13.1785752552055
20
47.1449707077657
30
0
41
1
10
13.1597304801558
20
47.0801644377812
30
0
41
1
10
13.1026614382305
20
46.953031988488
30
0
41
1
10
13.0627997072601
20
46.8893859904746
30
0
41
1
10
12.9672953060873
20
46.7763099568751
30
0
41
1
10
12.9105501900976
20
46.7253904171521
30
0
41
1
10
12.7607837970121
20
46.6210156707886
30
0
41
1
10
12.6606456544753
20
46.575591129233
30
0
41
1
10
12.5270718548614
20
46.5353724484054
30
0
41
1
10
12.4927035709471
20
46.5267653786843
30
0
41
1
10
12.2585928994401
20
46.4784826892613
30
0
41
1
10
12.0569058002441
20
46.4870803961878
30
0
41
1
10
11.8646057888071
20
46.5232044275677
30
0
41
1
10
11.8605659602758
20
46.5239854911694
30
0
41
1
10
11.8565338856783
20
46.5247678711529
30
0
0
SPLINE
5
24F
100
AcDbEntity
8
1
62
256
6
ByLayer
370
18
48
1
60
0
100
AcDbSpline
70
4
71
2
72
6
73
3
40
0
40
0
40
0
40
1
40
1
40
1
41
0.876712443328707
10
11.856581635051
20
46.5241567693814
30
0
41
0.873143673819232
10
12.0660075500391
20
46.1395435149904
30
0
41
0.884527277494913
10
12.1609741150768
20
45.7708423275047
30
0
0
SPLINE
5
250
100
AcDbEntity
8
1
62
256
6
ByLayer
370
18
48
1
60
0
100
AcDbSpline
70
4
71
2
72
6
73
3
40
0
40
0
40
0
40
1
40
1
40
1
41
0.884527277494913
10
12.1609741150768
20
45.7708423275047
30
0
41
0.892447858246522
10
12.2256214831708
20
45.5198533465446
30
0
41
0.907607206789761
10
12.2342217148424
20
45.286093546294
30
0
0
SPLINE
5
251
100
AcDbEntity
8
1
62
256
6
ByLayer
370
18
48
1
60
0
100
AcDbSpline
70
4
71
3
72
11
73
7
40
0
40
0
40
0
40
0
40
0.369061490948561
40
0.738122981897122
40
0.922653727371403
40
1
40
1
40
1
40
1
41
1
10
11.9789947353988
20
44.3531382176775
30
0
41
1
10
12.7460749646915
20
43.8285809550156
30
0
41
1
10
14.3659669670121
20
43.1464393389096
30
0
41
1
10
16.2423721545601
20
43.0726746874947
30
0
41
1
10
17.35407839059
20
43.342556657262
30
0
41
1
10
17.7758710280938
20
43.5105966918401
30
0
41
1
10
17.8968042194225
20
43.5648806235045
30
0
0
SPLINE
5
252
100
AcDbEntity
8
1
62
256
6
ByLayer
370
18
48
1
60
0
100
AcDbSpline
70
4
71
2
72
6
73
3
40
0
40
0
40
0
40
1
40
1
40
1
41
1.02613459695995
10
-1.22811006041315
20
53.3831886837184
30
0
41
0.944930757554166
10
-0.952884672640106
20
53.7725744766527
30
0
41
0.90760720678976
10
-0.427866323385012
20
53.9435014913649
30
0
0
SPLINE
5
253
100
AcDbEntity
8
1
62
256
6
ByLayer
370
18
48
1
60
0
100
AcDbSpline
70
4
71
2
72
6
73
3
40
0
40
0
40
0
40
1
40
1
40
1
41
0.90760720678976
10
-0.427866323385012
20
53.9435014913649
30
0
41
0.892447858246523
10
-0.202084383093479
20
54.0170079375391
30
0
41
0.884527277494914
10
0.0596431084402346
20
54.0448457056596
30
0
0
SPLINE
5
254
100
AcDbEntity
8
1
62
256
6
ByLayer
370
18
48
1
60
0
100
AcDbSpline
70
4
71
2
72
6
73
3
40
0
40
0
40
0
40
1
40
1
40
1
41
0.884527277494914
10
0.0596431084402346
20
54.0448457056595
30
0
41
0.873243145785521
10
0.440716065066435
20
54.0853772544906
30
0
41
0.876651215935319
10
0.875987456055287
20
54.0276748320949
30
0
0
SPLINE
5
255
100
AcDbEntity
8
1
62
256
6
ByLayer
370
18
48
1
60
0
100
AcDbSpline
70
4
71
3
72
10
73
6
40
0
40
0
40
0
40
0
40
0.241419349860777
40
0.431064512395583
40
1
40
1
40
1
40
1
41
1.02613459695995
10
1.11923780759348
20
55.5536311517985
30
0
41
1.02613459695995
10
0.897072665446853
20
55.9851155404471
30
0
41
1.02613459695995
10
0.608303607528772
20
56.7649714997582
30
0
41
1.02613459695995
10
0.357394422608211
20
58.5249652309265
30
0
41
1.02613459695995
10
0.693642530923379
20
59.729822409945
30
0
41
1.02613459695995
10
1.18829882283517
20
60.46401420657
30
0
0
SPLINE
5
256
100
AcDbEntity
8
1
62
256
6
ByLayer
370
18
48
1
60
0
100
AcDbSpline
70
4
71
2
72
6
73
3
40
0
40
0
40
0
40
1
40
1
40
1
41
1.02613459695995
10
1.18829882283517
20
60.46401420657
30
0
41
0.78572348669125
10
-1.2506804908422
20
62.1316095371621
30
0
41
0.92992666694858
10
-2.90425275479382
20
61.2966433023687
30
0
0
SPLINE
5
257
100
AcDbEntity
8
1
62
256
6
ByLayer
370
18
48
1
60
0
100
AcDbSpline
70
4
71
3
72
10
73
6
40
0
40
0
40
0
40
0
40
0.401293972901068
40
0.802587945802137
40
1
40
1
40
1
40
1
41
1.02613459695995
10
11.8795005977397
20
44.2123750271953
30
0
41
1.02613459695995
10
12.6465808270325
20
43.6878177645334
30
0
41
1.02613459695995
10
14.2664728293531
20
43.0056761484274
30
0
41
1.02613459695995
10
16.136827546104
20
42.9321493512202
30
0
41
1.02613459695995
10
17.1078125097905
20
43.1661717807151
30
0
41
1.02613459695995
10
17.4089740743836
20
43.2703166957844
30
0
0
SPLINE
5
258
100
AcDbEntity
8
1
62
256
6
ByLayer
370
18
48
1
60
0
100
AcDbSpline
70
4
71
3
72
11
73
7
40
0
40
0
40
0
40
0
40
0.332151015115143
40
0.664302030230286
40
0.830377537787857
40
1
40
1
40
1
40
1
41
1.02613459695995
10
-1.32760419807215
20
53.2424254932362
30
0
41
1.02613459695995
10
-2.09476183469316
20
53.7668676570425
30
0
41
1.02613459695995
10
-3.32267762110328
20
55.0318483245409
30
0
41
1.02613459695995
10
-4.08496213718914
20
56.7622263339453
30
0
41
1.02613459695995
10
-4.27631325810662
20
58.104452101303
30
0
41
1.02613459695995
10
-4.23802457866883
20
58.7458701591314
30
0
41
1.02613459695995
10
-4.18646605692321
20
59.0576805482859
30
0
0
SPLINE
5
259
100
AcDbEntity
8
1
62
256
6
ByLayer
370
18
48
1
60
0
100
AcDbSpline
70
4
71
2
72
6
73
3
40
0
40
0
40
0
40
1
40
1
40
1
41
1
10
-1.32760419807209
20
53.2424254932362
30
0
41
1
10
-1.30273066365737
20
53.2776162908568
30
0
41
1
10
-1.27785712924265
20
53.3128070884773
30
0
0
SPLINE
5
25A
100
AcDbEntity
8
1
62
256
6
ByLayer
370
18
48
1
60
0
100
AcDbSpline
70
4
71
2
72
6
73
3
40
0
40
0
40
0
40
1
40
1
40
1
41
1
10
-1.27785712924265
20
53.3128070884773
30
0
41
1
10
-1.25298359482787
20
53.3479978860979
30
0
41
1
10
-1.22811006041309
20
53.3831886837185
30
0
0
SPLINE
5
25B
100
AcDbEntity
8
1
62
256
6
ByLayer
370
18
48
1
60
0
100
AcDbSpline
70
4
71
3
72
11
73
7
40
0
40
0
40
0
40
0
40
0.310783733475936
40
0.621567466951871
40
0.776959333689839
40
1
40
1
40
1
40
1
41
1
10
-1.22811006041309
20
53.3831886837185
30
0
41
1
10
-1.99526769703425
20
53.9076308475247
30
0
41
1
10
-3.2231834834443
20
55.1726115150231
30
0
41
1
10
-3.98546799953016
20
56.9029895244275
30
0
41
1
10
-4.19651810026568
20
58.3833930990307
30
0
41
1
10
-4.11720645235653
20
59.1479705762575
30
0
41
1
10
-4.00854219993289
20
59.5712922466673
30
0
0
SPLINE
5
25C
100
AcDbEntity
8
1
62
256
6
ByLayer
370
18
48
1
60
0
100
AcDbSpline
70
4
71
3
72
10
73
6
40
0
40
0
40
0
40
0
40
0.201157530232099
40
0.201157530232099
40
1
40
1
40
1
40
1
41
1
10
14.0052022188978
20
60.1801942431452
30
0
41
1
10
14.0015021994952
20
60.1813977410498
30
0
41
1
10
13.9977492947173
20
60.1825890789004
30
0
41
1
10
13.9788993077151
20
60.1884204168056
30
0
41
1
10
13.9629486647399
20
60.1928814159527
30
0
41
1
10
13.9461084775022
20
60.1970111034281
30
0
0
SPLINE
5
25D
100
AcDbEntity
8
1
62
256
6
ByLayer
370
18
48
1
60
0
100
AcDbSpline
70
4
71
3
72
10
73
6
40
0
40
0
40
0
40
0
40
0.276054056492159
40
0.276054056492159
40
1
40
1
40
1
40
1
41
1
10
13.6916208413719
20
60.2182028041824
30
0
41
1
10
13.6861802842628
20
60.2177086868096
30
0
41
1
10
13.6808683025058
20
60.2171552081095
30
0
41
1
10
13.6621611088975
20
60.2149672164149
30
0
41
1
10
13.6494724395046
20
60.2130227638117
30
0
41
1
10
13.6375535026339
20
60.210809096173
30
0
0
SPLINE
5
25E
100
AcDbEntity
8
1
62
256
6
ByLayer
370
18
48
1
60
0
100
AcDbSpline
70
4
71
3
72
10
73
6
40
0
40
0
40
0
40
0
40
0.76956148128363
40
0.76956148128363
40
1
40
1
40
1
40
1
41
1
10
15.1898581783899
20
60.9406813467937
30
0
41
1
10
15.1768328295205
20
60.9309498891953
30
0
41
1
10
15.1636795096404
20
60.9204430874407
30
0
41
1
10
15.146621822209
20
60.9056791416634
30
0
41
1
10
15.1426845219021
20
60.9021920061005
30
0
41
1
10
15.1387542000352
20
60.8986249519248
30
0
0
SPLINE
5
25F
100
AcDbEntity
8
1
62
256
6
ByLayer
370
18
48
1
60
0
100
AcDbSpline
70
4
71
3
72
10
73
6
40
0
40
0
40
0
40
0
40
0.23043851871692
40
0.23043851871692
40
1
40
1
40
1
40
1
41
1
10
12.837200640897
20
62.4722586218798
30
0
41
1
10
12.8390613003699
20
62.4772407595393
30
0
41
1
10
12.8408426325623
20
62.4822019881133
30
0
41
1
10
12.8482310250717
20
62.5035770892095
30
0
41
1
10
12.8530876953712
20
62.5197565319835
30
0
41
1
10
12.8572535072082
20
62.5355454917935
30
0
0
SPLINE
5
260
100
AcDbEntity
8
1
62
256
6
ByLayer
370
18
48
1
60
0
100
AcDbSpline
70
4
71
3
72
10
73
6
40
0
40
0
40
0
40
0
40
0.769561481283283
40
0.769561481283283
40
1
40
1
40
1
40
1
41
1
10
12.650968802767
20
62.2350750594944
30
0
41
1
10
12.6618268917607
20
62.2411696319106
30
0
41
1
10
12.6729342244736
20
62.2482430565722
30
0
41
1
10
12.6875932970391
20
62.2589818796766
30
0
41
1
10
12.6909947073017
20
62.2615697365774
30
0
41
1
10
12.6944096981312
20
62.2642720122209
30
0
0
SPLINE
5
261
100
AcDbEntity
8
1
62
256
6
ByLayer
370
18
48
1
60
0
100
AcDbSpline
70
4
71
3
72
10
73
6
40
0
40
0
40
0
40
0
40
0.355593196477757
40
0.355593196477757
40
1
40
1
40
1
40
1
41
1
10
12.7357575310915
20
60.8273910994898
30
0
41
1
10
12.7347593364228
20
60.8331831769475
30
0
41
1
10
12.7336302174226
20
60.8391233442363
30
0
41
1
10
12.7300568874743
20
60.8562201554647
30
0
41
1
10
12.7272783408868
20
60.8677610905468
30
0
41
1
10
12.7239362265501
20
60.8798346335768
30
0
0
SPLINE
5
262
100
AcDbEntity
8
1
62
256
6
ByLayer
370
18
48
1
60
0
100
AcDbSpline
70
4
71
3
72
10
73
6
40
0
40
0
40
0
40
0
40
0.537616842495411
40
0.537616842495411
40
1
40
1
40
1
40
1
41
1
10
12.612239533186
20
61.1090129439887
30
0
41
1
10
12.605417815847
20
61.1186527308208
30
0
41
1
10
12.5985912600454
20
61.1278675933709
30
0
41
1
10
12.5859782871756
20
61.144222704937
30
0
41
1
10
12.580166361429
20
61.1514904741912
30
0
41
1
10
12.5743935192583
20
61.1584763848184
30
0
0
SPLINE
5
263
100
AcDbEntity
8
1
62
256
6
ByLayer
370
18
48
1
60
0
100
AcDbSpline
70
4
71
3
72
10
73
6
40
0
40
0
40
0
40
0
40
0.537616842494576
40
0.537616842494576
40
1
40
1
40
1
40
1
41
1
10
15.2209243649805
20
62.0538840201572
30
0
41
1
10
15.2289465279089
20
62.0462587046053
30
0
41
1
10
15.2370856168193
20
62.039246407732
30
0
41
1
10
15.2522870514687
20
62.0272350015042
30
0
41
1
10
15.2593571517026
20
62.0220785785634
30
0
41
1
10
15.2664334618997
20
62.0172800214717
30
0
0
SPLINE
5
264
100
AcDbEntity
8
1
62
256
6
ByLayer
370
18
48
1
60
0
100
AcDbSpline
70
4
71
3
72
10
73
6
40
0
40
0
40
0
40
0
40
0.355593196477899
40
0.355593196477899
40
1
40
1
40
1
40
1
41
1
10
15.1050694500645
20
62.348365306797
30
0
41
1
10
15.1050632373234
20
62.340887730306
30
0
41
1
10
15.1052150698065
20
62.3333075756335
30
0
41
1
10
15.1061421159967
20
62.3117700278343
30
0
41
1
10
15.1073227518281
20
62.2975476340051
30
0
41
1
10
15.1092276716163
20
62.2830623305693
30
0
0
SPLINE
5
265
100
AcDbEntity
8
1
62
256
6
ByLayer
370
18
48
1
60
0
100
AcDbSpline
70
4
71
3
72
10
73
6
40
0
40
0
40
0
40
0
40
0.276054056492383
40
0.276054056492383
40
1
40
1
40
1
40
1
41
1
10
14.1415430567944
20
62.9446941599631
30
0
41
1
10
14.1476023325964
20
62.9462265509972
30
0
41
1
10
14.1535627006449
20
62.9478680886435
30
0
41
1
10
14.1746994560842
20
62.9541331352042
30
0
41
1
10
14.1893174609677
20
62.9593152113782
30
0
41
1
10
14.2032734785241
20
62.9649473101171
30
0
0
SPLINE
5
266
100
AcDbEntity
8
1
62
256
6
ByLayer
370
18
48
1
60
0
100
AcDbSpline
70
4
71
3
72
10
73
6
40
0
40
0
40
0
40
0
40
0.201157530231769
40
0.201157530231769
40
1
40
1
40
1
40
1
41
1
10
13.8356247622596
20
62.9955621631438
30
0
41
1
10
13.8387558864894
20
62.9934040005735
30
0
41
1
10
13.8419486848986
20
62.9912727465757
30
0
41
1
10
13.8580746502132
20
62.9808702198512
30
0
41
1
10
13.8719968426942
20
62.9730052719539
30
0
41
1
10
13.8870554206645
20
62.965885860718
30
0
0
SPLINE
5
267
100
AcDbEntity
8
1
62
256
6
ByLayer
370
18
48
1
60
0
100
AcDbSpline
70
4
71
3
72
10
73
6
40
0
40
0
40
0
40
0
40
0.230438518716636
40
0.230438518716636
40
1
40
1
40
1
40
1
41
1
10
14.9959632572694
20
60.6906383422659
30
0
41
1
10
14.994617928834
20
60.6865209831385
30
0
41
1
10
14.9933724866858
20
60.6824590332266
30
0
41
1
10
14.9883827090423
20
60.6651090548034
30
0
41
1
10
14.98557202591
20
60.6523629891224
30
0
41
1
10
14.9835734739487
20
60.6402109144947
30
0
0
SPLINE
5
268
100
AcDbEntity
8
1
62
256
6
ByLayer
370
18
48
1
60
0
100
AcDbSpline
70
4
71
3
72
14
73
10
40
0
40
0
40
0
40
0
40
0.29182965347358
40
0.29182965347358
40
0.580315823274217
40
0.580315823274217
40
0.871115886539776
40
0.871115886539776
40
1
40
1
40
1
40
1
41
1
10
-9.56296421491561
20
-33.3967981670414
30
0
41
1
10
-9.62223074540498
20
-33.4691179497055
30
0
41
1
10
-9.68575167790669
20
-33.5279172880954
30
0
41
1
10
-9.80636813454396
20
-33.6054301017228
30
0
41
1
10
-9.86456436159301
20
-33.62518335058
30
0
41
1
10
-9.95722132395247
20
-33.6205340034102
30
0
41
1
10
-9.99250583304564
20
-33.5956855143348
30
0
41
1
10
-10.0163156811689
20
-33.5312539935576
30
0
41
1
10
-10.0200446546956
20
-33.507266104946
30
0
41
1
10
-10.0201677652141
20
-33.4797579606975
30
0
0
SPLINE
5
269
100
AcDbEntity
8
1
62
256
6
ByLayer
370
18
48
1
60
0
100
AcDbSpline
70
4
71
3
72
8
73
4
40
0
40
0
40
0
40
0
40
1
40
1
40
1
40
1
41
1
10
20.5242180678757
20
-48.3814338922705
30
0
41
1
10
19.5902777794399
20
-48.3148079079246
30
0
41
1
10
19.00469902944
20
-47.8674629283714
30
0
41
1
10
19.00469902944
20
-46.9528492047483
30
0
0
LINE
5
70
100
AcDbEntity
8
1
62
256
6
ByLayer
370
13
48
0.05
60
0
100
AcDbLine
10
31.553912
20
-68.215519
30
0
11
30.075047
21
-82.285975
31
0
39
0
210
0
220
0
230
1
0
LINE
5
72
100
AcDbEntity
8
1
62
256
6
ByLayer
370
13
48
0.05
60
0
100
AcDbLine
10
29.206256
20
-82.996768
30
0
11
15.052347
21
-81.716106
31
0
39
0
210
0
220
0
230
1
0
LINE
5
73
100
AcDbEntity
8
4
62
256
6
ByLayer
370
13
48
0.05
60
0
100
AcDbLine
10
0
20
0
30
0
11
30
21
0
31
0
39
0
210
0
220
0
230
1
0
LINE
5
75
100
AcDbEntity
8
SK4
62
256
6
ByLayer
370
13
48
0.05
60
0
100
AcDbLine
10
41.52818
20
0
30
0
11
-21.898101
21
0
31
0
39
0
210
0
220
0
230
1
0
LINE
5
77
100
AcDbEntity
8
81
62
256
6
ByLayer
370
13
48
1
60
0
100
AcDbLine
10
30
20
0
30
0
11
41
21
0
31
0
39
0
210
0
220
0
230
1
0
LINE
5
78
100
AcDbEntity
8
80
62
256
6
ByLayer
370
13
48
1
60
0
100
AcDbLine
10
0
20
0
30
0
11
-26
21
0
31
0
39
0
210
0
220
0
230
1
0
LINE
5
79
100
AcDbEntity
8
1
62
256
6
ByLayer
370
18
48
1
60
1
100
AcDbLine
10
0
20
0
30
0
11
0
21
841
31
0
39
0
210
0
220
0
230
1
0
LINE
5
7A
100
AcDbEntity
8
1
62
256
6
ByLayer
370
18
48
1
60
1
100
AcDbLine
10
1189
20
841
30
0
11
0
21
841
31
0
39
0
210
0
220
0
230
1
0
LINE
5
7B
100
AcDbEntity
8
1
62
256
6
ByLayer
370
18
48
1
60
1
100
AcDbLine
10
1189
20
841
30
0
11
1189
21
0
31
0
39
0
210
0
220
0
230
1
0
LINE
5
7C
100
AcDbEntity
8
1
62
256
6
ByLayer
370
18
48
1
60
1
100
AcDbLine
10
0
20
0
30
0
11
1189
21
0
31
0
39
0
210
0
220
0
230
1
0
LINE
5
7D
100
AcDbEntity
8
1
62
256
6
ByLayer
370
18
48
1
60
0
100
AcDbLine
10
-15.995301
20
69.165434
30
0
11
-15.995301
21
54.857837
31
0
39
0
210
0
220
0
230
1
0
LINE
5
7E
100
AcDbEntity
8
1
62
256
6
ByLayer
370
18
48
1
60
0
100
AcDbLine
10
2.393671
20
60.274594
30
0
11
1.903223
21
59.49896
31
0
39
0
210
0
220
0
230
1
0
LINE
5
7F
100
AcDbEntity
8
1
62
256
6
ByLayer
370
18
48
1
60
0
100
AcDbLine
10
27.552249
20
-25.277439
30
0
11
14.448917
21
-25.953147
31
0
39
0
210
0
220
0
230
1
0
LINE
5
80
100
AcDbEntity
8
1
62
256
6
ByLayer
370
18
48
1
60
0
100
AcDbLine
10
27.552249
20
-25.277439
30
0
11
14.448917
21
-25.953147
31
0
39
0
210
0
220
0
230
1
0
LINE
5
81
100
AcDbEntity
8
1
62
256
6
ByLayer
370
18
48
1
60
0
100
AcDbLine
10
28.325962
20
-25.015168
30
0
11
29.695058
21
-20.785058
31
0
39
0
210
0
220
0
230
1
0
LINE
5
82
100
AcDbEntity
8
1
62
256
6
ByLayer
370
18
48
1
60
0
100
AcDbLine
10
14.322407
20
80.812249
30
0
11
15.028439
21
73.990651
31
0
39
0
210
0
220
0
230
1
0
LINE
5
83
100
AcDbEntity
8
1
62
256
6
ByLayer
370
18
48
1
60
0
100
AcDbLine
10
-10.045301
20
-32.608715
30
0
11
-10.045301
21
-33.502193
31
0
39
0
210
0
220
0
230
1
0
LINE
5
84
100
AcDbEntity
8
1
62
256
6
ByLayer
370
18
48
1
60
0
100
AcDbLine
10
8.737044
20
-39.881789
30
0
11
8.797079
21
-40.523691
31
0
39
0
210
0
220
0
230
1
0
LINE
5
85
100
AcDbEntity
8
1
62
256
6
ByLayer
370
18
48
1
60
0
100
AcDbLine
10
7.383655
20
57.298086
30
0
11
7.620266
21
57.672283
31
0
39
0
210
0
220
0
230
1
0
LINE
5
86
100
AcDbEntity
8
1
62
256
6
ByLayer
370
18
48
1
60
0
100
AcDbLine
10
30.307033
20
-45.689919
30
0
11
30.837947
21
-41.225803
31
0
39
0
210
0
220
0
230
1
0
LINE
5
87
100
AcDbEntity
8
1
62
256
6
ByLayer
370
18
48
1
60
0
100
AcDbLine
10
6.26901
20
-38.992427
30
0
11
7.984797
21
-39.645368
31
0
39
0
210
0
220
0
230
1
0
LINE
5
88
100
AcDbEntity
8
1
62
256
6
ByLayer
370
18
48
1
60
0
100
AcDbLine
10
30.998567
20
-40.213646
30
0
11
31.560451
21
-35.489123
31
0
39
0
210
0
220
0
230
1
0
LINE
5
89
100
AcDbEntity
8
1
62
256
6
ByLayer
370
18
48
1
60
0
100
AcDbLine
10
31.003778
20
66.982229
30
0
11
31.454084
21
67.737889
31
0
39
0
210
0
220
0
230
1
0
LINE
5
8A
100
AcDbEntity
8
1
62
256
6
ByLayer
370
18
48
1
60
0
100
AcDbLine
10
14.457157
20
81.340597
30
0
11
14.228962
21
80.957662
31
0
39
0
210
0
220
0
230
1
0
LINE
5
8B
100
AcDbEntity
8
1
62
256
6
ByLayer
370
18
48
1
60
0
100
AcDbLine
10
13.421279
20
-26.006152
30
0
11
13.943209
21
-31.586694
31
0
39
0
210
0
220
0
230
1
0
LINE
5
8C
100
AcDbEntity
8
1
62
256
6
ByLayer
370
18
48
1
60
0
100
AcDbLine
10
30.159642
20
-21.114975
30
0
11
29.802785
21
-20.850228
31
0
39
0
210
0
220
0
230
1
0
LINE
5
8D
100
AcDbEntity
8
1
62
256
6
ByLayer
370
18
48
1
60
0
100
AcDbLine
10
30.844264
20
-27.021504
30
0
11
30.31335
21
-21.344903
31
0
39
0
210
0
220
0
230
1
0
LINE
5
8E
100
AcDbEntity
8
1
62
256
6
ByLayer
370
18
48
1
60
0
100
AcDbLine
10
13.7868
20
-32.027611
30
0
11
14.348684
21
-38.035347
31
0
39
0
210
0
220
0
230
1
0
LINE
5
8F
100
AcDbEntity
8
1
62
256
6
ByLayer
370
18
48
1
60
0
100
AcDbLine
10
31.562557
20
-32.588323
30
0
11
31.000673
21
-26.580587
31
0
39
0
210
0
220
0
230
1
0
LINE
5
90
100
AcDbEntity
8
1
62
256
6
ByLayer
370
18
48
1
60
0
100
AcDbLine
10
17.879362
20
58.464071
30
0
11
18.070546
21
58.784898
31
0
39
0
210
0
220
0
230
1
0
LINE
5
91
100
AcDbEntity
8
1
62
256
6
ByLayer
370
18
48
1
60
0
100
AcDbLine
10
9.480159
20
63.904005
30
0
11
9.28916
21
63.583488
31
0
39
0
210
0
220
0
230
1
0
LINE
5
92
100
AcDbEntity
8
1
62
256
6
ByLayer
370
18
48
1
60
0
100
AcDbLine
10
26.545693
20
-25.882214
30
0
11
15.536712
21
-26.449922
31
0
39
0
210
0
220
0
230
1
0
LINE
5
93
100
AcDbEntity
8
1
62
256
6
ByLayer
370
18
48
1
60
0
100
AcDbLine
10
26.550952
20
-25.439142
30
0
11
15.541971
21
-26.00685
31
0
39
0
210
0
220
0
230
1
0
LINE
5
94
100
AcDbEntity
8
1
62
256
6
ByLayer
370
18
48
1
60
0
100
AcDbLine
10
26.550952
20
-25.439142
30
0
11
26.545693
21
-25.882214
31
0
39
0
210
0
220
0
230
1
0
LINE
5
95
100
AcDbEntity
8
1
62
256
6
ByLayer
370
18
48
1
60
0
100
AcDbLine
10
28.773537
20
-24.685737
30
0
11
29.151246
21
-24.998992
31
0
39
0
210
0
220
0
230
1
0
LINE
5
96
100
AcDbEntity
8
1
62
256
6
ByLayer
370
18
48
1
60
0
100
AcDbLine
10
28.773537
20
-24.685737
30
0
11
29.923805
21
-21.13174
31
0
39
0
210
0
220
0
230
1
0
LINE
5
97
100
AcDbEntity
8
1
62
256
6
ByLayer
370
18
48
1
60
0
100
AcDbLine
10
29.151246
20
-24.998992
30
0
11
30.301515
21
-21.444995
31
0
39
0
210
0
220
0
230
1
0
LINE
5
98
100
AcDbEntity
8
1
62
256
6
ByLayer
370
18
48
1
60
0
100
AcDbLine
10
15.541971
20
-26.00685
30
0
11
15.536712
21
-26.449922
31
0
39
0
210
0
220
0
230
1
0
LINE
5
99
100
AcDbEntity
8
1
62
256
6
ByLayer
370
18
48
1
60
0
100
AcDbLine
10
29.68216
20
-30.675593
30
0
11
29.151246
21
-24.998992
31
0
39
0
210
0
220
0
230
1
0
LINE
5
9A
100
AcDbEntity
8
1
62
256
6
ByLayer
370
18
48
1
60
0
100
AcDbLine
10
16.067626
20
-32.126522
30
0
11
27.076607
21
-31.558815
31
0
39
0
210
0
220
0
230
1
0
LINE
5
9B
100
AcDbEntity
8
1
62
256
6
ByLayer
370
18
48
1
60
0
100
AcDbLine
10
27.076607
20
-31.558815
30
0
11
26.545693
21
-25.882214
31
0
39
0
210
0
220
0
230
1
0
LINE
5
9C
100
AcDbEntity
8
1
62
256
6
ByLayer
370
18
48
1
60
0
100
AcDbLine
10
16.067626
20
-32.126522
30
0
11
15.536712
21
-26.449922
31
0
39
0
210
0
220
0
230
1
0
LINE
5
9D
100
AcDbEntity
8
1
62
256
6
ByLayer
370
18
48
1
60
0
100
AcDbLine
10
29.68216
20
-30.675593
30
0
11
30.832429
21
-27.121595
31
0
39
0
210
0
220
0
230
1
0
LINE
5
9E
100
AcDbEntity
8
1
62
256
6
ByLayer
370
18
48
1
60
0
100
AcDbLine
10
30.832429
20
-27.121595
30
0
11
30.301515
21
-21.444995
31
0
39
0
210
0
220
0
230
1
0
LINE
5
9F
100
AcDbEntity
8
1
62
256
6
ByLayer
370
18
48
1
60
0
100
AcDbLine
10
29.923805
20
-21.13174
30
0
11
30.301515
21
-21.444995
31
0
39
0
210
0
220
0
230
1
0
LINE
5
A0
100
AcDbEntity
8
1
62
256
6
ByLayer
370
18
48
1
60
0
100
AcDbLine
10
29.210955
20
82.996768
30
0
11
15.057046
21
81.716106
31
0
39
0
210
0
220
0
230
1
0
LINE
5
A1
100
AcDbEntity
8
1
62
256
6
ByLayer
370
18
48
1
60
0
100
AcDbLine
10
31.558611
20
68.215519
30
0
11
30.079746
21
82.285975
31
0
39
0
210
0
220
0
230
1
0
LINE
5
A2
100
AcDbEntity
8
1
62
256
6
ByLayer
370
18
48
1
60
0
100
AcDbLine
10
25.269372
20
66.857059
30
0
11
30.854195
21
67.362381
31
0
39
0
210
0
220
0
230
1
0
LINE
5
A3
100
AcDbEntity
8
1
62
256
6
ByLayer
370
18
48
1
60
0
100
AcDbLine
10
14.35263
20
80.862967
30
0
11
15.07189
21
74.019669
31
0
39
0
210
0
220
0
230
1
0
LINE
5
A4
100
AcDbEntity
8
1
62
256
6
ByLayer
370
18
48
1
60
0
100
AcDbLine
10
14.35263
20
80.862967
30
0
11
14.322403
21
80.812242
31
0
39
0
210
0
220
0
230
1
0
LINE
5
A5
100
AcDbEntity
8
1
62
256
6
ByLayer
370
18
48
1
60
0
100
AcDbLine
10
30.814371
20
67.295553
30
0
11
30.854195
21
67.362381
31
0
39
0
210
0
220
0
230
1
0
LINE
5
A6
100
AcDbEntity
8
1
62
256
6
ByLayer
370
18
48
1
60
0
100
AcDbLine
10
8.754985
20
-39.887896
30
0
11
9.978353
21
-40.353446
31
0
39
0
210
0
220
0
230
1
0
LINE
5
A7
100
AcDbEntity
8
1
62
256
6
ByLayer
370
18
48
1
60
0
100
AcDbLine
10
22.881641
20
-39.647134
30
0
11
23.99811
21
-37.754291
31
0
39
0
210
0
220
0
230
1
0
LINE
5
A8
100
AcDbEntity
8
1
62
256
6
ByLayer
370
18
48
1
60
0
100
AcDbLine
10
8.024913
20
-38.500416
30
0
11
8.457193
21
-38.664919
31
0
39
0
210
0
220
0
230
1
0
LINE
5
A9
100
AcDbEntity
8
1
62
256
6
ByLayer
370
18
48
1
60
0
100
AcDbLine
10
4.853193
20
53.709952
30
0
11
4.91899
21
53.544061
31
0
39
0
210
0
220
0
230
1
0
LINE
5
AA
100
AcDbEntity
8
1
62
256
6
ByLayer
370
18
48
1
60
0
100
AcDbLine
10
4.91899
20
53.544061
30
0
11
5.495335
21
54.45554
31
0
39
0
210
0
220
0
230
1
0
LINE
5
AB
100
AcDbEntity
8
1
62
256
6
ByLayer
370
18
48
1
60
0
100
AcDbLine
10
5.476269
20
54.695334
30
0
11
5.495335
21
54.45554
31
0
39
0
210
0
220
0
230
1
0
LINE
5
AC
100
AcDbEntity
8
1
62
256
6
ByLayer
370
18
48
1
60
0
100
AcDbLine
10
5.495335
20
54.45554
30
0
11
10.447999
21
51.069271
31
0
39
0
210
0
220
0
230
1
0
LINE
5
AD
100
AcDbEntity
8
1
62
256
6
ByLayer
370
18
48
1
60
0
100
AcDbLine
10
10.053491
20
50.154369
30
0
11
10.676566
21
51.139751
31
0
39
0
210
0
220
0
230
1
0
LINE
5
AE
100
AcDbEntity
8
1
62
256
6
ByLayer
370
18
48
1
60
0
100
AcDbLine
10
10.676566
20
51.139751
30
0
11
10.447999
21
51.069271
31
0
39
0
210
0
220
0
230
1
0
LINE
5
AF
100
AcDbEntity
8
1
62
256
6
ByLayer
370
18
48
1
60
0
100
AcDbLine
10
7.32326
20
57.206477
30
0
11
7.551027
21
57.566686
31
0
39
0
210
0
220
0
230
1
0
LINE
5
B0
100
AcDbEntity
8
1
62
256
6
ByLayer
370
18
48
1
60
0
100
AcDbLine
10
9.831949
20
64.656365
30
0
11
9.978353
21
64.8879
31
0
39
0
210
0
220
0
230
1
0
LINE
5
B1
100
AcDbEntity
8
1
62
256
6
ByLayer
370
18
48
1
60
0
100
AcDbLine
10
5.476269
20
54.695334
30
0
11
10.676566
21
51.139751
31
0
39
0
210
0
220
0
230
1
0
LINE
5
B2
100
AcDbEntity
8
1
62
256
6
ByLayer
370
18
48
1
60
0
100
AcDbLine
10
10.053491
20
50.154369
30
0
11
9.871654
21
50.157793
31
0
39
0
210
0
220
0
230
1
0
LINE
5
B3
100
AcDbEntity
8
1
62
256
6
ByLayer
370
18
48
1
60
0
100
AcDbLine
10
4.91899
20
53.544061
30
0
11
9.871654
21
50.157793
31
0
39
0
210
0
220
0
230
1
0
LINE
5
B4
100
AcDbEntity
8
1
62
256
6
ByLayer
370
18
48
1
60
0
100
AcDbLine
10
9.871654
20
50.157793
30
0
11
10.447999
21
51.069271
31
0
39
0
210
0
220
0
230
1
0
LINE
5
B5
100
AcDbEntity
8
1
62
256
6
ByLayer
370
18
48
1
60
0
100
AcDbLine
10
8.754985
20
63.105966
30
0
11
9.978353
21
64.8879
31
0
39
0
210
0
220
0
230
1
0
LINE
5
B6
100
AcDbEntity
8
1
62
256
6
ByLayer
370
18
48
1
60
0
100
AcDbLine
10
18.480427
20
59.074805
30
0
11
17.257059
21
57.292871
31
0
39
0
210
0
220
0
230
1
0
LINE
5
B7
100
AcDbEntity
8
1
62
256
6
ByLayer
370
18
48
1
60
0
100
AcDbLine
10
4.241809
20
56.89402
30
0
11
13.107078
21
50.832598
31
0
39
0
210
0
220
0
230
1
0
LINE
5
B8
100
AcDbEntity
8
1
62
256
6
ByLayer
370
18
48
1
60
0
100
AcDbLine
10
22.881641
20
74.525225
30
0
11
24.659856
21
77.036037
31
0
39
0
210
0
220
0
230
1
0
LINE
5
B9
100
AcDbEntity
8
1
62
256
6
ByLayer
370
18
48
1
60
0
100
AcDbLine
10
6.47979
20
55.978414
30
0
11
11.432455
21
52.592145
31
0
39
0
210
0
220
0
230
1
0
LINE
5
BA
100
AcDbEntity
8
1
62
256
6
ByLayer
370
18
48
1
60
0
100
AcDbLine
10
21.532989
20
77.038961
30
0
11
20.672934
21
76.939972
31
0
39
0
210
0
220
0
230
1
0
LINE
5
BB
100
AcDbEntity
8
1
62
256
6
ByLayer
370
18
48
1
60
0
100
AcDbLine
10
26.021484
20
73.282776
30
0
11
25.803343
21
74.119206
31
0
39
0
210
0
220
0
230
1
0
LINE
5
BC
100
AcDbEntity
8
1
62
256
6
ByLayer
370
18
48
1
60
0
100
AcDbLine
10
14.424675
20
50.02843
30
0
11
19.850421
21
57.931469
31
0
39
0
210
0
220
0
230
1
0
LINE
5
BD
100
AcDbEntity
8
1
62
256
6
ByLayer
370
18
48
1
60
0
100
AcDbLine
10
3.031447
20
57.818285
30
0
11
8.457193
21
65.721324
31
0
39
0
210
0
220
0
230
1
0
LINE
5
BE
100
AcDbEntity
8
1
62
256
6
ByLayer
370
18
48
1
60
0
100
AcDbLine
10
21.067998
20
56.159579
30
0
11
18.197513
21
51.978484
31
0
39
0
210
0
220
0
230
1
0
LINE
5
BF
100
AcDbEntity
8
1
62
256
6
ByLayer
370
18
48
1
60
0
100
AcDbLine
10
6.44413
20
66.158308
30
0
11
3.573645
21
61.977213
31
0
39
0
210
0
220
0
230
1
0
LINE
5
C0
100
AcDbEntity
8
1
62
256
6
ByLayer
370
18
48
1
60
0
100
AcDbLine
10
18.193042
20
51.950562
30
0
11
18.197513
21
51.978484
31
0
39
0
210
0
220
0
230
1
0
LINE
5
C1
100
AcDbEntity
8
1
62
256
6
ByLayer
370
18
48
1
60
0
100
AcDbLine
10
3.549665
20
61.96263
30
0
11
3.573645
21
61.977213
31
0
39
0
210
0
220
0
230
1
0
LINE
5
C2
100
AcDbEntity
8
1
62
256
6
ByLayer
370
18
48
1
60
0
100
AcDbLine
10
17.107839
20
50.369875
30
0
11
18.193042
21
51.950562
31
0
39
0
210
0
220
0
230
1
0
LINE
5
C3
100
AcDbEntity
8
1
62
256
6
ByLayer
370
18
48
1
60
0
100
AcDbLine
10
18.193042
20
51.950562
30
0
11
16.734862
21
49.772063
31
0
39
0
210
0
220
0
230
1
0
LINE
5
C4
100
AcDbEntity
8
1
62
256
6
ByLayer
370
18
48
1
60
0
100
AcDbLine
10
3.549665
20
61.96263
30
0
11
2.464462
21
60.381944
31
0
39
0
210
0
220
0
230
1
0
LINE
5
C5
100
AcDbEntity
8
1
62
256
6
ByLayer
370
18
48
1
60
0
100
AcDbLine
10
9.831949
20
64.656365
30
0
11
8.61458
21
62.883917
31
0
39
0
210
0
220
0
230
1
0
LINE
5
C6
100
AcDbEntity
8
1
62
256
6
ByLayer
370
18
48
1
60
0
100
AcDbLine
10
11.574438
20
48.408759
30
0
11
2.709169
21
54.47018
31
0
39
0
210
0
220
0
230
1
0
LINE
5
C7
100
AcDbEntity
8
1
62
256
6
ByLayer
370
18
48
1
60
0
100
AcDbLine
10
6.47979
20
55.978414
30
0
11
7.32326
21
57.206477
31
0
39
0
210
0
220
0
230
1
0
LINE
5
C8
100
AcDbEntity
8
1
62
256
6
ByLayer
370
18
48
1
60
0
100
AcDbLine
10
11.574438
20
48.408759
30
0
11
13.107078
21
50.832598
31
0
39
0
210
0
220
0
230
1
0
LINE
5
C9
100
AcDbEntity
8
1
62
256
6
ByLayer
370
18
48
1
60
0
100
AcDbLine
10
16.644923
20
49.637783
30
0
11
17.107839
21
50.369875
31
0
39
0
210
0
220
0
230
1
0
LINE
5
CA
100
AcDbEntity
8
1
62
256
6
ByLayer
370
18
48
1
60
0
100
AcDbLine
10
2.709169
20
54.47018
30
0
11
4.241809
21
56.89402
31
0
39
0
210
0
220
0
230
1
0
LINE
5
CB
100
AcDbEntity
8
1
62
256
6
ByLayer
370
18
48
1
60
0
100
AcDbLine
10
4.853193
20
53.709952
30
0
11
5.476269
21
54.695334
31
0
39
0
210
0
220
0
230
1
0
LINE
5
CC
100
AcDbEntity
8
1
62
256
6
ByLayer
370
18
48
1
60
0
100
AcDbLine
10
28.773537
20
-53.215143
30
0
11
29.923805
21
-45.942981
31
0
39
0
210
0
220
0
230
1
0
LINE
5
CD
100
AcDbEntity
8
1
62
256
6
ByLayer
370
18
48
1
60
0
100
AcDbLine
10
29.923805
20
-45.942981
30
0
11
30.301515
21
-45.729765
31
0
39
0
210
0
220
0
230
1
0
LINE
5
CE
100
AcDbEntity
8
1
62
256
6
ByLayer
370
18
48
1
60
0
100
AcDbLine
10
29.151246
20
-53.001927
30
0
11
30.301515
21
-45.729765
31
0
39
0
210
0
220
0
230
1
0
LINE
5
CF
100
AcDbEntity
8
1
62
256
6
ByLayer
370
18
48
1
60
0
100
AcDbLine
10
28.773537
20
-53.215143
30
0
11
29.151246
21
-53.001927
31
0
39
0
210
0
220
0
230
1
0
LINE
5
D0
100
AcDbEntity
8
1
62
256
6
ByLayer
370
18
48
1
60
0
100
AcDbLine
10
26.89307
20
66.867386
30
0
11
25.234873
21
66.717351
31
0
39
0
210
0
220
0
230
1
0
LINE
5
D1
100
AcDbEntity
8
1
62
256
6
ByLayer
370
18
48
1
60
0
100
AcDbLine
10
17.69718
20
49.176451
30
0
11
18.99373
21
51.104323
31
0
39
0
210
0
220
0
230
1
0
LINE
5
D2
100
AcDbEntity
8
1
62
256
6
ByLayer
370
18
48
1
60
0
100
AcDbLine
10
1.188299
20
60.464014
30
0
11
2.484849
21
62.391887
31
0
39
0
210
0
220
0
230
1
0
LINE
5
D3
100
AcDbEntity
8
1
62
256
6
ByLayer
370
18
48
1
60
0
100
AcDbLine
10
18.99373
20
51.104323
30
0
11
18.055819
21
51.745598
31
0
39
0
210
0
220
0
230
1
0
LINE
5
D4
100
AcDbEntity
8
1
62
256
6
ByLayer
370
18
48
1
60
0
100
AcDbLine
10
30.907501
20
67.303987
30
0
11
30.978401
21
67.22364
31
0
39
0
210
0
220
0
230
1
0
LINE
5
D5
100
AcDbEntity
8
1
62
256
6
ByLayer
370
18
48
1
60
0
100
AcDbLine
10
14.216937
20
80.965218
30
0
11
14.31661
21
80.902647
31
0
39
0
210
0
220
0
230
1
0
LINE
5
D6
100
AcDbEntity
8
1
62
256
6
ByLayer
370
18
48
1
60
0
100
AcDbLine
10
31.004699
20
56.371468
30
0
11
24.983561
21
46.735633
31
0
39
0
210
0
220
0
230
1
0
LINE
5
D7
100
AcDbEntity
8
1
62
256
6
ByLayer
370
18
48
1
60
0
100
AcDbLine
10
25.231483
20
66.703653
30
0
11
30.978401
21
67.22364
31
0
39
0
210
0
220
0
230
1
0
LINE
5
D8
100
AcDbEntity
8
1
62
256
6
ByLayer
370
18
48
1
60
0
100
AcDbLine
10
30.978401
20
67.22364
30
0
11
31.004699
21
66.973432
31
0
39
0
210
0
220
0
230
1
0
LINE
5
D9
100
AcDbEntity
8
1
62
256
6
ByLayer
370
18
48
1
60
0
100
AcDbLine
10
31.004699
20
56.371468
30
0
11
31.004699
21
66.973432
31
0
39
0
210
0
220
0
230
1
0
LINE
5
DA
100
AcDbEntity
8
1
62
256
6
ByLayer
370
18
48
1
60
0
100
AcDbLine
10
14.92604
20
73.921741
30
0
11
14.216937
21
80.965218
31
0
39
0
210
0
220
0
230
1
0
LINE
5
DB
100
AcDbEntity
8
1
62
256
6
ByLayer
370
18
48
1
60
0
100
AcDbLine
10
14.216937
20
80.965218
30
0
11
-15.995301
21
78.231579
31
0
39
0
210
0
220
0
230
1
0
LINE
5
DC
100
AcDbEntity
8
1
62
256
6
ByLayer
370
18
48
1
60
0
100
AcDbLine
10
-15.995301
20
78.231579
30
0
11
-15.995301
21
69.165434
31
0
39
0
210
0
220
0
230
1
0
LINE
5
DD
100
AcDbEntity
8
1
62
256
6
ByLayer
370
18
48
1
60
0
100
AcDbLine
10
20.130585
20
49.627575
30
0
11
24.983561
21
46.735633
31
0
39
0
210
0
220
0
230
1
0
LINE
5
DE
100
AcDbEntity
8
1
62
256
6
ByLayer
370
18
48
1
60
0
100
AcDbLine
10
3.410069
20
61.759289
30
0
11
2.484849
21
62.391887
31
0
39
0
210
0
220
0
230
1
0
LINE
5
DF
100
AcDbEntity
8
1
62
256
6
ByLayer
370
18
48
1
60
0
100
AcDbLine
10
10.703774
20
43.56473
30
0
11
3.524314
21
48.393125
31
0
39
0
210
0
220
0
230
1
0
LINE
5
E0
100
AcDbEntity
8
1
62
256
6
ByLayer
370
18
48
1
60
0
100
AcDbLine
10
-15.995301
20
69.165434
30
0
11
-2.86224
21
61.339299
31
0
39
0
210
0
220
0
230
1
0
LINE
5
E1
100
AcDbEntity
8
1
62
256
6
ByLayer
370
18
48
1
60
0
100
AcDbLine
10
3.004699
20
48.488837
30
0
11
-1.400417
21
51.451405
31
0
39
0
210
0
220
0
230
1
0
LINE
5
E2
100
AcDbEntity
8
1
62
256
6
ByLayer
370
18
48
1
60
0
100
AcDbLine
10
3.524314
20
48.393125
30
0
11
3.004699
21
48.488837
31
0
39
0
210
0
220
0
230
1
0
LINE
5
E3
100
AcDbEntity
8
1
62
256
6
ByLayer
370
18
48
1
60
0
100
AcDbLine
10
11.858392
20
46.523497
30
0
11
0.862173
21
54.041906
31
0
39
0
210
0
220
0
230
1
0
LINE
5
E4
100
AcDbEntity
8
1
62
256
6
ByLayer
370
18
48
1
60
0
100
AcDbLine
10
24.983561
20
46.735633
30
0
11
20.524218
21
39.599193
31
0
39
0
210
0
220
0
230
1
0
LINE
5
E5
100
AcDbEntity
8
1
62
256
6
ByLayer
370
18
48
1
60
0
100
AcDbLine
10
1.119238
20
55.553631
30
0
11
13.198393
21
47.29479
31
0
39
0
210
0
220
0
230
1
0
LINE
5
E6
100
AcDbEntity
8
SK1
62
256
6
ByLayer
370
18
48
1
60
0
100
AcDbLine
10
-15.995301
20
54.857837
30
0
11
-15.995301
21
14.47801
31
0
39
0
210
0
220
0
230
1
0
LINE
5
E8
100
AcDbEntity
8
1
62
256
6
ByLayer
370
18
48
1
60
0
100
AcDbLine
10
27.828342
20
67.025381
30
0
11
30.907501
21
67.303987
31
0
39
0
210
0
220
0
230
1
0
LINE
5
E9
100
AcDbEntity
8
1
62
256
6
ByLayer
370
18
48
1
60
0
100
AcDbLine
10
3.524314
20
48.393125
30
0
11
3.524314
21
28.34653
31
0
39
0
210
0
220
0
230
1
0
LINE
5
EA
100
AcDbEntity
8
SK1
62
256
6
ByLayer
370
18
48
1
60
0
100
AcDbLine
10
-15.995301
20
14.47801
30
0
11
-3.723676
21
14.47801
31
0
39
0
210
0
220
0
230
1
0
LINE
5
EB
100
AcDbEntity
8
SK1
62
256
6
ByLayer
370
18
48
1
60
0
100
AcDbLine
10
-15.995301
20
6.198368
30
0
11
-15.995301
21
14.47801
31
0
39
0
210
0
220
0
230
1
0
LINE
5
EC
100
AcDbEntity
8
1
62
256
6
ByLayer
370
18
48
1
60
0
100
AcDbLine
10
3.004699
20
48.488837
30
0
11
3.004699
21
28.346456
31
0
39
0
210
0
220
0
230
1
0
LINE
5
ED
100
AcDbEntity
8
1
62
256
6
ByLayer
370
18
48
1
60
0
100
AcDbLine
10
19.004699
20
34.3
30
0
11
19.004699
21
28.346118
31
0
39
0
210
0
220
0
230
1
0
LINE
5
EE
100
AcDbEntity
8
1
62
256
6
ByLayer
370
18
48
1
60
0
100
AcDbLine
10
13.412984
20
62.775182
30
0
11
13.643047
21
63.161251
31
0
39
0
210
0
220
0
230
1
0
LINE
5
EF
100
AcDbEntity
8
1
62
256
6
ByLayer
370
18
48
1
60
0
100
AcDbLine
10
15.138754
20
60.898625
30
0
11
15.09875
21
60.831494
31
0
39
0
210
0
220
0
230
1
0
LINE
5
F0
100
AcDbEntity
8
1
62
256
6
ByLayer
370
18
48
1
60
0
100
AcDbLine
10
15.151099
20
62.594889
30
0
11
14.921036
21
62.20882
31
0
39
0
210
0
220
0
230
1
0
LINE
5
F1
100
AcDbEntity
8
1
62
256
6
ByLayer
370
18
48
1
60
0
100
AcDbLine
10
13.887055
20
62.965886
30
0
11
13.660824
21
62.586247
31
0
39
0
210
0
220
0
230
1
0
LINE
5
F2
100
AcDbEntity
8
1
62
256
6
ByLayer
370
18
48
1
60
0
100
AcDbLine
10
14.994693
20
61.674245
30
0
11
15.220924
21
62.053884
31
0
39
0
210
0
220
0
230
1
0
LINE
5
F3
100
AcDbEntity
8
1
62
256
6
ByLayer
370
18
48
1
60
0
100
AcDbLine
10
14.994198
20
60.38897
30
0
11
14.764135
21
60.002901
31
0
39
0
210
0
220
0
230
1
0
LINE
5
F4
100
AcDbEntity
8
1
62
256
6
ByLayer
370
18
48
1
60
0
100
AcDbLine
10
12.610969
20
62.092619
30
0
11
12.837201
21
62.472259
31
0
39
0
210
0
220
0
230
1
0
LINE
5
F5
100
AcDbEntity
8
1
62
256
6
ByLayer
370
18
48
1
60
0
100
AcDbLine
10
12.69441
20
62.264272
30
0
11
12.468179
21
61.884633
31
0
39
0
210
0
220
0
230
1
0
LINE
5
F6
100
AcDbEntity
8
1
62
256
6
ByLayer
370
18
48
1
60
0
100
AcDbLine
10
12.412361
20
62.154241
30
0
11
12.182299
21
61.768172
31
0
39
0
210
0
220
0
230
1
0
LINE
5
F7
100
AcDbEntity
8
1
62
256
6
ByLayer
370
18
48
1
60
0
100
AcDbLine
10
14.769732
20
60.310999
30
0
11
14.995963
21
60.690638
31
0
39
0
210
0
220
0
230
1
0
LINE
5
F8
100
AcDbEntity
8
1
62
256
6
ByLayer
370
18
48
1
60
0
100
AcDbLine
10
15.109228
20
62.283062
30
0
11
14.882996
21
61.903423
31
0
39
0
210
0
220
0
230
1
0
LINE
5
F9
100
AcDbEntity
8
1
62
256
6
ByLayer
370
18
48
1
60
0
100
AcDbLine
10
13.915312
20
62.565055
30
0
11
14.141543
21
62.944694
31
0
39
0
210
0
220
0
230
1
0
LINE
5
FA
100
AcDbEntity
8
1
62
256
6
ByLayer
370
18
48
1
60
0
100
AcDbLine
10
14.417015
20
63.096801
30
0
11
14.186952
21
62.710732
31
0
39
0
210
0
220
0
230
1
0
LINE
5
FB
100
AcDbEntity
8
1
62
256
6
ByLayer
370
18
48
1
60
0
100
AcDbLine
10
15.260737
20
61.511824
30
0
11
15.4908
21
61.897893
31
0
39
0
210
0
220
0
230
1
0
LINE
5
FC
100
AcDbEntity
8
1
62
256
6
ByLayer
370
18
48
1
60
0
100
AcDbLine
10
28.325962
20
-25.015168
30
0
11
29.818458
21
-20.403786
31
0
39
0
210
0
220
0
230
1
0
LINE
5
FD
100
AcDbEntity
8
1
62
256
6
ByLayer
370
18
48
1
60
0
100
AcDbLine
10
29.847258
20
-20.497728
30
0
11
29.786988
21
-20.500836
31
0
39
0
210
0
220
0
230
1
0
LINE
5
FE
100
AcDbEntity
8
1
62
256
6
ByLayer
370
18
48
1
60
0
100
AcDbLine
10
14.328656
20
-37.82116
30
0
11
14.216937
21
-38.181131
31
0
39
0
210
0
220
0
230
1
0
LINE
5
FF
100
AcDbEntity
8
1
62
256
6
ByLayer
370
18
48
1
60
0
100
AcDbLine
10
31.004699
20
-26.623468
30
0
11
31.004699
21
-19.354435
31
0
39
0
210
0
220
0
230
1
0
LINE
5
100
100
AcDbEntity
8
1
62
256
6
ByLayer
370
18
48
1
60
0
100
AcDbLine
10
-15.995301
20
-25.773552
30
0
11
-3.045024
21
-26.387254
31
0
39
0
210
0
220
0
230
1
0
LINE
5
101
100
AcDbEntity
8
1
62
256
6
ByLayer
370
18
48
1
60
0
100
AcDbLine
10
15.01859
20
-0.381499
30
0
11
15.776902
21
-9.70212
31
0
39
0
210
0
220
0
230
1
0
LINE
5
102
100
AcDbEntity
8
1
62
256
6
ByLayer
370
18
48
1
60
0
100
AcDbLine
10
19.004699
20
5.611001
30
0
11
9.306689
21
5.669748
31
0
39
0
210
0
220
0
230
1
0
LINE
5
103
100
AcDbEntity
8
1
62
256
6
ByLayer
370
18
48
1
60
0
100
AcDbLine
10
22.646319
20
-0.399856
30
0
11
19.375856
21
2.741616
31
0
39
0
210
0
220
0
230
1
0
LINE
5
104
100
AcDbEntity
8
1
62
256
6
ByLayer
370
18
48
1
60
0
100
AcDbLine
10
27.038557
20
-19.784975
30
0
11
27.552249
21
-25.277439
31
0
39
0
210
0
220
0
230
1
0
LINE
5
105
100
AcDbEntity
8
1
62
256
6
ByLayer
370
18
48
1
60
0
100
AcDbLine
10
15.776902
20
-9.70212
30
0
11
24.464992
21
-8.859404
31
0
39
0
210
0
220
0
230
1
0
LINE
5
106
100
AcDbEntity
8
1
62
256
6
ByLayer
370
18
48
1
60
0
100
AcDbLine
10
13.588815
20
-30.180418
30
0
11
13.579253
21
-30.180911
31
0
39
0
210
0
220
0
230
1
0
LINE
5
107
100
AcDbEntity
8
1
62
256
6
ByLayer
370
18
48
1
60
0
100
AcDbLine
10
19.375856
20
2.741616
30
0
11
20.25925
21
-6.703749
31
0
39
0
210
0
220
0
230
1
0
LINE
5
108
100
AcDbEntity
8
1
62
256
6
ByLayer
370
18
48
1
60
0
100
AcDbLine
10
15.776902
20
-9.70212
30
0
11
15.776902
21
-8.489463
31
0
39
0
210
0
220
0
230
1
0
LINE
5
109
100
AcDbEntity
8
1
62
256
6
ByLayer
370
18
48
1
60
0
100
AcDbLine
10
15.01859
20
-0.381499
30
0
11
15.776902
21
-8.489463
31
0
39
0
210
0
220
0
230
1
0
LINE
5
10A
100
AcDbEntity
8
1
62
256
6
ByLayer
370
18
48
1
60
0
100
AcDbLine
10
20.524218
20
12.788514
30
0
11
22.646319
21
9.363145
31
0
39
0
210
0
220
0
230
1
0
LINE
5
10B
100
AcDbEntity
8
1
62
256
6
ByLayer
370
18
48
1
60
0
100
AcDbLine
10
19.004699
20
5.611001
30
0
11
20.888532
21
3.791082
31
0
39
0
210
0
220
0
230
1
0
LINE
5
10C
100
AcDbEntity
8
1
62
256
6
ByLayer
370
18
48
1
60
0
100
AcDbLine
10
19.004699
20
3.092384
30
0
11
19.004699
21
5.611001
31
0
39
0
210
0
220
0
230
1
0
LINE
5
10D
100
AcDbEntity
8
1
62
256
6
ByLayer
370
18
48
1
60
0
100
AcDbLine
10
19.004699
20
9.714388
30
0
11
19.004699
21
16.534102
31
0
39
0
210
0
220
0
230
1
0
LINE
5
10E
100
AcDbEntity
8
1
62
256
6
ByLayer
370
18
48
1
60
0
100
AcDbLine
10
19.004699
20
28.346195
30
0
11
-3.723423
21
28.346195
31
0
39
0
210
0
220
0
230
1
0
LINE
5
10F
100
AcDbEntity
8
1
62
256
6
ByLayer
370
18
48
1
60
0
100
AcDbLine
10
9.306689
20
9.773135
30
0
11
9.686878
21
5.708107
31
0
39
0
210
0
220
0
230
1
0
LINE
5
110
100
AcDbEntity
8
1
62
256
6
ByLayer
370
18
48
1
60
0
100
AcDbLine
10
27.806758
20
-19.463764
30
0
11
27.495879
21
-18.730486
31
0
39
0
210
0
220
0
230
1
0
LINE
5
111
100
AcDbEntity
8
1
62
256
6
ByLayer
370
18
48
1
60
0
100
AcDbLine
10
24.887002
20
-6.313274
30
0
11
24.464992
21
-8.859404
31
0
39
0
210
0
220
0
230
1
0
LINE
5
112
100
AcDbEntity
8
1
62
256
6
ByLayer
370
18
48
1
60
0
100
AcDbLine
10
14.216937
20
-38.181131
30
0
11
-15.995301
21
-39.739105
31
0
39
0
210
0
220
0
230
1
0
LINE
5
113
100
AcDbEntity
8
1
62
256
6
ByLayer
370
18
48
1
60
0
100
AcDbLine
10
27.495879
20
-18.730486
30
0
11
24.464992
21
-8.859404
31
0
39
0
210
0
220
0
230
1
0
LINE
5
114
100
AcDbEntity
8
1
62
256
6
ByLayer
370
18
48
1
60
0
100
AcDbLine
10
-3.723423
20
1.380442
30
0
11
-3.723423
21
28.346195
31
0
39
0
210
0
220
0
230
1
0
LINE
5
115
100
AcDbEntity
8
1
62
256
6
ByLayer
370
18
48
1
60
0
100
AcDbLine
10
22.646319
20
-0.399856
30
0
11
22.646319
21
9.363145
31
0
39
0
210
0
220
0
230
1
0
LINE
5
116
100
AcDbEntity
8
SK1
62
256
6
ByLayer
370
18
48
1
60
0
100
AcDbLine
10
-2.941256
20
-26.457749
30
0
11
-2.941256
21
-5.148284
31
0
39
0
210
0
220
0
230
1
0
LINE
5
117
100
AcDbEntity
8
SK1
62
256
6
ByLayer
370
18
48
1
60
0
100
AcDbLine
10
-15.995301
20
-25.773552
30
0
11
-15.995301
21
6.198363
31
0
39
0
210
0
220
0
230
1
0
LINE
5
118
100
AcDbEntity
8
1
62
256
6
ByLayer
370
18
48
1
60
0
100
AcDbLine
10
9.306689
20
9.773135
30
0
11
19.004699
21
9.714388
31
0
39
0
210
0
220
0
230
1
0
LINE
5
119
100
AcDbEntity
8
SK1
62
256
6
ByLayer
370
18
48
1
60
0
100
AcDbLine
10
-3.045024
20
-26.387254
30
0
11
-3.045024
21
-4.281986
31
0
39
0
210
0
220
0
230
1
0
LINE
5
11A
100
AcDbEntity
8
SK1
62
256
6
ByLayer
370
18
48
1
60
0
100
AcDbLine
10
-3.723497
20
6.198363
30
0
11
-15.995301
21
6.198363
31
0
39
0
210
0
220
0
230
1
0
LINE
5
11B
100
AcDbEntity
8
1
62
256
6
ByLayer
370
18
48
1
60
0
100
AcDbLine
10
13.760086
20
-29.628561
30
0
11
13.588815
21
-30.180418
31
0
39
0
210
0
220
0
230
1
0
LINE
5
11C
100
AcDbEntity
8
1
62
256
6
ByLayer
370
18
48
1
60
0
100
AcDbLine
10
19.004699
20
16.534102
30
0
11
19.004699
21
28.346195
31
0
39
0
210
0
220
0
230
1
0
LINE
5
11D
100
AcDbEntity
8
1
62
256
6
ByLayer
370
18
48
1
60
0
100
AcDbLine
10
13.552187
20
-30.210827
30
0
11
13.579253
21
-30.180911
31
0
39
0
210
0
220
0
230
1
0
LINE
5
11E
100
AcDbEntity
8
1
62
256
6
ByLayer
370
18
48
1
60
0
100
AcDbLine
10
14.216937
20
-38.181131
30
0
11
14.316553
21
-37.691815
31
0
39
0
210
0
220
0
230
1
0
LINE
5
11F
100
AcDbEntity
8
1
62
256
6
ByLayer
370
18
48
1
60
0
100
AcDbLine
10
-2.941256
20
-26.457749
30
0
11
-3.045024
21
-26.387254
31
0
39
0
210
0
220
0
230
1
0
LINE
5
120
100
AcDbEntity
8
1
62
256
6
ByLayer
370
18
48
1
60
0
100
AcDbLine
10
-3.723423
20
1.380442
30
0
11
-2.041912
21
-12.654151
31
0
39
0
210
0
220
0
230
1
0
LINE
5
121
100
AcDbEntity
8
1
62
256
6
ByLayer
370
18
48
1
60
0
100
AcDbLine
10
14.935562
20
1.380442
30
0
11
-3.723423
21
1.380442
31
0
39
0
210
0
220
0
230
1
0
LINE
5
122
100
AcDbEntity
8
1
62
256
6
ByLayer
370
18
48
1
60
0
100
AcDbLine
10
29.847258
20
-20.497728
30
0
11
29.885274
21
-20.911431
31
0
39
0
210
0
220
0
230
1
0
LINE
5
123
100
AcDbEntity
8
1
62
256
6
ByLayer
370
18
48
1
60
0
100
AcDbLine
10
22.646319
20
-0.399856
30
0
11
24.887002
21
-6.313274
31
0
39
0
210
0
220
0
230
1
0
LINE
5
124
100
AcDbEntity
8
1
62
256
6
ByLayer
370
18
48
1
60
0
100
AcDbLine
10
29.818458
20
-20.403786
30
0
11
29.847258
21
-20.497728
31
0
39
0
210
0
220
0
230
1
0
LINE
5
125
100
AcDbEntity
8
1
62
256
6
ByLayer
370
18
48
1
60
0
100
AcDbLine
10
30.70981
20
-16.229686
30
0
11
31.004699
21
-19.354435
31
0
39
0
210
0
220
0
230
1
0
LINE
5
126
100
AcDbEntity
8
1
62
256
6
ByLayer
370
18
48
1
60
0
100
AcDbLine
10
-15.995301
20
-39.739105
30
0
11
-15.995301
21
-25.773552
31
0
39
0
210
0
220
0
230
1
0
LINE
5
127
100
AcDbEntity
8
1
62
256
6
ByLayer
370
18
48
1
60
0
100
AcDbLine
10
13.588815
20
-30.180418
30
0
11
13.163758
21
-26.162019
31
0
39
0
210
0
220
0
230
1
0
LINE
5
128
100
AcDbEntity
8
1
62
256
6
ByLayer
370
18
48
1
60
0
100
AcDbLine
10
13.163758
20
-26.162019
30
0
11
13.299089
21
-26.012441
31
0
39
0
210
0
220
0
230
1
0
LINE
5
129
100
AcDbEntity
8
1
62
256
6
ByLayer
370
18
48
1
60
0
100
AcDbLine
10
27.552249
20
-25.277439
30
0
11
13.299089
21
-26.012441
31
0
39
0
210
0
220
0
230
1
0
LINE
5
12A
100
AcDbEntity
8
1
62
256
6
ByLayer
370
18
48
1
60
0
100
AcDbLine
10
14.110769
20
-35.491541
30
0
11
13.552187
21
-30.210827
31
0
39
0
210
0
220
0
230
1
0
LINE
5
12B
100
AcDbEntity
8
1
62
256
6
ByLayer
370
18
48
1
60
0
100
AcDbLine
10
27.038557
20
-19.784975
30
0
11
-2.041912
21
-12.654151
31
0
39
0
210
0
220
0
230
1
0
LINE
5
12C
100
AcDbEntity
8
1
62
256
6
ByLayer
370
18
48
1
60
0
100
AcDbLine
10
24.887002
20
-6.313274
30
0
11
20.25925
21
-6.703749
31
0
39
0
210
0
220
0
230
1
0
LINE
5
12D
100
AcDbEntity
8
1
62
256
6
ByLayer
370
18
48
1
60
0
100
AcDbLine
10
-0.424131
20
-23.623978
30
0
11
-2.041912
21
-12.654151
31
0
39
0
210
0
220
0
230
1
0
LINE
5
12E
100
AcDbEntity
8
1
62
256
6
ByLayer
370
18
48
1
60
0
100
AcDbLine
10
-0.424131
20
-23.623978
30
0
11
-0.341647
21
-23.716912
31
0
39
0
210
0
220
0
230
1
0
LINE
5
12F
100
AcDbEntity
8
1
62
256
6
ByLayer
370
18
48
1
60
0
100
AcDbLine
10
20.888532
20
3.791082
30
0
11
22.119701
21
6.705071
31
0
39
0
210
0
220
0
230
1
0
LINE
5
130
100
AcDbEntity
8
1
62
256
6
ByLayer
370
18
48
1
60
0
100
AcDbLine
10
9.686878
20
5.708107
30
0
11
22.119701
21
6.705071
31
0
39
0
210
0
220
0
230
1
0
LINE
5
131
100
AcDbEntity
8
1
62
256
6
ByLayer
370
18
48
1
60
0
100
AcDbLine
10
30.70981
20
-16.229686
30
0
11
27.806758
21
-19.463764
31
0
39
0
210
0
220
0
230
1
0
LINE
5
132
100
AcDbEntity
8
1
62
256
6
ByLayer
370
18
48
1
60
0
100
AcDbLine
10
22.646319
20
9.363145
30
0
11
30.70981
21
-16.229686
31
0
39
0
210
0
220
0
230
1
0
LINE
5
133
100
AcDbEntity
8
1
62
256
6
ByLayer
370
18
48
1
60
0
100
AcDbLine
10
27.806758
20
-19.463764
30
0
11
28.325962
21
-25.015168
31
0
39
0
210
0
220
0
230
1
0
LINE
5
134
100
AcDbEntity
8
1
62
256
6
ByLayer
370
18
48
1
60
0
100
AcDbLine
10
22.119701
20
6.705071
30
0
11
19.004699
21
9.714388
31
0
39
0
210
0
220
0
230
1
0
LINE
5
135
100
AcDbEntity
8
1
62
256
6
ByLayer
370
18
48
1
60
0
100
AcDbLine
10
27.552249
20
-25.277439
30
0
11
28.325962
21
-25.015168
31
0
39
0
210
0
220
0
230
1
0
LINE
5
136
100
AcDbEntity
8
1
62
256
6
ByLayer
370
18
48
1
60
0
100
AcDbLine
10
27.038557
20
-19.784975
30
0
11
27.495879
21
-18.730486
31
0
39
0
210
0
220
0
230
1
0
LINE
5
137
100
AcDbEntity
8
1
62
256
6
ByLayer
370
18
48
1
60
0
100
AcDbLine
10
13.790746
20
-31.994237
30
0
11
13.93861
21
-31.537382
31
0
39
0
210
0
220
0
230
1
0
LINE
5
138
100
AcDbEntity
8
1
62
256
6
ByLayer
370
18
48
1
60
0
100
AcDbLine
10
29.210955
20
-37.485462
30
0
11
15.057046
21
-38.215346
31
0
39
0
210
0
220
0
230
1
0
LINE
5
139
100
AcDbEntity
8
1
62
256
6
ByLayer
370
18
48
1
60
0
100
AcDbLine
10
31.558611
20
-32.621697
30
0
11
30.079746
21
-37.190962
31
0
39
0
210
0
220
0
230
1
0
LINE
5
13A
100
AcDbEntity
8
1
62
256
6
ByLayer
370
18
48
1
60
0
100
AcDbLine
10
29.517862
20
-31.183226
30
0
11
30.079746
21
-37.190962
31
0
39
0
210
0
220
0
230
1
0
LINE
5
13B
100
AcDbEntity
8
1
62
256
6
ByLayer
370
18
48
1
60
0
100
AcDbLine
10
29.210955
20
-37.485462
30
0
11
28.649071
21
-31.477727
31
0
39
0
210
0
220
0
230
1
0
LINE
5
13C
100
AcDbEntity
8
1
62
256
6
ByLayer
370
18
48
1
60
0
100
AcDbLine
10
14.495162
20
-32.20761
30
0
11
15.057046
21
-38.215346
31
0
39
0
210
0
220
0
230
1
0
LINE
5
13D
100
AcDbEntity
8
1
62
256
6
ByLayer
370
18
48
1
60
0
100
AcDbLine
10
31.558611
20
-32.621697
30
0
11
30.996727
21
-26.613961
31
0
39
0
210
0
220
0
230
1
0
LINE
5
13E
100
AcDbEntity
8
1
62
256
6
ByLayer
370
18
48
1
60
0
100
AcDbLine
10
28.649071
20
-31.477727
30
0
11
14.495162
21
-32.20761
31
0
39
0
210
0
220
0
230
1
0
LINE
5
13F
100
AcDbEntity
8
1
62
256
6
ByLayer
370
18
48
1
60
0
100
AcDbLine
10
30.996727
20
-26.613961
30
0
11
29.517862
21
-31.183226
31
0
39
0
210
0
220
0
230
1
0
LINE
5
140
100
AcDbEntity
8
1
62
256
6
ByLayer
370
18
48
1
60
0
100
AcDbLine
10
30.996727
20
-40.226932
30
0
11
30.835554
21
-41.245892
31
0
39
0
210
0
220
0
230
1
0
LINE
5
141
100
AcDbEntity
8
1
62
256
6
ByLayer
370
18
48
1
60
0
100
AcDbLine
10
-7.577671
20
71.545878
30
0
11
-7.276955
21
71.626455
31
0
39
0
210
0
220
0
230
1
0
LINE
5
142
100
AcDbEntity
8
1
62
256
6
ByLayer
370
18
48
1
60
0
100
AcDbLine
10
-7.577671
20
71.054122
30
0
11
-7.276955
21
70.973545
31
0
39
0
210
0
220
0
230
1
0
LINE
5
143
100
AcDbEntity
8
1
62
256
6
ByLayer
370
18
48
1
60
0
100
AcDbLine
10
-7.276955
20
70.973545
30
0
11
-7.022266
21
70.905301
31
0
39
0
210
0
220
0
230
1
0
LINE
5
144
100
AcDbEntity
8
1
62
256
6
ByLayer
370
18
48
1
60
0
100
AcDbLine
10
-7.022266
20
71.694699
30
0
11
-7.276955
21
71.626455
31
0
39
0
210
0
220
0
230
1
0
LINE
5
145
100
AcDbEntity
8
1
62
256
6
ByLayer
370
18
48
1
60
0
100
AcDbLine
10
22.646319
20
-62.286287
30
0
11
19.375856
21
-64.756762
31
0
39
0
210
0
220
0
230
1
0
LINE
5
146
100
AcDbEntity
8
1
62
256
6
ByLayer
370
18
48
1
60
0
100
AcDbLine
10
22.646319
20
-50.461361
30
0
11
30.70981
21
-38.949376
31
0
39
0
210
0
220
0
230
1
0
LINE
5
147
100
AcDbEntity
8
1
62
256
6
ByLayer
370
18
48
1
60
0
100
AcDbLine
10
30.70981
20
-38.949376
30
0
11
27.806758
21
-58.171105
31
0
39
0
210
0
220
0
230
1
0
LINE
5
148
100
AcDbEntity
8
1
62
256
6
ByLayer
370
18
48
1
60
0
100
AcDbLine
10
9.306689
20
-61.922396
30
0
11
9.567301
21
-59.731079
31
0
39
0
210
0
220
0
230
1
0
LINE
5
149
100
AcDbEntity
8
1
62
256
6
ByLayer
370
18
48
1
60
0
100
AcDbLine
10
19.004699
20
-65.044094
30
0
11
19.004699
21
-61.993551
31
0
39
0
210
0
220
0
230
1
0
LINE
5
14A
100
AcDbEntity
8
1
62
256
6
ByLayer
370
18
48
1
60
0
100
AcDbLine
10
19.004699
20
-57.023537
30
0
11
19.004699
21
-48.763513
31
0
39
0
210
0
220
0
230
1
0
LINE
5
14B
100
AcDbEntity
8
1
62
256
6
ByLayer
370
18
48
1
60
0
100
AcDbLine
10
21.908522
20
-62.843547
30
0
11
24.464992
21
-62.9446
31
0
39
0
210
0
220
0
230
1
0
LINE
5
14C
100
AcDbEntity
8
1
62
256
6
ByLayer
370
18
48
1
60
0
100
AcDbLine
10
-3.723423
20
-67.117596
30
0
11
-3.723423
21
-39.106311
31
0
39
0
210
0
220
0
230
1
0
LINE
5
14D
100
AcDbEntity
8
1
62
256
6
ByLayer
370
18
48
1
60
0
100
AcDbLine
10
20.524218
20
-50.384483
30
0
11
22.646319
21
-50.461361
31
0
39
0
210
0
220
0
230
1
0
LINE
5
14E
100
AcDbEntity
8
SK1
62
256
6
ByLayer
370
18
48
1
60
0
100
AcDbLine
10
-15.995301
20
-49.637515
30
0
11
-15.995301
21
-39.738611
31
0
39
0
210
0
220
0
230
1
0
LINE
5
14F
100
AcDbEntity
8
1
62
256
6
ByLayer
370
18
48
1
60
0
100
AcDbLine
10
19.004699
20
-61.993551
30
0
11
20.888532
21
-60.583103
31
0
39
0
210
0
220
0
230
1
0
LINE
5
150
100
AcDbEntity
8
1
62
256
6
ByLayer
370
18
48
1
60
0
100
AcDbLine
10
22.119701
20
-54.691298
30
0
11
19.004699
21
-57.023537
31
0
39
0
210
0
220
0
230
1
0
LINE
5
151
100
AcDbEntity
8
1
62
256
6
ByLayer
370
18
48
1
60
0
100
AcDbLine
10
20.888532
20
-60.583103
30
0
11
22.119701
21
-54.691298
31
0
39
0
210
0
220
0
230
1
0
LINE
5
152
100
AcDbEntity
8
1
62
256
6
ByLayer
370
18
48
1
60
0
100
AcDbLine
10
9.306689
20
-56.952382
30
0
11
19.004699
21
-57.023537
31
0
39
0
210
0
220
0
230
1
0
LINE
5
153
100
AcDbEntity
8
1
62
256
6
ByLayer
370
18
48
1
60
0
100
AcDbLine
10
31.004699
20
-36.474121
30
0
11
31.004699
21
-34.333059
31
0
39
0
210
0
220
0
230
1
0
LINE
5
154
100
AcDbEntity
8
1
62
256
6
ByLayer
370
18
48
1
60
0
100
AcDbLine
10
20.524218
20
-48.381434
30
0
11
20.524218
21
-50.384483
31
0
39
0
210
0
220
0
230
1
0
LINE
5
155
100
AcDbEntity
8
1
62
256
6
ByLayer
370
18
48
1
60
0
100
AcDbLine
10
19.004699
20
-61.993551
30
0
11
9.306689
21
-61.922396
31
0
39
0
210
0
220
0
230
1
0
LINE
5
156
100
AcDbEntity
8
1
62
256
6
ByLayer
370
18
48
1
60
0
100
AcDbLine
10
19.004699
20
-48.763513
30
0
11
19.004699
21
-41.192542
31
0
39
0
210
0
220
0
230
1
0
LINE
5
157
100
AcDbEntity
8
1
62
256
6
ByLayer
370
18
48
1
60
0
100
AcDbLine
10
27.806758
20
-58.171105
30
0
11
27.495879
21
-58.921885
31
0
39
0
210
0
220
0
230
1
0
LINE
5
158
100
AcDbEntity
8
1
62
256
6
ByLayer
370
18
48
1
60
0
100
AcDbLine
10
24.887002
20
-57.635936
30
0
11
24.464992
21
-62.9446
31
0
39
0
210
0
220
0
230
1
0
LINE
5
159
100
AcDbEntity
8
1
62
256
6
ByLayer
370
18
48
1
60
0
100
AcDbLine
10
22.646319
20
-62.286287
30
0
11
24.887002
21
-57.635936
31
0
39
0
210
0
220
0
230
1
0
LINE
5
15A
100
AcDbEntity
8
1
62
256
6
ByLayer
370
18
48
1
60
0
100
AcDbLine
10
22.646319
20
-62.286287
30
0
11
22.646319
21
-50.461361
31
0
39
0
210
0
220
0
230
1
0
LINE
5
15B
100
AcDbEntity
8
SK1
62
256
6
ByLayer
370
18
48
1
60
0
100
AcDbLine
10
-15.995301
20
-49.637515
30
0
11
-3.723497
21
-50.341888
31
0
39
0
210
0
220
0
230
1
0
LINE
5
15C
100
AcDbEntity
8
1
62
256
6
ByLayer
370
18
48
1
60
0
100
AcDbLine
10
14.935562
20
-67.117596
30
0
11
-3.723423
21
-67.117596
31
0
39
0
210
0
220
0
230
1
0
LINE
5
15D
100
AcDbEntity
8
1
62
256
6
ByLayer
370
18
48
1
60
0
100
AcDbLine
10
30.70981
20
-38.949376
30
0
11
31.004699
21
-36.474121
31
0
39
0
210
0
220
0
230
1
0
LINE
5
15E
100
AcDbEntity
8
1
62
256
6
ByLayer
370
18
48
1
60
0
100
AcDbLine
10
9.567301
20
-59.731079
30
0
11
20.888532
21
-60.583103
31
0
39
0
210
0
220
0
230
1
0
LINE
5
15F
100
AcDbEntity
8
1
62
256
6
ByLayer
370
18
48
1
60
0
100
AcDbLine
10
27.495879
20
-58.921885
30
0
11
24.464992
21
-62.9446
31
0
39
0
210
0
220
0
230
1
0
LINE
5
160
100
AcDbEntity
8
1
62
256
6
ByLayer
370
18
48
1
60
0
100
AcDbLine
10
-12.522929
20
-31.688638
30
0
11
-12.678956
21
-31.581574
31
0
39
0
210
0
220
0
230
1
0
LINE
5
161
100
AcDbEntity
8
1
62
256
6
ByLayer
370
18
48
1
60
0
100
AcDbLine
10
-12.230232
20
-31.580698
30
0
11
-12.522929
21
-31.688638
31
0
39
0
210
0
220
0
230
1
0
LINE
5
162
100
AcDbEntity
8
1
62
256
6
ByLayer
370
18
48
1
60
0
100
AcDbLine
10
-10.922126
20
-32.000052
30
0
11
-10.915051
21
-31.952422
31
0
39
0
210
0
220
0
230
1
0
LINE
5
163
100
AcDbEntity
8
1
62
256
6
ByLayer
370
18
48
1
60
0
100
AcDbLine
10
-12.522929
20
-32.590393
30
0
11
-10.922126
21
-32.000052
31
0
39
0
210
0
220
0
230
1
0
LINE
5
164
100
AcDbEntity
8
1
62
256
6
ByLayer
370
18
48
1
60
0
100
AcDbLine
10
-10.922126
20
-32.000052
30
0
11
-10.922126
21
-31.948737
31
0
39
0
210
0
220
0
230
1
0
LINE
5
165
100
AcDbEntity
8
1
62
256
6
ByLayer
370
18
48
1
60
0
100
AcDbLine
10
-12.522929
20
-32.590393
30
0
11
-12.522929
21
-31.688638
31
0
39
0
210
0
220
0
230
1
0
LINE
5
166
100
AcDbEntity
8
1
62
256
6
ByLayer
370
18
48
1
60
0
100
AcDbLine
10
-13.655605
20
-31.813166
30
0
11
-12.522929
21
-32.590393
31
0
39
0
210
0
220
0
230
1
0
MTEXT
5
26A
100
AcDbEntity
8
SK6
62
256
6
ByLayer
370
18
48
1
60
0
100
AcDbMText
10
45.75
20
89.25
30
0
210
0
220
0
230
1
1
\W0.7940;3X R820H-AR30DSYN15
40
3
41
0
44
1.084337
50
0
71
7
72
5
7
iso_b_vert
0
MTEXT
5
26E
100
AcDbEntity
8
2
62
256
6
ByLayer
370
18
48
1
60
0
100
AcDbMText
10
58.283655
20
-19.108244
30
0
210
0
220
0
230
1
1
\W0.7708;Dc = 166.0 - 191.0
40
3
41
0
44
1.084337
50
89.9999999999996
71
7
72
5
7
iso_b_vert
0
DIMENSION
5
279
100
AcDbEntity
8
2
62
256
6
ByLayer
370
13
48
1
60
0
100
AcDbDimension
2
DimnDraft3D1
10
30
20
103.5
30
0
11
11.557895
21
103.5
31
0
70
32
71
5
72
1
41
1
210
0
220
0
230
1
3
Standard
100
AcDbAlignedDimension
13
0
23
2
33
0
14
30
24
85
34
0
50
0
100
AcDbRotatedDimension
1001
ACAD
1000
DSTYLE
1002
{
1070
   279
1070
     0
1070
   172
1070
     1
1070
   173
1070
     1
1070
   340
1005
26B
1070
   271
1070
     1
1070
   272
1070
     3
1070
    77
1070
     1
1070
    73
1070
     0
1070
   171
1070
     4
1070
   274
1070
     4
1070
   177
1070
     7
1070
   176
1070
     7
1070
   178
1070
     7
1070
    41
1041
3.175
1070
   147
1041
1.5
1070
    42
1041
2.0
1070
    44
1041
2.0
1070
   140
1041
3.0
1070
   343
1005
0
1070
   344
1005
0
1002
}
0
DIMENSION
5
283
100
AcDbEntity
8
2
62
256
6
ByLayer
370
13
48
1
60
0
100
AcDbDimension
2
DimnDraft3D2
10
59.302244
20
-82.964856
30
0
11
59.302244
21
-0.416638
31
0
70
32
71
5
72
1
41
1
210
0
220
0
230
1
3
Standard
100
AcDbAlignedDimension
13
32
23
83
33
0
14
31.513915
24
-82.964856
34
0
50
90
100
AcDbRotatedDimension
1001
ACAD
1000
DSTYLE
1002
{
1070
    74
1070
     0
1070
   279
1070
     0
1070
   172
1070
     1
1070
   173
1070
     1
1070
   340
1005
26B
1070
   271
1070
     1
1070
   272
1070
     3
1070
    77
1070
     1
1070
    73
1070
     0
1070
   171
1070
     4
1070
   274
1070
     4
1070
   177
1070
     7
1070
   176
1070
     7
1070
   178
1070
     7
1070
    78
1070
     8
1070
    41
1041
3.175
1070
   147
1041
1.5
1070
    42
1041
2.0
1070
    44
1041
2.0
1070
   140
1041
3.0
1070
   343
1005
0
1070
   344
1005
0
1002
}
0
DIMENSION
5
28D
100
AcDbEntity
8
2
62
256
6
ByLayer
370
13
48
1
60
0
100
AcDbDimension
2
DimnDraft3D3
10
31
20
83
30
0
11
42.63508
21
71.627554
31
0
70
34
71
5
72
1
41
1
210
0
220
0
230
1
3
Standard
100
AcDb2LineAngularDimension
13
31.558611
23
68.215519
33
0
14
30.079746
24
82.285975
34
0
15
30
25
83
35
0
16
44.864514
26
69.620162
36
0
40
0
0
ENDSEC
0
SECTION
2
OBJECTS
0
DICTIONARY
5
2fc
330
0
100
AcDbDictionary
280
0
281
1
3
ACAD_GROUP
350
2fd
3
ACAD_GROUP
350
2fe
3
ACAD_MLINESTYLE
350
2ff
0
DICTIONARY
5
2fd
330
0
100
AcDbDictionary
280
0
281
1
0
DICTIONARY
5
2fe
330
0
100
AcDbDictionary
280
0
281
1
3
_DC
350
298
3
_DC_55
350
297
3
<200928252MOD000_00>
350
296
3
<200929485NDI000_00>
350
299
0
DICTIONARY
5
2ff
330
0
100
AcDbDictionary
280
0
281
1
3
Standard
350
18
0
GROUP
5
298
330
2fe
100
AcDbGroup
300

70
0
71
1
340
26E
0
GROUP
5
297
330
2fe
100
AcDbGroup
300

70
0
71
1
340
26E
340
26E
0
GROUP
5
296
330
2fe
100
AcDbGroup
300

70
0
71
1
340
6C
340
6E
340
70
340
72
340
73
340
75
340
77
340
78
340
79
340
7A
340
7B
340
7C
340
7D
340
7E
340
7F
340
80
340
81
340
82
340
83
340
84
340
85
340
86
340
87
340
88
340
89
340
8A
340
8B
340
8C
340
8D
340
8E
340
8F
340
90
340
91
340
92
340
93
340
94
340
95
340
96
340
97
340
98
340
99
340
9A
340
9B
340
9C
340
9D
340
9E
340
9F
340
A0
340
A1
340
A2
340
A3
340
A4
340
A5
340
A6
340
A7
340
A8
340
A9
340
AA
340
AB
340
AC
340
AD
340
AE
340
AF
340
B0
340
B1
340
B2
340
B3
340
B4
340
B5
340
B6
340
B7
340
B8
340
B9
340
BA
340
BB
340
BC
340
BD
340
BE
340
BF
340
C0
340
C1
340
C2
340
C3
340
C4
340
C5
340
C6
340
C7
340
C8
340
C9
340
CA
340
CB
340
CC
340
CD
340
CE
340
CF
340
D0
340
D1
340
D2
340
D3
340
D4
340
D5
340
D6
340
D7
340
D8
340
D9
340
DA
340
DB
340
DC
340
DD
340
DE
340
DF
340
E0
340
E1
340
E2
340
E3
340
E4
340
E5
340
E6
340
E8
340
E9
340
EA
340
EB
340
EC
340
ED
340
EE
340
EF
340
F0
340
F1
340
F2
340
F3
340
F4
340
F5
340
F6
340
F7
340
F8
340
F9
340
FA
340
FB
340
FC
340
FD
340
FE
340
FF
340
100
340
101
340
102
340
103
340
104
340
105
340
106
340
107
340
108
340
109
340
10A
340
10B
340
10C
340
10D
340
10E
340
10F
340
110
340
111
340
112
340
113
340
114
340
115
340
116
340
117
340
118
340
119
340
11A
340
11B
340
11C
340
11D
340
11E
340
11F
340
120
340
121
340
122
340
123
340
124
340
125
340
126
340
127
340
128
340
129
340
12A
340
12B
340
12C
340
12D
340
12E
340
12F
340
130
340
131
340
132
340
133
340
134
340
135
340
136
340
137
340
138
340
139
340
13A
340
13B
340
13C
340
13D
340
13E
340
13F
340
140
340
141
340
142
340
143
340
144
340
145
340
146
340
147
340
148
340
149
340
14A
340
14B
340
14C
340
14D
340
14E
340
14F
340
150
340
151
340
152
340
153
340
154
340
155
340
156
340
157
340
158
340
159
340
15A
340
15B
340
15C
340
15D
340
15E
340
15F
340
160
340
161
340
162
340
163
340
164
340
165
340
166
340
167
340
168
340
169
340
16A
340
16B
340
16C
340
16D
340
16E
340
16F
340
170
340
171
340
172
340
173
340
174
340
175
340
176
340
177
340
178
340
179
340
17A
340
17B
340
17C
340
17D
340
17E
340
17F
340
180
340
181
340
182
340
183
340
184
340
185
340
186
340
187
340
188
340
189
340
18A
340
18B
340
18C
340
18D
340
18E
340
18F
340
190
340
191
340
192
340
193
340
194
340
195
340
196
340
197
340
198
340
199
340
19A
340
19B
340
19C
340
19D
340
19E
340
19F
340
1A0
340
1A1
340
1A2
340
1A3
340
1A4
340
1A5
340
1A6
340
1A7
340
1A8
340
1A9
340
1AA
340
1AB
340
1AC
340
1AD
340
1AE
340
1AF
340
1B0
340
1B1
340
1B2
340
1B3
340
1B4
340
1B5
340
1B6
340
1B7
340
1B8
340
1B9
340
1BA
340
1BB
340
1BC
340
1BD
340
1BE
340
1BF
340
1C0
340
1C1
340
1C2
340
1C3
340
1C4
340
1C5
340
1C6
340
1C7
340
1C8
340
1C9
340
1CA
340
1CB
340
1CC
340
1CD
340
1CE
340
1CF
340
1D0
340
1D1
340
1D2
340
1D3
340
1D4
340
1D5
340
1D6
340
1D7
340
1D8
340
1D9
340
1DA
340
1DB
340
1DC
340
1DD
340
1DE
340
1DF
340
1E0
340
1E1
340
1E2
340
1E3
340
1E4
340
1E5
340
1E6
340
1E7
340
1E8
340
1E9
340
1EA
340
1EB
340
1EC
340
1ED
340
1EE
340
1EF
340
1F0
340
1F1
340
1F2
340
1F3
340
1F4
340
1F5
340
1F6
340
1F7
340
1F8
340
1F9
340
1FA
340
1FB
340
1FC
340
1FD
340
1FE
340
1FF
340
200
340
201
340
202
340
203
340
204
340
205
340
206
340
207
340
208
340
209
340
20A
340
20B
340
20C
340
20D
340
20E
340
20F
340
210
340
211
340
212
340
213
340
214
340
215
340
216
340
217
340
218
340
219
340
21A
340
21B
340
21C
340
21D
340
21E
340
21F
340
220
340
221
340
222
340
223
340
224
340
225
340
226
340
227
340
228
340
229
340
22A
340
22B
340
22C
340
22D
340
22E
340
22F
340
230
340
231
340
232
340
233
340
234
340
235
340
236
340
237
340
238
340
239
340
23A
340
23B
340
23C
340
23D
340
23E
340
23F
340
240
340
241
340
242
340
243
340
244
340
245
340
246
340
247
340
248
340
249
340
24A
340
24B
340
24C
340
24D
340
24E
340
24F
340
250
340
251
340
252
340
253
340
254
340
255
340
256
340
257
340
258
340
259
340
25A
340
25B
340
25C
340
25D
340
25E
340
25F
340
260
340
261
340
262
340
263
340
264
340
265
340
266
340
267
340
268
340
269
340
26E
340
26E
340
26E
340
79
340
7A
340
7B
340
7C
340
7D
340
7E
340
7F
340
80
340
81
340
82
340
83
340
84
340
85
340
86
340
87
340
88
340
89
340
8A
340
8B
340
8C
340
8D
340
8E
340
8F
340
90
340
91
340
92
340
93
340
94
340
95
340
96
340
97
340
98
340
99
340
9A
340
9B
340
9C
340
9D
340
9E
340
9F
340
A0
340
A1
340
A2
340
A3
340
A4
340
A5
340
A6
340
A7
340
A8
340
A9
340
AA
340
AB
340
AC
340
AD
340
AE
340
AF
340
B0
340
B1
340
B2
340
B3
340
B4
340
B5
340
B6
340
B7
340
B8
340
B9
340
BA
340
BB
340
BC
340
BD
340
BE
340
BF
340
C0
340
C1
340
C2
340
C3
340
C4
340
C5
340
C6
340
C7
340
C8
340
C9
340
CA
340
CB
340
CC
340
CD
340
CE
340
CF
340
D0
340
D1
340
D2
340
D3
340
D4
340
D5
340
D6
340
D7
340
D8
340
D9
340
DA
340
DB
340
DC
340
DD
340
DE
340
DF
340
E0
340
E1
340
E2
340
E3
340
E4
340
E5
340
E6
340
E8
340
E9
340
EA
340
EB
340
EC
340
ED
340
EE
340
EF
340
F0
340
F1
340
F2
340
F3
340
F4
340
F5
340
F6
340
F7
340
F8
340
F9
340
FA
340
FB
340
FC
340
FD
340
FE
340
FF
340
100
340
101
340
102
340
103
340
104
340
105
340
106
340
107
340
108
340
109
340
10A
340
10B
340
10C
340
10D
340
10E
340
10F
340
110
340
111
340
112
340
113
340
114
340
115
340
116
340
117
340
118
340
119
340
11A
340
11B
340
11C
340
11D
340
11E
340
11F
340
120
340
121
340
122
340
123
340
124
340
125
340
126
340
127
340
128
340
129
340
12A
340
12B
340
12C
340
12D
340
12E
340
12F
340
130
340
131
340
132
340
133
340
134
340
135
340
136
340
137
340
138
340
139
340
13A
340
13B
340
13C
340
13D
340
13E
340
13F
340
140
340
141
340
142
340
143
340
144
340
145
340
146
340
147
340
148
340
149
340
14A
340
14B
340
14C
340
14D
340
14E
340
14F
340
150
340
151
340
152
340
153
340
154
340
155
340
156
340
157
340
158
340
159
340
15A
340
15B
340
15C
340
15D
340
15E
340
15F
340
160
340
161
340
162
340
163
340
164
340
165
340
166
340
173
340
174
340
175
340
176
340
177
340
178
340
179
340
17A
340
17B
340
17C
340
17D
340
17E
340
17F
340
180
340
181
340
182
340
183
340
184
340
185
340
186
340
187
340
188
340
189
340
18A
340
18B
340
18C
340
18D
340
18E
340
18F
340
190
340
191
340
192
340
193
340
194
340
195
340
196
340
197
340
198
340
199
340
19A
340
19B
340
19C
340
19D
340
19E
340
19F
340
1A0
340
1A1
340
1A2
340
1A3
340
1A4
340
1A5
340
1A6
340
1A7
340
1A8
340
1A9
340
1AA
340
1AB
340
1AC
340
1AD
340
1AE
340
1AF
340
1B0
340
1B1
340
1B2
340
1B3
340
1B4
340
1B5
340
1B6
340
1B7
340
1B8
340
1B9
340
1BA
340
1BB
340
1BC
340
1BD
340
1BE
340
1BF
340
1C0
340
1C1
340
1C2
340
1C3
340
1C4
340
1C5
340
1C6
340
1C7
340
1C8
340
1C9
340
1CA
340
1CB
340
1CC
340
1CD
340
1CE
340
1CF
340
1D0
340
1D1
340
1D2
340
1D3
340
1D4
340
1D5
340
1D6
340
1D7
340
1D8
340
1D9
340
1DA
340
1DB
340
1DC
340
1DD
340
1DE
340
1DF
340
1E0
340
1E1
340
1E2
340
1E3
340
1E4
340
1E5
340
1E6
340
1E7
340
1E8
340
1E9
340
1EA
340
1EB
340
1EC
340
1ED
340
1EE
340
1EF
340
1F0
340
1F1
340
1F2
340
1F3
340
1F4
340
1F5
340
1F6
340
1F7
340
1F8
340
1F9
340
1FA
340
1FB
340
1FC
340
1FD
340
1FE
340
1FF
340
200
340
201
340
202
340
203
340
204
340
205
340
206
340
207
340
208
340
209
340
20A
340
20B
340
20C
340
20D
340
20E
340
20F
340
210
340
211
340
212
340
213
340
214
340
215
340
216
340
217
340
218
340
219
340
21A
340
21B
340
21C
340
21D
340
21E
340
21F
340
220
340
221
340
222
340
223
340
224
340
225
340
226
340
227
340
228
340
229
340
22A
340
22B
340
22C
340
22D
340
22E
340
22F
340
230
340
231
340
232
340
233
340
234
340
235
340
236
340
237
340
238
340
239
340
23A
340
23B
340
23C
340
23D
340
23E
340
23F
340
240
340
241
340
242
340
243
340
244
340
245
340
246
340
247
340
248
340
249
340
24A
340
24B
340
24C
340
24D
340
24E
340
24F
340
250
340
251
340
252
340
253
340
254
340
255
340
256
340
257
340
258
340
259
340
25A
340
25B
340
25C
340
25D
340
25E
340
25F
340
260
340
261
340
262
340
263
340
264
340
265
340
266
340
267
340
268
340
269
340
26A
340
26E
340
279
340
283
340
28D
0
GROUP
5
299
330
2fe
100
AcDbGroup
300

70
0
71
1
340
79
340
7A
340
7B
340
7C
340
7D
340
7E
340
7F
340
80
340
81
340
82
340
83
340
84
340
85
340
86
340
87
340
88
340
89
340
8A
340
8B
340
8C
340
8D
340
8E
340
8F
340
90
340
91
340
92
340
93
340
94
340
95
340
96
340
97
340
98
340
99
340
9A
340
9B
340
9C
340
9D
340
9E
340
9F
340
A0
340
A1
340
A2
340
A3
340
A4
340
A5
340
A6
340
A7
340
A8
340
A9
340
AA
340
AB
340
AC
340
AD
340
AE
340
AF
340
B0
340
B1
340
B2
340
B3
340
B4
340
B5
340
B6
340
B7
340
B8
340
B9
340
BA
340
BB
340
BC
340
BD
340
BE
340
BF
340
C0
340
C1
340
C2
340
C3
340
C4
340
C5
340
C6
340
C7
340
C8
340
C9
340
CA
340
CB
340
CC
340
CD
340
CE
340
CF
340
D0
340
D1
340
D2
340
D3
340
D4
340
D5
340
D6
340
D7
340
D8
340
D9
340
DA
340
DB
340
DC
340
DD
340
DE
340
DF
340
E0
340
E1
340
E2
340
E3
340
E4
340
E5
340
E6
340
E8
340
E9
340
EA
340
EB
340
EC
340
ED
340
EE
340
EF
340
F0
340
F1
340
F2
340
F3
340
F4
340
F5
340
F6
340
F7
340
F8
340
F9
340
FA
340
FB
340
FC
340
FD
340
FE
340
FF
340
100
340
101
340
102
340
103
340
104
340
105
340
106
340
107
340
108
340
109
340
10A
340
10B
340
10C
340
10D
340
10E
340
10F
340
110
340
111
340
112
340
113
340
114
340
115
340
116
340
117
340
118
340
119
340
11A
340
11B
340
11C
340
11D
340
11E
340
11F
340
120
340
121
340
122
340
123
340
124
340
125
340
126
340
127
340
128
340
129
340
12A
340
12B
340
12C
340
12D
340
12E
340
12F
340
130
340
131
340
132
340
133
340
134
340
135
340
136
340
137
340
138
340
139
340
13A
340
13B
340
13C
340
13D
340
13E
340
13F
340
140
340
141
340
142
340
143
340
144
340
145
340
146
340
147
340
148
340
149
340
14A
340
14B
340
14C
340
14D
340
14E
340
14F
340
150
340
151
340
152
340
153
340
154
340
155
340
156
340
157
340
158
340
159
340
15A
340
15B
340
15C
340
15D
340
15E
340
15F
340
160
340
161
340
162
340
163
340
164
340
165
340
166
340
173
340
174
340
175
340
176
340
177
340
178
340
179
340
17A
340
17B
340
17C
340
17D
340
17E
340
17F
340
180
340
181
340
182
340
183
340
184
340
185
340
186
340
187
340
188
340
189
340
18A
340
18B
340
18C
340
18D
340
18E
340
18F
340
190
340
191
340
192
340
193
340
194
340
195
340
196
340
197
340
198
340
199
340
19A
340
19B
340
19C
340
19D
340
19E
340
19F
340
1A0
340
1A1
340
1A2
340
1A3
340
1A4
340
1A5
340
1A6
340
1A7
340
1A8
340
1A9
340
1AA
340
1AB
340
1AC
340
1AD
340
1AE
340
1AF
340
1B0
340
1B1
340
1B2
340
1B3
340
1B4
340
1B5
340
1B6
340
1B7
340
1B8
340
1B9
340
1BA
340
1BB
340
1BC
340
1BD
340
1BE
340
1BF
340
1C0
340
1C1
340
1C2
340
1C3
340
1C4
340
1C5
340
1C6
340
1C7
340
1C8
340
1C9
340
1CA
340
1CB
340
1CC
340
1CD
340
1CE
340
1CF
340
1D0
340
1D1
340
1D2
340
1D3
340
1D4
340
1D5
340
1D6
340
1D7
340
1D8
340
1D9
340
1DA
340
1DB
340
1DC
340
1DD
340
1DE
340
1DF
340
1E0
340
1E1
340
1E2
340
1E3
340
1E4
340
1E5
340
1E6
340
1E7
340
1E8
340
1E9
340
1EA
340
1EB
340
1EC
340
1ED
340
1EE
340
1EF
340
1F0
340
1F1
340
1F2
340
1F3
340
1F4
340
1F5
340
1F6
340
1F7
340
1F8
340
1F9
340
1FA
340
1FB
340
1FC
340
1FD
340
1FE
340
1FF
340
200
340
201
340
202
340
203
340
204
340
205
340
206
340
207
340
208
340
209
340
20A
340
20B
340
20C
340
20D
340
20E
340
20F
340
210
340
211
340
212
340
213
340
214
340
215
340
216
340
217
340
218
340
219
340
21A
340
21B
340
21C
340
21D
340
21E
340
21F
340
220
340
221
340
222
340
223
340
224
340
225
340
226
340
227
340
228
340
229
340
22A
340
22B
340
22C
340
22D
340
22E
340
22F
340
230
340
231
340
232
340
233
340
234
340
235
340
236
340
237
340
238
340
239
340
23A
340
23B
340
23C
340
23D
340
23E
340
23F
340
240
340
241
340
242
340
243
340
244
340
245
340
246
340
247
340
248
340
249
340
24A
340
24B
340
24C
340
24D
340
24E
340
24F
340
250
340
251
340
252
340
253
340
254
340
255
340
256
340
257
340
258
340
259
340
25A
340
25B
340
25C
340
25D
340
25E
340
25F
340
260
340
261
340
262
340
263
340
264
340
265
340
266
340
267
340
268
340
269
0
MLINESTYLE
5
18
330
2ff
100
AcDbMlineStyle
2
Standard
70
0
3

62
256
51
90
52
90
71
2
49
-0.5
62
256
6
ByLayer
49
0.5
62
256
6
ByLayer
0
RASTERVARIABLES
5
2ea
330

100
AcDbRasterVariables
90
0
70
1
71
1
72
1
0
ENDSEC
0
EOF
