0
SECTION
2
HEADER
9
$ACADVER
1
AC1015
9
$DWGCODEPAGE
3
ANSI_1252
9
$HANDSEED
5
136
9
$ANGBASE
50
0
9
$ANGDIR
70
0
9
$ATTMODE
70
1
9
$AUNITS
70
0
9
$AUPREC
70
0
9
$CECOLOR
62
256
9
$CELTSCALE
40
1
9
$CELTYPE
6
ByLayer
9
$CELWEIGHT
370
-1
9
$CLAYER
8
0
9
$CMLJUST
70
0
9
$CMLSCALE
40
1
9
$CMLSTYLE
2
Standard
9
$DIMSTYLE
2
Standard
9
$TEXTSIZE
40
0.2
9
$TEXTSTYLE
7
Standard
9
$LUNITS
70
2
9
$LUPREC
70
4
9
$EXTNAMES
290
1
9
$INSUNITS
70
4
9
$LTSCALE
40
1
9
$LWDISPLAY
290
0
9
$PDMODE
70
0
9
$PDSIZE
40
0
9
$PLINEGEN
70
0
0
ENDSEC
0
SECTION
2
CLASSES
0
CLASS
1
RASTERVARIABLES
2
AcDbRasterVariables
3
ISM
90
0
280
0
281
0
0
ENDSEC
0
SECTION
2
TABLES
0
TABLE
2
VPORT
5
12c
100
AcDbSymbolTable
0
VPORT
5
1
100
AcDbSymbolTableRecord
100
AcDbViewportTableRecord
2
*Active
70
0
10
0
20
0
11
1
21
1
12
-1
22
1
13
0
23
0
14
0.5
24
0.5
15
10
25
10
16
0
26
0
36
1
17
0
27
0
37
0
0
ENDTAB
0
TABLE
2
LTYPE
5
12d
100
AcDbSymbolTable
0
LTYPE
5
14
100
AcDbSymbolTableRecord
100
AcDbLinetypeTableRecord
70
0
2
ByBlock
3

72
65
73
0
40
0
0
LTYPE
5
15
100
AcDbSymbolTableRecord
100
AcDbLinetypeTableRecord
70
0
2
ByLayer
3

72
65
73
0
40
0
0
LTYPE
5
16
100
AcDbSymbolTableRecord
100
AcDbLinetypeTableRecord
70
0
2
CONTINUOUS
3
Solid line
72
65
73
0
40
0
0
LTYPE
5
3C
100
AcDbSymbolTableRecord
100
AcDbLinetypeTableRecord
70
0
2
DASHED
3
__ __ __ __ __ __ __ __ __
72
65
73
2
40
25.72
49
12.86
74
0
49
-12.86
74
0
0
LTYPE
5
3D
100
AcDbSymbolTableRecord
100
AcDbLinetypeTableRecord
70
0
2
HIDDEN
3
_ _ _ _ _ _ _ _ _ _ _ _ _ _ _
72
65
73
2
40
0.5
49
0.25
74
0
49
-0.25
74
0
0
LTYPE
5
3E
100
AcDbSymbolTableRecord
100
AcDbLinetypeTableRecord
70
0
2
PHANTOM
3
____ _ _ ____ _ _ _____ _ _ ____
72
65
73
6
40
50.5
49
18
74
0
49
-6.5
74
0
49
6.5
74
0
49
-6.5
74
0
49
6.5
74
0
49
-6.5
74
0
0
LTYPE
5
3F
100
AcDbSymbolTableRecord
100
AcDbLinetypeTableRecord
70
0
2
CENTER
3
____ _ ____ _ ____ _ ____
72
65
73
4
40
47.5
49
22
74
0
49
-8.5
74
0
49
8.5
74
0
49
-8.5
74
0
0
LTYPE
5
40
100
AcDbSymbolTableRecord
100
AcDbLinetypeTableRecord
70
0
2
DOT
3
.........................
72
65
73
2
40
10
49
0
74
0
49
-10
74
0
0
LTYPE
5
41
100
AcDbSymbolTableRecord
100
AcDbLinetypeTableRecord
70
0
2
DASHDOT
3
_._._._._._._._._._._._._._._._.
72
65
73
4
40
70
49
31
74
0
49
-13
74
0
49
13
74
0
49
-13
74
0
0
ENDTAB
0
TABLE
2
LAYER
5
12e
100
AcDbSymbolTable
0
LAYER
5
10
100
AcDbSymbolTableRecord
100
AcDbLayerTableRecord
2
0
70
0
62
7
6
CONTINUOUS
290
1
370
-3
390
0
0
LAYER
5
43
100
AcDbSymbolTableRecord
100
AcDbLayerTableRecord
2
80
70
0
62
-6
6
CONTINUOUS
290
1
370
-3
390
0
0
LAYER
5
45
100
AcDbSymbolTableRecord
100
AcDbLayerTableRecord
2
81
70
0
62
-3
6
CONTINUOUS
290
1
370
-3
390
0
0
LAYER
5
47
100
AcDbSymbolTableRecord
100
AcDbLayerTableRecord
2
1
70
0
62
4
6
CONTINUOUS
290
1
370
-3
390
0
0
LAYER
5
4E
100
AcDbSymbolTableRecord
100
AcDbLayerTableRecord
2
4
70
0
62
-2
6
CENTER
290
1
370
-3
390
0
0
LAYER
5
B0
100
AcDbSymbolTableRecord
100
AcDbLayerTableRecord
2
2
70
0
62
7
6
CONTINUOUS
290
1
370
-3
390
0
0
LAYER
5
118
100
AcDbSymbolTableRecord
100
AcDbLayerTableRecord
2
SK1
70
0
62
4
6
CONTINUOUS
290
1
370
-3
390
0
0
LAYER
5
119
100
AcDbSymbolTableRecord
100
AcDbLayerTableRecord
2
SK4
70
0
62
2
6
CENTER
290
1
370
-3
390
0
0
LAYER
5
11a
100
AcDbSymbolTableRecord
100
AcDbLayerTableRecord
2
SK6
70
0
62
5
6
CONTINUOUS
290
1
370
-3
390
0
0
LAYER
5
11b
100
AcDbSymbolTableRecord
100
AcDbLayerTableRecord
2
SK2
70
0
62
7
6
CONTINUOUS
290
1
370
-3
390
0
0
ENDTAB
0
TABLE
2
STYLE
5
12f
100
AcDbSymbolTable
0
STYLE
5
11
100
AcDbSymbolTableRecord
100
AcDbTextStyleTableRecord
2
Standard
3
txt
70
0
71
0
40
0
41
1
42
0
50
0
0
STYLE
5
95
100
AcDbSymbolTableRecord
100
AcDbTextStyleTableRecord
2
DEFAULT
3
simplex.shx
70
0
71
0
40
0
41
1
42
0
50
0
0
STYLE
5
96
100
AcDbSymbolTableRecord
100
AcDbTextStyleTableRecord
2
DWGDirectTextStyle
3
SIMPLEX
70
0
71
0
40
0
41
1
42
0
50
0
0
ENDTAB
0
TABLE
2
DIMSTYLE
5
130
100
AcDbSymbolTable
100
AcDbDimStyleTable
0
DIMSTYLE
105
27
100
AcDbSymbolTableRecord
100
AcDbDimStyleTableRecord
2
Standard
70
0
3
<>
41
0.18
42
0.0625
44
0.18
140
0.18
147
0.09
73
0
74
0
77
1
271
2
275
0
278
52
280
0
340
11
0
ENDTAB
0
TABLE
2
VIEW
5
131
100
AcDbSymbolTable
0
ENDTAB
0
TABLE
2
UCS
5
132
100
AcDbSymbolTable
0
ENDTAB
0
TABLE
2
APPID
5
133
100
AcDbSymbolTable
0
APPID
5
12
100
AcDbSymbolTableRecord
100
AcDbRegAppTableRecord
2
ACAD
70
0
0
ENDTAB
0
TABLE
2
BLOCK_RECORD
5
134
100
AcDbSymbolTable
0
BLOCK_RECORD
5
1F
100
AcDbSymbolTableRecord
100
AcDbBlockTableRecord
2
*Model_Space
340
0
70
0
0
BLOCK_RECORD
5
1B
100
AcDbSymbolTableRecord
100
AcDbBlockTableRecord
2
*Paper_Space
340
0
70
0
0
BLOCK_RECORD
5
23
100
AcDbSymbolTableRecord
100
AcDbBlockTableRecord
2
*Paper_Space0
340
0
70
0
0
BLOCK_RECORD
5
98
100
AcDbSymbolTableRecord
100
AcDbBlockTableRecord
2
DimnDraft3D1
340
0
70
0
0
BLOCK_RECORD
5
A7
100
AcDbSymbolTableRecord
100
AcDbBlockTableRecord
2
_CLOSED
340
0
70
0
0
BLOCK_RECORD
5
AE
100
AcDbSymbolTableRecord
100
AcDbBlockTableRecord
2
DimnDraft3D2
340
0
70
0
0
BLOCK_RECORD
5
BD
100
AcDbSymbolTableRecord
100
AcDbBlockTableRecord
2
DimnDraft3D3
340
0
70
0
0
BLOCK_RECORD
5
CC
100
AcDbSymbolTableRecord
100
AcDbBlockTableRecord
2
DimnDraft3D4
340
0
70
0
0
ENDTAB
0
ENDSEC
0
SECTION
2
BLOCKS
0
BLOCK
5
20
100
AcDbEntity
8
0
100
AcDbBlockBegin
2
*Model_Space
70
0
10
0
20
0
30
0
3
*Model_Space
0
ENDBLK
5
21
100
AcDbEntity
8
0
100
AcDbBlockEnd
0
BLOCK
5
1C
100
AcDbEntity
8
0
100
AcDbBlockBegin
2
*Paper_Space
70
0
10
0
20
0
30
0
3
*Paper_Space
0
ENDBLK
5
1D
100
AcDbEntity
8
0
100
AcDbBlockEnd
0
BLOCK
5
24
100
AcDbEntity
8
0
100
AcDbBlockBegin
2
*Paper_Space0
70
0
10
0
20
0
30
0
3
*Paper_Space0
0
ENDBLK
5
25
100
AcDbEntity
8
0
100
AcDbBlockEnd
0
BLOCK
5
A4
100
AcDbEntity
8
0
100
AcDbBlockBegin
2
DimnDraft3D1
70
0
10
0
20
0
30
0
3
DimnDraft3D1
0
MTEXT
5
99
100
AcDbEntity
8
SK2
62
256
6
ByLayer
370
-1
48
1
60
0
100
AcDbMText
10
-71.886842
20
55.200876
30
0
210
0
220
0
230
1
1
\W01.000;\fsimplex.shx,bigfont.shx;140\P
40
3
41
0
44
1.084337
50
0
71
7
72
5
7
DEFAULT
0
LINE
5
9B
100
AcDbEntity
8
SK2
62
256
6
ByLayer
370
-1
48
1
60
0
100
AcDbLine
10
-140
20
30
30
0
11
-140
21
57.450876
31
0
39
0
210
0
220
0
230
1
0
LINE
5
9C
100
AcDbEntity
8
SK2
62
256
6
ByLayer
370
-1
48
1
60
0
100
AcDbLine
10
0
20
41
30
0
11
0
21
57.450876
31
0
39
0
210
0
220
0
230
1
0
LINE
5
9D
100
AcDbEntity
8
SK2
62
256
6
ByLayer
370
-1
48
1
60
0
100
AcDbLine
10
-140
20
54.450876
30
0
11
0
21
54.450876
31
0
39
0
210
0
220
0
230
1
0
LINE
5
9E
100
AcDbEntity
8
SK2
62
256
6
ByLayer
370
-1
48
1
60
0
100
AcDbLine
10
-140
20
54.450876
30
0
11
-137.000002
21
54.950876
31
0
39
0
210
0
220
0
230
1
0
LINE
5
9F
100
AcDbEntity
8
SK2
62
256
6
ByLayer
370
-1
48
1
60
0
100
AcDbLine
10
-140
20
54.450876
30
0
11
-136.999998
21
53.950876
31
0
39
0
210
0
220
0
230
1
0
LINE
5
A0
100
AcDbEntity
8
SK2
62
256
6
ByLayer
370
-1
48
1
60
0
100
AcDbLine
10
-137.000002
20
54.950876
30
0
11
-136.999998
21
53.950876
31
0
39
0
210
0
220
0
230
1
0
LINE
5
A1
100
AcDbEntity
8
SK2
62
256
6
ByLayer
370
-1
48
1
60
0
100
AcDbLine
10
0
20
54.450876
30
0
11
-2.999998
21
53.950876
31
0
39
0
210
0
220
0
230
1
0
LINE
5
A2
100
AcDbEntity
8
SK2
62
256
6
ByLayer
370
-1
48
1
60
0
100
AcDbLine
10
0
20
54.450876
30
0
11
-3.000002
21
54.950876
31
0
39
0
210
0
220
0
230
1
0
LINE
5
A3
100
AcDbEntity
8
SK2
62
256
6
ByLayer
370
-1
48
1
60
0
100
AcDbLine
10
-2.999998
20
53.950876
30
0
11
-3.000002
21
54.950876
31
0
39
0
210
0
220
0
230
1
0
ENDBLK
5
A5
100
AcDbEntity
8
0
100
AcDbBlockEnd
0
BLOCK
5
A8
100
AcDbEntity
8
0
100
AcDbBlockBegin
2
_CLOSED
70
0
10
0
20
0
30
0
3
_CLOSED
0
LINE
5
AA
100
AcDbEntity
8
0
62
256
6
ByLayer
370
-2
48
1
60
0
100
AcDbLine
10
-1
20
0.166667
30
0
11
0
21
0
31
0
39
0
210
0
220
0
230
1
0
LINE
5
AB
100
AcDbEntity
8
0
62
256
6
ByLayer
370
-2
48
1
60
0
100
AcDbLine
10
0
20
0
30
0
11
-1
21
-0.166667
31
0
39
0
210
0
220
0
230
1
0
LINE
5
AC
100
AcDbEntity
8
0
62
256
6
ByLayer
370
-2
48
1
60
0
100
AcDbLine
10
-1
20
0.166667
30
0
11
-1
21
-0.166667
31
0
39
0
210
0
220
0
230
1
0
LINE
5
AD
100
AcDbEntity
8
0
62
256
6
ByLayer
370
-2
48
1
60
0
100
AcDbLine
10
0
20
0
30
0
11
-1
21
0
31
0
39
0
210
0
220
0
230
1
0
ENDBLK
5
A9
100
AcDbEntity
8
0
100
AcDbBlockEnd
0
BLOCK
5
BA
100
AcDbEntity
8
0
100
AcDbBlockBegin
2
DimnDraft3D2
70
0
10
0
20
0
30
0
3
DimnDraft3D2
0
MTEXT
5
AF
100
AcDbEntity
8
2
62
256
6
ByLayer
370
-1
48
1
60
0
100
AcDbMText
10
5.372368
20
55.200876
30
0
210
0
220
0
230
1
1
\W01.000;\fsimplex.shx,bigfont.shx;12\P
40
3
41
0
44
1.084337
50
0
71
7
72
5
7
DEFAULT
0
LINE
5
B1
100
AcDbEntity
8
2
62
256
6
ByLayer
370
-1
48
1
60
0
100
AcDbLine
10
0
20
41
30
0
11
0
21
57.450876
31
0
39
0
210
0
220
0
230
1
0
LINE
5
B2
100
AcDbEntity
8
2
62
256
6
ByLayer
370
-1
48
1
60
0
100
AcDbLine
10
12
20
41
30
0
11
12
21
57.450876
31
0
39
0
210
0
220
0
230
1
0
LINE
5
B3
100
AcDbEntity
8
2
62
256
6
ByLayer
370
-1
48
1
60
0
100
AcDbLine
10
0
20
54.450876
30
0
11
12
21
54.450876
31
0
39
0
210
0
220
0
230
1
0
LINE
5
B4
100
AcDbEntity
8
2
62
256
6
ByLayer
370
-1
48
1
60
0
100
AcDbLine
10
0
20
54.450876
30
0
11
2.999998
21
54.979856
31
0
39
0
210
0
220
0
230
1
0
LINE
5
B5
100
AcDbEntity
8
2
62
256
6
ByLayer
370
-1
48
1
60
0
100
AcDbLine
10
0
20
54.450876
30
0
11
3.000002
21
53.921895
31
0
39
0
210
0
220
0
230
1
0
LINE
5
B6
100
AcDbEntity
8
2
62
256
6
ByLayer
370
-1
48
1
60
0
100
AcDbLine
10
2.999998
20
54.979856
30
0
11
3.000002
21
53.921895
31
0
39
0
210
0
220
0
230
1
0
LINE
5
B7
100
AcDbEntity
8
2
62
256
6
ByLayer
370
-1
48
1
60
0
100
AcDbLine
10
12
20
54.450876
30
0
11
9.000002
21
53.921895
31
0
39
0
210
0
220
0
230
1
0
LINE
5
B8
100
AcDbEntity
8
2
62
256
6
ByLayer
370
-1
48
1
60
0
100
AcDbLine
10
12
20
54.450876
30
0
11
8.999998
21
54.979856
31
0
39
0
210
0
220
0
230
1
0
LINE
5
B9
100
AcDbEntity
8
2
62
256
6
ByLayer
370
-1
48
1
60
0
100
AcDbLine
10
9.000002
20
53.921895
30
0
11
8.999998
21
54.979856
31
0
39
0
210
0
220
0
230
1
0
ENDBLK
5
BB
100
AcDbEntity
8
0
100
AcDbBlockEnd
0
BLOCK
5
C9
100
AcDbEntity
8
0
100
AcDbBlockBegin
2
DimnDraft3D3
70
0
10
0
20
0
30
0
3
DimnDraft3D3
0
MTEXT
5
BE
100
AcDbEntity
8
SK2
62
256
6
ByLayer
370
-1
48
1
60
0
100
AcDbMText
10
32.453611
20
1.484211
30
0
210
0
220
0
230
1
1
\W01.000;\fsimplex.shx,bigfont.shx;80\P
40
3
41
0
44
1.084337
50
90
71
7
72
5
7
DEFAULT
0
MTEXT
5
BF
100
AcDbEntity
8
SK2
62
256
6
ByLayer
370
-1
48
1
60
0
100
AcDbMText
10
32.453611
20
-3.489474
30
0
210
0
220
0
230
1
1
\W01.000;\fsimplex.shx,bigfont.shx;%%c\P
40
3
41
0
44
1.084337
50
90
71
7
72
5
7
DEFAULT
0
LINE
5
C0
100
AcDbEntity
8
SK2
62
256
6
ByLayer
370
-1
48
1
60
0
100
AcDbLine
10
13
20
40
30
0
11
36.203611
21
40
31
0
39
0
210
0
220
0
230
1
0
LINE
5
C1
100
AcDbEntity
8
SK2
62
256
6
ByLayer
370
-1
48
1
60
0
100
AcDbLine
10
13
20
-40
30
0
11
36.203611
21
-40
31
0
39
0
210
0
220
0
230
1
0
LINE
5
C2
100
AcDbEntity
8
SK2
62
256
6
ByLayer
370
-1
48
1
60
0
100
AcDbLine
10
33.203611
20
40
30
0
11
33.203611
21
-40
31
0
39
0
210
0
220
0
230
1
0
LINE
5
C3
100
AcDbEntity
8
SK2
62
256
6
ByLayer
370
-1
48
1
60
0
100
AcDbLine
10
33.203611
20
40
30
0
11
33.732592
21
37.000002
31
0
39
0
210
0
220
0
230
1
0
LINE
5
C4
100
AcDbEntity
8
SK2
62
256
6
ByLayer
370
-1
48
1
60
0
100
AcDbLine
10
33.203611
20
40
30
0
11
32.67463
21
36.999998
31
0
39
0
210
0
220
0
230
1
0
LINE
5
C5
100
AcDbEntity
8
SK2
62
256
6
ByLayer
370
-1
48
1
60
0
100
AcDbLine
10
33.732592
20
37.000002
30
0
11
32.67463
21
36.999998
31
0
39
0
210
0
220
0
230
1
0
LINE
5
C6
100
AcDbEntity
8
SK2
62
256
6
ByLayer
370
-1
48
1
60
0
100
AcDbLine
10
33.203611
20
-40
30
0
11
32.67463
21
-37.000002
31
0
39
0
210
0
220
0
230
1
0
LINE
5
C7
100
AcDbEntity
8
SK2
62
256
6
ByLayer
370
-1
48
1
60
0
100
AcDbLine
10
33.203611
20
-40
30
0
11
33.732592
21
-36.999998
31
0
39
0
210
0
220
0
230
1
0
LINE
5
C8
100
AcDbEntity
8
SK2
62
256
6
ByLayer
370
-1
48
1
60
0
100
AcDbLine
10
32.67463
20
-37.000002
30
0
11
33.732592
21
-36.999998
31
0
39
0
210
0
220
0
230
1
0
ENDBLK
5
CA
100
AcDbEntity
8
0
100
AcDbBlockEnd
0
BLOCK
5
D8
100
AcDbEntity
8
0
100
AcDbBlockBegin
2
DimnDraft3D4
70
0
10
0
20
0
30
0
3
DimnDraft3D4
0
MTEXT
5
CD
100
AcDbEntity
8
SK2
62
256
6
ByLayer
370
-1
48
1
60
0
100
AcDbMText
10
-157.876145
20
1.484211
30
0
210
0
220
0
230
1
1
\W01.000;\fsimplex.shx,bigfont.shx;60\P
40
3
41
0
44
1.084337
50
90
71
7
72
5
7
DEFAULT
0
MTEXT
5
CE
100
AcDbEntity
8
SK2
62
256
6
ByLayer
370
-1
48
1
60
0
100
AcDbMText
10
-157.876145
20
-3.489474
30
0
210
0
220
0
230
1
1
\W01.000;\fsimplex.shx,bigfont.shx;%%c\P
40
3
41
0
44
1.084337
50
90
71
7
72
5
7
DEFAULT
0
LINE
5
CF
100
AcDbEntity
8
SK2
62
256
6
ByLayer
370
-1
48
1
60
0
100
AcDbLine
10
-10
20
30
30
0
11
-160.126145
21
30
31
0
39
0
210
0
220
0
230
1
0
LINE
5
D0
100
AcDbEntity
8
SK2
62
256
6
ByLayer
370
-1
48
1
60
0
100
AcDbLine
10
-10
20
-30
30
0
11
-160.126145
21
-30
31
0
39
0
210
0
220
0
230
1
0
LINE
5
D1
100
AcDbEntity
8
SK2
62
256
6
ByLayer
370
-1
48
1
60
0
100
AcDbLine
10
-157.126145
20
30
30
0
11
-157.126145
21
-30
31
0
39
0
210
0
220
0
230
1
0
LINE
5
D2
100
AcDbEntity
8
SK2
62
256
6
ByLayer
370
-1
48
1
60
0
100
AcDbLine
10
-157.126145
20
30
30
0
11
-156.597164
21
27.000002
31
0
39
0
210
0
220
0
230
1
0
LINE
5
D3
100
AcDbEntity
8
SK2
62
256
6
ByLayer
370
-1
48
1
60
0
100
AcDbLine
10
-157.126145
20
30
30
0
11
-157.655126
21
26.999998
31
0
39
0
210
0
220
0
230
1
0
LINE
5
D4
100
AcDbEntity
8
SK2
62
256
6
ByLayer
370
-1
48
1
60
0
100
AcDbLine
10
-156.597164
20
27.000002
30
0
11
-157.655126
21
26.999998
31
0
39
0
210
0
220
0
230
1
0
LINE
5
D5
100
AcDbEntity
8
SK2
62
256
6
ByLayer
370
-1
48
1
60
0
100
AcDbLine
10
-157.126145
20
-30
30
0
11
-157.655126
21
-27.000002
31
0
39
0
210
0
220
0
230
1
0
LINE
5
D6
100
AcDbEntity
8
SK2
62
256
6
ByLayer
370
-1
48
1
60
0
100
AcDbLine
10
-157.126145
20
-30
30
0
11
-156.597164
21
-26.999998
31
0
39
0
210
0
220
0
230
1
0
LINE
5
D7
100
AcDbEntity
8
SK2
62
256
6
ByLayer
370
-1
48
1
60
0
100
AcDbLine
10
-157.655126
20
-27.000002
30
0
11
-156.597164
21
-26.999998
31
0
39
0
210
0
220
0
230
1
0
ENDBLK
5
D9
100
AcDbEntity
8
0
100
AcDbBlockEnd
0
ENDSEC
0
SECTION
2
ENTITIES
0
ARC
5
84
100
AcDbEntity
8
SK1
62
256
6
ByLayer
370
-1
48
1
60
0
100
AcDbCircle
39
0
10
0.375
20
30.25
30
0
40
0.6
210
0
220
0
230
-1
100
AcDbArc
50
231.31685
51
270
0
ARC
5
85
100
AcDbEntity
8
SK1
62
256
6
ByLayer
370
-1
48
1
60
0
100
AcDbCircle
39
0
10
1.114791
20
30.25
30
0
40
0.6
210
0
220
0
230
-1
100
AcDbArc
50
270
51
285
0
ARC
5
86
100
AcDbEntity
8
SK1
62
256
6
ByLayer
370
-1
48
1
60
0
100
AcDbCircle
39
0
10
1.114791
20
-30.25
30
0
40
0.6
210
0
220
0
230
-1
100
AcDbArc
50
75
51
90
0
ARC
5
87
100
AcDbEntity
8
SK1
62
256
6
ByLayer
370
-1
48
1
60
0
100
AcDbCircle
39
0
10
0.375
20
-30.25
30
0
40
0.6
210
0
220
0
230
-1
100
AcDbArc
50
90
51
128.68315
0
ARC
5
88
100
AcDbEntity
8
1
62
256
6
ByLayer
370
-1
48
1
60
0
100
AcDbCircle
39
0
10
-5.75
20
7.1275
30
0
40
1.00000000000001
210
0
220
0
230
-1
100
AcDbArc
50
0
51
90
0
ARC
5
89
100
AcDbEntity
8
SK1
62
256
6
ByLayer
370
-1
48
1
60
0
100
AcDbCircle
39
0
10
38.5
20
0
30
0
40
29.9999999999427
210
0
220
0
230
-1
100
AcDbArc
50
161.805128
51
180
0
ARC
5
8A
100
AcDbEntity
8
1
62
256
6
ByLayer
370
-1
48
1
60
0
100
AcDbCircle
39
0
10
-5.75
20
-7.1275
30
0
40
0.999999999999989
210
0
220
0
230
-1
100
AcDbArc
50
270
51
0
0
ARC
5
8B
100
AcDbEntity
8
SK1
62
256
6
ByLayer
370
-1
48
1
60
0
100
AcDbCircle
39
0
10
38.5
20
0
30
0
40
30.0000000002241
210
0
220
0
230
-1
100
AcDbArc
50
180
51
198.194872
0
POINT
5
42
100
AcDbEntity
8
80
62
256
6
ByLayer
370
-1
48
1
60
0
100
AcDbPoint
10
0
20
0
30
0
39
0
210
0
220
0
230
1
50
360
0
POINT
5
44
100
AcDbEntity
8
81
62
256
6
ByLayer
370
-1
48
1
60
0
100
AcDbPoint
10
12
20
0
30
0
39
0
210
0
220
0
230
1
50
360
0
POINT
5
46
100
AcDbEntity
8
1
62
256
6
ByLayer
370
-1
48
1
60
1
100
AcDbPoint
10
230.539431
20
206.077364
30
0
39
0
210
0
220
0
230
1
50
360
0
POINT
5
48
100
AcDbEntity
8
1
62
256
6
ByLayer
370
-1
48
1
60
1
100
AcDbPoint
10
372.039431
20
206.077364
30
0
39
0
210
0
220
0
230
1
50
360
0
POINT
5
49
100
AcDbEntity
8
1
62
256
6
ByLayer
370
-1
48
1
60
1
100
AcDbPoint
10
340.239431
20
206.077364
30
0
39
0
210
0
220
0
230
1
50
360
0
POINT
5
4A
100
AcDbEntity
8
1
62
256
6
ByLayer
370
-1
48
1
60
1
100
AcDbPoint
10
381.739431
20
206.077364
30
0
39
0
210
0
220
0
230
1
50
360
0
SPLINE
5
8C
100
AcDbEntity
8
SK1
62
256
6
ByLayer
370
-1
48
1
60
0
100
AcDbSpline
70
4
71
3
72
14
73
10
40
0
40
0
40
0
40
0
40
0.250000000000005
40
0.250000000000005
40
0.375000000000006
40
0.375000000000006
40
0.500000000000006
40
0.500000000000006
40
1
40
1
40
1
40
1
41
1
10
-140
20
-5.36190264738227
30
0
41
1
10
-139.937673220852
20
-5.69899877056017
30
0
41
1
10
-139.869709609864
20
-6.03587273791419
30
0
41
1
10
-139.759516991577
20
-6.54085865460621
30
0
41
1
10
-139.721411813451
20
-6.70913313011019
30
0
41
1
10
-139.64249007422
20
-7.04557522153166
30
0
41
1
10
-139.601665193798
20
-7.21376359252193
30
0
41
1
10
-139.391674729094
20
-8.05131405473071
30
0
41
1
10
-139.204348553807
20
-8.71305786452024
30
0
41
1
10
-139
20
-9.36749699759795
30
0
0
SPLINE
5
8D
100
AcDbEntity
8
SK1
62
256
6
ByLayer
370
-1
48
1
60
0
100
AcDbSpline
70
4
71
3
72
8
73
4
40
0
40
0
40
0
40
0
40
1
40
1
40
1
40
1
41
1
10
-139
20
9.36749699759733
30
0
41
1
10
-139.409000168419
20
8.05764816010009
30
0
41
1
10
-139.748087626838
20
6.72437774290694
30
0
41
1
10
-140
20
5.36190264738158
30
0
0
SPLINE
5
8E
100
AcDbEntity
8
1
62
256
6
ByLayer
370
-1
48
1
60
0
100
AcDbSpline
70
4
71
3
72
8
73
4
40
0
40
0
40
0
40
0
40
1
40
1
40
1
40
1
41
1
10
11.7717402820223
20
-8.39924028203495
30
0
41
1
10
11.8479484036839
20
-8.47544840369656
30
0
41
1
10
11.9240354803382
20
-8.55153548033812
30
0
41
1
10
12
20
-8.62749999999994
30
0
0
SPLINE
5
8F
100
AcDbEntity
8
1
62
256
6
ByLayer
370
-1
48
1
60
0
100
AcDbSpline
70
4
71
3
72
8
73
4
40
0
40
0
40
0
40
0
40
1
40
1
40
1
40
1
41
1
10
12
20
8.62750000000005
30
0
41
1
10
11.9240354803394
20
8.5515354803394
30
0
41
1
10
11.8479484036873
20
8.47544840368727
30
0
41
1
10
11.7717402820268
20
8.39924028202685
30
0
0
SPLINE
5
90
100
AcDbEntity
8
SK1
62
256
6
ByLayer
370
-1
48
1
60
0
100
AcDbSpline
70
4
71
3
72
10
73
6
40
0
40
0
40
0
40
0
40
0.5
40
0.5
40
1
40
1
40
1
40
1
41
1
10
-139
20
-28.5000000000003
30
0
41
1
10
-139.20430300096
20
-28.5000000000003
30
0
41
1
10
-139.391222633657
20
-28.5000000000003
30
0
41
1
10
-139.726029396603
20
-28.5000000000003
30
0
41
1
10
-139.873953462848
20
-28.5000000000003
30
0
41
1
10
-140
20
-28.5000000000003
30
0
0
SPLINE
5
91
100
AcDbEntity
8
SK1
62
256
6
ByLayer
370
-1
48
1
60
0
100
AcDbSpline
70
4
71
3
72
8
73
4
40
0
40
0
40
0
40
0
40
1
40
1
40
1
40
1
41
1
10
-140
20
28.4999999999997
30
0
41
1
10
-139.748246900508
20
28.4999999999997
30
0
41
1
10
-139.409240780491
20
28.4999999999997
30
0
41
1
10
-139
20
28.4999999999997
30
0
0
SPLINE
5
92
100
AcDbEntity
8
1
62
256
6
ByLayer
370
-1
48
1
60
0
100
AcDbSpline
70
4
71
3
72
8
73
4
40
0
40
0
40
0
40
0
40
1
40
1
40
1
40
1
41
1
10
11.7717402820223
20
-8.39924028203495
30
0
41
1
10
11.681234784387
20
-8.47537125038301
30
0
41
1
10
11.5906540975415
20
-8.55145747021308
30
0
41
1
10
11.5000000000001
20
-8.62749999999994
30
0
0
SPLINE
5
93
100
AcDbEntity
8
1
62
256
6
ByLayer
370
-1
48
1
60
0
100
AcDbSpline
70
4
71
3
72
8
73
4
40
0
40
0
40
0
40
0
40
1
40
1
40
1
40
1
41
1
10
11.7717402820326
20
8.39924028202628
30
0
41
1
10
11.681234784394
20
8.47537125037729
30
0
41
1
10
11.5906540975449
20
8.55145747021024
30
0
41
1
10
11.5
20
8.62750000000005
30
0
0
LINE
5
4B
100
AcDbEntity
8
81
62
256
6
ByLayer
370
-1
48
1
60
0
100
AcDbLine
10
12
20
0
30
0
11
18
21
0
31
0
39
0
210
0
220
0
230
1
0
LINE
5
4C
100
AcDbEntity
8
80
62
256
6
ByLayer
370
-1
48
1
60
0
100
AcDbLine
10
0
20
0
30
0
11
-5.8
21
0
31
0
39
0
210
0
220
0
230
1
0
LINE
5
4D
100
AcDbEntity
8
4
62
256
6
ByLayer
370
-1
48
0.05
60
0
100
AcDbLine
10
0
20
0
30
0
11
12
21
0
31
0
39
0
210
0
220
0
230
1
0
LINE
5
4F
100
AcDbEntity
8
SK1
62
256
6
ByLayer
370
-1
48
1
60
0
100
AcDbLine
10
16.348528
20
10
30
0
11
11.999559
21
10
31
0
39
0
210
0
220
0
230
1
0
LINE
5
51
100
AcDbEntity
8
SK1
62
256
6
ByLayer
370
-1
48
1
60
0
100
AcDbLine
10
17.348496
20
9
30
0
11
11.999454
21
9
31
0
39
0
210
0
220
0
230
1
0
LINE
5
52
100
AcDbEntity
8
SK1
62
256
6
ByLayer
370
-1
48
1
60
0
100
AcDbLine
10
17.348496
20
-9
30
0
11
11.999454
21
-9
31
0
39
0
210
0
220
0
230
1
0
LINE
5
53
100
AcDbEntity
8
SK1
62
256
6
ByLayer
370
-1
48
1
60
0
100
AcDbLine
10
11.999559
20
-10
30
0
11
16.348528
21
-10
31
0
39
0
210
0
220
0
230
1
0
LINE
5
54
100
AcDbEntity
8
SK1
62
256
6
ByLayer
370
-1
48
1
60
0
100
AcDbLine
10
16.348528
20
-10
30
0
11
17.848528
21
-8.5
31
0
39
0
210
0
220
0
230
1
0
LINE
5
55
100
AcDbEntity
8
SK1
62
256
6
ByLayer
370
-1
48
1
60
0
100
AcDbLine
10
17.848528
20
8.5
30
0
11
16.348528
21
10
31
0
39
0
210
0
220
0
230
1
0
LINE
5
56
100
AcDbEntity
8
1
62
256
6
ByLayer
370
-1
48
1
60
0
100
AcDbLine
10
11.5
20
40
30
0
11
0.5
21
40
31
0
39
0
210
0
220
0
230
1
0
LINE
5
57
100
AcDbEntity
8
1
62
256
6
ByLayer
370
-1
48
1
60
0
100
AcDbLine
10
0.5
20
-40
30
0
11
11.5
21
-40
31
0
39
0
210
0
220
0
230
1
0
LINE
5
58
100
AcDbEntity
8
1
62
256
6
ByLayer
370
-1
48
1
60
0
100
AcDbLine
10
0.5
20
40
30
0
11
0
21
39.5
31
0
39
0
210
0
220
0
230
1
0
LINE
5
59
100
AcDbEntity
8
1
62
256
6
ByLayer
370
-1
48
1
60
0
100
AcDbLine
10
0
20
-39.5
30
0
11
0.5
21
-40
31
0
39
0
210
0
220
0
230
1
0
LINE
5
5A
100
AcDbEntity
8
1
62
256
6
ByLayer
370
-1
48
1
60
0
100
AcDbLine
10
11.5
20
-40
30
0
11
12
21
-39.5
31
0
39
0
210
0
220
0
230
1
0
LINE
5
5B
100
AcDbEntity
8
1
62
256
6
ByLayer
370
-1
48
1
60
0
100
AcDbLine
10
12
20
39.5
30
0
11
11.5
21
40
31
0
39
0
210
0
220
0
230
1
0
LINE
5
5C
100
AcDbEntity
8
SK1
62
256
6
ByLayer
370
-1
48
1
60
0
100
AcDbLine
10
-2.5
20
30
30
0
11
-8.5
21
30
31
0
39
0
210
0
220
0
230
1
0
LINE
5
5D
100
AcDbEntity
8
SK1
62
256
6
ByLayer
370
-1
48
1
60
0
100
AcDbLine
10
-8.5
20
-30
30
0
11
-2.5
21
-30
31
0
39
0
210
0
220
0
230
1
0
LINE
5
5E
100
AcDbEntity
8
SK1
62
256
6
ByLayer
370
-1
48
1
60
0
100
AcDbLine
10
-139
20
-9.367497
30
0
11
-10
21
-9.367497
31
0
39
0
210
0
220
0
230
1
0
LINE
5
5F
100
AcDbEntity
8
SK1
62
256
6
ByLayer
370
-1
48
1
60
0
100
AcDbLine
10
-2.5
20
-30
30
0
11
-1.270082
21
-29.670445
31
0
39
0
210
0
220
0
230
1
0
LINE
5
60
100
AcDbEntity
8
SK1
62
256
6
ByLayer
370
-1
48
1
60
0
100
AcDbLine
10
-1.270082
20
29.670445
30
0
11
-2.5
21
30
31
0
39
0
210
0
220
0
230
1
0
LINE
5
61
100
AcDbEntity
8
SK1
62
256
6
ByLayer
370
-1
48
1
60
0
100
AcDbLine
10
-0.375
20
29.65
30
0
11
-1.114791
21
29.65
31
0
39
0
210
0
220
0
230
1
0
LINE
5
62
100
AcDbEntity
8
SK1
62
256
6
ByLayer
370
-1
48
1
60
0
100
AcDbLine
10
-1.114791
20
-29.65
30
0
11
-0.375
21
-29.65
31
0
39
0
210
0
220
0
230
1
0
LINE
5
63
100
AcDbEntity
8
SK1
62
256
6
ByLayer
370
-1
48
1
60
0
100
AcDbLine
10
17.848528
20
8.5
30
0
11
17.848528
21
-8.5
31
0
39
0
210
0
220
0
230
1
0
LINE
5
64
100
AcDbEntity
8
SK1
62
256
6
ByLayer
370
-1
48
1
60
0
100
AcDbLine
10
16.348528
20
10
30
0
11
16.348528
21
-10
31
0
39
0
210
0
220
0
230
1
0
LINE
5
65
100
AcDbEntity
8
SK1
62
256
6
ByLayer
370
-1
48
1
60
0
100
AcDbLine
10
-140
20
5.361903
30
0
11
-140
21
28.5
31
0
39
0
210
0
220
0
230
1
0
LINE
5
66
100
AcDbEntity
8
SK1
62
256
6
ByLayer
370
-1
48
1
60
0
100
AcDbLine
10
-139
20
28.5
30
0
11
-139
21
9.367497
31
0
39
0
210
0
220
0
230
1
0
LINE
5
67
100
AcDbEntity
8
SK1
62
256
6
ByLayer
370
-1
48
1
60
0
100
AcDbLine
10
-0.375
20
29.65
30
0
11
-0.375
21
-29.65
31
0
39
0
210
0
220
0
230
1
0
LINE
5
68
100
AcDbEntity
8
SK1
62
256
6
ByLayer
370
-1
48
1
60
0
100
AcDbLine
10
-10
20
-28.5
30
0
11
-8.5
21
-30
31
0
39
0
210
0
220
0
230
1
0
LINE
5
69
100
AcDbEntity
8
SK1
62
256
6
ByLayer
370
-1
48
1
60
0
100
AcDbLine
10
-139
20
-9.367497
30
0
11
-139
21
-28.5
31
0
39
0
210
0
220
0
230
1
0
LINE
5
6A
100
AcDbEntity
8
1
62
256
6
ByLayer
370
-1
48
1
60
0
100
AcDbLine
10
0
20
39.5
30
0
11
0
21
0
31
0
39
0
210
0
220
0
230
1
0
LINE
5
6B
100
AcDbEntity
8
1
62
256
6
ByLayer
370
-1
48
1
60
0
100
AcDbLine
10
0
20
0
30
0
11
0
21
-39.5
31
0
39
0
210
0
220
0
230
1
0
LINE
5
6C
100
AcDbEntity
8
SK1
62
256
6
ByLayer
370
-1
48
1
60
0
100
AcDbLine
10
-2.5
20
30
30
0
11
-2.5
21
-30
31
0
39
0
210
0
220
0
230
1
0
LINE
5
6D
100
AcDbEntity
8
1
62
256
6
ByLayer
370
-1
48
1
60
0
100
AcDbLine
10
11.77174
20
8.39924
30
0
11
11.5
21
8.1275
31
0
39
0
210
0
220
0
230
1
0
LINE
5
6E
100
AcDbEntity
8
SK1
62
256
6
ByLayer
370
-1
48
1
60
0
100
AcDbLine
10
-10
20
-9.367497
30
0
11
-10
21
9.367497
31
0
39
0
210
0
220
0
230
1
0
LINE
5
6F
100
AcDbEntity
8
SK1
62
256
6
ByLayer
370
-1
48
1
60
0
100
AcDbLine
10
-10
20
9.367497
30
0
11
-139
21
9.367497
31
0
39
0
210
0
220
0
230
1
0
LINE
5
70
100
AcDbEntity
8
1
62
256
6
ByLayer
370
-1
48
1
60
0
100
AcDbLine
10
11.5
20
-8.1275
30
0
11
11.77174
21
-8.39924
31
0
39
0
210
0
220
0
230
1
0
LINE
5
71
100
AcDbEntity
8
1
62
256
6
ByLayer
370
-1
48
1
60
0
100
AcDbLine
10
11.5
20
40
30
0
11
11.5
21
8.6275
31
0
39
0
210
0
220
0
230
1
0
LINE
5
72
100
AcDbEntity
8
1
62
256
6
ByLayer
370
-1
48
1
60
0
100
AcDbLine
10
11.5
20
-8.6275
30
0
11
11.5
21
-40
31
0
39
0
210
0
220
0
230
1
0
LINE
5
73
100
AcDbEntity
8
SK1
62
256
6
ByLayer
370
-1
48
1
60
0
100
AcDbLine
10
-140
20
-28.5
30
0
11
-140
21
-5.361903
31
0
39
0
210
0
220
0
230
1
0
LINE
5
74
100
AcDbEntity
8
1
62
256
6
ByLayer
370
-1
48
1
60
0
100
AcDbLine
10
5.75
20
8.1275
30
0
11
11.5
21
8.1275
31
0
39
0
210
0
220
0
230
1
0
LINE
5
75
100
AcDbEntity
8
1
62
256
6
ByLayer
370
-1
48
1
60
0
100
AcDbLine
10
4.75
20
-8.6275
30
0
11
4.75
21
8.6275
31
0
39
0
210
0
220
0
230
1
0
LINE
5
76
100
AcDbEntity
8
SK1
62
256
6
ByLayer
370
-1
48
1
60
0
100
AcDbLine
10
-1.114791
20
29.65
30
0
11
-1.114791
21
-29.65
31
0
39
0
210
0
220
0
230
1
0
LINE
5
77
100
AcDbEntity
8
SK1
62
256
6
ByLayer
370
-1
48
1
60
0
100
AcDbLine
10
-10
20
-28.5
30
0
11
-139
21
-28.5
31
0
39
0
210
0
220
0
230
1
0
LINE
5
78
100
AcDbEntity
8
1
62
256
6
ByLayer
370
-1
48
1
60
0
100
AcDbLine
10
11.5
20
-8.6275
30
0
11
4.75
21
-8.6275
31
0
39
0
210
0
220
0
230
1
0
LINE
5
79
100
AcDbEntity
8
1
62
256
6
ByLayer
370
-1
48
1
60
0
100
AcDbLine
10
5.75
20
-8.1275
30
0
11
11.5
21
-8.1275
31
0
39
0
210
0
220
0
230
1
0
LINE
5
7A
100
AcDbEntity
8
1
62
256
6
ByLayer
370
-1
48
1
60
0
100
AcDbLine
10
0.5
20
-40
30
0
11
0.5
21
40
31
0
39
0
210
0
220
0
230
1
0
LINE
5
7B
100
AcDbEntity
8
1
62
256
6
ByLayer
370
-1
48
1
60
0
100
AcDbLine
10
12
20
39.5
30
0
11
12
21
8.6275
31
0
39
0
210
0
220
0
230
1
0
LINE
5
7C
100
AcDbEntity
8
1
62
256
6
ByLayer
370
-1
48
1
60
0
100
AcDbLine
10
12
20
-8.6275
30
0
11
12
21
-39.5
31
0
39
0
210
0
220
0
230
1
0
LINE
5
7D
100
AcDbEntity
8
SK1
62
256
6
ByLayer
370
-1
48
1
60
0
100
AcDbLine
10
-140
20
5.361903
30
0
11
-140
21
-5.361903
31
0
39
0
210
0
220
0
230
1
0
LINE
5
7E
100
AcDbEntity
8
SK1
62
256
6
ByLayer
370
-1
48
1
60
0
100
AcDbLine
10
-1.270082
20
29.670445
30
0
11
-1.270082
21
-29.670445
31
0
39
0
210
0
220
0
230
1
0
LINE
5
7F
100
AcDbEntity
8
SK1
62
256
6
ByLayer
370
-1
48
1
60
0
100
AcDbLine
10
-8.5
20
30
30
0
11
-10
21
28.5
31
0
39
0
210
0
220
0
230
1
0
LINE
5
80
100
AcDbEntity
8
SK1
62
256
6
ByLayer
370
-1
48
1
60
0
100
AcDbLine
10
-139
20
28.5
30
0
11
-10
21
28.5
31
0
39
0
210
0
220
0
230
1
0
LINE
5
81
100
AcDbEntity
8
1
62
256
6
ByLayer
370
-1
48
1
60
0
100
AcDbLine
10
11.5
20
8.6275
30
0
11
4.75
21
8.6275
31
0
39
0
210
0
220
0
230
1
0
LINE
5
82
100
AcDbEntity
8
SK4
62
256
6
ByLayer
370
-1
48
0.05
60
0
100
AcDbLine
10
22.934687
20
0
30
0
11
-145.037518
21
0
31
0
39
0
210
0
220
0
230
1
0
MTEXT
5
94
100
AcDbEntity
8
SK6
62
256
6
ByLayer
370
-1
48
1
60
0
100
AcDbMText
10
-74.848934
20
-39.658974
30
0
210
0
220
0
230
1
1
\W00.753;\fsimplex.shx,bigfont.shx;VL80-NC3000-60\P
40
3
41
0
44
1.084337
50
0
71
7
72
5
7
DEFAULT
0
DIMENSION
5
A6
100
AcDbEntity
8
SK2
62
256
6
ByLayer
370
-3
48
1
60
0
100
AcDbDimension
2
DimnDraft3D1
10
0
20
54.450876
30
0
11
7.563556
21
54.450876
31
0
70
32
71
5
72
1
41
1
210
0
220
0
230
1
3
Standard
100
AcDbAlignedDimension
13
-140
23
30
33
0
14
0
24
41
34
0
50
0
100
AcDbRotatedDimension
1001
ACAD
1000
DSTYLE
1002
{
1070
   279
1070
     0
1070
   173
1070
     1
1070
   340
1005
95
1070
   271
1070
     0
1070
   272
1070
     2
1070
    77
1070
     1
1070
    73
1070
     0
1070
   171
1070
     4
1070
   274
1070
     4
1070
   177
1070
     7
1070
   176
1070
     7
1070
   178
1070
     7
1070
    41
1041
3.0
1070
   147
1041
1.5
1070
    42
1041
1.5
1070
    44
1041
3.0
1070
   140
1041
3.0
1070
   343
1005
A7
1070
   344
1005
A7
1002
}
0
DIMENSION
5
BC
100
AcDbEntity
8
2
62
256
6
ByLayer
370
-3
48
1
60
0
100
AcDbDimension
2
DimnDraft3D2
10
12
20
54.450876
30
0
11
4.622368
21
54.450876
31
0
70
32
71
5
72
1
41
1
210
0
220
0
230
1
3
Standard
100
AcDbAlignedDimension
13
0
23
41
33
0
14
12
24
41
34
0
50
0
100
AcDbRotatedDimension
1001
ACAD
1000
DSTYLE
1002
{
1070
   279
1070
     0
1070
   173
1070
     1
1070
   340
1005
95
1070
   271
1070
     0
1070
   272
1070
     2
1070
    77
1070
     1
1070
    73
1070
     0
1070
   171
1070
     4
1070
   274
1070
     4
1070
   177
1070
     7
1070
   176
1070
     7
1070
   178
1070
     7
1070
    41
1041
3.0
1070
   147
1041
1.5
1070
    42
1041
1.5
1070
    44
1041
3.0
1070
   140
1041
3.0
1070
   343
1005
A7
1070
   344
1005
A7
1002
}
0
DIMENSION
5
CB
100
AcDbEntity
8
SK2
62
256
6
ByLayer
370
-3
48
1
60
0
100
AcDbDimension
2
DimnDraft3D3
10
36.203611
20
-40
30
0
11
31.703611
21
0.734211
31
0
70
33
71
5
72
1
41
1
210
0
220
0
230
1
3
Standard
100
AcDbAlignedDimension
13
13
23
40
33
0
14
13
24
-40
34
0
1001
ACAD
1000
DSTYLE
1002
{
1070
   279
1070
     0
1070
    74
1070
     0
1070
   173
1070
     1
1070
   340
1005
95
1070
   271
1070
     0
1070
   272
1070
     2
1070
    77
1070
     1
1070
    73
1070
     0
1070
   171
1070
     4
1070
   274
1070
     4
1070
   177
1070
     7
1070
   176
1070
     7
1070
   178
1070
     7
1070
    41
1041
3.0
1070
   147
1041
1.5
1070
    42
1041
1.5
1070
    44
1041
3.0
1070
   140
1041
3.0
1070
   343
1005
0
1070
   344
1005
0
1002
}
0
DIMENSION
5
DA
100
AcDbEntity
8
SK2
62
256
6
ByLayer
370
-3
48
1
60
0
100
AcDbDimension
2
DimnDraft3D4
10
-160.126145
20
-30
30
0
11
-158.626145
21
0.734211
31
0
70
33
71
5
72
1
41
1
210
0
220
0
230
1
3
Standard
100
AcDbAlignedDimension
13
-10
23
30
33
0
14
-10
24
-30
34
0
1001
ACAD
1000
DSTYLE
1002
{
1070
   279
1070
     0
1070
    74
1070
     0
1070
   173
1070
     1
1070
   340
1005
95
1070
   271
1070
     0
1070
   272
1070
     2
1070
    77
1070
     1
1070
    73
1070
     0
1070
   171
1070
     4
1070
   274
1070
     4
1070
   177
1070
     7
1070
   176
1070
     7
1070
   178
1070
     7
1070
    41
1041
3.0
1070
   147
1041
1.5
1070
    42
1041
1.5
1070
    44
1041
3.0
1070
   140
1041
3.0
1070
   343
1005
A7
1070
   344
1005
A7
1002
}
0
ENDSEC
0
SECTION
2
OBJECTS
0
DICTIONARY
5
129
330
0
100
AcDbDictionary
280
0
281
1
3
ACAD_GROUP
350
12a
3
ACAD_MLINESTYLE
350
12b
0
DICTIONARY
5
12a
330
0
100
AcDbDictionary
280
0
281
1
0
DICTIONARY
5
12b
330
0
100
AcDbDictionary
280
0
281
1
3
Standard
350
18
0
MLINESTYLE
5
18
330
12b
100
AcDbMlineStyle
2
Standard
70
0
3

62
256
51
90
52
90
71
2
49
-0.5
62
256
6
ByLayer
49
0.5
62
256
6
ByLayer
0
RASTERVARIABLES
5
117
330

100
AcDbRasterVariables
90
0
70
1
71
1
72
1
0
ENDSEC
0
EOF
