0
SECTION
2
HEADER
9
$ACADVER
1
AC1015
9
$DWGCODEPAGE
3
ANSI_1252
9
$HANDSEED
5
3c9
9
$ANGBASE
50
0
9
$ANGDIR
70
0
9
$ATTMODE
70
1
9
$AUNITS
70
0
9
$AUPREC
70
0
9
$CECOLOR
62
256
9
$CELTSCALE
40
1
9
$CELTYPE
6
ByLayer
9
$CELWEIGHT
370
18
9
$CLAYER
8
0
9
$CMLJUST
70
0
9
$CMLSCALE
40
1
9
$CMLSTYLE
2
Standard
9
$DIMSTYLE
2
Standard
9
$TEXTSIZE
40
0.2
9
$TEXTSTYLE
7
Standard
9
$LUNITS
70
2
9
$LUPREC
70
4
9
$EXTNAMES
290
1
9
$INSUNITS
70
4
9
$LTSCALE
40
1
9
$LWDISPLAY
290
1
9
$PDMODE
70
0
9
$PDSIZE
40
0
9
$PLINEGEN
70
0
0
ENDSEC
0
SECTION
2
CLASSES
0
CLASS
1
RASTERVARIABLES
2
AcDbRasterVariables
3
ISM
90
0
280
0
281
0
0
ENDSEC
0
SECTION
2
TABLES
0
TABLE
2
VPORT
5
3bf
100
AcDbSymbolTable
0
VPORT
5
1
100
AcDbSymbolTableRecord
100
AcDbViewportTableRecord
2
*Active
70
0
10
0
20
0
11
1
21
1
12
-1
22
1
13
0
23
0
14
0.5
24
0.5
15
10
25
10
16
0
26
0
36
1
17
0
27
0
37
0
0
ENDTAB
0
TABLE
2
LTYPE
5
3c0
100
AcDbSymbolTable
0
LTYPE
5
14
100
AcDbSymbolTableRecord
100
AcDbLinetypeTableRecord
70
0
2
ByBlock
3

72
65
73
0
40
0
0
LTYPE
5
15
100
AcDbSymbolTableRecord
100
AcDbLinetypeTableRecord
70
0
2
ByLayer
3

72
65
73
0
40
0
0
LTYPE
5
16
100
AcDbSymbolTableRecord
100
AcDbLinetypeTableRecord
70
0
2
Continuous
3
Solid line
72
65
73
0
40
0
0
LTYPE
5
6E
100
AcDbSymbolTableRecord
100
AcDbLinetypeTableRecord
70
0
2
CENTER
3
____ _ ____ _ ____ _ ____
72
65
73
4
40
47.5
49
22
74
0
49
-8.5
74
0
49
8.5
74
0
49
-8.5
74
0
0
LTYPE
5
6F
100
AcDbSymbolTableRecord
100
AcDbLinetypeTableRecord
70
0
2
DASHED
3
__ __ __ __ __ __ __ __ __
72
65
73
2
40
25.72
49
12.86
74
0
49
-12.86
74
0
0
ENDTAB
0
TABLE
2
LAYER
5
3c1
100
AcDbSymbolTable
0
LAYER
5
10
100
AcDbSymbolTableRecord
100
AcDbLayerTableRecord
2
0
70
0
62
7
6
Continuous
290
1
370
-3
390
0
0
LAYER
5
71
100
AcDbSymbolTableRecord
100
AcDbLayerTableRecord
2
81
70
0
62
-3
6
Continuous
290
1
370
-3
390
0
0
LAYER
5
73
100
AcDbSymbolTableRecord
100
AcDbLayerTableRecord
2
80
70
0
62
-6
6
Continuous
290
1
370
-3
390
0
0
LAYER
5
75
100
AcDbSymbolTableRecord
100
AcDbLayerTableRecord
2
2
70
0
62
7
6
Continuous
290
1
370
-3
390
0
0
LAYER
5
79
100
AcDbSymbolTableRecord
100
AcDbLayerTableRecord
2
1
70
0
62
4
6
Continuous
290
1
370
-3
390
0
0
LAYER
5
1B1
100
AcDbSymbolTableRecord
100
AcDbLayerTableRecord
2
4
70
0
62
-2
6
CENTER
290
1
370
-3
390
0
0
LAYER
5
2F9
100
AcDbSymbolTableRecord
100
AcDbLayerTableRecord
2
Defpoints
70
0
62
7
6
Continuous
290
0
370
-3
390
0
0
LAYER
5
3ab
100
AcDbSymbolTableRecord
100
AcDbLayerTableRecord
2
SK1
70
0
62
4
6
Continuous
290
1
370
-3
390
0
0
LAYER
5
3ac
100
AcDbSymbolTableRecord
100
AcDbLayerTableRecord
2
SK4
70
0
62
2
6
CENTER
290
1
370
-3
390
0
0
LAYER
5
3ad
100
AcDbSymbolTableRecord
100
AcDbLayerTableRecord
2
SK6
70
0
62
5
6
Continuous
290
1
370
-3
390
0
0
LAYER
5
3ae
100
AcDbSymbolTableRecord
100
AcDbLayerTableRecord
2
SK2
70
0
62
7
6
Continuous
290
1
370
-3
390
0
0
ENDTAB
0
TABLE
2
STYLE
5
3c2
100
AcDbSymbolTable
0
STYLE
5
11
100
AcDbSymbolTableRecord
100
AcDbTextStyleTableRecord
2
Standard
3
txt
70
0
71
0
40
0
41
1
42
0
50
0
0
STYLE
5
2EA
100
AcDbSymbolTableRecord
100
AcDbTextStyleTableRecord
2
iso_b_vert
3
simplex.shx
70
0
71
0
40
0
41
1
42
0
50
0
0
STYLE
5
2EB
100
AcDbSymbolTableRecord
100
AcDbTextStyleTableRecord
2
DWGDirectTextStyle
3
simplex
70
0
71
0
40
0
41
1
42
0
50
0
0
ENDTAB
0
TABLE
2
DIMSTYLE
5
3c3
100
AcDbSymbolTable
100
AcDbDimStyleTable
0
DIMSTYLE
105
27
100
AcDbSymbolTableRecord
100
AcDbDimStyleTableRecord
2
Standard
70
0
3
<>
41
0.18
42
0.0625
44
0.18
140
0.18
147
0.09
73
0
74
0
77
1
271
2
275
0
278
52
280
0
340
11
0
ENDTAB
0
TABLE
2
VIEW
5
3c4
100
AcDbSymbolTable
0
ENDTAB
0
TABLE
2
UCS
5
3c5
100
AcDbSymbolTable
0
ENDTAB
0
TABLE
2
APPID
5
3c6
100
AcDbSymbolTable
0
APPID
5
12
100
AcDbSymbolTableRecord
100
AcDbRegAppTableRecord
2
ACAD
70
0
0
APPID
5
2EE
100
AcDbSymbolTableRecord
100
AcDbRegAppTableRecord
2
ACAD_DSTYLE_DIMBREAK
70
0
0
APPID
5
36A
100
AcDbSymbolTableRecord
100
AcDbRegAppTableRecord
2
ACAD_DSTYLE_DIM_LINETYPE
70
0
0
APPID
5
36B
100
AcDbSymbolTableRecord
100
AcDbRegAppTableRecord
2
ACAD_DSTYLE_DIM_EXT1_LINETYPE
70
0
0
APPID
5
36C
100
AcDbSymbolTableRecord
100
AcDbRegAppTableRecord
2
ACAD_DSTYLE_DIM_EXT2_LINETYPE
70
0
0
APPID
5
3A7
100
AcDbSymbolTableRecord
100
AcDbRegAppTableRecord
2
ACAD_MLEADERVER
70
0
0
ENDTAB
0
TABLE
2
BLOCK_RECORD
5
3c7
100
AcDbSymbolTable
0
BLOCK_RECORD
5
1F
100
AcDbSymbolTableRecord
100
AcDbBlockTableRecord
2
*Model_Space
340
0
70
0
0
BLOCK_RECORD
5
1B
100
AcDbSymbolTableRecord
100
AcDbBlockTableRecord
2
*Paper_Space
340
0
70
0
0
BLOCK_RECORD
5
23
100
AcDbSymbolTableRecord
100
AcDbBlockTableRecord
2
*Paper_Space0
340
0
70
0
0
BLOCK_RECORD
5
2F0
100
AcDbSymbolTableRecord
100
AcDbBlockTableRecord
2
_Closed
340
0
70
0
0
BLOCK_RECORD
5
2FA
100
AcDbSymbolTableRecord
100
AcDbBlockTableRecord
2
*D2
340
0
70
0
0
BLOCK_RECORD
5
307
100
AcDbSymbolTableRecord
100
AcDbBlockTableRecord
2
_U0
340
0
70
0
0
BLOCK_RECORD
5
317
100
AcDbSymbolTableRecord
100
AcDbBlockTableRecord
2
*D4
340
0
70
0
0
BLOCK_RECORD
5
323
100
AcDbSymbolTableRecord
100
AcDbBlockTableRecord
2
_U1
340
0
70
0
0
BLOCK_RECORD
5
333
100
AcDbSymbolTableRecord
100
AcDbBlockTableRecord
2
*D6
340
0
70
0
0
BLOCK_RECORD
5
33F
100
AcDbSymbolTableRecord
100
AcDbBlockTableRecord
2
_U2
340
0
70
0
0
ENDTAB
0
ENDSEC
0
SECTION
2
BLOCKS
0
BLOCK
5
20
100
AcDbEntity
8
0
100
AcDbBlockBegin
2
*Model_Space
70
0
10
0
20
0
30
0
3
*Model_Space
0
ENDBLK
5
21
100
AcDbEntity
8
0
100
AcDbBlockEnd
0
BLOCK
5
1C
100
AcDbEntity
8
0
100
AcDbBlockBegin
2
*Paper_Space
70
0
10
0
20
0
30
0
3
*Paper_Space
0
ENDBLK
5
1D
100
AcDbEntity
8
0
100
AcDbBlockEnd
0
BLOCK
5
24
100
AcDbEntity
8
0
100
AcDbBlockBegin
2
*Paper_Space0
70
0
10
0
20
0
30
0
3
*Paper_Space0
0
ENDBLK
5
25
100
AcDbEntity
8
0
100
AcDbBlockEnd
0
BLOCK
5
2F1
100
AcDbEntity
8
0
100
AcDbBlockBegin
2
_Closed
70
0
10
0
20
0
30
0
3
_Closed
0
LINE
5
2F3
100
AcDbEntity
8
0
62
256
6
ByLayer
370
-2
48
1
60
0
100
AcDbLine
10
-1
20
0.166667
30
0
11
0
21
0
31
0
39
0
210
0
220
0
230
1
0
LINE
5
2F4
100
AcDbEntity
8
0
62
256
6
ByLayer
370
-2
48
1
60
0
100
AcDbLine
10
0
20
0
30
0
11
-1
21
-0.166667
31
0
39
0
210
0
220
0
230
1
0
LINE
5
2F5
100
AcDbEntity
8
0
62
256
6
ByLayer
370
-2
48
1
60
0
100
AcDbLine
10
-1
20
0.166667
30
0
11
-1
21
-0.166667
31
0
39
0
210
0
220
0
230
1
0
LINE
5
2F6
100
AcDbEntity
8
0
62
256
6
ByLayer
370
-2
48
1
60
0
100
AcDbLine
10
0
20
0
30
0
11
-1
21
0
31
0
39
0
210
0
220
0
230
1
0
ENDBLK
5
2F2
100
AcDbEntity
8
0
100
AcDbBlockEnd
0
BLOCK
5
2FB
100
AcDbEntity
8
0
100
AcDbBlockBegin
2
*D2
70
1
10
0
20
0
30
0
3
*D2
0
LINE
5
2FD
100
AcDbEntity
8
0
62
256
6
ByLayer
370
-2
48
1
60
0
100
AcDbLine
10
-2
20
-20
30
0
11
-9.75
21
-20
31
0
39
0
210
0
220
0
230
1
0
LINE
5
2FE
100
AcDbEntity
8
0
62
256
6
ByLayer
370
-2
48
1
60
0
100
AcDbLine
10
-2
20
20
30
0
11
-9.75
21
20
31
0
39
0
210
0
220
0
230
1
0
LINE
5
2FF
100
AcDbEntity
8
0
62
256
6
ByLayer
370
-2
48
1
60
0
100
AcDbLine
10
-7.75
20
-16.825
30
0
11
-7.75
21
16.825
31
0
39
0
210
0
220
0
230
1
0
SOLID
5
300
100
AcDbEntity
8
0
62
256
6
ByLayer
370
-1
48
1
60
0
100
AcDbTrace
10
-8.279167
20
-16.825
30
0
11
-7.220833
21
-16.825
31
0
12
-7.75
22
-20
32
0
13
-7.75
23
-20
33
0
39
0
210
0
220
0
230
1
0
SOLID
5
301
100
AcDbEntity
8
0
62
256
6
ByLayer
370
-1
48
1
60
0
100
AcDbTrace
10
-7.220833
20
16.825
30
0
11
-8.279167
21
16.825
31
0
12
-7.75
22
20
32
0
13
-7.75
23
20
33
0
39
0
210
0
220
0
230
1
0
MTEXT
5
302
100
AcDbEntity
8
0
62
256
6
ByLayer
370
18
48
1
60
0
100
AcDbMText
10
-19
20
0
30
0
210
0
220
0
230
1
1
\A1;40
40
4.5
41
0
44
1
50
90
71
5
72
5
7
iso_b_vert
0
POINT
5
303
100
AcDbEntity
8
Defpoints
62
0
6
ByLayer
370
-1
48
1
60
0
100
AcDbPoint
10
0
20
-20
30
0
39
0
210
0
220
0
230
1
50
360
0
POINT
5
304
100
AcDbEntity
8
Defpoints
62
0
6
ByLayer
370
-1
48
1
60
0
100
AcDbPoint
10
0
20
20
30
0
39
0
210
0
220
0
230
1
50
360
0
POINT
5
305
100
AcDbEntity
8
Defpoints
62
0
6
ByLayer
370
-1
48
1
60
0
100
AcDbPoint
10
-7.75
20
20
30
0
39
0
210
0
220
0
230
1
50
360
0
ENDBLK
5
2FC
100
AcDbEntity
8
0
100
AcDbBlockEnd
0
BLOCK
5
312
100
AcDbEntity
8
0
100
AcDbBlockBegin
2
_U0
70
0
10
0
20
0
30
0
3
_U0
0
MTEXT
5
308
100
AcDbEntity
8
SK2
62
256
6
ByLayer
370
18
48
1
60
0
100
AcDbMText
10
-8.636672
20
-4.906885
30
0
210
0
220
0
230
1
1
\W0.9329;%%c40
40
4.5
41
0
44
1.084337
50
90
71
7
72
5
7
iso_b_vert
0
LINE
5
309
100
AcDbEntity
8
SK2
62
256
6
ByLayer
370
13
48
1
60
0
100
AcDbLine
10
-2
20
-20
30
0
11
-9.75
21
-20
31
0
39
0
210
0
220
0
230
1
0
LINE
5
30A
100
AcDbEntity
8
SK2
62
256
6
ByLayer
370
13
48
1
60
0
100
AcDbLine
10
-2
20
20
30
0
11
-9.75
21
20
31
0
39
0
210
0
220
0
230
1
0
LINE
5
30B
100
AcDbEntity
8
SK2
62
256
6
ByLayer
370
13
48
1
60
0
100
AcDbLine
10
-7.75
20
-20
30
0
11
-7.75
21
20
31
0
39
0
210
0
220
0
230
1
0
LINE
5
30C
100
AcDbEntity
8
SK2
62
256
6
ByLayer
370
13
48
1
60
0
100
AcDbLine
10
-7.75
20
-20
30
0
11
-8.167997
21
-16.825002
31
0
39
0
210
0
220
0
230
1
0
LINE
5
30D
100
AcDbEntity
8
SK2
62
256
6
ByLayer
370
13
48
1
60
0
100
AcDbLine
10
-7.75
20
-20
30
0
11
-7.332003
21
-16.824998
31
0
39
0
210
0
220
0
230
1
0
LINE
5
30E
100
AcDbEntity
8
SK2
62
256
6
ByLayer
370
13
48
1
60
0
100
AcDbLine
10
-8.167997
20
-16.825002
30
0
11
-7.332003
21
-16.824998
31
0
39
0
210
0
220
0
230
1
0
LINE
5
30F
100
AcDbEntity
8
SK2
62
256
6
ByLayer
370
13
48
1
60
0
100
AcDbLine
10
-7.75
20
20
30
0
11
-7.332003
21
16.825002
31
0
39
0
210
0
220
0
230
1
0
LINE
5
310
100
AcDbEntity
8
SK2
62
256
6
ByLayer
370
13
48
1
60
0
100
AcDbLine
10
-7.75
20
20
30
0
11
-8.167997
21
16.824998
31
0
39
0
210
0
220
0
230
1
0
LINE
5
311
100
AcDbEntity
8
SK2
62
256
6
ByLayer
370
13
48
1
60
0
100
AcDbLine
10
-7.332003
20
16.825002
30
0
11
-8.167997
21
16.824998
31
0
39
0
210
0
220
0
230
1
0
ENDBLK
5
313
100
AcDbEntity
8
0
100
AcDbBlockEnd
0
BLOCK
5
318
100
AcDbEntity
8
0
100
AcDbBlockBegin
2
*D4
70
1
10
0
20
0
30
0
3
*D4
0
LINE
5
31A
100
AcDbEntity
8
0
62
256
6
ByLayer
370
-2
48
1
60
0
100
AcDbLine
10
34
20
26.9
30
0
11
51.429454
21
26.9
31
0
39
0
210
0
220
0
230
1
0
LINE
5
31B
100
AcDbEntity
8
0
62
256
6
ByLayer
370
-2
48
1
60
0
100
AcDbLine
10
34
20
0
30
0
11
51.429454
21
0
31
0
39
0
210
0
220
0
230
1
0
LINE
5
31C
100
AcDbEntity
8
0
62
256
6
ByLayer
370
-2
48
1
60
0
100
AcDbLine
10
49.429454
20
23.725
30
0
11
49.429454
21
3.175
31
0
39
0
210
0
220
0
230
1
0
SOLID
5
31D
100
AcDbEntity
8
0
62
256
6
ByLayer
370
-1
48
1
60
0
100
AcDbTrace
10
49.95862
20
23.725
30
0
11
48.900287
21
23.725
31
0
12
49.429454
22
26.9
32
0
13
49.429454
23
26.9
33
0
39
0
210
0
220
0
230
1
0
SOLID
5
31E
100
AcDbEntity
8
0
62
256
6
ByLayer
370
-1
48
1
60
0
100
AcDbTrace
10
48.900287
20
3.175
30
0
11
49.95862
21
3.175
31
0
12
49.429454
22
0
32
0
13
49.429454
23
0
33
0
39
0
210
0
220
0
230
1
0
MTEXT
5
31F
100
AcDbEntity
8
0
62
256
6
ByLayer
370
18
48
1
60
0
100
AcDbMText
10
38.179454
20
13.45
30
0
210
0
220
0
230
1
1
\A1;26.9
40
4.5
41
0
44
1
50
90
71
5
72
5
7
iso_b_vert
0
POINT
5
320
100
AcDbEntity
8
Defpoints
62
0
6
ByLayer
370
-1
48
1
60
0
100
AcDbPoint
10
32
20
26.9
30
0
39
0
210
0
220
0
230
1
50
360
0
POINT
5
321
100
AcDbEntity
8
Defpoints
62
0
6
ByLayer
370
-1
48
1
60
0
100
AcDbPoint
10
32
20
0
30
0
39
0
210
0
220
0
230
1
50
360
0
POINT
5
322
100
AcDbEntity
8
Defpoints
62
0
6
ByLayer
370
-1
48
1
60
0
100
AcDbPoint
10
49.429454
20
0
30
0
39
0
210
0
220
0
230
1
50
360
0
ENDBLK
5
319
100
AcDbEntity
8
0
100
AcDbBlockEnd
0
BLOCK
5
32E
100
AcDbEntity
8
0
100
AcDbBlockBegin
2
_U1
70
0
10
0
20
0
30
0
3
_U1
0
MTEXT
5
324
100
AcDbEntity
8
2
62
256
6
ByLayer
370
18
48
1
60
0
100
AcDbMText
10
48.542782
20
8.371816
30
0
210
0
220
0
230
1
1
\W0.7346;27.0
40
4.5
41
0
44
1.084337
50
90
71
7
72
5
7
iso_b_vert
0
LINE
5
325
100
AcDbEntity
8
2
62
256
6
ByLayer
370
13
48
1
60
0
100
AcDbLine
10
34
20
26.9
30
0
11
51.429454
21
26.9
31
0
39
0
210
0
220
0
230
1
0
LINE
5
326
100
AcDbEntity
8
2
62
256
6
ByLayer
370
13
48
1
60
0
100
AcDbLine
10
34
20
0
30
0
11
51.429454
21
0
31
0
39
0
210
0
220
0
230
1
0
LINE
5
327
100
AcDbEntity
8
2
62
256
6
ByLayer
370
13
48
1
60
0
100
AcDbLine
10
49.429454
20
26.9
30
0
11
49.429454
21
0
31
0
39
0
210
0
220
0
230
1
0
LINE
5
328
100
AcDbEntity
8
2
62
256
6
ByLayer
370
13
48
1
60
0
100
AcDbLine
10
49.429454
20
26.9
30
0
11
49.84745
21
23.725002
31
0
39
0
210
0
220
0
230
1
0
LINE
5
329
100
AcDbEntity
8
2
62
256
6
ByLayer
370
13
48
1
60
0
100
AcDbLine
10
49.429454
20
26.9
30
0
11
49.011457
21
23.724998
31
0
39
0
210
0
220
0
230
1
0
LINE
5
32A
100
AcDbEntity
8
2
62
256
6
ByLayer
370
13
48
1
60
0
100
AcDbLine
10
49.84745
20
23.725002
30
0
11
49.011457
21
23.724998
31
0
39
0
210
0
220
0
230
1
0
LINE
5
32B
100
AcDbEntity
8
2
62
256
6
ByLayer
370
13
48
1
60
0
100
AcDbLine
10
49.429454
20
0
30
0
11
49.011457
21
3.174998
31
0
39
0
210
0
220
0
230
1
0
LINE
5
32C
100
AcDbEntity
8
2
62
256
6
ByLayer
370
13
48
1
60
0
100
AcDbLine
10
49.429454
20
0
30
0
11
49.84745
21
3.175002
31
0
39
0
210
0
220
0
230
1
0
LINE
5
32D
100
AcDbEntity
8
2
62
256
6
ByLayer
370
13
48
1
60
0
100
AcDbLine
10
49.011457
20
3.174998
30
0
11
49.84745
21
3.175002
31
0
39
0
210
0
220
0
230
1
0
ENDBLK
5
32F
100
AcDbEntity
8
0
100
AcDbBlockEnd
0
BLOCK
5
334
100
AcDbEntity
8
0
100
AcDbBlockBegin
2
*D6
70
1
10
0
20
0
30
0
3
*D6
0
LINE
5
336
100
AcDbEntity
8
0
62
256
6
ByLayer
370
-2
48
1
60
0
100
AcDbLine
10
0
20
22
30
0
11
0
21
41.65
31
0
39
0
210
0
220
0
230
1
0
LINE
5
337
100
AcDbEntity
8
0
62
256
6
ByLayer
370
-2
48
1
60
0
100
AcDbLine
10
32
20
28.9
30
0
11
32
21
41.65
31
0
39
0
210
0
220
0
230
1
0
LINE
5
338
100
AcDbEntity
8
0
62
256
6
ByLayer
370
-2
48
1
60
0
100
AcDbLine
10
3.175
20
39.65
30
0
11
28.825
21
39.65
31
0
39
0
210
0
220
0
230
1
0
SOLID
5
339
100
AcDbEntity
8
0
62
256
6
ByLayer
370
-1
48
1
60
0
100
AcDbTrace
10
3.175
20
40.179167
30
0
11
3.175
21
39.120833
31
0
12
0
22
39.65
32
0
13
0
23
39.65
33
0
39
0
210
0
220
0
230
1
0
SOLID
5
33A
100
AcDbEntity
8
0
62
256
6
ByLayer
370
-1
48
1
60
0
100
AcDbTrace
10
28.825
20
39.120833
30
0
11
28.825
21
40.179167
31
0
12
32
22
39.65
32
0
13
32
23
39.65
33
0
39
0
210
0
220
0
230
1
0
MTEXT
5
33B
100
AcDbEntity
8
0
62
256
6
ByLayer
370
18
48
1
60
0
100
AcDbMText
10
16
20
50.9
30
0
210
0
220
0
230
1
1
\A1;32
40
4.5
41
0
44
1
50
0
71
5
72
5
7
iso_b_vert
0
POINT
5
33C
100
AcDbEntity
8
Defpoints
62
0
6
ByLayer
370
-1
48
1
60
0
100
AcDbPoint
10
0
20
20
30
0
39
0
210
0
220
0
230
1
50
360
0
POINT
5
33D
100
AcDbEntity
8
Defpoints
62
0
6
ByLayer
370
-1
48
1
60
0
100
AcDbPoint
10
32
20
26.9
30
0
39
0
210
0
220
0
230
1
50
360
0
POINT
5
33E
100
AcDbEntity
8
Defpoints
62
0
6
ByLayer
370
-1
48
1
60
0
100
AcDbPoint
10
32
20
39.65
30
0
39
0
210
0
220
0
230
1
50
360
0
ENDBLK
5
335
100
AcDbEntity
8
0
100
AcDbBlockEnd
0
BLOCK
5
34A
100
AcDbEntity
8
0
100
AcDbBlockBegin
2
_U2
70
0
10
0
20
0
30
0
3
_U2
0
MTEXT
5
340
100
AcDbEntity
8
2
62
256
6
ByLayer
370
18
48
1
60
0
100
AcDbMText
10
10.957816
20
40.977672
30
0
210
0
220
0
230
1
1
\W0.7346;32.0
40
4.5
41
0
44
1.084337
50
0
71
7
72
5
7
iso_b_vert
0
LINE
5
341
100
AcDbEntity
8
2
62
256
6
ByLayer
370
13
48
1
60
0
100
AcDbLine
10
0
20
22
30
0
11
0
21
41.65
31
0
39
0
210
0
220
0
230
1
0
LINE
5
342
100
AcDbEntity
8
2
62
256
6
ByLayer
370
13
48
1
60
0
100
AcDbLine
10
32
20
28.9
30
0
11
32
21
41.65
31
0
39
0
210
0
220
0
230
1
0
LINE
5
343
100
AcDbEntity
8
2
62
256
6
ByLayer
370
13
48
1
60
0
100
AcDbLine
10
0
20
39.65
30
0
11
32
21
39.65
31
0
39
0
210
0
220
0
230
1
0
LINE
5
344
100
AcDbEntity
8
2
62
256
6
ByLayer
370
13
48
1
60
0
100
AcDbLine
10
0
20
39.65
30
0
11
3.174998
21
40.067997
31
0
39
0
210
0
220
0
230
1
0
LINE
5
345
100
AcDbEntity
8
2
62
256
6
ByLayer
370
13
48
1
60
0
100
AcDbLine
10
0
20
39.65
30
0
11
3.175002
21
39.232003
31
0
39
0
210
0
220
0
230
1
0
LINE
5
346
100
AcDbEntity
8
2
62
256
6
ByLayer
370
13
48
1
60
0
100
AcDbLine
10
3.174998
20
40.067997
30
0
11
3.175002
21
39.232003
31
0
39
0
210
0
220
0
230
1
0
LINE
5
347
100
AcDbEntity
8
2
62
256
6
ByLayer
370
13
48
1
60
0
100
AcDbLine
10
32
20
39.65
30
0
11
28.825002
21
39.232003
31
0
39
0
210
0
220
0
230
1
0
LINE
5
348
100
AcDbEntity
8
2
62
256
6
ByLayer
370
13
48
1
60
0
100
AcDbLine
10
32
20
39.65
30
0
11
28.824998
21
40.067997
31
0
39
0
210
0
220
0
230
1
0
LINE
5
349
100
AcDbEntity
8
2
62
256
6
ByLayer
370
13
48
1
60
0
100
AcDbLine
10
28.825002
20
39.232003
30
0
11
28.824998
21
40.067997
31
0
39
0
210
0
220
0
230
1
0
ENDBLK
5
34B
100
AcDbEntity
8
0
100
AcDbBlockEnd
0
ENDSEC
0
SECTION
2
ENTITIES
0
ARC
5
1BF
100
AcDbEntity
8
1
62
256
6
ByLayer
370
18
48
1
60
0
100
AcDbCircle
39
0
10
12.478147
20
2.770492
30
0
40
5.99999999999987
210
0
220
0
230
1
100
AcDbArc
50
286.603137
51
332.5
0
ARC
5
1C0
100
AcDbEntity
8
1
62
256
6
ByLayer
370
18
48
1
60
0
100
AcDbCircle
39
0
10
17.05
20
-12.562419
30
0
40
10
210
0
220
0
230
1
100
AcDbArc
50
118.218383
51
128.41513
0
ARC
5
1C1
100
AcDbEntity
8
2
62
256
6
ByLayer
370
13
48
1
60
0
100
AcDbCircle
39
0
10
17.996746
20
0
30
0
40
28.5416305674427
210
0
220
0
230
1
100
AcDbArc
50
242.5
51
0
0
ELLIPSE
5
1C2
100
AcDbEntity
8
1
62
256
6
ByLayer
370
18
48
1
60
0
100
AcDbEllipse
10
23.64425
20
18.524636
30
0
11
1.95142383299209
21
-1.01584694911707
31
0
210
0
220
0
230
1
40
0.996195
41
3.14155566077622
42
0
0
ELLIPSE
5
1C3
100
AcDbEntity
8
1
62
256
6
ByLayer
370
18
48
1
60
0
100
AcDbEllipse
10
23.673237
20
18.580321
30
0
11
1.9514238329921
21
-1.01584694911708
31
0
210
0
220
0
230
1
40
0.996195
41
0
42
6.28318530717959
0
ELLIPSE
5
1C4
100
AcDbEntity
8
1
62
256
6
ByLayer
370
18
48
1
60
0
100
AcDbEllipse
10
24.829372
20
18.175218
30
0
11
0.0846130232679698
21
0.317523643726723
31
0
210
0
220
0
230
1
40
0.509945
41
1.14649721636583
42
1.56968591697708
0
ELLIPSE
5
1C5
100
AcDbEntity
8
1
62
256
6
ByLayer
370
18
48
1
60
0
100
AcDbEllipse
10
24.828466
20
18.816225
30
0
11
0.0862064445444107
21
-0.317628589673691
31
0
210
0
220
0
230
1
40
0.508349
41
0.726935743442334
42
-2.93337916452004
0
ELLIPSE
5
1C6
100
AcDbEntity
8
1
62
256
6
ByLayer
370
18
48
1
60
0
100
AcDbEllipse
10
23.307102
20
19.694168
30
0
11
0.318283139076921
21
0.0841862473745341
31
0
210
0
220
0
230
1
40
0.508012
41
-2.82191446071498
42
-1.56819569867357
0
ELLIPSE
5
1C7
100
AcDbEntity
8
1
62
256
6
ByLayer
370
18
48
1
60
0
100
AcDbEllipse
10
22.751211
20
19.374615
30
0
11
0.232829517295852
21
0.231963642555061
31
0
210
0
220
0
230
1
40
0.509774
41
-0.209310861251394
42
2.16224050071095
0
ELLIPSE
5
1C8
100
AcDbEntity
8
1
62
256
6
ByLayer
370
18
48
1
60
0
100
AcDbEllipse
10
23.684494
20
18.601945
30
0
11
1.25041917153134
21
-0.650927020077426
31
0
210
0
220
0
230
1
40
0.996195
41
-0.305432619099001
42
0.741764932097578
0
ELLIPSE
5
1C9
100
AcDbEntity
8
1
62
256
6
ByLayer
370
18
48
1
60
0
100
AcDbEllipse
10
23.684494
20
18.601945
30
0
11
1.25041917153134
21
-0.650927020077426
31
0
210
0
220
0
230
1
40
0.996195
41
-1.35263017029561
42
-0.305432619099001
0
ELLIPSE
5
1CA
100
AcDbEntity
8
1
62
256
6
ByLayer
370
18
48
1
60
0
100
AcDbEllipse
10
23.684494
20
18.601945
30
0
11
1.25041917153134
21
-0.650927020077426
31
0
210
0
220
0
230
1
40
0.996195
41
1.78896248329419
42
2.83616003449078
0
ELLIPSE
5
1CB
100
AcDbEntity
8
1
62
256
6
ByLayer
370
18
48
1
60
0
100
AcDbEllipse
10
23.684494
20
18.601945
30
0
11
1.25041917153134
21
-0.650927020077426
31
0
210
0
220
0
230
1
40
0.996195
41
2.83616003449078
42
-2.3998277214922
0
ELLIPSE
5
1CC
100
AcDbEntity
8
1
62
256
6
ByLayer
370
18
48
1
60
0
100
AcDbEllipse
10
23.684494
20
18.601945
30
0
11
1.25041917153134
21
-0.650927020077426
31
0
210
0
220
0
230
1
40
0.996195
41
-2.3998277214922
42
-1.35263017029561
0
ELLIPSE
5
1CD
100
AcDbEntity
8
1
62
256
6
ByLayer
370
18
48
1
60
0
100
AcDbEllipse
10
23.684494
20
18.601945
30
0
11
1.25041917153134
21
-0.650927020077426
31
0
210
0
220
0
230
1
40
0.996195
41
0.741764932097578
42
1.78896248329419
0
ELLIPSE
5
1CE
100
AcDbEntity
8
1
62
256
6
ByLayer
370
18
48
1
60
0
100
AcDbEllipse
10
24.50631
20
19.371807
30
0
11
0.233554013229118
21
-0.232693000907127
31
0
210
0
220
0
230
1
40
0.5066
41
-2.82600540349929
42
-1.57228664145998
0
ELLIPSE
5
1CF
100
AcDbEntity
8
1
62
256
6
ByLayer
370
18
48
1
60
0
100
AcDbEllipse
10
23.949513
20
19.693262
30
0
11
0.318389430787129
21
-0.0857764697099205
31
0
210
0
220
0
230
1
40
0.506433
41
-0.0124597830621132
42
2.45162190262337
0
ELLIPSE
5
1D0
100
AcDbEntity
8
1
62
256
6
ByLayer
370
18
48
1
60
0
100
AcDbEllipse
10
23.630164
20
18.497579
30
0
11
-0.953004439166682
21
0.496102710059719
31
0
210
0
220
0
230
1
40
0.996195
41
-0.829031394697319
42
-1.0514298003486E-05
0
ELLIPSE
5
1D1
100
AcDbEntity
8
1
62
256
6
ByLayer
370
18
48
1
60
0
100
AcDbEllipse
10
23.630164
20
18.497579
30
0
11
-0.953004439166682
21
0.496102710059719
31
0
210
0
220
0
230
1
40
0.996195
41
2.54600477141903
42
-2.92342649709052
0
ELLIPSE
5
1D2
100
AcDbEntity
8
1
62
256
6
ByLayer
370
18
48
1
60
0
100
AcDbEllipse
10
23.630164
20
18.497579
30
0
11
-0.953004439166682
21
0.496102710059719
31
0
210
0
220
0
230
1
40
0.996195
41
1.47135057140962
42
2.14900165735401
0
ELLIPSE
5
1D3
100
AcDbEntity
8
1
62
256
6
ByLayer
370
18
48
1
60
0
100
AcDbEllipse
10
23.630164
20
18.497579
30
0
11
0.953004439166679
21
-0.496102710059718
31
0
210
0
220
0
230
1
40
0.996195
41
1.26536370769588
42
2.31256125889248
0
ELLIPSE
5
1D4
100
AcDbEntity
8
1
62
256
6
ByLayer
370
18
48
1
60
0
100
AcDbEllipse
10
23.630164
20
18.497579
30
0
11
-0.953004439166682
21
0.496102710059719
31
0
210
0
220
0
230
1
40
0.996195
41
-2.92342649709051
42
-1.87622894589392
0
ELLIPSE
5
1D5
100
AcDbEntity
8
1
62
256
6
ByLayer
370
18
48
1
60
0
100
AcDbEllipse
10
23.630164
20
18.497579
30
0
11
-0.953004439166682
21
0.496102710059719
31
0
210
0
220
0
230
1
40
0.996195
41
0.274976326332664
42
0.999048415407905
0
ELLIPSE
5
1D6
100
AcDbEntity
8
1
62
256
6
ByLayer
370
18
48
1
60
0
100
AcDbEllipse
10
23.603
20
18.445396
30
0
11
-0.953004439166681
21
0.496102710059718
31
0
210
0
220
0
230
1
40
0.996195
41
-3.11414073176699
42
-0.0274275008147377
0
ELLIPSE
5
1D7
100
AcDbEntity
8
1
62
256
6
ByLayer
370
18
48
1
60
0
100
AcDbEllipse
10
24.50631
20
19.371807
30
0
11
0.233554013228977
21
-0.23269300090729
31
0
210
0
220
0
230
1
40
0.5066
41
-1.57228664145856
42
-0.318567879419266
0
ELLIPSE
5
1D8
100
AcDbEntity
8
1
62
256
6
ByLayer
370
18
48
1
60
0
100
AcDbEllipse
10
22.430957
20
18.819939
30
0
11
0.0846130232680776
21
0.317523643726301
31
0
210
0
220
0
230
1
40
0.509945
41
-2.82562549865322
42
-1.99509468393435
0
ELLIPSE
5
1D9
100
AcDbEntity
8
1
62
256
6
ByLayer
370
18
48
1
60
0
100
AcDbEllipse
10
22.431862
20
18.178932
30
0
11
0.086206444544411
21
-0.31762858967369
31
0
210
0
220
0
230
1
40
0.508349
41
2.92817204151475
42
-2.66007242908975
0
ELLIPSE
5
1DA
100
AcDbEntity
8
1
62
256
6
ByLayer
370
18
48
1
60
0
100
AcDbEllipse
10
24.509118
20
17.620542
30
0
11
0.232829517295855
21
0.231963642555058
31
0
210
0
220
0
230
1
40
0.509774
41
-0.979353028292703
42
0.212323239893439
0
ELLIPSE
5
1DB
100
AcDbEntity
8
1
62
256
6
ByLayer
370
18
48
1
60
0
100
AcDbEllipse
10
23.307102
20
19.694168
30
0
11
0.31828313907633
21
0.084186247375265
31
0
210
0
220
0
230
1
40
0.508012
41
-1.56819569867924
42
-0.31447693663649
0
ELLIPSE
5
1DC
100
AcDbEntity
8
1
62
256
6
ByLayer
370
18
48
1
60
0
100
AcDbEllipse
10
24.829372
20
18.175218
30
0
11
0.0846130232678126
21
0.317523643726946
31
0
210
0
220
0
230
1
40
0.509945
41
1.56968591697575
42
2.82340467901596
0
ELLIPSE
5
1DD
100
AcDbEntity
8
1
62
256
6
ByLayer
370
18
48
1
60
0
100
AcDbEllipse
10
23.589774
20
13.953859
30
0
11
0.929947979915506
21
0.484684315380796
31
0
210
0
220
0
230
1
40
0.031084
41
0.973771886201122
42
2.02096943740045
0
ELLIPSE
5
1DE
100
AcDbEntity
8
1
62
256
6
ByLayer
370
18
48
1
60
0
100
AcDbEllipse
10
24.8601
20
14.612959
30
0
11
0.278984393916987
21
0.145405294582681
31
0
210
0
220
0
230
1
40
0.031084
41
0.450173110637392
42
0.973771886305967
0
ELLIPSE
5
1DF
100
AcDbEntity
8
1
62
256
6
ByLayer
370
18
48
1
60
0
100
AcDbEllipse
10
21.839777
20
13.051286
30
0
11
0.190639334183294
21
0.0993602838108989
31
0
210
0
220
0
230
1
40
0.031084
41
-0.893363858206545
42
-0.597024442609989
0
ELLIPSE
5
1E0
100
AcDbEntity
8
1
62
256
6
ByLayer
370
18
48
1
60
0
100
AcDbEllipse
10
25.769506
20
16.523818
30
0
11
-1.05642990231526
21
0.549942598362922
31
0
210
0
220
0
230
1
40
0.996195
41
2.53072741539177
42
3.14159265358979
0
ELLIPSE
5
1E1
100
AcDbEntity
8
1
62
256
6
ByLayer
370
18
48
1
60
0
100
AcDbEllipse
10
16.164283
20
11.098926
30
0
11
0.704286601543508
21
-0.366628398908615
31
0
210
0
220
0
230
1
40
0.996195
41
3.14159265358979
42
-0.610865238198011
0
ELLIPSE
5
1E2
100
AcDbEntity
8
1
62
256
6
ByLayer
370
18
48
1
60
0
100
AcDbEllipse
10
22.321475
20
13.297212
30
0
11
0.278984393886348
21
0.145405294570745
31
0
210
0
220
0
230
1
40
0.031084
41
2.02096943722698
42
2.54456821294217
0
ELLIPSE
5
1E3
100
AcDbEntity
8
1
62
256
6
ByLayer
370
18
48
1
60
0
100
AcDbEllipse
10
21.601084
20
20.683148
30
0
11
-1.05642990231526
21
0.549942598362922
31
0
210
0
220
0
230
1
40
0.996195
41
-0.610865238198022
42
-2.99436052652257E-15
0
ELLIPSE
5
1E4
100
AcDbEntity
8
1
62
256
6
ByLayer
370
18
48
1
60
0
100
AcDbEllipse
10
25.352587
20
14.871944
30
0
11
0.190639335892231
21
0.0993602846583333
31
0
210
0
220
0
230
1
40
0.031084
41
-2.69141954298709
42
-1.64422199183034
0
ELLIPSE
5
1E5
100
AcDbEntity
8
1
62
256
6
ByLayer
370
18
48
1
60
0
100
AcDbEllipse
10
23.650835
20
18.537286
30
0
11
-2.00406882843344
21
1.04325219912028
31
0
210
0
220
0
230
1
40
0.996195
41
0.481528579361968
42
0.926067145022262
0
ELLIPSE
5
1E6
100
AcDbEntity
8
1
62
256
6
ByLayer
370
18
48
1
60
0
100
AcDbEllipse
10
23.650835
20
18.537286
30
0
11
-2.00406882843344
21
1.04325219912028
31
0
210
0
220
0
230
1
40
0.996195
41
1.57392292351452
42
2.21559339059913
0
ELLIPSE
5
1E7
100
AcDbEntity
8
1
62
256
6
ByLayer
370
18
48
1
60
0
100
AcDbEllipse
10
23.650835
20
18.537286
30
0
11
-2.00406882843344
21
1.04325219912028
31
0
210
0
220
0
230
1
40
0.996195
41
2.21559294738564
42
0
0
ELLIPSE
5
1E8
100
AcDbEntity
8
1
62
256
6
ByLayer
370
18
48
1
60
0
100
AcDbEllipse
10
23.650835
20
18.537286
30
0
11
-2.00406882843344
21
1.04325219912028
31
0
210
0
220
0
230
1
40
0.996195
41
0
42
0.481528976300428
0
ELLIPSE
5
1E9
100
AcDbEntity
8
1
62
256
6
ByLayer
370
18
48
1
60
0
100
AcDbEllipse
10
15.202175
20
10.127945
30
0
11
1.41921733308516
21
-0.738797781176052
31
0
210
0
220
0
230
1
40
0.996195
41
-1.8762289458939
42
-0.305432619098998
0
ELLIPSE
5
1EA
100
AcDbEntity
8
1
62
256
6
ByLayer
370
18
48
1
60
0
100
AcDbEllipse
10
3.366012
20
0.698431
30
0
11
-4.63512417923465
21
-8.90399070460148
31
0
210
-9.98402000562191E-17
220
1.23259516440783E-32
230
1
40
0.996195
41
1.58959111664303
42
2.46253280516662
0
ELLIPSE
5
1EB
100
AcDbEntity
8
1
62
256
6
ByLayer
370
18
48
1
60
0
100
AcDbEllipse
10
11.358644
20
11.845657
30
0
11
2.66103249953467
21
-1.3852458397051
31
0
210
0
220
0
230
1
40
0.996195
41
-2.66318693398665
42
-1.70801058004111
0
ELLIPSE
5
1EC
100
AcDbEntity
8
1
62
256
6
ByLayer
370
18
48
1
60
0
100
AcDbEllipse
10
13.961426
20
10.755177
30
0
11
0.141266400133305
21
-0.141576142740848
31
0
210
0
220
0
230
1
40
0.083122
41
-3.11529037214941
42
-1.54449404535454
0
ELLIPSE
5
1ED
100
AcDbEntity
8
1
62
256
6
ByLayer
370
18
48
1
60
0
100
AcDbEllipse
10
17.980518
20
10.72997
30
0
11
0.119416727325654
21
-0.163357945521421
31
0
210
0
220
0
230
1
40
0.077261
41
-1.53257549733742
42
-1.23748777282633
0
ELLIPSE
5
1EE
100
AcDbEntity
8
1
62
256
6
ByLayer
370
18
48
1
60
0
100
AcDbEllipse
10
14.156416
20
20.404028
30
0
11
-2.83843466617031
21
1.4775955623521
31
0
210
0
220
0
230
1
40
0.996195
41
0.631162420765284
42
1.26536370769589
0
ELLIPSE
5
1EF
100
AcDbEntity
8
1
62
256
6
ByLayer
370
18
48
1
60
0
100
AcDbEllipse
10
15.958348
20
12.74773
30
0
11
0.163122308985956
21
-0.119743618520338
31
0
210
0
220
0
230
1
40
0.085139
41
-3.12844151286962
42
-1.55764518607497
0
ELLIPSE
5
1F0
100
AcDbEntity
8
1
62
256
6
ByLayer
370
18
48
1
60
0
100
AcDbEllipse
10
7.005675
20
0
30
0
11
0.0624254004316835
21
19.9999998429455
31
0
210
0
220
0
230
1
40
0.040156
41
-0.466680653542928
42
-0.179314608420312
0
ELLIPSE
5
1F1
100
AcDbEntity
8
1
62
256
6
ByLayer
370
18
48
1
60
0
100
AcDbEllipse
10
3.165287
20
0.31284
30
0
11
-9.93452133159609
21
5.17158446823236
31
0
210
0
220
0
230
1
40
0.996195
41
-2.97009320610853
42
-1.7080105800411
0
ELLIPSE
5
1F2
100
AcDbEntity
8
1
62
256
6
ByLayer
370
18
48
1
60
0
100
AcDbEllipse
10
15.576005
20
22.854531
30
0
11
2.81499708925442
21
3.89377817077193
31
0
210
0
220
0
230
1
40
0.871211
41
-2.21230772791799
42
-2.15008345881378
0
ELLIPSE
5
1F3
100
AcDbEntity
8
1
62
256
6
ByLayer
370
18
48
1
60
0
100
AcDbEllipse
10
14.952115
20
9.766648
30
0
11
1.41921733308516
21
-0.738797781176052
31
0
210
0
220
0
230
1
40
0.996195
41
2.83616003449079
42
2.99895829092903
0
ELLIPSE
5
1F4
100
AcDbEntity
8
1
62
256
6
ByLayer
370
18
48
1
60
0
100
AcDbEllipse
10
103.579576
20
-0.005057
30
0
11
496.630795381628
21
-1.55106551411713
31
0
210
0
220
0
230
1
40
0.04016
41
1.75940741454624
42
1.76384523231829
0
ELLIPSE
5
1F5
100
AcDbEntity
8
1
62
256
6
ByLayer
370
18
48
1
60
0
100
AcDbEllipse
10
17.05
20
-12.562419
30
0
11
9.52351906522912
21
3.05001318348591
31
0
210
0
220
0
230
1
40
1
41
1.550635910391
42
1.58835001660577
0
ELLIPSE
5
1F6
100
AcDbEntity
8
1
62
256
6
ByLayer
370
18
48
1
60
0
100
AcDbEllipse
10
9.675946
20
9.501916
30
0
11
0.693980345984409
21
0.978974606099341
31
0
210
0
220
0
230
1
40
0.011922
41
3.14096816443773
42
-1.65724666173392
0
ELLIPSE
5
1F7
100
AcDbEntity
8
1
62
256
6
ByLayer
370
18
48
1
60
0
100
AcDbEllipse
10
7.449704
20
20.07051
30
0
11
0.499627228540031
21
160.588815476472
31
0
210
0
220
0
230
1
40
0.000125
41
1.58456090203559
42
1.60192735204686
0
ELLIPSE
5
1F8
100
AcDbEntity
8
1
62
256
6
ByLayer
370
18
48
1
60
0
100
AcDbEllipse
10
15.161383
20
10.168648
30
0
11
1.41921733308516
21
-0.738797781176052
31
0
210
0
220
0
230
1
40
0.996195
41
2.83616003449079
42
-1.8762289458939
0
ELLIPSE
5
1F9
100
AcDbEntity
8
1
62
256
6
ByLayer
370
18
48
1
60
0
100
AcDbEllipse
10
14.944066
20
9.751187
30
0
11
-1.24181516644951
21
0.646448058529045
31
0
210
0
220
0
230
1
40
0.996195
41
-0.305432619099007
42
0.28886821373761
0
ELLIPSE
5
1FA
100
AcDbEntity
8
1
62
256
6
ByLayer
370
18
48
1
60
0
100
AcDbEllipse
10
14.176542
20
20.44269
30
0
11
3.28194008275942
21
-1.70846986896962
31
0
210
0
220
0
230
1
40
0.996195
41
-2.50607723600903
42
-1.8762289458939
0
ELLIPSE
5
1FB
100
AcDbEntity
8
1
62
256
6
ByLayer
370
18
48
1
60
0
100
AcDbEllipse
10
8.409367
20
11.947768
30
0
11
1.2
21
0
31
0
210
0
220
0
230
1
40
0.077371
41
-3.14156721794319
42
-1.61105124116381
0
ELLIPSE
5
1FC
100
AcDbEntity
8
1
62
256
6
ByLayer
370
18
48
1
60
0
100
AcDbEllipse
10
15.492686
20
22.694477
30
0
11
2.62661463792322
21
3.51875653744343
31
0
210
0
220
0
230
1
40
0.955327
41
-2.1486179747867
42
-2.01299279084826
0
ELLIPSE
5
1FD
100
AcDbEntity
8
1
62
256
6
ByLayer
370
18
48
1
60
0
100
AcDbEllipse
10
7.434048
20
9.899495
30
0
11
0.0163866676132174
21
5.24999995876447
31
0
210
0
220
0
230
1
40
0.040156
41
0.172061854550204
42
1.15438763168831
0
ELLIPSE
5
1FE
100
AcDbEntity
8
1
62
256
6
ByLayer
370
18
48
1
60
0
100
AcDbEllipse
10
15.434806
20
22.58329
30
0
11
3.72544549934854
21
-1.93934417558714
31
0
210
0
220
0
230
1
40
0.996195
41
-1.8762289458939
42
-0.808714691440877
0
ELLIPSE
5
1FF
100
AcDbEntity
8
1
62
256
6
ByLayer
370
18
48
1
60
0
100
AcDbEllipse
10
-30.531945
20
0.043488
30
0
11
496.013996374975
21
-1.55191707515309
31
0
210
0
220
0
230
1
40
0.040112
41
1.48432519424674
42
1.48702928936357
0
ELLIPSE
5
200
100
AcDbEntity
8
1
62
256
6
ByLayer
370
18
48
1
60
0
100
AcDbEllipse
10
16.329352
20
13.460423
30
0
11
0.244980957718567
21
0.0378430768695837
31
0
210
0
220
0
230
1
40
0.056735
41
3.09996935989435
42
-1.61241962049028
0
ELLIPSE
5
201
100
AcDbEntity
8
1
62
256
6
ByLayer
370
18
48
1
60
0
100
AcDbEllipse
10
31.206307
20
26.10804
30
0
11
0.704286601543508
21
-0.366628398908615
31
0
210
0
220
0
230
1
40
0.996195
41
0
42
2.53072741539179
0
ELLIPSE
5
202
100
AcDbEntity
8
1
62
256
6
ByLayer
370
18
48
1
60
0
100
AcDbEllipse
10
23.685295
20
18.603483
30
0
11
-2.05717995597728
21
1.07090010213726
31
0
210
0
220
0
230
1
40
0.996195
41
0
42
6.28318530717959
0
ELLIPSE
5
203
100
AcDbEntity
8
1
62
256
6
ByLayer
370
18
48
1
60
0
100
AcDbEllipse
10
23.684494
20
18.601945
30
0
11
1.33051624976734
21
-0.69262291985255
31
0
210
0
220
0
230
1
40
0.996195
41
0
42
6.28318530717959
0
POINT
5
70
100
AcDbEntity
8
81
62
256
6
ByLayer
370
18
48
1
60
0
100
AcDbPoint
10
32
20
26.9
30
0
39
0
210
0
220
0
230
1
50
360
0
POINT
5
72
100
AcDbEntity
8
80
62
256
6
ByLayer
370
18
48
1
60
0
100
AcDbPoint
10
0
20
0
30
0
39
0
210
0
220
0
230
1
50
360
0
POINT
5
74
100
AcDbEntity
8
2
62
256
6
ByLayer
370
18
48
1
60
0
100
AcDbPoint
10
31.854935
20
26.132599
30
0
39
0
210
0
220
0
230
1
50
360
0
POINT
5
76
100
AcDbEntity
8
2
62
256
6
ByLayer
370
13
48
1
60
0
100
AcDbPoint
10
23.685295
20
18.603483
30
0
39
0
210
0
220
0
230
1
50
360
0
POINT
5
77
100
AcDbEntity
8
2
62
256
6
ByLayer
370
18
48
1
60
0
100
AcDbPoint
10
32
20
26.9
30
0
39
0
210
0
220
0
230
1
50
360
0
POINT
5
78
100
AcDbEntity
8
1
62
256
6
ByLayer
370
18
48
1
60
1
100
AcDbPoint
10
0
20
-20
30
0
39
0
210
0
220
0
230
1
50
360
0
POINT
5
7A
100
AcDbEntity
8
1
62
256
6
ByLayer
370
18
48
1
60
1
100
AcDbPoint
10
0
20
20
30
0
39
0
210
0
220
0
230
1
50
360
0
POINT
5
7B
100
AcDbEntity
8
1
62
256
6
ByLayer
370
18
48
1
60
1
100
AcDbPoint
10
32
20
26.9
30
0
39
0
210
0
220
0
230
1
50
360
0
POINT
5
7C
100
AcDbEntity
8
1
62
256
6
ByLayer
370
18
48
1
60
1
100
AcDbPoint
10
32
20
0
30
0
39
0
210
0
220
0
230
1
50
360
0
POINT
5
7D
100
AcDbEntity
8
1
62
256
6
ByLayer
370
18
48
1
60
1
100
AcDbPoint
10
0
20
20
30
0
39
0
210
0
220
0
230
1
50
360
0
POINT
5
7E
100
AcDbEntity
8
1
62
256
6
ByLayer
370
18
48
1
60
1
100
AcDbPoint
10
32
20
26.9
30
0
39
0
210
0
220
0
230
1
50
360
0
SPLINE
5
204
100
AcDbEntity
8
1
62
256
6
ByLayer
370
18
48
1
60
0
100
AcDbSpline
70
4
71
3
72
8
73
4
40
0
40
0
40
0
40
0
40
1
40
1
40
1
40
1
41
1
10
23.0627881645954
20
17.5352314093702
30
0
41
1
10
23.0615419310958
20
17.5290097111404
30
0
41
1
10
23.0602960575556
20
17.5227894359297
30
0
41
1
10
23.0590505277942
20
17.5165705202105
30
0
0
SPLINE
5
205
100
AcDbEntity
8
1
62
256
6
ByLayer
370
18
48
1
60
0
100
AcDbSpline
70
4
71
3
72
8
73
4
40
0
40
0
40
0
40
0
40
1
40
1
40
1
40
1
41
1
10
23.6874854019469
20
17.3673056964411
30
0
41
1
10
23.6896342030805
20
17.3741922167744
30
0
41
1
10
23.6924783061819
20
17.3809410559191
30
0
41
1
10
23.6958746801614
20
17.3875082026866
30
0
0
SPLINE
5
206
100
AcDbEntity
8
1
62
256
6
ByLayer
370
18
48
1
60
0
100
AcDbSpline
70
4
71
3
72
30
73
26
40
0
40
0
40
0
40
0
40
0.0134043370726988
40
0.0134043370726988
40
0.0861155066655557
40
0.0861155066655557
40
0.158653203822487
40
0.158653203822487
40
0.231112572672139
40
0.231112572672139
40
0.303534138829414
40
0.303534138829414
40
0.460103508004483
40
0.460103508004483
40
0.567542487417876
40
0.567542487417876
40
0.675025257747376
40
0.675025257747376
40
0.774479279307983
40
0.774479279307983
40
0.855107872809972
40
0.855107872809972
40
0.91850520296834
40
0.91850520296834
40
1
40
1
40
1
40
1
41
1
10
23.7081645712743
20
17.4074454369294
30
0
41
1
10
23.7096674800956
20
17.4095452707854
30
0
41
1
10
23.7112175131513
20
17.411618471942
30
0
41
1
10
23.7214993960608
20
17.4248294896449
30
0
41
1
10
23.7315545036998
20
17.4353387784564
30
0
41
1
10
23.7533591955893
20
17.4549831107743
30
0
41
1
10
23.7651788642325
20
17.4641844314621
30
0
41
1
10
23.7900423920365
20
17.4813781642985
30
0
41
1
10
23.8031409853944
20
17.4894083603854
30
0
41
1
10
23.8302568488655
20
17.5043551972311
30
0
41
1
10
23.844320395905
20
17.5112970148449
30
0
41
1
10
23.8897385506443
20
17.5314935858571
30
0
41
1
10
23.9226466273217
20
17.5429473928824
30
0
41
1
10
23.9792493214627
20
17.5579989094789
30
0
41
1
10
24.0027893115312
20
17.5629755642153
30
0
41
1
10
24.0500074724784
20
17.5703398163369
30
0
41
1
10
24.0738316262379
20
17.5727514572474
30
0
41
1
10
24.1192711727773
20
17.5745280081621
30
0
41
1
10
24.1410626588999
20
17.5741153880859
30
0
41
1
10
24.1796024089201
20
17.5705517261717
30
0
41
1
10
24.1966337461386
20
17.5679227173649
30
0
41
1
10
24.2259229997695
20
17.5609381391505
30
0
41
1
10
24.2385000299487
20
17.5570504319111
30
0
41
1
10
24.2656319113249
20
17.5459636502694
30
0
41
1
10
24.2800061920924
20
17.5380265641193
30
0
41
1
10
24.2921058719992
20
17.5280834682006
30
0
0
SPLINE
5
207
100
AcDbEntity
8
1
62
256
6
ByLayer
370
18
48
1
60
0
100
AcDbSpline
70
4
71
3
72
8
73
4
40
0
40
0
40
0
40
0
40
1
40
1
40
1
40
1
41
1
10
23.6818241368666
20
17.3491619004121
30
0
41
1
10
23.6837107571087
20
17.3552084837284
30
0
41
1
10
23.6855978382632
20
17.3612563950492
30
0
41
1
10
23.6874854019469
20
17.3673056964411
30
0
0
SPLINE
5
208
100
AcDbEntity
8
1
62
256
6
ByLayer
370
18
48
1
60
0
100
AcDbSpline
70
4
71
3
72
8
73
4
40
0
40
0
40
0
40
0
40
1
40
1
40
1
40
1
41
1
10
24.7624045273583
20
17.9695182355663
30
0
41
1
10
24.7577743952554
20
17.9741747235
30
0
41
1
10
24.7531435333895
20
17.9788322854539
30
0
41
1
10
24.7485119081188
20
17.9834909717074
30
0
0
SPLINE
5
209
100
AcDbEntity
8
1
62
256
6
ByLayer
370
18
48
1
60
0
100
AcDbSpline
70
4
71
3
72
8
73
4
40
0
40
0
40
0
40
0
40
1
40
1
40
1
40
1
41
1
10
24.9096437177929
20
18.586790154275
30
0
41
1
10
24.9161375829121
20
18.5891039446587
30
0
41
1
10
24.9226303287194
20
18.5914175267767
30
0
41
1
10
24.929122004641
20
18.5937309094503
30
0
0
SPLINE
5
20A
100
AcDbEntity
8
1
62
256
6
ByLayer
370
18
48
1
60
0
100
AcDbSpline
70
4
71
3
72
26
73
22
40
0
40
0
40
0
40
0
40
0.0960907153589854
40
0.0960907153589854
40
0.185424840422342
40
0.185424840422342
40
0.268226218271418
40
0.268226218271418
40
0.405006282864231
40
0.405006282864231
40
0.518657521663969
40
0.518657521663969
40
0.631966610596831
40
0.631966610596831
40
0.745131701712886
40
0.745131701712886
40
0.85823092839921
40
0.85823092839921
40
0.971301160434104
40
0.971301160434104
40
1
40
1
40
1
40
1
41
1
10
22.599132735632
20
19.2200584897901
30
0
41
1
10
22.5878319132955
20
19.2253374747587
30
0
41
1
10
22.5773083026126
20
19.2329418925339
30
0
41
1
10
22.5609736783104
20
19.2515081246412
30
0
41
1
10
22.5546933782208
20
19.2624476488932
30
0
41
1
10
22.5465592547882
20
19.2852122381469
30
0
41
1
10
22.5442860487564
20
19.2971459229526
30
0
41
1
10
22.5420225447443
20
19.3289979818463
30
0
41
1
10
22.5443109728286
20
19.3496084239179
30
0
41
1
10
22.5525331071619
20
19.3861010950938
30
0
41
1
10
22.5578526713746
20
19.4025004113487
30
0
41
1
10
22.5705718258611
20
19.434307552237
30
0
41
1
10
22.5780095136253
20
19.4498193441198
30
0
41
1
10
22.5944348938673
20
19.4798869695484
30
0
41
1
10
22.6034529884989
20
19.4944980250558
30
0
41
1
10
22.6227320336284
20
19.5227835274023
30
0
41
1
10
22.6330174391064
20
19.5364931485127
30
0
41
1
10
22.6546436258689
20
19.5629669883221
30
0
41
1
10
22.6660060462346
20
19.57575735472
30
0
41
1
10
22.6808413926626
20
19.5911741605488
30
0
41
1
10
22.6838759441714
20
19.594264172949
30
0
41
1
10
22.6869406439524
20
19.5973221677295
30
0
0
SPLINE
5
20B
100
AcDbEntity
8
1
62
256
6
ByLayer
370
18
48
1
60
0
100
AcDbSpline
70
4
71
3
72
8
73
4
40
0
40
0
40
0
40
0
40
1
40
1
40
1
40
1
41
1
10
23.0541333620503
20
19.6740636583739
30
0
41
1
10
23.0589366150336
20
19.6693073354513
30
0
41
1
10
23.0637408618271
20
19.6645503667348
30
0
41
1
10
23.068546148779
20
19.6597927226884
30
0
0
SPLINE
5
20C
100
AcDbEntity
8
1
62
256
6
ByLayer
370
18
48
1
60
0
100
AcDbSpline
70
4
71
3
72
26
73
22
40
0
40
0
40
0
40
0
40
0.192635434265202
40
0.192635434265202
40
0.302770898699783
40
0.302770898699783
40
0.412976465183139
40
0.412976465183139
40
0.52333356190581
40
0.52333356190581
40
0.619800125856636
40
0.619800125856636
40
0.69051480451644
40
0.69051480451644
40
0.807896947452414
40
0.807896947452414
40
0.891597280195597
40
0.891597280195597
40
0.975315961249748
40
0.975315961249748
40
1
40
1
40
1
40
1
41
1
10
22.6869406439524
20
19.5973221677295
30
0
41
1
10
22.7074599414996
20
19.617796572821
30
0
41
1
10
22.7293860980187
20
19.6369129437769
30
0
41
1
10
22.7657015394734
20
19.66418317985
30
0
41
1
10
22.7793487393992
20
19.6735561900471
30
0
41
1
10
22.8073929684204
20
19.690905900078
30
0
41
1
10
22.8218279632497
20
19.6989067467614
30
0
41
1
10
22.851398808366
20
19.7131281146507
30
0
41
1
10
22.8665971867579
20
19.7193789507533
30
0
41
1
10
22.8955750213554
20
19.7287996799287
30
0
41
1
10
22.9093697391859
20
19.7322823428604
30
0
41
1
10
22.9333665449271
20
19.7360612520691
30
0
41
1
10
22.9436030005891
20
19.7369640610881
30
0
41
1
10
22.9703210819237
20
19.7369419450159
30
0
41
1
10
22.9870240943673
20
19.7343774424243
30
0
41
1
10
23.0124629607246
20
19.724171787906
30
0
41
1
10
23.022328546426
20
19.7180478031347
30
0
41
1
10
23.0386758039021
20
19.7027737426328
30
0
41
1
10
23.0453540331518
20
19.6934488331203
30
0
41
1
10
23.0516694702637
20
19.6803226583705
30
0
41
1
10
23.0529735640809
20
19.6772231883934
30
0
41
1
10
23.0541333620503
20
19.6740636583739
30
0
0
SPLINE
5
20D
100
AcDbEntity
8
1
62
256
6
ByLayer
370
18
48
1
60
0
100
AcDbSpline
70
4
71
3
72
26
73
22
40
0
40
0
40
0
40
0
40
0.0843971137812344
40
0.0843971137812344
40
0.289834052491962
40
0.289834052491962
40
0.392095130871006
40
0.392095130871006
40
0.49445277153722
40
0.49445277153722
40
0.597019768820947
40
0.597019768820947
40
0.672954859099012
40
0.672954859099012
40
0.796883557884328
40
0.796883557884328
40
0.881282445819637
40
0.881282445819637
40
0.96582525704169
40
0.96582525704169
40
1
40
1
40
1
40
1
41
1
10
25.044486131842
20
18.9635871627614
30
0
41
1
10
25.0411636867942
20
18.975893155843
30
0
41
1
10
25.0374716416301
20
18.9880995402833
30
0
41
1
10
25.0235647595161
20
19.0294790476911
30
0
41
1
10
25.0115361311729
20
19.0581394265918
30
0
41
1
10
24.9900550821368
20
19.0989963271354
30
0
41
1
10
24.9823071388237
20
19.1122824601548
30
0
41
1
10
24.96553016927
20
19.1379064948633
30
0
41
1
10
24.9564741118626
20
19.1502862476088
30
0
41
1
10
24.9369178213636
20
19.1736540140593
30
0
41
1
10
24.9263626477431
20
19.18470507564
30
0
41
1
10
24.9066073927987
20
19.2020080838444
30
0
41
1
10
24.897716439473
20
19.2087988208983
30
0
41
1
10
24.8733515625269
20
19.2242168676558
30
0
41
1
10
24.8567376436401
20
19.2315877526464
30
0
41
1
10
24.8282805574488
20
19.2370268855096
30
0
41
1
10
24.816332161093
20
19.2372975419802
30
0
41
1
10
24.7936623118234
20
19.233401458888
30
0
41
1
10
24.7826730443319
20
19.2291789361617
30
0
41
1
10
24.7688626911402
20
19.2208204857821
30
0
41
1
10
24.7650130589032
20
19.2181012010957
30
0
41
1
10
24.7613490219868
20
19.2151446978325
30
0
0
SPLINE
5
20E
100
AcDbEntity
8
1
62
256
6
ByLayer
370
18
48
1
60
0
100
AcDbSpline
70
4
71
3
72
26
73
22
40
0
40
0
40
0
40
0
40
0.0864636496434042
40
0.0864636496434042
40
0.153674415595195
40
0.153674415595195
40
0.220724831832371
40
0.220724831832371
40
0.2877028450872
40
0.2877028450872
40
0.35464591532126
40
0.35464591532126
40
0.499371234495056
40
0.499371234495056
40
0.701681266350134
40
0.701681266350134
40
0.859633921782573
40
0.859633921782573
40
0.963032016066392
40
0.963032016066392
40
1
40
1
40
1
40
1
41
1
10
23.068546148779
20
19.6597927226884
30
0
41
1
10
23.0816023795514
20
19.6468659403288
30
0
41
1
10
23.0976767068244
20
19.6366464767316
30
0
41
1
10
23.1281418370342
20
19.6225645646662
30
0
41
1
10
23.1423506089122
20
19.6176891104196
30
0
41
1
10
23.1715062407057
20
19.6101063210543
30
0
41
1
10
23.18654847758
20
19.6073715820656
30
0
41
1
10
23.2170477424586
20
19.6036911272322
30
0
41
1
10
23.2325718903525
20
19.602737319999
30
0
41
1
10
23.2638182876992
20
19.602385086261
30
0
41
1
10
23.2795936959734
20
19.6029863467825
30
0
41
1
10
23.3293549291536
20
19.6070966041078
30
0
41
1
10
23.3637125685325
20
19.6131813806989
30
0
41
1
10
23.4438207490692
20
19.6344833633547
30
0
41
1
10
23.4898324525216
20
19.6525999318859
30
0
41
1
10
23.5642852317963
20
19.6942585376542
30
0
41
1
10
23.5951754538704
20
19.7161664782421
30
0
41
1
10
23.6377724633912
20
19.7585922073406
30
0
41
1
10
23.6527590828026
20
19.7773842166183
30
0
41
1
10
23.6672886041679
20
19.8051524079474
30
0
41
1
10
23.6705961511112
20
19.8127785169236
30
0
41
1
10
23.6731666188299
20
19.8205704944439
30
0
0
SPLINE
5
20F
100
AcDbEntity
8
1
62
256
6
ByLayer
370
18
48
1
60
0
100
AcDbSpline
70
4
71
3
72
26
73
22
40
0
40
0
40
0
40
0
40
0.0960918903649582
40
0.0960918903649582
40
0.185427107814071
40
0.185427107814071
40
0.268229498165918
40
0.268229498165918
40
0.405011235318683
40
0.405011235318683
40
0.518663863856411
40
0.518663863856411
40
0.631974338343413
40
0.631974338343413
40
0.745140813252788
40
0.745140813252788
40
0.85824142292705
40
0.85824142292705
40
0.971313037595325
40
0.971313037595325
40
1
40
1
40
1
40
1
41
1
10
24.929122004641
20
18.5937309094503
30
0
41
1
10
24.9418015499302
20
18.5925636992237
30
0
41
1
10
24.9549772418459
20
18.5937974752756
30
0
41
1
10
24.9788706075284
20
18.6015499667513
30
0
41
1
10
24.9899919816535
20
18.6078117233202
30
0
41
1
10
25.0087748569329
20
18.6233407175874
30
0
41
1
10
25.0168623592583
20
18.6324893263061
30
0
41
1
10
25.0350923067215
20
18.6588325126717
30
0
41
1
10
25.0435772454596
20
18.6777772622975
30
0
41
1
10
25.0549317099452
20
18.7134279275506
30
0
41
1
10
25.0586047580575
20
18.7302698460351
30
0
41
1
10
25.0636204199967
20
18.7641477732191
30
0
41
1
10
25.0649824151429
20
18.7812927802874
30
0
41
1
10
25.0658626036344
20
18.8155391298263
30
0
41
1
10
25.0653821698455
20
18.8327034976609
30
0
41
1
10
25.0628586743091
20
18.8668497705793
30
0
41
1
10
25.0608120345075
20
18.8838743855326
30
0
41
1
10
25.0553170595096
20
18.9176387016749
30
0
41
1
10
25.0518630440117
20
18.9344118943232
30
0
41
1
10
25.0467036702497
20
18.9552035080457
30
0
41
1
10
25.0456161826448
20
18.9594015713789
30
0
41
1
10
25.044486131842
20
18.9635871627614
30
0
0
SPLINE
5
210
100
AcDbEntity
8
1
62
256
6
ByLayer
370
18
48
1
60
0
100
AcDbSpline
70
4
71
3
72
8
73
4
40
0
40
0
40
0
40
0
40
1
40
1
40
1
40
1
41
1
10
24.2978638561827
20
19.6526447815189
30
0
41
1
10
24.2994049861275
20
19.6594329705489
30
0
41
1
10
24.3009459433168
20
19.6662200961754
30
0
41
1
10
24.3024867351961
20
19.6730062051459
30
0
0
SPLINE
5
211
100
AcDbEntity
8
1
62
256
6
ByLayer
370
18
48
1
60
0
100
AcDbSpline
70
4
71
3
72
8
73
4
40
0
40
0
40
0
40
0
40
1
40
1
40
1
40
1
41
1
10
23.6797131261237
20
19.8404148249444
30
0
41
1
10
23.6775312437636
20
19.8338010483768
30
0
41
1
10
23.67534907896
20
19.82718628664
30
0
41
1
10
23.6731666188313
20
19.8205704944479
30
0
0
SPLINE
5
212
100
AcDbEntity
8
1
62
256
6
ByLayer
370
18
48
1
60
0
100
AcDbSpline
70
4
71
3
72
30
73
26
40
0
40
0
40
0
40
0
40
0.0865999566996685
40
0.0865999566996685
40
0.153916678179543
40
0.153916678179543
40
0.221072797158875
40
0.221072797158875
40
0.288156399014986
40
0.288156399014986
40
0.355205002763821
40
0.355205002763821
40
0.500158476570633
40
0.500158476570633
40
0.59962654858421
40
0.59962654858421
40
0.699135162661954
40
0.699135162661954
40
0.791210681553163
40
0.791210681553163
40
0.86585743256101
40
0.86585743256101
40
0.92455130917908
40
0.92455130917908
40
1
40
1
40
1
40
1
41
1
10
22.6192995042172
20
17.9777528201782
30
0
41
1
10
22.6366118766619
20
17.9807616050848
30
0
41
1
10
22.65521087786
20
17.9799948604659
30
0
41
1
10
22.6879495449528
20
17.9744253764919
30
0
41
1
10
22.7024148042609
20
17.9705102457079
30
0
41
1
10
22.730952437791
20
17.9606135876664
30
0
41
1
10
22.7451193789966
20
17.9546016238833
30
0
41
1
10
22.7729684274472
20
17.9409984020441
30
0
41
1
10
22.7867118014357
20
17.9333771376294
30
0
41
1
10
22.8136426893593
20
17.9168670557759
30
0
41
1
10
22.8268758761606
20
17.9079498969386
30
0
41
1
10
22.8675913617324
20
17.8781916577273
30
0
41
1
10
22.8941985968453
20
17.8552578775992
30
0
41
1
10
22.9357166304578
20
17.8138303948931
30
0
41
1
10
22.9518116516859
20
17.796054187621
30
0
41
1
10
22.9817099978079
20
17.7592732147739
30
0
41
1
10
22.9956068956232
20
17.740155322207
30
0
41
1
10
23.019552858222
20
17.7024587605972
30
0
41
1
10
23.0298901612865
20
17.6838281897502
30
0
41
1
10
23.045619129053
20
17.6496158969504
30
0
41
1
10
23.0516202714637
20
17.6340271291963
30
0
41
1
10
23.0597315746418
20
17.60610467048
30
0
41
1
10
23.0624179251544
20
17.5937127158334
30
0
41
1
10
23.0657986943527
20
17.5657484039871
30
0
41
1
10
23.0657447301269
20
17.5499917721252
30
0
41
1
10
23.0627881645954
20
17.5352314093702
30
0
0
SPLINE
5
213
100
AcDbEntity
8
1
62
256
6
ByLayer
370
18
48
1
60
0
100
AcDbSpline
70
4
71
3
72
30
73
26
40
0
40
0
40
0
40
0
40
0.0865999566996757
40
0.0865999566996757
40
0.153916678179557
40
0.153916678179557
40
0.221072797158891
40
0.221072797158891
40
0.288156399014995
40
0.288156399014995
40
0.355205002763826
40
0.355205002763826
40
0.500158476570628
40
0.500158476570628
40
0.59962654858422
40
0.59962654858422
40
0.69913516266197
40
0.69913516266197
40
0.791210681553164
40
0.791210681553164
40
0.865857432561015
40
0.865857432561015
40
0.924551309179078
40
0.924551309179078
40
1
40
1
40
1
40
1
41
1
10
24.741352516561
20
19.2101233707108
30
0
41
1
10
24.7232388941433
20
19.2055753989268
30
0
41
1
10
24.7038792624553
20
19.2048809859696
30
0
41
1
10
24.6699251851188
20
19.2081156885884
30
0
41
1
10
24.6549655048689
20
19.21108104558
30
0
41
1
10
24.6255278584377
20
19.2192487949243
30
0
41
1
10
24.6109522284939
20
19.2244756749458
30
0
41
1
10
24.5823729799947
20
19.2366761955427
30
0
41
1
10
24.5683064571156
20
19.2436766967143
30
0
41
1
10
24.5408167948048
20
19.2591133829568
30
0
41
1
10
24.5273470293155
20
19.2675760783628
30
0
41
1
10
24.4860256362788
20
19.2961703801635
30
0
41
1
10
24.4592079005793
20
19.3186997924269
30
0
41
1
10
24.4176898669668
20
19.360127275133
30
0
41
1
10
24.4016940055026
20
19.3780939665394
30
0
41
1
10
24.3721889430876
20
19.4156304303584
30
0
41
1
10
24.3585873339293
20
19.4353155671578
30
0
41
1
10
24.3353911711074
20
19.4744524807378
30
0
41
1
10
24.3254970489711
20
19.4939343942269
30
0
41
1
10
24.3107119501507
20
19.5299598424023
30
0
41
1
10
24.3051874103703
20
19.5464641552909
30
0
41
1
10
24.2980170638751
20
19.5761941749771
30
0
41
1
10
24.295778485423
20
19.5894462917491
30
0
41
1
10
24.2934850109151
20
19.6194992772623
30
0
41
1
10
24.2942076780466
20
19.6365404754545
30
0
41
1
10
24.2978638561827
20
19.6526447815189
30
0
0
SPLINE
5
214
100
AcDbEntity
8
1
62
256
6
ByLayer
370
18
48
1
60
0
100
AcDbSpline
70
4
71
3
72
26
73
22
40
0
40
0
40
0
40
0
40
0.0960918903649479
40
0.0960918903649479
40
0.185427107814063
40
0.185427107814063
40
0.268229498165889
40
0.268229498165889
40
0.405011235318653
40
0.405011235318653
40
0.51866386385638
40
0.51866386385638
40
0.631974338343385
40
0.631974338343385
40
0.745140813252764
40
0.745140813252764
40
0.858241422927033
40
0.858241422927033
40
0.97131303759531
40
0.97131303759531
40
1
40
1
40
1
40
1
41
1
10
24.30740390094
20
17.5155130669826
30
0
41
1
10
24.3124278948034
20
17.504502840205
30
0
41
1
10
24.3197719596639
20
17.4942785518695
30
0
41
1
10
24.3378758243596
20
17.4784814053854
30
0
41
1
10
24.348604736512
20
17.4724488145183
30
0
41
1
10
24.3710190524428
20
17.4647315906101
30
0
41
1
10
24.3828044850678
20
17.4626372986752
30
0
41
1
10
24.4143240303512
20
17.4607799891653
30
0
41
1
10
24.4347812456073
20
17.4632612702227
30
0
41
1
10
24.4710610040285
20
17.4717575110399
30
0
41
1
10
24.4873875613887
20
17.4771738404195
30
0
41
1
10
24.5190825845347
20
17.4900464990523
30
0
41
1
10
24.5345546762339
20
17.4975414100498
30
0
41
1
10
24.5645662868908
20
17.5140524366567
30
0
41
1
10
24.5791609654508
20
17.5230990707753
30
0
41
1
10
24.6074315092928
20
17.5424126848843
30
0
41
1
10
24.6211425544112
20
17.5527041376807
30
0
41
1
10
24.647634011661
20
17.5743233181666
30
0
41
1
10
24.6604406002215
20
17.5856726661032
30
0
41
1
10
24.6758862022912
20
17.6004805472585
30
0
41
1
10
24.6789824838418
20
17.6035089642497
30
0
41
1
10
24.6820471836226
20
17.60656695903
30
0
0
SPLINE
5
215
100
AcDbEntity
8
1
62
256
6
ByLayer
370
18
48
1
60
0
100
AcDbSpline
70
4
71
3
72
26
73
22
40
0
40
0
40
0
40
0
40
0.0843971137812271
40
0.0843971137812271
40
0.289834052491951
40
0.289834052491951
40
0.392095130870997
40
0.392095130870997
40
0.494452771537224
40
0.494452771537224
40
0.597019768820956
40
0.597019768820956
40
0.672954859099015
40
0.672954859099015
40
0.79688355788432
40
0.79688355788432
40
0.881282445819634
40
0.881282445819634
40
0.965825257041693
40
0.965825257041693
40
1
40
1
40
1
40
1
41
1
10
24.6820471836226
20
17.60656695903
30
0
41
1
10
24.6910576604828
20
17.6155577226211
30
0
41
1
10
24.6998013952322
20
17.6248097184486
30
0
41
1
10
24.7287629483107
20
17.6573451534379
30
0
41
1
10
24.7476509484766
20
17.6818987347749
30
0
41
1
10
24.7724668290145
20
17.7205387945629
30
0
41
1
10
24.7801654249996
20
17.7337440171768
30
0
41
1
10
24.7941231953782
20
17.7607468105491
30
0
41
1
10
24.8004053140084
20
17.7745882249078
30
0
41
1
10
24.8110726168711
20
17.8027690706791
30
0
41
1
10
24.8154854771481
20
17.8171864339006
30
0
41
1
10
24.8208387640328
20
17.842445407925
30
0
41
1
10
24.8223913611006
20
17.853304811749
30
0
41
1
10
24.8239069638462
20
17.8814289545128
30
0
41
1
10
24.8222431795543
20
17.8989964782545
30
0
41
1
10
24.8132403055664
20
17.9253821366201
30
0
41
1
10
24.8077367605691
20
17.9354225523853
30
0
41
1
10
24.7935239523251
20
17.9521913638418
30
0
41
1
10
24.7846385584668
20
17.9591126299832
30
0
41
1
10
24.7708634843884
20
17.9662301093923
30
0
41
1
10
24.766690851318
20
17.9680124841779
30
0
41
1
10
24.7624045273583
20
17.9695182355664
30
0
0
SPLINE
5
216
100
AcDbEntity
8
1
62
256
6
ByLayer
370
18
48
1
60
0
100
AcDbSpline
70
4
71
3
72
26
73
22
40
0
40
0
40
0
40
0
40
0.0960918903649528
40
0.0960918903649528
40
0.18542710781407
40
0.18542710781407
40
0.268229498165898
40
0.268229498165898
40
0.405011235318666
40
0.405011235318666
40
0.518663863856382
40
0.518663863856382
40
0.63197433834338
40
0.63197433834338
40
0.745140813252741
40
0.745140813252741
40
0.858241422926998
40
0.858241422926998
40
0.971313037595271
40
0.971313037595271
40
1
40
1
40
1
40
1
41
1
10
24.3024867351961
20
19.6730062051459
30
0
41
1
10
24.3104303452399
20
19.6834025771534
30
0
41
1
10
24.316561331586
20
19.6954357053884
30
0
41
1
10
24.3228944572923
20
19.720029636718
30
0
41
1
10
24.3235404230061
20
19.7328109603097
30
0
41
1
10
24.3203414137246
20
19.7568878714179
30
0
41
1
10
24.3168319521275
20
19.7684928170808
30
0
41
1
10
24.3039771144323
20
19.7975284793855
30
0
41
1
10
24.2922192313112
20
19.8144037938377
30
0
41
1
10
24.2676104453024
20
19.8421662243439
30
0
41
1
10
24.2550744018597
20
19.8538174631612
30
0
41
1
10
24.228591533161
20
19.8752001903084
30
0
41
1
10
24.2145610783945
20
19.885003276828
30
0
41
1
10
24.1855614070238
20
19.9029916906816
30
0
41
1
10
24.1705386018629
20
19.9112099055709
30
0
41
1
10
24.1398277309497
20
19.9262023295154
30
0
41
1
10
24.1241009846122
20
19.9329949241362
30
0
41
1
10
24.0921582327584
20
19.945223969049
30
0
41
1
10
24.0759104014092
20
19.9506723499066
30
0
41
1
10
24.0553108350053
20
19.956666473888
30
0
41
1
10
24.0511276125904
20
19.9578371705089
30
0
41
1
10
24.0469328620069
20
19.9589647671112
30
0
0
SPLINE
5
217
100
AcDbEntity
8
1
62
256
6
ByLayer
370
18
48
1
60
0
100
AcDbSpline
70
4
71
3
72
26
73
22
40
0
40
0
40
0
40
0
40
0.0843971137811866
40
0.0843971137811866
40
0.289834052491933
40
0.289834052491933
40
0.392095130870973
40
0.392095130870973
40
0.494452771537195
40
0.494452771537195
40
0.597019768820928
40
0.597019768820928
40
0.672954859098996
40
0.672954859098996
40
0.796883557884311
40
0.796883557884311
40
0.881282445819637
40
0.881282445819637
40
0.965825257041699
40
0.965825257041699
40
1
40
1
40
1
40
1
41
1
10
24.0469328620069
20
19.9589647671112
30
0
41
1
10
24.0345999400989
20
19.9622799966017
30
0
41
1
10
24.0221594502753
20
19.9652253375612
30
0
41
1
10
23.9792582990045
20
19.9740065629783
30
0
41
1
10
23.948290581006
20
19.978015218546
30
0
41
1
10
23.901862232043
20
19.9799796050039
30
0
41
1
10
23.8863625725376
20
19.9799584724408
30
0
41
1
10
23.8554980199241
20
19.9783303459367
30
0
41
1
10
23.840082972494
20
19.9767210157523
30
0
41
1
10
23.8096740242923
20
19.971551873097
30
0
41
1
10
23.7945970163008
20
19.967976234169
30
0
41
1
10
23.7692605863428
20
19.9595824993268
30
0
41
1
10
23.7587074038227
20
19.9553032312008
30
0
41
1
10
23.7325002299858
20
19.9419695615807
30
0
41
1
10
23.7173016018724
20
19.9312955712217
30
0
41
1
10
23.6973500507301
20
19.9093936665068
30
0
41
1
10
23.6906760832769
20
19.8991837792892
30
0
41
1
10
23.6817361763254
20
19.8775913079273
30
0
41
1
10
23.6793726410582
20
19.8659487137013
30
0
41
1
10
23.6789766981742
20
19.8497799552553
30
0
41
1
10
23.6791947978946
20
19.8450767826203
30
0
41
1
10
23.6797131261237
20
19.8404148249444
30
0
0
SPLINE
5
218
100
AcDbEntity
8
1
62
256
6
ByLayer
370
18
48
1
60
0
100
AcDbSpline
70
4
71
3
72
8
73
4
40
0
40
0
40
0
40
0
40
1
40
1
40
1
40
1
41
1
10
22.4510083029854
20
18.601086036614
30
0
41
1
10
22.4448093343112
20
18.5993387370306
30
0
41
1
10
22.438611672153
20
18.5975920053285
30
0
41
1
10
22.4324152583493
20
18.5958458159062
30
0
0
SPLINE
5
219
100
AcDbEntity
8
1
62
256
6
ByLayer
370
18
48
1
60
0
100
AcDbSpline
70
4
71
3
72
26
73
22
40
0
40
0
40
0
40
0
40
0.084397113781231
40
0.084397113781231
40
0.289834052491941
40
0.289834052491941
40
0.392095130870966
40
0.392095130870966
40
0.494452771537168
40
0.494452771537168
40
0.597019768820889
40
0.597019768820889
40
0.672954859098976
40
0.672954859098976
40
0.796883557884307
40
0.796883557884307
40
0.88128244581963
40
0.88128244581963
40
0.965825257041696
40
0.965825257041696
40
1
40
1
40
1
40
1
41
1
10
22.3245016957329
20
18.240301963998
30
0
41
1
10
22.3278241407807
20
18.2279959709164
30
0
41
1
10
22.3315067661246
20
18.2157714911698
30
0
41
1
10
22.3453482160822
20
18.1742662897589
30
0
41
1
10
22.3572746654465
20
18.1454096268661
30
0
41
1
10
22.3784928757045
20
18.1040478177276
30
0
41
1
10
22.386134578603
20
18.0905575987707
30
0
41
1
10
22.4026519227946
20
18.0644348283817
30
0
41
1
10
22.4115542374169
20
18.0517597384939
30
0
41
1
10
22.430739818236
20
18.0276798453741
30
0
41
1
10
22.4410770436683
20
18.0162101092191
30
0
41
1
10
22.4603765223553
20
17.9980315629704
30
0
41
1
10
22.4690482114275
20
17.9908196232046
30
0
41
1
10
22.4927597000834
20
17.9741464292194
30
0
41
1
10
22.5088766319329
20
17.9658208410131
30
0
41
1
10
22.5363390402467
20
17.9584709497249
30
0
41
1
10
22.547829204413
20
17.9573200374083
30
0
41
1
10
22.5695333218309
20
17.959360966874
30
0
41
1
10
22.5800032660542
20
17.9625858788838
30
0
41
1
10
22.5930922917045
20
17.9695586719488
30
0
41
1
10
22.5967321217158
20
17.9718749303092
30
0
41
1
10
22.6001882410035
20
17.974432027524
30
0
0
SPLINE
5
21A
100
AcDbEntity
8
1
62
256
6
ByLayer
370
18
48
1
60
0
100
AcDbSpline
70
4
71
3
72
30
73
26
40
0
40
0
40
0
40
0
40
0.0865999566996779
40
0.0865999566996779
40
0.153916678179558
40
0.153916678179558
40
0.221072797158887
40
0.221072797158887
40
0.288156399014994
40
0.288156399014994
40
0.355205002763829
40
0.355205002763829
40
0.500158476570626
40
0.500158476570626
40
0.599626548584214
40
0.599626548584214
40
0.699135162661962
40
0.699135162661962
40
0.791210681553157
40
0.791210681553157
40
0.865857432561013
40
0.865857432561013
40
0.924551309179073
40
0.924551309179073
40
1
40
1
40
1
40
1
41
1
10
24.7485119081188
20
17.9834909717074
30
0
41
1
10
24.7359275257523
20
17.9961488802631
30
0
41
1
10
24.7260376089039
20
18.011837032724
30
0
41
1
10
24.7124872161439
20
18.0416746456931
30
0
41
1
10
24.7078298540039
20
18.0556241783924
30
0
41
1
10
24.7006469059127
20
18.0843007144033
30
0
41
1
10
24.6980952889811
20
18.0991214569933
30
0
41
1
10
24.6947446683103
20
18.1292170610478
30
0
41
1
10
24.6939383132344
20
18.1445581399278
30
0
41
1
10
24.6938439015882
20
18.1754783608215
30
0
41
1
10
24.6945559724824
20
18.191110105557
30
0
41
1
10
24.6989556879175
20
18.2404829470752
30
0
41
1
10
24.7051512791886
20
18.2746683502962
30
0
41
1
10
24.7202359397172
20
18.3311473495989
30
0
41
1
10
24.7277304884396
20
18.3539954536745
30
0
41
1
10
24.7452469451183
20
18.3985184241291
30
0
41
1
10
24.755321845391
20
18.4203315797228
30
0
41
1
10
24.77719032922
20
18.4605248682324
30
0
41
1
10
24.7888661027422
20
18.4791684903243
30
0
41
1
10
24.812148819469
20
18.5107236988977
30
0
41
1
10
24.8234173155919
20
18.5241412304122
30
0
41
1
10
24.8450657443862
20
18.545982891399
30
0
41
1
10
24.855180310083
20
18.554917219869
30
0
41
1
10
24.8794750696061
20
18.572839086907
30
0
41
1
10
24.8942376660522
20
18.5813009157839
30
0
41
1
10
24.9096437177929
20
18.586790154275
30
0
0
SPLINE
5
21B
100
AcDbEntity
8
1
62
256
6
ByLayer
370
18
48
1
60
0
100
AcDbSpline
70
4
71
3
72
8
73
4
40
0
40
0
40
0
40
0
40
1
40
1
40
1
40
1
41
1
10
22.6121401126594
20
19.2043852191816
30
0
41
1
10
22.6078033838339
20
19.2096103962353
30
0
41
1
10
22.603467605617
20
19.2148348086052
30
0
41
1
10
22.599132735632
20
19.2200584897901
30
0
0
SPLINE
5
21C
100
AcDbEntity
8
1
62
256
6
ByLayer
370
18
48
1
60
0
100
AcDbSpline
70
4
71
3
72
26
73
22
40
0
40
0
40
0
40
0
40
0.0960918903649468
40
0.0960918903649468
40
0.185427107814073
40
0.185427107814073
40
0.268229498165901
40
0.268229498165901
40
0.405011235318662
40
0.405011235318662
40
0.51866386385638
40
0.51866386385638
40
0.631974338343386
40
0.631974338343386
40
0.745140813252767
40
0.745140813252767
40
0.85824142292703
40
0.85824142292703
40
0.971313037595306
40
0.971313037595306
40
1
40
1
40
1
40
1
41
1
10
22.4324152583493
20
18.5958458159062
30
0
41
1
10
22.4203118302958
20
18.5981197370456
30
0
41
1
10
22.4077348569622
20
18.5980360886891
30
0
41
1
10
22.3849287407186
20
18.5923721839529
30
0
41
1
10
22.3743143740756
20
18.5870843796955
30
0
41
1
10
22.3563963615361
20
18.5732167712938
30
0
41
1
10
22.3486857966159
20
18.5647922525935
30
0
41
1
10
22.3313253694023
20
18.5401193990866
30
0
41
1
10
22.3232692174582
20
18.5219983412283
30
0
41
1
10
22.3125477688262
20
18.4875636881161
30
0
41
1
10
22.3091096523242
20
18.4711730690561
30
0
41
1
10
22.3044869754011
20
18.438050059064
30
0
41
1
10
22.3032842638283
20
18.4212110328933
30
0
41
1
10
22.302667576926
20
18.3874708651978
30
0
41
1
10
22.3032526250908
20
18.3705074597095
30
0
41
1
10
22.3059424575577
20
18.3366807170616
30
0
41
1
10
22.3080509745241
20
18.3197749670361
30
0
41
1
10
22.3136333103103
20
18.2861784694064
30
0
41
1
10
22.3171128712264
20
18.2694543490501
30
0
41
1
10
22.3222830638441
20
18.2486835181559
30
0
41
1
10
22.3233716449301
20
18.2444875553805
30
0
41
1
10
22.3245016957329
20
18.240301963998
30
0
0
SPLINE
5
21D
100
AcDbEntity
8
1
62
256
6
ByLayer
370
18
48
1
60
0
100
AcDbSpline
70
4
71
3
72
8
73
4
40
0
40
0
40
0
40
0
40
1
40
1
40
1
40
1
41
1
10
24.7613490219868
20
19.2151446978325
30
0
41
1
10
24.7546846385828
20
19.2134710058242
30
0
41
1
10
24.7480191537379
20
19.2117972312493
30
0
41
1
10
24.741352516561
20
19.2101233707108
30
0
0
SPLINE
5
21E
100
AcDbEntity
8
1
62
256
6
ByLayer
370
18
48
1
60
0
100
AcDbSpline
70
4
71
3
72
8
73
4
40
0
40
0
40
0
40
0
40
1
40
1
40
1
40
1
41
1
10
22.6001882410035
20
17.974432027524
30
0
41
1
10
22.6065573622895
20
17.975538526281
30
0
41
1
10
22.6129277634854
20
17.97664545044
30
0
41
1
10
22.6192995042172
20
17.9777528201782
30
0
0
SPLINE
5
21F
100
AcDbEntity
8
1
62
256
6
ByLayer
370
18
48
1
60
0
100
AcDbSpline
70
4
71
3
72
26
73
22
40
0
40
0
40
0
40
0
40
0.0861353043401416
40
0.0861353043401416
40
0.222839638383488
40
0.222839638383488
40
0.422253970651546
40
0.422253970651546
40
0.500724537936408
40
0.500724537936408
40
0.600079964181061
40
0.600079964181061
40
0.699475886576765
40
0.699475886576765
40
0.791447131630199
40
0.791447131630199
40
0.866009346561446
40
0.866009346561446
40
0.924636753439458
40
0.924636753439458
40
1
40
1
40
1
40
1
41
1
10
22.4510083029854
20
18.601086036614
30
0
41
1
10
22.4678512441813
20
18.6058335463503
30
0
41
1
10
22.4838893912593
20
18.6145519407278
30
0
41
1
10
22.5216177600321
20
18.6423435475031
30
0
41
1
10
22.5420418662186
20
18.6649360472968
30
0
41
1
10
22.5854991488346
20
18.7258942232936
30
0
41
1
10
22.6064261621885
20
18.7680790600397
30
0
41
1
10
22.6288192278643
20
18.8296647868126
30
0
41
1
10
22.6344581762862
20
18.8476313376902
30
0
41
1
10
22.6454717225063
20
18.8888675370803
30
0
41
1
10
22.6504134816171
20
18.9124018599989
30
0
41
1
10
22.6576120854722
20
18.9596983864863
30
0
41
1
10
22.659892488085
20
18.9836067915837
30
0
41
1
10
22.6613262293945
20
19.0292931709874
30
0
41
1
10
22.6607077669403
20
19.0512416233518
30
0
41
1
10
22.6566998055948
20
19.0901328761685
30
0
41
1
10
22.6538446253215
20
19.1073470123202
30
0
41
1
10
22.6464095742472
20
19.1370066430361
30
0
41
1
10
22.6423062616943
20
19.1497628986711
30
0
41
1
10
22.6306923240189
20
19.1773374313793
30
0
41
1
10
22.6224285722198
20
19.1919890042057
30
0
41
1
10
22.6121401126594
20
19.2043852191816
30
0
0
SPLINE
5
220
100
AcDbEntity
8
1
62
256
6
ByLayer
370
18
48
1
60
0
100
AcDbSpline
70
4
71
3
72
26
73
22
40
0
40
0
40
0
40
0
40
0.0960918903649491
40
0.0960918903649491
40
0.185427107814061
40
0.185427107814061
40
0.268229498165888
40
0.268229498165888
40
0.405011235318667
40
0.405011235318667
40
0.518663863856383
40
0.518663863856383
40
0.631974338343392
40
0.631974338343392
40
0.745140813252764
40
0.745140813252764
40
0.858241422927027
40
0.858241422927027
40
0.971313037595298
40
0.971313037595298
40
1
40
1
40
1
40
1
41
1
10
23.0590505277942
20
17.5165705202105
30
0
41
1
10
23.0516830349862
20
17.5072808591159
30
0
41
1
10
23.0461507672221
20
17.4963978585762
30
0
41
1
10
23.0409048909547
20
17.4738925139862
30
0
41
1
10
23.040765932723
20
17.462085142706
30
0
41
1
10
23.0448298047444
20
17.4396696174633
30
0
41
1
10
23.0487162037466
20
17.4287887618188
30
0
41
1
10
23.0624405616915
20
17.4014234323727
30
0
41
1
10
23.0746272316067
20
17.3853718096881
30
0
41
1
10
23.099869033469
20
17.3588253913227
30
0
41
1
10
23.1126400085221
20
17.3476254519299
30
0
41
1
10
23.1395158622368
20
17.3269976419747
30
0
41
1
10
23.1537056005766
20
17.3175005363528
30
0
41
1
10
23.1829687735366
20
17.3000183043425
30
0
41
1
10
23.1980961930734
20
17.2920010517996
30
0
41
1
10
23.2289734009171
20
17.2773281581255
30
0
41
1
10
23.2447620244195
20
17.2706544284325
30
0
41
1
10
23.2767921370614
20
17.2585932020323
30
0
41
1
10
23.2930655138289
20
17.2531938934667
30
0
41
1
10
23.3136758990884
20
17.2472205523136
30
0
41
1
10
23.3178602149845
20
17.2460519562505
30
0
41
1
10
23.322054965568
20
17.2449243596483
30
0
0
SPLINE
5
221
100
AcDbEntity
8
1
62
256
6
ByLayer
370
18
48
1
60
0
100
AcDbSpline
70
4
71
3
72
26
73
22
40
0
40
0
40
0
40
0
40
0.0843971137812125
40
0.0843971137812125
40
0.289834052491929
40
0.289834052491929
40
0.39209513087096
40
0.39209513087096
40
0.494452771537173
40
0.494452771537173
40
0.597019768820899
40
0.597019768820899
40
0.672954859098977
40
0.672954859098977
40
0.796883557884302
40
0.796883557884302
40
0.881282445819622
40
0.881282445819622
40
0.965825257041683
40
0.965825257041683
40
1
40
1
40
1
40
1
41
1
10
23.322054965568
20
17.2449243596483
30
0
41
1
10
23.334387887476
20
17.2416091301578
30
0
41
1
10
23.3468189574794
20
17.2386456938919
30
0
41
1
10
23.3896546765938
20
17.2297387744718
30
0
41
1
10
23.4205202156134
20
17.225533834912
30
0
41
1
10
23.4666857257984
20
17.2230645398591
30
0
41
1
10
23.4820791448893
20
17.2228815864848
30
0
41
1
10
23.5126840721405
20
17.2240109773082
30
0
41
1
10
23.5279453767856
20
17.2253249703504
30
0
41
1
10
23.5579836153073
20
17.2297819863364
30
0
41
1
10
23.5728426751106
20
17.2329389506901
30
0
41
1
10
23.5977233288111
20
17.240457147488
30
0
41
1
10
23.6080572470779
20
17.2443152129022
30
0
41
1
10
23.6336110326245
20
17.2563937352945
30
0
41
1
10
23.6483126737007
20
17.2661130224379
30
0
41
1
10
23.6672695469654
20
17.2861041687277
30
0
41
1
10
23.6734852822291
20
17.2954338000993
30
0
41
1
10
23.6814594573289
20
17.3151711178348
30
0
41
1
10
23.6833036693279
20
17.3258161013443
30
0
41
1
10
23.6829782846705
20
17.3405992024757
30
0
41
1
10
23.6825503827243
20
17.3448993487846
30
0
41
1
10
23.6818241368666
20
17.3491619004121
30
0
0
SPLINE
5
222
100
AcDbEntity
8
1
62
256
6
ByLayer
370
18
48
1
60
0
100
AcDbSpline
70
4
71
3
72
8
73
4
40
0
40
0
40
0
40
0
40
1
40
1
40
1
40
1
41
1
10
24.2921058719992
20
17.5280834682006
30
0
41
1
10
24.2972060553962
20
17.5238923149544
30
0
41
1
10
24.3023053858388
20
17.5197021966538
30
0
41
1
10
24.30740390094
20
17.5155130669826
30
0
0
SPLINE
5
223
100
AcDbEntity
8
1
62
256
6
ByLayer
370
18
48
1
60
0
100
AcDbSpline
70
4
71
3
72
8
73
4
40
0
40
0
40
0
40
0
40
1
40
1
40
1
40
1
41
1
10
26.3366651024217
20
15.4263694404023
30
0
41
1
10
26.2597013475528
20
15.3522154675376
30
0
41
1
10
26.1710373065405
20
15.288592033882
30
0
41
1
10
26.0760670493031
20
15.2393698095027
30
0
0
SPLINE
5
224
100
AcDbEntity
8
1
62
256
6
ByLayer
370
18
48
1
60
0
100
AcDbSpline
70
4
71
3
72
12
73
8
40
0
40
0
40
0
40
0
40
0.462337058274394
40
0.462337058274394
40
0.924102030814546
40
0.924102030814546
40
1
40
1
40
1
40
1
41
1
10
21.8313620062211
20
13.0393776210958
30
0
41
1
10
21.8527774136751
20
13.0504770328647
30
0
41
1
10
21.8746890143595
20
13.061990220319
30
0
41
1
10
21.9158393557851
20
13.0839105023714
30
0
41
1
10
21.9356474247556
20
13.0946200022353
30
0
41
1
10
21.9560416945117
20
13.1058345807309
30
0
41
1
10
21.9588891967907
20
13.1074053016424
30
0
41
1
10
21.9616755029931
20
13.1089472775984
30
0
0
SPLINE
5
225
100
AcDbEntity
8
1
62
256
6
ByLayer
370
18
48
1
60
0
100
AcDbSpline
70
4
71
3
72
10
73
6
40
0
40
0
40
0
40
0
40
0.292299554850898
40
0.292299554850898
40
1
40
1
40
1
40
1
41
1
10
21.2169894647297
20
12.8243865010657
30
0
41
1
10
21.295230534117
20
12.8552079777668
30
0
41
1
10
21.3558502929405
20
12.8765971297064
30
0
41
1
10
21.5405612624341
20
12.9380422884291
30
0
41
1
10
21.6303888410452
20
12.959963900354
30
0
41
1
10
21.7076213979489
20
12.9752439842885
30
0
0
SPLINE
5
226
100
AcDbEntity
8
SK1
62
256
6
ByLayer
370
18
48
1
60
0
100
AcDbSpline
70
4
71
3
72
8
73
4
40
0
40
0
40
0
40
0
40
1
40
1
40
1
40
1
41
1
10
-0.249519052838309
20
18.8729418033523
30
0
41
1
10
-0.166470906512473
20
18.9639140498515
30
0
41
1
10
-0.0832962738564333
20
19.0547325687286
30
0
41
1
10
0
20
19.1454018402203
30
0
0
SPLINE
5
227
100
AcDbEntity
8
SK1
62
256
6
ByLayer
370
18
48
1
60
0
100
AcDbSpline
70
4
71
3
72
16
73
12
40
0
40
0
40
0
40
0
40
0.298747934940781
40
0.298747934940781
40
0.559557937925802
40
0.559557937925802
40
0.778825448623465
40
0.778825448623465
40
0.999021497695749
40
0.999021497695749
40
1
40
1
40
1
40
1
41
1
10
-0.249519052838309
20
18.7993790062494
30
0
41
1
10
-0.261032908504831
20
18.7888388159053
30
0
41
1
10
-0.272282933781128
20
18.778892050638
30
0
41
1
10
-0.291380077686767
20
18.762898362794
30
0
41
1
10
-0.299649881290122
20
18.7563831013772
30
0
41
1
10
-0.312014105978392
20
18.747698918942
30
0
41
1
10
-0.316670650194908
20
18.7449384963708
30
0
41
1
10
-0.322888121247445
20
18.7426749621839
30
0
41
1
10
-0.324505161988384
20
18.7431691474895
30
0
41
1
10
-0.324519019220133
20
18.7452092287354
30
0
41
1
10
-0.324519052869221
20
18.7452192296719
30
0
41
1
10
-0.324519052838355
20
18.7452292306732
30
0
0
SPLINE
5
228
100
AcDbEntity
8
SK1
62
256
6
ByLayer
370
18
48
1
60
0
100
AcDbSpline
70
4
71
3
72
20
73
16
40
0
40
0
40
0
40
0
40
0.286598726165501
40
0.286598726165501
40
0.438915618612648
40
0.438915618612648
40
0.593497776996152
40
0.593497776996152
40
0.710049429510426
40
0.710049429510426
40
0.826312900925809
40
0.826312900925809
40
0.993574051250336
40
0.993574051250336
40
1
40
1
40
1
40
1
41
1
10
-0.324519052838355
20
-11.5307719929506
30
0
41
1
10
-0.324519052838355
20
-11.5166232971327
30
0
41
1
10
-0.323401609553343
20
-11.502960275851
30
0
41
1
10
-0.318553981006801
20
-11.4847962255698
30
0
41
1
10
-0.316237635419611
20
-11.4789301037542
30
0
41
1
10
-0.309893854612426
20
-11.4692299511165
30
0
41
1
10
-0.305731733991195
20
-11.4653396966982
30
0
41
1
10
-0.296768035167588
20
-11.4617808595395
30
0
41
1
10
-0.292272684686907
20
-11.4613040865662
30
0
41
1
10
-0.2827190124097
20
-11.4626665844116
30
0
41
1
10
-0.277559261567376
20
-11.4645024557057
30
0
41
1
10
-0.26504800264405
20
-11.4709894745401
30
0
41
1
10
-0.257523872390038
20
-11.4765641758439
30
0
41
1
10
-0.250074876145504
20
-11.483148328362
30
0
41
1
10
-0.249796793483767
20
-11.4833957245172
30
0
41
1
10
-0.249519052838309
20
-11.483644388276
30
0
0
SPLINE
5
229
100
AcDbEntity
8
SK1
62
256
6
ByLayer
370
18
48
1
60
0
100
AcDbSpline
70
4
71
3
72
8
73
4
40
0
40
0
40
0
40
0
40
1
40
1
40
1
40
1
41
1
10
0
20
-12.6311682604383
30
0
41
1
10
-0.0844518749535723
20
-12.4455098841085
30
0
41
1
10
-0.167648592736953
20
-12.2590823591226
30
0
41
1
10
-0.249519052838309
20
-12.0718886217914
30
0
0
SPLINE
5
22A
100
AcDbEntity
8
SK1
62
256
6
ByLayer
370
18
48
1
60
0
100
AcDbSpline
70
4
71
3
72
8
73
4
40
0
40
0
40
0
40
0
40
1
40
1
40
1
40
1
41
1
10
-0.249519052838309
20
-11.483644388276
30
0
41
1
10
-0.166396158696614
20
-11.5580650812788
30
0
41
1
10
-0.0832221958468153
20
-11.6324097762753
30
0
41
1
10
0
20
-11.7066823491331
30
0
0
SPLINE
5
22B
100
AcDbEntity
8
SK1
62
256
6
ByLayer
370
18
48
1
60
0
100
AcDbSpline
70
4
71
3
72
10
73
6
40
0
40
0
40
0
40
0
40
0.714300606864557
40
0.714300606864557
40
1
40
1
40
1
40
1
41
1
10
-0.249519052838423
20
-12.0718886217914
30
0
41
1
10
-0.279308466612065
20
-12.0037762441366
30
0
41
1
10
-0.302986292706237
20
-11.9337146290031
30
0
41
1
10
-0.321052664346837
20
-11.8411808978048
30
0
41
1
10
-0.324519052838298
20
-11.8148671647799
30
0
41
1
10
-0.324519052838298
20
-11.7907116231339
30
0
0
SPLINE
5
22C
100
AcDbEntity
8
SK1
62
256
6
ByLayer
370
18
48
1
60
0
100
AcDbSpline
70
4
71
3
72
8
73
4
40
0
40
0
40
0
40
0
40
1
40
1
40
1
40
1
41
1
10
0
20
11.7066823491331
30
0
41
1
10
-0.0832221958468153
20
11.6324097762753
30
0
41
1
10
-0.166396158696614
20
11.5580650812788
30
0
41
1
10
-0.249519052838309
20
11.483644388276
30
0
0
SPLINE
5
22D
100
AcDbEntity
8
SK1
62
256
6
ByLayer
370
18
48
1
60
0
100
AcDbSpline
70
4
71
3
72
20
73
16
40
0
40
0
40
0
40
0
40
0.0928055888686781
40
0.0928055888686781
40
0.248380775004459
40
0.248380775004459
40
0.364905933761225
40
0.364905933761225
40
0.481076387621605
40
0.481076387621605
40
0.651193955437824
40
0.651193955437824
40
0.944666108696644
40
0.944666108696644
40
1
40
1
40
1
40
1
41
1
10
-0.249519052838139
20
11.4836443882752
30
0
41
1
10
-0.253503887146053
20
11.4800767294038
30
0
41
1
10
-0.257573504319168
20
11.4767570352072
30
0
41
1
10
-0.268485301491637
20
11.4689628096306
30
0
41
1
10
-0.275555407734714
20
11.4651065518815
30
0
41
1
10
-0.287136171934606
20
11.4616979804295
30
0
41
1
10
-0.291951414652374
20
11.4613033320162
30
0
41
1
10
-0.300426038593514
20
11.4628101014963
30
0
41
1
10
-0.304189663322575
20
11.4647065639164
30
0
41
1
10
-0.311913551116561
20
11.4713622303437
30
0
41
1
10
-0.315329626549385
20
11.4770861037026
30
0
41
1
10
-0.322092506480544
20
11.4947192093127
30
0
41
1
10
-0.323890144730853
20
11.5083659646836
30
0
41
1
10
-0.32447474776194
20
11.5252810832921
30
0
41
1
10
-0.324519052838411
20
11.5280136524153
30
0
41
1
10
-0.324519052838411
20
11.5307719929506
30
0
0
SPLINE
5
22E
100
AcDbEntity
8
SK1
62
256
6
ByLayer
370
18
48
1
60
0
100
AcDbSpline
70
4
71
3
72
8
73
4
40
0
40
0
40
0
40
0
40
1
40
1
40
1
40
1
41
1
10
-0.249519052838309
20
-19.0736019583787
30
0
41
1
10
-0.166419466436651
20
-19.1561267310563
30
0
41
1
10
-0.083245549889682
20
-19.2385518046065
30
0
41
1
10
0
20
-19.3208801979494
30
0
0
SPLINE
5
22F
100
AcDbEntity
8
SK1
62
256
6
ByLayer
370
18
48
1
60
0
100
AcDbSpline
70
4
71
3
72
12
73
8
40
0
40
0
40
0
40
0
40
0.498321197775683
40
0.498321197775683
40
0.787822538902877
40
0.787822538902877
40
1
40
1
40
1
40
1
41
1
10
-0.249519052838309
20
-16.9398705309347
30
0
41
1
10
-0.269338668648118
20
-16.9116293292109
30
0
41
1
10
-0.287120681888211
20
-16.8831513995746
30
0
41
1
10
-0.308631700741557
20
-16.8413794902352
30
0
41
1
10
-0.315252925876393
20
-16.8264163681331
30
0
41
1
10
-0.322627766467917
20
-16.8034069822328
30
0
41
1
10
-0.324519052849496
20
-16.7944302621504
30
0
41
1
10
-0.324519052850178
20
-16.7871511881643
30
0
0
SPLINE
5
230
100
AcDbEntity
8
SK1
62
256
6
ByLayer
370
18
48
1
60
0
100
AcDbSpline
70
4
71
3
72
8
73
4
40
0
40
0
40
0
40
0
40
1
40
1
40
1
40
1
41
1
10
-0.249519052838309
20
-16.6926741335383
30
0
41
1
10
-0.16634890014052
20
-16.76116025562
30
0
41
1
10
-0.0831758476998061
20
-16.8296416826295
30
0
41
1
10
0
20
-16.8981185823602
30
0
0
SPLINE
5
231
100
AcDbEntity
8
SK1
62
256
6
ByLayer
370
18
48
1
60
0
100
AcDbSpline
70
4
71
3
72
8
73
4
40
0
40
0
40
0
40
0
40
1
40
1
40
1
40
1
41
1
10
-0.249519052838309
20
-18.7993790062494
30
0
41
1
10
-0.166385417532922
20
-18.8754824737151
30
0
41
1
10
-0.0832119351491656
20
-18.9515279375099
30
0
41
1
10
0
20
-19.0275172217373
30
0
0
SPLINE
5
232
100
AcDbEntity
8
SK1
62
256
6
ByLayer
370
18
48
1
60
0
100
AcDbSpline
70
4
71
3
72
16
73
12
40
0
40
0
40
0
40
0
40
0.135538610310805
40
0.135538610310805
40
0.349952167386024
40
0.349952167386024
40
0.560745638342344
40
0.560745638342344
40
0.872599921354818
40
0.872599921354818
40
1
40
1
40
1
40
1
41
1
10
-0.324519052838355
20
-18.7452280296618
30
0
41
1
10
-0.324519052838355
20
-18.7439673008622
30
0
41
1
10
-0.323927875069103
20
-18.7432773747082
30
0
41
1
10
-0.320871651182983
20
-18.7430952961126
30
0
41
1
10
-0.317443614057993
20
-18.7445618228904
30
0
41
1
10
-0.308332878243732
20
-18.7501387161604
30
0
41
1
10
-0.302603098032364
20
-18.7542474486049
30
0
41
1
10
-0.286785825709671
20
-18.766561357687
30
0
41
1
10
-0.275690096825087
20
-18.7759522772598
30
0
41
1
10
-0.259355672537708
20
-18.7904387881567
30
0
41
1
10
-0.254470024561329
20
-18.7948467117809
30
0
41
1
10
-0.249519052838309
20
-18.7993790062494
30
0
0
SPLINE
5
233
100
AcDbEntity
8
SK1
62
256
6
ByLayer
370
18
48
1
60
0
100
AcDbSpline
70
4
71
3
72
8
73
4
40
0
40
0
40
0
40
0
40
1
40
1
40
1
40
1
41
1
10
0
20
-19.1454018402203
30
0
41
1
10
-0.0832962738564333
20
-19.0547325687286
30
0
41
1
10
-0.166470906512473
20
-18.9639140498514
30
0
41
1
10
-0.249519052838309
20
-18.8729418033523
30
0
0
SPLINE
5
234
100
AcDbEntity
8
SK1
62
256
6
ByLayer
370
18
48
1
60
0
100
AcDbSpline
70
4
71
3
72
8
73
4
40
0
40
0
40
0
40
0
40
1
40
1
40
1
40
1
41
1
10
0
20
-15.4368523871774
30
0
41
1
10
-0.0837817374583096
20
-15.2955438255014
30
0
41
1
10
-0.166964923531225
20
-15.1537593946222
30
0
41
1
10
-0.249519052838309
20
-15.0114907404589
30
0
0
SPLINE
5
235
100
AcDbEntity
8
SK1
62
256
6
ByLayer
370
18
48
1
60
0
100
AcDbSpline
70
4
71
3
72
18
73
14
40
0
40
0
40
0
40
0
40
0.172699037417675
40
0.172699037417675
40
0.374667148985115
40
0.374667148985115
40
0.540939623455402
40
0.540939623455402
40
0.707551537542381
40
0.707551537542381
40
0.908742967009707
40
0.908742967009707
40
1
40
1
40
1
40
1
41
1
10
-0.324519052840515
20
-14.6480346987578
30
0
41
1
10
-0.324519052840571
20
-14.6417441080412
30
0
41
1
10
-0.323939531617839
20
-14.6358565015777
30
0
41
1
10
-0.321019525018755
20
-14.6246939600633
30
0
41
1
10
-0.318338511127479
20
-14.619595443301
30
0
41
1
10
-0.311046182066036
20
-14.61346808147
30
0
41
1
10
-0.306762163563121
20
-14.6118512556652
30
0
41
1
10
-0.296676974925162
20
-14.611527715033
30
0
41
1
10
-0.290749184207982
20
-14.6128266410539
30
0
41
1
10
-0.276966222685871
20
-14.6183733644045
30
0
41
1
10
-0.268776181303622
20
-14.6232123208343
30
0
41
1
10
-0.256954747279963
20
-14.6316878994664
30
0
41
1
10
-0.253227652676117
20
-14.6345697610045
30
0
41
1
10
-0.249519052838309
20
-14.6376135036569
30
0
0
SPLINE
5
236
100
AcDbEntity
8
SK1
62
256
6
ByLayer
370
18
48
1
60
0
100
AcDbSpline
70
4
71
3
72
12
73
8
40
0
40
0
40
0
40
0
40
0.540528114090085
40
0.540528114090085
40
0.869372065222149
40
0.869372065222149
40
1
40
1
40
1
40
1
41
1
10
-0.249519052838309
20
-15.0114907404589
30
0
41
1
10
-0.27144883327378
20
-14.9736983202028
30
0
41
1
10
-0.29040792235287
20
-14.9352615124207
30
0
41
1
10
-0.312603686013688
20
-14.8766524239518
30
0
41
1
10
-0.319237809479148
20
-14.8547544112139
30
0
41
1
10
-0.323771165661412
20
-14.8271757396378
30
0
41
1
10
-0.324519052842391
20
-14.8196181726219
30
0
41
1
10
-0.324519052842561
20
-14.8126521189544
30
0
0
SPLINE
5
237
100
AcDbEntity
8
SK1
62
256
6
ByLayer
370
18
48
1
60
0
100
AcDbSpline
70
4
71
3
72
12
73
8
40
0
40
0
40
0
40
0
40
0.264186390064887
40
0.264186390064887
40
0.911023176783701
40
0.911023176783701
40
1
40
1
40
1
40
1
41
1
10
-0.324519052838298
20
11.7907116231349
30
0
41
1
10
-0.324519052838241
20
11.8129900246157
30
0
41
1
10
-0.321552240369385
20
11.8371192344549
30
0
41
1
10
-0.306051507082714
20
11.9210951365858
30
0
41
1
10
-0.285795193415254
20
11.9842456948421
30
0
41
1
10
-0.256911167481633
20
12.0547138662776
30
0
41
1
10
-0.253271853096578
20
12.0633079847102
30
0
41
1
10
-0.249519052838309
20
12.0718886217914
30
0
0
SPLINE
5
238
100
AcDbEntity
8
SK1
62
256
6
ByLayer
370
18
48
1
60
0
100
AcDbSpline
70
4
71
3
72
16
73
12
40
0
40
0
40
0
40
0
40
0.179729463277759
40
0.179729463277759
40
0.383258639487597
40
0.383258639487597
40
0.588914457382569
40
0.588914457382569
40
0.76610378090268
40
0.76610378090268
40
1
40
1
40
1
40
1
41
1
10
-0.249519052838309
20
-15.7703059388671
30
0
41
1
10
-0.256671730615608
20
-15.7644644013619
30
0
41
1
10
-0.26386981711579
20
-15.7591250449836
30
0
41
1
10
-0.278704598437173
20
-15.7496350848372
30
0
41
1
10
-0.28643532074301
20
-15.7456586383762
30
0
41
1
10
-0.300177360192038
20
-15.7411449806659
30
0
41
1
10
-0.306345746114005
20
-15.740622348484
30
0
41
1
10
-0.315178047255643
20
-15.7431175984442
30
0
41
1
10
-0.318328609789148
20
-15.7456620096427
30
0
41
1
10
-0.323309701261792
20
-15.7538520747196
30
0
41
1
10
-0.324519052838298
20
-15.7603008355039
30
0
41
1
10
-0.324519052838298
20
-15.7676259921204
30
0
0
SPLINE
5
239
100
AcDbEntity
8
SK1
62
256
6
ByLayer
370
18
48
1
60
0
100
AcDbSpline
70
4
71
3
72
8
73
4
40
0
40
0
40
0
40
0
40
1
40
1
40
1
40
1
41
1
10
0
20
-15.9740856271496
30
0
41
1
10
-0.0831731013446984
20
-15.9061592010903
30
0
41
1
10
-0.166346120039407
20
-15.8382326400955
30
0
41
1
10
-0.249519052838309
20
-15.7703059388672
30
0
0
SPLINE
5
23A
100
AcDbEntity
8
1
62
256
6
ByLayer
370
18
48
1
60
0
100
AcDbSpline
70
4
71
3
72
8
73
4
40
0
40
0
40
0
40
0
40
1
40
1
40
1
40
1
41
1
10
0
20
2.76973132695244
30
0
41
1
10
-0.167692085966053
20
0.93121531528152
30
0
41
1
10
-0.169152595808271
20
-0.915202808103942
30
0
41
1
10
0
20
-2.76973132695244
30
0
0
SPLINE
5
23B
100
AcDbEntity
8
SK1
62
256
6
ByLayer
370
18
48
1
60
0
100
AcDbSpline
70
4
71
3
72
8
73
4
40
0
40
0
40
0
40
0
40
1
40
1
40
1
40
1
41
1
10
-0.249519052838309
20
-14.637613503657
30
0
41
1
10
-0.166348014707353
20
-14.7058740999149
30
0
41
1
10
-0.0831749697857163
20
-14.774131436091
30
0
41
1
10
0
20
-14.8423856446161
30
0
0
SPLINE
5
23C
100
AcDbEntity
8
SK1
62
256
6
ByLayer
370
18
48
1
60
0
100
AcDbSpline
70
4
71
3
72
14
73
10
40
0
40
0
40
0
40
0
40
0.152235649617003
40
0.152235649617003
40
0.373115726413902
40
0.373115726413902
40
0.702727889981224
40
0.702727889981224
40
1
40
1
40
1
40
1
41
1
10
-0.324519052838355
20
18.7775400265667
30
0
41
1
10
-0.324519052838355
20
18.7789799521447
30
0
41
1
10
-0.323632616745442
20
18.7812981476579
30
0
41
1
10
-0.319623344561705
20
18.7886555204087
30
0
41
1
10
-0.315624507152904
20
18.7945353453766
30
0
41
1
10
-0.303109763785244
20
18.8112604510089
30
0
41
1
10
-0.293173479853806
20
18.8233777048773
30
0
41
1
10
-0.272164261739533
20
18.8478271744008
30
0
41
1
10
-0.26110170837967
20
18.8602539801842
30
0
41
1
10
-0.249519052838309
20
18.8729418033523
30
0
0
SPLINE
5
23D
100
AcDbEntity
8
SK1
62
256
6
ByLayer
370
18
48
1
60
0
100
AcDbSpline
70
4
71
3
72
8
73
4
40
0
40
0
40
0
40
0
40
1
40
1
40
1
40
1
41
1
10
0
20
-18.6995029779807
30
0
41
1
10
-0.0831995072585414
20
-18.6260454864902
30
0
41
1
10
-0.166372838435052
20
-18.5525484468556
30
0
41
1
10
-0.249519052838309
20
-18.4790105443333
30
0
0
SPLINE
5
23E
100
AcDbEntity
8
SK1
62
256
6
ByLayer
370
18
48
1
60
0
100
AcDbSpline
70
4
71
3
72
12
73
8
40
0
40
0
40
0
40
0
40
0.195462476880412
40
0.195462476880412
40
0.580237372481706
40
0.580237372481706
40
1
40
1
40
1
40
1
41
1
10
-0.324519052852963
20
-15.9016211093579
30
0
41
1
10
-0.324519052852167
20
-15.909988516492
30
0
41
1
10
-0.322889195515472
20
-15.919742439609
30
0
41
1
10
-0.314931420157222
20
-15.9503520842284
30
0
41
1
10
-0.305541308892657
20
-15.9733229622448
30
0
41
1
10
-0.281653371970947
20
-16.022076958524
30
0
41
1
10
-0.26643265310372
20
-16.0485798748517
30
0
41
1
10
-0.249519052838309
20
-16.0748883021891
30
0
0
SPLINE
5
23F
100
AcDbEntity
8
SK1
62
256
6
ByLayer
370
18
48
1
60
0
100
AcDbSpline
70
4
71
3
72
8
73
4
40
0
40
0
40
0
40
0
40
1
40
1
40
1
40
1
41
1
10
0
20
19.0275172217373
30
0
41
1
10
-0.0832119351491656
20
18.9515279375099
30
0
41
1
10
-0.166385417532922
20
18.8754824737151
30
0
41
1
10
-0.249519052838309
20
18.7993790062494
30
0
0
SPLINE
5
240
100
AcDbEntity
8
SK1
62
256
6
ByLayer
370
18
48
1
60
0
100
AcDbSpline
70
4
71
3
72
8
73
4
40
0
40
0
40
0
40
0
40
1
40
1
40
1
40
1
41
1
10
-0.249519052838309
20
-18.5911471576056
30
0
41
1
10
-0.166506688858249
20
-18.6873254601423
30
0
41
1
10
-0.0833315242048229
20
-18.7833167506412
30
0
41
1
10
0
20
-18.8791263469343
30
0
0
SPLINE
5
241
100
AcDbEntity
8
SK1
62
256
6
ByLayer
370
18
48
1
60
0
100
AcDbSpline
70
4
71
3
72
8
73
4
40
0
40
0
40
0
40
0
40
1
40
1
40
1
40
1
41
1
10
-0.249519052838309
20
-16.0748883021891
30
0
41
1
10
-0.166803293990711
20
-16.2035493499351
30
0
41
1
10
-0.0836231065645734
20
-16.3318138919978
30
0
41
1
10
0
20
-16.4596905081325
30
0
0
SPLINE
5
242
100
AcDbEntity
8
SK1
62
256
6
ByLayer
370
18
48
1
60
0
100
AcDbSpline
70
4
71
3
72
8
73
4
40
0
40
0
40
0
40
0
40
1
40
1
40
1
40
1
41
1
10
0
20
-17.2929584404609
30
0
41
1
10
-0.0835139622307679
20
-17.1755848207154
30
0
41
1
10
-0.166692173533136
20
-17.0578915172672
30
0
41
1
10
-0.249519052838309
20
-16.9398705309347
30
0
0
SPLINE
5
243
100
AcDbEntity
8
SK1
62
256
6
ByLayer
370
18
48
1
60
0
100
AcDbSpline
70
4
71
3
72
8
73
4
40
0
40
0
40
0
40
0
40
1
40
1
40
1
40
1
41
1
10
-0.249519052838309
20
12.0718886217914
30
0
41
1
10
-0.167648592736953
20
12.2590823591226
30
0
41
1
10
-0.0844518749535723
20
12.4455098841085
30
0
41
1
10
0
20
12.6311682604383
30
0
0
SPLINE
5
244
100
AcDbEntity
8
SK1
62
256
6
ByLayer
370
18
48
1
60
0
100
AcDbSpline
70
4
71
3
72
16
73
12
40
0
40
0
40
0
40
0
40
0.276347734358023
40
0.276347734358023
40
0.528711045890968
40
0.528711045890968
40
0.743129378875011
40
0.743129378875011
40
0.958139456360718
40
0.958139456360718
40
1
40
1
40
1
40
1
41
1
10
-0.249519052838309
20
-18.4790105443333
30
0
41
1
10
-0.260185084131706
20
-18.4695770713222
30
0
41
1
10
-0.270674899843243
20
-18.4607505345844
30
0
41
1
10
-0.289114800437119
20
-18.4463993330018
30
0
41
1
10
-0.297377611760453
20
-18.440536022611
30
0
41
1
10
-0.310018462802191
20
-18.4330122240292
30
0
41
1
10
-0.314906983422418
20
-18.4307989584058
30
0
41
1
10
-0.321764255441906
20
-18.4295552908819
30
0
41
1
10
-0.323806018317384
20
-18.4305249524959
30
0
41
1
10
-0.324465508457536
20
-18.4333881181807
30
0
41
1
10
-0.324519052838298
20
-18.4339140439145
30
0
41
1
10
-0.324519052838298
20
-18.4344911780253
30
0
0
SPLINE
5
245
100
AcDbEntity
8
SK1
62
256
6
ByLayer
370
18
48
1
60
0
100
AcDbSpline
70
4
71
3
72
14
73
10
40
0
40
0
40
0
40
0
40
0.158419073668903
40
0.158419073668903
40
0.383500957898433
40
0.383500957898433
40
0.741802600086181
40
0.741802600086181
40
1
40
1
40
1
40
1
41
1
10
-0.324519052838468
20
-18.4837528208057
30
0
41
1
10
-0.324519052838355
20
-18.4860990429443
30
0
41
1
10
-0.323530673050243
20
-18.4894135377827
30
0
41
1
10
-0.31920834994844
20
-18.4990957048915
30
0
41
1
10
-0.315017920484479
20
-18.5062634049816
30
0
41
1
10
-0.301528929924189
20
-18.5267083079672
30
0
41
1
10
-0.290489272105901
20
-18.5414274217188
30
0
41
1
10
-0.269323246097429
20
-18.5678340151415
30
0
41
1
10
-0.25964732704557
20
-18.5794125174367
30
0
41
1
10
-0.249519052838309
20
-18.5911471576056
30
0
0
SPLINE
5
246
100
AcDbEntity
8
SK1
62
256
6
ByLayer
370
18
48
1
60
0
100
AcDbSpline
70
4
71
3
72
14
73
10
40
0
40
0
40
0
40
0
40
0.142077266538585
40
0.142077266538585
40
0.357289169597567
40
0.357289169597567
40
0.639391066202093
40
0.639391066202093
40
1
40
1
40
1
40
1
41
1
10
-0.324519052838355
20
-18.99973135775
30
0
41
1
10
-0.324519052838355
20
-18.9996867056985
30
0
41
1
10
-0.323799850820365
20
-19.000355240438
30
0
41
1
10
-0.320320390326685
20
-19.0036983614391
30
0
41
1
10
-0.316641322552471
20
-19.0072853980605
30
0
41
1
10
-0.30566986564628
20
-19.0180450470566
30
0
41
1
10
-0.297473998236796
20
-19.0261183019728
30
0
41
1
10
-0.27677864769322
20
-19.0465629582511
30
0
41
1
10
-0.263412062700922
20
-19.0598050487866
30
0
41
1
10
-0.249519052838309
20
-19.0736019583787
30
0
0
SPLINE
5
247
100
AcDbEntity
8
SK1
62
256
6
ByLayer
370
18
48
1
60
0
100
AcDbSpline
70
4
71
3
72
16
73
12
40
0
40
0
40
0
40
0
40
0.139295785157936
40
0.139295785157936
40
0.373169390299947
40
0.373169390299947
40
0.5782240795886
40
0.5782240795886
40
0.767386244221987
40
0.767386244221987
40
1
40
1
40
1
40
1
41
1
10
-0.324519052838525
20
-16.6784633080722
30
0
41
1
10
-0.324519052838525
20
-16.6747332685176
30
0
41
1
10
-0.324048029978485
20
-16.6713933597556
30
0
41
1
10
-0.321314234609929
20
-16.6639965466845
30
0
41
1
10
-0.317942156568051
20
-16.6608973326147
30
0
41
1
10
-0.308572363522671
20
-16.6592415329078
30
0
41
1
10
-0.302818396666851
20
-16.6601649056245
30
0
41
1
10
-0.290274504568799
20
-16.6648683898906
30
0
41
1
10
-0.283470683958626
20
-16.6684492885604
30
0
41
1
10
-0.267803276768007
20
-16.6783351092212
30
0
41
1
10
-0.258647473448264
20
-16.6851573729213
30
0
41
1
10
-0.249519052838366
20
-16.6926741335382
30
0
0
SPLINE
5
248
100
AcDbEntity
8
SK1
62
256
6
ByLayer
370
18
48
1
60
0
100
AcDbSpline
70
4
71
3
72
14
73
10
40
0
40
0
40
0
40
0
40
0.343719405120639
40
0.343719405120639
40
0.6444127618683
40
0.6444127618683
40
0.879995633462341
40
0.879995633462341
40
1
40
1
40
1
40
1
41
1
10
-0.249519052838309
20
-18.8729418033523
30
0
41
1
10
-0.262877001579113
20
-18.8583092960739
30
0
41
1
10
-0.275568839605
20
-18.8439956540715
30
0
41
1
10
-0.296430833543752
20
-18.8194114789058
30
0
41
1
10
-0.305151394490451
20
-18.8086349149084
30
0
41
1
10
-0.316930194756082
20
-18.7926922792578
30
0
41
1
10
-0.320890468180664
20
-18.7866863736842
30
0
41
1
10
-0.32396674119849
20
-18.7803667841365
30
0
41
1
10
-0.324519052838298
20
-18.778680214048
30
0
41
1
10
-0.324519052838298
20
-18.7775400265668
30
0
0
SPLINE
5
249
100
AcDbEntity
8
SK1
62
256
6
ByLayer
370
18
48
1
60
0
100
AcDbSpline
70
4
71
3
72
14
73
10
40
0
40
0
40
0
40
0
40
0.439686138355949
40
0.439686138355949
40
0.735578741051209
40
0.735578741051209
40
0.959839136655652
40
0.959839136655652
40
1
40
1
40
1
40
1
41
1
10
-0.249519052838309
20
-18.181682346768
30
0
41
1
10
-0.26673044951167
20
-18.1604722871973
30
0
41
1
10
-0.282650315212379
20
-18.1393902612981
30
0
41
1
10
-0.30428940723192
20
-18.1071890905056
30
0
41
1
10
-0.311800461305779
20
-18.094798540731
30
0
41
1
10
-0.320943413661723
20
-18.0762001889107
30
0
41
1
10
-0.32361005747407
20
-18.0690773548328
30
0
41
1
10
-0.324452738711443
20
-18.0628134282565
30
0
41
1
10
-0.324519052838298
20
-18.0619099370733
30
0
41
1
10
-0.324519052838298
20
-18.0610693822919
30
0
0
SPLINE
5
24A
100
AcDbEntity
8
SK1
62
256
6
ByLayer
370
18
48
1
60
0
100
AcDbSpline
70
4
71
3
72
8
73
4
40
0
40
0
40
0
40
0
40
1
40
1
40
1
40
1
41
1
10
-0.249519052838309
20
-18.0286164298472
30
0
41
1
10
-0.166362626497118
20
-18.1000062119281
30
0
41
1
10
-0.083189414787455
20
-18.1713699316054
30
0
41
1
10
0
20
-18.2427084508718
30
0
0
SPLINE
5
24B
100
AcDbEntity
8
SK1
62
256
6
ByLayer
370
18
48
1
60
0
100
AcDbSpline
70
4
71
3
72
16
73
12
40
0
40
0
40
0
40
0
40
0.132832030667635
40
0.132832030667635
40
0.351300493627031
40
0.351300493627031
40
0.555590320543129
40
0.555590320543129
40
0.819060976924625
40
0.819060976924625
40
1
40
1
40
1
40
1
41
1
10
-0.324519052838355
20
-17.9938143844313
30
0
41
1
10
-0.324519052838355
20
-17.9914278173456
30
0
41
1
10
-0.324016879753628
20
-17.9894994820179
30
0
41
1
10
-0.32125357427077
20
-17.9859269018327
30
0
41
1
10
-0.317979379431051
20
-17.9852522239028
30
0
41
1
10
-0.309098890861549
20
-17.9871896915064
30
0
41
1
10
-0.303561703353012
20
-17.9896023764956
30
0
41
1
10
-0.289317049938234
20
-17.9976808305037
30
0
41
1
10
-0.279959931476356
20
-18.0041714568057
30
0
41
1
10
-0.263535710099177
20
-18.0168476535511
30
0
41
1
10
-0.25656343190434
20
-18.0225688312604
30
0
41
1
10
-0.249519052838309
20
-18.0286164298472
30
0
0
SPLINE
5
24C
100
AcDbEntity
8
SK1
62
256
6
ByLayer
370
18
48
1
60
0
100
AcDbSpline
70
4
71
3
72
8
73
4
40
0
40
0
40
0
40
0
40
1
40
1
40
1
40
1
41
1
10
0
20
-18.4877367901945
30
0
41
1
10
-0.0833765460375275
20
-18.3859403967323
30
0
41
1
10
-0.16655242241734
20
-18.2839243209088
30
0
41
1
10
-0.249519052838309
20
-18.181682346768
30
0
0
SPLINE
5
24D
100
AcDbEntity
8
SK1
62
256
6
ByLayer
370
18
48
1
60
0
100
AcDbSpline
70
4
71
3
72
14
73
10
40
0
40
0
40
0
40
0
40
0.367070864371334
40
0.367070864371334
40
0.635183579069228
40
0.635183579069228
40
0.85875779835875
40
0.85875779835875
40
1
40
1
40
1
40
1
41
1
10
-0.249519052838309
20
19.0736019583787
30
0
41
1
10
-0.26365486380638
20
19.059563927177
30
0
41
1
10
-0.277251355722058
20
19.0460946901969
30
0
41
1
10
-0.297602911849708
20
19.0259919554817
30
0
41
1
10
-0.305379276453038
20
19.0183318481694
30
0
41
1
10
-0.316403775564424
20
19.007516972849
30
0
41
1
10
-0.320276919787489
20
19.003739730565
30
0
41
1
10
-0.323808216799307
20
19.0003474575294
30
0
41
1
10
-0.324519052838298
20
18.9996869613927
30
0
41
1
10
-0.324519052838355
20
18.9997313577499
30
0
0
SPLINE
5
24E
100
AcDbEntity
8
SK1
62
256
6
ByLayer
370
18
48
1
60
0
100
AcDbSpline
70
4
71
3
72
8
73
4
40
0
40
0
40
0
40
0
40
1
40
1
40
1
40
1
41
1
10
0
20
19.3208801979494
30
0
41
1
10
-0.083245549889682
20
19.2385518046065
30
0
41
1
10
-0.166419466436651
20
19.1561267310563
30
0
41
1
10
-0.249519052838309
20
19.0736019583787
30
0
0
SPLINE
5
24F
100
AcDbEntity
8
SK1
62
256
6
ByLayer
370
18
48
1
60
0
100
AcDbSpline
70
4
71
3
72
14
73
10
40
0
40
0
40
0
40
0
40
0.165260789411193
40
0.165260789411193
40
0.453363666481632
40
0.453363666481632
40
0.868472353651188
40
0.868472353651188
40
1
40
1
40
1
40
1
41
1
10
-0.324519052838866
20
18.0610693822918
30
0
41
1
10
-0.324519052838752
20
18.0644817645394
30
0
41
1
10
-0.323412456604103
20
18.0689573953438
30
0
41
1
10
-0.31806142700043
20
18.0830560193216
30
0
41
1
10
-0.312043960930453
20
18.0942286639611
30
0
41
1
10
-0.293924658662093
20
18.1234154499707
30
0
41
1
10
-0.28001534758954
20
18.1428248630129
30
0
41
1
10
-0.259804467422953
20
18.1688728206438
30
0
41
1
10
-0.254730619339284
20
18.1752599954598
30
0
41
1
10
-0.249519052838309
20
18.181682346768
30
0
0
SPLINE
5
250
100
AcDbEntity
8
SK1
62
256
6
ByLayer
370
18
48
1
60
0
100
AcDbSpline
70
4
71
3
72
8
73
4
40
0
40
0
40
0
40
0
40
1
40
1
40
1
40
1
41
1
10
0
20
18.2427084508718
30
0
41
1
10
-0.083189414787455
20
18.1713699316054
30
0
41
1
10
-0.166362626497118
20
18.1000062119281
30
0
41
1
10
-0.249519052838309
20
18.0286164298472
30
0
0
SPLINE
5
251
100
AcDbEntity
8
SK1
62
256
6
ByLayer
370
18
48
1
60
0
100
AcDbSpline
70
4
71
3
72
16
73
12
40
0
40
0
40
0
40
0
40
0.253271310775341
40
0.253271310775341
40
0.495728878313458
40
0.495728878313458
40
0.741068268115702
40
0.741068268115702
40
0.949175266652113
40
0.949175266652113
40
1
40
1
40
1
40
1
41
1
10
-0.249519052838309
20
18.0286164298471
30
0
41
1
10
-0.259335638386801
20
18.0201888923263
30
0
41
1
10
-0.269049470368316
20
18.0123659705558
30
0
41
1
10
-0.28674931907608
20
17.9994695065707
30
0
41
1
10
-0.294961348785819
20
17.9941875547313
30
0
41
1
10
-0.308828782718763
20
17.9871793424364
30
0
41
1
10
-0.314628773352524
20
17.9854375867894
30
0
41
1
10
-0.321731967039966
20
17.9862075954441
30
0
41
1
10
-0.323679808946565
20
17.9881143914572
30
0
41
1
10
-0.324445021662825
20
17.9920396916816
30
0
41
1
10
-0.324519052838355
20
17.9928926254666
30
0
41
1
10
-0.324519052838355
20
17.9938143844313
30
0
0
SPLINE
5
252
100
AcDbEntity
8
SK1
62
256
6
ByLayer
370
18
48
1
60
0
100
AcDbSpline
70
4
71
3
72
8
73
4
40
0
40
0
40
0
40
0
40
1
40
1
40
1
40
1
41
1
10
-0.249519052838309
20
18.181682346768
30
0
41
1
10
-0.16655242241734
20
18.2839243209088
30
0
41
1
10
-0.0833765460375275
20
18.3859403967323
30
0
41
1
10
0
20
18.4877367901945
30
0
0
SPLINE
5
253
100
AcDbEntity
8
SK1
62
256
6
ByLayer
370
18
48
1
60
0
100
AcDbSpline
70
4
71
3
72
8
73
4
40
0
40
0
40
0
40
0
40
1
40
1
40
1
40
1
41
1
10
-0.249519052838309
20
9.16140099075227
30
0
41
1
10
-0.166530386803458
20
9.24669039428304
30
0
41
1
10
-0.0833526587895221
20
9.33173506323269
30
0
41
1
10
0
20
9.41654987898988
30
0
0
SPLINE
5
254
100
AcDbEntity
8
SK1
62
256
6
ByLayer
370
18
48
1
60
0
100
AcDbSpline
70
4
71
3
72
8
73
4
40
0
40
0
40
0
40
0
40
1
40
1
40
1
40
1
41
1
10
0
20
10.6499489023893
30
0
41
1
10
-0.0853229403857085
20
10.4205429189484
30
0
41
1
10
-0.168538126347244
20
10.1900748976197
30
0
41
1
10
-0.249519052838309
20
9.95857998009566
30
0
0
SPLINE
5
255
100
AcDbEntity
8
SK1
62
256
6
ByLayer
370
18
48
1
60
0
100
AcDbSpline
70
4
71
3
72
10
73
6
40
0
40
0
40
0
40
0
40
0.7103796793502
40
0.7103796793502
40
1
40
1
40
1
40
1
41
1
10
-0.24951905283865
20
9.95857998009566
30
0
41
1
10
-0.279798273995027
20
9.87202273621102
30
0
41
1
10
-0.303019082175581
20
9.78362319043492
30
0
41
1
10
-0.321019438288204
20
9.66336092888008
30
0
41
1
10
-0.324519052838355
20
9.62856382020664
30
0
41
1
10
-0.324519052838355
20
9.59551923927148
30
0
0
SPLINE
5
256
100
AcDbEntity
8
SK1
62
256
6
ByLayer
370
18
48
1
60
0
100
AcDbSpline
70
4
71
3
72
20
73
16
40
0
40
0
40
0
40
0
40
0.124630212270588
40
0.124630212270588
40
0.213923594384359
40
0.213923594384359
40
0.30408846631874
40
0.30408846631874
40
0.386382694293465
40
0.386382694293465
40
0.519584282083238
40
0.519584282083238
40
0.771362387796985
40
0.771362387796985
40
1
40
1
40
1
40
1
41
1
10
-0.249519052829157
20
-9.16140099072436
30
0
41
1
10
-0.255115783653423
20
-9.15564909884941
30
0
41
1
10
-0.261054225664054
20
-9.15042036276392
30
0
41
1
10
-0.271499397068567
20
-9.14363857496119
30
0
41
1
10
-0.276030125513955
20
-9.14144380879975
30
0
41
1
10
-0.284772568031031
20
-9.13914951014507
30
0
41
1
10
-0.289084603310471
20
-9.13907061100005
30
0
41
1
10
-0.29640153399663
20
-9.14100846614465
30
0
41
1
10
-0.299575610366958
20
-9.14284239671861
30
0
41
1
10
-0.306735022816781
20
-9.14919974120062
30
0
41
1
10
-0.310181157529939
20
-9.15472664373905
30
0
41
1
10
-0.317975037338101
20
-9.17240754041342
30
0
41
1
10
-0.320746154280812
20
-9.18636925901433
30
0
41
1
10
-0.323937265886627
20
-9.21385579856556
30
0
41
1
10
-0.324519052862001
20
-9.22757141088752
30
0
41
1
10
-0.324519052860978
20
-9.24151469521476
30
0
0
SPLINE
5
257
100
AcDbEntity
8
SK1
62
256
6
ByLayer
370
18
48
1
60
0
100
AcDbSpline
70
4
71
3
72
10
73
6
40
0
40
0
40
0
40
0
40
0.413057180307902
40
0.413057180307902
40
1
40
1
40
1
40
1
41
1
10
-0.324519052838355
20
-9.59551923927148
30
0
41
1
10
-0.324519052838355
20
-9.64244711382625
30
0
41
1
10
-0.317743106258661
20
-9.692721537122
30
0
41
1
10
-0.29458782647356
20
-9.81412683807548
30
0
41
1
10
-0.274598267968429
20
-9.88688765587017
30
0
41
1
10
-0.249519052838423
20
-9.95857998009566
30
0
0
SPLINE
5
258
100
AcDbEntity
8
SK1
62
256
6
ByLayer
370
18
48
1
60
0
100
AcDbSpline
70
4
71
3
72
20
73
16
40
0
40
0
40
0
40
0
40
0.266266666823258
40
0.266266666823258
40
0.440832446473642
40
0.440832446473642
40
0.61884764165375
40
0.61884764165375
40
0.706600847478357
40
0.706600847478357
40
0.795008390430095
40
0.795008390430095
40
0.877252298648868
40
0.877252298648868
40
1
40
1
40
1
40
1
41
1
10
-0.324519052838298
20
9.2415146952261
30
0
41
1
10
-0.324519052838298
20
9.22531243022013
30
0
41
1
10
-0.323746255474589
20
9.20938939615161
30
0
41
1
10
-0.320181336345058
20
9.18457583334305
30
0
41
1
10
-0.318158954728176
20
9.17506508681339
30
0
41
1
10
-0.312059890404896
20
9.15789364544301
30
0
41
1
10
-0.307841429675079
20
9.14998622316116
30
0
41
1
10
-0.29894609587916
20
9.14239177492115
30
0
41
1
10
-0.295483994690017
20
9.14056467762856
30
0
41
1
10
-0.287841443263289
20
9.13902121056645
30
0
41
1
10
-0.283556438278936
20
9.13932234749365
30
0
41
1
10
-0.275183505876669
20
9.14184683748726
30
0
41
1
10
-0.2710152150417
20
9.14393816973438
30
0
41
1
10
-0.260956918781176
20
9.15050615885016
30
0
41
1
10
-0.255070509203563
20
9.15569562850493
30
0
41
1
10
-0.249519052838252
20
9.16140099075196
30
0
0
SPLINE
5
259
100
AcDbEntity
8
SK1
62
256
6
ByLayer
370
18
48
1
60
0
100
AcDbSpline
70
4
71
3
72
8
73
4
40
0
40
0
40
0
40
0
40
1
40
1
40
1
40
1
41
1
10
-0.249519052838309
20
-9.95857998009566
30
0
41
1
10
-0.168538126347244
20
-10.1900748976197
30
0
41
1
10
-0.0853229403857085
20
-10.4205429189484
30
0
41
1
10
0
20
-10.6499489023893
30
0
0
SPLINE
5
25A
100
AcDbEntity
8
SK1
62
256
6
ByLayer
370
18
48
1
60
0
100
AcDbSpline
70
4
71
3
72
8
73
4
40
0
40
0
40
0
40
0
40
1
40
1
40
1
40
1
41
1
10
0
20
-9.41654987898986
30
0
41
1
10
-0.0833526587895221
20
-9.33173506323269
30
0
41
1
10
-0.166530386803458
20
-9.24669039428304
30
0
41
1
10
-0.249519052838309
20
-9.16140099075224
30
0
0
SPLINE
5
25B
100
AcDbEntity
8
SK1
62
256
6
ByLayer
370
18
48
1
60
0
100
AcDbSpline
70
4
71
3
72
8
73
4
40
0
40
0
40
0
40
0
40
1
40
1
40
1
40
1
41
1
10
0
20
17.9630568563235
30
0
41
1
10
-0.0834352757658507
20
17.8541907726337
30
0
41
1
10
-0.166612124255209
20
17.7450598241335
30
0
41
1
10
-0.249519052838309
20
17.6356568712878
30
0
0
SPLINE
5
25C
100
AcDbEntity
8
SK1
62
256
6
ByLayer
370
18
48
1
60
0
100
AcDbSpline
70
4
71
3
72
8
73
4
40
0
40
0
40
0
40
0
40
1
40
1
40
1
40
1
41
1
10
-0.249519052838309
20
17.4381246139465
30
0
41
1
10
-0.166354608804397
20
17.507808745594
30
0
41
1
10
-0.0831814897333629
20
17.5774790749024
30
0
41
1
10
0
20
17.6471360742617
30
0
0
SPLINE
5
25D
100
AcDbEntity
8
SK1
62
256
6
ByLayer
370
18
48
1
60
0
100
AcDbSpline
70
4
71
3
72
14
73
10
40
0
40
0
40
0
40
0
40
0.467587757055404
40
0.467587757055404
40
0.765308051306658
40
0.765308051306658
40
0.993324796256947
40
0.993324796256947
40
1
40
1
40
1
40
1
41
1
10
-0.249519052838309
20
17.6356568712878
30
0
41
1
10
-0.267949792170157
20
17.6113358966662
30
0
41
1
10
-0.284761237233681
20
17.586979777702
30
0
41
1
10
-0.30651614180681
20
17.5502761606054
30
0
41
1
10
-0.313701380615726
20
17.5364837667623
30
0
41
1
10
-0.322113185837111
20
17.5153120246605
30
0
41
1
10
-0.324386785360673
20
17.5070141351125
30
0
41
1
10
-0.324517163951271
20
17.5005216849904
30
0
41
1
10
-0.324519052838355
20
17.5003362092723
30
0
41
1
10
-0.324519052838355
20
17.5001524600012
30
0
0
SPLINE
5
25E
100
AcDbEntity
8
SK1
62
256
6
ByLayer
370
18
48
1
60
0
100
AcDbSpline
70
4
71
3
72
16
73
12
40
0
40
0
40
0
40
0
40
0.134334890076664
40
0.134334890076664
40
0.358399879804482
40
0.358399879804482
40
0.562337036178712
40
0.562337036178712
40
0.763799280508814
40
0.763799280508814
40
1
40
1
40
1
40
1
41
1
10
-0.324519052838355
20
17.4133353269853
30
0
41
1
10
-0.324519052838355
20
17.4103375150127
30
0
41
1
10
-0.324042222738115
20
17.4077568611238
30
0
41
1
10
-0.321343434402706
20
17.402386894647
30
0
41
1
10
-0.31807180078664
20
17.400561750496
30
0
41
1
10
-0.309080254595756
20
17.4007028690465
30
0
41
1
10
-0.303497738018905
20
17.4023427561397
30
0
41
1
10
-0.290943808002226
20
17.4081868782026
30
0
41
1
10
-0.283863827358175
20
17.4124014367737
30
0
41
1
10
-0.267884484559772
20
17.4233188653615
30
0
41
1
10
-0.25872204907796
20
17.430413352133
30
0
41
1
10
-0.249519052838309
20
17.4381246139465
30
0
0
SPLINE
5
25F
100
AcDbEntity
8
SK1
62
256
6
ByLayer
370
18
48
1
60
0
100
AcDbSpline
70
4
71
3
72
8
73
4
40
0
40
0
40
0
40
0
40
1
40
1
40
1
40
1
41
1
10
0
20
16.4596905081325
30
0
41
1
10
-0.0836231065645734
20
16.3318138919978
30
0
41
1
10
-0.166803293990711
20
16.2035493499351
30
0
41
1
10
-0.249519052838309
20
16.0748883021891
30
0
0
SPLINE
5
260
100
AcDbEntity
8
SK1
62
256
6
ByLayer
370
18
48
1
60
0
100
AcDbSpline
70
4
71
3
72
12
73
8
40
0
40
0
40
0
40
0
40
0.534998601047671
40
0.534998601047671
40
0.837939710474923
40
0.837939710474923
40
1
40
1
40
1
40
1
41
1
10
-0.249519052838309
20
16.0748883021891
30
0
41
1
10
-0.270974284561646
20
16.0415155491417
30
0
41
1
10
-0.289842187851548
20
16.0076533358304
30
0
41
1
10
-0.311528787627822
20
15.9581337476616
30
0
41
1
10
-0.317885498632563
20
15.9405713710938
30
0
41
1
10
-0.323388201976172
20
15.9165086079672
30
0
41
1
10
-0.324519052844096
20
15.9085840952111
30
0
41
1
10
-0.324519052844323
20
15.9016211093644
30
0
0
SPLINE
5
261
100
AcDbEntity
8
SK1
62
256
6
ByLayer
370
18
48
1
60
0
100
AcDbSpline
70
4
71
3
72
8
73
4
40
0
40
0
40
0
40
0
40
1
40
1
40
1
40
1
41
1
10
-0.249519052838309
20
15.7703059388672
30
0
41
1
10
-0.166346120039407
20
15.8382326400955
30
0
41
1
10
-0.0831731013446984
20
15.9061592010903
30
0
41
1
10
0
20
15.9740856271496
30
0
0
SPLINE
5
262
100
AcDbEntity
8
SK1
62
256
6
ByLayer
370
18
48
1
60
0
100
AcDbSpline
70
4
71
3
72
18
73
14
40
0
40
0
40
0
40
0
40
0.150438272531901
40
0.150438272531901
40
0.355092986172855
40
0.355092986172855
40
0.56195606884938
40
0.56195606884938
40
0.739388891985919
40
0.739388891985919
40
0.986211120327218
40
0.986211120327218
40
1
40
1
40
1
40
1
41
1
10
-0.32451905283898
20
15.7676259921196
30
0
41
1
10
-0.32451905283898
20
15.7628990006672
30
0
41
1
10
-0.324022461947152
20
15.758554472191
30
0
41
1
10
-0.321405870331262
20
15.7497533325019
30
0
41
1
10
-0.31870140109686
20
15.7457395971604
30
0
41
1
10
-0.310650553486027
20
15.7411610352298
30
0
41
1
10
-0.305124987243289
20
15.7406128254617
30
0
41
1
10
-0.293103957970857
20
15.7431066223114
30
0
41
1
10
-0.2867289767957
20
15.7456564144856
30
0
41
1
10
-0.270897689712967
20
15.7541355720909
30
0
41
1
10
-0.260970079238518
20
15.7610784485924
30
0
41
1
10
-0.25062568699525
20
15.7694053667876
30
0
41
1
10
-0.250072387740261
20
15.7698540344639
30
0
41
1
10
-0.249519052838309
20
15.7703059388672
30
0
0
SPLINE
5
263
100
AcDbEntity
8
SK1
62
256
6
ByLayer
370
18
48
1
60
0
100
AcDbSpline
70
4
71
3
72
8
73
4
40
0
40
0
40
0
40
0
40
1
40
1
40
1
40
1
41
1
10
0
20
14.8423856446161
30
0
41
1
10
-0.0831749697857163
20
14.774131436091
30
0
41
1
10
-0.166348014707353
20
14.7058740999149
30
0
41
1
10
-0.249519052838309
20
14.637613503657
30
0
0
SPLINE
5
264
100
AcDbEntity
8
SK1
62
256
6
ByLayer
370
18
48
1
60
0
100
AcDbSpline
70
4
71
3
72
8
73
4
40
0
40
0
40
0
40
0
40
1
40
1
40
1
40
1
41
1
10
-0.249519052838309
20
15.0114907404589
30
0
41
1
10
-0.166964923531225
20
15.1537593946222
30
0
41
1
10
-0.0837817374583096
20
15.2955438255014
30
0
41
1
10
0
20
15.4368523871774
30
0
0
SPLINE
5
265
100
AcDbEntity
8
SK1
62
256
6
ByLayer
370
18
48
1
60
0
100
AcDbSpline
70
4
71
3
72
18
73
14
40
0
40
0
40
0
40
0
40
0.152767476409722
40
0.152767476409722
40
0.372645490479613
40
0.372645490479613
40
0.560893376057503
40
0.560893376057503
40
0.721857412175992
40
0.721857412175992
40
0.973287537052905
40
0.973287537052905
40
1
40
1
40
1
40
1
41
1
10
-0.249519052838309
20
14.6376135036567
30
0
41
1
10
-0.255700397683938
20
14.6325403159905
30
0
41
1
10
-0.261953657897152
20
14.6279018955259
30
0
41
1
10
-0.276831515314484
20
14.6184344041511
30
0
41
1
10
-0.285575534431985
20
14.6142875530537
30
0
41
1
10
-0.299660504318695
20
14.6111332179293
30
0
41
1
10
-0.305481089995226
20
14.6114686985952
30
0
41
1
10
-0.313897716430802
20
14.6152631932923
30
0
41
1
10
-0.316957399778744
20
14.6182752145577
30
0
41
1
10
-0.322635936795734
20
14.6280915053829
30
0
41
1
10
-0.324206584097396
20
14.6361781333587
30
0
41
1
10
-0.324504918845378
20
14.6460809881068
30
0
41
1
10
-0.324519052838355
20
14.6470525120875
30
0
41
1
10
-0.324519052838355
20
14.6480346987596
30
0
0
SPLINE
5
266
100
AcDbEntity
8
SK1
62
256
6
ByLayer
370
18
48
1
60
0
100
AcDbSpline
70
4
71
3
72
12
73
8
40
0
40
0
40
0
40
0
40
0.238289079693301
40
0.238289079693301
40
0.693497573469562
40
0.693497573469562
40
1
40
1
40
1
40
1
41
1
10
-0.324519052838298
20
14.8126521189585
30
0
41
1
10
-0.324519052838184
20
14.8252561425439
30
0
41
1
10
-0.322101968220181
20
14.8397722616827
30
0
41
1
10
-0.311048096543857
20
14.883594290661
30
0
41
1
10
-0.298637803714769
20
14.9151910729151
30
0
41
1
10
-0.273537910881259
20
14.9681809232885
30
0
41
1
10
-0.262051091826038
20
14.9898938035682
30
0
41
1
10
-0.249519052838309
20
15.0114907404589
30
0
0
SPLINE
5
267
100
AcDbEntity
8
SK1
62
256
6
ByLayer
370
18
48
1
60
0
100
AcDbSpline
70
4
71
3
72
8
73
4
40
0
40
0
40
0
40
0
40
1
40
1
40
1
40
1
41
1
10
-0.249519052838309
20
18.4790105443333
30
0
41
1
10
-0.166372838435052
20
18.5525484468556
30
0
41
1
10
-0.0831995072585414
20
18.6260454864902
30
0
41
1
10
0
20
18.6995029779807
30
0
0
SPLINE
5
268
100
AcDbEntity
8
SK1
62
256
6
ByLayer
370
18
48
1
60
0
100
AcDbSpline
70
4
71
3
72
8
73
4
40
0
40
0
40
0
40
0
40
1
40
1
40
1
40
1
41
1
10
0
20
18.8791263469343
30
0
41
1
10
-0.0833315242048229
20
18.7833167506412
30
0
41
1
10
-0.166506688858249
20
18.6873254601423
30
0
41
1
10
-0.249519052838309
20
18.5911471576056
30
0
0
SPLINE
5
269
100
AcDbEntity
8
SK1
62
256
6
ByLayer
370
18
48
1
60
0
100
AcDbSpline
70
4
71
3
72
16
73
12
40
0
40
0
40
0
40
0
40
0.133485903531572
40
0.133485903531572
40
0.349041377065544
40
0.349041377065544
40
0.555597546142828
40
0.555597546142828
40
0.842397017265308
40
0.842397017265308
40
1
40
1
40
1
40
1
41
1
10
-0.324519052838298
20
18.4344911780252
30
0
41
1
10
-0.324519052838298
20
18.4326694234702
30
0
41
1
10
-0.323977796393592
20
18.4313578036235
30
0
41
1
10
-0.321088737331138
20
18.429488493822
30
0
41
1
10
-0.317754737409814
20
18.4298993479503
30
0
41
1
10
-0.308818023260301
20
18.4336382107473
30
0
41
1
10
-0.30322675960042
20
18.4368695570278
30
0
41
1
10
-0.288294862214059
20
18.4469127934992
30
0
41
1
10
-0.278127477139037
20
18.4547492348248
30
0
41
1
10
-0.261691234853629
20
18.4683927350714
30
0
41
1
10
-0.255644381968239
20
18.4735930534745
30
0
41
1
10
-0.249519052838309
20
18.4790105443333
30
0
0
SPLINE
5
26A
100
AcDbEntity
8
SK1
62
256
6
ByLayer
370
18
48
1
60
0
100
AcDbSpline
70
4
71
3
72
14
73
10
40
0
40
0
40
0
40
0
40
0.330112466537438
40
0.330112466537438
40
0.649679207798905
40
0.649679207798905
40
0.891261224759669
40
0.891261224759669
40
1
40
1
40
1
40
1
41
1
10
-0.249519052838309
20
18.5911471576056
30
0
41
1
10
-0.262424197816358
20
18.5761952290198
30
0
41
1
10
-0.274625861025527
20
18.5614610262332
30
0
41
1
10
-0.295813500829297
20
18.5343240428979
30
0
41
1
10
-0.305090235481089
20
18.5215975371456
30
0
41
1
10
-0.317257834140435
20
18.5025593584501
30
0
41
1
10
-0.321238117900634
20
18.4952844890088
30
0
41
1
10
-0.324051139020696
20
18.4874509606636
30
0
41
1
10
-0.324519052838355
20
18.4853734065254
30
0
41
1
10
-0.324519052838355
20
18.4837528208056
30
0
0
SPLINE
5
26B
100
AcDbEntity
8
SK1
62
256
6
ByLayer
370
18
48
1
60
0
100
AcDbSpline
70
4
71
3
72
8
73
4
40
0
40
0
40
0
40
0
40
1
40
1
40
1
40
1
41
1
10
-0.249519052838309
20
16.9398705309347
30
0
41
1
10
-0.166692173533136
20
17.0578915172672
30
0
41
1
10
-0.0835139622307679
20
17.1755848207154
30
0
41
1
10
0
20
17.2929584404609
30
0
0
SPLINE
5
26C
100
AcDbEntity
8
SK1
62
256
6
ByLayer
370
18
48
1
60
0
100
AcDbSpline
70
4
71
3
72
16
73
12
40
0
40
0
40
0
40
0
40
0.205241065955417
40
0.205241065955417
40
0.423579990600995
40
0.423579990600995
40
0.644246042646202
40
0.644246042646202
40
0.834043662746307
40
0.834043662746307
40
1
40
1
40
1
40
1
41
1
10
-0.249519052838366
20
16.6926741335382
30
0
41
1
10
-0.257590934321229
20
16.6860273757443
30
0
41
1
10
-0.265670198202088
20
16.6799331811536
30
0
41
1
10
-0.281587553109773
20
16.6694559184771
30
0
41
1
10
-0.289542633494989
20
16.6651227483174
30
0
41
1
10
-0.303437681424896
20
16.6599533588168
30
0
41
1
10
-0.309532417746141
20
16.6591234389478
30
0
41
1
10
-0.31789669828504
20
16.661208373362
30
0
41
1
10
-0.320696290122271
20
16.6636215964203
30
0
41
1
10
-0.323851038429439
20
16.6701456305477
30
0
41
1
10
-0.324519052838639
20
16.6740312924742
30
0
41
1
10
-0.324519052838639
20
16.6784633080721
30
0
0
SPLINE
5
26D
100
AcDbEntity
8
SK1
62
256
6
ByLayer
370
18
48
1
60
0
100
AcDbSpline
70
4
71
3
72
12
73
8
40
0
40
0
40
0
40
0
40
0.183023261543622
40
0.183023261543622
40
0.526726994866207
40
0.526726994866207
40
1
40
1
40
1
40
1
41
1
10
-0.324519052843812
20
16.7871511881699
30
0
41
1
10
-0.324519052843527
20
16.7934489605135
30
0
41
1
10
-0.323103005244661
20
16.8010174664272
30
0
41
1
10
-0.316239120658793
20
16.8245456878182
30
0
41
1
10
-0.308299792121943
20
16.8424007001914
30
0
41
1
10
-0.285332625137642
20
16.8859984464399
30
0
41
1
10
-0.268359522046012
20
16.9130245266241
30
0
41
1
10
-0.249519052838309
20
16.9398705309347
30
0
0
SPLINE
5
26E
100
AcDbEntity
8
SK1
62
256
6
ByLayer
370
18
48
1
60
0
100
AcDbSpline
70
4
71
3
72
8
73
4
40
0
40
0
40
0
40
0
40
1
40
1
40
1
40
1
41
1
10
0
20
16.8981185823602
30
0
41
1
10
-0.0831758476998061
20
16.8296416826295
30
0
41
1
10
-0.16634890014052
20
16.76116025562
30
0
41
1
10
-0.249519052838309
20
16.6926741335383
30
0
0
SPLINE
5
26F
100
AcDbEntity
8
SK1
62
256
6
ByLayer
370
18
48
1
60
0
100
AcDbSpline
70
4
71
3
72
8
73
4
40
0
40
0
40
0
40
0
40
1
40
1
40
1
40
1
41
1
10
-0.249519052838309
20
-19.0327379005148
30
0
41
1
10
-0.166442432040981
20
-19.1191971441407
30
0
41
1
10
-0.0832682037895438
20
-19.2055314891718
30
0
41
1
10
0
20
-19.2917446495518
30
0
0
SPLINE
5
270
100
AcDbEntity
8
SK1
62
256
6
ByLayer
370
18
48
1
60
0
100
AcDbSpline
70
4
71
3
72
8
73
4
40
0
40
0
40
0
40
0
40
1
40
1
40
1
40
1
41
1
10
0
20
-19.2333411456125
30
0
41
1
10
-0.0832270823895556
20
-19.1544038788987
30
0
41
1
10
-0.166400755928578
20
-19.0753914664499
30
0
41
1
10
-0.249519052838309
20
-18.9963015174965
30
0
0
SPLINE
5
271
100
AcDbEntity
8
SK1
62
256
6
ByLayer
370
18
48
1
60
0
100
AcDbSpline
70
4
71
3
72
14
73
10
40
0
40
0
40
0
40
0
40
0.376936581931679
40
0.376936581931679
40
0.630519350437982
40
0.630519350437982
40
0.887321411288053
40
0.887321411288053
40
1
40
1
40
1
40
1
41
1
10
-0.249519052838309
20
-18.9963015174965
30
0
41
1
10
-0.263991370211954
20
-18.9825306044139
30
0
41
1
10
-0.278016899563625
20
-18.9694790104446
30
0
41
1
10
-0.298159778133709
20
-18.9514308649344
30
0
41
1
10
-0.305525099227054
20
-18.945059143756
30
0
41
1
10
-0.317041086131383
20
-18.9357409613513
30
0
41
1
10
-0.321283209337139
20
-18.9327420806933
30
0
41
1
10
-0.324084718744132
20
-18.9317435795878
30
0
41
1
10
-0.324519052838298
20
-18.9318703690058
30
0
41
1
10
-0.324519052838298
20
-18.932424112494
30
0
0
SPLINE
5
272
100
AcDbEntity
8
SK1
62
256
6
ByLayer
370
18
48
1
60
0
100
AcDbSpline
70
4
71
3
72
14
73
10
40
0
40
0
40
0
40
0
40
0.146814470569693
40
0.146814470569693
40
0.36442882366577
40
0.36442882366577
40
0.668849228651338
40
0.668849228651338
40
1
40
1
40
1
40
1
41
1
10
-0.324519052838355
20
-18.9484273901027
30
0
41
1
10
-0.324519052838298
20
-18.9490801822198
30
0
41
1
10
-0.323721640691417
20
-18.9505261382741
30
0
41
1
10
-0.319991427763512
20
-18.9557916314281
30
0
41
1
10
-0.316161596045447
20
-18.9604899566306
30
0
41
1
10
-0.304477263095407
20
-18.9740320296028
30
0
41
1
10
-0.295477397657123
20
-18.9839676092484
30
0
41
1
10
-0.274624008123794
20
-19.0064364020962
30
0
41
1
10
-0.262344571260769
20
-19.0193901666847
30
0
41
1
10
-0.249519052838309
20
-19.0327379005148
30
0
0
SPLINE
5
273
100
AcDbEntity
8
SK1
62
256
6
ByLayer
370
18
48
1
60
0
100
AcDbSpline
70
4
71
3
72
8
73
4
40
0
40
0
40
0
40
0
40
1
40
1
40
1
40
1
41
1
10
0
20
-17.6471360742617
30
0
41
1
10
-0.0831814897333629
20
-17.5774790749024
30
0
41
1
10
-0.166354608804397
20
-17.507808745594
30
0
41
1
10
-0.249519052838309
20
-17.4381246139465
30
0
0
SPLINE
5
274
100
AcDbEntity
8
SK1
62
256
6
ByLayer
370
18
48
1
60
0
100
AcDbSpline
70
4
71
3
72
16
73
12
40
0
40
0
40
0
40
0
40
0.229761289633071
40
0.229761289633071
40
0.46107349149755
40
0.46107349149755
40
0.694970707968269
40
0.694970707968269
40
0.894984083237745
40
0.894984083237745
40
1
40
1
40
1
40
1
41
1
10
-0.249519052838309
20
-17.4381246139465
30
0
41
1
10
-0.258474575034938
20
-17.43062071255
30
0
41
1
10
-0.267388219419502
20
-17.4237033672119
30
0
41
1
10
-0.284252884553325
20
-17.4120935347004
30
0
41
1
10
-0.292364920401269
20
-17.4073226453217
30
0
41
1
10
-0.306296276040087
20
-17.4013155383005
30
0
41
1
10
-0.312266233008358
20
-17.4000758682497
30
0
41
1
10
-0.320047308055109
20
-17.4015783393295
30
0
41
1
10
-0.322441839032649
20
-17.4037735271424
30
0
41
1
10
-0.324226700431382
20
-17.4088877987381
30
0
41
1
10
-0.324519052838355
20
-17.4109824537557
30
0
41
1
10
-0.324519052838355
20
-17.4133353269855
30
0
0
SPLINE
5
275
100
AcDbEntity
8
SK1
62
256
6
ByLayer
370
18
48
1
60
0
100
AcDbSpline
70
4
71
3
72
14
73
10
40
0
40
0
40
0
40
0
40
0.173405043275125
40
0.173405043275125
40
0.486230770938617
40
0.486230770938617
40
0.946999357781634
40
0.946999357781634
40
1
40
1
40
1
40
1
41
1
10
-0.324519052840174
20
-17.5001524599996
30
0
41
1
10
-0.324519052840117
20
-17.5048507923428
30
0
41
1
10
-0.323272709033802
20
-17.5107128188255
30
0
41
1
10
-0.317249624278588
20
-17.5289484313443
30
0
41
1
10
-0.310392634378275
20
-17.5430314901589
30
0
41
1
10
-0.289628893308134
20
-17.5794797023058
30
0
41
1
10
-0.273550238875487
20
-17.6033582778796
30
0
41
1
10
-0.253729706220895
20
-17.6300716744428
30
0
41
1
10
-0.251636914810604
20
-17.6328621669435
30
0
41
1
10
-0.249519052838309
20
-17.6356568712878
30
0
0
SPLINE
5
276
100
AcDbEntity
8
SK1
62
256
6
ByLayer
370
18
48
1
60
0
100
AcDbSpline
70
4
71
3
72
8
73
4
40
0
40
0
40
0
40
0
40
1
40
1
40
1
40
1
41
1
10
-0.249519052838309
20
-17.6356568712878
30
0
41
1
10
-0.166612124255209
20
-17.7450598241335
30
0
41
1
10
-0.0834352757658507
20
-17.8541907726337
30
0
41
1
10
0
20
-17.9630568563235
30
0
0
SPLINE
5
277
100
AcDbEntity
8
SK1
62
256
6
ByLayer
370
18
48
1
60
0
100
AcDbSpline
70
4
71
3
72
8
73
4
40
0
40
0
40
0
40
0
40
1
40
1
40
1
40
1
41
1
10
-0.249519052838309
20
13.2407291626788
30
0
41
1
10
-0.166359434825836
20
13.3107416731093
30
0
41
1
10
-0.0831862082840189
20
13.380732636207
30
0
41
1
10
0
20
13.4507030159582
30
0
0
SPLINE
5
278
100
AcDbEntity
8
SK1
62
256
6
ByLayer
370
18
48
1
60
0
100
AcDbSpline
70
4
71
3
72
8
73
4
40
0
40
0
40
0
40
0
40
1
40
1
40
1
40
1
41
1
10
0
20
14.183490812332
30
0
41
1
10
-0.084028113643285
20
14.0241122346499
30
0
41
1
10
-0.167216153527647
20
13.8641387078905
30
0
41
1
10
-0.249519052838309
20
13.7035643018125
30
0
0
SPLINE
5
279
100
AcDbEntity
8
SK1
62
256
6
ByLayer
370
18
48
1
60
0
100
AcDbSpline
70
4
71
3
72
8
73
4
40
0
40
0
40
0
40
0
40
1
40
1
40
1
40
1
41
1
10
0
20
-13.4507030159582
30
0
41
1
10
-0.0831862082840189
20
-13.380732636207
30
0
41
1
10
-0.166359434825836
20
-13.3107416731093
30
0
41
1
10
-0.249519052838309
20
-13.2407291626788
30
0
0
SPLINE
5
27A
100
AcDbEntity
8
SK1
62
256
6
ByLayer
370
18
48
1
60
0
100
AcDbSpline
70
4
71
3
72
8
73
4
40
0
40
0
40
0
40
0
40
1
40
1
40
1
40
1
41
1
10
-0.324519052838298
20
11.9878176024207
30
0
41
1
10
-0.324519052838298
20
11.9513048309326
30
0
41
1
10
-0.320754539192592
20
11.9126350381338
30
0
41
1
10
-0.31533199024841
20
11.8735009266412
30
0
0
SPLINE
5
27B
100
AcDbEntity
8
SK1
62
256
6
ByLayer
370
18
48
1
60
0
100
AcDbSpline
70
4
71
3
72
18
73
14
40
0
40
0
40
0
40
0
40
0.216371178674088
40
0.216371178674088
40
0.40318489121646
40
0.40318489121646
40
0.557125180505289
40
0.557125180505289
40
0.712144557720918
40
0.712144557720918
40
0.853280763585155
40
0.853280763585155
40
1
40
1
40
1
40
1
41
1
10
-0.324519052847336
20
13.2669443220565
30
0
41
1
10
-0.324519052847677
20
13.2578210256076
30
0
41
1
10
-0.323736263638523
20
13.2491602789052
30
0
41
1
10
-0.320101302940316
20
13.2350367780019
30
0
41
1
10
-0.317491669847186
20
13.2292072898995
30
0
41
1
10
-0.31057532405714
20
13.2213787341851
30
0
41
1
10
-0.306555175551864
20
13.2188468904054
30
0
41
1
10
-0.296972337234308
20
13.216744221585
30
0
41
1
10
-0.291262150821353
20
13.2171916470831
30
0
41
1
10
-0.279703688064444
20
13.2207338404365
30
0
41
1
10
-0.273793252042367
20
13.2235994363501
30
0
41
1
10
-0.261785573130339
20
13.2309925441976
30
0
41
1
10
-0.255586911287423
20
13.2356206014182
30
0
41
1
10
-0.249519052838252
20
13.240729162678
30
0
0
SPLINE
5
27C
100
AcDbEntity
8
SK1
62
256
6
ByLayer
370
18
48
1
60
0
100
AcDbSpline
70
4
71
3
72
12
73
8
40
0
40
0
40
0
40
0
40
0.615287661370246
40
0.615287661370246
40
0.961689421562546
40
0.961689421562546
40
1
40
1
40
1
40
1
41
1
10
-0.249519052838366
20
13.7035643018125
30
0
41
1
10
-0.274785350877039
20
13.6542693093476
30
0
41
1
10
-0.295858579045671
20
13.6038386438011
30
0
41
1
10
-0.317513744440873
20
13.5292162471598
30
0
41
1
10
-0.323197950512679
20
13.5025069862123
30
0
41
1
10
-0.324452578835974
20
13.4761758763098
30
0
41
1
10
-0.324519052838355
20
13.4735631174784
30
0
41
1
10
-0.324519052838355
20
13.4709974273838
30
0
0
SPLINE
5
27D
100
AcDbEntity
8
SK1
62
256
6
ByLayer
370
18
48
1
60
0
100
AcDbSpline
70
4
71
3
72
18
73
14
40
0
40
0
40
0
40
0
40
0.123932220265572
40
0.123932220265572
40
0.313086464769553
40
0.313086464769553
40
0.481512786098278
40
0.481512786098278
40
0.622638847584811
40
0.622638847584811
40
0.848284929255742
40
0.848284929255742
40
1
40
1
40
1
40
1
41
1
10
-0.249519052838252
20
-13.2407291626784
30
0
41
1
10
-0.254654487125663
20
-13.2364056141195
30
0
41
1
10
-0.259875688565103
20
-13.2324318466059
30
0
41
1
10
-0.272913694723457
20
-13.2238854330938
30
0
41
1
10
-0.280900266709182
20
-13.2199798031859
30
0
41
1
10
-0.294463675833811
20
-13.216733118148
30
0
41
1
10
-0.300377021503721
20
-13.2169405003348
30
0
41
1
10
-0.309188788708411
20
-13.2204150729225
30
0
41
1
10
-0.312541600666748
20
-13.2231882962737
30
0
41
1
10
-0.319359835520743
20
-13.2323829678993
30
0
41
1
10
-0.321876728873633
20
-13.2400825784944
30
0
41
1
10
-0.324127875098952
20
-13.2543281419187
30
0
41
1
10
-0.324519052840799
20
-13.260512330748
30
0
41
1
10
-0.324519052840742
20
-13.266944322062
30
0
0
SPLINE
5
27E
100
AcDbEntity
8
SK1
62
256
6
ByLayer
370
18
48
1
60
0
100
AcDbSpline
70
4
71
3
72
8
73
4
40
0
40
0
40
0
40
0
40
1
40
1
40
1
40
1
41
1
10
-0.317608630481345
20
-11.8901031347062
30
0
41
1
10
-0.321821779316849
20
-11.9235884046078
30
0
41
1
10
-0.324519052838241
20
-11.9564700581789
30
0
41
1
10
-0.324519052838298
20
-11.9878176024193
30
0
0
SPLINE
5
27F
100
AcDbEntity
8
SK1
62
256
6
ByLayer
370
18
48
1
60
0
100
AcDbSpline
70
4
71
3
72
8
73
4
40
0
40
0
40
0
40
0
40
1
40
1
40
1
40
1
41
1
10
-0.249519052838309
20
-13.7035643018125
30
0
41
1
10
-0.167216153527647
20
-13.8641387078905
30
0
41
1
10
-0.084028113643285
20
-14.0241122346499
30
0
41
1
10
0
20
-14.183490812332
30
0
0
SPLINE
5
280
100
AcDbEntity
8
SK1
62
256
6
ByLayer
370
18
48
1
60
0
100
AcDbSpline
70
4
71
3
72
12
73
8
40
0
40
0
40
0
40
0
40
0.207075834100263
40
0.207075834100263
40
0.708229549301107
40
0.708229549301107
40
1
40
1
40
1
40
1
41
1
10
-0.324519052838355
20
-13.4709974273838
30
0
41
1
10
-0.324519052838355
20
-13.4846877875261
30
0
41
1
10
-0.322667374764023
20
-13.4997089702635
30
0
41
1
10
-0.312583935629277
20
-13.5522956205774
30
0
41
1
10
-0.299059581917277
20
-13.5926742226265
30
0
41
1
10
-0.272620137218382
20
-13.6562878775004
30
0
41
1
10
-0.261597688746065
20
-13.6799986704269
30
0
41
1
10
-0.249519052838309
20
-13.7035643018125
30
0
0
SPLINE
5
281
100
AcDbEntity
8
SK1
62
256
6
ByLayer
370
18
48
1
60
0
100
AcDbSpline
70
4
71
3
72
24
73
20
40
0
40
0
40
0
40
0
40
0.424089298284407
40
0.424089298284407
40
0.622558724306947
40
0.622558724306947
40
0.722128563127923
40
0.722128563127923
40
0.767628091597538
40
0.767628091597538
40
0.813936815511695
40
0.813936815511695
40
0.853787309445659
40
0.853787309445659
40
0.904791937055261
40
0.904791937055261
40
0.996188634338764
40
0.996188634338764
40
1
40
1
40
1
40
1
41
1
10
-0.324519052838355
20
-5.77516103418458
30
0
41
1
10
-0.324519052838355
20
-5.73688422441373
30
0
41
1
10
-0.323304944809365
20
-5.69869044441657
30
0
41
1
10
-0.316328858886323
20
-5.64521148228275
30
0
41
1
10
-0.313343288261592
20
-5.62830496725681
30
0
41
1
10
-0.305723418620062
20
-5.60553689097105
30
0
41
1
10
-0.302592753971112
20
-5.59823106037948
30
0
41
1
10
-0.296399136822686
20
-5.5898396880435
30
0
41
1
10
-0.294172166255862
20
-5.58751276131932
30
0
41
1
10
-0.289124689448329
20
-5.58415448415258
30
0
41
1
10
-0.286207903687
20
-5.58313529386541
30
0
41
1
10
-0.280554746885912
20
-5.58304738913523
30
0
41
1
10
-0.277785698520063
20
-5.58372544249127
30
0
41
1
10
-0.271704168751057
20
-5.58653814967758
30
0
41
1
10
-0.268357070443926
20
-5.58902941220916
30
0
41
1
10
-0.259692432662348
20
-5.59711746804356
30
0
41
1
10
-0.254673235966209
20
-5.6036970408222
30
0
41
1
10
-0.24990182695916
20
-5.61087546529569
30
0
41
1
10
-0.249710106358236
20
-5.61116575265041
30
0
41
1
10
-0.249519052838139
20
-5.61145683315218
30
0
0
SPLINE
5
282
100
AcDbEntity
8
SK1
62
256
6
ByLayer
370
18
48
1
60
0
100
AcDbSpline
70
4
71
3
72
10
73
6
40
0
40
0
40
0
40
0
40
0.458287871798076
40
0.458287871798076
40
1
40
1
40
1
40
1
41
1
10
-0.24951905283848
20
-6.93657952761941
30
0
41
1
10
-0.269886278052184
20
-6.8504489495989
30
0
41
1
10
-0.286315375608922
20
-6.76376905356139
30
0
41
1
10
-0.313923495547272
20
-6.57559576210525
30
0
41
1
10
-0.324519052838298
20
-6.47312096234796
30
0
41
1
10
-0.324519052838298
20
-6.37393899896702
30
0
0
SPLINE
5
283
100
AcDbEntity
8
SK1
62
256
6
ByLayer
370
18
48
1
60
0
100
AcDbSpline
70
4
71
3
72
10
73
6
40
0
40
0
40
0
40
0
40
0.453766981772608
40
0.453766981772608
40
1
40
1
40
1
40
1
41
1
10
-0.324519052838298
20
6.3739389989681
30
0
41
1
10
-0.324519052838241
20
6.45708204560233
30
0
41
1
10
-0.316838098730216
20
6.54263233970167
30
0
41
1
10
-0.292546660031974
20
6.73061803274814
30
0
41
1
10
-0.273773914929109
20
6.8340085946752
30
0
41
1
10
-0.249519052838707
20
6.93657952761941
30
0
0
SPLINE
5
284
100
AcDbEntity
8
SK1
62
256
6
ByLayer
370
18
48
1
60
0
100
AcDbSpline
70
4
71
3
72
8
73
4
40
0
40
0
40
0
40
0
40
1
40
1
40
1
40
1
41
1
10
-0.249519052838139
20
-5.61145683315218
30
0
41
1
10
-0.167536471257961
20
-5.73636178632376
30
0
41
1
10
-0.0843116200381928
20
-5.86018989155266
30
0
41
1
10
0
20
-5.98301024765149
30
0
0
SPLINE
5
285
100
AcDbEntity
8
SK1
62
256
6
ByLayer
370
18
48
1
60
0
100
AcDbSpline
70
4
71
3
72
8
73
4
40
0
40
0
40
0
40
0
40
1
40
1
40
1
40
1
41
1
10
0
20
-7.92441869309681
30
0
41
1
10
-0.0880009987361632
20
-7.59681644140633
30
0
41
1
10
-0.171274600487777
20
-7.26746602969013
30
0
41
1
10
-0.249519052838366
20
-6.93657952761941
30
0
0
SPLINE
5
286
100
AcDbEntity
8
SK1
62
256
6
ByLayer
370
18
48
1
60
0
100
AcDbSpline
70
4
71
3
72
22
73
18
40
0
40
0
40
0
40
0
40
0.0788526823300365
40
0.0788526823300365
40
0.125361163935014
40
0.125361163935014
40
0.172660797535013
40
0.172660797535013
40
0.215431389252789
40
0.215431389252789
40
0.262684950352389
40
0.262684950352389
40
0.34262828902269
40
0.34262828902269
40
0.582294792800953
40
0.582294792800953
40
1
40
1
40
1
40
1
41
1
10
-0.249519052838309
20
5.61145683315189
30
0
41
1
10
-0.253444573467505
20
5.60547608747501
30
0
41
1
10
-0.257676705439053
20
5.59975154764004
30
0
41
1
10
-0.265048583127566
20
5.59196229470192
30
0
41
1
10
-0.267973642770869
20
5.58933057241592
30
0
41
1
10
-0.274087992045338
20
5.58522986590765
30
0
41
1
10
-0.277368797084989
20
5.58375560473547
30
0
41
1
10
-0.28341118611894
20
5.58283359495906
30
0
41
1
10
-0.286265461005144
20
5.58321131183837
30
0
41
1
10
-0.291637005916584
20
5.58549628894281
30
0
41
1
10
-0.294180134537726
20
5.58755441503163
30
0
41
1
10
-0.300097757970434
20
5.59423923405072
30
0
41
1
10
-0.303013356175427
20
5.59971367436415
30
0
41
1
10
-0.312613551681238
20
5.62278486789953
30
0
41
1
10
-0.316167451277238
20
5.64342294852727
30
0
41
1
10
-0.323329002603884
20
5.69990202764509
30
0
41
1
10
-0.324519052838355
20
5.73748351264874
30
0
41
1
10
-0.324519052838355
20
5.77516103418458
30
0
0
SPLINE
5
287
100
AcDbEntity
8
SK1
62
256
6
ByLayer
370
18
48
1
60
0
100
AcDbSpline
70
4
71
3
72
8
73
4
40
0
40
0
40
0
40
0
40
1
40
1
40
1
40
1
41
1
10
0
20
5.98301024765149
30
0
41
1
10
-0.0843116200382497
20
5.86018989155258
30
0
41
1
10
-0.167536471258074
20
5.73636178632359
30
0
41
1
10
-0.249519052838309
20
5.61145683315189
30
0
0
SPLINE
5
288
100
AcDbEntity
8
SK1
62
256
6
ByLayer
370
18
48
1
60
0
100
AcDbSpline
70
4
71
3
72
8
73
4
40
0
40
0
40
0
40
0
40
1
40
1
40
1
40
1
41
1
10
-0.249519052838366
20
6.93657952761941
30
0
41
1
10
-0.171274600487777
20
7.26746602969013
30
0
41
1
10
-0.0880009987361632
20
7.59681644140633
30
0
41
1
10
0
20
7.92441869309681
30
0
0
SPLINE
5
289
100
AcDbEntity
8
SK1
62
256
6
ByLayer
370
18
48
1
60
0
100
AcDbSpline
70
4
71
3
72
8
73
4
40
0
40
0
40
0
40
0
40
1
40
1
40
1
40
1
41
1
10
-0.249519052838309
20
18.9963015174965
30
0
41
1
10
-0.166400755928578
20
19.0753914664499
30
0
41
1
10
-0.0832270823895556
20
19.1544038788987
30
0
41
1
10
0
20
19.2333411456125
30
0
0
SPLINE
5
28A
100
AcDbEntity
8
SK1
62
256
6
ByLayer
370
18
48
1
60
0
100
AcDbSpline
70
4
71
3
72
14
73
10
40
0
40
0
40
0
40
0
40
0.355999056271395
40
0.355999056271395
40
0.639681374257257
40
0.639681374257257
40
0.869207749481509
40
0.869207749481509
40
1
40
1
40
1
40
1
41
1
10
-0.249519052838309
20
19.0327379005149
30
0
41
1
10
-0.263285098375093
20
19.0184113442177
30
0
41
1
10
-0.276439405885526
20
19.0045204638154
30
0
41
1
10
-0.297027152419048
20
18.982257432353
30
0
41
1
10
-0.305251814253097
20
18.973146219595
30
0
41
1
10
-0.316648298384507
20
18.9599157773463
30
0
41
1
10
-0.320570999504127
20
18.9550687931004
30
0
41
1
10
-0.323885419782755
20
18.9502233367333
30
0
41
1
10
-0.324519052838355
20
18.9490103678989
30
0
41
1
10
-0.324519052838355
20
18.9484273901026
30
0
0
SPLINE
5
28B
100
AcDbEntity
8
SK1
62
256
6
ByLayer
370
18
48
1
60
0
100
AcDbSpline
70
4
71
3
72
8
73
4
40
0
40
0
40
0
40
0
40
1
40
1
40
1
40
1
41
1
10
0
20
19.2917446495518
30
0
41
1
10
-0.0832682037895438
20
19.2055314891718
30
0
41
1
10
-0.166442432040981
20
19.1191971441407
30
0
41
1
10
-0.249519052838309
20
19.0327379005148
30
0
0
SPLINE
5
28C
100
AcDbEntity
8
SK1
62
256
6
ByLayer
370
18
48
1
60
0
100
AcDbSpline
70
4
71
3
72
16
73
12
40
0
40
0
40
0
40
0
40
0.138589164844765
40
0.138589164844765
40
0.353151117708289
40
0.353151117708289
40
0.570188924981844
40
0.570188924981844
40
0.908955245588724
40
0.908955245588724
40
1
40
1
40
1
40
1
41
1
10
-0.324519052838298
20
18.9324241124939
30
0
41
1
10
-0.324519052838298
20
18.9317485002265
30
0
41
1
10
-0.323868448251631
20
18.9317117116821
30
0
41
1
10
-0.320613892601898
20
18.9332529939864
30
0
41
1
10
-0.317069126971944
20
18.9357707139837
30
0
41
1
10
-0.307689978080077
20
18.9432656349899
30
0
41
1
10
-0.301743632218347
20
18.9483343998493
30
0
41
1
10
-0.284846503919141
20
18.9632610991018
30
0
41
1
10
-0.272697362975691
20
18.9744318897219
30
0
41
1
10
-0.256563772666425
20
18.9896155944076
30
0
41
1
10
-0.253061413711919
20
18.992930837982
30
0
41
1
10
-0.249519052838309
20
18.9963015174965
30
0
0
SPLINE
5
28D
100
AcDbEntity
8
1
62
256
6
ByLayer
370
18
48
1
60
0
100
AcDbSpline
70
4
71
3
72
8
73
4
40
0
40
0
40
0
40
0
40
1
40
1
40
1
40
1
41
1
10
0
20
17.2929584404609
30
0
41
1
10
0.130699965526105
20
17.4766490191934
30
0
41
1
10
0.262224882939222
20
17.6595606391472
30
0
41
1
10
0.394519052838348
20
17.8417232227022
30
0
0
SPLINE
5
28E
100
AcDbEntity
8
1
62
256
6
ByLayer
370
18
48
1
60
0
100
AcDbSpline
70
4
71
3
72
8
73
4
40
0
40
0
40
0
40
0
40
1
40
1
40
1
40
1
41
1
10
0.394519052838348
20
6.54042817881563
30
0
41
1
10
0.260749519017907
20
6.35678893830109
30
0
41
1
10
0.129090328526161
20
6.17106167059075
30
0
41
1
10
0
20
5.98301024765149
30
0
0
SPLINE
5
28F
100
AcDbEntity
8
1
62
256
6
ByLayer
370
18
48
1
60
0
100
AcDbSpline
70
4
71
3
72
22
73
18
40
0
40
0
40
0
40
0
40
0.177046863802299
40
0.177046863802299
40
0.339785601587425
40
0.339785601587425
40
0.464789882287148
40
0.464789882287148
40
0.567728853211896
40
0.567728853211896
40
0.671116014394673
40
0.671116014394673
40
0.768486526167254
40
0.768486526167254
40
0.904659881725471
40
0.904659881725471
40
1
40
1
40
1
40
1
41
1
10
0.394519052838348
20
-19.3300829388625
30
0
41
1
10
0.409331245977853
20
-19.3469173506575
30
0
41
1
10
0.423368378987675
20
-19.3634612494104
30
0
41
1
10
0.447107111318644
20
-19.3929127672445
30
0
41
1
10
0.457281743359772
20
-19.4062807908651
30
0
41
1
10
0.470882735698865
20
-19.4261852181126
30
0
41
1
10
0.475421862894621
20
-19.4337480221303
30
0
41
1
10
0.479653041878748
20
-19.4436941468404
30
0
41
1
10
0.480069149181872
20
-19.44682726692
30
0
41
1
10
0.477360505935167
20
-19.4494024757353
30
0
41
1
10
0.474169167849709
20
-19.4488464948495
30
0
41
1
10
0.465050504610872
20
-19.4443774895405
30
0
41
1
10
0.459205730241877
20
-19.4406314882161
30
0
41
1
10
0.443223437086544
20
-19.4290485787784
30
0
41
1
10
0.43207758480952
20
-19.4200346885374
30
0
41
1
10
0.412055386305269
20
-19.402877439484
30
0
41
1
10
0.403367264987992
20
-19.395171636002
30
0
41
1
10
0.394519052838348
20
-19.3871212716832
30
0
0
SPLINE
5
290
100
AcDbEntity
8
1
62
256
6
ByLayer
370
18
48
1
60
0
100
AcDbSpline
70
4
71
3
72
8
73
4
40
0
40
0
40
0
40
0
40
1
40
1
40
1
40
1
41
1
10
0
20
18.6995029779807
30
0
41
1
10
0.131442149365455
20
18.8155542730744
30
0
41
1
10
0.262949664135363
20
18.9315069156534
30
0
41
1
10
0.394519052838348
20
19.0473658062967
30
0
0
SPLINE
5
291
100
AcDbEntity
8
1
62
256
6
ByLayer
370
18
48
1
60
0
100
AcDbSpline
70
4
71
3
72
8
73
4
40
0
40
0
40
0
40
0
40
1
40
1
40
1
40
1
41
1
10
0.394519052838348
20
-19.0473658062967
30
0
41
1
10
0.262949664135363
20
-18.9315069156534
30
0
41
1
10
0.131442149365455
20
-18.8155542730744
30
0
41
1
10
0
20
-18.6995029779807
30
0
0
SPLINE
5
292
100
AcDbEntity
8
1
62
256
6
ByLayer
370
18
48
1
60
0
100
AcDbSpline
70
4
71
3
72
22
73
18
40
0
40
0
40
0
40
0
40
0.250830949170515
40
0.250830949170515
40
0.411505149528392
40
0.411505149528392
40
0.536121452884376
40
0.536121452884376
40
0.634154044181621
40
0.634154044181621
40
0.732820286633446
40
0.732820286633446
40
0.82309076521846
40
0.82309076521846
40
0.947598242104584
40
0.947598242104584
40
1
40
1
40
1
40
1
41
1
10
0.394519052838348
20
-18.4734609781557
30
0
41
1
10
0.414738162646927
20
-18.4994017698671
30
0
41
1
10
0.43333159644294
20
-18.52528555443
30
0
41
1
10
0.457807108166378
20
-18.5641222184036
30
0
41
1
10
0.46602463541285
20
-18.5786895230123
30
0
41
1
10
0.476024789853284
20
-18.600944490907
30
0
41
1
10
0.47889510766322
20
-18.6096233832455
30
0
41
1
10
0.47984731595858
20
-18.6211724782913
30
0
41
1
10
0.478790713991145
20
-18.6249650116646
30
0
41
1
10
0.473292879516976
20
-18.6287781917905
30
0
41
1
10
0.46873131865442
20
-18.6287993732487
30
0
41
1
10
0.457358376927573
20
-18.6252184215572
30
0
41
1
10
0.450654402228736
20
-18.6219045573573
30
0
41
1
10
0.433216512451281
20
-18.6113288080064
30
0
41
1
10
0.421664654675567
20
-18.602926673434
30
0
41
1
10
0.404798124878539
20
-18.5894089814272
30
0
41
1
10
0.399678166532226
20
-18.5851545024189
30
0
41
1
10
0.394519052838348
20
-18.5807377979135
30
0
0
SPLINE
5
293
100
AcDbEntity
8
1
62
256
6
ByLayer
370
18
48
1
60
0
100
AcDbSpline
70
4
71
3
72
8
73
4
40
0
40
0
40
0
40
0
40
1
40
1
40
1
40
1
41
1
10
0.394519052838348
20
11.6669928763095
30
0
41
1
10
0.258588067896994
20
11.3303132235976
30
0
41
1
10
0.126948364210193
20
10.9912722816142
30
0
41
1
10
0
20
10.6499489023893
30
0
0
SPLINE
5
294
100
AcDbEntity
8
1
62
256
6
ByLayer
370
18
48
1
60
0
100
AcDbSpline
70
4
71
3
72
24
73
20
40
0
40
0
40
0
40
0
40
0.0206814796712019
40
0.0206814796712019
40
0.060639155038891
40
0.060639155038891
40
0.0893222048717754
40
0.0893222048717754
40
0.118017103170584
40
0.118017103170584
40
0.15647912272681
40
0.15647912272681
40
0.222021395187484
40
0.222021395187484
40
0.401019201280547
40
0.401019201280547
40
0.918716421495011
40
0.918716421495011
40
1
40
1
40
1
40
1
41
1
10
0.394519052837552
20
-9.81506636790374
30
0
41
1
10
0.397788902186335
20
-9.81834610488843
30
0
41
1
10
0.401139160925879
20
-9.82145358129438
30
0
41
1
10
0.411089969599402
20
-9.8297536399208
30
0
41
1
10
0.418014750846282
20
-9.83434319884591
30
0
41
1
10
0.429647671215207
20
-9.83901971878083
30
0
41
1
10
0.43453323778499
20
-9.84001725554987
30
0
41
1
10
0.443490117321062
20
-9.83966535520489
30
0
41
1
10
0.447663603620299
20
-9.83831464635202
30
0
41
1
10
0.456101720757374
20
-9.8330467567948
30
0
41
1
10
0.460081021916324
20
-9.82839135878339
30
0
41
1
10
0.468714693699383
20
-9.81376777249793
30
0
41
1
10
0.472186794929826
20
-9.80218950379606
30
0
41
1
10
0.481026918803877
20
-9.7570762460812
30
0
41
1
10
0.480410045298015
20
-9.71873506475089
30
0
41
1
10
0.469945227251742
20
-9.5704909544971
30
0
41
1
10
0.44377916737119
20
-9.45291404460875
30
0
41
1
10
0.405645123323211
20
-9.31960024887525
30
0
41
1
10
0.40019855247175
20
-9.30136888037913
30
0
41
1
10
0.394519052838348
20
-9.2831594740112
30
0
0
SPLINE
5
295
100
AcDbEntity
8
1
62
256
6
ByLayer
370
18
48
1
60
0
100
AcDbSpline
70
4
71
3
72
14
73
10
40
0
40
0
40
0
40
0
40
0.25
40
0.25
40
0.5
40
0.5
40
0.75
40
0.75
40
1
40
1
40
1
40
1
41
1
10
7.05000000000001
20
-12.5624192329391
30
0
41
1
10
7.05000000000001
20
-11.7684569227201
30
0
41
1
10
7.15330674285639
20
-10.8640688852261
30
0
41
1
10
7.62274389025453
20
-9.10470704554768
30
0
41
1
10
7.9869105365558
20
-8.25457303501756
30
0
41
1
10
8.82677953777591
20
-6.81126502556481
30
0
41
1
10
9.30736057195941
20
-6.19981503697832
30
0
41
1
10
10.2058671621242
20
-5.24196547892797
30
0
41
1
10
10.6440170849261
20
-4.87973071298839
30
0
41
1
10
10.8364529321229
20
-4.72712518387647
30
0
0
SPLINE
5
296
100
AcDbEntity
8
1
62
256
6
ByLayer
370
18
48
1
60
0
100
AcDbSpline
70
4
71
3
72
22
73
18
40
0
40
0
40
0
40
0
40
0.0471232248448095
40
0.0471232248448095
40
0.118688197409529
40
0.118688197409529
40
0.182340029144355
40
0.182340029144355
40
0.235528426097598
40
0.235528426097598
40
0.320057816483313
40
0.320057816483313
40
0.465386769474096
40
0.465386769474096
40
0.748705845028908
40
0.748705845028908
40
1
40
1
40
1
40
1
41
1
10
0.394519052838291
20
-13.7823140979472
30
0
41
1
10
0.400407167681578
20
-13.7872599661384
30
0
41
1
10
0.406391850659986
20
-13.7918036947548
30
0
41
1
10
0.421280054991882
20
-13.8015362124945
30
0
41
1
10
0.430371890702929
20
-13.8059726476854
30
0
41
1
10
0.445778441100117
20
-13.8096409083464
30
0
41
1
10
0.452481159616582
20
-13.8093906335411
30
0
41
1
10
0.462432247517938
20
-13.8053966968009
30
0
41
1
10
0.46620443781444
20
-13.8022241564396
30
0
41
1
10
0.473825595583094
20
-13.7917465261291
30
0
41
1
10
0.476618388536622
20
-13.7830064976051
30
0
41
1
10
0.480642285008742
20
-13.7568077391086
30
0
41
1
10
0.47958099165453
20
-13.7371432335263
30
0
41
1
10
0.471191212693611
20
-13.6774277437951
30
0
41
1
10
0.458835614317991
20
-13.6341495105906
30
0
41
1
10
0.429714893864059
20
-13.5524690078392
30
0
41
1
10
0.413193123000553
20
-13.5132831345898
30
0
41
1
10
0.394519052838348
20
-13.4744348947103
30
0
0
SPLINE
5
297
100
AcDbEntity
8
1
62
256
6
ByLayer
370
18
48
1
60
0
100
AcDbSpline
70
4
71
3
72
8
73
4
40
0
40
0
40
0
40
0
40
1
40
1
40
1
40
1
41
1
10
0
20
-14.183490812332
30
0
41
1
10
0.129552204007268
20
-14.429216262006
30
0
41
1
10
0.261110073250791
20
-14.6735448954387
30
0
41
1
10
0.394519052838348
20
-14.9165032325849
30
0
0
SPLINE
5
298
100
AcDbEntity
8
1
62
256
6
ByLayer
370
18
48
1
60
0
100
AcDbSpline
70
4
71
3
72
22
73
18
40
0
40
0
40
0
40
0
40
0.298593307447982
40
0.298593307447982
40
0.462735623738939
40
0.462735623738939
40
0.592204838766916
40
0.592204838766916
40
0.684075547449834
40
0.684075547449834
40
0.776986361477077
40
0.776986361477077
40
0.857203551014602
40
0.857203551014602
40
0.961508579490125
40
0.961508579490125
40
1
40
1
40
1
40
1
41
1
10
0.394519052838348
20
-17.0553632209806
30
0
41
1
10
0.417819257793155
20
-17.0901088221294
30
0
41
1
10
0.438603311694237
20
-17.1252308095205
30
0
41
1
10
0.462833378395601
20
-17.1756735226357
30
0
41
1
10
0.470002617830858
20
-17.1931471441358
30
0
41
1
10
0.478087692262477
20
-17.2210049929737
30
0
41
1
10
0.480049310400091
20
-17.2323427018046
30
0
41
1
10
0.478926773598005
20
-17.2475439594782
30
0
41
1
10
0.477087543634525
20
-17.2527158689441
30
0
41
1
10
0.470114191054904
20
-17.2592036937399
30
0
41
1
10
0.464796909439656
20
-17.2605168495842
30
0
41
1
10
0.45232053628348
20
-17.2587932176782
30
0
41
1
10
0.445374015727566
20
-17.2563231111406
30
0
41
1
10
0.428262283606557
20
-17.2477403064932
30
0
41
1
10
0.417511774743048
20
-17.2406771465822
30
0
41
1
10
0.402663070008543
20
-17.2294442684035
30
0
41
1
10
0.398595122327038
20
-17.2262221573766
30
0
41
1
10
0.394519052838348
20
-17.2228674449602
30
0
0
SPLINE
5
299
100
AcDbEntity
8
1
62
256
6
ByLayer
370
18
48
1
60
0
100
AcDbSpline
70
4
71
3
72
22
73
18
40
0
40
0
40
0
40
0
40
0.0337157658979948
40
0.0337157658979948
40
0.0895571965563883
40
0.0895571965563883
40
0.131382151056423
40
0.131382151056423
40
0.173081606047455
40
0.173081606047455
40
0.233882823235893
40
0.233882823235893
40
0.338231472110876
40
0.338231472110876
40
0.556836638032941
40
0.556836638032941
40
1
40
1
40
1
40
1
41
1
10
0.394519052838063
20
12.0579374210689
30
0
41
1
10
0.399159153459607
20
12.0620591091435
30
0
41
1
10
0.403896393022649
20
12.0658882990638
30
0
41
1
10
0.416487515652307
20
12.0747824143545
30
0
41
1
10
0.424591679375794
20
12.0791437820513
30
0
41
1
10
0.437818679001737
20
12.0829511416515
30
0
41
1
10
0.443302652855209
20
12.0833616754479
30
0
41
1
10
0.452924429320603
20
12.0815591477233
30
0
41
1
10
0.45718112883651
20
12.0793501604687
30
0
41
1
10
0.465858772920967
20
12.0716550155934
30
0
41
1
10
0.469659783947009
20
12.065077408085
30
0
41
1
10
0.477093743329135
20
12.04488796069
30
0
41
1
10
0.478986055612836
20
12.0293117881433
30
0
41
1
10
0.4803324278368
20
11.9792302979602
30
0
41
1
10
0.475158806429306
20
11.9413497748634
30
0
41
1
10
0.452292118100502
20
11.82665112485
30
0
41
1
10
0.426402413987887
20
11.7459629430954
30
0
41
1
10
0.394519052838348
20
11.6669928763095
30
0
0
SPLINE
5
29A
100
AcDbEntity
8
1
62
256
6
ByLayer
370
18
48
1
60
0
100
AcDbSpline
70
4
71
3
72
8
73
4
40
0
40
0
40
0
40
0
40
1
40
1
40
1
40
1
41
1
10
0
20
13.4507030159582
30
0
41
1
10
0.131474683017757
20
13.5612902597836
30
0
41
1
10
0.262981795084329
20
13.6718261138648
30
0
41
1
10
0.394519052838348
20
13.7823140979466
30
0
0
SPLINE
5
29B
100
AcDbEntity
8
1
62
256
6
ByLayer
370
18
48
1
60
0
100
AcDbSpline
70
4
71
3
72
24
73
20
40
0
40
0
40
0
40
0
40
0.0250442808951415
40
0.0250442808951415
40
0.0399195930484191
40
0.0399195930484191
40
0.0550313497143133
40
0.0550313497143133
40
0.06842188457357
40
0.06842188457357
40
0.0857391044955679
40
0.0857391044955679
40
0.116388289898881
40
0.116388289898881
40
0.211496237101455
40
0.211496237101455
40
0.598030581941093
40
0.598030581941093
40
1
40
1
40
1
40
1
41
1
10
0.394519052838348
20
6.54042817881563
30
0
41
1
10
0.399505461949673
20
6.54727353706687
30
0
41
1
10
0.404895524512483
20
6.55374519598507
30
0
41
1
10
0.414193606725348
20
6.56217738021027
30
0
41
1
10
0.417888309530667
20
6.56493359876706
30
0
41
1
10
0.425448229340134
20
6.56885212230554
30
0
41
1
10
0.429419171897848
20
6.57000172842129
30
0
41
1
10
0.436451713900055
20
6.5700212060662
30
0
41
1
10
0.439645623787499
20
6.56913735653012
30
0
41
1
10
0.446157009131241
20
6.56553121100023
30
0
41
1
10
0.449360169846955
20
6.56234008663751
30
0
41
1
10
0.456893205758035
20
6.55206299904992
30
0
41
1
10
0.460452985085681
20
6.54375674917793
30
0
41
1
10
0.472126002605819
20
6.50826344331753
30
0
41
1
10
0.475418602396587
20
6.47687625746329
30
0
41
1
10
0.485649762176763
20
6.31959026509273
30
0
41
1
10
0.472655917686268
20
6.18443356340023
30
0
41
1
10
0.441650692828489
20
5.91253216457753
30
0
41
1
10
0.420147603797659
20
5.77276067237489
30
0
41
1
10
0.394519052838348
20
5.63341609185699
30
0
0
SPLINE
5
29C
100
AcDbEntity
8
1
62
256
6
ByLayer
370
18
48
1
60
0
100
AcDbSpline
70
4
71
3
72
22
73
18
40
0
40
0
40
0
40
0
40
0.112743153703416
40
0.112743153703416
40
0.220933604839911
40
0.220933604839911
40
0.33042942017002
40
0.33042942017002
40
0.423101895843835
40
0.423101895843835
40
0.516495184006304
40
0.516495184006304
40
0.665293629184779
40
0.665293629184779
40
0.885224417901865
40
0.885224417901865
40
1
40
1
40
1
40
1
41
1
10
0.394519052838348
20
18.5807377979135
30
0
41
1
10
0.405514487004666
20
18.5901509619767
30
0
41
1
10
0.416402259009317
20
18.5988837222421
30
0
41
1
10
0.436302497797385
20
18.613281065575
30
0
41
1
10
0.445564351459439
20
18.6191723716152
30
0
41
1
10
0.461262506565163
20
18.6269269774811
30
0
41
1
10
0.467863536210302
20
18.6288026115681
30
0
41
1
10
0.476033119821011
20
18.6277421406834
30
0
41
1
10
0.4783294007417
20
18.6254984429264
30
0
41
1
10
0.479981782553978
20
18.6181802845428
30
0
41
1
10
0.479360185603127
20
18.6130285167464
30
0
41
1
10
0.474860347416666
20
18.5973731611258
30
0
41
1
10
0.469266341166929
20
18.5852898254461
30
0
41
1
10
0.451508277186747
20
18.5530934238188
30
0
41
1
10
0.437212763656362
20
18.5313010517431
30
0
41
1
10
0.412835002378813
20
18.4973963792338
30
0
41
1
10
0.403874489399584
20
18.4854638523427
30
0
41
1
10
0.394519052838348
20
18.4734609781557
30
0
0
SPLINE
5
29D
100
AcDbEntity
8
1
62
256
6
ByLayer
370
18
48
1
60
0
100
AcDbSpline
70
4
71
3
72
22
73
18
40
0
40
0
40
0
40
0
40
0.139273079158225
40
0.139273079158225
40
0.261287971738222
40
0.261287971738222
40
0.363858050479969
40
0.363858050479969
40
0.466840339891799
40
0.466840339891799
40
0.564253893919196
40
0.564253893919196
40
0.701690636561555
40
0.701690636561555
40
0.894853791629446
40
0.894853791629446
40
1
40
1
40
1
40
1
41
1
10
0.394519052838348
20
19.3871212716833
30
0
41
1
10
0.407363047639592
20
19.3988071168811
30
0
41
1
10
0.419929720556468
20
19.4098197563293
30
0
41
1
10
0.441367878211679
20
19.4275105142844
30
0
41
1
10
0.450697735201231
20
19.4347029898279
30
0
41
1
10
0.46473160673753
20
19.4441918276314
30
0
41
1
10
0.47005759339811
20
19.447154148238
30
0
41
1
10
0.47729753599134
20
19.4494008014994
30
0
41
1
10
0.479279495237449
20
19.4486851571399
30
0
41
1
10
0.479704890124822
20
19.4439448252148
30
0
41
1
10
0.478361249573197
20
19.4400681345554
30
0
41
1
10
0.472196943219899
20
19.4281443709211
30
0
41
1
10
0.466128280601424
20
19.4188906871803
30
0
41
1
10
0.448202808551969
20
19.394149728488
30
0
41
1
10
0.43473193140062
20
19.3772441151598
30
0
41
1
10
0.411919582053429
20
19.3500697597065
30
0
41
1
10
0.403369861240776
20
19.3401420943138
30
0
41
1
10
0.394519052838348
20
19.3300829388625
30
0
0
SPLINE
5
29E
100
AcDbEntity
8
1
62
256
6
ByLayer
370
18
48
1
60
0
100
AcDbSpline
70
4
71
3
72
8
73
4
40
0
40
0
40
0
40
0
40
1
40
1
40
1
40
1
41
1
10
10.5250664246818
20
19.8768977506726
30
0
41
1
10
10.6817069064859
20
19.8964165815116
30
0
41
1
10
10.8387876615887
20
19.9135799179935
30
0
41
1
10
10.9962413741882
20
19.9284127757936
30
0
0
SPLINE
5
29F
100
AcDbEntity
8
1
62
256
6
ByLayer
370
18
48
1
60
0
100
AcDbSpline
70
4
71
3
72
8
73
4
40
0
40
0
40
0
40
0
40
1
40
1
40
1
40
1
41
1
10
0.394519052838348
20
-16.2962828885179
30
0
41
1
10
0.263012503329605
20
-16.1888841255729
30
0
41
1
10
0.131506148378492
20
-16.0814850449874
30
0
41
1
10
0
20
-15.9740856271496
30
0
0
SPLINE
5
2A0
100
AcDbEntity
8
1
62
256
6
ByLayer
370
18
48
1
60
0
100
AcDbSpline
70
4
71
3
72
16
73
12
40
0
40
0
40
0
40
0
40
0.17500279852378
40
0.17500279852378
40
0.397052729897623
40
0.397052729897623
40
0.620976044409573
40
0.620976044409573
40
0.847432656726745
40
0.847432656726745
40
1
40
1
40
1
40
1
41
1
10
7.41409803454519
20
15.0720852321464
30
0
41
1
10
7.37051614262151
20
15.0726254777526
30
0
41
1
10
7.32698627087507
20
15.074185963776
30
0
41
1
10
7.23349084616495
20
15.0796502948945
30
0
41
1
10
7.18368333545601
20
15.0841544926874
30
0
41
1
10
7.09662742133844
20
15.0946214980394
30
0
41
1
10
7.05828903038883
20
15.1007188801263
30
0
41
1
10
6.99812516961231
20
15.1128103033916
30
0
41
1
10
6.97565656567679
20
15.1189516199973
30
0
41
1
10
6.95414643178015
20
15.1279863295895
30
0
41
1
10
6.94970000000001
20
15.1313542378658
30
0
41
1
10
6.94970000000001
20
15.1342732314033
30
0
0
SPLINE
5
2A1
100
AcDbEntity
8
1
62
256
6
ByLayer
370
18
48
1
60
0
100
AcDbSpline
70
4
71
3
72
22
73
18
40
0
40
0
40
0
40
0
40
0.0996041652177437
40
0.0996041652177437
40
0.200050253881807
40
0.200050253881807
40
0.301641903561436
40
0.301641903561436
40
0.388254126640266
40
0.388254126640266
40
0.499064291977289
40
0.499064291977289
40
0.657711407770563
40
0.657711407770563
40
0.900395273321805
40
0.900395273321805
40
1
40
1
40
1
40
1
41
1
10
0.394519052838348
20
-17.9773604867551
30
0
41
1
10
0.404574517641151
20
-17.985773469541
30
0
41
1
10
0.414587183424601
20
-17.9935270804831
30
0
41
1
10
0.433572133191035
20
-18.0065456262929
30
0
41
1
10
0.442724222439324
20
-18.0118940077932
30
0
41
1
10
0.458484339438087
20
-18.0185873689749
30
0
41
1
10
0.465263593562611
20
-18.0199320669127
30
0
41
1
10
0.474147157968048
20
-18.0181023204343
30
0
41
1
10
0.476914644909471
20
-18.0155588868226
30
0
41
1
10
0.480118939042313
20
-18.0068082245972
30
0
41
1
10
0.479790988954278
20
-17.9996908451538
30
0
41
1
10
0.47527746461418
20
-17.9796400456632
30
0
41
1
10
0.469508402294366
20
-17.9652265505077
30
0
41
1
10
0.450673235891429
20
-17.9267146878739
30
0
41
1
10
0.435057243428787
20
-17.9007529760249
30
0
41
1
10
0.410195955996528
20
-17.8637110758808
30
0
41
1
10
0.402514441865435
20
-17.8527324812569
30
0
41
1
10
0.394519052838348
20
-17.8417232227022
30
0
0
SPLINE
5
2A2
100
AcDbEntity
8
1
62
256
6
ByLayer
370
18
48
1
60
0
100
AcDbSpline
70
4
71
3
72
8
73
4
40
0
40
0
40
0
40
0
40
1
40
1
40
1
40
1
41
1
10
10.9962413741873
20
19.928412775799
30
0
41
1
10
10.960823594942
20
19.9747497217027
30
0
41
1
10
10.9305722819433
20
19.9987240262394
30
0
41
1
10
10.903937081372
20
20.0003049892588
30
0
0
SPLINE
5
2A3
100
AcDbEntity
8
1
62
256
6
ByLayer
370
18
48
1
60
0
100
AcDbSpline
70
4
71
3
72
10
73
6
40
0
40
0
40
0
40
0
40
0.5
40
0.5
40
1
40
1
40
1
40
1
41
1
10
12.543872277941
20
4.72712518387647
30
0
41
1
10
12.3692428579979
20
4.93001238392563
30
0
41
1
10
12.0116882964995
20
5.54830835401552
30
0
41
1
10
10.8132078254441
20
7.04838462881216
30
0
41
1
10
9.97942198500942
20
7.88751568560912
30
0
41
1
10
9.00209734592175
20
8.56294289598645
30
0
0
SPLINE
5
2A4
100
AcDbEntity
8
1
62
256
6
ByLayer
370
18
48
1
60
0
100
AcDbSpline
70
4
71
3
72
8
73
4
40
0
40
0
40
0
40
0
40
1
40
1
40
1
40
1
41
1
10
0
20
-11.7066823491331
30
0
41
1
10
0.131389411454336
20
-11.8239422884521
30
0
41
1
10
0.262899137267425
20
-11.9410226641193
30
0
41
1
10
0.394519052838348
20
-12.0579374210678
30
0
0
SPLINE
5
2A5
100
AcDbEntity
8
1
62
256
6
ByLayer
370
18
48
1
60
0
100
AcDbSpline
70
4
71
3
72
22
73
18
40
0
40
0
40
0
40
0
40
0.501235002900922
40
0.501235002900922
40
0.668373453468292
40
0.668373453468292
40
0.751654768930234
40
0.751654768930234
40
0.816886110775964
40
0.816886110775964
40
0.862354280161671
40
0.862354280161671
40
0.90821146766486
40
0.90821146766486
40
0.949653990908342
40
0.949653990908342
40
1
40
1
40
1
40
1
41
1
10
0.394519052838405
20
-11.6669928763095
30
0
41
1
10
0.430485011563064
20
-11.7560748946447
30
0
41
1
10
0.459338676881259
20
-11.8478602199238
30
0
41
1
10
0.477512245649734
20
-11.961781484621
30
0
41
1
10
0.480327923441791
20
-11.9902159553866
30
0
41
1
10
0.478823646083413
20
-12.0289646954827
30
0
41
1
10
0.477335117562745
20
-12.0413556985825
30
0
41
1
10
0.471732949547629
20
-12.0606243055754
30
0
41
1
10
0.468186772812714
20
-12.0682557768709
30
0
41
1
10
0.459626739781015
20
-12.0776854897472
30
0
41
1
10
0.455278904740112
20
-12.0805859869911
30
0
41
1
10
0.445168243405988
20
-12.0833641651172
30
0
41
1
10
0.439248061840544
20
-12.0832187465306
30
0
41
1
10
0.427458339062355
20
-12.0800804640852
30
0
41
1
10
0.421515269728161
20
-12.0773578542827
30
0
41
1
10
0.408545175144752
20
-12.0695577176297
30
0
41
1
10
0.401407447366466
20
-12.0640562137235
30
0
41
1
10
0.394519052837495
20
-12.0579374210723
30
0
0
SPLINE
5
2A6
100
AcDbEntity
8
1
62
256
6
ByLayer
370
18
48
1
60
0
100
AcDbSpline
70
4
71
3
72
8
73
4
40
0
40
0
40
0
40
0
40
1
40
1
40
1
40
1
41
1
10
0.394519052838348
20
19.3871212716832
30
0
41
1
10
0.262920172668998
20
19.2673887300816
30
0
41
1
10
0.131412099455645
20
19.1475229800286
30
0
41
1
10
0
20
19.0275172217373
30
0
0
SPLINE
5
2A7
100
AcDbEntity
8
1
62
256
6
ByLayer
370
18
48
1
60
0
100
AcDbSpline
70
4
71
3
72
8
73
4
40
0
40
0
40
0
40
0
40
1
40
1
40
1
40
1
41
1
10
0
20
7.92441869309681
30
0
41
1
10
0.122557944122832
20
8.38066645202935
30
0
41
1
10
0.254341402230239
20
8.83372695911299
30
0
41
1
10
0.394519052838348
20
9.2831594740112
30
0
0
SPLINE
5
2A8
100
AcDbEntity
8
1
62
256
6
ByLayer
370
18
48
1
60
0
100
AcDbSpline
70
4
71
3
72
8
73
4
40
0
40
0
40
0
40
0
40
1
40
1
40
1
40
1
41
1
10
0
20
-18.2427084508718
30
0
41
1
10
0.131466595340044
20
-18.355446739373
30
0
41
1
10
0.26297366738919
20
-18.4681221179633
30
0
41
1
10
0.394519052838348
20
-18.5807377979135
30
0
0
SPLINE
5
2A9
100
AcDbEntity
8
1
62
256
6
ByLayer
370
18
48
1
60
0
100
AcDbSpline
70
4
71
3
72
8
73
4
40
0
40
0
40
0
40
0
40
1
40
1
40
1
40
1
41
1
10
0.394519052838348
20
5.63341609185699
30
0
41
1
10
0.219335928577038
20
4.68093075615511
30
0
41
1
10
0.0872579573580197
20
3.72639634083336
30
0
41
1
10
0
20
2.76973132695244
30
0
0
SPLINE
5
2AA
100
AcDbEntity
8
1
62
256
6
ByLayer
370
18
48
1
60
0
100
AcDbSpline
70
4
71
3
72
8
73
4
40
0
40
0
40
0
40
0
40
1
40
1
40
1
40
1
41
1
10
0
20
-17.9630568563235
30
0
41
1
10
0.130882435689898
20
-18.1338318440795
30
0
41
1
10
0.262402589278395
20
-18.3039576866996
30
0
41
1
10
0.394519052838348
20
-18.4734609781557
30
0
0
SPLINE
5
2AB
100
AcDbEntity
8
1
62
256
6
ByLayer
370
18
48
1
60
0
100
AcDbSpline
70
4
71
3
72
8
73
4
40
0
40
0
40
0
40
0
40
1
40
1
40
1
40
1
41
1
10
0.394519052838348
20
12.0579374210678
30
0
41
1
10
0.262899137267425
20
11.9410226641193
30
0
41
1
10
0.131389411454336
20
11.8239422884521
30
0
41
1
10
0
20
11.7066823491331
30
0
0
SPLINE
5
2AC
100
AcDbEntity
8
1
62
256
6
ByLayer
370
18
48
1
60
0
100
AcDbSpline
70
4
71
1
72
4
73
2
40
0
40
0
40
1
40
1
41
1
10
10.5250734618119
20
19.8768864954951
30
0
41
1
10
10.5250664246821
20
19.8768977506724
30
0
0
SPLINE
5
2AD
100
AcDbEntity
8
1
62
256
6
ByLayer
370
18
48
1
60
0
100
AcDbSpline
70
4
71
3
72
8
73
4
40
0
40
0
40
0
40
0
40
1
40
1
40
1
40
1
41
1
10
0.394519052838348
20
-17.8417232227022
30
0
41
1
10
0.262224882939222
20
-17.6595606391472
30
0
41
1
10
0.130699965526105
20
-17.4766490191934
30
0
41
1
10
0
20
-17.2929584404609
30
0
0
SPLINE
5
2AE
100
AcDbEntity
8
1
62
256
6
ByLayer
370
18
48
1
60
0
100
AcDbSpline
70
4
71
3
72
8
73
4
40
0
40
0
40
0
40
0
40
1
40
1
40
1
40
1
41
1
10
0
20
-16.8981185823602
30
0
41
1
10
0.131499494301977
20
-17.0063793087006
30
0
41
1
10
0.263005974523594
20
-17.1146287218545
30
0
41
1
10
0.394519052838348
20
-17.2228674449602
30
0
0
SPLINE
5
2AF
100
AcDbEntity
8
1
62
256
6
ByLayer
370
18
48
1
60
0
100
AcDbSpline
70
4
71
3
72
8
73
4
40
0
40
0
40
0
40
0
40
1
40
1
40
1
40
1
41
1
10
0.394519052838348
20
-19.6066008845752
30
0
41
1
10
0.262884337371077
20
-19.4823620925448
30
0
41
1
10
0.131375561072161
20
-19.3579451495771
30
0
41
1
10
0
20
-19.2333411456125
30
0
0
SPLINE
5
2B0
100
AcDbEntity
8
1
62
256
6
ByLayer
370
18
48
1
60
0
100
AcDbSpline
70
4
71
3
72
8
73
4
40
0
40
0
40
0
40
0
40
1
40
1
40
1
40
1
41
1
10
0
20
9.41654987898988
30
0
41
1
10
0.131088642845327
20
9.54993805463118
30
0
41
1
10
0.262611087046196
20
9.68275952809728
30
0
41
1
10
0.394519052838348
20
9.81506636790178
30
0
0
SPLINE
5
2B1
100
AcDbEntity
8
1
62
256
6
ByLayer
370
18
48
1
60
0
100
AcDbSpline
70
4
71
3
72
8
73
4
40
0
40
0
40
0
40
0
40
1
40
1
40
1
40
1
41
1
10
0.394519052838348
20
18.5807377979135
30
0
41
1
10
0.26297366738919
20
18.4681221179633
30
0
41
1
10
0.131466595340044
20
18.355446739373
30
0
41
1
10
0
20
18.2427084508718
30
0
0
SPLINE
5
2B2
100
AcDbEntity
8
1
62
256
6
ByLayer
370
18
48
1
60
0
100
AcDbSpline
70
4
71
3
72
8
73
4
40
0
40
0
40
0
40
0
40
1
40
1
40
1
40
1
41
1
10
0
20
-16.4596905081325
30
0
41
1
10
0.130450045331941
20
-16.6591749695091
30
0
41
1
10
0.261981773604361
20
-16.8577217216663
30
0
41
1
10
0.394519052838348
20
-17.0553632209806
30
0
0
SPLINE
5
2B3
100
AcDbEntity
8
1
62
256
6
ByLayer
370
18
48
1
60
0
100
AcDbSpline
70
4
71
3
72
8
73
4
40
0
40
0
40
0
40
0
40
1
40
1
40
1
40
1
41
1
10
0.394519052838348
20
19.709823065951
30
0
41
1
10
0.262840810877833
20
19.5804082781262
30
0
41
1
10
0.131331144961166
20
19.4507644040705
30
0
41
1
10
0
20
19.3208801979494
30
0
0
SPLINE
5
2B4
100
AcDbEntity
8
1
62
256
6
ByLayer
370
18
48
1
60
0
100
AcDbSpline
70
4
71
3
72
24
73
20
40
0
40
0
40
0
40
0
40
0.441049643718823
40
0.441049643718823
40
0.632343914748736
40
0.632343914748736
40
0.769808832001611
40
0.769808832001611
40
0.818090964979784
40
0.818090964979784
40
0.86698995541959
40
0.86698995541959
40
0.89772765857256
40
0.89772765857256
40
0.928740778421734
40
0.928740778421734
40
0.956997212577645
40
0.956997212577645
40
1
40
1
40
1
40
1
41
1
10
0.394519052838348
20
9.2831594740112
30
0
41
1
10
0.425186000718327
20
9.38148273346189
30
0
41
1
10
0.449877804870368
20
9.48109133730884
30
0
41
1
10
0.472228838555964
20
9.62029703600737
30
0
41
1
10
0.477296455507144
20
9.66236153034376
30
0
41
1
10
0.480174332888794
20
9.73191582890885
30
0
41
1
10
0.479771577544284
20
9.76065752958735
30
0
41
1
10
0.473665602322342
20
9.79537965426834
30
0
41
1
10
0.471514277092695
20
9.80409728934916
30
0
41
1
10
0.465478517045369
20
9.81985283807853
30
0
41
1
10
0.461502300638529
20
9.82703741281429
30
0
41
1
10
0.452879483904894
20
9.83539476752534
30
0
41
1
10
0.448935727130618
20
9.83783145774802
30
0
41
1
10
0.440089995523351
20
9.84020315633626
30
0
41
1
10
0.435057766449575
20
9.84011532711233
30
0
41
1
10
0.425220710843462
20
9.83754754044816
30
0
41
1
10
0.420332163110857
20
9.83527934363377
30
0
41
1
10
0.408345588138161
20
9.82786894645207
30
0
41
1
10
0.401225928317501
20
9.82179352417538
30
0
41
1
10
0.394519052838348
20
9.81506636790181
30
0
0
SPLINE
5
2B5
100
AcDbEntity
8
1
62
256
6
ByLayer
370
18
48
1
60
0
100
AcDbSpline
70
4
71
3
72
8
73
4
40
0
40
0
40
0
40
0
40
1
40
1
40
1
40
1
41
1
10
0.394519052838348
20
18.4734609781557
30
0
41
1
10
0.262402589278395
20
18.3039576866996
30
0
41
1
10
0.130882435689898
20
18.1338318440795
30
0
41
1
10
0
20
17.9630568563235
30
0
0
SPLINE
5
2B6
100
AcDbEntity
8
1
62
256
6
ByLayer
370
18
48
1
60
0
100
AcDbSpline
70
4
71
3
72
8
73
4
40
0
40
0
40
0
40
0
40
1
40
1
40
1
40
1
41
1
10
0.394519052838348
20
17.2228674449602
30
0
41
1
10
0.263005974523594
20
17.1146287218545
30
0
41
1
10
0.131499494301977
20
17.0063793087006
30
0
41
1
10
0
20
16.8981185823602
30
0
0
SPLINE
5
2B7
100
AcDbEntity
8
1
62
256
6
ByLayer
370
18
48
1
60
0
100
AcDbSpline
70
4
71
3
72
22
73
18
40
0
40
0
40
0
40
0
40
0.125914863926022
40
0.125914863926022
40
0.241248691970726
40
0.241248691970726
40
0.339136667230078
40
0.339136667230078
40
0.43728344773542
40
0.43728344773542
40
0.532289768734845
40
0.532289768734845
40
0.67201109165844
40
0.67201109165844
40
0.872438526760131
40
0.872438526760131
40
1
40
1
40
1
40
1
41
1
10
0.394519052838348
20
-19.0473658062968
30
0
41
1
10
0.406440561815486
20
-19.0578637862487
30
0
41
1
10
0.41817671065462
20
-19.0676767546139
30
0
41
1
10
0.438890333350685
20
-19.0836253565321
30
0
41
1
10
0.448209561161832
20
-19.0901315800006
30
0
41
1
10
0.462527876722618
20
-19.0983984772035
30
0
41
1
10
0.468095557882179
20
-19.1007848293751
30
0
41
1
10
0.47600663014714
20
-19.1019613322526
30
0
41
1
10
0.47843546729581
20
-19.1007488722643
30
0
41
1
10
0.479981356546205
20
-19.0952139687212
30
0
41
1
10
0.479243731136762
20
-19.0909527840037
30
0
41
1
10
0.474491637303629
20
-19.0779423812438
30
0
41
1
10
0.469080937479589
20
-19.0678581601504
30
0
41
1
10
0.452312537864941
20
-19.0408841255414
30
0
41
1
10
0.439150996632861
20
-19.0224743800821
30
0
41
1
10
0.415161913419126
20
-18.9913106765117
30
0
41
1
10
0.405069496979138
20
-18.9787364250437
30
0
41
1
10
0.394519052838348
20
-18.9660336777981
30
0
0
SPLINE
5
2B8
100
AcDbEntity
8
1
62
256
6
ByLayer
370
18
48
1
60
0
100
AcDbSpline
70
4
71
3
72
22
73
18
40
0
40
0
40
0
40
0
40
0.184010252789383
40
0.184010252789383
40
0.304403189274522
40
0.304403189274522
40
0.426279765273877
40
0.426279765273877
40
0.530615898223986
40
0.530615898223986
40
0.630697322546061
40
0.630697322546061
40
0.777320109545986
40
0.777320109545986
40
0.982764200979096
40
0.982764200979096
40
1
40
1
40
1
40
1
41
1
10
0.394519052838348
20
-19.6066008845752
30
0
41
1
10
0.411004222372128
20
-19.6221598314838
30
0
41
1
10
0.427013862249453
20
-19.6368657482568
30
0
41
1
10
0.449722818023304
20
-19.6567069151084
30
0
41
1
10
0.457909411190371
20
-19.6635390081616
30
0
41
1
10
0.470772972269572
20
-19.6733406832029
30
0
41
1
10
0.475553574023593
20
-19.6763577893617
30
0
41
1
10
0.479815730884297
20
-19.6772366312684
30
0
41
1
10
0.480012514961515
20
-19.6757856628008
30
0
41
1
10
0.477116707829225
20
-19.6697777922171
30
0
41
1
10
0.47414911731812
20
-19.665304691312
30
0
41
1
10
0.464129453635906
20
-19.6518397793434
30
0
41
1
10
0.455704813913258
20
-19.6415355966855
30
0
41
1
10
0.432532350801466
20
-19.6144570105825
30
0
41
1
10
0.416220832135139
20
-19.5962759174711
30
0
41
1
10
0.397477828067167
20
-19.5759752803198
30
0
41
1
10
0.396002620615945
20
-19.5743811556222
30
0
41
1
10
0.394519052838348
20
-19.572781595349
30
0
0
SPLINE
5
2B9
100
AcDbEntity
8
1
62
256
6
ByLayer
370
18
48
1
60
0
100
AcDbSpline
70
4
71
3
72
8
73
4
40
0
40
0
40
0
40
0
40
1
40
1
40
1
40
1
41
1
10
0
20
-19.3208801979494
30
0
41
1
10
0.131331144961166
20
-19.4507644040705
30
0
41
1
10
0.262840810877833
20
-19.5804082781262
30
0
41
1
10
0.394519052838348
20
-19.709823065951
30
0
0
SPLINE
5
2BA
100
AcDbEntity
8
1
62
256
6
ByLayer
370
18
48
1
60
0
100
AcDbSpline
70
4
71
3
72
22
73
18
40
0
40
0
40
0
40
0
40
0.231261741936436
40
0.231261741936436
40
0.387572854315167
40
0.387572854315167
40
0.510014755589934
40
0.510014755589934
40
0.609781957017924
40
0.609781957017924
40
0.709992079666927
40
0.709992079666927
40
0.804341995830808
40
0.804341995830808
40
0.937759656599927
40
0.937759656599927
40
1
40
1
40
1
40
1
41
1
10
0.394519052838348
20
18.9660336777981
30
0
41
1
10
0.413466038159925
20
18.9888458705736
30
0
41
1
10
0.431101893789446
20
19.0114422735519
30
0
41
1
10
0.45540125124387
20
19.045802462094
30
0
41
1
10
0.463946728609585
20
19.0589852950518
30
0
41
1
10
0.474773361717041
20
19.078850544037
30
0
41
1
10
0.478078150034946
20
19.086483627844
30
0
41
1
10
0.480008135398975
20
19.0964474122752
30
0
41
1
10
0.479371139006901
20
19.0995673093145
30
0
41
1
10
0.474702610962538
20
19.1021182992224
30
0
41
1
10
0.470579433809519
20
19.1015501921731
30
0
41
1
10
0.459912257852125
20
19.0970674061653
30
0
41
1
10
0.453418125862129
20
19.0933211070116
30
0
41
1
10
0.436077637876224
20
19.0816875797602
30
0
41
1
10
0.424289130634634
20
19.0725870201851
30
0
41
1
10
0.40634984088274
20
19.0576547539129
30
0
41
1
10
0.400467214142452
20
19.052603706821
30
0
41
1
10
0.394519052838348
20
19.0473658062967
30
0
0
SPLINE
5
2BB
100
AcDbEntity
8
1
62
256
6
ByLayer
370
18
48
1
60
0
100
AcDbSpline
70
4
71
3
72
16
73
12
40
0
40
0
40
0
40
0
40
0.222632907680972
40
0.222632907680972
40
0.445554738867859
40
0.445554738867859
40
0.664031364973994
40
0.664031364973994
40
0.877006409829191
40
0.877006409829191
40
1
40
1
40
1
40
1
41
1
10
7.21033894248234
20
19.6788760988411
30
0
41
1
10
7.20484632357864
20
19.704041403856
30
0
41
1
10
7.22315860506211
20
19.7281752462413
30
0
41
1
10
7.30545648872777
20
19.7707859524413
30
0
41
1
10
7.37071462974779
20
19.7898679630338
30
0
41
1
10
7.537689518756
20
19.821063028117
30
0
41
1
10
7.64104601870406
20
19.8337770483967
30
0
41
1
10
7.86900945681055
20
19.8526307978715
30
0
41
1
10
7.99620698879954
20
19.8592202093644
30
0
41
1
10
8.20369999732208
20
19.8651969610322
30
0
41
1
10
8.28241889404757
20
19.8664847356136
30
0
41
1
10
8.3610739468719
20
19.8668565676813
30
0
0
SPLINE
5
2BC
100
AcDbEntity
8
1
62
256
6
ByLayer
370
18
48
1
60
0
100
AcDbSpline
70
4
71
3
72
22
73
18
40
0
40
0
40
0
40
0
40
0.272918947798886
40
0.272918947798886
40
0.436613504599164
40
0.436613504599164
40
0.563364713192678
40
0.563364713192678
40
0.658860736893511
40
0.658860736893511
40
0.755193273423837
40
0.755193273423837
40
0.84077028017187
40
0.84077028017187
40
0.955646424611448
40
0.955646424611448
40
1
40
1
40
1
40
1
41
1
10
0.394519052838348
20
17.8417232227022
30
0
41
1
10
0.416167105631018
20
17.8715315296642
30
0
41
1
10
0.435797771063619
20
17.9014767843063
30
0
41
1
10
0.460279912165561
20
17.9456032830894
30
0
41
1
10
0.468055579288375
20
17.9616348742665
30
0
41
1
10
0.477135545301223
20
17.9865393646436
30
0
41
1
10
0.479553203899059
20
17.9964154852143
30
0
41
1
10
0.479492628091009
20
18.0096877021232
30
0
41
1
10
0.478032100020187
20
18.0141679031282
30
0
41
1
10
0.471754779107357
20
18.0192923569362
30
0
41
1
10
0.466786750797496
20
18.0199356500354
30
0
41
1
10
0.454798119482632
20
18.0172627994538
30
0
41
1
10
0.447940681934483
20
18.0143696542083
30
0
41
1
10
0.430568797077569
20
18.0047986889786
30
0
41
1
10
0.41935487002263
20
17.9970649997703
30
0
41
1
10
0.403531854081905
20
17.9847760746314
30
0
41
1
10
0.399035937741246
20
17.9811395736177
30
0
41
1
10
0.394519052838348
20
17.977360486755
30
0
0
SPLINE
5
2BD
100
AcDbEntity
8
1
62
256
6
ByLayer
370
18
48
1
60
0
100
AcDbSpline
70
4
71
3
72
22
73
18
40
0
40
0
40
0
40
0
40
0.182095767871366
40
0.182095767871366
40
0.321828043962975
40
0.321828043962975
40
0.43599997136831
40
0.43599997136831
40
0.551187153633987
40
0.551187153633987
40
0.652312347806842
40
0.652312347806842
40
0.757226065156082
40
0.757226065156082
40
0.920384581842172
40
0.920384581842172
40
1
40
1
40
1
40
1
41
1
10
0.394519052838348
20
-19.6986154928503
30
0
41
1
10
0.410246546833662
20
-19.7147728768642
30
0
41
1
10
0.425308670586219
20
-19.7303937844346
30
0
41
1
10
0.448465702595456
20
-19.7547462815141
30
0
41
1
10
0.457555747484889
20
-19.7644376083907
30
0
41
1
10
0.470304207122012
20
-19.7783726121963
30
0
41
1
10
0.474749500435053
20
-19.7833986773897
30
0
41
1
10
0.479692192560492
20
-19.7895132096289
30
0
41
1
10
0.48018744230518
20
-19.7906165561015
30
0
41
1
10
0.477089677530046
20
-19.7885804033198
30
0
41
1
10
0.473964383393707
20
-19.7859318225596
30
0
41
1
10
0.465027341085943
20
-19.777864009259
30
0
41
1
10
0.45904136383291
20
-19.7722774705159
30
0
41
1
10
0.44165834967373
20
-19.7557779467977
30
0
41
1
10
0.428841452723645
20
-19.7433883791981
30
0
41
1
10
0.408552990680903
20
-19.7235937664229
30
0
41
1
10
0.401609155518656
20
-19.716791294873
30
0
41
1
10
0.394519052838348
20
-19.709823065951
30
0
0
SPLINE
5
2BE
100
AcDbEntity
8
1
62
256
6
ByLayer
370
18
48
1
60
0
100
AcDbSpline
70
4
71
3
72
8
73
4
40
0
40
0
40
0
40
0
40
1
40
1
40
1
40
1
41
1
10
0
20
17.6471360742617
30
0
41
1
10
0.131485811585435
20
17.7572435888389
30
0
41
1
10
0.262992539514642
20
17.8673178070594
30
0
41
1
10
0.394519052838348
20
17.977360486755
30
0
0
SPLINE
5
2BF
100
AcDbEntity
8
1
62
256
6
ByLayer
370
18
48
1
60
0
100
AcDbSpline
70
4
71
3
72
8
73
4
40
0
40
0
40
0
40
0
40
1
40
1
40
1
40
1
41
1
10
0
20
15.4368523871774
30
0
41
1
10
0.13009302352566
20
15.6562708260424
30
0
41
1
10
0.261634896238718
20
15.87455214455
30
0
41
1
10
0.394519052838348
20
16.0917289824198
30
0
0
SPLINE
5
2C0
100
AcDbEntity
8
1
62
256
6
ByLayer
370
18
48
1
60
0
100
AcDbSpline
70
4
71
3
72
8
73
4
40
0
40
0
40
0
40
0
40
1
40
1
40
1
40
1
41
1
10
0
20
-2.76973132695244
30
0
41
1
10
0.0874358963161512
20
-3.72834719988381
30
0
41
1
10
0.22039347508138
20
-4.68668072517491
30
0
41
1
10
0.394519052838291
20
-5.63341609185701
30
0
0
SPLINE
5
2C1
100
AcDbEntity
8
1
62
256
6
ByLayer
370
18
48
1
60
0
100
AcDbSpline
70
4
71
3
72
8
73
4
40
0
40
0
40
0
40
0
40
1
40
1
40
1
40
1
41
1
10
0.394519052838348
20
-16.0917289824198
30
0
41
1
10
0.261634896238718
20
-15.87455214455
30
0
41
1
10
0.13009302352566
20
-15.6562708260424
30
0
41
1
10
0
20
-15.4368523871774
30
0
0
SPLINE
5
2C2
100
AcDbEntity
8
1
62
256
6
ByLayer
370
18
48
1
60
0
100
AcDbSpline
70
4
71
3
72
22
73
18
40
0
40
0
40
0
40
0
40
0.183384952485297
40
0.183384952485297
40
0.313062586395115
40
0.313062586395115
40
0.422055963045515
40
0.422055963045515
40
0.531723120949567
40
0.531723120949567
40
0.631860855149837
40
0.631860855149837
40
0.765101368508775
40
0.765101368508775
40
0.947838364280214
40
0.947838364280214
40
1
40
1
40
1
40
1
41
1
10
0.394519052838348
20
19.709823065951
30
0
41
1
10
0.410642476707096
20
19.7256693397766
30
0
41
1
10
0.426184355683745
20
19.740830259436
30
0
41
1
10
0.449105466143635
20
19.7628805965953
30
0
41
1
10
0.457726137614543
20
19.7710650909074
30
0
41
1
10
0.470067692238047
20
19.7824751156241
30
0
41
1
10
0.474449750120698
20
19.7863712363068
30
0
41
1
10
0.4794770789008
20
19.7903590554741
30
0
41
1
10
0.480143853138088
20
19.7904568732182
30
0
41
1
10
0.477730472888766
20
19.7869650050071
30
0
41
1
10
0.474960990534385
20
19.7836723519459
30
0
41
1
10
0.465703401157953
20
19.7732661319248
30
0
41
1
10
0.458186048534458
20
19.7651275639964
30
0
41
1
10
0.437615317169104
20
19.7432589917402
30
0
41
1
10
0.423223969747596
20
19.7282293847238
30
0
41
1
10
0.403574813460807
20
19.7079310519509
30
0
41
1
10
0.39908198665961
20
19.7033031483663
30
0
41
1
10
0.394519052838348
20
19.6986154928503
30
0
0
SPLINE
5
2C3
100
AcDbEntity
8
1
62
256
6
ByLayer
370
18
48
1
60
0
100
AcDbSpline
70
4
71
3
72
8
73
4
40
0
40
0
40
0
40
0
40
1
40
1
40
1
40
1
41
1
10
0
20
-5.98301024765149
30
0
41
1
10
0.129090328529003
20
-6.17106167059492
30
0
41
1
10
0.260749519023761
20
-6.35678893830934
30
0
41
1
10
0.394519052847272
20
-6.54042817882785
30
0
0
SPLINE
5
2C4
100
AcDbEntity
8
1
62
256
6
ByLayer
370
18
48
1
60
0
100
AcDbSpline
70
4
71
3
72
16
73
12
40
0
40
0
40
0
40
0
40
0.215699046276316
40
0.215699046276316
40
0.431327514303213
40
0.431327514303213
40
0.647903470773976
40
0.647903470773976
40
0.863716899669505
40
0.863716899669505
40
1
40
1
40
1
40
1
41
1
10
6.94970000000001
20
4.66471664182004
30
0
41
1
10
6.94970000000001
20
4.66900538964825
30
0
41
1
10
6.95944133001814
20
4.67430756140701
30
0
41
1
10
6.99666351541418
20
4.68576650351798
30
0
41
1
10
7.02464562864566
20
4.69206813662959
30
0
41
1
10
7.09492127558241
20
4.70406446509477
30
0
41
1
10
7.13825951603161
20
4.70990317670447
30
0
41
1
10
7.23392575656419
20
4.71933666073852
30
0
41
1
10
7.28756869615307
20
4.72304968794606
30
0
41
1
10
7.37765875127337
20
4.72643962307993
30
0
41
1
10
7.41378522404625
20
4.72712518387647
30
0
41
1
10
7.44970000000001
20
4.72712518387647
30
0
0
SPLINE
5
2C5
100
AcDbEntity
8
1
62
256
6
ByLayer
370
18
48
1
60
0
100
AcDbSpline
70
4
71
3
72
8
73
4
40
0
40
0
40
0
40
0
40
1
40
1
40
1
40
1
41
1
10
0
20
18.4877367901945
30
0
41
1
10
0.131019951491623
20
18.6477021421703
30
0
41
1
10
0.262536668669441
20
18.8071267308867
30
0
41
1
10
0.394519052838348
20
18.9660336777981
30
0
0
SPLINE
5
2C6
100
AcDbEntity
8
1
62
256
6
ByLayer
370
18
48
1
60
0
100
AcDbSpline
70
4
71
3
72
8
73
4
40
0
40
0
40
0
40
0
40
1
40
1
40
1
40
1
41
1
10
0
20
19.2333411456125
30
0
41
1
10
0.131375561072161
20
19.3579451495771
30
0
41
1
10
0.262884337371077
20
19.4823620925448
30
0
41
1
10
0.394519052838348
20
19.6066008845752
30
0
0
SPLINE
5
2C7
100
AcDbEntity
8
1
62
256
6
ByLayer
370
18
48
1
60
0
100
AcDbSpline
70
4
71
3
72
16
73
12
40
0
40
0
40
0
40
0
40
0.260416387367094
40
0.260416387367094
40
0.522077397254675
40
0.522077397254675
40
0.762431094183217
40
0.762431094183217
40
0.973231971413479
40
0.973231971413479
40
1
40
1
40
1
40
1
41
1
10
6.94970000000001
20
17.5997159067981
30
0
41
1
10
6.94970000000001
20
17.6329488088186
30
0
41
1
10
6.96131481238285
20
17.6663192288539
30
0
41
1
10
7.00728504523215
20
17.727980791413
30
0
41
1
10
7.04255080146186
20
17.7572024813437
30
0
41
1
10
7.12960735447928
20
17.8041832531056
30
0
41
1
10
7.18131767163305
20
17.8233918583387
30
0
41
1
10
7.2886205462973
20
17.8487659557893
30
0
41
1
10
7.34459068608447
20
17.8565844297715
30
0
41
1
10
7.40817053183912
20
17.8597274225592
30
0
41
1
10
7.41546327757402
20
17.8600067185122
30
0
41
1
10
7.42276466982884
20
17.8602052274959
30
0
0
SPLINE
5
2C8
100
AcDbEntity
8
1
62
256
6
ByLayer
370
18
48
1
60
0
100
AcDbSpline
70
4
71
3
72
8
73
4
40
0
40
0
40
0
40
0
40
1
40
1
40
1
40
1
41
1
10
0.394519052838348
20
-13.7823140979466
30
0
41
1
10
0.262981795084329
20
-13.6718261138648
30
0
41
1
10
0.131474683017757
20
-13.5612902597836
30
0
41
1
10
0
20
-13.4507030159582
30
0
0
SPLINE
5
2C9
100
AcDbEntity
8
1
62
256
6
ByLayer
370
18
48
1
60
0
100
AcDbSpline
70
4
71
3
72
8
73
4
40
0
40
0
40
0
40
0
40
1
40
1
40
1
40
1
41
1
10
0.394519052838348
20
-19.572781595349
30
0
41
1
10
0.262722134736862
20
-19.4306801575147
30
0
41
1
10
0.131209869747579
20
-19.2882257956237
30
0
41
1
10
0
20
-19.1454018402203
30
0
0
SPLINE
5
2CA
100
AcDbEntity
8
1
62
256
6
ByLayer
370
18
48
1
60
0
100
AcDbSpline
70
4
71
3
72
22
73
18
40
0
40
0
40
0
40
0
40
0.329601428941252
40
0.329601428941252
40
0.489075764367186
40
0.489075764367186
40
0.623701930713348
40
0.623701930713348
40
0.710122550905014
40
0.710122550905014
40
0.797741316362568
40
0.797741316362568
40
0.871901026845518
40
0.871901026845518
40
0.964345589443294
40
0.964345589443294
40
1
40
1
40
1
40
1
41
1
10
0.394519052838348
20
16.0917289824198
30
0
41
1
10
0.419801594042667
20
16.1330490501582
30
0
41
1
10
0.441914355710367
20
16.175048709166
30
0
41
1
10
0.465468749400998
20
16.2330879102322
30
0
41
1
10
0.471783696144371
20
16.2516988914649
30
0
41
1
10
0.478868024470614
20
16.2829002333231
30
0
41
1
10
0.480401251024375
20
16.2962705508193
30
0
41
1
10
0.478098828667214
20
16.3137549603291
30
0
41
1
10
0.475921766994531
20
16.3195666920951
30
0
41
1
10
0.468413816532347
20
16.3274245725143
30
0
41
1
10
0.462873310231316
20
16.3294694059484
30
0
41
1
10
0.450136348998342
20
16.3288226316299
30
0
41
1
10
0.443177158517301
20
16.3268134466923
30
0
41
1
10
0.42657430227996
20
16.3192783114483
30
0
41
1
10
0.416457433859762
20
16.3129484344905
30
0
41
1
10
0.40242941267411
20
16.3025983797551
30
0
41
1
10
0.398472621575991
20
16.2995116888569
30
0
41
1
10
0.394519052838348
20
16.2962828885179
30
0
0
SPLINE
5
2CB
100
AcDbEntity
8
1
62
256
6
ByLayer
370
18
48
1
60
0
100
AcDbSpline
70
4
71
3
72
8
73
4
40
0
40
0
40
0
40
0
40
1
40
1
40
1
40
1
41
1
10
0
20
-10.6499489023893
30
0
41
1
10
0.126948364210193
20
-10.9912722816142
30
0
41
1
10
0.258588067896994
20
-11.3303132235976
30
0
41
1
10
0.394519052838348
20
-11.6669928763095
30
0
0
SPLINE
5
2CC
100
AcDbEntity
8
1
62
256
6
ByLayer
370
18
48
1
60
0
100
AcDbSpline
70
4
71
3
72
8
73
4
40
0
40
0
40
0
40
0
40
1
40
1
40
1
40
1
41
1
10
0.394519052838348
20
17.0553632209806
30
0
41
1
10
0.261981773604361
20
16.8577217216663
30
0
41
1
10
0.130450045331941
20
16.6591749695091
30
0
41
1
10
0
20
16.4596905081325
30
0
0
SPLINE
5
2CD
100
AcDbEntity
8
1
62
256
6
ByLayer
370
18
48
1
60
0
100
AcDbSpline
70
4
71
3
72
8
73
4
40
0
40
0
40
0
40
0
40
1
40
1
40
1
40
1
41
1
10
0
20
12.6311682604383
30
0
41
1
10
0.128658059895088
20
12.914009186291
30
0
41
1
10
0.260243397498527
20
13.1950971379547
30
0
41
1
10
0.394519052838348
20
13.4744348947103
30
0
0
SPLINE
5
2CE
100
AcDbEntity
8
1
62
256
6
ByLayer
370
18
48
1
60
0
100
AcDbSpline
70
4
71
3
72
22
73
18
40
0
40
0
40
0
40
0
40
0.314542118456112
40
0.314542118456112
40
0.489186971427118
40
0.489186971427118
40
0.667040124298313
40
0.667040124298313
40
0.742179725619871
40
0.742179725619871
40
0.818373237000235
40
0.818373237000235
40
0.885209635991685
40
0.885209635991685
40
0.964335640537819
40
0.964335640537819
40
1
40
1
40
1
40
1
41
1
10
0.394519052838348
20
-14.9165032325849
30
0
41
1
10
0.41827186328976
20
-14.9597607655311
30
0
41
1
10
0.438917113446507
20
-15.0036407273236
30
0
41
1
10
0.463038811041145
20
-15.0688715618713
30
0
41
1
10
0.470164452067024
20
-15.0919174246194
30
0
41
1
10
0.479208121038937
20
-15.1350984648373
30
0
41
1
10
0.481247188854354
20
-15.1559707520602
30
0
41
1
10
0.476358373968139
20
-15.1784286403304
30
0
41
1
10
0.473814214377569
20
-15.1842808739093
30
0
41
1
10
0.466047497011061
20
-15.1926747991592
30
0
41
1
10
0.460630589887899
20
-15.195226520632
30
0
41
1
10
0.448238241916783
20
-15.1957658099314
30
0
41
1
10
0.441383562045246
20
-15.194280453318
30
0
41
1
10
0.425600220489457
20
-15.1879032881959
30
0
41
1
10
0.416303639640489
20
-15.1823969455872
30
0
41
1
10
0.402908947081812
20
-15.1727828952757
30
0
41
1
10
0.398703890119975
20
-15.1695307474874
30
0
41
1
10
0.394519052838348
20
-15.1660973535887
30
0
0
SPLINE
5
2CF
100
AcDbEntity
8
1
62
256
6
ByLayer
370
18
48
1
60
0
100
AcDbSpline
70
4
71
3
72
8
73
4
40
0
40
0
40
0
40
0
40
1
40
1
40
1
40
1
41
1
10
0.394519052838348
20
-18.9660336777981
30
0
41
1
10
0.262536668669441
20
-18.8071267308867
30
0
41
1
10
0.131019951491623
20
-18.6477021421703
30
0
41
1
10
0
20
-18.4877367901945
30
0
0
SPLINE
5
2D0
100
AcDbEntity
8
1
62
256
6
ByLayer
370
18
48
1
60
0
100
AcDbSpline
70
4
71
3
72
8
73
4
40
0
40
0
40
0
40
0
40
1
40
1
40
1
40
1
41
1
10
0.394519052838348
20
-17.977360486755
30
0
41
1
10
0.262992539514642
20
-17.8673178070594
30
0
41
1
10
0.131485811585435
20
-17.7572435888389
30
0
41
1
10
0
20
-17.6471360742617
30
0
0
SPLINE
5
2D1
100
AcDbEntity
8
1
62
256
6
ByLayer
370
18
48
1
60
0
100
AcDbSpline
70
4
71
3
72
16
73
12
40
0
40
0
40
0
40
0
40
0.107682666772291
40
0.107682666772291
40
0.375326932667408
40
0.375326932667408
40
0.702139541304404
40
0.702139541304404
40
0.867261312531024
40
0.867261312531024
40
1
40
1
40
1
40
1
41
1
10
13.8332923293479
20
-3.09390341674236
30
0
41
1
10
13.7593756541646
20
-3.11901488517805
30
0
41
1
10
13.6859242374372
20
-3.14494053934624
30
0
41
1
10
13.4345410238373
20
-3.23692396379718
30
0
41
1
10
13.2606695863732
20
-3.30654023651542
30
0
41
1
10
12.90643683321
20
-3.45881588287119
30
0
41
1
10
12.7259177475377
20
-3.54419889337581
30
0
41
1
10
12.5081074776364
20
-3.65298714155958
30
0
41
1
10
12.4428248751889
20
-3.6867787120371
30
0
41
1
10
12.3545934987655
20
-3.73319901912694
30
0
41
1
10
12.3253760200557
20
-3.7488984190297
30
0
41
1
10
12.3123437020945
20
-3.75590954912784
30
0
0
SPLINE
5
2D2
100
AcDbEntity
8
1
62
256
6
ByLayer
370
18
48
1
60
0
100
AcDbSpline
70
4
71
3
72
8
73
4
40
0
40
0
40
0
40
0
40
1
40
1
40
1
40
1
41
1
10
0.394519052838348
20
-13.4744348947103
30
0
41
1
10
0.260243397498527
20
-13.1950971379547
30
0
41
1
10
0.128658059895088
20
-12.914009186291
30
0
41
1
10
0
20
-12.6311682604383
30
0
0
SPLINE
5
2D3
100
AcDbEntity
8
1
62
256
6
ByLayer
370
18
48
1
60
0
100
AcDbSpline
70
4
71
3
72
8
73
4
40
0
40
0
40
0
40
0
40
1
40
1
40
1
40
1
41
1
10
0.394519052838348
20
-9.2831594740112
30
0
41
1
10
0.254341402230239
20
-8.83372695911299
30
0
41
1
10
0.122557944122832
20
-8.38066645202932
30
0
41
1
10
0
20
-7.92441869309681
30
0
0
SPLINE
5
2D4
100
AcDbEntity
8
1
62
256
6
ByLayer
370
18
48
1
60
0
100
AcDbSpline
70
4
71
3
72
10
73
6
40
0
40
0
40
0
40
0
40
0.524490489991173
40
0.524490489991173
40
1
40
1
40
1
40
1
41
1
10
6.94970000000001
20
-15.1342732314033
30
0
41
1
10
6.94970000000001
20
-15.1299844835751
30
0
41
1
10
6.95944133001814
20
-15.1246823118163
30
0
41
1
10
6.99493325711677
20
-15.1137560340144
30
0
41
1
10
7.01946900505948
20
-15.1080975943154
30
0
41
1
10
7.05000000000001
20
-15.1026331877227
30
0
0
SPLINE
5
2D5
100
AcDbEntity
8
1
62
256
6
ByLayer
370
18
48
1
60
0
100
AcDbSpline
70
4
71
3
72
8
73
4
40
0
40
0
40
0
40
0
40
1
40
1
40
1
40
1
41
1
10
0.394519052838348
20
-9.81506636790178
30
0
41
1
10
0.262611087046196
20
-9.68275952809725
30
0
41
1
10
0.131088642845327
20
-9.54993805463118
30
0
41
1
10
0
20
-9.41654987898986
30
0
0
SPLINE
5
2D6
100
AcDbEntity
8
1
62
256
6
ByLayer
370
18
48
1
60
0
100
AcDbSpline
70
4
71
3
72
22
73
18
40
0
40
0
40
0
40
0
40
0.0603998252076643
40
0.0603998252076643
40
0.147178565491427
40
0.147178565491427
40
0.221444339313059
40
0.221444339313059
40
0.284647268328279
40
0.284647268328279
40
0.3830495319197
40
0.3830495319197
40
0.545096202315855
40
0.545096202315855
40
0.834958773894108
40
0.834958773894108
40
1
40
1
40
1
40
1
41
1
10
0.394519052838348
20
15.166097353589
30
0
41
1
10
0.401545647253613
20
15.1718622292032
30
0
41
1
10
0.408652794047725
20
15.1771334113989
30
0
41
1
10
0.425540019857465
20
15.1878810969186
30
0
41
1
10
0.435454913519607
20
15.1925900159831
30
0
41
1
10
0.451417581426313
20
15.1961618507467
30
0
41
1
10
0.458011483406608
20
15.19577144165
30
0
41
1
10
0.467514805454925
20
15.1914246841196
30
0
41
1
10
0.470960935723497
20
15.1879925904364
30
0
41
1
10
0.477347622478987
20
15.176832333593
30
0
41
1
10
0.479124363623157
20
15.1676593787486
30
0
41
1
10
0.480008227712403
20
15.1408636273829
30
0
41
1
10
0.476832402460502
20
15.1211468597557
30
0
41
1
10
0.462726983838706
20
15.0644481241412
30
0
41
1
10
0.447447955921802
20
15.024699403947
30
0
41
1
10
0.418702285130053
20
14.9623415201295
30
0
41
1
10
0.407078761446144
20
14.9393763999522
30
0
41
1
10
0.394519052838348
20
14.9165032325849
30
0
0
SPLINE
5
2D7
100
AcDbEntity
8
1
62
256
6
ByLayer
370
18
48
1
60
0
100
AcDbSpline
70
4
71
3
72
22
73
18
40
0
40
0
40
0
40
0
40
0.0735063158556032
40
0.0735063158556032
40
0.156705837467607
40
0.156705837467607
40
0.240798347326482
40
0.240798347326482
40
0.312957400880239
40
0.312957400880239
40
0.413761422488992
40
0.413761422488992
40
0.56893248889326
40
0.56893248889326
40
0.829002972903654
40
0.829002972903654
40
1
40
1
40
1
40
1
41
1
10
0.394519052838348
20
-16.2962828885181
30
0
41
1
10
0.402605369795651
20
-16.3028868214875
30
0
41
1
10
0.41074301957741
20
-16.3089241087147
30
0
41
1
10
0.427514026343602
20
-16.3196547578019
30
0
41
1
10
0.436254588792792
20
-16.3241533703565
30
0
41
1
10
0.451806110848509
20
-16.3292528179047
30
0
41
1
10
0.458795538525521
20
-16.3298343157037
30
0
41
1
10
0.468794386559409
20
-16.3269597237256
30
0
41
1
10
0.472363444484472
20
-16.3240561370392
30
0
41
1
10
0.478224783387532
20
-16.3144119544903
30
0
41
1
10
0.479605443511105
20
-16.3065124587408
30
0
41
1
10
0.479375688047355
20
-16.2838001336708
30
0
41
1
10
0.475883458363057
20
-16.2672010266957
30
0
41
1
10
0.461737083497951
20
-16.2208255421481
30
0
41
1
10
0.447643105848613
20
-16.188685106755
30
0
41
1
10
0.420038104373077
20
-16.1350786292736
30
0
41
1
10
0.407761586960362
20
-16.1133716805382
30
0
41
1
10
0.394519052838348
20
-16.0917289824198
30
0
0
SPLINE
5
2D8
100
AcDbEntity
8
1
62
256
6
ByLayer
370
18
48
1
60
0
100
AcDbSpline
70
4
71
3
72
16
73
12
40
0
40
0
40
0
40
0
40
0.212164141972523
40
0.212164141972523
40
0.424212010614773
40
0.424212010614773
40
0.63804887734015
40
0.63804887734015
40
0.854304931483913
40
0.854304931483913
40
1
40
1
40
1
40
1
41
1
10
7.44970000000001
20
-4.72712518387647
30
0
41
1
10
7.3942625143136
20
-4.72712518387647
30
0
41
1
10
7.33806175092479
20
-4.72545121481528
30
0
41
1
10
7.23349084616495
20
-4.71933957832889
30
0
41
1
10
7.18368333545601
20
-4.71483538053587
30
0
41
1
10
7.09662742133844
20
-4.70436837518395
30
0
41
1
10
7.05828903038883
20
-4.69827099309703
30
0
41
1
10
6.99812516961231
20
-4.68617956983172
30
0
41
1
10
6.97565656567679
20
-4.68003825322606
30
0
41
1
10
6.95414643178015
20
-4.67100354363384
30
0
41
1
10
6.94970000000001
20
-4.6676356353575
30
0
41
1
10
6.94970000000001
20
-4.66471664182004
30
0
0
SPLINE
5
2D9
100
AcDbEntity
8
1
62
256
6
ByLayer
370
18
48
1
60
0
100
AcDbSpline
70
4
71
3
72
8
73
4
40
0
40
0
40
0
40
0
40
1
40
1
40
1
40
1
41
1
10
0
20
-19.0275172217373
30
0
41
1
10
0.131412099455645
20
-19.1475229800286
30
0
41
1
10
0.262920172668998
20
-19.2673887300816
30
0
41
1
10
0.394519052838348
20
-19.3871212716832
30
0
0
SPLINE
5
2DA
100
AcDbEntity
8
1
62
256
6
ByLayer
370
18
48
1
60
0
100
AcDbSpline
70
4
71
3
72
8
73
4
40
0
40
0
40
0
40
0
40
1
40
1
40
1
40
1
41
1
10
0
20
-18.8791263469343
30
0
41
1
10
0.131126179851378
20
-19.0298873761474
30
0
41
1
10
0.262640357753753
20
-19.1801996475001
30
0
41
1
10
0.394519052838348
20
-19.3300829388625
30
0
0
SPLINE
5
2DB
100
AcDbEntity
8
1
62
256
6
ByLayer
370
18
48
1
60
0
100
AcDbSpline
70
4
71
3
72
22
73
18
40
0
40
0
40
0
40
0
40
0.17995027026644
40
0.17995027026644
40
0.330583154812461
40
0.330583154812461
40
0.45006950228096
40
0.45006950228096
40
0.570959342797369
40
0.570959342797369
40
0.673109265506279
40
0.673109265506279
40
0.774785338951911
40
0.774785338951911
40
0.928575950540724
40
0.928575950540724
40
1
40
1
40
1
40
1
41
1
10
0.394519052838348
20
19.572781595349
30
0
41
1
10
0.409811510398072
20
19.5892696911145
30
0
41
1
10
0.424374537057588
20
19.6053526629268
30
0
41
1
10
0.447800413794937
20
19.6321512194552
30
0
41
1
10
0.457404659781389
20
19.6435499653103
30
0
41
1
10
0.470573508393443
20
19.6602905073501
30
0
41
1
10
0.475072573292493
20
19.6665319457129
30
0
41
1
10
0.479894862573701
20
19.6749526606045
30
0
41
1
10
0.480188554218614
20
19.6771605865905
30
0
41
1
10
0.47631527089834
20
19.6766294976563
30
0
41
1
10
0.47279066768931
20
19.6746047668852
30
0
41
1
10
0.463133753651789
20
19.6676505240023
30
0
41
1
10
0.456925549645746
20
19.6626795448074
30
0
41
1
10
0.439394093576993
20
19.6478576681585
30
0
41
1
10
0.426817867032867
20
19.6366055060766
30
0
41
1
10
0.407406581289706
20
19.6187020696241
30
0
41
1
10
0.40101749744872
20
19.6127342127447
30
0
41
1
10
0.394519052838348
20
19.6066008845752
30
0
0
SPLINE
5
2DC
100
AcDbEntity
8
1
62
256
6
ByLayer
370
18
48
1
60
0
100
AcDbSpline
70
4
71
3
72
8
73
4
40
0
40
0
40
0
40
0
40
1
40
1
40
1
40
1
41
1
10
0.394519052838348
20
19.3300829388625
30
0
41
1
10
0.262640357753753
20
19.1801996475001
30
0
41
1
10
0.131126179851378
20
19.0298873761474
30
0
41
1
10
0
20
18.8791263469343
30
0
0
SPLINE
5
2DD
100
AcDbEntity
8
1
62
256
6
ByLayer
370
18
48
1
60
0
100
AcDbSpline
70
4
71
3
72
8
73
4
40
0
40
0
40
0
40
0
40
1
40
1
40
1
40
1
41
1
10
0
20
15.9740856271496
30
0
41
1
10
0.131506148378492
20
16.0814850449874
30
0
41
1
10
0.263012503329605
20
16.1888841255729
30
0
41
1
10
0.394519052838348
20
16.2962828885179
30
0
0
SPLINE
5
2DE
100
AcDbEntity
8
1
62
256
6
ByLayer
370
18
48
1
60
0
100
AcDbSpline
70
4
71
3
72
22
73
18
40
0
40
0
40
0
40
0
40
0.408701583153869
40
0.408701583153869
40
0.616259483534308
40
0.616259483534308
40
0.702111349436799
40
0.702111349436799
40
0.789390414749387
40
0.789390414749387
40
0.844479168245447
40
0.844479168245447
40
0.899760540572125
40
0.899760540572125
40
0.95330550369855
40
0.95330550369855
40
1
40
1
40
1
40
1
41
1
10
0.394519052838348
20
13.4744348947103
30
0
41
1
10
0.424647235484088
20
13.5371114754657
30
0
41
1
10
0.449721803434727
20
13.601273802113
30
0
41
1
10
0.47333585266756
20
13.6922055778518
30
0
41
1
10
0.479021268968836
20
13.7226413309754
30
0
41
1
10
0.479685003743839
20
13.7605679535687
30
0
41
1
10
0.478936024990844
20
13.7711805483254
30
0
41
1
10
0.474504301287709
20
13.7897472153468
30
0
41
1
10
0.470674480680771
20
13.797886108594
30
0
41
1
10
0.460937553434007
20
13.806307834059
30
0
41
1
10
0.456191823702852
20
13.8084048739508
30
0
41
1
10
0.445238476058762
20
13.8094667148608
30
0
41
1
10
0.438888764862042
20
13.808423345886
30
0
41
1
10
0.425836050041653
20
13.8036901535954
30
0
41
1
10
0.419016396964821
20
13.8000636127482
30
0
41
1
10
0.40633179886089
20
13.7917580961793
30
0
41
1
10
0.400377739363193
20
13.787235247092
30
0
41
1
10
0.394519052838291
20
13.7823140979472
30
0
0
SPLINE
5
2DF
100
AcDbEntity
8
1
62
256
6
ByLayer
370
18
48
1
60
0
100
AcDbSpline
70
4
71
3
72
8
73
4
40
0
40
0
40
0
40
0
40
1
40
1
40
1
40
1
41
1
10
0.394519052838348
20
15.1660973535887
30
0
41
1
10
0.263008092457539
20
15.0582009412332
30
0
41
1
10
0.131501640983174
20
14.9502972007992
30
0
41
1
10
0
20
14.8423856446161
30
0
0
SPLINE
5
2E0
100
AcDbEntity
8
1
62
256
6
ByLayer
370
18
48
1
60
0
100
AcDbSpline
70
4
71
3
72
8
73
4
40
0
40
0
40
0
40
0
40
1
40
1
40
1
40
1
41
1
10
0.394519052838348
20
19.6986154928503
30
0
41
1
10
0.262787655213174
20
19.5632833936142
30
0
41
1
10
0.131276854193118
20
19.4276643880555
30
0
41
1
10
0
20
19.2917446495518
30
0
0
SPLINE
5
2E1
100
AcDbEntity
8
1
62
256
6
ByLayer
370
18
48
1
60
0
100
AcDbSpline
70
4
71
3
72
10
73
6
40
0
40
0
40
0
40
0
40
0.478184954470119
40
0.478184954470119
40
1
40
1
40
1
40
1
41
1
10
7.05000000000001
20
-17.7585853091925
30
0
41
1
10
7.01831029718125
20
-17.7367422437827
30
0
41
1
10
6.99370738593546
20
-17.7122686538226
30
0
41
1
10
6.95886470183962
20
-17.6589612238945
30
0
41
1
10
6.94970000000001
20
-17.629305652807
30
0
41
1
10
6.94970000000001
20
-17.5997159067981
30
0
0
SPLINE
5
2E2
100
AcDbEntity
8
1
62
256
6
ByLayer
370
18
48
1
60
0
100
AcDbSpline
70
4
71
3
72
22
73
18
40
0
40
0
40
0
40
0
40
0.0865739546614917
40
0.0865739546614917
40
0.178744135922016
40
0.178744135922016
40
0.271921320328687
40
0.271921320328687
40
0.351769459690552
40
0.351769459690552
40
0.458626059680425
40
0.458626059680425
40
0.616919564957972
40
0.616919564957972
40
0.868952416680741
40
0.868952416680741
40
1
40
1
40
1
40
1
41
1
10
0.394519052838348
20
17.2228674449603
30
0
41
1
10
0.403609297621301
20
17.2303489555495
30
0
41
1
10
0.41270964100147
20
17.2372088344954
30
0
41
1
10
0.4306595542065
20
17.2490078616604
30
0
41
1
10
0.439641469472178
20
17.2538891960454
30
0
41
1
10
0.45535837356141
20
17.2596907857775
30
0
41
1
10
0.46226913647979
20
17.2606004726934
30
0
41
1
10
0.471769498162416
20
17.2581583557079
30
0
41
1
10
0.474965504877559
20
17.2553893425738
30
0
41
1
10
0.479527232324472
20
17.246095997819
30
0
41
1
10
0.480038439005114
20
17.2385274059291
30
0
41
1
10
0.477551027087998
20
17.2170440262128
30
0
41
1
10
0.472816739092707
20
17.2015012290392
30
0
41
1
10
0.456001690636469
20
17.1592118079298
30
0
41
1
10
0.440971397215606
20
17.1303837151643
30
0
41
1
10
0.414637486520519
20
17.0861891966008
30
0
41
1
10
0.404856494925923
20
17.0707785634795
30
0
41
1
10
0.394519052838348
20
17.0553632209806
30
0
0
SPLINE
5
2E3
100
AcDbEntity
8
1
62
256
6
ByLayer
370
18
48
1
60
0
100
AcDbSpline
70
4
71
3
72
26
73
22
40
0
40
0
40
0
40
0
40
0.275154049091555
40
0.275154049091555
40
0.643272222711069
40
0.643272222711069
40
0.804660679845079
40
0.804660679845079
40
0.885735786135779
40
0.885735786135779
40
0.913799465215009
40
0.913799465215009
40
0.929822466315402
40
0.929822466315402
40
0.943108998895682
40
0.943108998895682
40
0.956442580201035
40
0.956442580201035
40
0.973161096589144
40
0.973161096589144
40
1
40
1
40
1
40
1
41
1
10
0.394519052838348
20
-5.63341609185699
30
0
41
1
10
0.412086720569221
20
-5.72893297435755
30
0
41
1
10
0.427608230773217
20
-5.82459590204465
30
0
41
1
10
0.458507333064972
20
-6.04747619366589
30
0
41
1
10
0.472808871872871
20
-6.17526527953103
30
0
41
1
10
0.480134460644933
20
-6.35531786436326
30
0
41
1
10
0.480790959471051
20
-6.41019111290706
30
0
41
1
10
0.473845239134221
20
-6.48869017490625
30
0
41
1
10
0.470347416759466
20
-6.51489961418019
30
0
41
1
10
0.459810647043014
20
-6.54519335327765
30
0
41
1
10
0.456470980550478
20
-6.55263681986418
30
0
41
1
10
0.44958076537597
20
-6.5620403974784
30
0
41
1
10
0.446673672166412
20
-6.56501369758243
30
0
41
1
10
0.440624663838719
20
-6.56873743671144
30
0
41
1
10
0.43754065981409
20
-6.56978974607222
30
0
41
1
10
0.431079914830036
20
-6.57016950024487
30
0
41
1
10
0.42762621509786
20
-6.56948998410982
30
0
41
1
10
0.42004471476082
20
-6.56635950633981
30
0
41
1
10
0.415851654754135
20
-6.56350016143099
30
0
41
1
10
0.405653396078264
20
-6.55465861171322
30
0
41
1
10
0.399850513461217
20
-6.54774722487591
30
0
41
1
10
0.394519052846249
20
-6.5404281788266
30
0
0
SPLINE
5
2E4
100
AcDbEntity
8
1
62
256
6
ByLayer
370
18
48
1
60
0
100
AcDbSpline
70
4
71
3
72
15
73
11
40
0
40
0
40
0
40
0
40
0.312118715475076
40
0.312118715475076
40
0.626628189997443
40
0.626628189997443
40
0.911632825432084
40
0.911632825432084
40
0.911632825432084
40
1
40
1
40
1
40
1
41
1
10
9.00209734592175
20
8.56294289598645
30
0
41
1
10
8.65526629839337
20
8.80263717722656
30
0
41
1
10
8.34050222659943
20
9.10030071419953
30
0
41
1
10
7.82235762968713
20
9.77711388506043
30
0
41
1
10
7.61310247571873
20
10.167627455487
30
0
41
1
10
7.34772426953066
20
10.9341813343228
30
0
41
1
10
7.27560967461221
20
11.3179444095439
30
0
41
1
10
7.25422835587699
20
11.6832377935975
30
0
41
1
10
7.24750762641816
20
11.7980594300803
30
0
41
1
10
7.24553987190325
20
11.9118153700079
30
0
41
1
10
7.24787437042568
20
12.0236096178406
30
0
0
SPLINE
5
2E5
100
AcDbEntity
8
1
62
256
6
ByLayer
370
18
48
1
60
0
100
AcDbSpline
70
4
71
3
72
8
73
4
40
0
40
0
40
0
40
0
40
1
40
1
40
1
40
1
41
1
10
0.394519052838348
20
14.9165032325849
30
0
41
1
10
0.261110073250791
20
14.6735448954387
30
0
41
1
10
0.129552204007268
20
14.429216262006
30
0
41
1
10
0
20
14.183490812332
30
0
0
SPLINE
5
2E6
100
AcDbEntity
8
1
62
256
6
ByLayer
370
18
48
1
60
0
100
AcDbSpline
70
4
71
3
72
8
73
4
40
0
40
0
40
0
40
0
40
1
40
1
40
1
40
1
41
1
10
0
20
19.1454018402203
30
0
41
1
10
0.131209869747579
20
19.2882257956237
30
0
41
1
10
0.262722134736862
20
19.4306801575147
30
0
41
1
10
0.394519052838348
20
19.572781595349
30
0
0
SPLINE
5
2E7
100
AcDbEntity
8
1
62
256
6
ByLayer
370
18
48
1
60
0
100
AcDbSpline
70
4
71
3
72
8
73
4
40
0
40
0
40
0
40
0
40
1
40
1
40
1
40
1
41
1
10
0
20
-14.8423856446161
30
0
41
1
10
0.131501640983174
20
-14.9502972007992
30
0
41
1
10
0.263008092457539
20
-15.0582009412332
30
0
41
1
10
0.394519052838348
20
-15.1660973535887
30
0
0
SPLINE
5
2E8
100
AcDbEntity
8
1
62
256
6
ByLayer
370
18
48
1
60
0
100
AcDbSpline
70
4
71
3
72
8
73
4
40
0
40
0
40
0
40
0
40
1
40
1
40
1
40
1
41
1
10
0
20
-19.2917446495518
30
0
41
1
10
0.131276854193118
20
-19.4276643880555
30
0
41
1
10
0.262787655213174
20
-19.5632833936142
30
0
41
1
10
0.394519052838348
20
-19.6986154928503
30
0
0
LINE
5
7F
100
AcDbEntity
8
1
62
256
6
ByLayer
370
18
48
1
60
0
100
AcDbLine
10
25.595674
20
17.50879
30
0
11
25.595736
21
17.508908
31
0
39
0
210
0
220
0
230
1
0
LINE
5
80
100
AcDbEntity
8
1
62
256
6
ByLayer
370
18
48
1
60
0
100
AcDbLine
10
24.710745
20
19.117935
30
0
11
24.761349
21
19.215145
31
0
39
0
210
0
220
0
230
1
0
LINE
5
81
100
AcDbEntity
8
1
62
256
6
ByLayer
370
18
48
1
60
0
100
AcDbLine
10
22.400847
20
18.504727
30
0
11
22.451008
21
18.601086
31
0
39
0
210
0
220
0
230
1
0
LINE
5
82
100
AcDbEntity
8
1
62
256
6
ByLayer
370
18
48
1
60
0
100
AcDbLine
10
24.251883
20
19.575796
30
0
11
24.247702
21
19.556285
31
0
39
0
210
0
220
0
230
1
0
LINE
5
83
100
AcDbEntity
8
1
62
256
6
ByLayer
370
18
48
1
60
0
100
AcDbLine
10
24.251883
20
19.575796
30
0
11
24.302487
21
19.673006
31
0
39
0
210
0
220
0
230
1
0
LINE
5
84
100
AcDbEntity
8
1
62
256
6
ByLayer
370
18
48
1
60
0
100
AcDbLine
10
24.247702
20
19.556285
30
0
11
24.297864
21
19.652645
31
0
39
0
210
0
220
0
230
1
0
LINE
5
85
100
AcDbEntity
8
1
62
256
6
ByLayer
370
18
48
1
60
0
100
AcDbLine
10
24.69835
20
17.887132
30
0
11
24.748512
21
17.983491
31
0
39
0
210
0
220
0
230
1
0
LINE
5
86
100
AcDbEntity
8
1
62
256
6
ByLayer
370
18
48
1
60
0
100
AcDbLine
10
24.691191
20
19.113764
30
0
11
24.741353
21
19.210123
31
0
39
0
210
0
220
0
230
1
0
LINE
5
87
100
AcDbEntity
8
1
62
256
6
ByLayer
370
18
48
1
60
0
100
AcDbLine
10
23.636363
20
17.261831
30
0
11
23.681824
21
17.349162
31
0
39
0
210
0
220
0
230
1
0
LINE
5
88
100
AcDbEntity
8
1
62
256
6
ByLayer
370
18
48
1
60
0
100
AcDbLine
10
24.691191
20
19.113764
30
0
11
24.710745
21
19.117935
31
0
39
0
210
0
220
0
230
1
0
LINE
5
89
100
AcDbEntity
8
1
62
256
6
ByLayer
370
18
48
1
60
0
100
AcDbLine
10
22.381811
20
18.498636
30
0
11
22.432415
21
18.595846
31
0
39
0
210
0
220
0
230
1
0
LINE
5
8A
100
AcDbEntity
8
1
62
256
6
ByLayer
370
18
48
1
60
0
100
AcDbLine
10
23.018385
20
19.563433
30
0
11
23.068546
21
19.659793
31
0
39
0
210
0
220
0
230
1
0
LINE
5
8B
100
AcDbEntity
8
1
62
256
6
ByLayer
370
18
48
1
60
0
100
AcDbLine
10
23.003529
20
19.576854
30
0
11
23.018385
21
19.563433
31
0
39
0
210
0
220
0
230
1
0
LINE
5
8C
100
AcDbEntity
8
1
62
256
6
ByLayer
370
18
48
1
60
0
100
AcDbLine
10
23.003529
20
19.576854
30
0
11
23.054133
21
19.674064
31
0
39
0
210
0
220
0
230
1
0
LINE
5
8D
100
AcDbEntity
8
1
62
256
6
ByLayer
370
18
48
1
60
0
100
AcDbLine
10
23.637324
20
17.270946
30
0
11
23.687485
21
17.367306
31
0
39
0
210
0
220
0
230
1
0
LINE
5
8E
100
AcDbEntity
8
1
62
256
6
ByLayer
370
18
48
1
60
0
100
AcDbLine
10
24.69835
20
17.887132
30
0
11
24.7118
21
17.872309
31
0
39
0
210
0
220
0
230
1
0
LINE
5
8F
100
AcDbEntity
8
1
62
256
6
ByLayer
370
18
48
1
60
0
100
AcDbLine
10
24.7118
20
17.872309
30
0
11
24.762405
21
17.969518
31
0
39
0
210
0
220
0
230
1
0
LINE
5
90
100
AcDbEntity
8
1
62
256
6
ByLayer
370
18
48
1
60
0
100
AcDbLine
10
22.381811
20
18.498636
30
0
11
22.400847
21
18.504727
31
0
39
0
210
0
220
0
230
1
0
LINE
5
91
100
AcDbEntity
8
1
62
256
6
ByLayer
370
18
48
1
60
0
100
AcDbLine
10
21.999175
20
13.130127
30
0
11
22.088211
21
13.181836
31
0
39
0
210
0
220
0
230
1
0
LINE
5
92
100
AcDbEntity
8
1
62
256
6
ByLayer
370
18
48
1
60
0
100
AcDbLine
10
23.171569
20
13.768989
30
0
11
22.196014
21
13.241752
31
0
39
0
210
0
220
0
230
1
0
LINE
5
93
100
AcDbEntity
8
1
62
256
6
ByLayer
370
18
48
1
60
0
100
AcDbLine
10
25.182285
20
14.779904
30
0
11
25.109324
21
14.747651
31
0
39
0
210
0
220
0
230
1
0
LINE
5
94
100
AcDbEntity
8
1
62
256
6
ByLayer
370
18
48
1
60
0
100
AcDbLine
10
26.825936
20
15.973876
30
0
11
31.910593
21
25.741412
31
0
39
0
210
0
220
0
230
1
0
LINE
5
95
100
AcDbEntity
8
1
62
256
6
ByLayer
370
18
48
1
60
0
100
AcDbLine
10
26.211996
20
15.41338
30
0
11
26.076067
21
15.23937
31
0
39
0
210
0
220
0
230
1
0
LINE
5
96
100
AcDbEntity
8
1
62
256
6
ByLayer
370
18
48
1
60
0
100
AcDbLine
10
20.544654
20
21.233091
30
0
11
15.459997
21
11.465555
31
0
39
0
210
0
220
0
230
1
0
LINE
5
97
100
AcDbEntity
8
1
62
256
6
ByLayer
370
18
48
1
60
0
100
AcDbLine
10
16.531712
20
10.396177
30
0
11
26.320649
21
15.469694
31
0
39
0
210
0
220
0
230
1
0
LINE
5
98
100
AcDbEntity
8
1
62
256
6
ByLayer
370
18
48
1
60
0
100
AcDbLine
10
25.013203
20
14.701875
30
0
11
24.100116
21
14.250247
31
0
39
0
210
0
220
0
230
1
0
LINE
5
99
100
AcDbEntity
8
1
62
256
6
ByLayer
370
18
48
1
60
0
100
AcDbLine
10
26.076067
20
15.23937
30
0
11
25.341682
21
14.858745
31
0
39
0
210
0
220
0
230
1
0
LINE
5
9A
100
AcDbEntity
8
1
62
256
6
ByLayer
370
18
48
1
60
0
100
AcDbLine
10
21.831362
20
13.039378
30
0
11
21.707621
21
12.975244
31
0
39
0
210
0
220
0
230
1
0
LINE
5
9B
100
AcDbEntity
8
SK1
62
256
6
ByLayer
370
18
48
1
60
0
100
AcDbLine
10
-0.249519
20
-16.074887
30
0
11
-0.249519
21
-16.692674
31
0
39
0
210
0
220
0
230
1
0
LINE
5
9D
100
AcDbEntity
8
SK1
62
256
6
ByLayer
370
18
48
1
60
0
100
AcDbLine
10
0
20
-17.292958
30
0
11
0
21
-16.898119
31
0
39
0
210
0
220
0
230
1
0
LINE
5
9E
100
AcDbEntity
8
SK1
62
256
6
ByLayer
370
18
48
1
60
0
100
AcDbLine
10
-0.249519
20
18.799379
30
0
11
-0.249519
21
18.591023
31
0
39
0
210
0
220
0
230
1
0
LINE
5
9F
100
AcDbEntity
8
SK1
62
256
6
ByLayer
370
18
48
1
60
0
100
AcDbLine
10
0
20
19.027517
30
0
11
0
21
18.879049
31
0
39
0
210
0
220
0
230
1
0
LINE
5
A0
100
AcDbEntity
8
SK1
62
256
6
ByLayer
370
18
48
1
60
0
100
AcDbLine
10
0
20
11.706682
30
0
11
0
21
12.631168
31
0
39
0
210
0
220
0
230
1
0
LINE
5
A1
100
AcDbEntity
8
SK1
62
256
6
ByLayer
370
18
48
1
60
0
100
AcDbLine
10
-0.249519
20
-19.032654
30
0
11
-0.249519
21
-19.073602
31
0
39
0
210
0
220
0
230
1
0
LINE
5
A2
100
AcDbEntity
8
SK1
62
256
6
ByLayer
370
18
48
1
60
0
100
AcDbLine
10
0
20
-19.324519
30
0
11
0
21
-19.32088
31
0
39
0
210
0
220
0
230
1
0
LINE
5
A3
100
AcDbEntity
8
SK1
62
256
6
ByLayer
370
18
48
1
60
0
100
AcDbLine
10
0
20
-19.291645
30
0
11
0
21
-19.32088
31
0
39
0
210
0
220
0
230
1
0
LINE
5
A4
100
AcDbEntity
8
SK1
62
256
6
ByLayer
370
18
48
1
60
0
100
AcDbLine
10
0
20
-18.879049
30
0
11
0
21
-19.027517
31
0
39
0
210
0
220
0
230
1
0
LINE
5
A5
100
AcDbEntity
8
SK1
62
256
6
ByLayer
370
18
48
1
60
0
100
AcDbLine
10
0
20
-19.145402
30
0
11
0
21
-19.027517
31
0
39
0
210
0
220
0
230
1
0
LINE
5
A6
100
AcDbEntity
8
SK1
62
256
6
ByLayer
370
18
48
1
60
0
100
AcDbLine
10
-0.324519
20
-15.901587
30
0
11
-0.324519
21
-16.678463
31
0
39
0
210
0
220
0
230
1
0
LINE
5
A7
100
AcDbEntity
8
SK1
62
256
6
ByLayer
370
18
48
1
60
0
100
AcDbLine
10
0
20
-12.631168
30
0
11
0
21
-11.706682
31
0
39
0
210
0
220
0
230
1
0
LINE
5
A8
100
AcDbEntity
8
SK1
62
256
6
ByLayer
370
18
48
1
60
0
100
AcDbLine
10
0
20
-15.436852
30
0
11
0
21
-14.842386
31
0
39
0
210
0
220
0
230
1
0
LINE
5
A9
100
AcDbEntity
8
SK1
62
256
6
ByLayer
370
18
48
1
60
0
100
AcDbLine
10
-0.324519
20
-13.534838
30
0
11
-0.324519
21
-14.648035
31
0
39
0
210
0
220
0
230
1
0
LINE
5
AA
100
AcDbEntity
8
SK1
62
256
6
ByLayer
370
18
48
1
60
0
100
AcDbLine
10
-0.249519
20
-18.591023
30
0
11
-0.249519
21
-18.799379
31
0
39
0
210
0
220
0
230
1
0
LINE
5
AB
100
AcDbEntity
8
SK1
62
256
6
ByLayer
370
18
48
1
60
0
100
AcDbLine
10
-0.324519
20
-15.901621
30
0
11
-0.324519
21
-15.767626
31
0
39
0
210
0
220
0
230
1
0
LINE
5
AC
100
AcDbEntity
8
SK1
62
256
6
ByLayer
370
18
48
1
60
0
100
AcDbLine
10
-0.249519
20
-15.011486
30
0
11
-0.249519
21
-15.770306
31
0
39
0
210
0
220
0
230
1
0
LINE
5
AD
100
AcDbEntity
8
SK1
62
256
6
ByLayer
370
18
48
1
60
0
100
AcDbLine
10
0
20
-16.459691
30
0
11
0
21
-15.974086
31
0
39
0
210
0
220
0
230
1
0
LINE
5
AE
100
AcDbEntity
8
SK1
62
256
6
ByLayer
370
18
48
1
60
0
100
AcDbLine
10
-0.249519
20
-13.703567
30
0
11
-0.249519
21
-14.637614
31
0
39
0
210
0
220
0
230
1
0
LINE
5
AF
100
AcDbEntity
8
SK1
62
256
6
ByLayer
370
18
48
1
60
0
100
AcDbLine
10
0
20
11.706682
30
0
11
0
21
10.649788
31
0
39
0
210
0
220
0
230
1
0
LINE
5
B0
100
AcDbEntity
8
SK1
62
256
6
ByLayer
370
18
48
1
60
0
100
AcDbLine
10
0
20
-10.649788
30
0
11
0
21
-11.706682
31
0
39
0
210
0
220
0
230
1
0
LINE
5
B1
100
AcDbEntity
8
SK1
62
256
6
ByLayer
370
18
48
1
60
0
100
AcDbLine
10
0
20
-16.459648
30
0
11
0
21
-16.898119
31
0
39
0
210
0
220
0
230
1
0
LINE
5
B2
100
AcDbEntity
8
SK1
62
256
6
ByLayer
370
18
48
1
60
0
100
AcDbLine
10
-0.324519
20
-18.77754
30
0
11
-0.324519
21
-18.745228
31
0
39
0
210
0
220
0
230
1
0
LINE
5
B3
100
AcDbEntity
8
SK1
62
256
6
ByLayer
370
18
48
1
60
0
100
AcDbLine
10
-0.324519
20
-18.948407
30
0
11
-0.324519
21
-18.999731
31
0
39
0
210
0
220
0
230
1
0
LINE
5
B4
100
AcDbEntity
8
1
62
256
6
ByLayer
370
18
48
1
60
0
100
AcDbLine
10
0
20
-2.769731
30
0
11
0
21
2.769731
31
0
39
0
210
0
220
0
230
1
0
LINE
5
B5
100
AcDbEntity
8
SK1
62
256
6
ByLayer
370
18
48
1
60
0
100
AcDbLine
10
-0.324519
20
-16.787151
30
0
11
-0.324519
21
-16.678463
31
0
39
0
210
0
220
0
230
1
0
LINE
5
B6
100
AcDbEntity
8
SK1
62
256
6
ByLayer
370
18
48
1
60
0
100
AcDbLine
10
-0.249519
20
11.483644
30
0
11
-0.249519
21
9.958473
31
0
39
0
210
0
220
0
230
1
0
LINE
5
B7
100
AcDbEntity
8
SK1
62
256
6
ByLayer
370
18
48
1
60
0
100
AcDbLine
10
-0.249519
20
-9.958473
30
0
11
-0.249519
21
-11.483644
31
0
39
0
210
0
220
0
230
1
0
LINE
5
B8
100
AcDbEntity
8
SK1
62
256
6
ByLayer
370
18
48
1
60
0
100
AcDbLine
10
0
20
-15.974086
30
0
11
0
21
-15.43684
31
0
39
0
210
0
220
0
230
1
0
LINE
5
B9
100
AcDbEntity
8
SK1
62
256
6
ByLayer
370
18
48
1
60
0
100
AcDbLine
10
0
20
-18.699503
30
0
11
0
21
-18.487711
31
0
39
0
210
0
220
0
230
1
0
LINE
5
BA
100
AcDbEntity
8
SK1
62
256
6
ByLayer
370
18
48
1
60
0
100
AcDbLine
10
-0.249519
20
-18.181643
30
0
11
-0.249519
21
-18.479011
31
0
39
0
210
0
220
0
230
1
0
LINE
5
BB
100
AcDbEntity
8
SK1
62
256
6
ByLayer
370
18
48
1
60
0
100
AcDbLine
10
0
20
-18.879126
30
0
11
0
21
-18.699503
31
0
39
0
210
0
220
0
230
1
0
LINE
5
BC
100
AcDbEntity
8
SK1
62
256
6
ByLayer
370
18
48
1
60
0
100
AcDbLine
10
-0.324519
20
-18.060966
30
0
11
-0.324519
21
-18.434491
31
0
39
0
210
0
220
0
230
1
0
LINE
5
BD
100
AcDbEntity
8
SK1
62
256
6
ByLayer
370
18
48
1
60
0
100
AcDbLine
10
-0.324519
20
18.745228
30
0
11
-0.324519
21
18.483608
31
0
39
0
210
0
220
0
230
1
0
LINE
5
BE
100
AcDbEntity
8
SK1
62
256
6
ByLayer
370
18
48
1
60
0
100
AcDbLine
10
-0.324519
20
11.530772
30
0
11
-0.324519
21
11.790712
31
0
39
0
210
0
220
0
230
1
0
LINE
5
BF
100
AcDbEntity
8
SK1
62
256
6
ByLayer
370
18
48
1
60
0
100
AcDbLine
10
-0.324519
20
-11.790712
30
0
11
-0.324519
21
-11.530772
31
0
39
0
210
0
220
0
230
1
0
LINE
5
C0
100
AcDbEntity
8
SK1
62
256
6
ByLayer
370
18
48
1
60
0
100
AcDbLine
10
0
20
19.027517
30
0
11
0
21
19.145402
31
0
39
0
210
0
220
0
230
1
0
LINE
5
C1
100
AcDbEntity
8
SK1
62
256
6
ByLayer
370
18
48
1
60
0
100
AcDbLine
10
-0.324519
20
-18.483608
30
0
11
-0.324519
21
-18.745228
31
0
39
0
210
0
220
0
230
1
0
LINE
5
C2
100
AcDbEntity
8
SK1
62
256
6
ByLayer
370
18
48
1
60
0
100
AcDbLine
10
-0.324519
20
-18.483753
30
0
11
-0.324519
21
-18.434491
31
0
39
0
210
0
220
0
230
1
0
LINE
5
C3
100
AcDbEntity
8
SK1
62
256
6
ByLayer
370
18
48
1
60
0
100
AcDbLine
10
-0.324519
20
11.530772
30
0
11
-0.324519
21
9.595404
31
0
39
0
210
0
220
0
230
1
0
LINE
5
C4
100
AcDbEntity
8
SK1
62
256
6
ByLayer
370
18
48
1
60
0
100
AcDbLine
10
-0.324519
20
-9.595404
30
0
11
-0.324519
21
-11.530772
31
0
39
0
210
0
220
0
230
1
0
LINE
5
C5
100
AcDbEntity
8
SK1
62
256
6
ByLayer
370
18
48
1
60
0
100
AcDbLine
10
-0.324519
20
-14.812662
30
0
11
-0.324519
21
-15.767626
31
0
39
0
210
0
220
0
230
1
0
LINE
5
C6
100
AcDbEntity
8
SK1
62
256
6
ByLayer
370
18
48
1
60
0
100
AcDbLine
10
-0.324519
20
-14.812652
30
0
11
-0.324519
21
-14.648035
31
0
39
0
210
0
220
0
230
1
0
LINE
5
C7
100
AcDbEntity
8
SK1
62
256
6
ByLayer
370
18
48
1
60
0
100
AcDbLine
10
0
20
-14.183485
30
0
11
0
21
-14.842386
31
0
39
0
210
0
220
0
230
1
0
LINE
5
C8
100
AcDbEntity
8
SK1
62
256
6
ByLayer
370
18
48
1
60
0
100
AcDbLine
10
0
20
-17.963025
30
0
11
0
21
-18.242708
31
0
39
0
210
0
220
0
230
1
0
LINE
5
C9
100
AcDbEntity
8
SK1
62
256
6
ByLayer
370
18
48
1
60
0
100
AcDbLine
10
-0.324519
20
-17.500131
30
0
11
-0.324519
21
-17.993814
31
0
39
0
210
0
220
0
230
1
0
LINE
5
CA
100
AcDbEntity
8
SK1
62
256
6
ByLayer
370
18
48
1
60
0
100
AcDbLine
10
-0.324519
20
-18.061069
30
0
11
-0.324519
21
-17.993814
31
0
39
0
210
0
220
0
230
1
0
LINE
5
CB
100
AcDbEntity
8
SK1
62
256
6
ByLayer
370
18
48
1
60
0
100
AcDbLine
10
-0.249519
20
-17.635622
30
0
11
-0.249519
21
-18.028616
31
0
39
0
210
0
220
0
230
1
0
LINE
5
CC
100
AcDbEntity
8
SK1
62
256
6
ByLayer
370
18
48
1
60
0
100
AcDbLine
10
0
20
-18.487737
30
0
11
0
21
-18.242708
31
0
39
0
210
0
220
0
230
1
0
LINE
5
CD
100
AcDbEntity
8
SK1
62
256
6
ByLayer
370
18
48
1
60
0
100
AcDbLine
10
-0.324519
20
18.745228
30
0
11
-0.324519
21
18.77754
31
0
39
0
210
0
220
0
230
1
0
LINE
5
CE
100
AcDbEntity
8
SK1
62
256
6
ByLayer
370
18
48
1
60
0
100
AcDbLine
10
-0.324519
20
-19
30
0
11
-0.324519
21
-18.999731
31
0
39
0
210
0
220
0
230
1
0
LINE
5
CF
100
AcDbEntity
8
SK1
62
256
6
ByLayer
370
18
48
1
60
0
100
AcDbLine
10
-0.324519
20
18.999731
30
0
11
-0.324519
21
19
31
0
39
0
210
0
220
0
230
1
0
LINE
5
D0
100
AcDbEntity
8
SK1
62
256
6
ByLayer
370
18
48
1
60
0
100
AcDbLine
10
-0.324519
20
18.999731
30
0
11
-0.324519
21
18.948407
31
0
39
0
210
0
220
0
230
1
0
LINE
5
D1
100
AcDbEntity
8
SK1
62
256
6
ByLayer
370
18
48
1
60
0
100
AcDbLine
10
0
20
19.32088
30
0
11
0
21
19.324519
31
0
39
0
210
0
220
0
230
1
0
LINE
5
D2
100
AcDbEntity
8
SK1
62
256
6
ByLayer
370
18
48
1
60
0
100
AcDbLine
10
-0.249519
20
19.073602
30
0
11
-0.249519
21
19.032654
31
0
39
0
210
0
220
0
230
1
0
LINE
5
D3
100
AcDbEntity
8
SK1
62
256
6
ByLayer
370
18
48
1
60
0
100
AcDbLine
10
0
20
19.32088
30
0
11
0
21
19.291645
31
0
39
0
210
0
220
0
230
1
0
LINE
5
D4
100
AcDbEntity
8
SK1
62
256
6
ByLayer
370
18
48
1
60
0
100
AcDbLine
10
-0.324519
20
17.993814
30
0
11
-0.324519
21
17.500131
31
0
39
0
210
0
220
0
230
1
0
LINE
5
D5
100
AcDbEntity
8
SK1
62
256
6
ByLayer
370
18
48
1
60
0
100
AcDbLine
10
-0.324519
20
17.993814
30
0
11
-0.324519
21
18.061069
31
0
39
0
210
0
220
0
230
1
0
LINE
5
D6
100
AcDbEntity
8
SK1
62
256
6
ByLayer
370
18
48
1
60
0
100
AcDbLine
10
-0.249519
20
18.028616
30
0
11
-0.249519
21
17.635622
31
0
39
0
210
0
220
0
230
1
0
LINE
5
D7
100
AcDbEntity
8
SK1
62
256
6
ByLayer
370
18
48
1
60
0
100
AcDbLine
10
0
20
18.242708
30
0
11
0
21
17.963025
31
0
39
0
210
0
220
0
230
1
0
LINE
5
D8
100
AcDbEntity
8
SK1
62
256
6
ByLayer
370
18
48
1
60
0
100
AcDbLine
10
0
20
18.242708
30
0
11
0
21
18.487737
31
0
39
0
210
0
220
0
230
1
0
LINE
5
D9
100
AcDbEntity
8
SK1
62
256
6
ByLayer
370
18
48
1
60
0
100
AcDbLine
10
0
20
-9.41655
30
0
11
0
21
-7.924321
31
0
39
0
210
0
220
0
230
1
0
LINE
5
DA
100
AcDbEntity
8
SK1
62
256
6
ByLayer
370
18
48
1
60
0
100
AcDbLine
10
0
20
7.924321
30
0
11
0
21
9.41655
31
0
39
0
210
0
220
0
230
1
0
LINE
5
DB
100
AcDbEntity
8
SK1
62
256
6
ByLayer
370
18
48
1
60
0
100
AcDbLine
10
0
20
9.41655
30
0
11
0
21
10.649949
31
0
39
0
210
0
220
0
230
1
0
LINE
5
DC
100
AcDbEntity
8
SK1
62
256
6
ByLayer
370
18
48
1
60
0
100
AcDbLine
10
-0.324519
20
9.241515
30
0
11
-0.324519
21
9.595519
31
0
39
0
210
0
220
0
230
1
0
LINE
5
DD
100
AcDbEntity
8
SK1
62
256
6
ByLayer
370
18
48
1
60
0
100
AcDbLine
10
-0.324519
20
9.241515
30
0
11
-0.324519
21
6.373757
31
0
39
0
210
0
220
0
230
1
0
LINE
5
DE
100
AcDbEntity
8
SK1
62
256
6
ByLayer
370
18
48
1
60
0
100
AcDbLine
10
-0.324519
20
-6.373757
30
0
11
-0.324519
21
-9.241515
31
0
39
0
210
0
220
0
230
1
0
LINE
5
DF
100
AcDbEntity
8
SK1
62
256
6
ByLayer
370
18
48
1
60
0
100
AcDbLine
10
0
20
-10.649949
30
0
11
0
21
-9.41655
31
0
39
0
210
0
220
0
230
1
0
LINE
5
E0
100
AcDbEntity
8
SK1
62
256
6
ByLayer
370
18
48
1
60
0
100
AcDbLine
10
-0.324519
20
-9.595519
30
0
11
-0.324519
21
-9.241515
31
0
39
0
210
0
220
0
230
1
0
LINE
5
E1
100
AcDbEntity
8
SK1
62
256
6
ByLayer
370
18
48
1
60
0
100
AcDbLine
10
-0.249519
20
9.161401
30
0
11
-0.249519
21
6.936326
31
0
39
0
210
0
220
0
230
1
0
LINE
5
E2
100
AcDbEntity
8
SK1
62
256
6
ByLayer
370
18
48
1
60
0
100
AcDbLine
10
-0.249519
20
-6.936326
30
0
11
-0.249519
21
-9.161401
31
0
39
0
210
0
220
0
230
1
0
LINE
5
E3
100
AcDbEntity
8
SK1
62
256
6
ByLayer
370
18
48
1
60
0
100
AcDbLine
10
-0.249519
20
17.438125
30
0
11
-0.249519
21
16.939826
31
0
39
0
210
0
220
0
230
1
0
LINE
5
E4
100
AcDbEntity
8
SK1
62
256
6
ByLayer
370
18
48
1
60
0
100
AcDbLine
10
-0.324519
20
17.413335
30
0
11
-0.324519
21
17.500152
31
0
39
0
210
0
220
0
230
1
0
LINE
5
E5
100
AcDbEntity
8
SK1
62
256
6
ByLayer
370
18
48
1
60
0
100
AcDbLine
10
0
20
17.292952
30
0
11
0
21
17.647136
31
0
39
0
210
0
220
0
230
1
0
LINE
5
E6
100
AcDbEntity
8
SK1
62
256
6
ByLayer
370
18
48
1
60
0
100
AcDbLine
10
-0.324519
20
17.413335
30
0
11
-0.324519
21
16.787098
31
0
39
0
210
0
220
0
230
1
0
LINE
5
E7
100
AcDbEntity
8
SK1
62
256
6
ByLayer
370
18
48
1
60
0
100
AcDbLine
10
0
20
17.647136
30
0
11
0
21
17.963057
31
0
39
0
210
0
220
0
230
1
0
LINE
5
E8
100
AcDbEntity
8
SK1
62
256
6
ByLayer
370
18
48
1
60
0
100
AcDbLine
10
0
20
15.974086
30
0
11
0
21
16.459691
31
0
39
0
210
0
220
0
230
1
0
LINE
5
E9
100
AcDbEntity
8
SK1
62
256
6
ByLayer
370
18
48
1
60
0
100
AcDbLine
10
0
20
15.43684
30
0
11
0
21
15.974086
31
0
39
0
210
0
220
0
230
1
0
LINE
5
EA
100
AcDbEntity
8
SK1
62
256
6
ByLayer
370
18
48
1
60
0
100
AcDbLine
10
-0.249519
20
15.770306
30
0
11
-0.249519
21
15.011486
31
0
39
0
210
0
220
0
230
1
0
LINE
5
EB
100
AcDbEntity
8
SK1
62
256
6
ByLayer
370
18
48
1
60
0
100
AcDbLine
10
-0.324519
20
15.767626
30
0
11
-0.324519
21
15.901621
31
0
39
0
210
0
220
0
230
1
0
LINE
5
EC
100
AcDbEntity
8
SK1
62
256
6
ByLayer
370
18
48
1
60
0
100
AcDbLine
10
-0.324519
20
15.767626
30
0
11
-0.324519
21
14.812662
31
0
39
0
210
0
220
0
230
1
0
LINE
5
ED
100
AcDbEntity
8
SK1
62
256
6
ByLayer
370
18
48
1
60
0
100
AcDbLine
10
0
20
14.842386
30
0
11
0
21
14.183485
31
0
39
0
210
0
220
0
230
1
0
LINE
5
EE
100
AcDbEntity
8
SK1
62
256
6
ByLayer
370
18
48
1
60
0
100
AcDbLine
10
0
20
14.842386
30
0
11
0
21
15.436852
31
0
39
0
210
0
220
0
230
1
0
LINE
5
EF
100
AcDbEntity
8
SK1
62
256
6
ByLayer
370
18
48
1
60
0
100
AcDbLine
10
-0.324519
20
14.648035
30
0
11
-0.324519
21
14.812652
31
0
39
0
210
0
220
0
230
1
0
LINE
5
F0
100
AcDbEntity
8
SK1
62
256
6
ByLayer
370
18
48
1
60
0
100
AcDbLine
10
-0.249519
20
14.637614
30
0
11
-0.249519
21
13.703567
31
0
39
0
210
0
220
0
230
1
0
LINE
5
F1
100
AcDbEntity
8
SK1
62
256
6
ByLayer
370
18
48
1
60
0
100
AcDbLine
10
-0.324519
20
14.648035
30
0
11
-0.324519
21
13.534838
31
0
39
0
210
0
220
0
230
1
0
LINE
5
F2
100
AcDbEntity
8
SK1
62
256
6
ByLayer
370
18
48
1
60
0
100
AcDbLine
10
-0.324519
20
18.434491
30
0
11
-0.324519
21
18.483753
31
0
39
0
210
0
220
0
230
1
0
LINE
5
F3
100
AcDbEntity
8
SK1
62
256
6
ByLayer
370
18
48
1
60
0
100
AcDbLine
10
-0.249519
20
18.479011
30
0
11
-0.249519
21
18.181643
31
0
39
0
210
0
220
0
230
1
0
LINE
5
F4
100
AcDbEntity
8
SK1
62
256
6
ByLayer
370
18
48
1
60
0
100
AcDbLine
10
0
20
18.487711
30
0
11
0
21
18.699503
31
0
39
0
210
0
220
0
230
1
0
LINE
5
F5
100
AcDbEntity
8
SK1
62
256
6
ByLayer
370
18
48
1
60
0
100
AcDbLine
10
0
20
18.699503
30
0
11
0
21
18.879126
31
0
39
0
210
0
220
0
230
1
0
LINE
5
F6
100
AcDbEntity
8
SK1
62
256
6
ByLayer
370
18
48
1
60
0
100
AcDbLine
10
-0.324519
20
18.434491
30
0
11
-0.324519
21
18.060966
31
0
39
0
210
0
220
0
230
1
0
LINE
5
F7
100
AcDbEntity
8
SK1
62
256
6
ByLayer
370
18
48
1
60
0
100
AcDbLine
10
-0.324519
20
16.678463
30
0
11
-0.324519
21
16.787151
31
0
39
0
210
0
220
0
230
1
0
LINE
5
F8
100
AcDbEntity
8
SK1
62
256
6
ByLayer
370
18
48
1
60
0
100
AcDbLine
10
0
20
16.898119
30
0
11
0
21
16.459648
31
0
39
0
210
0
220
0
230
1
0
LINE
5
F9
100
AcDbEntity
8
SK1
62
256
6
ByLayer
370
18
48
1
60
0
100
AcDbLine
10
0
20
16.898119
30
0
11
0
21
17.292958
31
0
39
0
210
0
220
0
230
1
0
LINE
5
FA
100
AcDbEntity
8
SK1
62
256
6
ByLayer
370
18
48
1
60
0
100
AcDbLine
10
-0.324519
20
16.678463
30
0
11
-0.324519
21
15.901587
31
0
39
0
210
0
220
0
230
1
0
LINE
5
FB
100
AcDbEntity
8
SK1
62
256
6
ByLayer
370
18
48
1
60
0
100
AcDbLine
10
-0.249519
20
16.692674
30
0
11
-0.249519
21
16.074887
31
0
39
0
210
0
220
0
230
1
0
LINE
5
FC
100
AcDbEntity
8
SK1
62
256
6
ByLayer
370
18
48
1
60
0
100
AcDbLine
10
0
20
-19.291745
30
0
11
0
21
-19.233341
31
0
39
0
210
0
220
0
230
1
0
LINE
5
FD
100
AcDbEntity
8
SK1
62
256
6
ByLayer
370
18
48
1
60
0
100
AcDbLine
10
-0.324519
20
-18.780129
30
0
11
-0.324519
21
-18.932424
31
0
39
0
210
0
220
0
230
1
0
LINE
5
FE
100
AcDbEntity
8
SK1
62
256
6
ByLayer
370
18
48
1
60
0
100
AcDbLine
10
-0.324519
20
-18.948427
30
0
11
-0.324519
21
-18.932424
31
0
39
0
210
0
220
0
230
1
0
LINE
5
FF
100
AcDbEntity
8
SK1
62
256
6
ByLayer
370
18
48
1
60
0
100
AcDbLine
10
0
20
-19.233341
30
0
11
0
21
-19.145255
31
0
39
0
210
0
220
0
230
1
0
LINE
5
100
100
AcDbEntity
8
SK1
62
256
6
ByLayer
370
18
48
1
60
0
100
AcDbLine
10
-0.249519
20
-18.872911
30
0
11
-0.249519
21
-18.996302
31
0
39
0
210
0
220
0
230
1
0
LINE
5
101
100
AcDbEntity
8
SK1
62
256
6
ByLayer
370
18
48
1
60
0
100
AcDbLine
10
-0.249519
20
-16.939826
30
0
11
-0.249519
21
-17.438125
31
0
39
0
210
0
220
0
230
1
0
LINE
5
102
100
AcDbEntity
8
SK1
62
256
6
ByLayer
370
18
48
1
60
0
100
AcDbLine
10
0
20
-17.647136
30
0
11
0
21
-17.292952
31
0
39
0
210
0
220
0
230
1
0
LINE
5
103
100
AcDbEntity
8
SK1
62
256
6
ByLayer
370
18
48
1
60
0
100
AcDbLine
10
-0.324519
20
-16.787098
30
0
11
-0.324519
21
-17.413335
31
0
39
0
210
0
220
0
230
1
0
LINE
5
104
100
AcDbEntity
8
SK1
62
256
6
ByLayer
370
18
48
1
60
0
100
AcDbLine
10
-0.324519
20
-17.500152
30
0
11
-0.324519
21
-17.413335
31
0
39
0
210
0
220
0
230
1
0
LINE
5
105
100
AcDbEntity
8
SK1
62
256
6
ByLayer
370
18
48
1
60
0
100
AcDbLine
10
0
20
-17.963057
30
0
11
0
21
-17.647136
31
0
39
0
210
0
220
0
230
1
0
LINE
5
106
100
AcDbEntity
8
SK1
62
256
6
ByLayer
370
18
48
1
60
0
100
AcDbLine
10
-0.249519
20
13.240729
30
0
11
-0.249519
21
12.071893
31
0
39
0
210
0
220
0
230
1
0
LINE
5
107
100
AcDbEntity
8
SK1
62
256
6
ByLayer
370
18
48
1
60
0
100
AcDbLine
10
-0.324519
20
-13.470997
30
0
11
-0.324519
21
-13.266944
31
0
39
0
210
0
220
0
230
1
0
LINE
5
108
100
AcDbEntity
8
SK1
62
256
6
ByLayer
370
18
48
1
60
0
100
AcDbLine
10
0
20
-13.450703
30
0
11
0
21
-12.631051
31
0
39
0
210
0
220
0
230
1
0
LINE
5
109
100
AcDbEntity
8
SK1
62
256
6
ByLayer
370
18
48
1
60
0
100
AcDbLine
10
0
20
12.631051
30
0
11
0
21
13.450703
31
0
39
0
210
0
220
0
230
1
0
LINE
5
10A
100
AcDbEntity
8
SK1
62
256
6
ByLayer
370
18
48
1
60
0
100
AcDbLine
10
-0.324519
20
13.266944
30
0
11
-0.324519
21
13.470997
31
0
39
0
210
0
220
0
230
1
0
LINE
5
10B
100
AcDbEntity
8
SK1
62
256
6
ByLayer
370
18
48
1
60
0
100
AcDbLine
10
-0.249519
20
-12.071893
30
0
11
-0.249519
21
-13.240729
31
0
39
0
210
0
220
0
230
1
0
LINE
5
10C
100
AcDbEntity
8
SK1
62
256
6
ByLayer
370
18
48
1
60
0
100
AcDbLine
10
-0.324519
20
-11.987818
30
0
11
-0.324519
21
-13.266944
31
0
39
0
210
0
220
0
230
1
0
LINE
5
10D
100
AcDbEntity
8
SK1
62
256
6
ByLayer
370
18
48
1
60
0
100
AcDbLine
10
-0.324519
20
13.266944
30
0
11
-0.324519
21
11.987818
31
0
39
0
210
0
220
0
230
1
0
LINE
5
10E
100
AcDbEntity
8
SK1
62
256
6
ByLayer
370
18
48
1
60
0
100
AcDbLine
10
0
20
-14.183491
30
0
11
0
21
-13.450703
31
0
39
0
210
0
220
0
230
1
0
LINE
5
10F
100
AcDbEntity
8
SK1
62
256
6
ByLayer
370
18
48
1
60
0
100
AcDbLine
10
0
20
13.450703
30
0
11
0
21
14.183491
31
0
39
0
210
0
220
0
230
1
0
LINE
5
110
100
AcDbEntity
8
SK1
62
256
6
ByLayer
370
18
48
1
60
0
100
AcDbLine
10
-0.324519
20
5.775161
30
0
11
-0.324519
21
6.373939
31
0
39
0
210
0
220
0
230
1
0
LINE
5
111
100
AcDbEntity
8
SK1
62
256
6
ByLayer
370
18
48
1
60
0
100
AcDbLine
10
0
20
5.98301
30
0
11
0
21
2.769573
31
0
39
0
210
0
220
0
230
1
0
LINE
5
112
100
AcDbEntity
8
SK1
62
256
6
ByLayer
370
18
48
1
60
0
100
AcDbLine
10
0
20
-2.769573
30
0
11
0
21
-5.98301
31
0
39
0
210
0
220
0
230
1
0
LINE
5
113
100
AcDbEntity
8
SK1
62
256
6
ByLayer
370
18
48
1
60
0
100
AcDbLine
10
-0.324519
20
5.775161
30
0
11
-0.324519
21
-5.775161
31
0
39
0
210
0
220
0
230
1
0
LINE
5
114
100
AcDbEntity
8
SK1
62
256
6
ByLayer
370
18
48
1
60
0
100
AcDbLine
10
0
20
5.98301
30
0
11
0
21
7.924419
31
0
39
0
210
0
220
0
230
1
0
LINE
5
115
100
AcDbEntity
8
SK1
62
256
6
ByLayer
370
18
48
1
60
0
100
AcDbLine
10
0
20
-7.924419
30
0
11
0
21
-5.98301
31
0
39
0
210
0
220
0
230
1
0
LINE
5
116
100
AcDbEntity
8
SK1
62
256
6
ByLayer
370
18
48
1
60
0
100
AcDbLine
10
-0.324519
20
-6.373939
30
0
11
-0.324519
21
-5.775161
31
0
39
0
210
0
220
0
230
1
0
LINE
5
117
100
AcDbEntity
8
SK1
62
256
6
ByLayer
370
18
48
1
60
0
100
AcDbLine
10
-0.249519
20
5.611457
30
0
11
-0.249519
21
-5.611457
31
0
39
0
210
0
220
0
230
1
0
LINE
5
118
100
AcDbEntity
8
SK1
62
256
6
ByLayer
370
18
48
1
60
0
100
AcDbLine
10
0
20
19.233341
30
0
11
0
21
19.291745
31
0
39
0
210
0
220
0
230
1
0
LINE
5
119
100
AcDbEntity
8
SK1
62
256
6
ByLayer
370
18
48
1
60
0
100
AcDbLine
10
-0.324519
20
18.932424
30
0
11
-0.324519
21
18.777531
31
0
39
0
210
0
220
0
230
1
0
LINE
5
11A
100
AcDbEntity
8
SK1
62
256
6
ByLayer
370
18
48
1
60
0
100
AcDbLine
10
-0.249519
20
18.996302
30
0
11
-0.249519
21
18.872911
31
0
39
0
210
0
220
0
230
1
0
LINE
5
11B
100
AcDbEntity
8
SK1
62
256
6
ByLayer
370
18
48
1
60
0
100
AcDbLine
10
-0.324519
20
18.932424
30
0
11
-0.324519
21
18.948427
31
0
39
0
210
0
220
0
230
1
0
LINE
5
11C
100
AcDbEntity
8
SK1
62
256
6
ByLayer
370
18
48
1
60
0
100
AcDbLine
10
0
20
19.145255
30
0
11
0
21
19.233341
31
0
39
0
210
0
220
0
230
1
0
LINE
5
11D
100
AcDbEntity
8
1
62
256
6
ByLayer
370
18
48
1
60
0
100
AcDbLine
10
8.361074
20
11.854999
30
0
11
8.361074
21
19.866857
31
0
39
0
210
0
220
0
230
1
0
LINE
5
11E
100
AcDbEntity
8
1
62
256
6
ByLayer
370
18
48
1
60
0
100
AcDbLine
10
0
20
-15.974086
30
0
11
0
21
-15.43684
31
0
39
0
210
0
220
0
230
1
0
LINE
5
11F
100
AcDbEntity
8
1
62
256
6
ByLayer
370
18
48
1
60
0
100
AcDbLine
10
0
20
19.027517
30
0
11
0
21
19.145402
31
0
39
0
210
0
220
0
230
1
0
LINE
5
120
100
AcDbEntity
8
1
62
256
6
ByLayer
370
18
48
1
60
0
100
AcDbLine
10
0
20
15.974086
30
0
11
0
21
16.459691
31
0
39
0
210
0
220
0
230
1
0
LINE
5
121
100
AcDbEntity
8
1
62
256
6
ByLayer
370
18
48
1
60
0
100
AcDbLine
10
0
20
-10.649949
30
0
11
0
21
-9.41655
31
0
39
0
210
0
220
0
230
1
0
LINE
5
122
100
AcDbEntity
8
1
62
256
6
ByLayer
370
18
48
1
60
0
100
AcDbLine
10
0.394519
20
-19.329996
30
0
11
0.394519
21
-19.387121
31
0
39
0
210
0
220
0
230
1
0
LINE
5
123
100
AcDbEntity
8
1
62
256
6
ByLayer
370
18
48
1
60
0
100
AcDbLine
10
19.75798
20
20.0993
30
0
11
19.558119
21
20.018467
31
0
39
0
210
0
220
0
230
1
0
LINE
5
124
100
AcDbEntity
8
1
62
256
6
ByLayer
370
18
48
1
60
0
100
AcDbLine
10
0.394519
20
18.580738
30
0
11
0.394519
21
18.473429
31
0
39
0
210
0
220
0
230
1
0
LINE
5
125
100
AcDbEntity
8
1
62
256
6
ByLayer
370
18
48
1
60
0
100
AcDbLine
10
0.394519
20
15.166097
30
0
11
0.394519
21
14.916479
31
0
39
0
210
0
220
0
230
1
0
LINE
5
126
100
AcDbEntity
8
1
62
256
6
ByLayer
370
18
48
1
60
0
100
AcDbLine
10
0.394519
20
13.782314
30
0
11
0.394519
21
13.474366
31
0
39
0
210
0
220
0
230
1
0
LINE
5
127
100
AcDbEntity
8
1
62
256
6
ByLayer
370
18
48
1
60
0
100
AcDbLine
10
0.394519
20
-13.474366
30
0
11
0.394519
21
-13.782314
31
0
39
0
210
0
220
0
230
1
0
LINE
5
128
100
AcDbEntity
8
1
62
256
6
ByLayer
370
18
48
1
60
0
100
AcDbLine
10
19.759199
20
20.098238
30
0
11
20.025875
21
20.236454
31
0
39
0
210
0
220
0
230
1
0
LINE
5
129
100
AcDbEntity
8
1
62
256
6
ByLayer
370
18
48
1
60
0
100
AcDbLine
10
0
20
-17.292958
30
0
11
0
21
-16.898119
31
0
39
0
210
0
220
0
230
1
0
LINE
5
12A
100
AcDbEntity
8
1
62
256
6
ByLayer
370
18
48
1
60
0
100
AcDbLine
10
17.787631
20
19.131149
30
0
11
18.88207
21
18.039097
31
0
39
0
210
0
220
0
230
1
0
LINE
5
12B
100
AcDbEntity
8
1
62
256
6
ByLayer
370
18
48
1
60
0
100
AcDbLine
10
23.164971
20
13.765537
30
0
11
24.350365
21
12.582728
31
0
39
0
210
0
220
0
230
1
0
LINE
5
12C
100
AcDbEntity
8
1
62
256
6
ByLayer
370
18
48
1
60
0
100
AcDbLine
10
19.558119
20
20.018467
30
0
11
18.716179
21
19.612407
31
0
39
0
210
0
220
0
230
1
0
LINE
5
12D
100
AcDbEntity
8
1
62
256
6
ByLayer
370
18
48
1
60
0
100
AcDbLine
10
0.394519
20
-18.965995
30
0
11
0.394519
21
-19.047366
31
0
39
0
210
0
220
0
230
1
0
LINE
5
12E
100
AcDbEntity
8
1
62
256
6
ByLayer
370
18
48
1
60
0
100
AcDbLine
10
19.558119
20
20.018467
30
0
11
19.791263
21
19.785832
31
0
39
0
210
0
220
0
230
1
0
LINE
5
12F
100
AcDbEntity
8
1
62
256
6
ByLayer
370
18
48
1
60
0
100
AcDbLine
10
13.819899
20
10.896395
30
0
11
14.029167
21
11.298395
31
0
39
0
210
0
220
0
230
1
0
LINE
5
130
100
AcDbEntity
8
1
62
256
6
ByLayer
370
18
48
1
60
0
100
AcDbLine
10
0.394519
20
-16.091699
30
0
11
0.394519
21
-16.296283
31
0
39
0
210
0
220
0
230
1
0
LINE
5
131
100
AcDbEntity
8
1
62
256
6
ByLayer
370
18
48
1
60
0
100
AcDbLine
10
0
20
-19.291645
30
0
11
0
21
-19.32088
31
0
39
0
210
0
220
0
230
1
0
LINE
5
132
100
AcDbEntity
8
1
62
256
6
ByLayer
370
18
48
1
60
0
100
AcDbLine
10
0
20
-18.879126
30
0
11
0
21
-18.699503
31
0
39
0
210
0
220
0
230
1
0
LINE
5
133
100
AcDbEntity
8
1
62
256
6
ByLayer
370
18
48
1
60
0
100
AcDbLine
10
0
20
14.842386
30
0
11
0
21
14.183485
31
0
39
0
210
0
220
0
230
1
0
LINE
5
134
100
AcDbEntity
8
1
62
256
6
ByLayer
370
18
48
1
60
0
100
AcDbLine
10
16.609377
20
18.559578
30
0
11
18.283481
21
16.889125
31
0
39
0
210
0
220
0
230
1
0
LINE
5
135
100
AcDbEntity
8
1
62
256
6
ByLayer
370
18
48
1
60
0
100
AcDbLine
10
22.031661
20
13.149119
30
0
11
23.751744
21
11.432788
31
0
39
0
210
0
220
0
230
1
0
LINE
5
136
100
AcDbEntity
8
1
62
256
6
ByLayer
370
18
48
1
60
0
100
AcDbLine
10
0
20
18.487711
30
0
11
0
21
18.699503
31
0
39
0
210
0
220
0
230
1
0
LINE
5
137
100
AcDbEntity
8
1
62
256
6
ByLayer
370
18
48
1
60
0
100
AcDbLine
10
0
20
-17.963057
30
0
11
0
21
-17.647136
31
0
39
0
210
0
220
0
230
1
0
LINE
5
138
100
AcDbEntity
8
1
62
256
6
ByLayer
370
18
48
1
60
0
100
AcDbLine
10
0.394519
20
19.387121
30
0
11
0.394519
21
19.329996
31
0
39
0
210
0
220
0
230
1
0
LINE
5
139
100
AcDbEntity
8
1
62
256
6
ByLayer
370
18
48
1
60
0
100
AcDbLine
10
0
20
-19.233341
30
0
11
0
21
-19.145255
31
0
39
0
210
0
220
0
230
1
0
LINE
5
13A
100
AcDbEntity
8
1
62
256
6
ByLayer
370
18
48
1
60
0
100
AcDbLine
10
0.394519
20
-17.055333
30
0
11
0.394519
21
-17.222867
31
0
39
0
210
0
220
0
230
1
0
LINE
5
13B
100
AcDbEntity
8
1
62
256
6
ByLayer
370
18
48
1
60
0
100
AcDbLine
10
25.355695
20
14.513948
30
0
11
25.606707
21
14.996137
31
0
39
0
210
0
220
0
230
1
0
LINE
5
13C
100
AcDbEntity
8
1
62
256
6
ByLayer
370
18
48
1
60
0
100
AcDbLine
10
7.05
20
-15.102633
30
0
11
7.05
21
-12.562419
31
0
39
0
210
0
220
0
230
1
0
LINE
5
13D
100
AcDbEntity
8
1
62
256
6
ByLayer
370
18
48
1
60
0
100
AcDbLine
10
16.873856
20
18.670624
30
0
11
18.411859
21
17.135976
31
0
39
0
210
0
220
0
230
1
0
LINE
5
13E
100
AcDbEntity
8
1
62
256
6
ByLayer
370
18
48
1
60
0
100
AcDbLine
10
22.272904
20
13.283352
30
0
11
23.880204
21
11.679557
31
0
39
0
210
0
220
0
230
1
0
LINE
5
13F
100
AcDbEntity
8
1
62
256
6
ByLayer
370
18
48
1
60
0
100
AcDbLine
10
24.928356
20
14.659942
30
0
11
25.259624
21
14.329397
31
0
39
0
210
0
220
0
230
1
0
LINE
5
140
100
AcDbEntity
8
1
62
256
6
ByLayer
370
18
48
1
60
0
100
AcDbLine
10
0.394519
20
19.047366
30
0
11
0.394519
21
18.965995
31
0
39
0
210
0
220
0
230
1
0
LINE
5
141
100
AcDbEntity
8
1
62
256
6
ByLayer
370
18
48
1
60
0
100
AcDbLine
10
25.117634
20
14.751335
30
0
11
25.355642
21
14.513847
31
0
39
0
210
0
220
0
230
1
0
LINE
5
142
100
AcDbEntity
8
1
62
256
6
ByLayer
370
18
48
1
60
0
100
AcDbLine
10
7.05
20
-20
30
0
11
7.05
21
-17.758585
31
0
39
0
210
0
220
0
230
1
0
LINE
5
143
100
AcDbEntity
8
1
62
256
6
ByLayer
370
18
48
1
60
0
100
AcDbLine
10
0
20
11.706682
30
0
11
0
21
12.631168
31
0
39
0
210
0
220
0
230
1
0
LINE
5
144
100
AcDbEntity
8
1
62
256
6
ByLayer
370
18
48
1
60
0
100
AcDbLine
10
0
20
-2.769731
30
0
11
0
21
2.769731
31
0
39
0
210
0
220
0
230
1
0
LINE
5
145
100
AcDbEntity
8
1
62
256
6
ByLayer
370
18
48
1
60
0
100
AcDbLine
10
0.394519
20
-14.916479
30
0
11
0.394519
21
-15.166097
31
0
39
0
210
0
220
0
230
1
0
LINE
5
146
100
AcDbEntity
8
1
62
256
6
ByLayer
370
18
48
1
60
0
100
AcDbLine
10
15.992428
20
8.738798
30
0
11
17.97247
21
10.714508
31
0
39
0
210
0
220
0
230
1
0
LINE
5
147
100
AcDbEntity
8
1
62
256
6
ByLayer
370
18
48
1
60
0
100
AcDbLine
10
18.402449
20
11.017202
30
0
11
18.846601
21
11.219177
31
0
39
0
210
0
220
0
230
1
0
LINE
5
148
100
AcDbEntity
8
1
62
256
6
ByLayer
370
18
48
1
60
0
100
AcDbLine
10
13.819899
20
10.896395
30
0
11
15.795105
21
12.867281
31
0
39
0
210
0
220
0
230
1
0
LINE
5
149
100
AcDbEntity
8
1
62
256
6
ByLayer
370
18
48
1
60
0
100
AcDbLine
10
24.350365
20
12.582728
30
0
11
24.83268
21
13.509246
31
0
39
0
210
0
220
0
230
1
0
LINE
5
14A
100
AcDbEntity
8
1
62
256
6
ByLayer
370
18
48
1
60
0
100
AcDbLine
10
0.394519
20
12.057937
30
0
11
0.394519
21
11.666808
31
0
39
0
210
0
220
0
230
1
0
LINE
5
14B
100
AcDbEntity
8
1
62
256
6
ByLayer
370
18
48
1
60
0
100
AcDbLine
10
0.394519
20
-11.666808
30
0
11
0.394519
21
-12.057937
31
0
39
0
210
0
220
0
230
1
0
LINE
5
14C
100
AcDbEntity
8
1
62
256
6
ByLayer
370
18
48
1
60
0
100
AcDbLine
10
22.001715
20
8.071013
30
0
11
23.751744
21
11.432788
31
0
39
0
210
0
220
0
230
1
0
LINE
5
14D
100
AcDbEntity
8
1
62
256
6
ByLayer
370
18
48
1
60
0
100
AcDbLine
10
14.032693
20
9.042428
30
0
11
14.073485
21
9.001725
31
0
39
0
210
0
220
0
230
1
0
LINE
5
14E
100
AcDbEntity
8
1
62
256
6
ByLayer
370
18
48
1
60
0
100
AcDbLine
10
0
20
-17.647136
30
0
11
0
21
-17.292952
31
0
39
0
210
0
220
0
230
1
0
LINE
5
14F
100
AcDbEntity
8
1
62
256
6
ByLayer
370
18
48
1
60
0
100
AcDbLine
10
10.836453
20
-4.727125
30
0
11
7.4497
21
-4.727125
31
0
39
0
210
0
220
0
230
1
0
LINE
5
150
100
AcDbEntity
8
1
62
256
6
ByLayer
370
18
48
1
60
0
100
AcDbLine
10
0
20
-19.291745
30
0
11
0
21
-19.233341
31
0
39
0
210
0
220
0
230
1
0
LINE
5
151
100
AcDbEntity
8
1
62
256
6
ByLayer
370
18
48
1
60
0
100
AcDbLine
10
0
20
15.43684
30
0
11
0
21
15.974086
31
0
39
0
210
0
220
0
230
1
0
LINE
5
152
100
AcDbEntity
8
1
62
256
6
ByLayer
370
18
48
1
60
0
100
AcDbLine
10
15.795105
20
12.867281
30
0
11
16.004373
21
13.269281
31
0
39
0
210
0
220
0
230
1
0
LINE
5
153
100
AcDbEntity
8
1
62
256
6
ByLayer
370
18
48
1
60
0
100
AcDbLine
10
23.751744
20
11.432788
30
0
11
23.880204
21
11.679557
31
0
39
0
210
0
220
0
230
1
0
LINE
5
154
100
AcDbEntity
8
1
62
256
6
ByLayer
370
18
48
1
60
0
100
AcDbLine
10
0
20
19.027517
30
0
11
0
21
18.879049
31
0
39
0
210
0
220
0
230
1
0
LINE
5
155
100
AcDbEntity
8
1
62
256
6
ByLayer
370
18
48
1
60
0
100
AcDbLine
10
0
20
-19.145402
30
0
11
0
21
-19.027517
31
0
39
0
210
0
220
0
230
1
0
LINE
5
156
100
AcDbEntity
8
1
62
256
6
ByLayer
370
18
48
1
60
0
100
AcDbLine
10
0
20
18.242708
30
0
11
0
21
18.487737
31
0
39
0
210
0
220
0
230
1
0
LINE
5
157
100
AcDbEntity
8
1
62
256
6
ByLayer
370
18
48
1
60
0
100
AcDbLine
10
11.899037
20
18.151587
30
0
11
16.273636
21
13.786529
31
0
39
0
210
0
220
0
230
1
0
LINE
5
158
100
AcDbEntity
8
1
62
256
6
ByLayer
370
18
48
1
60
0
100
AcDbLine
10
25.259624
20
14.329397
30
0
11
24.83268
21
13.509246
31
0
39
0
210
0
220
0
230
1
0
LINE
5
159
100
AcDbEntity
8
1
62
256
6
ByLayer
370
18
48
1
60
0
100
AcDbLine
10
0
20
-15.436852
30
0
11
0
21
-14.842386
31
0
39
0
210
0
220
0
230
1
0
LINE
5
15A
100
AcDbEntity
8
1
62
256
6
ByLayer
370
18
48
1
60
0
100
AcDbLine
10
18.716179
20
19.612407
30
0
11
19.364337
21
18.965662
31
0
39
0
210
0
220
0
230
1
0
LINE
5
15B
100
AcDbEntity
8
1
62
256
6
ByLayer
370
18
48
1
60
0
100
AcDbLine
10
24.093348
20
14.246965
30
0
11
24.83268
21
13.509246
31
0
39
0
210
0
220
0
230
1
0
LINE
5
15C
100
AcDbEntity
8
1
62
256
6
ByLayer
370
18
48
1
60
0
100
AcDbLine
10
0
20
-18.699503
30
0
11
0
21
-18.487711
31
0
39
0
210
0
220
0
230
1
0
LINE
5
15D
100
AcDbEntity
8
1
62
256
6
ByLayer
370
18
48
1
60
0
100
AcDbLine
10
0.394519
20
19.606601
30
0
11
0.394519
21
19.57263
31
0
39
0
210
0
220
0
230
1
0
LINE
5
15E
100
AcDbEntity
8
1
62
256
6
ByLayer
370
18
48
1
60
0
100
AcDbLine
10
16.004373
20
13.269281
30
0
11
14.029167
21
11.298395
31
0
39
0
210
0
220
0
230
1
0
LINE
5
15F
100
AcDbEntity
8
1
62
256
6
ByLayer
370
18
48
1
60
0
100
AcDbLine
10
22.001691
20
8.070967
30
0
11
21.780656
21
7.646362
31
0
39
0
210
0
220
0
230
1
0
LINE
5
160
100
AcDbEntity
8
1
62
256
6
ByLayer
370
18
48
1
60
0
100
AcDbLine
10
0.394519
20
17.97736
30
0
11
0.394519
21
17.841722
31
0
39
0
210
0
220
0
230
1
0
LINE
5
161
100
AcDbEntity
8
1
62
256
6
ByLayer
370
18
48
1
60
0
100
AcDbLine
10
0
20
-18.879049
30
0
11
0
21
-19.027517
31
0
39
0
210
0
220
0
230
1
0
LINE
5
162
100
AcDbEntity
8
1
62
256
6
ByLayer
370
18
48
1
60
0
100
AcDbLine
10
0.394519
20
6.540428
30
0
11
0.394519
21
5.633353
31
0
39
0
210
0
220
0
230
1
0
LINE
5
163
100
AcDbEntity
8
1
62
256
6
ByLayer
370
18
48
1
60
0
100
AcDbLine
10
0.394519
20
-5.633353
30
0
11
0.394519
21
-6.540428
31
0
39
0
210
0
220
0
230
1
0
LINE
5
164
100
AcDbEntity
8
1
62
256
6
ByLayer
370
18
48
1
60
0
100
AcDbLine
10
0
20
11.706682
30
0
11
0
21
10.649788
31
0
39
0
210
0
220
0
230
1
0
LINE
5
165
100
AcDbEntity
8
1
62
256
6
ByLayer
370
18
48
1
60
0
100
AcDbLine
10
0
20
-10.649788
30
0
11
0
21
-11.706682
31
0
39
0
210
0
220
0
230
1
0
LINE
5
166
100
AcDbEntity
8
1
62
256
6
ByLayer
370
18
48
1
60
0
100
AcDbLine
10
11.566444
20
17.838298
30
0
11
11.899037
21
18.151587
31
0
39
0
210
0
220
0
230
1
0
LINE
5
167
100
AcDbEntity
8
1
62
256
6
ByLayer
370
18
48
1
60
0
100
AcDbLine
10
0
20
-14.183485
30
0
11
0
21
-14.842386
31
0
39
0
210
0
220
0
230
1
0
LINE
5
168
100
AcDbEntity
8
1
62
256
6
ByLayer
370
18
48
1
60
0
100
AcDbLine
10
0
20
18.699503
30
0
11
0
21
18.879126
31
0
39
0
210
0
220
0
230
1
0
LINE
5
169
100
AcDbEntity
8
1
62
256
6
ByLayer
370
18
48
1
60
0
100
AcDbLine
10
0
20
16.898119
30
0
11
0
21
17.292958
31
0
39
0
210
0
220
0
230
1
0
LINE
5
16A
100
AcDbEntity
8
1
62
256
6
ByLayer
370
18
48
1
60
0
100
AcDbLine
10
0
20
19.233341
30
0
11
0
21
19.291745
31
0
39
0
210
0
220
0
230
1
0
LINE
5
16B
100
AcDbEntity
8
1
62
256
6
ByLayer
370
18
48
1
60
0
100
AcDbLine
10
0
20
-13.450703
30
0
11
0
21
-12.631051
31
0
39
0
210
0
220
0
230
1
0
LINE
5
16C
100
AcDbEntity
8
1
62
256
6
ByLayer
370
18
48
1
60
0
100
AcDbLine
10
0
20
12.631051
30
0
11
0
21
13.450703
31
0
39
0
210
0
220
0
230
1
0
LINE
5
16D
100
AcDbEntity
8
1
62
256
6
ByLayer
370
18
48
1
60
0
100
AcDbLine
10
0
20
-12.631168
30
0
11
0
21
-11.706682
31
0
39
0
210
0
220
0
230
1
0
LINE
5
16E
100
AcDbEntity
8
1
62
256
6
ByLayer
370
18
48
1
60
0
100
AcDbLine
10
0
20
-7.924419
30
0
11
0
21
-5.98301
31
0
39
0
210
0
220
0
230
1
0
LINE
5
16F
100
AcDbEntity
8
1
62
256
6
ByLayer
370
18
48
1
60
0
100
AcDbLine
10
18.309598
20
10.969084
30
0
11
16.334391
21
8.998198
31
0
39
0
210
0
220
0
230
1
0
LINE
5
170
100
AcDbEntity
8
1
62
256
6
ByLayer
370
18
48
1
60
0
100
AcDbLine
10
0
20
-14.183491
30
0
11
0
21
-13.450703
31
0
39
0
210
0
220
0
230
1
0
LINE
5
171
100
AcDbEntity
8
1
62
256
6
ByLayer
370
18
48
1
60
0
100
AcDbLine
10
0
20
-19.324519
30
0
11
0
21
-19.32088
31
0
39
0
210
0
220
0
230
1
0
LINE
5
172
100
AcDbEntity
8
1
62
256
6
ByLayer
370
18
48
1
60
0
100
AcDbLine
10
7.4497
20
-4.727125
30
0
11
7.4497
21
4.727125
31
0
39
0
210
0
220
0
230
1
0
LINE
5
173
100
AcDbEntity
8
1
62
256
6
ByLayer
370
18
48
1
60
0
100
AcDbLine
10
0
20
17.647136
30
0
11
0
21
17.963057
31
0
39
0
210
0
220
0
230
1
0
LINE
5
174
100
AcDbEntity
8
1
62
256
6
ByLayer
370
18
48
1
60
0
100
AcDbLine
10
0
20
16.898119
30
0
11
0
21
16.459648
31
0
39
0
210
0
220
0
230
1
0
LINE
5
175
100
AcDbEntity
8
1
62
256
6
ByLayer
370
18
48
1
60
0
100
AcDbLine
10
0
20
-17.963025
30
0
11
0
21
-18.242708
31
0
39
0
210
0
220
0
230
1
0
LINE
5
176
100
AcDbEntity
8
1
62
256
6
ByLayer
370
18
48
1
60
0
100
AcDbLine
10
0.675481
20
-20
30
0
11
0.675481
21
20
31
0
39
0
210
0
220
0
230
1
0
LINE
5
177
100
AcDbEntity
8
1
62
256
6
ByLayer
370
18
48
1
60
0
100
AcDbLine
10
0
20
19.145255
30
0
11
0
21
19.233341
31
0
39
0
210
0
220
0
230
1
0
LINE
5
178
100
AcDbEntity
8
1
62
256
6
ByLayer
370
18
48
1
60
0
100
AcDbLine
10
0
20
-9.41655
30
0
11
0
21
-7.924321
31
0
39
0
210
0
220
0
230
1
0
LINE
5
179
100
AcDbEntity
8
1
62
256
6
ByLayer
370
18
48
1
60
0
100
AcDbLine
10
0
20
7.924321
30
0
11
0
21
9.41655
31
0
39
0
210
0
220
0
230
1
0
LINE
5
17A
100
AcDbEntity
8
1
62
256
6
ByLayer
370
18
48
1
60
0
100
AcDbLine
10
0.394519
20
-19.57263
30
0
11
0.394519
21
-19.606601
31
0
39
0
210
0
220
0
230
1
0
LINE
5
17B
100
AcDbEntity
8
1
62
256
6
ByLayer
370
18
48
1
60
0
100
AcDbLine
10
0
20
-16.459691
30
0
11
0
21
-15.974086
31
0
39
0
210
0
220
0
230
1
0
LINE
5
17C
100
AcDbEntity
8
1
62
256
6
ByLayer
370
18
48
1
60
0
100
AcDbLine
10
15.950299
20
12.732268
30
0
11
13.953377
21
10.739715
31
0
39
0
210
0
220
0
230
1
0
LINE
5
17D
100
AcDbEntity
8
1
62
256
6
ByLayer
370
18
48
1
60
0
100
AcDbLine
10
0.394519
20
-17.841722
30
0
11
0.394519
21
-17.97736
31
0
39
0
210
0
220
0
230
1
0
LINE
5
17E
100
AcDbEntity
8
1
62
256
6
ByLayer
370
18
48
1
60
0
100
AcDbLine
10
17.787631
20
19.131149
30
0
11
18.716179
21
19.612407
31
0
39
0
210
0
220
0
230
1
0
LINE
5
17F
100
AcDbEntity
8
1
62
256
6
ByLayer
370
18
48
1
60
0
100
AcDbLine
10
0.394519
20
9.815066
30
0
11
0.394519
21
9.282906
31
0
39
0
210
0
220
0
230
1
0
LINE
5
180
100
AcDbEntity
8
1
62
256
6
ByLayer
370
18
48
1
60
0
100
AcDbLine
10
0.394519
20
-9.282906
30
0
11
0.394519
21
-9.815066
31
0
39
0
210
0
220
0
230
1
0
LINE
5
181
100
AcDbEntity
8
1
62
256
6
ByLayer
370
18
48
1
60
0
100
AcDbLine
10
17.97247
20
10.714508
30
0
11
18.143098
21
10.802943
31
0
39
0
210
0
220
0
230
1
0
LINE
5
182
100
AcDbEntity
8
1
62
256
6
ByLayer
370
18
48
1
60
0
100
AcDbLine
10
16.321303
20
13.444961
30
0
11
15.950299
21
12.732268
31
0
39
0
210
0
220
0
230
1
0
LINE
5
183
100
AcDbEntity
8
1
62
256
6
ByLayer
370
18
48
1
60
0
100
AcDbLine
10
23.880204
20
11.679557
30
0
11
24.350365
21
12.582728
31
0
39
0
210
0
220
0
230
1
0
LINE
5
184
100
AcDbEntity
8
1
62
256
6
ByLayer
370
18
48
1
60
0
100
AcDbLine
10
0.394519
20
-19.698479
30
0
11
0.394519
21
-19.709823
31
0
39
0
210
0
220
0
230
1
0
LINE
5
185
100
AcDbEntity
8
1
62
256
6
ByLayer
370
18
48
1
60
0
100
AcDbLine
10
0
20
18.242708
30
0
11
0
21
17.963025
31
0
39
0
210
0
220
0
230
1
0
LINE
5
186
100
AcDbEntity
8
1
62
256
6
ByLayer
370
18
48
1
60
0
100
AcDbLine
10
0.394519
20
19.709823
30
0
11
0.394519
21
19.698479
31
0
39
0
210
0
220
0
230
1
0
LINE
5
187
100
AcDbEntity
8
1
62
256
6
ByLayer
370
18
48
1
60
0
100
AcDbLine
10
12.367534
20
19.731196
30
0
11
12.471995
21
19.626962
31
0
39
0
210
0
220
0
230
1
0
LINE
5
188
100
AcDbEntity
8
1
62
256
6
ByLayer
370
18
48
1
60
0
100
AcDbLine
10
16.273636
20
13.786529
30
0
11
16.052601
21
13.361925
31
0
39
0
210
0
220
0
230
1
0
LINE
5
189
100
AcDbEntity
8
1
62
256
6
ByLayer
370
18
48
1
60
0
100
AcDbLine
10
0.394519
20
-18.473429
30
0
11
0.394519
21
-18.580738
31
0
39
0
210
0
220
0
230
1
0
LINE
5
18A
100
AcDbEntity
8
1
62
256
6
ByLayer
370
18
48
1
60
0
100
AcDbLine
10
0
20
17.292952
30
0
11
0
21
17.647136
31
0
39
0
210
0
220
0
230
1
0
LINE
5
18B
100
AcDbEntity
8
1
62
256
6
ByLayer
370
18
48
1
60
0
100
AcDbLine
10
18.846601
20
11.219177
30
0
11
22.001691
21
8.070967
31
0
39
0
210
0
220
0
230
1
0
LINE
5
18C
100
AcDbEntity
8
1
62
256
6
ByLayer
370
18
48
1
60
0
100
AcDbLine
10
19.75798
20
20.0993
30
0
11
19.887297
21
19.970265
31
0
39
0
210
0
220
0
230
1
0
LINE
5
18D
100
AcDbEntity
8
1
62
256
6
ByLayer
370
18
48
1
60
0
100
AcDbLine
10
6.9497
20
-17.599716
30
0
11
6.9497
21
17.599716
31
0
39
0
210
0
220
0
230
1
0
LINE
5
18E
100
AcDbEntity
8
1
62
256
6
ByLayer
370
18
48
1
60
0
100
AcDbLine
10
0
20
19.32088
30
0
11
0
21
19.324519
31
0
39
0
210
0
220
0
230
1
0
LINE
5
18F
100
AcDbEntity
8
1
62
256
6
ByLayer
370
18
48
1
60
0
100
AcDbLine
10
16.052605
20
13.361932
30
0
11
16.004373
21
13.269281
31
0
39
0
210
0
220
0
230
1
0
LINE
5
190
100
AcDbEntity
8
1
62
256
6
ByLayer
370
18
48
1
60
0
100
AcDbLine
10
25.355642
20
14.513847
30
0
11
25.259624
21
14.329397
31
0
39
0
210
0
220
0
230
1
0
LINE
5
191
100
AcDbEntity
8
1
62
256
6
ByLayer
370
18
48
1
60
0
100
AcDbLine
10
0
20
19.32088
30
0
11
0
21
19.291645
31
0
39
0
210
0
220
0
230
1
0
LINE
5
192
100
AcDbEntity
8
1
62
256
6
ByLayer
370
18
48
1
60
0
100
AcDbLine
10
0
20
14.842386
30
0
11
0
21
15.436852
31
0
39
0
210
0
220
0
230
1
0
LINE
5
193
100
AcDbEntity
8
1
62
256
6
ByLayer
370
18
48
1
60
0
100
AcDbLine
10
17.800212
20
0
30
0
11
21.78066
21
7.64637
31
0
39
0
210
0
220
0
230
1
0
LINE
5
194
100
AcDbEntity
8
1
62
256
6
ByLayer
370
18
48
1
60
0
100
AcDbLine
10
7.05
20
-15.102633
30
0
11
7.05
21
-17.758585
31
0
39
0
210
0
220
0
230
1
0
LINE
5
195
100
AcDbEntity
8
1
62
256
6
ByLayer
370
18
48
1
60
0
100
AcDbLine
10
0
20
9.41655
30
0
11
0
21
10.649949
31
0
39
0
210
0
220
0
230
1
0
LINE
5
196
100
AcDbEntity
8
1
62
256
6
ByLayer
370
18
48
1
60
0
100
AcDbLine
10
16.052605
20
13.361932
30
0
11
11.566448
21
17.838305
31
0
39
0
210
0
220
0
230
1
0
LINE
5
197
100
AcDbEntity
8
1
62
256
6
ByLayer
370
18
48
1
60
0
100
AcDbLine
10
21.78066
20
7.64637
30
0
11
18.402449
21
11.017213
31
0
39
0
210
0
220
0
230
1
0
LINE
5
198
100
AcDbEntity
8
1
62
256
6
ByLayer
370
18
48
1
60
0
100
AcDbLine
10
0
20
13.450703
30
0
11
0
21
14.183491
31
0
39
0
210
0
220
0
230
1
0
LINE
5
199
100
AcDbEntity
8
1
62
256
6
ByLayer
370
18
48
1
60
0
100
AcDbLine
10
7.4497
20
4.727125
30
0
11
12.543872
21
4.727125
31
0
39
0
210
0
220
0
230
1
0
LINE
5
19A
100
AcDbEntity
8
1
62
256
6
ByLayer
370
18
48
1
60
0
100
AcDbLine
10
0
20
-18.487737
30
0
11
0
21
-18.242708
31
0
39
0
210
0
220
0
230
1
0
LINE
5
19B
100
AcDbEntity
8
1
62
256
6
ByLayer
370
18
48
1
60
0
100
AcDbLine
10
17.406918
20
18.920792
30
0
11
17.787631
21
19.131149
31
0
39
0
210
0
220
0
230
1
0
LINE
5
19C
100
AcDbEntity
8
1
62
256
6
ByLayer
370
18
48
1
60
0
100
AcDbLine
10
0.394519
20
16.296283
30
0
11
0.394519
21
16.091699
31
0
39
0
210
0
220
0
230
1
0
LINE
5
19D
100
AcDbEntity
8
1
62
256
6
ByLayer
370
18
48
1
60
0
100
AcDbLine
10
0
20
5.98301
30
0
11
0
21
2.769573
31
0
39
0
210
0
220
0
230
1
0
LINE
5
19E
100
AcDbEntity
8
1
62
256
6
ByLayer
370
18
48
1
60
0
100
AcDbLine
10
0
20
-2.769573
30
0
11
0
21
-5.98301
31
0
39
0
210
0
220
0
230
1
0
LINE
5
19F
100
AcDbEntity
8
1
62
256
6
ByLayer
370
18
48
1
60
0
100
AcDbLine
10
16.172887
20
13.593054
30
0
11
16.321303
21
13.444961
31
0
39
0
210
0
220
0
230
1
0
LINE
5
1A0
100
AcDbEntity
8
1
62
256
6
ByLayer
370
18
48
1
60
0
100
AcDbLine
10
18.402451
20
11.017209
30
0
11
18.309598
21
10.969084
31
0
39
0
210
0
220
0
230
1
0
LINE
5
1A1
100
AcDbEntity
8
1
62
256
6
ByLayer
370
18
48
1
60
0
100
AcDbLine
10
0.394519
20
17.222867
30
0
11
0.394519
21
17.055333
31
0
39
0
210
0
220
0
230
1
0
LINE
5
1A2
100
AcDbEntity
8
1
62
256
6
ByLayer
370
18
48
1
60
0
100
AcDbLine
10
0
20
-16.459648
30
0
11
0
21
-16.898119
31
0
39
0
210
0
220
0
230
1
0
LINE
5
1A3
100
AcDbEntity
8
1
62
256
6
ByLayer
370
18
48
1
60
0
100
AcDbLine
10
0
20
5.98301
30
0
11
0
21
7.924419
31
0
39
0
210
0
220
0
230
1
0
LINE
5
1A4
100
AcDbEntity
8
SK1
62
256
6
ByLayer
370
18
48
1
60
0
100
AcDbLine
10
0
20
19.324519
30
0
11
-0.324519
21
19
31
0
39
0
210
0
220
0
230
1
0
LINE
5
1A5
100
AcDbEntity
8
1
62
256
6
ByLayer
370
18
48
1
60
0
100
AcDbLine
10
0
20
-19.324519
30
0
11
0.675481
21
-20
31
0
39
0
210
0
220
0
230
1
0
LINE
5
1A6
100
AcDbEntity
8
1
62
256
6
ByLayer
370
18
48
1
60
0
100
AcDbLine
10
0.675481
20
20
30
0
11
0
21
19.324519
31
0
39
0
210
0
220
0
230
1
0
LINE
5
1A7
100
AcDbEntity
8
1
62
256
6
ByLayer
370
18
48
1
60
0
100
AcDbLine
10
23.613937
20
19.702702
30
0
11
23.663599
21
19.798102
31
0
39
0
210
0
220
0
230
1
0
LINE
5
1A8
100
AcDbEntity
8
1
62
256
6
ByLayer
370
18
48
1
60
0
100
AcDbLine
10
24.762017
20
18.432447
30
0
11
24.714951
21
18.342034
31
0
39
0
210
0
220
0
230
1
0
LINE
5
1A9
100
AcDbEntity
8
1
62
256
6
ByLayer
370
18
48
1
60
0
100
AcDbLine
10
22.545378
20
18.653124
30
0
11
22.592573
21
18.743785
31
0
39
0
210
0
220
0
230
1
0
LINE
5
1AA
100
AcDbEntity
8
1
62
256
6
ByLayer
370
18
48
1
60
0
100
AcDbLine
10
23.696082
20
17.387909
30
0
11
23.646392
21
17.292455
31
0
39
0
210
0
220
0
230
1
0
LINE
5
1AB
100
AcDbEntity
8
1
62
256
6
ByLayer
370
18
48
1
60
0
100
AcDbLine
10
21.721814
20
19.596168
30
0
11
21.692826
21
19.540483
31
0
39
0
210
0
220
0
230
1
0
LINE
5
1AC
100
AcDbEntity
8
1
62
256
6
ByLayer
370
18
48
1
60
0
100
AcDbLine
10
25.595674
20
17.50879
30
0
11
25.624661
21
17.564474
31
0
39
0
210
0
220
0
230
1
0
LINE
5
1AD
100
AcDbEntity
8
1
62
256
6
ByLayer
370
18
48
1
60
0
100
AcDbLine
10
0.675481
20
-20
30
0
11
7.05
21
-20
31
0
39
0
210
0
220
0
230
1
0
LINE
5
1AE
100
AcDbEntity
8
1
62
256
6
ByLayer
370
18
48
1
60
0
100
AcDbLine
10
10.904919
20
20
30
0
11
0.675481
21
20
31
0
39
0
210
0
220
0
230
1
0
LINE
5
1AF
100
AcDbEntity
8
SK1
62
256
6
ByLayer
370
18
48
1
60
0
100
AcDbLine
10
-0.324519
20
-19
30
0
11
0
21
-19.324519
31
0
39
0
210
0
220
0
230
1
0
LINE
5
1B0
100
AcDbEntity
8
4
62
256
6
ByLayer
370
18
48
0.05
60
0
100
AcDbLine
10
0
20
0
30
0
11
37.179454
21
0
31
0
39
0
210
0
220
0
230
1
0
LINE
5
1B2
100
AcDbEntity
8
SK4
62
256
6
ByLayer
370
18
48
0.05
60
0
100
AcDbLine
10
30.179454
20
0
30
0
11
-12
21
0
31
0
39
0
210
0
220
0
230
1
0
LINE
5
1B4
100
AcDbEntity
8
81
62
256
6
ByLayer
370
18
48
1
60
0
100
AcDbLine
10
32
20
26.9
30
0
11
42
21
26.9
31
0
39
0
210
0
220
0
230
1
0
LINE
5
1B5
100
AcDbEntity
8
80
62
256
6
ByLayer
370
18
48
1
60
0
100
AcDbLine
10
0
20
0
30
0
11
-10
21
0
31
0
39
0
210
0
220
0
230
1
0
LINE
5
1B6
100
AcDbEntity
8
1
62
256
6
ByLayer
370
18
48
1
60
0
100
AcDbLine
10
30.838878
20
26.81079
30
0
11
21.049941
21
21.737272
31
0
39
0
210
0
220
0
230
1
0
LINE
5
1B7
100
AcDbEntity
8
2
62
256
6
ByLayer
370
13
48
1
60
0
100
AcDbLine
10
34
20
0
30
0
11
48.538377
21
0
31
0
39
0
210
0
220
0
230
1
0
LINE
5
1B8
100
AcDbEntity
8
2
62
256
6
ByLayer
370
13
48
1
60
0
100
AcDbLine
10
25.073771
20
13.594838
30
0
11
3.894191
21
-27.090757
31
0
39
0
210
0
220
0
230
1
0
LINE
5
1B9
100
AcDbEntity
8
1
62
256
6
ByLayer
370
13
48
1
60
0
100
AcDbLine
10
46.538377
20
0
30
0
11
46.868017
21
-3.185384
31
0
39
0
210
0
220
0
230
1
0
LINE
5
1BA
100
AcDbEntity
8
1
62
256
6
ByLayer
370
13
48
1
60
0
100
AcDbLine
10
46.538377
20
0
30
0
11
46.032346
21
-3.162165
31
0
39
0
210
0
220
0
230
1
0
LINE
5
1BB
100
AcDbEntity
8
1
62
256
6
ByLayer
370
13
48
1
60
0
100
AcDbLine
10
46.868017
20
-3.185384
30
0
11
46.032346
21
-3.162165
31
0
39
0
210
0
220
0
230
1
0
LINE
5
1BC
100
AcDbEntity
8
1
62
256
6
ByLayer
370
13
48
1
60
0
100
AcDbLine
10
4.817688
20
-25.316736
30
0
11
7.856219
21
-26.328005
31
0
39
0
210
0
220
0
230
1
0
LINE
5
1BD
100
AcDbEntity
8
1
62
256
6
ByLayer
370
13
48
1
60
0
100
AcDbLine
10
4.817688
20
-25.316736
30
0
11
7.49095
21
-27.079978
31
0
39
0
210
0
220
0
230
1
0
LINE
5
1BE
100
AcDbEntity
8
1
62
256
6
ByLayer
370
13
48
1
60
0
100
AcDbLine
10
7.856219
20
-26.328005
30
0
11
7.49095
21
-27.079978
31
0
39
0
210
0
220
0
230
1
0
MTEXT
5
2E9
100
AcDbEntity
8
2
62
256
6
ByLayer
370
18
48
1
60
0
100
AcDbMText
10
24.974608
20
-27.777294
30
0
210
0
220
0
230
1
1
\W0.6809;117%%d30'
40
4.5
41
0
44
1.084337
50
31.2499999999999
71
7
72
5
7
iso_b_vert
0
MTEXT
5
2EC
100
AcDbEntity
8
SK6
62
256
6
ByLayer
370
18
48
1
60
0
100
AcDbMText
10
-16.8145
20
-34.167366
30
0
210
0
220
0
230
1
1
\W0.7864;TR-SL-V13PBR-40
40
3.5
41
0
44
1.084337
50
0
71
7
72
5
7
iso_b_vert
0
DIMENSION
5
2EF
100
AcDbEntity
8
SK2
62
256
6
ByLayer
370
18
48
1
60
0
100
AcDbDimension
2
_U0
10
-7.75
20
20
30
0
11
-7.75
21
0
31
0
70
32
71
1
72
1
41
1
210
0
220
0
230
1
3
Standard
100
AcDbAlignedDimension
13
0
23
-20
33
0
14
0
24
20
34
0
50
90
100
AcDbRotatedDimension
1001
ACAD
1000
DSTYLE
1002
{
1070
   371
1070
    13
1070
   372
1070
    13
1070
     3
1000

1070
   170
1070
     0
1070
   144
1040
1.0
1070
   277
1070
     2
1070
   284
1070
     8
1070
   278
1070
    46
1070
   146
1040
0.777778
1070
   345
1005
16
1070
   347
1005
16
1070
   346
1005
16
1070
   344
1005
2F0
1070
   343
1005
2F0
1070
   172
1070
     1
1070
    76
1070
     0
1070
    75
1070
     0
1070
   282
1070
     0
1070
   281
1070
     0
1070
    71
1070
     0
1070
   272
1070
     4
1070
   271
1070
     4
1070
    74
1070
     0
1070
   279
1070
     0
1070
   173
1070
     1
1070
   340
1005
2EA
1070
    77
1070
     1
1070
    73
1070
     0
1070
   171
1070
     4
1070
   274
1070
     4
1070
   177
1070
     2
1070
   176
1070
     2
1070
   178
1070
     7
1070
    78
1070
     8
1070
    41
1040
3.175
1070
   147
1040
2.25
1070
    42
1040
2.0
1070
    44
1040
2.0
1070
   140
1040
4.5
1002
}
1001
ACAD_DSTYLE_DIM_LINETYPE
1070
   380
1005
16
1001
ACAD_DSTYLE_DIM_EXT1_LINETYPE
1070
   381
1005
16
1001
ACAD_DSTYLE_DIM_EXT2_LINETYPE
1070
   382
1005
16
0
DIMENSION
5
314
100
AcDbEntity
8
2
62
256
6
ByLayer
370
18
48
1
60
0
100
AcDbDimension
2
_U1
10
49.429454
20
0
30
0
11
49.429454
21
13.45
31
0
70
32
71
1
72
1
41
1
210
0
220
0
230
1
3
Standard
100
AcDbAlignedDimension
13
32
23
26.9
33
0
14
32
24
0
34
0
50
90
100
AcDbRotatedDimension
1001
ACAD
1000
DSTYLE
1002
{
1070
   371
1070
    13
1070
   372
1070
    13
1070
     3
1000

1070
   170
1070
     0
1070
   144
1040
1.0
1070
   277
1070
     2
1070
   284
1070
     8
1070
   278
1070
    46
1070
   146
1040
0.777778
1070
   345
1005
16
1070
   347
1005
16
1070
   346
1005
16
1070
   344
1005
2F0
1070
   343
1005
2F0
1070
   172
1070
     1
1070
    76
1070
     0
1070
    75
1070
     0
1070
   282
1070
     0
1070
   281
1070
     0
1070
    71
1070
     0
1070
   272
1070
     4
1070
   271
1070
     4
1070
    74
1070
     0
1070
   279
1070
     0
1070
   173
1070
     1
1070
   340
1005
2EA
1070
    77
1070
     1
1070
    73
1070
     0
1070
   171
1070
     4
1070
   274
1070
     4
1070
   177
1070
     2
1070
   176
1070
     2
1070
   178
1070
     7
1070
    78
1070
     8
1070
    41
1040
3.175
1070
   147
1040
2.25
1070
    42
1040
2.0
1070
    44
1040
2.0
1070
   140
1040
4.5
1002
}
1001
ACAD_DSTYLE_DIM_LINETYPE
1070
   380
1005
16
1001
ACAD_DSTYLE_DIM_EXT1_LINETYPE
1070
   381
1005
16
1001
ACAD_DSTYLE_DIM_EXT2_LINETYPE
1070
   382
1005
16
0
DIMENSION
5
330
100
AcDbEntity
8
2
62
256
6
ByLayer
370
18
48
1
60
0
100
AcDbDimension
2
_U2
10
32
20
39.65
30
0
11
16
21
39.65
31
0
70
32
71
1
72
1
41
1
210
0
220
0
230
1
3
Standard
100
AcDbAlignedDimension
13
0
23
20
33
0
14
32
24
26.9
34
0
50
0
100
AcDbRotatedDimension
1001
ACAD
1000
DSTYLE
1002
{
1070
   371
1070
    13
1070
   372
1070
    13
1070
     3
1000

1070
   170
1070
     0
1070
   144
1040
1.0
1070
   277
1070
     2
1070
   284
1070
     8
1070
   278
1070
    46
1070
   146
1040
0.777778
1070
   345
1005
16
1070
   347
1005
16
1070
   346
1005
16
1070
   344
1005
2F0
1070
   343
1005
2F0
1070
   172
1070
     1
1070
    76
1070
     0
1070
    75
1070
     0
1070
   282
1070
     0
1070
   281
1070
     0
1070
    71
1070
     0
1070
   272
1070
     4
1070
   271
1070
     4
1070
    74
1070
     0
1070
   279
1070
     0
1070
   173
1070
     1
1070
   340
1005
2EA
1070
    77
1070
     1
1070
    73
1070
     1
1070
   171
1070
     4
1070
   274
1070
     4
1070
   177
1070
     2
1070
   176
1070
     2
1070
   178
1070
     7
1070
    78
1070
     8
1070
    41
1040
3.175
1070
   147
1040
2.25
1070
    42
1040
2.0
1070
    44
1040
2.0
1070
   140
1040
4.5
1002
}
1001
ACAD_DSTYLE_DIM_LINETYPE
1070
   380
1005
16
1001
ACAD_DSTYLE_DIM_EXT1_LINETYPE
1070
   381
1005
16
1001
ACAD_DSTYLE_DIM_EXT2_LINETYPE
1070
   382
1005
16
0
ENDSEC
0
SECTION
2
OBJECTS
0
DICTIONARY
5
3bc
330
0
100
AcDbDictionary
280
0
281
1
3
ACAD_GROUP
350
3bd
3
ACAD_MLINESTYLE
350
3be
0
DICTIONARY
5
3bd
330
0
100
AcDbDictionary
280
0
281
1
0
DICTIONARY
5
3be
330
0
100
AcDbDictionary
280
0
281
1
3
Standard
350
18
0
MLINESTYLE
5
18
330
3be
100
AcDbMlineStyle
2
Standard
70
0
3

62
256
51
90
52
90
71
2
49
-0.5
62
256
6
ByLayer
49
0.5
62
256
6
ByLayer
0
RASTERVARIABLES
5
3aa
330

100
AcDbRasterVariables
90
0
70
1
71
1
72
1
0
ENDSEC
0
EOF
