0
SECTION
2
HEADER
9
$ACADVER
1
AC1015
9
$DWGCODEPAGE
3
ANSI_1252
9
$HANDSEED
5
3a2
9
$ANGBASE
50
0
9
$ANGDIR
70
0
9
$ATTMODE
70
1
9
$AUNITS
70
0
9
$AUPREC
70
0
9
$CECOLOR
62
256
9
$CELTSCALE
40
1
9
$CELTYPE
6
ByLayer
9
$CELWEIGHT
370
18
9
$CLAYER
8
0
9
$CMLJUST
70
0
9
$CMLSCALE
40
1
9
$CMLSTYLE
2
Standard
9
$DIMSTYLE
2
Standard
9
$TEXTSIZE
40
0.2
9
$TEXTSTYLE
7
Standard
9
$LUNITS
70
2
9
$LUPREC
70
4
9
$EXTNAMES
290
1
9
$INSUNITS
70
4
9
$LTSCALE
40
1
9
$LWDISPLAY
290
1
9
$PDMODE
70
0
9
$PDSIZE
40
0
9
$PLINEGEN
70
0
0
ENDSEC
0
SECTION
2
CLASSES
0
CLASS
1
RASTERVARIABLES
2
AcDbRasterVariables
3
ISM
90
0
280
0
281
0
0
ENDSEC
0
SECTION
2
TABLES
0
TABLE
2
VPORT
5
398
100
AcDbSymbolTable
0
VPORT
5
1
100
AcDbSymbolTableRecord
100
AcDbViewportTableRecord
2
*Active
70
0
10
0
20
0
11
1
21
1
12
-1
22
1
13
0
23
0
14
0.5
24
0.5
15
10
25
10
16
0
26
0
36
1
17
0
27
0
37
0
0
ENDTAB
0
TABLE
2
LTYPE
5
399
100
AcDbSymbolTable
0
LTYPE
5
14
100
AcDbSymbolTableRecord
100
AcDbLinetypeTableRecord
70
0
2
ByBlock
3

72
65
73
0
40
0
0
LTYPE
5
15
100
AcDbSymbolTableRecord
100
AcDbLinetypeTableRecord
70
0
2
ByLayer
3

72
65
73
0
40
0
0
LTYPE
5
16
100
AcDbSymbolTableRecord
100
AcDbLinetypeTableRecord
70
0
2
Continuous
3
Solid line
72
65
73
0
40
0
0
LTYPE
5
6E
100
AcDbSymbolTableRecord
100
AcDbLinetypeTableRecord
70
0
2
CENTER
3
____ _ ____ _ ____ _ ____
72
65
73
4
40
47.5
49
22
74
0
49
-8.5
74
0
49
8.5
74
0
49
-8.5
74
0
0
LTYPE
5
6F
100
AcDbSymbolTableRecord
100
AcDbLinetypeTableRecord
70
0
2
DASHED
3
__ __ __ __ __ __ __ __ __
72
65
73
2
40
25.72
49
12.86
74
0
49
-12.86
74
0
0
ENDTAB
0
TABLE
2
LAYER
5
39a
100
AcDbSymbolTable
0
LAYER
5
10
100
AcDbSymbolTableRecord
100
AcDbLayerTableRecord
2
0
70
0
62
7
6
Continuous
290
1
370
-3
390
0
0
LAYER
5
71
100
AcDbSymbolTableRecord
100
AcDbLayerTableRecord
2
2
70
0
62
7
6
Continuous
290
1
370
-3
390
0
0
LAYER
5
75
100
AcDbSymbolTableRecord
100
AcDbLayerTableRecord
2
81
70
0
62
-3
6
Continuous
290
1
370
-3
390
0
0
LAYER
5
77
100
AcDbSymbolTableRecord
100
AcDbLayerTableRecord
2
80
70
0
62
-6
6
Continuous
290
1
370
-3
390
0
0
LAYER
5
79
100
AcDbSymbolTableRecord
100
AcDbLayerTableRecord
2
1
70
0
62
4
6
Continuous
290
1
370
-3
390
0
0
LAYER
5
196
100
AcDbSymbolTableRecord
100
AcDbLayerTableRecord
2
4
70
0
62
-2
6
CENTER
290
1
370
-3
390
0
0
LAYER
5
2D1
100
AcDbSymbolTableRecord
100
AcDbLayerTableRecord
2
Defpoints
70
0
62
7
6
Continuous
290
0
370
-3
390
0
0
LAYER
5
384
100
AcDbSymbolTableRecord
100
AcDbLayerTableRecord
2
SK1
70
0
62
4
6
Continuous
290
1
370
-3
390
0
0
LAYER
5
385
100
AcDbSymbolTableRecord
100
AcDbLayerTableRecord
2
SK4
70
0
62
2
6
CENTER
290
1
370
-3
390
0
0
LAYER
5
386
100
AcDbSymbolTableRecord
100
AcDbLayerTableRecord
2
SK6
70
0
62
5
6
Continuous
290
1
370
-3
390
0
0
LAYER
5
387
100
AcDbSymbolTableRecord
100
AcDbLayerTableRecord
2
SK2
70
0
62
7
6
Continuous
290
1
370
-3
390
0
0
ENDTAB
0
TABLE
2
STYLE
5
39b
100
AcDbSymbolTable
0
STYLE
5
11
100
AcDbSymbolTableRecord
100
AcDbTextStyleTableRecord
2
Standard
3
txt
70
0
71
0
40
0
41
1
42
0
50
0
0
STYLE
5
2C2
100
AcDbSymbolTableRecord
100
AcDbTextStyleTableRecord
2
iso_b_vert
3
simplex.shx
70
0
71
0
40
0
41
1
42
0
50
0
0
STYLE
5
2C3
100
AcDbSymbolTableRecord
100
AcDbTextStyleTableRecord
2
DWGDirectTextStyle
3
simplex
70
0
71
0
40
0
41
1
42
0
50
0
0
ENDTAB
0
TABLE
2
DIMSTYLE
5
39c
100
AcDbSymbolTable
100
AcDbDimStyleTable
0
DIMSTYLE
105
27
100
AcDbSymbolTableRecord
100
AcDbDimStyleTableRecord
2
Standard
70
0
3
<>
41
0.18
42
0.0625
44
0.18
140
0.18
147
0.09
73
0
74
0
77
1
271
2
275
0
278
52
280
0
340
11
0
ENDTAB
0
TABLE
2
VIEW
5
39d
100
AcDbSymbolTable
0
ENDTAB
0
TABLE
2
UCS
5
39e
100
AcDbSymbolTable
0
ENDTAB
0
TABLE
2
APPID
5
39f
100
AcDbSymbolTable
0
APPID
5
12
100
AcDbSymbolTableRecord
100
AcDbRegAppTableRecord
2
ACAD
70
0
0
APPID
5
2C6
100
AcDbSymbolTableRecord
100
AcDbRegAppTableRecord
2
ACAD_DSTYLE_DIMBREAK
70
0
0
APPID
5
343
100
AcDbSymbolTableRecord
100
AcDbRegAppTableRecord
2
ACAD_DSTYLE_DIM_LINETYPE
70
0
0
APPID
5
344
100
AcDbSymbolTableRecord
100
AcDbRegAppTableRecord
2
ACAD_DSTYLE_DIM_EXT1_LINETYPE
70
0
0
APPID
5
345
100
AcDbSymbolTableRecord
100
AcDbRegAppTableRecord
2
ACAD_DSTYLE_DIM_EXT2_LINETYPE
70
0
0
APPID
5
380
100
AcDbSymbolTableRecord
100
AcDbRegAppTableRecord
2
ACAD_MLEADERVER
70
0
0
ENDTAB
0
TABLE
2
BLOCK_RECORD
5
3a0
100
AcDbSymbolTable
0
BLOCK_RECORD
5
1F
100
AcDbSymbolTableRecord
100
AcDbBlockTableRecord
2
*Model_Space
340
0
70
0
0
BLOCK_RECORD
5
1B
100
AcDbSymbolTableRecord
100
AcDbBlockTableRecord
2
*Paper_Space
340
0
70
0
0
BLOCK_RECORD
5
23
100
AcDbSymbolTableRecord
100
AcDbBlockTableRecord
2
*Paper_Space0
340
0
70
0
0
BLOCK_RECORD
5
2C8
100
AcDbSymbolTableRecord
100
AcDbBlockTableRecord
2
_Closed
340
0
70
0
0
BLOCK_RECORD
5
2D2
100
AcDbSymbolTableRecord
100
AcDbBlockTableRecord
2
*D2
340
0
70
0
0
BLOCK_RECORD
5
2DF
100
AcDbSymbolTableRecord
100
AcDbBlockTableRecord
2
_U0
340
0
70
0
0
BLOCK_RECORD
5
2EF
100
AcDbSymbolTableRecord
100
AcDbBlockTableRecord
2
*D4
340
0
70
0
0
BLOCK_RECORD
5
2FC
100
AcDbSymbolTableRecord
100
AcDbBlockTableRecord
2
_U1
340
0
70
0
0
BLOCK_RECORD
5
30C
100
AcDbSymbolTableRecord
100
AcDbBlockTableRecord
2
*D6
340
0
70
0
0
BLOCK_RECORD
5
318
100
AcDbSymbolTableRecord
100
AcDbBlockTableRecord
2
_U2
340
0
70
0
0
ENDTAB
0
ENDSEC
0
SECTION
2
BLOCKS
0
BLOCK
5
20
100
AcDbEntity
8
0
100
AcDbBlockBegin
2
*Model_Space
70
0
10
0
20
0
30
0
3
*Model_Space
0
ENDBLK
5
21
100
AcDbEntity
8
0
100
AcDbBlockEnd
0
BLOCK
5
1C
100
AcDbEntity
8
0
100
AcDbBlockBegin
2
*Paper_Space
70
0
10
0
20
0
30
0
3
*Paper_Space
0
ENDBLK
5
1D
100
AcDbEntity
8
0
100
AcDbBlockEnd
0
BLOCK
5
24
100
AcDbEntity
8
0
100
AcDbBlockBegin
2
*Paper_Space0
70
0
10
0
20
0
30
0
3
*Paper_Space0
0
ENDBLK
5
25
100
AcDbEntity
8
0
100
AcDbBlockEnd
0
BLOCK
5
2C9
100
AcDbEntity
8
0
100
AcDbBlockBegin
2
_Closed
70
0
10
0
20
0
30
0
3
_Closed
0
LINE
5
2CB
100
AcDbEntity
8
0
62
256
6
ByLayer
370
-2
48
1
60
0
100
AcDbLine
10
-1
20
0.166667
30
0
11
0
21
0
31
0
39
0
210
0
220
0
230
1
0
LINE
5
2CC
100
AcDbEntity
8
0
62
256
6
ByLayer
370
-2
48
1
60
0
100
AcDbLine
10
0
20
0
30
0
11
-1
21
-0.166667
31
0
39
0
210
0
220
0
230
1
0
LINE
5
2CD
100
AcDbEntity
8
0
62
256
6
ByLayer
370
-2
48
1
60
0
100
AcDbLine
10
-1
20
0.166667
30
0
11
-1
21
-0.166667
31
0
39
0
210
0
220
0
230
1
0
LINE
5
2CE
100
AcDbEntity
8
0
62
256
6
ByLayer
370
-2
48
1
60
0
100
AcDbLine
10
0
20
0
30
0
11
-1
21
0
31
0
39
0
210
0
220
0
230
1
0
ENDBLK
5
2CA
100
AcDbEntity
8
0
100
AcDbBlockEnd
0
BLOCK
5
2D3
100
AcDbEntity
8
0
100
AcDbBlockBegin
2
*D2
70
1
10
0
20
0
30
0
3
*D2
0
LINE
5
2D5
100
AcDbEntity
8
0
62
256
6
ByLayer
370
-2
48
1
60
0
100
AcDbLine
10
-2
20
16
30
0
11
-9.75
21
16
31
0
39
0
210
0
220
0
230
1
0
LINE
5
2D6
100
AcDbEntity
8
0
62
256
6
ByLayer
370
-2
48
1
60
0
100
AcDbLine
10
-2
20
-16
30
0
11
-9.75
21
-16
31
0
39
0
210
0
220
0
230
1
0
LINE
5
2D7
100
AcDbEntity
8
0
62
256
6
ByLayer
370
-2
48
1
60
0
100
AcDbLine
10
-7.75
20
12.825
30
0
11
-7.75
21
-12.825
31
0
39
0
210
0
220
0
230
1
0
SOLID
5
2D8
100
AcDbEntity
8
0
62
256
6
ByLayer
370
-1
48
1
60
0
100
AcDbTrace
10
-7.220833
20
12.825
30
0
11
-8.279167
21
12.825
31
0
12
-7.75
22
16
32
0
13
-7.75
23
16
33
0
39
0
210
0
220
0
230
1
0
SOLID
5
2D9
100
AcDbEntity
8
0
62
256
6
ByLayer
370
-1
48
1
60
0
100
AcDbTrace
10
-8.279167
20
-12.825
30
0
11
-7.220833
21
-12.825
31
0
12
-7.75
22
-16
32
0
13
-7.75
23
-16
33
0
39
0
210
0
220
0
230
1
0
MTEXT
5
2DA
100
AcDbEntity
8
0
62
256
6
ByLayer
370
18
48
1
60
0
100
AcDbMText
10
-19
20
0
30
0
210
0
220
0
230
1
1
\A1;32
40
4.5
41
0
44
1
50
90
71
5
72
5
7
iso_b_vert
0
POINT
5
2DB
100
AcDbEntity
8
Defpoints
62
0
6
ByLayer
370
-1
48
1
60
0
100
AcDbPoint
10
0
20
16
30
0
39
0
210
0
220
0
230
1
50
360
0
POINT
5
2DC
100
AcDbEntity
8
Defpoints
62
0
6
ByLayer
370
-1
48
1
60
0
100
AcDbPoint
10
0
20
-16
30
0
39
0
210
0
220
0
230
1
50
360
0
POINT
5
2DD
100
AcDbEntity
8
Defpoints
62
0
6
ByLayer
370
-1
48
1
60
0
100
AcDbPoint
10
-7.75
20
-16
30
0
39
0
210
0
220
0
230
1
50
360
0
ENDBLK
5
2D4
100
AcDbEntity
8
0
100
AcDbBlockEnd
0
BLOCK
5
2EA
100
AcDbEntity
8
0
100
AcDbBlockBegin
2
_U0
70
0
10
0
20
0
30
0
3
_U0
0
MTEXT
5
2E0
100
AcDbEntity
8
SK2
62
256
6
ByLayer
370
18
48
1
60
0
100
AcDbMText
10
-8.636672
20
-4.669971
30
0
210
0
220
0
230
1
1
\W0.8879;%%c32
40
4.5
41
0
44
1.084337
50
90
71
7
72
5
7
iso_b_vert
0
LINE
5
2E1
100
AcDbEntity
8
SK2
62
256
6
ByLayer
370
13
48
1
60
0
100
AcDbLine
10
-2
20
16
30
0
11
-9.75
21
16
31
0
39
0
210
0
220
0
230
1
0
LINE
5
2E2
100
AcDbEntity
8
SK2
62
256
6
ByLayer
370
13
48
1
60
0
100
AcDbLine
10
-2
20
-16
30
0
11
-9.75
21
-16
31
0
39
0
210
0
220
0
230
1
0
LINE
5
2E3
100
AcDbEntity
8
SK2
62
256
6
ByLayer
370
13
48
1
60
0
100
AcDbLine
10
-7.75
20
16
30
0
11
-7.75
21
-16
31
0
39
0
210
0
220
0
230
1
0
LINE
5
2E4
100
AcDbEntity
8
SK2
62
256
6
ByLayer
370
13
48
1
60
0
100
AcDbLine
10
-7.75
20
16
30
0
11
-7.332003
21
12.825002
31
0
39
0
210
0
220
0
230
1
0
LINE
5
2E5
100
AcDbEntity
8
SK2
62
256
6
ByLayer
370
13
48
1
60
0
100
AcDbLine
10
-7.75
20
16
30
0
11
-8.167997
21
12.824998
31
0
39
0
210
0
220
0
230
1
0
LINE
5
2E6
100
AcDbEntity
8
SK2
62
256
6
ByLayer
370
13
48
1
60
0
100
AcDbLine
10
-7.332003
20
12.825002
30
0
11
-8.167997
21
12.824998
31
0
39
0
210
0
220
0
230
1
0
LINE
5
2E7
100
AcDbEntity
8
SK2
62
256
6
ByLayer
370
13
48
1
60
0
100
AcDbLine
10
-7.75
20
-16
30
0
11
-8.167997
21
-12.825002
31
0
39
0
210
0
220
0
230
1
0
LINE
5
2E8
100
AcDbEntity
8
SK2
62
256
6
ByLayer
370
13
48
1
60
0
100
AcDbLine
10
-7.75
20
-16
30
0
11
-7.332003
21
-12.824998
31
0
39
0
210
0
220
0
230
1
0
LINE
5
2E9
100
AcDbEntity
8
SK2
62
256
6
ByLayer
370
13
48
1
60
0
100
AcDbLine
10
-8.167997
20
-12.825002
30
0
11
-7.332003
21
-12.824998
31
0
39
0
210
0
220
0
230
1
0
ENDBLK
5
2EB
100
AcDbEntity
8
0
100
AcDbBlockEnd
0
BLOCK
5
2F0
100
AcDbEntity
8
0
100
AcDbBlockBegin
2
*D4
70
1
10
0
20
0
30
0
3
*D4
0
LINE
5
2F2
100
AcDbEntity
8
0
62
256
6
ByLayer
370
-2
48
1
60
0
100
AcDbLine
10
34
20
0
30
0
11
51.429454
21
0
31
0
39
0
210
0
220
0
230
1
0
LINE
5
2F3
100
AcDbEntity
8
0
62
256
6
ByLayer
370
-2
48
1
60
0
100
AcDbLine
10
34
20
-21.9
30
0
11
51.429454
21
-21.9
31
0
39
0
210
0
220
0
230
1
0
LINE
5
2F4
100
AcDbEntity
8
0
62
256
6
ByLayer
370
-2
48
1
60
0
100
AcDbLine
10
49.429454
20
3.175
30
0
11
49.429454
21
6.35
31
0
39
0
210
0
220
0
230
1
0
LINE
5
2F5
100
AcDbEntity
8
0
62
256
6
ByLayer
370
-2
48
1
60
0
100
AcDbLine
10
49.429454
20
-25.075
30
0
11
49.429454
21
-28.25
31
0
39
0
210
0
220
0
230
1
0
SOLID
5
2F6
100
AcDbEntity
8
0
62
256
6
ByLayer
370
-1
48
1
60
0
100
AcDbTrace
10
48.900287
20
3.175
30
0
11
49.95862
21
3.175
31
0
12
49.429454
22
0
32
0
13
49.429454
23
0
33
0
39
0
210
0
220
0
230
1
0
SOLID
5
2F7
100
AcDbEntity
8
0
62
256
6
ByLayer
370
-1
48
1
60
0
100
AcDbTrace
10
49.95862
20
-25.075
30
0
11
48.900287
21
-25.075
31
0
12
49.429454
22
-21.9
32
0
13
49.429454
23
-21.9
33
0
39
0
210
0
220
0
230
1
0
MTEXT
5
2F8
100
AcDbEntity
8
0
62
256
6
ByLayer
370
18
48
1
60
0
100
AcDbMText
10
38.179454
20
-10.95
30
0
210
0
220
0
230
1
1
\A1;21.9
40
4.5
41
0
44
1
50
90
71
5
72
5
7
iso_b_vert
0
POINT
5
2F9
100
AcDbEntity
8
Defpoints
62
0
6
ByLayer
370
-1
48
1
60
0
100
AcDbPoint
10
32
20
0
30
0
39
0
210
0
220
0
230
1
50
360
0
POINT
5
2FA
100
AcDbEntity
8
Defpoints
62
0
6
ByLayer
370
-1
48
1
60
0
100
AcDbPoint
10
32
20
-21.9
30
0
39
0
210
0
220
0
230
1
50
360
0
POINT
5
2FB
100
AcDbEntity
8
Defpoints
62
0
6
ByLayer
370
-1
48
1
60
0
100
AcDbPoint
10
49.429454
20
-21.9
30
0
39
0
210
0
220
0
230
1
50
360
0
ENDBLK
5
2F1
100
AcDbEntity
8
0
100
AcDbBlockEnd
0
BLOCK
5
307
100
AcDbEntity
8
0
100
AcDbBlockBegin
2
_U1
70
0
10
0
20
0
30
0
3
_U1
0
MTEXT
5
2FD
100
AcDbEntity
8
2
62
256
6
ByLayer
370
18
48
1
60
0
100
AcDbMText
10
48.542782
20
-16.028184
30
0
210
0
220
0
230
1
1
\W0.7346;22.0
40
4.5
41
0
44
1.084337
50
90
71
7
72
5
7
iso_b_vert
0
LINE
5
2FE
100
AcDbEntity
8
2
62
256
6
ByLayer
370
13
48
1
60
0
100
AcDbLine
10
34
20
0
30
0
11
51.429454
21
0
31
0
39
0
210
0
220
0
230
1
0
LINE
5
2FF
100
AcDbEntity
8
2
62
256
6
ByLayer
370
13
48
1
60
0
100
AcDbLine
10
34
20
-21.9
30
0
11
51.429454
21
-21.9
31
0
39
0
210
0
220
0
230
1
0
LINE
5
300
100
AcDbEntity
8
2
62
256
6
ByLayer
370
13
48
1
60
0
100
AcDbLine
10
49.429454
20
0
30
0
11
49.429454
21
-21.9
31
0
39
0
210
0
220
0
230
1
0
LINE
5
301
100
AcDbEntity
8
2
62
256
6
ByLayer
370
13
48
1
60
0
100
AcDbLine
10
49.429454
20
0
30
0
11
49.84745
21
-3.174998
31
0
39
0
210
0
220
0
230
1
0
LINE
5
302
100
AcDbEntity
8
2
62
256
6
ByLayer
370
13
48
1
60
0
100
AcDbLine
10
49.429454
20
0
30
0
11
49.011457
21
-3.175002
31
0
39
0
210
0
220
0
230
1
0
LINE
5
303
100
AcDbEntity
8
2
62
256
6
ByLayer
370
13
48
1
60
0
100
AcDbLine
10
49.84745
20
-3.174998
30
0
11
49.011457
21
-3.175002
31
0
39
0
210
0
220
0
230
1
0
LINE
5
304
100
AcDbEntity
8
2
62
256
6
ByLayer
370
13
48
1
60
0
100
AcDbLine
10
49.429454
20
-21.9
30
0
11
49.011457
21
-18.725002
31
0
39
0
210
0
220
0
230
1
0
LINE
5
305
100
AcDbEntity
8
2
62
256
6
ByLayer
370
13
48
1
60
0
100
AcDbLine
10
49.429454
20
-21.9
30
0
11
49.84745
21
-18.724998
31
0
39
0
210
0
220
0
230
1
0
LINE
5
306
100
AcDbEntity
8
2
62
256
6
ByLayer
370
13
48
1
60
0
100
AcDbLine
10
49.011457
20
-18.725002
30
0
11
49.84745
21
-18.724998
31
0
39
0
210
0
220
0
230
1
0
ENDBLK
5
308
100
AcDbEntity
8
0
100
AcDbBlockEnd
0
BLOCK
5
30D
100
AcDbEntity
8
0
100
AcDbBlockBegin
2
*D6
70
1
10
0
20
0
30
0
3
*D6
0
LINE
5
30F
100
AcDbEntity
8
0
62
256
6
ByLayer
370
-2
48
1
60
0
100
AcDbLine
10
0
20
-18
30
0
11
0
21
-41.15
31
0
39
0
210
0
220
0
230
1
0
LINE
5
310
100
AcDbEntity
8
0
62
256
6
ByLayer
370
-2
48
1
60
0
100
AcDbLine
10
32
20
-23.9
30
0
11
32
21
-41.15
31
0
39
0
210
0
220
0
230
1
0
LINE
5
311
100
AcDbEntity
8
0
62
256
6
ByLayer
370
-2
48
1
60
0
100
AcDbLine
10
3.175
20
-39.15
30
0
11
28.825
21
-39.15
31
0
39
0
210
0
220
0
230
1
0
SOLID
5
312
100
AcDbEntity
8
0
62
256
6
ByLayer
370
-1
48
1
60
0
100
AcDbTrace
10
3.175
20
-38.620833
30
0
11
3.175
21
-39.679167
31
0
12
0
22
-39.15
32
0
13
0
23
-39.15
33
0
39
0
210
0
220
0
230
1
0
SOLID
5
313
100
AcDbEntity
8
0
62
256
6
ByLayer
370
-1
48
1
60
0
100
AcDbTrace
10
28.825
20
-39.679167
30
0
11
28.825
21
-38.620833
31
0
12
32
22
-39.15
32
0
13
32
23
-39.15
33
0
39
0
210
0
220
0
230
1
0
MTEXT
5
314
100
AcDbEntity
8
0
62
256
6
ByLayer
370
18
48
1
60
0
100
AcDbMText
10
16
20
-27.9
30
0
210
0
220
0
230
1
1
\A1;32
40
4.5
41
0
44
1
50
0
71
5
72
5
7
iso_b_vert
0
POINT
5
315
100
AcDbEntity
8
Defpoints
62
0
6
ByLayer
370
-1
48
1
60
0
100
AcDbPoint
10
0
20
-16
30
0
39
0
210
0
220
0
230
1
50
360
0
POINT
5
316
100
AcDbEntity
8
Defpoints
62
0
6
ByLayer
370
-1
48
1
60
0
100
AcDbPoint
10
32
20
-21.9
30
0
39
0
210
0
220
0
230
1
50
360
0
POINT
5
317
100
AcDbEntity
8
Defpoints
62
0
6
ByLayer
370
-1
48
1
60
0
100
AcDbPoint
10
32
20
-39.15
30
0
39
0
210
0
220
0
230
1
50
360
0
ENDBLK
5
30E
100
AcDbEntity
8
0
100
AcDbBlockEnd
0
BLOCK
5
323
100
AcDbEntity
8
0
100
AcDbBlockBegin
2
_U2
70
0
10
0
20
0
30
0
3
_U2
0
MTEXT
5
319
100
AcDbEntity
8
2
62
256
6
ByLayer
370
18
48
1
60
0
100
AcDbMText
10
10.957816
20
-37.822328
30
0
210
0
220
0
230
1
1
\W0.7346;32.0
40
4.5
41
0
44
1.084337
50
0
71
7
72
5
7
iso_b_vert
0
LINE
5
31A
100
AcDbEntity
8
2
62
256
6
ByLayer
370
13
48
1
60
0
100
AcDbLine
10
0
20
-18
30
0
11
0
21
-41.15
31
0
39
0
210
0
220
0
230
1
0
LINE
5
31B
100
AcDbEntity
8
2
62
256
6
ByLayer
370
13
48
1
60
0
100
AcDbLine
10
32
20
-23.9
30
0
11
32
21
-41.15
31
0
39
0
210
0
220
0
230
1
0
LINE
5
31C
100
AcDbEntity
8
2
62
256
6
ByLayer
370
13
48
1
60
0
100
AcDbLine
10
0
20
-39.15
30
0
11
32
21
-39.15
31
0
39
0
210
0
220
0
230
1
0
LINE
5
31D
100
AcDbEntity
8
2
62
256
6
ByLayer
370
13
48
1
60
0
100
AcDbLine
10
0
20
-39.15
30
0
11
3.174998
21
-38.732003
31
0
39
0
210
0
220
0
230
1
0
LINE
5
31E
100
AcDbEntity
8
2
62
256
6
ByLayer
370
13
48
1
60
0
100
AcDbLine
10
0
20
-39.15
30
0
11
3.175002
21
-39.567997
31
0
39
0
210
0
220
0
230
1
0
LINE
5
31F
100
AcDbEntity
8
2
62
256
6
ByLayer
370
13
48
1
60
0
100
AcDbLine
10
3.174998
20
-38.732003
30
0
11
3.175002
21
-39.567997
31
0
39
0
210
0
220
0
230
1
0
LINE
5
320
100
AcDbEntity
8
2
62
256
6
ByLayer
370
13
48
1
60
0
100
AcDbLine
10
32
20
-39.15
30
0
11
28.825002
21
-39.567997
31
0
39
0
210
0
220
0
230
1
0
LINE
5
321
100
AcDbEntity
8
2
62
256
6
ByLayer
370
13
48
1
60
0
100
AcDbLine
10
32
20
-39.15
30
0
11
28.824998
21
-38.732003
31
0
39
0
210
0
220
0
230
1
0
LINE
5
322
100
AcDbEntity
8
2
62
256
6
ByLayer
370
13
48
1
60
0
100
AcDbLine
10
28.825002
20
-39.567997
30
0
11
28.824998
21
-38.732003
31
0
39
0
210
0
220
0
230
1
0
ENDBLK
5
324
100
AcDbEntity
8
0
100
AcDbBlockEnd
0
ENDSEC
0
SECTION
2
ENTITIES
0
ARC
5
1A3
100
AcDbEntity
8
1
62
256
6
ByLayer
370
18
48
1
60
0
100
AcDbCircle
39
0
10
15.080982
20
-2.770492
30
0
40
5.99999999999991
210
0
220
0
230
1
100
AcDbArc
50
27.5
51
82.931053
0
ARC
5
1A4
100
AcDbEntity
8
1
62
256
6
ByLayer
370
18
48
1
60
0
100
AcDbCircle
39
0
10
17.05
20
13.107889
30
0
40
9.99999999997226
210
0
220
0
230
1
100
AcDbArc
50
249.879577
51
262.931053
0
ARC
5
1A5
100
AcDbEntity
8
2
62
256
6
ByLayer
370
13
48
1
60
0
100
AcDbCircle
39
0
10
20.599582
20
0
30
0
40
19.5416305532426
210
0
220
0
230
1
100
AcDbArc
50
0
51
117.5
0
ELLIPSE
5
1A6
100
AcDbEntity
8
1
62
256
6
ByLayer
370
18
48
1
60
0
100
AcDbEllipse
10
23.684494
20
-13.601945
30
0
11
1.25041917153133
21
0.650927020077436
31
0
210
0
220
0
230
1
40
0.996195
41
-1.7889624832942
42
-0.741764932097578
0
ELLIPSE
5
1A7
100
AcDbEntity
8
1
62
256
6
ByLayer
370
18
48
1
60
0
100
AcDbEllipse
10
23.684494
20
-13.601945
30
0
11
1.25041917153133
21
0.650927020077436
31
0
210
0
220
0
230
1
40
0.996195
41
0.305432619098999
42
1.35263017029559
0
ELLIPSE
5
1A8
100
AcDbEntity
8
1
62
256
6
ByLayer
370
18
48
1
60
0
100
AcDbEllipse
10
23.630164
20
-13.497579
30
0
11
-0.953004439166682
21
-0.496102710059719
31
0
210
0
220
0
230
1
40
0.996195
41
1.87622894589393
42
2.92342649709051
0
ELLIPSE
5
1A9
100
AcDbEntity
8
1
62
256
6
ByLayer
370
18
48
1
60
0
100
AcDbEllipse
10
23.64425
20
-13.524636
30
0
11
1.95142383299208
21
1.01584694911709
31
0
210
0
220
0
230
1
40
0.996195
41
2.66006386235376
42
-3.14157398003056
0
ELLIPSE
5
1AA
100
AcDbEntity
8
1
62
256
6
ByLayer
370
18
48
1
60
0
100
AcDbEllipse
10
23.64425
20
-13.524636
30
0
11
1.95142383299208
21
1.01584694911709
31
0
210
0
220
0
230
1
40
0.996195
41
0
42
2.66006393028259
0
ELLIPSE
5
1AB
100
AcDbEntity
8
1
62
256
6
ByLayer
370
18
48
1
60
0
100
AcDbEllipse
10
24.509118
20
-12.620542
30
0
11
0.232829517295851
21
-0.23196364255506
31
0
210
0
220
0
230
1
40
0.509774
41
-0.212323239893354
42
0.979353028292736
0
ELLIPSE
5
1AC
100
AcDbEntity
8
1
62
256
6
ByLayer
370
18
48
1
60
0
100
AcDbEllipse
10
23.684494
20
-13.601945
30
0
11
1.33051624976733
21
0.692622919852562
31
0
210
0
220
0
230
1
40
0.996195
41
0
42
6.28318530717959
0
ELLIPSE
5
1AD
100
AcDbEntity
8
1
62
256
6
ByLayer
370
18
48
1
60
0
100
AcDbEllipse
10
23.630164
20
-13.497579
30
0
11
-0.953004439166682
21
-0.496102710059719
31
0
210
0
220
0
230
1
40
0.996195
41
2.92342649709052
42
-2.54600477141903
0
ELLIPSE
5
1AE
100
AcDbEntity
8
1
62
256
6
ByLayer
370
18
48
1
60
0
100
AcDbEllipse
10
23.307102
20
-14.694168
30
0
11
0.318283139077014
21
-0.0841862473746229
31
0
210
0
220
0
230
1
40
0.508012
41
1.56819569867406
42
2.82191446071518
0
ELLIPSE
5
1AF
100
AcDbEntity
8
1
62
256
6
ByLayer
370
18
48
1
60
0
100
AcDbEllipse
10
24.829372
20
-13.175218
30
0
11
0.0846130232678348
21
-0.317523643727006
31
0
210
0
220
0
230
1
40
0.509945
41
-2.82340467901583
42
-1.56968591697599
0
ELLIPSE
5
1B0
100
AcDbEntity
8
1
62
256
6
ByLayer
370
18
48
1
60
0
100
AcDbEllipse
10
24.829372
20
-13.175218
30
0
11
0.0846130232677094
21
-0.317523643727689
31
0
210
0
220
0
230
1
40
0.509945
41
-1.56968591697393
42
-1.14649721636365
0
ELLIPSE
5
1B1
100
AcDbEntity
8
1
62
256
6
ByLayer
370
18
48
1
60
0
100
AcDbEllipse
10
22.430957
20
-13.819939
30
0
11
0.0846130232678029
21
-0.317523643727336
31
0
210
0
220
0
230
1
40
0.509945
41
1.9950946839367
42
2.82562549865367
0
ELLIPSE
5
1B2
100
AcDbEntity
8
1
62
256
6
ByLayer
370
18
48
1
60
0
100
AcDbEllipse
10
24.828466
20
-13.816225
30
0
11
0.0862064445444097
21
0.317628589673693
31
0
210
0
220
0
230
1
40
0.508349
41
2.9333791645201
42
-0.726935743442312
0
ELLIPSE
5
1B3
100
AcDbEntity
8
1
62
256
6
ByLayer
370
18
48
1
60
0
100
AcDbEllipse
10
23.307102
20
-14.694168
30
0
11
0.318283139078056
21
-0.0841862473748138
31
0
210
0
220
0
230
1
40
0.508012
41
0.3144769366356
42
1.56819569867353
0
ELLIPSE
5
1B4
100
AcDbEntity
8
1
62
256
6
ByLayer
370
18
48
1
60
0
100
AcDbEllipse
10
23.603
20
-13.445396
30
0
11
-0.953004439166684
21
-0.496102710059719
31
0
210
0
220
0
230
1
40
0.996195
41
0.0274090728940049
42
2.66006337691227
0
ELLIPSE
5
1B5
100
AcDbEntity
8
1
62
256
6
ByLayer
370
18
48
1
60
0
100
AcDbEllipse
10
23.603
20
-13.445396
30
0
11
-0.953004439166684
21
-0.496102710059719
31
0
210
0
220
0
230
1
40
0.996195
41
2.66006431045361
42
3.11412230384642
0
ELLIPSE
5
1B6
100
AcDbEntity
8
1
62
256
6
ByLayer
370
18
48
1
60
0
100
AcDbEllipse
10
23.949513
20
-14.693262
30
0
11
0.318389430787133
21
0.0857764697099206
31
0
210
0
220
0
230
1
40
0.506433
41
-2.45162229284586
42
0.0124592077564622
0
ELLIPSE
5
1B7
100
AcDbEntity
8
1
62
256
6
ByLayer
370
18
48
1
60
0
100
AcDbEllipse
10
22.431862
20
-13.178932
30
0
11
0.0862064445444118
21
0.317628589673693
31
0
210
0
220
0
230
1
40
0.508349
41
2.66007242908972
42
-2.92817204151477
0
ELLIPSE
5
1B8
100
AcDbEntity
8
1
62
256
6
ByLayer
370
18
48
1
60
0
100
AcDbEllipse
10
24.50631
20
-14.371807
30
0
11
0.233554013228912
21
0.232693000907032
31
0
210
0
220
0
230
1
40
0.5066
41
0.318567879419438
42
1.57228664145934
0
ELLIPSE
5
1B9
100
AcDbEntity
8
1
62
256
6
ByLayer
370
18
48
1
60
0
100
AcDbEllipse
10
23.684494
20
-13.601945
30
0
11
1.25041917153133
21
0.650927020077436
31
0
210
0
220
0
230
1
40
0.996195
41
2.39982772149221
42
-2.83616003449077
0
ELLIPSE
5
1BA
100
AcDbEntity
8
1
62
256
6
ByLayer
370
18
48
1
60
0
100
AcDbEllipse
10
22.751211
20
-14.374615
30
0
11
0.232829517295854
21
-0.231963642555061
31
0
210
0
220
0
230
1
40
0.509774
41
-2.16224050071097
42
0.209310861251306
0
ELLIPSE
5
1BB
100
AcDbEntity
8
1
62
256
6
ByLayer
370
18
48
1
60
0
100
AcDbEllipse
10
23.630164
20
-13.497579
30
0
11
-0.953004439166682
21
-0.496102710059719
31
0
210
0
220
0
230
1
40
0.996195
41
-0.999047949583474
42
-0.274975859380877
0
ELLIPSE
5
1BC
100
AcDbEntity
8
1
62
256
6
ByLayer
370
18
48
1
60
0
100
AcDbEllipse
10
23.684494
20
-13.601945
30
0
11
1.25041917153133
21
0.650927020077436
31
0
210
0
220
0
230
1
40
0.996195
41
1.35263017029559
42
2.39982772149221
0
ELLIPSE
5
1BD
100
AcDbEntity
8
1
62
256
6
ByLayer
370
18
48
1
60
0
100
AcDbEllipse
10
24.50631
20
-14.371807
30
0
11
0.233554013229645
21
0.232693000907284
31
0
210
0
220
0
230
1
40
0.5066
41
1.57228664146168
42
2.82600540349949
0
ELLIPSE
5
1BE
100
AcDbEntity
8
1
62
256
6
ByLayer
370
18
48
1
60
0
100
AcDbEllipse
10
23.630164
20
-13.497579
30
0
11
-0.953004439166682
21
-0.496102710059719
31
0
210
0
220
0
230
1
40
0.996195
41
1.05142979868893E-05
42
0.829031394697298
0
ELLIPSE
5
1BF
100
AcDbEntity
8
1
62
256
6
ByLayer
370
18
48
1
60
0
100
AcDbEllipse
10
23.630164
20
-13.497579
30
0
11
-0.953004439166682
21
-0.496102710059719
31
0
210
0
220
0
230
1
40
0.996195
41
-2.14900205150596
42
-1.47135096512893
0
ELLIPSE
5
1C0
100
AcDbEntity
8
1
62
256
6
ByLayer
370
18
48
1
60
0
100
AcDbEllipse
10
23.630164
20
-13.497579
30
0
11
0.953004439166673
21
0.496102710059725
31
0
210
0
220
0
230
1
40
0.996195
41
-2.31256125889249
42
-1.26536370769588
0
ELLIPSE
5
1C1
100
AcDbEntity
8
1
62
256
6
ByLayer
370
18
48
1
60
0
100
AcDbEllipse
10
23.684494
20
-13.601945
30
0
11
1.25041917153133
21
0.650927020077436
31
0
210
0
220
0
230
1
40
0.996195
41
-2.83616003449077
42
-1.7889624832942
0
ELLIPSE
5
1C2
100
AcDbEntity
8
1
62
256
6
ByLayer
370
18
48
1
60
0
100
AcDbEllipse
10
23.673237
20
-13.580321
30
0
11
1.95142383299209
21
1.01584694911709
31
0
210
0
220
0
230
1
40
0.996195
41
0
42
6.28318530717959
0
ELLIPSE
5
1C3
100
AcDbEntity
8
1
62
256
6
ByLayer
370
18
48
1
60
0
100
AcDbEllipse
10
23.684494
20
-13.601945
30
0
11
1.25041917153133
21
0.650927020077436
31
0
210
0
220
0
230
1
40
0.996195
41
-0.741764932097578
42
0.305432619098999
0
ELLIPSE
5
1C4
100
AcDbEntity
8
1
62
256
6
ByLayer
370
18
48
1
60
0
100
AcDbEllipse
10
21.839777
20
-8.051286
30
0
11
0.190639336135602
21
-0.0993602847780592
31
0
210
0
220
0
230
1
40
0.031084
41
0.597024440316655
42
0.893363853946669
0
ELLIPSE
5
1C5
100
AcDbEntity
8
1
62
256
6
ByLayer
370
18
48
1
60
0
100
AcDbEllipse
10
23.685295
20
-13.603483
30
0
11
-2.05717995597728
21
-1.07090010213726
31
0
210
0
220
0
230
1
40
0.996195
41
0
42
6.28318530717959
0
ELLIPSE
5
1C6
100
AcDbEntity
8
1
62
256
6
ByLayer
370
18
48
1
60
0
100
AcDbEllipse
10
25.352587
20
-9.871944
30
0
11
0.190639335874211
21
-0.0993602846483754
31
0
210
0
220
0
230
1
40
0.031084
41
1.64422199175314
42
2.69141954299219
0
ELLIPSE
5
1C7
100
AcDbEntity
8
1
62
256
6
ByLayer
370
18
48
1
60
0
100
AcDbEllipse
10
16.164283
20
-6.098926
30
0
11
0.704286601543504
21
0.366628398908622
31
0
210
0
220
0
230
1
40
0.996195
41
0.610865238198005
42
-3.14159265358979
0
ELLIPSE
5
1C8
100
AcDbEntity
8
1
62
256
6
ByLayer
370
18
48
1
60
0
100
AcDbEllipse
10
22.321475
20
-8.297212
30
0
11
0.278984393648647
21
-0.145405294453451
31
0
210
0
220
0
230
1
40
0.031084
41
-2.54456821280182
42
-2.02096943677239
0
ELLIPSE
5
1C9
100
AcDbEntity
8
1
62
256
6
ByLayer
370
18
48
1
60
0
100
AcDbEllipse
10
25.769506
20
-11.523818
30
0
11
-1.05642990231526
21
-0.549942598362923
31
0
210
0
220
0
230
1
40
0.996195
41
3.14159265358979
42
-2.53072741539178
0
ELLIPSE
5
1CA
100
AcDbEntity
8
1
62
256
6
ByLayer
370
18
48
1
60
0
100
AcDbEllipse
10
23.589774
20
-8.953859
30
0
11
0.929947979915186
21
-0.484684315380625
31
0
210
0
220
0
230
1
40
0.031084
41
-2.02096943740074
42
-0.973771886201031
0
ELLIPSE
5
1CB
100
AcDbEntity
8
1
62
256
6
ByLayer
370
18
48
1
60
0
100
AcDbEllipse
10
23.650835
20
-13.537286
30
0
11
-2.00406882843344
21
-1.04325219912028
31
0
210
0
220
0
230
1
40
0.996195
41
-0.926063995611617
42
0
0
ELLIPSE
5
1CC
100
AcDbEntity
8
1
62
256
6
ByLayer
370
18
48
1
60
0
100
AcDbEllipse
10
23.650835
20
-13.537286
30
0
11
-2.00406882843344
21
-1.04325219912028
31
0
210
0
220
0
230
1
40
0.996195
41
0
42
2.66006365379291
0
ELLIPSE
5
1CD
100
AcDbEntity
8
1
62
256
6
ByLayer
370
18
48
1
60
0
100
AcDbEllipse
10
23.650835
20
-13.537286
30
0
11
-2.00406882843344
21
-1.04325219912028
31
0
210
0
220
0
230
1
40
0.996195
41
2.66006370078584
42
-2.21549184781085
0
ELLIPSE
5
1CE
100
AcDbEntity
8
1
62
256
6
ByLayer
370
18
48
1
60
0
100
AcDbEllipse
10
24.8601
20
-9.612959
30
0
11
0.27898439406545
21
-0.145405294663797
31
0
210
0
220
0
230
1
40
0.031084
41
-0.973771886037495
42
-0.450173110545412
0
ELLIPSE
5
1CF
100
AcDbEntity
8
1
62
256
6
ByLayer
370
18
48
1
60
0
100
AcDbEllipse
10
21.601084
20
-15.683148
30
0
11
-1.05642990231526
21
-0.549942598362923
31
0
210
0
220
0
230
1
40
0.996195
41
0
42
0.610865238198019
0
ELLIPSE
5
1D0
100
AcDbEntity
8
1
62
256
6
ByLayer
370
18
48
1
60
0
100
AcDbEllipse
10
31.206307
20
-21.10804
30
0
11
0.704286601543504
21
0.366628398908622
31
0
210
0
220
0
230
1
40
0.996195
41
-2.5307274153918
42
8.98308157956768E-15
0
ELLIPSE
5
1D1
100
AcDbEntity
8
1
62
256
6
ByLayer
370
18
48
1
60
0
100
AcDbEllipse
10
14.944066
20
-4.751187
30
0
11
-1.24181516644951
21
-0.646448058529045
31
0
210
0
220
0
230
1
40
0.996195
41
-0.288868213737606
42
0.305432619099006
0
ELLIPSE
5
1D2
100
AcDbEntity
8
1
62
256
6
ByLayer
370
18
48
1
60
0
100
AcDbEllipse
10
13.959226
20
-15.025228
30
0
11
-2.66103249953467
21
-1.3852458397051
31
0
210
0
220
0
230
1
40
0.996195
41
-0.423180634376558
42
-0.268033366183037
0
ELLIPSE
5
1D3
100
AcDbEntity
8
1
62
256
6
ByLayer
370
18
48
1
60
0
100
AcDbEllipse
10
15.202175
20
-5.127945
30
0
11
1.41921733308515
21
0.738797781176065
31
0
210
0
220
0
230
1
40
0.996195
41
0.305432619099006
42
1.8762289458939
0
ELLIPSE
5
1D4
100
AcDbEntity
8
1
62
256
6
ByLayer
370
18
48
1
60
0
100
AcDbEllipse
10
14.156416
20
-15.404028
30
0
11
-2.83843466617031
21
-1.4775955623521
31
0
210
0
220
0
230
1
40
0.996195
41
-1.26536370769589
42
-0.319593800675176
0
ELLIPSE
5
1D5
100
AcDbEntity
8
1
62
256
6
ByLayer
370
18
48
1
60
0
100
AcDbEllipse
10
9.66039
20
-9.472034
30
0
11
0.693980345984407
21
-0.978974606099342
31
0
210
0
220
0
230
1
40
0.011922
41
1.65724666173393
42
2.6904724401779
0
ELLIPSE
5
1D6
100
AcDbEntity
8
1
62
256
6
ByLayer
370
18
48
1
60
0
100
AcDbEllipse
10
8.393811
20
-11.917886
30
0
11
1.2
21
0
31
0
210
0
220
0
230
1
40
0.077371
41
1.61105124116381
42
2.75441821682972
0
ELLIPSE
5
1D7
100
AcDbEntity
8
1
62
256
6
ByLayer
370
18
48
1
60
0
100
AcDbEllipse
10
3.325614
20
-0.620827
30
0
11
-4.63512417923457
21
8.90399070460152
31
0
210
-1.24800250070274E-16
220
1.23259516440783E-32
230
1
40
0.996195
41
-2.31790754189025
42
-1.64935567555014
0
ELLIPSE
5
1D8
100
AcDbEntity
8
1
62
256
6
ByLayer
370
18
48
1
60
0
100
AcDbEllipse
10
93.95345
20
0.000514
30
0
11
397.259015467819
21
1.24006033720917
31
0
210
0
220
0
230
1
40
0.040156
41
-1.78812193252762
42
-1.78256743211657
0
ELLIPSE
5
1D9
100
AcDbEntity
8
1
62
256
6
ByLayer
370
18
48
1
60
0
100
AcDbEllipse
10
3.149731
20
-0.282957
30
0
11
-9.93452133159609
21
-5.17158446823236
31
0
210
0
220
0
230
1
40
0.996195
41
1.70801058004111
42
3.02652740476923
0
ELLIPSE
5
1DA
100
AcDbEntity
8
1
62
256
6
ByLayer
370
18
48
1
60
0
100
AcDbEllipse
10
8.274411
20
-7.778175
30
0
11
4.10301789984468
21
4.47308672825128
31
0
210
0
220
0
230
1
40
0.119771
41
0.158745327563365
42
0.79092116571984
0
ELLIPSE
5
1DB
100
AcDbEntity
8
1
62
256
6
ByLayer
370
18
48
1
60
0
100
AcDbEllipse
10
13.961426
20
-5.755177
30
0
11
0.141266400133305
21
0.141576142740848
31
0
210
0
220
0
230
1
40
0.083122
41
1.54449404535453
42
3.11529037214952
0
ELLIPSE
5
1DC
100
AcDbEntity
8
1
62
256
6
ByLayer
370
18
48
1
60
0
100
AcDbEllipse
10
14.952115
20
-4.766648
30
0
11
1.41921733308515
21
0.738797781176065
31
0
210
0
220
0
230
1
40
0.996195
41
-2.99895829092903
42
-2.83616003449079
0
ELLIPSE
5
1DD
100
AcDbEntity
8
1
62
256
6
ByLayer
370
18
48
1
60
0
100
AcDbEllipse
10
11.343088
20
-11.815775
30
0
11
2.66103249953466
21
1.38524583970512
31
0
210
0
220
0
230
1
40
0.996195
41
1.70801058004111
42
2.66318693398666
0
ELLIPSE
5
1DE
100
AcDbEntity
8
1
62
256
6
ByLayer
370
18
48
1
60
0
100
AcDbEllipse
10
15.161383
20
-5.168648
30
0
11
1.41921733308515
21
0.738797781176065
31
0
210
0
220
0
230
1
40
0.996195
41
1.8762289458939
42
-2.83616003449079
0
ELLIPSE
5
1DF
100
AcDbEntity
8
1
62
256
6
ByLayer
370
18
48
1
60
0
100
AcDbEllipse
10
3.198023
20
-0.375727
30
0
11
8.87010833178218
21
4.6174861323504
31
0
210
0
220
0
230
1
40
0.996195
41
-8.29149329822234E-06
42
0.0132535709385635
0
ELLIPSE
5
1E0
100
AcDbEntity
8
1
62
256
6
ByLayer
370
18
48
1
60
0
100
AcDbEllipse
10
15.434806
20
-17.58329
30
0
11
3.72544549934852
21
1.93934417558717
31
0
210
0
220
0
230
1
40
0.996195
41
0.808714691440878
42
1.8762289458939
0
ELLIPSE
5
1E1
100
AcDbEntity
8
1
62
256
6
ByLayer
370
18
48
1
60
0
100
AcDbEllipse
10
7.449716
20
-32.959923
30
0
11
0.499645308963696
21
-160.594492416053
31
0
210
0
220
0
230
1
40
0.000125
41
-1.6999743992064
42
-1.69005700528933
0
ELLIPSE
5
1E2
100
AcDbEntity
8
1
62
256
6
ByLayer
370
18
48
1
60
0
100
AcDbEllipse
10
16.329352
20
-8.460423
30
0
11
0.244980957718761
21
-0.0378430768696172
31
0
210
0
220
0
230
1
40
0.056735
41
1.61241962049103
42
-3.09996935989439
0
ELLIPSE
5
1E3
100
AcDbEntity
8
1
62
256
6
ByLayer
370
18
48
1
60
0
100
AcDbEllipse
10
15.958348
20
-7.74773
30
0
11
0.163122308985915
21
0.119743618520311
31
0
210
0
220
0
230
1
40
0.085139
41
1.55764518607474
42
3.12844151286956
0
ELLIPSE
5
1E4
100
AcDbEntity
8
1
62
256
6
ByLayer
370
18
48
1
60
0
100
AcDbEllipse
10
14.176542
20
-15.44269
30
0
11
3.28194008275941
21
1.70846986896965
31
0
210
0
220
0
230
1
40
0.996195
41
1.8762289458939
42
2.77238173025908
0
ELLIPSE
5
1E5
100
AcDbEntity
8
1
62
256
6
ByLayer
370
18
48
1
60
0
100
AcDbEllipse
10
15.576005
20
-17.854531
30
0
11
2.81499713660595
21
-3.89377809721116
31
0
210
0
220
0
230
1
40
0.871211
41
2.1500834415479
42
2.2123077109632
0
ELLIPSE
5
1E6
100
AcDbEntity
8
1
62
256
6
ByLayer
370
18
48
1
60
0
100
AcDbEllipse
10
17.980518
20
-5.72997
30
0
11
0.119416727325608
21
0.163357945521357
31
0
210
0
220
0
230
1
40
0.077261
41
1.23748777282664
42
1.53257549733779
0
ELLIPSE
5
1E7
100
AcDbEntity
8
1
62
256
6
ByLayer
370
18
48
1
60
0
100
AcDbEllipse
10
15.492686
20
-17.694477
30
0
11
2.62661465339538
21
-3.51875652233079
31
0
210
0
220
0
230
1
40
0.955327
41
2.01299278592908
42
2.14861796993921
0
ELLIPSE
5
1E8
100
AcDbEntity
8
1
62
256
6
ByLayer
370
18
48
1
60
0
100
AcDbEllipse
10
7.005675
20
0
30
0
11
0.0499403203423223
21
-15.9999998741604
31
0
210
0
220
0
230
1
40
0.040156
41
0.22026107866963
42
0.523930850613191
0
ELLIPSE
5
1E9
100
AcDbEntity
8
1
62
256
6
ByLayer
370
18
48
1
60
0
100
AcDbEllipse
10
7.342254
20
-7.778175
30
0
11
0.0140457150969417
21
-4.49999996473185
31
0
210
0
220
0
230
1
40
0.040156
41
-0.240991880965032
42
-0.000132226524193772
0
POINT
5
70
100
AcDbEntity
8
2
62
256
6
ByLayer
370
18
48
1
60
0
100
AcDbPoint
10
31.854935
20
21.132599
30
0
39
0
210
0
220
0
230
1
50
360
0
POINT
5
72
100
AcDbEntity
8
2
62
256
6
ByLayer
370
13
48
1
60
0
100
AcDbPoint
10
23.685295
20
13.603483
30
0
39
0
210
0
220
0
230
1
50
360
0
POINT
5
73
100
AcDbEntity
8
2
62
256
6
ByLayer
370
18
48
1
60
0
100
AcDbPoint
10
32
20
21.9
30
0
39
0
210
0
220
0
230
1
50
360
0
POINT
5
74
100
AcDbEntity
8
81
62
256
6
ByLayer
370
18
48
1
60
0
100
AcDbPoint
10
32
20
-21.9
30
0
39
0
210
0
220
0
230
1
50
360
0
POINT
5
76
100
AcDbEntity
8
80
62
256
6
ByLayer
370
18
48
1
60
0
100
AcDbPoint
10
0
20
0
30
0
39
0
210
0
220
0
230
1
50
360
0
POINT
5
78
100
AcDbEntity
8
1
62
256
6
ByLayer
370
18
48
1
60
1
100
AcDbPoint
10
0
20
16
30
0
39
0
210
0
220
0
230
1
50
360
0
POINT
5
7A
100
AcDbEntity
8
1
62
256
6
ByLayer
370
18
48
1
60
1
100
AcDbPoint
10
0
20
-16
30
0
39
0
210
0
220
0
230
1
50
360
0
POINT
5
7B
100
AcDbEntity
8
1
62
256
6
ByLayer
370
18
48
1
60
1
100
AcDbPoint
10
32
20
0
30
0
39
0
210
0
220
0
230
1
50
360
0
POINT
5
7C
100
AcDbEntity
8
1
62
256
6
ByLayer
370
18
48
1
60
1
100
AcDbPoint
10
32
20
-21.9
30
0
39
0
210
0
220
0
230
1
50
360
0
POINT
5
7D
100
AcDbEntity
8
1
62
256
6
ByLayer
370
18
48
1
60
1
100
AcDbPoint
10
0
20
-16
30
0
39
0
210
0
220
0
230
1
50
360
0
POINT
5
7E
100
AcDbEntity
8
1
62
256
6
ByLayer
370
18
48
1
60
1
100
AcDbPoint
10
32
20
-21.9
30
0
39
0
210
0
220
0
230
1
50
360
0
SPLINE
5
1EA
100
AcDbEntity
8
SK1
62
256
6
ByLayer
370
18
48
1
60
0
100
AcDbSpline
70
4
71
3
72
8
73
4
40
0
40
0
40
0
40
0
40
1
40
1
40
1
40
1
41
1
10
0
20
-15.3199301304152
30
0
41
1
10
-0.0832631335832161
20
-15.2378187585574
30
0
41
1
10
-0.166437562506246
20
-15.1555872898627
30
0
41
1
10
-0.249519052838309
20
-15.0732309630904
30
0
0
SPLINE
5
1EB
100
AcDbEntity
8
SK1
62
256
6
ByLayer
370
18
48
1
60
0
100
AcDbSpline
70
4
71
3
72
8
73
4
40
0
40
0
40
0
40
0
40
1
40
1
40
1
40
1
41
1
10
-0.249519052838309
20
14.7246952776827
30
0
41
1
10
-0.166386250755409
20
14.7992742322957
30
0
41
1
10
-0.0832126381486091
20
14.873792568142
30
0
41
1
10
0
20
14.9482527139731
30
0
0
SPLINE
5
1EC
100
AcDbEntity
8
SK1
62
256
6
ByLayer
370
18
48
1
60
0
100
AcDbSpline
70
4
71
3
72
8
73
4
40
0
40
0
40
0
40
0
40
1
40
1
40
1
40
1
41
1
10
0
20
15.0980216982492
30
0
41
1
10
-0.0833481825888498
20
15.0050566253247
30
0
41
1
10
-0.166524149326051
20
14.9118852033362
30
0
41
1
10
-0.249519052838309
20
14.8184996647002
30
0
0
SPLINE
5
1ED
100
AcDbEntity
8
SK1
62
256
6
ByLayer
370
18
48
1
60
0
100
AcDbSpline
70
4
71
3
72
8
73
4
40
0
40
0
40
0
40
0
40
1
40
1
40
1
40
1
41
1
10
-0.212786371493678
20
-11.1044934159156
30
0
41
1
10
-0.224998037660214
20
-11.1209741373647
30
0
41
1
10
-0.23724268661681
20
-11.1374218023923
30
0
41
1
10
-0.249519052838309
20
-11.1538370998082
30
0
0
SPLINE
5
1EE
100
AcDbEntity
8
SK1
62
256
6
ByLayer
370
18
48
1
60
0
100
AcDbSpline
70
4
71
3
72
8
73
4
40
0
40
0
40
0
40
0
40
1
40
1
40
1
40
1
41
1
10
-0.249519052838309
20
-12.2621047787412
30
0
41
1
10
-0.167022275036572
20
-12.3975876519351
30
0
41
1
10
-0.0838355637598056
20
-12.5325135403374
30
0
41
1
10
0
20
-12.6668961944433
30
0
0
SPLINE
5
1EF
100
AcDbEntity
8
SK1
62
256
6
ByLayer
370
18
48
1
60
0
100
AcDbSpline
70
4
71
3
72
8
73
4
40
0
40
0
40
0
40
0
40
1
40
1
40
1
40
1
41
1
10
0
20
15.2093806317287
30
0
41
1
10
-0.0832347511397984
20
15.1314400306485
30
0
41
1
10
-0.166408710993608
20
15.0534127820965
30
0
41
1
10
-0.249519052838309
20
14.9752953674924
30
0
0
SPLINE
5
1F0
100
AcDbEntity
8
1
62
256
6
ByLayer
370
18
48
1
60
0
100
AcDbSpline
70
4
71
3
72
8
73
4
40
0
40
0
40
0
40
0
40
1
40
1
40
1
40
1
41
1
10
22.6001882410035
20
-12.974432027524
30
0
41
1
10
22.6065573622895
20
-12.975538526281
30
0
41
1
10
22.6129277634854
20
-12.9766454504399
30
0
41
1
10
22.6192995042172
20
-12.9777528201782
30
0
0
SPLINE
5
1F1
100
AcDbEntity
8
1
62
256
6
ByLayer
370
18
48
1
60
0
100
AcDbSpline
70
4
71
3
72
26
73
22
40
0
40
0
40
0
40
0
40
0.0960918903649626
40
0.0960918903649626
40
0.185427107814076
40
0.185427107814076
40
0.2682294981659
40
0.2682294981659
40
0.405011235318679
40
0.405011235318679
40
0.518663863856407
40
0.518663863856407
40
0.631974338343422
40
0.631974338343422
40
0.745140813252811
40
0.745140813252811
40
0.858241422927092
40
0.858241422927092
40
0.971313037595386
40
0.971313037595386
40
1
40
1
40
1
40
1
41
1
10
24.30740390094
20
-12.5155130669825
30
0
41
1
10
24.3124278948034
20
-12.5045028402049
30
0
41
1
10
24.3197719596639
20
-12.4942785518694
30
0
41
1
10
24.3378758243596
20
-12.4784814053854
30
0
41
1
10
24.348604736512
20
-12.4724488145183
30
0
41
1
10
24.3710190524428
20
-12.4647315906101
30
0
41
1
10
24.3828044850678
20
-12.4626372986752
30
0
41
1
10
24.4143240303512
20
-12.4607799891652
30
0
41
1
10
24.4347812456073
20
-12.4632612702227
30
0
41
1
10
24.4710610040285
20
-12.4717575110399
30
0
41
1
10
24.4873875613887
20
-12.4771738404195
30
0
41
1
10
24.5190825845347
20
-12.4900464990523
30
0
41
1
10
24.5345546762339
20
-12.4975414100498
30
0
41
1
10
24.5645662868908
20
-12.5140524366567
30
0
41
1
10
24.5791609654508
20
-12.5230990707753
30
0
41
1
10
24.6074315092928
20
-12.5424126848843
30
0
41
1
10
24.6211425544112
20
-12.5527041376807
30
0
41
1
10
24.6476340116611
20
-12.5743233181666
30
0
41
1
10
24.6604406002215
20
-12.5856726661032
30
0
41
1
10
24.6758862022912
20
-12.6004805472585
30
0
41
1
10
24.6789824838418
20
-12.6035089642497
30
0
41
1
10
24.6820471836226
20
-12.60656695903
30
0
0
SPLINE
5
1F2
100
AcDbEntity
8
1
62
256
6
ByLayer
370
18
48
1
60
0
100
AcDbSpline
70
4
71
3
72
26
73
22
40
0
40
0
40
0
40
0
40
0.0960918903649582
40
0.0960918903649582
40
0.185427107814083
40
0.185427107814083
40
0.268229498165923
40
0.268229498165923
40
0.4050112353187
40
0.4050112353187
40
0.518663863856434
40
0.518663863856434
40
0.631974338343452
40
0.631974338343452
40
0.745140813252841
40
0.745140813252841
40
0.858241422927115
40
0.858241422927115
40
0.971313037595408
40
0.971313037595408
40
1
40
1
40
1
40
1
41
1
10
22.4324152583493
20
-13.5958458159062
30
0
41
1
10
22.4203118302958
20
-13.5981197370456
30
0
41
1
10
22.4077348569622
20
-13.5980360886891
30
0
41
1
10
22.3849287407186
20
-13.5923721839529
30
0
41
1
10
22.3743143740756
20
-13.5870843796955
30
0
41
1
10
22.3563963615361
20
-13.5732167712938
30
0
41
1
10
22.3486857966159
20
-13.5647922525935
30
0
41
1
10
22.3313253694023
20
-13.5401193990866
30
0
41
1
10
22.3232692174582
20
-13.5219983412283
30
0
41
1
10
22.3125477688263
20
-13.4875636881161
30
0
41
1
10
22.3091096523242
20
-13.4711730690561
30
0
41
1
10
22.3044869754011
20
-13.438050059064
30
0
41
1
10
22.3032842638283
20
-13.4212110328933
30
0
41
1
10
22.302667576926
20
-13.3874708651977
30
0
41
1
10
22.3032526250908
20
-13.3705074597095
30
0
41
1
10
22.3059424575577
20
-13.3366807170616
30
0
41
1
10
22.3080509745241
20
-13.3197749670361
30
0
41
1
10
22.3136333103103
20
-13.2861784694064
30
0
41
1
10
22.3171128712264
20
-13.2694543490501
30
0
41
1
10
22.3222830638441
20
-13.2486835181559
30
0
41
1
10
22.3233716449301
20
-13.2444875553805
30
0
41
1
10
22.3245016957329
20
-13.240301963998
30
0
0
SPLINE
5
1F3
100
AcDbEntity
8
1
62
256
6
ByLayer
370
18
48
1
60
0
100
AcDbSpline
70
4
71
3
72
26
73
22
40
0
40
0
40
0
40
0
40
0.0843971137813224
40
0.0843971137813224
40
0.289834052492033
40
0.289834052492033
40
0.39209513087106
40
0.39209513087106
40
0.494452771537271
40
0.494452771537271
40
0.597019768820988
40
0.597019768820988
40
0.672954859099056
40
0.672954859099056
40
0.796883557884367
40
0.796883557884367
40
0.881282445819684
40
0.881282445819684
40
0.965825257041745
40
0.965825257041745
40
1
40
1
40
1
40
1
41
1
10
24.6820471836226
20
-12.60656695903
30
0
41
1
10
24.6910576604828
20
-12.6155577226211
30
0
41
1
10
24.6998013952322
20
-12.6248097184486
30
0
41
1
10
24.7287629483108
20
-12.6573451534379
30
0
41
1
10
24.7476509484766
20
-12.6818987347749
30
0
41
1
10
24.7724668290145
20
-12.720538794563
30
0
41
1
10
24.7801654249996
20
-12.7337440171768
30
0
41
1
10
24.7941231953782
20
-12.7607468105491
30
0
41
1
10
24.8004053140084
20
-12.7745882249079
30
0
41
1
10
24.8110726168711
20
-12.8027690706791
30
0
41
1
10
24.815485477148
20
-12.8171864339006
30
0
41
1
10
24.8208387640328
20
-12.842445407925
30
0
41
1
10
24.8223913611006
20
-12.853304811749
30
0
41
1
10
24.8239069638462
20
-12.8814289545128
30
0
41
1
10
24.8222431795543
20
-12.8989964782545
30
0
41
1
10
24.8132403055664
20
-12.9253821366201
30
0
41
1
10
24.8077367605691
20
-12.9354225523853
30
0
41
1
10
24.7935239523251
20
-12.9521913638418
30
0
41
1
10
24.7846385584667
20
-12.9591126299832
30
0
41
1
10
24.7708634843884
20
-12.9662301093923
30
0
41
1
10
24.766690851318
20
-12.9680124841779
30
0
41
1
10
24.7624045273583
20
-12.9695182355663
30
0
0
SPLINE
5
1F4
100
AcDbEntity
8
1
62
256
6
ByLayer
370
18
48
1
60
0
100
AcDbSpline
70
4
71
3
72
26
73
22
40
0
40
0
40
0
40
0
40
0.192635434265323
40
0.192635434265323
40
0.302770898699899
40
0.302770898699899
40
0.412976465183253
40
0.412976465183253
40
0.523333561905916
40
0.523333561905916
40
0.619800125856717
40
0.619800125856717
40
0.690514804516499
40
0.690514804516499
40
0.80789694745247
40
0.80789694745247
40
0.891597280195652
40
0.891597280195652
40
0.97531596124979
40
0.97531596124979
40
1
40
1
40
1
40
1
41
1
10
22.6869406439524
20
-14.5973221677295
30
0
41
1
10
22.7074599414997
20
-14.617796572821
30
0
41
1
10
22.7293860980188
20
-14.636912943777
30
0
41
1
10
22.7657015394735
20
-14.6641831798501
30
0
41
1
10
22.7793487393993
20
-14.6735561900471
30
0
41
1
10
22.8073929684205
20
-14.690905900078
30
0
41
1
10
22.8218279632498
20
-14.6989067467615
30
0
41
1
10
22.851398808366
20
-14.7131281146507
30
0
41
1
10
22.866597186758
20
-14.7193789507533
30
0
41
1
10
22.8955750213555
20
-14.7287996799288
30
0
41
1
10
22.909369739186
20
-14.7322823428605
30
0
41
1
10
22.9333665449271
20
-14.7360612520691
30
0
41
1
10
22.9436030005892
20
-14.7369640610881
30
0
41
1
10
22.9703210819237
20
-14.7369419450159
30
0
41
1
10
22.9870240943673
20
-14.7343774424243
30
0
41
1
10
23.0124629607247
20
-14.724171787906
30
0
41
1
10
23.0223285464261
20
-14.7180478031347
30
0
41
1
10
23.0386758039021
20
-14.7027737426328
30
0
41
1
10
23.0453540331518
20
-14.6934488331202
30
0
41
1
10
23.0516694702637
20
-14.6803226583705
30
0
41
1
10
23.052973564081
20
-14.6772231883934
30
0
41
1
10
23.0541333620503
20
-14.6740636583739
30
0
0
SPLINE
5
1F5
100
AcDbEntity
8
1
62
256
6
ByLayer
370
18
48
1
60
0
100
AcDbSpline
70
4
71
3
72
8
73
4
40
0
40
0
40
0
40
0
40
1
40
1
40
1
40
1
41
1
10
24.2921058719992
20
-12.5280834682006
30
0
41
1
10
24.2972060553963
20
-12.5238923149544
30
0
41
1
10
24.3023053858388
20
-12.5197021966539
30
0
41
1
10
24.30740390094
20
-12.5155130669825
30
0
0
SPLINE
5
1F6
100
AcDbEntity
8
1
62
256
6
ByLayer
370
18
48
1
60
0
100
AcDbSpline
70
4
71
3
72
8
73
4
40
0
40
0
40
0
40
0
40
1
40
1
40
1
40
1
41
1
10
23.0627881645955
20
-12.5352314093702
30
0
41
1
10
23.0615419310958
20
-12.5290097111404
30
0
41
1
10
23.0602960575556
20
-12.5227894359298
30
0
41
1
10
23.0590505277942
20
-12.5165705202105
30
0
0
SPLINE
5
1F7
100
AcDbEntity
8
1
62
256
6
ByLayer
370
18
48
1
60
0
100
AcDbSpline
70
4
71
3
72
26
73
22
40
0
40
0
40
0
40
0
40
0.0843971137812651
40
0.0843971137812651
40
0.289834052491981
40
0.289834052491981
40
0.392095130871014
40
0.392095130871014
40
0.494452771537236
40
0.494452771537236
40
0.597019768820966
40
0.597019768820966
40
0.672954859099034
40
0.672954859099034
40
0.796883557884372
40
0.796883557884372
40
0.881282445819688
40
0.881282445819688
40
0.965825257041747
40
0.965825257041747
40
1
40
1
40
1
40
1
41
1
10
23.322054965568
20
-12.2449243596483
30
0
41
1
10
23.334387887476
20
-12.2416091301578
30
0
41
1
10
23.3468189574794
20
-12.2386456938919
30
0
41
1
10
23.3896546765938
20
-12.2297387744718
30
0
41
1
10
23.4205202156134
20
-12.225533834912
30
0
41
1
10
23.4666857257984
20
-12.2230645398591
30
0
41
1
10
23.4820791448893
20
-12.2228815864848
30
0
41
1
10
23.5126840721405
20
-12.2240109773082
30
0
41
1
10
23.5279453767856
20
-12.2253249703504
30
0
41
1
10
23.5579836153073
20
-12.2297819863364
30
0
41
1
10
23.5728426751106
20
-12.2329389506901
30
0
41
1
10
23.5977233288111
20
-12.240457147488
30
0
41
1
10
23.6080572470779
20
-12.2443152129022
30
0
41
1
10
23.6336110326245
20
-12.2563937352945
30
0
41
1
10
23.6483126737007
20
-12.2661130224379
30
0
41
1
10
23.6672695469654
20
-12.2861041687278
30
0
41
1
10
23.6734852822291
20
-12.2954338000993
30
0
41
1
10
23.6814594573289
20
-12.3151711178348
30
0
41
1
10
23.6833036693279
20
-12.3258161013443
30
0
41
1
10
23.6829782846705
20
-12.3405992024757
30
0
41
1
10
23.6825503827243
20
-12.3448993487846
30
0
41
1
10
23.6818241368666
20
-12.3491619004121
30
0
0
SPLINE
5
1F8
100
AcDbEntity
8
1
62
256
6
ByLayer
370
18
48
1
60
0
100
AcDbSpline
70
4
71
3
72
8
73
4
40
0
40
0
40
0
40
0
40
1
40
1
40
1
40
1
41
1
10
23.6797131261237
20
-14.8404148249444
30
0
41
1
10
23.6775312437636
20
-14.8338010483768
30
0
41
1
10
23.67534907896
20
-14.82718628664
30
0
41
1
10
23.6731666188313
20
-14.8205704944479
30
0
0
SPLINE
5
1F9
100
AcDbEntity
8
1
62
256
6
ByLayer
370
18
48
1
60
0
100
AcDbSpline
70
4
71
3
72
26
73
22
40
0
40
0
40
0
40
0
40
0.0864636496434066
40
0.0864636496434066
40
0.153674415595193
40
0.153674415595193
40
0.220724831832368
40
0.220724831832368
40
0.287702845087188
40
0.287702845087188
40
0.354645915321234
40
0.354645915321234
40
0.49937123449508
40
0.49937123449508
40
0.701681266350152
40
0.701681266350152
40
0.859633921782592
40
0.859633921782592
40
0.963032016066423
40
0.963032016066423
40
1
40
1
40
1
40
1
41
1
10
23.068546148779
20
-14.6597927226884
30
0
41
1
10
23.0816023795514
20
-14.6468659403288
30
0
41
1
10
23.0976767068244
20
-14.6366464767316
30
0
41
1
10
23.1281418370342
20
-14.6225645646662
30
0
41
1
10
23.1423506089122
20
-14.6176891104195
30
0
41
1
10
23.1715062407057
20
-14.6101063210543
30
0
41
1
10
23.18654847758
20
-14.6073715820656
30
0
41
1
10
23.2170477424586
20
-14.6036911272322
30
0
41
1
10
23.2325718903525
20
-14.6027373199989
30
0
41
1
10
23.2638182876992
20
-14.602385086261
30
0
41
1
10
23.2795936959734
20
-14.6029863467825
30
0
41
1
10
23.3293549291536
20
-14.6070966041078
30
0
41
1
10
23.3637125685325
20
-14.6131813806989
30
0
41
1
10
23.4438207490692
20
-14.6344833633547
30
0
41
1
10
23.4898324525216
20
-14.6525999318859
30
0
41
1
10
23.5642852317963
20
-14.6942585376542
30
0
41
1
10
23.5951754538704
20
-14.7161664782421
30
0
41
1
10
23.6377724633912
20
-14.7585922073406
30
0
41
1
10
23.6527590828026
20
-14.7773842166183
30
0
41
1
10
23.6672886041679
20
-14.8051524079474
30
0
41
1
10
23.6705961511112
20
-14.8127785169236
30
0
41
1
10
23.6731666188299
20
-14.8205704944439
30
0
0
SPLINE
5
1FA
100
AcDbEntity
8
1
62
256
6
ByLayer
370
18
48
1
60
0
100
AcDbSpline
70
4
71
3
72
8
73
4
40
0
40
0
40
0
40
0
40
1
40
1
40
1
40
1
41
1
10
23.0541333620503
20
-14.6740636583739
30
0
41
1
10
23.0589366150336
20
-14.6693073354513
30
0
41
1
10
23.0637408618271
20
-14.6645503667348
30
0
41
1
10
23.068546148779
20
-14.6597927226884
30
0
0
SPLINE
5
1FB
100
AcDbEntity
8
1
62
256
6
ByLayer
370
18
48
1
60
0
100
AcDbSpline
70
4
71
3
72
8
73
4
40
0
40
0
40
0
40
0
40
1
40
1
40
1
40
1
41
1
10
24.7624045273583
20
-12.9695182355664
30
0
41
1
10
24.7577743952554
20
-12.9741747235
30
0
41
1
10
24.7531435333895
20
-12.978832285454
30
0
41
1
10
24.7485119081188
20
-12.9834909717075
30
0
0
SPLINE
5
1FC
100
AcDbEntity
8
1
62
256
6
ByLayer
370
18
48
1
60
0
100
AcDbSpline
70
4
71
3
72
30
73
26
40
0
40
0
40
0
40
0
40
0.086599956699673
40
0.086599956699673
40
0.15391667817955
40
0.15391667817955
40
0.221072797158881
40
0.221072797158881
40
0.28815639901499
40
0.28815639901499
40
0.355205002763824
40
0.355205002763824
40
0.500158476570619
40
0.500158476570619
40
0.599626548584182
40
0.599626548584182
40
0.699135162661932
40
0.699135162661932
40
0.791210681553139
40
0.791210681553139
40
0.865857432560987
40
0.865857432560987
40
0.924551309179056
40
0.924551309179056
40
1
40
1
40
1
40
1
41
1
10
24.7485119081188
20
-12.9834909717075
30
0
41
1
10
24.7359275257523
20
-12.9961488802631
30
0
41
1
10
24.7260376089039
20
-13.011837032724
30
0
41
1
10
24.7124872161439
20
-13.0416746456931
30
0
41
1
10
24.7078298540039
20
-13.0556241783925
30
0
41
1
10
24.7006469059127
20
-13.0843007144033
30
0
41
1
10
24.6980952889811
20
-13.0991214569933
30
0
41
1
10
24.6947446683103
20
-13.1292170610478
30
0
41
1
10
24.6939383132344
20
-13.1445581399278
30
0
41
1
10
24.6938439015882
20
-13.1754783608216
30
0
41
1
10
24.6945559724824
20
-13.191110105557
30
0
41
1
10
24.6989556879175
20
-13.2404829470752
30
0
41
1
10
24.7051512791886
20
-13.2746683502963
30
0
41
1
10
24.7202359397172
20
-13.3311473495989
30
0
41
1
10
24.7277304884396
20
-13.3539954536745
30
0
41
1
10
24.7452469451182
20
-13.3985184241291
30
0
41
1
10
24.7553218453909
20
-13.4203315797228
30
0
41
1
10
24.77719032922
20
-13.4605248682324
30
0
41
1
10
24.7888661027422
20
-13.4791684903242
30
0
41
1
10
24.812148819469
20
-13.5107236988977
30
0
41
1
10
24.8234173155919
20
-13.5241412304122
30
0
41
1
10
24.8450657443862
20
-13.545982891399
30
0
41
1
10
24.855180310083
20
-13.554917219869
30
0
41
1
10
24.8794750696061
20
-13.572839086907
30
0
41
1
10
24.8942376660522
20
-13.5813009157839
30
0
41
1
10
24.9096437177929
20
-13.586790154275
30
0
0
SPLINE
5
1FD
100
AcDbEntity
8
1
62
256
6
ByLayer
370
18
48
1
60
0
100
AcDbSpline
70
4
71
3
72
26
73
22
40
0
40
0
40
0
40
0
40
0.084397113781337
40
0.084397113781337
40
0.289834052492039
40
0.289834052492039
40
0.392095130871055
40
0.392095130871055
40
0.494452771537265
40
0.494452771537265
40
0.597019768820978
40
0.597019768820978
40
0.672954859099048
40
0.672954859099048
40
0.79688355788436
40
0.79688355788436
40
0.881282445819677
40
0.881282445819677
40
0.96582525704174
40
0.96582525704174
40
1
40
1
40
1
40
1
41
1
10
22.3245016957329
20
-13.240301963998
30
0
41
1
10
22.3278241407807
20
-13.2279959709164
30
0
41
1
10
22.3315067661246
20
-13.2157714911698
30
0
41
1
10
22.3453482160822
20
-13.1742662897589
30
0
41
1
10
22.3572746654465
20
-13.1454096268661
30
0
41
1
10
22.3784928757046
20
-13.1040478177276
30
0
41
1
10
22.3861345786031
20
-13.0905575987707
30
0
41
1
10
22.4026519227946
20
-13.0644348283816
30
0
41
1
10
22.4115542374169
20
-13.0517597384939
30
0
41
1
10
22.430739818236
20
-13.0276798453741
30
0
41
1
10
22.4410770436683
20
-13.0162101092191
30
0
41
1
10
22.4603765223553
20
-12.9980315629704
30
0
41
1
10
22.4690482114276
20
-12.9908196232046
30
0
41
1
10
22.4927597000834
20
-12.9741464292194
30
0
41
1
10
22.5088766319329
20
-12.9658208410131
30
0
41
1
10
22.5363390402467
20
-12.9584709497249
30
0
41
1
10
22.5478292044131
20
-12.9573200374083
30
0
41
1
10
22.5695333218309
20
-12.959360966874
30
0
41
1
10
22.5800032660542
20
-12.9625858788838
30
0
41
1
10
22.5930922917045
20
-12.9695586719488
30
0
41
1
10
22.5967321217158
20
-12.9718749303092
30
0
41
1
10
22.6001882410035
20
-12.974432027524
30
0
0
SPLINE
5
1FE
100
AcDbEntity
8
1
62
256
6
ByLayer
370
18
48
1
60
0
100
AcDbSpline
70
4
71
3
72
8
73
4
40
0
40
0
40
0
40
0
40
1
40
1
40
1
40
1
41
1
10
22.6121401126594
20
-14.2043852191816
30
0
41
1
10
22.6078033838339
20
-14.2096103962353
30
0
41
1
10
22.603467605617
20
-14.2148348086051
30
0
41
1
10
22.599132735632
20
-14.2200584897901
30
0
0
SPLINE
5
1FF
100
AcDbEntity
8
1
62
256
6
ByLayer
370
18
48
1
60
0
100
AcDbSpline
70
4
71
3
72
8
73
4
40
0
40
0
40
0
40
0
40
1
40
1
40
1
40
1
41
1
10
24.9096437177929
20
-13.586790154275
30
0
41
1
10
24.9161375829121
20
-13.5891039446587
30
0
41
1
10
24.9226303287194
20
-13.5914175267767
30
0
41
1
10
24.9291220046409
20
-13.5937309094503
30
0
0
SPLINE
5
200
100
AcDbEntity
8
1
62
256
6
ByLayer
370
18
48
1
60
0
100
AcDbSpline
70
4
71
3
72
26
73
22
40
0
40
0
40
0
40
0
40
0.0843971137814231
40
0.0843971137814231
40
0.289834052492112
40
0.289834052492112
40
0.392095130871126
40
0.392095130871126
40
0.494452771537319
40
0.494452771537319
40
0.59701976882102
40
0.59701976882102
40
0.672954859099082
40
0.672954859099082
40
0.796883557884382
40
0.796883557884382
40
0.881282445819701
40
0.881282445819701
40
0.965825257041763
40
0.965825257041763
40
1
40
1
40
1
40
1
41
1
10
25.044486131842
20
-13.9635871627614
30
0
41
1
10
25.0411636867942
20
-13.975893155843
30
0
41
1
10
25.0374716416301
20
-13.9880995402833
30
0
41
1
10
25.023564759516
20
-14.0294790476912
30
0
41
1
10
25.0115361311729
20
-14.0581394265919
30
0
41
1
10
24.9900550821367
20
-14.0989963271354
30
0
41
1
10
24.9823071388237
20
-14.1122824601549
30
0
41
1
10
24.9655301692699
20
-14.1379064948633
30
0
41
1
10
24.9564741118626
20
-14.1502862476088
30
0
41
1
10
24.9369178213636
20
-14.1736540140593
30
0
41
1
10
24.9263626477431
20
-14.18470507564
30
0
41
1
10
24.9066073927987
20
-14.2020080838444
30
0
41
1
10
24.897716439473
20
-14.2087988208984
30
0
41
1
10
24.8733515625268
20
-14.2242168676558
30
0
41
1
10
24.8567376436401
20
-14.2315877526464
30
0
41
1
10
24.8282805574487
20
-14.2370268855096
30
0
41
1
10
24.8163321610929
20
-14.2372975419802
30
0
41
1
10
24.7936623118234
20
-14.233401458888
30
0
41
1
10
24.7826730443319
20
-14.2291789361617
30
0
41
1
10
24.7688626911402
20
-14.2208204857821
30
0
41
1
10
24.7650130589032
20
-14.2181012010958
30
0
41
1
10
24.7613490219868
20
-14.2151446978325
30
0
0
SPLINE
5
201
100
AcDbEntity
8
1
62
256
6
ByLayer
370
18
48
1
60
0
100
AcDbSpline
70
4
71
3
72
26
73
22
40
0
40
0
40
0
40
0
40
0.096090715358988
40
0.096090715358988
40
0.185424840422338
40
0.185424840422338
40
0.268226218271408
40
0.268226218271408
40
0.405006282864246
40
0.405006282864246
40
0.518657521664002
40
0.518657521664002
40
0.631966610596886
40
0.631966610596886
40
0.745131701712952
40
0.745131701712952
40
0.858230928399302
40
0.858230928399302
40
0.971301160434231
40
0.971301160434231
40
1
40
1
40
1
40
1
41
1
10
22.599132735632
20
-14.2200584897901
30
0
41
1
10
22.5878319132955
20
-14.2253374747587
30
0
41
1
10
22.5773083026127
20
-14.232941892534
30
0
41
1
10
22.5609736783104
20
-14.2515081246412
30
0
41
1
10
22.5546933782208
20
-14.2624476488932
30
0
41
1
10
22.5465592547882
20
-14.2852122381469
30
0
41
1
10
22.5442860487564
20
-14.2971459229526
30
0
41
1
10
22.5420225447443
20
-14.3289979818463
30
0
41
1
10
22.5443109728286
20
-14.3496084239179
30
0
41
1
10
22.5525331071619
20
-14.3861010950937
30
0
41
1
10
22.5578526713746
20
-14.4025004113487
30
0
41
1
10
22.5705718258612
20
-14.434307552237
30
0
41
1
10
22.5780095136254
20
-14.4498193441199
30
0
41
1
10
22.5944348938673
20
-14.4798869695484
30
0
41
1
10
22.6034529884989
20
-14.4944980250559
30
0
41
1
10
22.6227320336285
20
-14.5227835274023
30
0
41
1
10
22.6330174391065
20
-14.5364931485128
30
0
41
1
10
22.6546436258689
20
-14.5629669883222
30
0
41
1
10
22.6660060462347
20
-14.57575735472
30
0
41
1
10
22.6808413926626
20
-14.5911741605488
30
0
41
1
10
22.6838759441715
20
-14.594264172949
30
0
41
1
10
22.6869406439524
20
-14.5973221677295
30
0
0
SPLINE
5
202
100
AcDbEntity
8
1
62
256
6
ByLayer
370
18
48
1
60
0
100
AcDbSpline
70
4
71
3
72
26
73
22
40
0
40
0
40
0
40
0
40
0.0960918903649583
40
0.0960918903649583
40
0.185427107814091
40
0.185427107814091
40
0.268229498165922
40
0.268229498165922
40
0.405011235318713
40
0.405011235318713
40
0.518663863856462
40
0.518663863856462
40
0.631974338343492
40
0.631974338343492
40
0.745140813252892
40
0.745140813252892
40
0.858241422927183
40
0.858241422927183
40
0.971313037595487
40
0.971313037595487
40
1
40
1
40
1
40
1
41
1
10
24.929122004641
20
-13.5937309094503
30
0
41
1
10
24.9418015499302
20
-13.5925636992237
30
0
41
1
10
24.9549772418459
20
-13.5937974752755
30
0
41
1
10
24.9788706075284
20
-13.6015499667513
30
0
41
1
10
24.9899919816535
20
-13.6078117233202
30
0
41
1
10
25.0087748569329
20
-13.6233407175874
30
0
41
1
10
25.0168623592583
20
-13.6324893263061
30
0
41
1
10
25.0350923067215
20
-13.6588325126717
30
0
41
1
10
25.0435772454596
20
-13.6777772622975
30
0
41
1
10
25.0549317099452
20
-13.7134279275505
30
0
41
1
10
25.0586047580575
20
-13.7302698460351
30
0
41
1
10
25.0636204199967
20
-13.7641477732191
30
0
41
1
10
25.0649824151429
20
-13.7812927802874
30
0
41
1
10
25.0658626036344
20
-13.8155391298263
30
0
41
1
10
25.0653821698455
20
-13.8327034976609
30
0
41
1
10
25.0628586743091
20
-13.8668497705793
30
0
41
1
10
25.0608120345075
20
-13.8838743855326
30
0
41
1
10
25.0553170595096
20
-13.9176387016749
30
0
41
1
10
25.0518630440117
20
-13.9344118943232
30
0
41
1
10
25.0467036702496
20
-13.9552035080457
30
0
41
1
10
25.0456161826448
20
-13.9594015713789
30
0
41
1
10
25.044486131842
20
-13.9635871627614
30
0
0
SPLINE
5
203
100
AcDbEntity
8
1
62
256
6
ByLayer
370
18
48
1
60
0
100
AcDbSpline
70
4
71
3
72
30
73
26
40
0
40
0
40
0
40
0
40
0.0865999566996687
40
0.0865999566996687
40
0.153916678179545
40
0.153916678179545
40
0.221072797158876
40
0.221072797158876
40
0.288156399014979
40
0.288156399014979
40
0.355205002763805
40
0.355205002763805
40
0.500158476570619
40
0.500158476570619
40
0.599626548584185
40
0.599626548584185
40
0.699135162661934
40
0.699135162661934
40
0.791210681553144
40
0.791210681553144
40
0.865857432560991
40
0.865857432560991
40
0.92455130917906
40
0.92455130917906
40
1
40
1
40
1
40
1
41
1
10
22.6192995042172
20
-12.9777528201782
30
0
41
1
10
22.6366118766619
20
-12.9807616050848
30
0
41
1
10
22.65521087786
20
-12.9799948604658
30
0
41
1
10
22.6879495449528
20
-12.9744253764919
30
0
41
1
10
22.7024148042609
20
-12.9705102457079
30
0
41
1
10
22.730952437791
20
-12.9606135876664
30
0
41
1
10
22.7451193789966
20
-12.9546016238833
30
0
41
1
10
22.7729684274472
20
-12.9409984020441
30
0
41
1
10
22.7867118014357
20
-12.9333771376294
30
0
41
1
10
22.8136426893593
20
-12.9168670557759
30
0
41
1
10
22.8268758761606
20
-12.9079498969386
30
0
41
1
10
22.8675913617324
20
-12.8781916577273
30
0
41
1
10
22.8941985968453
20
-12.8552578775992
30
0
41
1
10
22.9357166304578
20
-12.8138303948931
30
0
41
1
10
22.9518116516859
20
-12.796054187621
30
0
41
1
10
22.9817099978079
20
-12.7592732147739
30
0
41
1
10
22.9956068956232
20
-12.740155322207
30
0
41
1
10
23.019552858222
20
-12.7024587605972
30
0
41
1
10
23.0298901612865
20
-12.6838281897502
30
0
41
1
10
23.045619129053
20
-12.6496158969504
30
0
41
1
10
23.0516202714637
20
-12.6340271291963
30
0
41
1
10
23.0597315746417
20
-12.60610467048
30
0
41
1
10
23.0624179251544
20
-12.5937127158334
30
0
41
1
10
23.0657986943527
20
-12.5657484039871
30
0
41
1
10
23.0657447301269
20
-12.5499917721252
30
0
41
1
10
23.0627881645954
20
-12.5352314093702
30
0
0
SPLINE
5
204
100
AcDbEntity
8
1
62
256
6
ByLayer
370
18
48
1
60
0
100
AcDbSpline
70
4
71
3
72
8
73
4
40
0
40
0
40
0
40
0
40
1
40
1
40
1
40
1
41
1
10
23.6818241368666
20
-12.3491619004121
30
0
41
1
10
23.6837107571088
20
-12.3552084837284
30
0
41
1
10
23.6855978382632
20
-12.3612563950492
30
0
41
1
10
23.6874854019469
20
-12.3673056964411
30
0
0
SPLINE
5
205
100
AcDbEntity
8
1
62
256
6
ByLayer
370
18
48
1
60
0
100
AcDbSpline
70
4
71
3
72
8
73
4
40
0
40
0
40
0
40
0
40
1
40
1
40
1
40
1
41
1
10
24.2978638561827
20
-14.6526447815189
30
0
41
1
10
24.2994049861275
20
-14.6594329705489
30
0
41
1
10
24.3009459433168
20
-14.6662200961754
30
0
41
1
10
24.3024867351961
20
-14.673006205146
30
0
0
SPLINE
5
206
100
AcDbEntity
8
1
62
256
6
ByLayer
370
18
48
1
60
0
100
AcDbSpline
70
4
71
3
72
30
73
26
40
0
40
0
40
0
40
0
40
0.086599956699671
40
0.086599956699671
40
0.153916678179556
40
0.153916678179556
40
0.221072797158884
40
0.221072797158884
40
0.288156399014988
40
0.288156399014988
40
0.355205002763823
40
0.355205002763823
40
0.50015847657061
40
0.50015847657061
40
0.599626548584181
40
0.599626548584181
40
0.699135162661929
40
0.699135162661929
40
0.791210681553139
40
0.791210681553139
40
0.865857432560991
40
0.865857432560991
40
0.924551309179061
40
0.924551309179061
40
1
40
1
40
1
40
1
41
1
10
24.741352516561
20
-14.2101233707108
30
0
41
1
10
24.7232388941433
20
-14.2055753989268
30
0
41
1
10
24.7038792624553
20
-14.2048809859696
30
0
41
1
10
24.6699251851188
20
-14.2081156885884
30
0
41
1
10
24.6549655048689
20
-14.21108104558
30
0
41
1
10
24.6255278584377
20
-14.2192487949243
30
0
41
1
10
24.6109522284939
20
-14.2244756749458
30
0
41
1
10
24.5823729799947
20
-14.2366761955427
30
0
41
1
10
24.5683064571156
20
-14.2436766967143
30
0
41
1
10
24.5408167948048
20
-14.2591133829568
30
0
41
1
10
24.5273470293155
20
-14.2675760783628
30
0
41
1
10
24.4860256362788
20
-14.2961703801635
30
0
41
1
10
24.4592079005793
20
-14.3186997924269
30
0
41
1
10
24.4176898669668
20
-14.3601272751329
30
0
41
1
10
24.4016940055026
20
-14.3780939665394
30
0
41
1
10
24.3721889430876
20
-14.4156304303584
30
0
41
1
10
24.3585873339293
20
-14.4353155671577
30
0
41
1
10
24.3353911711074
20
-14.4744524807379
30
0
41
1
10
24.3254970489711
20
-14.4939343942269
30
0
41
1
10
24.3107119501507
20
-14.5299598424023
30
0
41
1
10
24.3051874103703
20
-14.5464641552909
30
0
41
1
10
24.2980170638751
20
-14.5761941749771
30
0
41
1
10
24.295778485423
20
-14.5894462917491
30
0
41
1
10
24.293485010915
20
-14.6194992772623
30
0
41
1
10
24.2942076780466
20
-14.6365404754544
30
0
41
1
10
24.2978638561827
20
-14.6526447815189
30
0
0
SPLINE
5
207
100
AcDbEntity
8
1
62
256
6
ByLayer
370
18
48
1
60
0
100
AcDbSpline
70
4
71
3
72
26
73
22
40
0
40
0
40
0
40
0
40
0.0861353043400975
40
0.0861353043400975
40
0.222839638383426
40
0.222839638383426
40
0.422253970651473
40
0.422253970651473
40
0.500724537936422
40
0.500724537936422
40
0.600079964181075
40
0.600079964181075
40
0.699475886576778
40
0.699475886576778
40
0.791447131630213
40
0.791447131630213
40
0.86600934656146
40
0.86600934656146
40
0.924636753439463
40
0.924636753439463
40
1
40
1
40
1
40
1
41
1
10
22.4510083029854
20
-13.601086036614
30
0
41
1
10
22.4678512441813
20
-13.6058335463503
30
0
41
1
10
22.4838893912593
20
-13.6145519407278
30
0
41
1
10
22.5216177600321
20
-13.642343547503
30
0
41
1
10
22.5420418662186
20
-13.6649360472968
30
0
41
1
10
22.5854991488346
20
-13.7258942232936
30
0
41
1
10
22.6064261621885
20
-13.7680790600397
30
0
41
1
10
22.6288192278643
20
-13.8296647868125
30
0
41
1
10
22.6344581762862
20
-13.8476313376902
30
0
41
1
10
22.6454717225063
20
-13.8888675370803
30
0
41
1
10
22.6504134816171
20
-13.9124018599989
30
0
41
1
10
22.6576120854721
20
-13.9596983864863
30
0
41
1
10
22.659892488085
20
-13.9836067915836
30
0
41
1
10
22.6613262293945
20
-14.0292931709874
30
0
41
1
10
22.6607077669403
20
-14.0512416233518
30
0
41
1
10
22.6566998055948
20
-14.0901328761685
30
0
41
1
10
22.6538446253215
20
-14.1073470123202
30
0
41
1
10
22.6464095742472
20
-14.1370066430361
30
0
41
1
10
22.6423062616943
20
-14.1497628986711
30
0
41
1
10
22.6306923240189
20
-14.1773374313793
30
0
41
1
10
22.6224285722198
20
-14.1919890042057
30
0
41
1
10
22.6121401126594
20
-14.2043852191816
30
0
0
SPLINE
5
208
100
AcDbEntity
8
1
62
256
6
ByLayer
370
18
48
1
60
0
100
AcDbSpline
70
4
71
3
72
26
73
22
40
0
40
0
40
0
40
0
40
0.0960918903649604
40
0.0960918903649604
40
0.185427107814075
40
0.185427107814075
40
0.268229498165898
40
0.268229498165898
40
0.405011235318678
40
0.405011235318678
40
0.518663863856423
40
0.518663863856423
40
0.631974338343434
40
0.631974338343434
40
0.745140813252819
40
0.745140813252819
40
0.858241422927093
40
0.858241422927093
40
0.971313037595382
40
0.971313037595382
40
1
40
1
40
1
40
1
41
1
10
24.3024867351961
20
-14.673006205146
30
0
41
1
10
24.3104303452399
20
-14.6834025771534
30
0
41
1
10
24.316561331586
20
-14.6954357053884
30
0
41
1
10
24.3228944572923
20
-14.720029636718
30
0
41
1
10
24.3235404230061
20
-14.7328109603097
30
0
41
1
10
24.3203414137246
20
-14.7568878714179
30
0
41
1
10
24.3168319521275
20
-14.7684928170808
30
0
41
1
10
24.3039771144323
20
-14.7975284793855
30
0
41
1
10
24.2922192313112
20
-14.8144037938377
30
0
41
1
10
24.2676104453024
20
-14.8421662243439
30
0
41
1
10
24.2550744018596
20
-14.8538174631612
30
0
41
1
10
24.228591533161
20
-14.8752001903084
30
0
41
1
10
24.2145610783945
20
-14.885003276828
30
0
41
1
10
24.1855614070238
20
-14.9029916906816
30
0
41
1
10
24.1705386018629
20
-14.9112099055709
30
0
41
1
10
24.1398277309496
20
-14.9262023295154
30
0
41
1
10
24.1241009846121
20
-14.9329949241362
30
0
41
1
10
24.0921582327584
20
-14.9452239690489
30
0
41
1
10
24.0759104014092
20
-14.9506723499066
30
0
41
1
10
24.0553108350053
20
-14.956666473888
30
0
41
1
10
24.0511276125904
20
-14.9578371705089
30
0
41
1
10
24.0469328620069
20
-14.9589647671112
30
0
0
SPLINE
5
209
100
AcDbEntity
8
1
62
256
6
ByLayer
370
18
48
1
60
0
100
AcDbSpline
70
4
71
3
72
26
73
22
40
0
40
0
40
0
40
0
40
0.084397113781324
40
0.084397113781324
40
0.289834052492032
40
0.289834052492032
40
0.392095130871055
40
0.392095130871055
40
0.494452771537261
40
0.494452771537261
40
0.597019768820979
40
0.597019768820979
40
0.67295485909904
40
0.67295485909904
40
0.796883557884356
40
0.796883557884356
40
0.88128244581968
40
0.88128244581968
40
0.965825257041743
40
0.965825257041743
40
1
40
1
40
1
40
1
41
1
10
24.0469328620069
20
-14.9589647671112
30
0
41
1
10
24.0345999400989
20
-14.9622799966017
30
0
41
1
10
24.0221594502752
20
-14.9652253375612
30
0
41
1
10
23.9792582990044
20
-14.9740065629783
30
0
41
1
10
23.9482905810059
20
-14.978015218546
30
0
41
1
10
23.9018622320429
20
-14.9799796050039
30
0
41
1
10
23.8863625725375
20
-14.9799584724408
30
0
41
1
10
23.8554980199241
20
-14.9783303459367
30
0
41
1
10
23.8400829724939
20
-14.9767210157523
30
0
41
1
10
23.8096740242923
20
-14.9715518730969
30
0
41
1
10
23.7945970163008
20
-14.967976234169
30
0
41
1
10
23.7692605863428
20
-14.9595824993267
30
0
41
1
10
23.7587074038227
20
-14.9553032312008
30
0
41
1
10
23.7325002299858
20
-14.9419695615806
30
0
41
1
10
23.7173016018724
20
-14.9312955712216
30
0
41
1
10
23.6973500507301
20
-14.9093936665067
30
0
41
1
10
23.6906760832769
20
-14.8991837792892
30
0
41
1
10
23.6817361763254
20
-14.8775913079272
30
0
41
1
10
23.6793726410582
20
-14.8659487137012
30
0
41
1
10
23.6789766981742
20
-14.8497799552552
30
0
41
1
10
23.6791947978946
20
-14.8450767826203
30
0
41
1
10
23.6797131261237
20
-14.8404148249443
30
0
0
SPLINE
5
20A
100
AcDbEntity
8
1
62
256
6
ByLayer
370
18
48
1
60
0
100
AcDbSpline
70
4
71
3
72
8
73
4
40
0
40
0
40
0
40
0
40
1
40
1
40
1
40
1
41
1
10
22.4510083029854
20
-13.601086036614
30
0
41
1
10
22.4448093343112
20
-13.5993387370306
30
0
41
1
10
22.438611672153
20
-13.5975920053285
30
0
41
1
10
22.4324152583493
20
-13.5958458159062
30
0
0
SPLINE
5
20B
100
AcDbEntity
8
1
62
256
6
ByLayer
370
18
48
1
60
0
100
AcDbSpline
70
4
71
3
72
26
73
22
40
0
40
0
40
0
40
0
40
0.0960918903649498
40
0.0960918903649498
40
0.185427107814064
40
0.185427107814064
40
0.268229498165893
40
0.268229498165893
40
0.405011235318659
40
0.405011235318659
40
0.518663863856384
40
0.518663863856384
40
0.631974338343395
40
0.631974338343395
40
0.745140813252774
40
0.745140813252774
40
0.858241422927039
40
0.858241422927039
40
0.97131303759533
40
0.97131303759533
40
1
40
1
40
1
40
1
41
1
10
23.0590505277942
20
-12.5165705202105
30
0
41
1
10
23.0516830349861
20
-12.5072808591159
30
0
41
1
10
23.0461507672221
20
-12.4963978585762
30
0
41
1
10
23.0409048909547
20
-12.4738925139862
30
0
41
1
10
23.040765932723
20
-12.462085142706
30
0
41
1
10
23.0448298047444
20
-12.4396696174633
30
0
41
1
10
23.0487162037466
20
-12.4287887618188
30
0
41
1
10
23.0624405616915
20
-12.4014234323727
30
0
41
1
10
23.0746272316067
20
-12.3853718096881
30
0
41
1
10
23.099869033469
20
-12.3588253913227
30
0
41
1
10
23.1126400085221
20
-12.3476254519299
30
0
41
1
10
23.1395158622368
20
-12.3269976419747
30
0
41
1
10
23.1537056005766
20
-12.3175005363527
30
0
41
1
10
23.1829687735366
20
-12.3000183043425
30
0
41
1
10
23.1980961930735
20
-12.2920010517996
30
0
41
1
10
23.2289734009171
20
-12.2773281581255
30
0
41
1
10
23.2447620244195
20
-12.2706544284325
30
0
41
1
10
23.2767921370614
20
-12.2585932020323
30
0
41
1
10
23.2930655138289
20
-12.2531938934667
30
0
41
1
10
23.3136758990884
20
-12.2472205523136
30
0
41
1
10
23.3178602149845
20
-12.2460519562505
30
0
41
1
10
23.322054965568
20
-12.2449243596483
30
0
0
SPLINE
5
20C
100
AcDbEntity
8
1
62
256
6
ByLayer
370
18
48
1
60
0
100
AcDbSpline
70
4
71
3
72
30
73
26
40
0
40
0
40
0
40
0
40
0.0865999566996686
40
0.0865999566996686
40
0.153916678179543
40
0.153916678179543
40
0.221072797158875
40
0.221072797158875
40
0.288156399014978
40
0.288156399014978
40
0.355205002763805
40
0.355205002763805
40
0.500158476570613
40
0.500158476570613
40
0.599626548584183
40
0.599626548584183
40
0.699135162661928
40
0.699135162661928
40
0.791210681553139
40
0.791210681553139
40
0.865857432560988
40
0.865857432560988
40
0.924551309179061
40
0.924551309179061
40
1
40
1
40
1
40
1
41
1
10
23.6874854019469
20
-12.3673056964412
30
0
41
1
10
23.6926140170117
20
-12.3837419833421
30
0
41
1
10
23.7017034166063
20
-12.3993939699721
30
0
41
1
10
23.7214993960608
20
-12.4248294896448
30
0
41
1
10
23.7315545036998
20
-12.4353387784564
30
0
41
1
10
23.7533591955893
20
-12.4549831107743
30
0
41
1
10
23.7651788642325
20
-12.4641844314621
30
0
41
1
10
23.7900423920365
20
-12.4813781642985
30
0
41
1
10
23.8031409853944
20
-12.4894083603854
30
0
41
1
10
23.8302568488655
20
-12.5043551972311
30
0
41
1
10
23.8443203959049
20
-12.5112970148449
30
0
41
1
10
23.8897385506443
20
-12.5314935858571
30
0
41
1
10
23.9226466273217
20
-12.5429473928824
30
0
41
1
10
23.9792493214627
20
-12.5579989094789
30
0
41
1
10
24.0027893115312
20
-12.5629755642153
30
0
41
1
10
24.0500074724784
20
-12.5703398163368
30
0
41
1
10
24.0738316262379
20
-12.5727514572475
30
0
41
1
10
24.1192711727773
20
-12.5745280081621
30
0
41
1
10
24.1410626588999
20
-12.5741153880859
30
0
41
1
10
24.1796024089201
20
-12.5705517261717
30
0
41
1
10
24.1966337461386
20
-12.5679227173649
30
0
41
1
10
24.2259229997695
20
-12.5609381391505
30
0
41
1
10
24.2385000299487
20
-12.5570504319111
30
0
41
1
10
24.2656319113249
20
-12.5459636502694
30
0
41
1
10
24.2800061920923
20
-12.5380265641193
30
0
41
1
10
24.2921058719992
20
-12.5280834682006
30
0
0
SPLINE
5
20D
100
AcDbEntity
8
1
62
256
6
ByLayer
370
18
48
1
60
0
100
AcDbSpline
70
4
71
3
72
8
73
4
40
0
40
0
40
0
40
0
40
1
40
1
40
1
40
1
41
1
10
24.7613490219868
20
-14.2151446978325
30
0
41
1
10
24.7546846385828
20
-14.2134710058242
30
0
41
1
10
24.7480191537379
20
-14.2117972312493
30
0
41
1
10
24.741352516561
20
-14.2101233707108
30
0
0
SPLINE
5
20E
100
AcDbEntity
8
1
62
256
6
ByLayer
370
18
48
1
60
0
100
AcDbSpline
70
4
71
3
72
12
73
8
40
0
40
0
40
0
40
0
40
0.462337058274397
40
0.462337058274397
40
0.924102030814546
40
0.924102030814546
40
1
40
1
40
1
40
1
41
1
10
21.8313620062211
20
-8.03937762109584
30
0
41
1
10
21.8527774136751
20
-8.05047703286471
30
0
41
1
10
21.8746890143595
20
-8.06199022031899
30
0
41
1
10
21.9158393557851
20
-8.08391050237142
30
0
41
1
10
21.9356474247556
20
-8.09462000223527
30
0
41
1
10
21.9560416945117
20
-8.10583458073091
30
0
41
1
10
21.9588891967907
20
-8.10740530164239
30
0
41
1
10
21.9616755029931
20
-8.10894727759845
30
0
0
SPLINE
5
20F
100
AcDbEntity
8
1
62
256
6
ByLayer
370
18
48
1
60
0
100
AcDbSpline
70
4
71
3
72
10
73
6
40
0
40
0
40
0
40
0
40
0.292299554857139
40
0.292299554857139
40
1
40
1
40
1
40
1
41
1
10
21.2169894647228
20
-7.82438650106289
30
0
41
1
10
21.2952305341134
20
-7.8552079777655
30
0
41
1
10
21.3558502929389
20
-7.87659712970589
30
0
41
1
10
21.5405612624341
20
-7.93804228842913
30
0
41
1
10
21.6303888410452
20
-7.95996390035401
30
0
41
1
10
21.7076213979489
20
-7.97524398428848
30
0
0
SPLINE
5
210
100
AcDbEntity
8
1
62
256
6
ByLayer
370
18
48
1
60
0
100
AcDbSpline
70
4
71
3
72
8
73
4
40
0
40
0
40
0
40
0
40
1
40
1
40
1
40
1
41
1
10
26.3366651024217
20
-10.4263694404023
30
0
41
1
10
26.2597013475528
20
-10.3522154675376
30
0
41
1
10
26.1710373065405
20
-10.288592033882
30
0
41
1
10
26.0760670493031
20
-10.2393698095027
30
0
0
SPLINE
5
211
100
AcDbEntity
8
SK1
62
256
6
ByLayer
370
18
48
1
60
0
100
AcDbSpline
70
4
71
3
72
14
73
10
40
0
40
0
40
0
40
0
40
0.472444801964618
40
0.472444801964618
40
0.754260170617129
40
0.754260170617129
40
0.972203826490864
40
0.972203826490864
40
1
40
1
40
1
40
1
41
1
10
-0.249519052838366
20
-11.1538370998082
30
0
41
1
10
-0.267892464509487
20
-11.1784050388615
30
0
41
1
10
-0.284742554365437
20
-11.2029809473635
30
0
41
1
10
-0.306128094603025
20
-11.2387749004426
30
0
41
1
10
-0.313022584718283
20
-11.2516484601971
30
0
41
1
10
-0.321463908345891
20
-11.2713923447886
30
0
41
1
10
-0.323914527321392
20
-11.2791144723247
30
0
41
1
10
-0.324485697762157
20
-11.2856875937471
30
0
41
1
10
-0.324519052838355
20
-11.2864087447582
30
0
41
1
10
-0.324519052838355
20
-11.2870970646865
30
0
0
SPLINE
5
212
100
AcDbEntity
8
SK1
62
256
6
ByLayer
370
18
48
1
60
0
100
AcDbSpline
70
4
71
3
72
8
73
4
40
0
40
0
40
0
40
0
40
1
40
1
40
1
40
1
41
1
10
-0.249519052838309
20
15.0214883413626
30
0
41
1
10
-0.166474933778943
20
15.1088788736801
30
0
41
1
10
-0.083299862678416
20
15.1961037513836
30
0
41
1
10
0
20
15.2831691478176
30
0
0
SPLINE
5
213
100
AcDbEntity
8
SK1
62
256
6
ByLayer
370
18
48
1
60
0
100
AcDbSpline
70
4
71
3
72
8
73
4
40
0
40
0
40
0
40
0
40
1
40
1
40
1
40
1
41
1
10
-0.249519052838309
20
-12.9417228393876
30
0
41
1
10
-0.166347857745961
20
-13.009918893748
30
0
41
1
10
-0.0831748117722668
20
-13.0781119384452
30
0
41
1
10
0
20
-13.1463021112708
30
0
0
SPLINE
5
214
100
AcDbEntity
8
SK1
62
256
6
ByLayer
370
18
48
1
60
0
100
AcDbSpline
70
4
71
3
72
12
73
8
40
0
40
0
40
0
40
0
40
0.508125413902443
40
0.508125413902443
40
0.802151350346818
40
0.802151350346818
40
1
40
1
40
1
40
1
41
1
10
-0.249519052838309
20
-13.2066798735262
30
0
41
1
10
-0.269789778793495
20
-13.1770998994368
30
0
41
1
10
-0.287870685921973
20
-13.1472130055907
30
0
41
1
10
-0.309464028806247
20
-13.103329320023
30
0
41
1
10
-0.316031587124485
20
-13.0876160222289
30
0
41
1
10
-0.322865356476484
20
-13.0642286445772
30
0
41
1
10
-0.324519052847847
20
-13.0554819158447
30
0
41
1
10
-0.324519052848359
20
-13.0481928297782
30
0
0
SPLINE
5
215
100
AcDbEntity
8
SK1
62
256
6
ByLayer
370
18
48
1
60
0
100
AcDbSpline
70
4
71
3
72
16
73
12
40
0
40
0
40
0
40
0
40
0.142615596449027
40
0.142615596449027
40
0.38179774910211
40
0.38179774910211
40
0.587609184323022
40
0.587609184323022
40
0.772396966615303
40
0.772396966615303
40
1
40
1
40
1
40
1
41
1
10
-0.324519052838639
20
-12.9315214576641
30
0
41
1
10
-0.324519052838639
20
-12.9274732343183
30
0
41
1
10
-0.324041433030459
20
-12.9238103974425
30
0
41
1
10
-0.321248498818591
20
-12.9155907885555
30
0
41
1
10
-0.31779065257706
20
-12.911989979749
30
0
41
1
10
-0.308166178015256
20
-12.9097094576958
30
0
41
1
10
-0.302302379168907
20
-12.9104055763687
30
0
41
1
10
-0.289689753938831
20
-12.9147957755532
30
0
41
1
10
-0.282961881686333
20
-12.9181999646831
30
0
41
1
10
-0.267500098419362
20
-12.9277267899272
30
0
41
1
10
-0.25848376123372
20
-12.934372244745
30
0
41
1
10
-0.249519052838366
20
-12.9417228393875
30
0
0
SPLINE
5
216
100
AcDbEntity
8
SK1
62
256
6
ByLayer
370
18
48
1
60
0
100
AcDbSpline
70
4
71
3
72
12
73
8
40
0
40
0
40
0
40
0
40
0.187087688269974
40
0.187087688269974
40
0.543083547269604
40
0.543083547269604
40
1
40
1
40
1
40
1
41
1
10
-0.324519052845858
20
13.0481928297802
30
0
41
1
10
-0.324519052845517
20
13.0550913094343
30
0
41
1
10
-0.323037459116108
20
13.0632955960149
30
0
41
1
10
-0.315844641563785
20
13.0888309660212
30
0
41
1
10
-0.307479345206332
20
13.1081176603183
30
0
41
1
10
-0.284228540325216
20
13.1531780620142
30
0
41
1
10
-0.267786879797484
20
13.1800226216194
30
0
41
1
10
-0.249519052838309
20
13.2066798735262
30
0
0
SPLINE
5
217
100
AcDbEntity
8
SK1
62
256
6
ByLayer
370
18
48
1
60
0
100
AcDbSpline
70
4
71
3
72
16
73
12
40
0
40
0
40
0
40
0
40
0.196100147587216
40
0.196100147587216
40
0.409354987154392
40
0.409354987154392
40
0.624849018925142
40
0.624849018925142
40
0.810522583042967
40
0.810522583042967
40
1
40
1
40
1
40
1
41
1
10
-0.249519052838366
20
12.9417228393875
30
0
41
1
10
-0.25726049810288
20
12.9353752568921
30
0
41
1
10
-0.265024648581971
20
12.9295640238447
30
0
41
1
10
-0.280566359325064
20
12.9194634172342
30
0
41
1
10
-0.288449918839092
20
12.9152705213105
30
0
41
1
10
-0.302305729211355
20
12.9103629099891
30
0
41
1
10
-0.308433757536136
20
12.9096573212646
30
0
41
1
10
-0.316985251021322
20
12.9119087953729
30
0
41
1
10
-0.319920559293564
20
12.9143787612632
30
0
41
1
10
-0.323674756733738
20
12.921463833466
30
0
41
1
10
-0.324519052838411
20
12.9261606664012
30
0
41
1
10
-0.324519052838411
20
12.9315214576646
30
0
0
SPLINE
5
218
100
AcDbEntity
8
SK1
62
256
6
ByLayer
370
18
48
1
60
0
100
AcDbSpline
70
4
71
3
72
8
73
4
40
0
40
0
40
0
40
0
40
1
40
1
40
1
40
1
41
1
10
-0.249519052838309
20
13.2066798735262
30
0
41
1
10
-0.166816582690672
20
13.3273631154338
30
0
41
1
10
-0.0836345631109339
20
13.4476100581886
30
0
41
1
10
0
20
13.5674337735919
30
0
0
SPLINE
5
219
100
AcDbEntity
8
SK1
62
256
6
ByLayer
370
18
48
1
60
0
100
AcDbSpline
70
4
71
3
72
8
73
4
40
0
40
0
40
0
40
0
40
1
40
1
40
1
40
1
41
1
10
-1.705E-13
20
-12.1223042034428
30
0
41
1
10
-0.0831736906827132
20
-12.0542968356096
30
0
41
1
10
-0.166346719817398
20
-11.9862883889892
30
0
41
1
10
-0.249519052838309
20
-11.9182788072984
30
0
0
SPLINE
5
21A
100
AcDbEntity
8
SK1
62
256
6
ByLayer
370
18
48
1
60
0
100
AcDbSpline
70
4
71
3
72
8
73
4
40
0
40
0
40
0
40
0
40
1
40
1
40
1
40
1
41
1
10
0
20
10.7970023247567
30
0
41
1
10
-0.0831872444597366
20
10.7273072321293
30
0
41
1
10
-0.16636054285425
20
10.6575899389726
30
0
41
1
10
-0.249519052838309
20
10.58784913972
30
0
0
SPLINE
5
21B
100
AcDbEntity
8
SK1
62
256
6
ByLayer
370
18
48
1
60
0
100
AcDbSpline
70
4
71
3
72
8
73
4
40
0
40
0
40
0
40
0
40
1
40
1
40
1
40
1
41
1
10
-0.249519052838309
20
11.0363958758218
30
0
41
1
10
-0.167367184647219
20
11.1927426654551
30
0
41
1
10
-0.0841721835889757
20
11.3483643383457
30
0
41
1
10
0
20
11.5032716737805
30
0
0
SPLINE
5
21C
100
AcDbEntity
8
SK1
62
256
6
ByLayer
370
18
48
1
60
0
100
AcDbSpline
70
4
71
3
72
12
73
8
40
0
40
0
40
0
40
0
40
0.250507189467315
40
0.250507189467315
40
0.690757941880344
40
0.690757941880344
40
1
40
1
40
1
40
1
41
1
10
-0.324519052838298
20
-12.0751167702277
30
0
41
1
10
-0.324519052838184
20
-12.0872022981673
30
0
41
1
10
-0.321870682724068
20
-12.1014440699219
30
0
41
1
10
-0.310431675455391
20
-12.1424308946337
30
0
41
1
10
-0.298355983619331
20
-12.1712758548189
30
0
41
1
10
-0.273693251786028
20
-12.2206292720073
30
0
41
1
10
-0.262116790820869
20
-12.2414157556896
30
0
41
1
10
-0.249519052838309
20
-12.2621047787412
30
0
0
SPLINE
5
21D
100
AcDbEntity
8
SK1
62
256
6
ByLayer
370
18
48
1
60
0
100
AcDbSpline
70
4
71
3
72
18
73
14
40
0
40
0
40
0
40
0
40
0.16297382564123
40
0.16297382564123
40
0.356080197241825
40
0.356080197241825
40
0.551219871992702
40
0.551219871992702
40
0.719028519435641
40
0.719028519435641
40
0.960472783679774
40
0.960472783679774
40
1
40
1
40
1
40
1
41
1
10
-0.249519052838366
20
-11.9182788072982
30
0
41
1
10
-0.256066147235742
20
-11.9129252824531
30
0
41
1
10
-0.262676875300372
20
-11.9080335625595
30
0
41
1
10
-0.276746105583584
20
-11.8990936105681
30
0
41
1
10
-0.284295457198198
20
-11.8952947011298
30
0
41
1
10
-0.29787255596267
20
-11.8910878374727
30
0
41
1
10
-0.304057976638887
20
-11.8906991948608
30
0
41
1
10
-0.313115400174013
20
-11.8933481858029
30
0
41
1
10
-0.316452091942267
20
-11.8959195280297
30
0
41
1
10
-0.322322667931587
20
-11.9044743965087
30
0
41
1
10
-0.32401620362316
20
-11.9115412397585
30
0
41
1
10
-0.32448673763156
20
-11.920834585719
30
0
41
1
10
-0.324519052838355
20
-11.9221817744123
30
0
41
1
10
-0.324519052838355
20
-11.9235539298783
30
0
0
SPLINE
5
21E
100
AcDbEntity
8
SK1
62
256
6
ByLayer
370
18
48
1
60
0
100
AcDbSpline
70
4
71
3
72
8
73
4
40
0
40
0
40
0
40
0
40
1
40
1
40
1
40
1
41
1
10
-0.134718740348489
20
9.66508010295945
30
0
41
1
10
-0.170783341757215
20
9.76644071174252
30
0
41
1
10
-0.209141129552279
20
9.86676496459876
30
0
41
1
10
-0.249519052838139
20
9.96605046147951
30
0
0
SPLINE
5
21F
100
AcDbEntity
8
SK1
62
256
6
ByLayer
370
18
48
1
60
0
100
AcDbSpline
70
4
71
3
72
8
73
4
40
0
40
0
40
0
40
0
40
1
40
1
40
1
40
1
41
1
10
0
20
-13.5674337735919
30
0
41
1
10
-0.0836345631109339
20
-13.4476100581886
30
0
41
1
10
-0.166816582690672
20
-13.3273631154338
30
0
41
1
10
-0.249519052838309
20
-13.2066798735262
30
0
0
SPLINE
5
220
100
AcDbEntity
8
SK1
62
256
6
ByLayer
370
18
48
1
60
0
100
AcDbSpline
70
4
71
3
72
14
73
10
40
0
40
0
40
0
40
0
40
0.367432709789044
40
0.367432709789044
40
0.635304387947877
40
0.635304387947877
40
0.858919697257545
40
0.858919697257545
40
1
40
1
40
1
40
1
41
1
10
-0.249519052838309
20
-15.0732309630904
30
0
41
1
10
-0.263669083765649
20
-15.0592044384549
30
0
41
1
10
-0.277282290724997
20
-15.0457522457748
30
0
41
1
10
-0.29763514709839
20
-15.0257142600187
30
0
41
1
10
-0.305402926441502
20
-15.0180935017558
30
0
41
1
10
-0.316418010645293
20
-15.0073436599959
30
0
41
1
10
-0.320287627093364
20
-15.0035954672048
30
0
41
1
10
-0.323810802126559
20
-15.0002481931507
30
0
41
1
10
-0.324519052838298
20
-14.9996035823679
30
0
41
1
10
-0.324519052838355
20
-14.9996597183625
30
0
0
SPLINE
5
221
100
AcDbEntity
8
SK1
62
256
6
ByLayer
370
18
48
1
60
0
100
AcDbSpline
70
4
71
3
72
14
73
10
40
0
40
0
40
0
40
0
40
0.379749037944836
40
0.379749037944836
40
0.629409369090561
40
0.629409369090561
40
0.882066871181053
40
0.882066871181053
40
1
40
1
40
1
40
1
41
1
10
-0.249519052838309
20
14.9752953674924
30
0
41
1
10
-0.264088234704047
20
14.9616014421037
30
0
41
1
10
-0.278242718197589
20
14.9486766627542
30
0
41
1
10
-0.298334409923484
20
14.9312266927151
30
0
41
1
10
-0.305587494260692
20
14.925211097021
30
0
41
1
10
-0.316943823867518
20
14.9165892041889
30
0
41
1
10
-0.321138923551416
20
14.9139384724717
30
0
41
1
10
-0.324050007382994
20
14.9133093678691
30
0
41
1
10
-0.324519052838298
20
14.913581251632
30
0
41
1
10
-0.324519052838298
20
14.9143113409685
30
0
0
SPLINE
5
222
100
AcDbEntity
8
SK1
62
256
6
ByLayer
370
18
48
1
60
0
100
AcDbSpline
70
4
71
3
72
14
73
10
40
0
40
0
40
0
40
0
40
0.14830936637492
40
0.14830936637492
40
0.366897291757177
40
0.366897291757177
40
0.67741047833544
40
0.67741047833544
40
1
40
1
40
1
40
1
41
1
10
-0.324519052838355
20
14.9346208709158
30
0
41
1
10
-0.324519052838298
20
14.9354609124318
30
0
41
1
10
-0.323698879802805
20
14.9371147512223
30
0
41
1
10
-0.319894680546895
20
14.9428834093099
30
0
41
1
10
-0.316017940685242
20
14.9478669879496
30
0
41
1
10
-0.304122719378085
20
14.9621511471413
30
0
41
1
10
-0.294894654515076
20
14.972586861181
30
0
41
1
10
-0.274005754922484
20
14.995509434347
30
0
41
1
10
-0.26203309396027
20
15.0083193327985
30
0
41
1
10
-0.249519052838309
20
15.0214883413626
30
0
0
SPLINE
5
223
100
AcDbEntity
8
SK1
62
256
6
ByLayer
370
18
48
1
60
0
100
AcDbSpline
70
4
71
3
72
14
73
10
40
0
40
0
40
0
40
0
40
0.337109269041112
40
0.337109269041112
40
0.647309439234683
40
0.647309439234683
40
0.886158899753204
40
0.886158899753204
40
1
40
1
40
1
40
1
41
1
10
-0.249519052838309
20
14.8184996647002
30
0
41
1
10
-0.262661157197215
20
14.8037122206232
30
0
41
1
10
-0.275115549992677
20
14.7891913808135
30
0
41
1
10
-0.296145669201167
20
14.7633570200463
30
0
41
1
10
-0.305143090422121
20
14.7516363101519
30
0
41
1
10
-0.317115972984993
20
14.7341827975658
30
0
41
1
10
-0.321084785525102
20
14.7275497096624
30
0
41
1
10
-0.324014177429035
20
14.7204810991582
30
0
41
1
10
-0.324519052838298
20
14.7185933520953
30
0
41
1
10
-0.324519052838298
20
14.717201141838
30
0
0
SPLINE
5
224
100
AcDbEntity
8
SK1
62
256
6
ByLayer
370
18
48
1
60
0
100
AcDbSpline
70
4
71
3
72
16
73
12
40
0
40
0
40
0
40
0
40
0.134462324827228
40
0.134462324827228
40
0.349537081892497
40
0.349537081892497
40
0.557949549492595
40
0.557949549492595
40
0.855748428234958
40
0.855748428234958
40
1
40
1
40
1
40
1
41
1
10
-0.324519052838355
20
14.6759522309122
30
0
41
1
10
-0.324519052838355
20
14.6743787834192
30
0
41
1
10
-0.323955191633274
20
14.6733418618032
30
0
41
1
10
-0.32098882742622
20
14.6722246617154
30
0
41
1
10
-0.317609777764858
20
14.673108731023
30
0
41
1
10
-0.308591707068899
20
14.6776622150333
30
0
41
1
10
-0.302938342605728
20
14.6812780095072
30
0
41
1
10
-0.287616734026699
20
14.6922959250361
30
0
41
1
10
-0.27704293745569
20
14.7007970790349
30
0
41
1
10
-0.260656566707326
20
14.7148095834637
30
0
41
1
10
-0.255124730107695
20
14.7196663896845
30
0
41
1
10
-0.249519052838309
20
14.7246952776827
30
0
0
SPLINE
5
225
100
AcDbEntity
8
SK1
62
256
6
ByLayer
370
18
48
1
60
0
100
AcDbSpline
70
4
71
3
72
8
73
4
40
0
40
0
40
0
40
0
40
1
40
1
40
1
40
1
41
1
10
0
20
13.1463021112708
30
0
41
1
10
-0.0831748117722668
20
13.0781119384452
30
0
41
1
10
-0.166347857745961
20
13.009918893748
30
0
41
1
10
-0.249519052838309
20
12.9417228393876
30
0
0
SPLINE
5
226
100
AcDbEntity
8
SK1
62
256
6
ByLayer
370
18
48
1
60
0
100
AcDbSpline
70
4
71
3
72
10
73
6
40
0
40
0
40
0
40
0
40
0.144920755270329
40
0.144920755270329
40
1
40
1
40
1
40
1
41
1
10
-0.324519052838411
20
-1.73806805962974
30
0
41
1
10
-0.324519052838411
20
-1.80016865628997
30
0
41
1
10
-0.323998261580868
20
-1.86228627081658
30
0
41
1
10
-0.317036224678418
20
-2.29038457046121
30
0
41
1
10
-0.296171225026512
20
-2.65727617320752
30
0
41
1
10
-0.249519052838309
20
-3.02167087832794
30
0
0
SPLINE
5
227
100
AcDbEntity
8
SK1
62
256
6
ByLayer
370
18
48
1
60
0
100
AcDbSpline
70
4
71
3
72
8
73
4
40
0
40
0
40
0
40
0
40
1
40
1
40
1
40
1
41
1
10
0
20
4.57714531130458
30
0
41
1
10
-0.0990493806369273
20
4.0628002470196
30
0
41
1
10
-0.182595100372225
20
3.54440610759005
30
0
41
1
10
-0.249519052838309
20
3.02167087832794
30
0
0
SPLINE
5
228
100
AcDbEntity
8
SK1
62
256
6
ByLayer
370
18
48
1
60
0
100
AcDbSpline
70
4
71
3
72
8
73
4
40
0
40
0
40
0
40
0
40
1
40
1
40
1
40
1
41
1
10
-0.249519052838309
20
-3.02167087832794
30
0
41
1
10
-0.182595100372225
20
-3.54440610759005
30
0
41
1
10
-0.0990493806369273
20
-4.0628002470196
30
0
41
1
10
0
20
-4.57714531130458
30
0
0
SPLINE
5
229
100
AcDbEntity
8
SK1
62
256
6
ByLayer
370
18
48
1
60
0
100
AcDbSpline
70
4
71
3
72
10
73
6
40
0
40
0
40
0
40
0
40
0.186420200417436
40
0.186420200417436
40
1
40
1
40
1
40
1
41
1
10
-0.24951905283848
20
3.02167087832794
30
0
41
1
10
-0.259705526289054
20
2.94210551587779
30
0
41
1
10
-0.268527010535479
20
2.86241469726204
30
0
41
1
10
-0.309952002456726
20
2.43518299426378
30
0
41
1
10
-0.324519052838298
20
2.08621209306065
30
0
41
1
10
-0.324519052838298
20
1.73806805963053
30
0
0
SPLINE
5
22A
100
AcDbEntity
8
SK1
62
256
6
ByLayer
370
18
48
1
60
0
100
AcDbSpline
70
4
71
3
72
14
73
10
40
0
40
0
40
0
40
0
40
0.163920592685518
40
0.163920592685518
40
0.447623062193661
40
0.447623062193661
40
0.853611189168536
40
0.853611189168536
40
1
40
1
40
1
40
1
41
1
10
-0.324519052838696
20
14.3404713430427
30
0
41
1
10
-0.324519052838696
20
14.3436384518031
30
0
41
1
10
-0.323437542043507
20
14.3478474539898
30
0
41
1
10
-0.31820565277917
20
14.3611618955188
30
0
41
1
10
-0.312336889156029
20
14.3717827621269
30
0
41
1
10
-0.294700802347563
20
14.399571768266
30
0
41
1
10
-0.281200164437394
20
14.4181027250046
30
0
41
1
10
-0.26093722652729
20
14.4438885346389
30
0
41
1
10
-0.25531125080704
20
14.4508689941616
30
0
41
1
10
-0.249519052838309
20
14.4578958578262
30
0
0
SPLINE
5
22B
100
AcDbEntity
8
SK1
62
256
6
ByLayer
370
18
48
1
60
0
100
AcDbSpline
70
4
71
3
72
16
73
12
40
0
40
0
40
0
40
0
40
0.257140468143253
40
0.257140468143253
40
0.501441404931575
40
0.501441404931575
40
0.748669523163671
40
0.748669523163671
40
0.958155524772228
40
0.958155524772228
40
1
40
1
40
1
40
1
41
1
10
-0.249519052838309
20
14.3134143619746
30
0
41
1
10
-0.259478810200562
20
14.3048252746469
30
0
41
1
10
-0.269324580571151
20
14.2968427245203
30
0
41
1
10
-0.287159379898071
20
14.2837136505857
30
0
41
1
10
-0.295386907364502
20
14.2783379839493
30
0
41
1
10
-0.309238304654741
20
14.2711443668959
30
0
41
1
10
-0.31500558354719
20
14.2693082675902
30
0
41
1
10
-0.321985095845776
20
14.2699345238552
30
0
41
1
10
-0.32385208735036
20
14.2717830231023
30
0
41
1
10
-0.324468217972935
20
14.2755158409728
30
0
41
1
10
-0.324519052838298
20
14.2761945296771
30
0
41
1
10
-0.324519052838298
20
14.276920711158
30
0
0
SPLINE
5
22C
100
AcDbEntity
8
SK1
62
256
6
ByLayer
370
18
48
1
60
0
100
AcDbSpline
70
4
71
3
72
8
73
4
40
0
40
0
40
0
40
0
40
1
40
1
40
1
40
1
41
1
10
-0.324519052838355
20
9.4040385971507
30
0
41
1
10
-0.324519052838355
20
9.34814243490513
30
0
41
1
10
-0.318281478543952
20
9.28890791172378
30
0
41
1
10
-0.310504577496317
20
9.22958437649248
30
0
0
SPLINE
5
22D
100
AcDbEntity
8
SK1
62
256
6
ByLayer
370
18
48
1
60
0
100
AcDbSpline
70
4
71
3
72
8
73
4
40
0
40
0
40
0
40
0
40
1
40
1
40
1
40
1
41
1
10
0
20
14.5284293439038
30
0
41
1
10
-0.0831955184464732
20
14.4567925119086
30
0
41
1
10
-0.166368872792589
20
14.3851213455646
30
0
41
1
10
-0.249519052838309
20
14.3134143619746
30
0
0
SPLINE
5
22E
100
AcDbEntity
8
SK1
62
256
6
ByLayer
370
18
48
1
60
0
100
AcDbSpline
70
4
71
3
72
8
73
4
40
0
40
0
40
0
40
0
40
1
40
1
40
1
40
1
41
1
10
-0.249519052838309
20
14.4578958578262
30
0
41
1
10
-0.166590497630466
20
14.5585014749848
30
0
41
1
10
-0.0834132517077819
20
14.658834479182
30
0
41
1
10
0
20
14.75890440381
30
0
0
SPLINE
5
22F
100
AcDbEntity
8
SK1
62
256
6
ByLayer
370
18
48
1
60
0
100
AcDbSpline
70
4
71
3
72
8
73
4
40
0
40
0
40
0
40
0
40
1
40
1
40
1
40
1
41
1
10
-0.312416518519228
20
-9.24137922707442
30
0
41
1
10
-0.319586508661303
20
-9.297022026913
30
0
41
1
10
-0.324519052838355
20
-9.35182154704304
30
0
41
1
10
-0.324519052838355
20
-9.4040385971507
30
0
0
SPLINE
5
230
100
AcDbEntity
8
SK1
62
256
6
ByLayer
370
18
48
1
60
0
100
AcDbSpline
70
4
71
3
72
20
73
16
40
0
40
0
40
0
40
0
40
0.292462833819564
40
0.292462833819564
40
0.439228436403266
40
0.439228436403266
40
0.588043259331042
40
0.588043259331042
40
0.692660210694212
40
0.692660210694212
40
0.797538049280218
40
0.797538049280218
40
0.928065146414678
40
0.928065146414678
40
1
40
1
40
1
40
1
41
1
10
-0.324519052838298
20
-9.77023188350532
30
0
41
1
10
-0.324519052838298
20
-9.78642911355561
30
0
41
1
10
-0.323553397689807
20
-9.80220743814087
30
0
41
1
10
-0.319133463973913
20
-9.82339031094898
30
0
41
1
10
-0.317114259665004
20
-9.83011995521008
30
0
41
1
10
-0.311491062900075
20
-9.84183607151891
30
0
41
1
10
-0.307780064998781
20
-9.84691496766376
30
0
41
1
10
-0.299689355908356
20
-9.8524666676515
30
0
41
1
10
-0.295741656639393
20
-9.85387340024545
30
0
41
1
10
-0.287109877823013
20
-9.85436666391325
30
0
41
1
10
-0.282321516564821
20
-9.85344961700247
30
0
41
1
10
-0.271491677339725
20
-9.84923779952027
30
0
41
1
10
-0.265272395610168
20
-9.8454020239374
30
0
41
1
10
-0.255994714285919
20
-9.8382383519878
30
0
41
1
10
-0.252723617515699
20
-9.83542366691546
30
0
41
1
10
-0.249519052837911
20
-9.83243528516005
30
0
0
SPLINE
5
231
100
AcDbEntity
8
SK1
62
256
6
ByLayer
370
18
48
1
60
0
100
AcDbSpline
70
4
71
3
72
14
73
10
40
0
40
0
40
0
40
0
40
0.433239542040563
40
0.433239542040563
40
0.728886336218938
40
0.728886336218938
40
0.958485328182054
40
0.958485328182054
40
1
40
1
40
1
40
1
41
1
10
-0.249519052838309
20
-14.4578958578262
30
0
41
1
10
-0.266462621028438
20
-14.4373405963682
30
0
41
1
10
-0.282179847961629
20
-14.4169469663585
30
0
41
1
10
-0.303785687109496
20
-14.3856776828023
30
0
41
1
10
-0.311371182329026
20
-14.3735740653659
30
0
41
1
10
-0.320775835178097
20
-14.3552941165774
30
0
41
1
10
-0.32356188803999
20
-14.3482480353127
30
0
41
1
10
-0.324448687844665
20
-14.3421646298122
30
0
41
1
10
-0.324519052838355
20
-14.3412844853204
30
0
41
1
10
-0.324519052838355
20
-14.3404713430431
30
0
0
SPLINE
5
232
100
AcDbEntity
8
SK1
62
256
6
ByLayer
370
18
48
1
60
0
100
AcDbSpline
70
4
71
3
72
8
73
4
40
0
40
0
40
0
40
0
40
1
40
1
40
1
40
1
41
1
10
0
20
-14.75890440381
30
0
41
1
10
-0.0834132517077819
20
-14.658834479182
30
0
41
1
10
-0.166590497630466
20
-14.5585014749848
30
0
41
1
10
-0.249519052838309
20
-14.4578958578262
30
0
0
SPLINE
5
233
100
AcDbEntity
8
SK1
62
256
6
ByLayer
370
18
48
1
60
0
100
AcDbSpline
70
4
71
3
72
16
73
12
40
0
40
0
40
0
40
0
40
0.133035841363271
40
0.133035841363271
40
0.351038823774631
40
0.351038823774631
40
0.555790945797345
40
0.555790945797345
40
0.823364489376618
40
0.823364489376618
40
1
40
1
40
1
40
1
41
1
10
-0.324519052838355
20
-14.2769207111578
30
0
41
1
10
-0.324519052838298
20
-14.2746355096576
30
0
41
1
10
-0.324009175663946
20
-14.2728175035338
30
0
41
1
10
-0.321219664775526
20
-14.2695537068289
30
0
41
1
10
-0.317931197261373
20
-14.2690769904431
30
0
41
1
10
-0.309033942563019
20
-14.2713377411316
30
0
41
1
10
-0.303483642295248
20
-14.2738952150488
30
0
41
1
10
-0.289112752667052
20
-14.2823074839012
30
0
41
1
10
-0.279612210500602
20
-14.2890241874931
30
0
41
1
10
-0.263193476623201
20
-14.3018625561671
30
0
41
1
10
-0.256393307324345
20
-14.3074861480688
30
0
41
1
10
-0.249519052838309
20
-14.3134143619746
30
0
0
SPLINE
5
234
100
AcDbEntity
8
SK1
62
256
6
ByLayer
370
18
48
1
60
0
100
AcDbSpline
70
4
71
3
72
8
73
4
40
0
40
0
40
0
40
0
40
1
40
1
40
1
40
1
41
1
10
-0.249519052838309
20
-14.3134143619746
30
0
41
1
10
-0.166368872792589
20
-14.3851213455646
30
0
41
1
10
-0.0831955184464732
20
-14.4567925119086
30
0
41
1
10
0
20
-14.5284293439038
30
0
0
SPLINE
5
235
100
AcDbEntity
8
SK1
62
256
6
ByLayer
370
18
48
1
60
0
100
AcDbSpline
70
4
71
3
72
8
73
4
40
0
40
0
40
0
40
0
40
1
40
1
40
1
40
1
41
1
10
-0.249519052838309
20
-14.8184996647002
30
0
41
1
10
-0.166524149326051
20
-14.9118852033362
30
0
41
1
10
-0.0833481825888498
20
-15.0050566253247
30
0
41
1
10
0
20
-15.0980216982492
30
0
0
SPLINE
5
236
100
AcDbEntity
8
SK1
62
256
6
ByLayer
370
18
48
1
60
0
100
AcDbSpline
70
4
71
3
72
16
73
12
40
0
40
0
40
0
40
0
40
0.286108909194795
40
0.286108909194795
40
0.542446162381876
40
0.542446162381876
40
0.759331366824669
40
0.759331366824669
40
0.976947344236109
40
0.976947344236109
40
1
40
1
40
1
40
1
41
1
10
-0.249519052838309
20
-14.7246952776827
30
0
41
1
10
-0.260552982423803
20
-14.7147966707172
30
0
41
1
10
-0.271374661684831
20
-14.7055016080175
30
0
41
1
10
-0.290115201429387
20
-14.6904604296736
30
0
41
1
10
-0.298390779270619
20
-14.6843207165806
30
0
41
1
10
-0.310926001379926
20
-14.6763033399035
30
0
41
1
10
-0.315718360223229
20
-14.6738568603638
30
0
41
1
10
-0.322300125587958
20
-14.6721785277975
30
0
41
1
10
-0.324155545952578
20
-14.6729454221859
30
0
41
1
10
-0.324502350243108
20
-14.6754223156877
30
0
41
1
10
-0.324519052838355
20
-14.6756792100424
30
0
41
1
10
-0.324519052838355
20
-14.6759522309123
30
0
0
SPLINE
5
237
100
AcDbEntity
8
SK1
62
256
6
ByLayer
370
18
48
1
60
0
100
AcDbSpline
70
4
71
3
72
8
73
4
40
0
40
0
40
0
40
0
40
1
40
1
40
1
40
1
41
1
10
0
20
-14.9482527139731
30
0
41
1
10
-0.0832126381486091
20
-14.873792568142
30
0
41
1
10
-0.166386250755409
20
-14.7992742322958
30
0
41
1
10
-0.249519052838309
20
-14.7246952776827
30
0
0
SPLINE
5
238
100
AcDbEntity
8
SK1
62
256
6
ByLayer
370
18
48
1
60
0
100
AcDbSpline
70
4
71
3
72
14
73
10
40
0
40
0
40
0
40
0
40
0.155554913642683
40
0.155554913642683
40
0.378748716517054
40
0.378748716517054
40
0.722777278320126
40
0.722777278320126
40
1
40
1
40
1
40
1
41
1
10
-0.324519052838355
20
-14.7172011418378
30
0
41
1
10
-0.324519052838355
20
-14.7190929925243
30
0
41
1
10
-0.323579933841131
20
-14.7219087503525
30
0
41
1
10
-0.319405748850727
20
-14.7304330002503
30
0
41
1
10
-0.315303874640222
20
-14.736960537962
30
0
41
1
10
-0.302289076154921
20
-14.7555151639997
30
0
41
1
10
-0.291797813149003
20
-14.7688997437627
30
0
41
1
10
-0.270712621683913
20
-14.794307705497
30
0
41
1
10
-0.260359731626068
20
-14.8063017756139
30
0
41
1
10
-0.249519052838309
20
-14.8184996647002
30
0
0
SPLINE
5
239
100
AcDbEntity
8
SK1
62
256
6
ByLayer
370
18
48
1
60
0
100
AcDbSpline
70
4
71
3
72
14
73
10
40
0
40
0
40
0
40
0
40
0.353259729422487
40
0.353259729422487
40
0.641057242873595
40
0.641057242873595
40
0.872232887600009
40
0.872232887600009
40
1
40
1
40
1
40
1
41
1
10
-0.249519052838309
20
-15.0214883413626
30
0
41
1
10
-0.263196903462187
20
-15.0070946111321
30
0
41
1
10
-0.276248266996561
20
-14.9931084157857
30
0
41
1
10
-0.296906506240134
20
-14.9703142515366
30
0
41
1
10
-0.305248524971489
20
-14.9608281744123
30
0
41
1
10
-0.316735087259644
20
-14.946980342793
30
0
41
1
10
-0.320665072143583
20
-14.9418651848828
30
0
41
1
10
-0.323909376843005
20
-14.9366772312573
30
0
41
1
10
-0.324519052838355
20
-14.9353467830334
30
0
41
1
10
-0.324519052838355
20
-14.9346208709157
30
0
0
SPLINE
5
23A
100
AcDbEntity
8
SK1
62
256
6
ByLayer
370
18
48
1
60
0
100
AcDbSpline
70
4
71
3
72
8
73
4
40
0
40
0
40
0
40
0
40
1
40
1
40
1
40
1
41
1
10
0
20
-15.2831691478176
30
0
41
1
10
-0.083299862678416
20
-15.1961037513836
30
0
41
1
10
-0.166474933778943
20
-15.1088788736801
30
0
41
1
10
-0.249519052838309
20
-15.0214883413626
30
0
0
SPLINE
5
23B
100
AcDbEntity
8
SK1
62
256
6
ByLayer
370
18
48
1
60
0
100
AcDbSpline
70
4
71
3
72
16
73
12
40
0
40
0
40
0
40
0
40
0.137827430107147
40
0.137827430107147
40
0.352447650398417
40
0.352447650398417
40
0.567711236697166
40
0.567711236697166
40
0.898592109368094
40
0.898592109368094
40
1
40
1
40
1
40
1
41
1
10
-0.324519052838298
20
-14.9143113409684
30
0
41
1
10
-0.324519052838298
20
-14.9134644364433
30
0
41
1
10
-0.32388483853822
20
-14.9132363890929
30
0
41
1
10
-0.320682977948024
20
-14.9142790123793
30
0
41
1
10
-0.317167287329824
20
-14.9164947177628
30
0
41
1
10
-0.307857527727094
20
-14.9234299356434
30
0
41
1
10
-0.301970627393473
20
-14.9282145691655
30
0
41
1
10
-0.285383924931239
20
-14.9423519232924
30
0
41
1
10
-0.273542977885995
20
-14.9529822438002
30
0
41
1
10
-0.257360189935469
20
-14.9679526522022
30
0
41
1
10
-0.253463251144979
20
-14.971588120385
30
0
41
1
10
-0.249519052838309
20
-14.9752953674924
30
0
0
SPLINE
5
23C
100
AcDbEntity
8
SK1
62
256
6
ByLayer
370
18
48
1
60
0
100
AcDbSpline
70
4
71
3
72
8
73
4
40
0
40
0
40
0
40
0
40
1
40
1
40
1
40
1
41
1
10
-0.249519052838309
20
-14.9752953674924
30
0
41
1
10
-0.166408710993608
20
-15.0534127820965
30
0
41
1
10
-0.0832347511397984
20
-15.1314400306485
30
0
41
1
10
0
20
-15.2093806317287
30
0
0
SPLINE
5
23D
100
AcDbEntity
8
SK1
62
256
6
ByLayer
370
18
48
1
60
0
100
AcDbSpline
70
4
71
3
72
14
73
10
40
0
40
0
40
0
40
0
40
0.142197558479051
40
0.142197558479051
40
0.357599590411523
40
0.357599590411523
40
0.639435747374543
40
0.639435747374543
40
1
40
1
40
1
40
1
41
1
10
-0.324519052838355
20
14.9996597183625
30
0
41
1
10
-0.324519052838355
20
14.9996031492092
30
0
41
1
10
-0.323799623380694
20
15.0002583841984
30
0
41
1
10
-0.320317597520784
20
15.003567656703
30
0
41
1
10
-0.316634840922404
20
15.0071337884173
30
0
41
1
10
-0.305660318569323
20
15.017840226712
30
0
41
1
10
-0.297469915106603
20
15.025875603209
30
0
41
1
10
-0.276779854221616
20
15.0462487187143
30
0
41
1
10
-0.263411084463769
20
15.059460185851
30
0
41
1
10
-0.249519052838309
20
15.0732309630904
30
0
0
SPLINE
5
23E
100
AcDbEntity
8
SK1
62
256
6
ByLayer
370
18
48
1
60
0
100
AcDbSpline
70
4
71
3
72
8
73
4
40
0
40
0
40
0
40
0
40
1
40
1
40
1
40
1
41
1
10
-0.249519052838309
20
15.0732309630904
30
0
41
1
10
-0.166437562506246
20
15.1555872898627
30
0
41
1
10
-0.0832631335832161
20
15.2378187585574
30
0
41
1
10
0
20
15.3199301304152
30
0
0
SPLINE
5
23F
100
AcDbEntity
8
SK1
62
256
6
ByLayer
370
18
48
1
60
0
100
AcDbSpline
70
4
71
3
72
18
73
14
40
0
40
0
40
0
40
0
40
0.127052080585149
40
0.127052080585149
40
0.319569314460832
40
0.319569314460832
40
0.490217246958554
40
0.490217246958554
40
0.633743959765428
40
0.633743959765428
40
0.862973293405222
40
0.862973293405222
40
1
40
1
40
1
40
1
41
1
10
-0.249519052838309
20
10.5878491397196
30
0
41
1
10
-0.254766442314633
20
10.583448421908
30
0
41
1
10
-0.260098868023988
20
10.5794070927941
30
0
41
1
10
-0.273338356676561
20
10.5707735848154
30
0
41
1
10
-0.281409747363568
20
10.5668516528445
30
0
41
1
10
-0.295038068287795
20
10.5636319258971
30
0
41
1
10
-0.300944861810422
20
10.5638603498571
30
0
41
1
10
-0.309730295763018
20
10.5673766084077
30
0
41
1
10
-0.313061948872928
20
10.5701804169476
30
0
41
1
10
-0.319787163767558
20
10.5794620657242
30
0
41
1
10
-0.322215116447182
20
10.5872237714033
30
0
41
1
10
-0.324193351245753
20
10.6009462123775
30
0
41
1
10
-0.324519052839889
20
10.6064497770576
30
0
41
1
10
-0.324519052839833
20
10.61216421977
30
0
0
SPLINE
5
240
100
AcDbEntity
8
SK1
62
256
6
ByLayer
370
18
48
1
60
0
100
AcDbSpline
70
4
71
3
72
10
73
6
40
0
40
0
40
0
40
0
40
0.771448759596746
40
0.771448759596746
40
1
40
1
40
1
40
1
41
1
10
-0.249519052838366
20
9.96605046147945
30
0
41
1
10
-0.279803349716474
20
10.0405166850627
30
0
41
1
10
-0.305554542497305
20
10.117072721932
30
0
41
1
10
-0.321972400803247
20
10.207615929244
30
0
41
1
10
-0.324519052838241
20
10.2281344916218
30
0
41
1
10
-0.324519052838298
20
10.2467676740938
30
0
0
SPLINE
5
241
100
AcDbEntity
8
SK1
62
256
6
ByLayer
370
18
48
1
60
0
100
AcDbSpline
70
4
71
3
72
12
73
8
40
0
40
0
40
0
40
0
40
0.212431548930915
40
0.212431548930915
40
0.70611465466542
40
0.70611465466542
40
1
40
1
40
1
40
1
41
1
10
-0.324519052838355
20
10.8102522591258
30
0
41
1
10
-0.324519052838355
20
10.8237933180614
30
0
41
1
10
-0.322581237104544
20
10.8387445506322
30
0
41
1
10
-0.312338569200506
20
10.8897031589326
30
0
41
1
10
-0.299001977283069
20
10.928422604424
30
0
41
1
10
-0.272775499936984
20
10.9899767356336
30
0
41
1
10
-0.261676656988982
20
11.0132582111472
30
0
41
1
10
-0.249519052838309
20
11.0363958758218
30
0
0
SPLINE
5
242
100
AcDbEntity
8
SK1
62
256
6
ByLayer
370
18
48
1
60
0
100
AcDbSpline
70
4
71
3
72
12
73
8
40
0
40
0
40
0
40
0
40
0.490369879866985
40
0.490369879866985
40
0.864056985717725
40
0.864056985717725
40
1
40
1
40
1
40
1
41
1
10
-0.249519052838309
20
-11.0363958758218
30
0
41
1
10
-0.269696901042153
20
-10.9979945362315
30
0
41
1
10
-0.287094888376998
20
-10.9590328574442
30
0
41
1
10
-0.310553980891655
20
-10.8925672197375
30
0
41
1
10
-0.318544372155884
20
-10.8639838927524
30
0
41
1
10
-0.323709156884831
20
-10.8282419013268
30
0
41
1
10
-0.324519052846085
20
-10.8189524177293
30
0
41
1
10
-0.324519052846426
20
-10.8102522591203
30
0
0
SPLINE
5
243
100
AcDbEntity
8
SK1
62
256
6
ByLayer
370
18
48
1
60
0
100
AcDbSpline
70
4
71
3
72
18
73
14
40
0
40
0
40
0
40
0
40
0.210398209501943
40
0.210398209501943
40
0.399960818490153
40
0.399960818490153
40
0.555256285136208
40
0.555256285136208
40
0.711544231937025
40
0.711544231937025
40
0.855214949515753
40
0.855214949515753
40
1
40
1
40
1
40
1
41
1
10
-0.324519052845801
20
-10.612164219765
30
0
41
1
10
-0.324519052846085
20
-10.6034427622157
30
0
41
1
10
-0.323764237921296
20
-10.5951758011171
30
0
41
1
10
-0.320226547111929
20
-10.5814131445702
30
0
41
1
10
-0.317596931922594
20
-10.5756308218612
30
0
41
1
10
-0.310612750599773
20
-10.567977069954
30
0
41
1
10
-0.306562294991409
20
-10.5655501660555
30
0
41
1
10
-0.296924649598225
20
-10.5636502431269
30
0
41
1
10
-0.291192977507478
20
-10.5641938016068
30
0
41
1
10
-0.279544582363769
20
-10.5678905010755
30
0
41
1
10
-0.273559252505606
20
-10.5708425954924
30
0
41
1
10
-0.261580748634799
20
-10.578292507821
30
0
41
1
10
-0.255490810248489
20
-10.5828409314817
30
0
41
1
10
-0.249519052838309
20
-10.5878491397194
30
0
0
SPLINE
5
244
100
AcDbEntity
8
SK1
62
256
6
ByLayer
370
18
48
1
60
0
100
AcDbSpline
70
4
71
3
72
8
73
4
40
0
40
0
40
0
40
0
40
1
40
1
40
1
40
1
41
1
10
-0.249519052838309
20
-10.58784913972
30
0
41
1
10
-0.16636054285425
20
-10.6575899389726
30
0
41
1
10
-0.0831872444597366
20
-10.7273072321293
30
0
41
1
10
0
20
-10.7970023247566
30
0
0
SPLINE
5
245
100
AcDbEntity
8
SK1
62
256
6
ByLayer
370
18
48
1
60
0
100
AcDbSpline
70
4
71
3
72
8
73
4
40
0
40
0
40
0
40
0
40
1
40
1
40
1
40
1
41
1
10
-0.249519052838309
20
-9.96605046147945
30
0
41
1
10
-0.208680207420173
20
-9.86563160064117
30
0
41
1
10
-0.170054795711167
20
-9.76452135608349
30
0
41
1
10
-0.133851890831579
20
-9.66265442214535
30
0
0
SPLINE
5
246
100
AcDbEntity
8
SK1
62
256
6
ByLayer
370
18
48
1
60
0
100
AcDbSpline
70
4
71
3
72
12
73
8
40
0
40
0
40
0
40
0
40
0.175722096897635
40
0.175722096897635
40
0.687093652631205
40
0.687093652631205
40
1
40
1
40
1
40
1
41
1
10
-0.324519052838298
20
-10.2467676740947
30
0
41
1
10
-0.324519052838298
20
-10.232526265348
30
0
41
1
10
-0.323008678484484
20
-10.2171641642495
30
0
41
1
10
-0.313763984434161
20
-10.1559273570223
30
0
41
1
10
-0.299919129425746
20
-10.1065107052185
30
0
41
1
10
-0.273289902446493
20
-10.0270752285622
30
0
41
1
10
-0.26191128954764
20
-9.99652180024631
30
0
41
1
10
-0.249519052838309
20
-9.96605046147945
30
0
0
SPLINE
5
247
100
AcDbEntity
8
SK1
62
256
6
ByLayer
370
18
48
1
60
0
100
AcDbSpline
70
4
71
3
72
8
73
4
40
0
40
0
40
0
40
0
40
1
40
1
40
1
40
1
41
1
10
0
20
-11.5032716737805
30
0
41
1
10
-0.0841721835889757
20
-11.3483643383457
30
0
41
1
10
-0.167367184647219
20
-11.1927426654551
30
0
41
1
10
-0.249519052838309
20
-11.0363958758218
30
0
0
SPLINE
5
248
100
AcDbEntity
8
SK1
62
256
6
ByLayer
370
18
48
1
60
0
100
AcDbSpline
70
4
71
3
72
8
73
4
40
0
40
0
40
0
40
0
40
1
40
1
40
1
40
1
41
1
10
-0.249519052838309
20
11.1538370998082
30
0
41
1
10
-0.23724268661681
20
11.1374218023923
30
0
41
1
10
-0.224998037660214
20
11.1209741373647
30
0
41
1
10
-0.212786371493678
20
11.1044934159156
30
0
0
SPLINE
5
249
100
AcDbEntity
8
SK1
62
256
6
ByLayer
370
18
48
1
60
0
100
AcDbSpline
70
4
71
3
72
8
73
4
40
0
40
0
40
0
40
0
40
1
40
1
40
1
40
1
41
1
10
0
20
12.6668961944433
30
0
41
1
10
-0.0838355637598056
20
12.5325135403374
30
0
41
1
10
-0.167022275036572
20
12.3975876519351
30
0
41
1
10
-0.249519052838309
20
12.2621047787412
30
0
0
SPLINE
5
24A
100
AcDbEntity
8
SK1
62
256
6
ByLayer
370
18
48
1
60
0
100
AcDbSpline
70
4
71
3
72
8
73
4
40
0
40
0
40
0
40
0
40
1
40
1
40
1
40
1
41
1
10
-0.249519052838309
20
11.9182788072984
30
0
41
1
10
-0.166346719817398
20
11.9862883889892
30
0
41
1
10
-0.0831736906827132
20
12.0542968356096
30
0
41
1
10
-1.705E-13
20
12.1223042034428
30
0
0
SPLINE
5
24B
100
AcDbEntity
8
SK1
62
256
6
ByLayer
370
18
48
1
60
0
100
AcDbSpline
70
4
71
3
72
18
73
14
40
0
40
0
40
0
40
0
40
0.162908015129708
40
0.162908015129708
40
0.366856942139421
40
0.366856942139421
40
0.537715648408697
40
0.537715648408697
40
0.708673066351339
40
0.708673066351339
40
0.922902784772065
40
0.922902784772065
40
1
40
1
40
1
40
1
41
1
10
-0.324519052839662
20
11.9235539298772
30
0
41
1
10
-0.324519052839719
20
11.9179428666907
30
0
41
1
10
-0.323977693929749
20
11.9127236095739
30
0
41
1
10
-0.321195057870682
20
11.902505708986
30
0
41
1
10
-0.318498962159822
20
11.8978016333709
30
0
41
1
10
-0.311108270472573
20
11.8923725996573
30
0
41
1
10
-0.306710307968672
20
11.8911010457693
30
0
41
1
10
-0.296401107399049
20
11.891447470528
30
0
41
1
10
-0.290367789838058
20
11.8930691428619
30
0
41
1
10
-0.276072133680145
20
11.8993307385164
30
0
41
1
10
-0.267430432852564
20
11.9046767021517
30
0
41
1
10
-0.255755825556264
20
11.9132947437304
30
0
41
1
10
-0.252633498128318
20
11.9157321416744
30
0
41
1
10
-0.249519052838309
20
11.9182788072983
30
0
0
SPLINE
5
24C
100
AcDbEntity
8
SK1
62
256
6
ByLayer
370
18
48
1
60
0
100
AcDbSpline
70
4
71
3
72
14
73
10
40
0
40
0
40
0
40
0
40
0.162532156028832
40
0.162532156028832
40
0.454453497015791
40
0.454453497015791
40
0.894044317623277
40
0.894044317623277
40
1
40
1
40
1
40
1
41
1
10
-0.324519052839492
20
11.2870970646875
30
0
41
1
10
-0.324519052839435
20
11.2831306309011
30
0
41
1
10
-0.323399220715885
20
11.2780446462272
30
0
41
1
10
-0.317969983797013
20
11.2619786818204
30
0
41
1
10
-0.311790369630501
20
11.2493081123089
30
0
41
1
10
-0.292867893333153
20
11.2157243305683
30
0
41
1
10
-0.278062281087955
20
11.1932107425178
30
0
41
1
10
-0.257775243243657
20
11.1649835616635
30
0
41
1
10
-0.253693672661143
20
11.1594191771716
30
0
41
1
10
-0.249519052838309
20
11.1538370998082
30
0
0
SPLINE
5
24D
100
AcDbEntity
8
SK1
62
256
6
ByLayer
370
18
48
1
60
0
100
AcDbSpline
70
4
71
3
72
12
73
8
40
0
40
0
40
0
40
0
40
0.557830778225335
40
0.557830778225335
40
0.870882196541651
40
0.870882196541651
40
1
40
1
40
1
40
1
41
1
10
-0.249519052838309
20
12.2621047787412
30
0
41
1
10
-0.272038315577049
20
12.2251218262024
30
0
41
1
10
-0.291569279190355
20
12.1874748887669
30
0
41
1
10
-0.313299966276361
20
12.1323944002646
30
0
41
1
10
-0.319473967210513
20
12.1129016838172
30
0
41
1
10
-0.323792183799355
20
12.0882969528288
30
0
41
1
10
-0.324519052841254
20
12.0814110455706
30
0
41
1
10
-0.324519052841367
20
12.0751167702244
30
0
0
SPLINE
5
24E
100
AcDbEntity
8
SK1
62
256
6
ByLayer
370
18
48
1
60
0
100
AcDbSpline
70
4
71
3
72
12
73
8
40
0
40
0
40
0
40
0
40
0.314884237121294
40
0.314884237121294
40
0.928595027736014
40
0.928595027736014
40
1
40
1
40
1
40
1
41
1
10
-0.324519052847563
20
-11.023335056011
30
0
41
1
10
-0.324519052847109
20
-11.0164569652603
30
0
41
1
10
-0.323107949578627
20
-11.0082573948464
30
0
41
1
10
-0.31621973419476
20
-10.9822999670504
30
0
41
1
10
-0.308130968212197
20
-10.9624562701045
30
0
41
1
10
-0.297241347842032
20
-10.9397463779992
30
0
41
1
10
-0.296084588295003
20
-10.9373738562999
30
0
41
1
10
-0.294903467020447
20
-10.9349895070378
30
0
0
SPLINE
5
24F
100
AcDbEntity
8
SK1
62
256
6
ByLayer
370
18
48
1
60
0
100
AcDbSpline
70
4
71
3
72
14
73
10
40
0
40
0
40
0
40
0
40
0.174165348412026
40
0.174165348412026
40
0.488731550094917
40
0.488731550094917
40
0.951732659959532
40
0.951732659959532
40
1
40
1
40
1
40
1
41
1
10
-0.324519052840287
20
-13.7913823539168
30
0
41
1
10
-0.324519052840117
20
-13.7961558098304
30
0
41
1
10
-0.32326236399183
20
-13.8020977216168
30
0
41
1
10
-0.31719000845851
20
-13.8205661989345
30
0
41
1
10
-0.310274273823268
20
-13.8348073956468
30
0
41
1
10
-0.289342841880114
20
-13.8716120725747
30
0
41
1
10
-0.273140591797983
20
-13.8956873791114
30
0
41
1
10
-0.253358933480229
20
-13.9223407894786
30
0
41
1
10
-0.251449453822317
20
-13.9248884534334
30
0
41
1
10
-0.249519052838309
20
-13.9274395693815
30
0
0
SPLINE
5
250
100
AcDbEntity
8
SK1
62
256
6
ByLayer
370
18
48
1
60
0
100
AcDbSpline
70
4
71
3
72
16
73
12
40
0
40
0
40
0
40
0
40
0.22253571561892
40
0.22253571561892
40
0.448104736418018
40
0.448104736418018
40
0.676351070427471
40
0.676351070427471
40
0.869758580671089
40
0.869758580671089
40
1
40
1
40
1
40
1
41
1
10
-0.249519052838366
20
-11.1115948256756
30
0
41
1
10
-0.258226755330668
20
-11.1188613108518
30
0
41
1
10
-0.266903698070792
20
-11.1255566695252
30
0
41
1
10
-0.283440235690762
20
-11.1368254195924
30
0
41
1
10
-0.291452567983356
20
-11.141459661865
30
0
41
1
10
-0.305318987363137
20
-11.1472005194737
30
0
41
1
10
-0.311325193165772
20
-11.1483002269251
30
0
41
1
10
-0.319266917193147
20
-11.1464973508985
30
0
41
1
10
-0.321792178573389
20
-11.144171965175
30
0
41
1
10
-0.324089972813454
20
-11.1383666766871
30
0
41
1
10
-0.324519052838468
20
-11.1354933142615
30
0
41
1
10
-0.324519052838468
20
-11.1322329014718
30
0
0
SPLINE
5
251
100
AcDbEntity
8
SK1
62
256
6
ByLayer
370
18
48
1
60
0
100
AcDbSpline
70
4
71
3
72
8
73
4
40
0
40
0
40
0
40
0
40
1
40
1
40
1
40
1
41
1
10
-0.249519052838309
20
-13.9274395693815
30
0
41
1
10
-0.166682772670242
20
-14.0369116206157
30
0
41
1
10
-0.0835036428820217
20
-14.1460389125626
30
0
41
1
10
0
20
-14.2548328366489
30
0
0
SPLINE
5
252
100
AcDbEntity
8
SK1
62
256
6
ByLayer
370
18
48
1
60
0
100
AcDbSpline
70
4
71
3
72
8
73
4
40
0
40
0
40
0
40
0
40
1
40
1
40
1
40
1
41
1
10
0
20
-13.9355753092867
30
0
41
1
10
-0.083182806918785
20
-13.8660716694145
30
0
41
1
10
-0.166355973154907
20
-13.7965526425918
30
0
41
1
10
-0.249519052838309
20
-13.7270175338474
30
0
0
SPLINE
5
253
100
AcDbEntity
8
SK1
62
256
6
ByLayer
370
18
48
1
60
0
100
AcDbSpline
70
4
71
3
72
16
73
12
40
0
40
0
40
0
40
0
40
0.227410137494248
40
0.227410137494248
40
0.457633159158895
40
0.457633159158895
40
0.690406257431545
40
0.690406257431545
40
0.889694003076131
40
0.889694003076131
40
1
40
1
40
1
40
1
41
1
10
-0.249519052838366
20
-13.7270175338474
30
0
41
1
10
-0.258388740504415
20
-13.719601325853
30
0
41
1
10
-0.267222085052993
20
-13.7127693758787
30
0
41
1
10
-0.284002054360087
20
-13.7012774798479
30
0
41
1
10
-0.292104123302636
20
-13.6965527529122
30
0
41
1
10
-0.306039542114547
20
-13.6906349188685
30
0
41
1
10
-0.312024024103778
20
-13.6894390738458
30
0
41
1
10
-0.3198674412385
20
-13.6910001998921
30
0
41
1
10
-0.322303145867579
20
-13.693217262892
30
0
41
1
10
-0.324198844665489
20
-13.6984464266487
30
0
41
1
10
-0.324519052838355
20
-13.7006768393079
30
0
41
1
10
-0.324519052838355
20
-13.7031878080016
30
0
0
SPLINE
5
254
100
AcDbEntity
8
SK1
62
256
6
ByLayer
370
18
48
1
60
0
100
AcDbSpline
70
4
71
3
72
16
73
12
40
0
40
0
40
0
40
0
40
0.130624672145521
40
0.130624672145521
40
0.353528046871907
40
0.353528046871907
40
0.553774977999994
40
0.553774977999994
40
0.746732495380425
40
0.746732495380425
40
1
40
1
40
1
40
1
41
1
10
-0.324519052838468
20
11.1322329014719
30
0
41
1
10
-0.324519052838468
20
11.1355011895269
30
0
41
1
10
-0.324087874001975
20
11.1383805823507
30
0
41
1
10
-0.321579653791901
20
11.1446942324891
30
0
41
1
10
-0.318457693103994
20
11.14715180263
30
0
41
1
10
-0.309751543328332
20
11.148013128415
30
0
41
1
10
-0.304338658879317
20
11.1468131043017
30
0
41
1
10
-0.292244012299591
20
11.1417689696497
30
0
41
1
10
-0.285493581620585
20
11.137991214891
30
0
41
1
10
-0.269270335143744
20
11.1273720556151
30
0
41
1
10
-0.259403750772378
20
11.1198435010377
30
0
41
1
10
-0.249519052838195
20
11.1115948256756
30
0
0
SPLINE
5
255
100
AcDbEntity
8
SK1
62
256
6
ByLayer
370
18
48
1
60
0
100
AcDbSpline
70
4
71
3
72
16
73
12
40
0
40
0
40
0
40
0
40
0.134846087248371
40
0.134846087248371
40
0.359807319613972
40
0.359807319613972
40
0.563975635911578
40
0.563975635911578
40
0.764440841140041
40
0.764440841140041
40
1
40
1
40
1
40
1
41
1
10
-0.324519052838411
20
13.7031878080016
30
0
41
1
10
-0.324519052838411
20
13.700128711894
30
0
41
1
10
-0.324041900077304
20
13.6974842500044
30
0
41
1
10
-0.321336502499037
20
13.6919455912478
30
0
41
1
10
-0.318053250017101
20
13.6900141396597
30
0
41
1
10
-0.30902237915376
20
13.689999437979
30
0
41
1
10
-0.303419812192203
20
13.6915758670914
30
0
41
1
10
-0.290856811988931
20
13.6973149632769
30
0
41
1
10
-0.283796286626341
20
13.7014706681422
30
0
41
1
10
-0.267850823763752
20
13.7122840528572
30
0
41
1
10
-0.258702075034648
20
13.7193393375919
30
0
41
1
10
-0.249519052838366
20
13.7270175338474
30
0
0
SPLINE
5
256
100
AcDbEntity
8
SK1
62
256
6
ByLayer
370
18
48
1
60
0
100
AcDbSpline
70
4
71
3
72
8
73
4
40
0
40
0
40
0
40
0
40
1
40
1
40
1
40
1
41
1
10
-0.249519052838309
20
13.7270175338474
30
0
41
1
10
-0.166355973154907
20
13.7965526425918
30
0
41
1
10
-0.083182806918785
20
13.8660716694145
30
0
41
1
10
0
20
13.9355753092867
30
0
0
SPLINE
5
257
100
AcDbEntity
8
SK1
62
256
6
ByLayer
370
18
48
1
60
0
100
AcDbSpline
70
4
71
3
72
12
73
8
40
0
40
0
40
0
40
0
40
0.182298733676622
40
0.182298733676622
40
0.683485658158684
40
0.683485658158684
40
1
40
1
40
1
40
1
41
1
10
-0.295428679488623
20
10.9360368397676
30
0
41
1
10
-0.298386817114363
20
10.9420409641512
30
0
41
1
10
-0.301186553133334
20
10.9479672237381
30
0
41
1
10
-0.311105775139083
20
10.969998681264
30
0
41
1
10
-0.317134123071185
20
10.9856949103867
30
0
41
1
10
-0.323123606525599
20
11.0083488497432
30
0
41
1
10
-0.324519052846767
20
11.0164953468261
30
0
41
1
10
-0.324519052847279
20
11.0233350560103
30
0
0
SPLINE
5
258
100
AcDbEntity
8
SK1
62
256
6
ByLayer
370
18
48
1
60
0
100
AcDbSpline
70
4
71
3
72
14
73
10
40
0
40
0
40
0
40
0
40
0.4681906779061
40
0.4681906779061
40
0.766658887129561
40
0.766658887129561
40
0.995274023650263
40
0.995274023650263
40
1
40
1
40
1
40
1
41
1
10
-0.249519052838309
20
13.9274395693815
30
0
41
1
10
-0.267988531614549
20
13.9030312820616
30
0
41
1
10
-0.284824338654062
20
13.8785816371167
30
0
41
1
10
-0.306597660781449
20
13.8416964321552
30
0
41
1
10
-0.31378542042512
20
13.8278196277625
30
0
41
1
10
-0.322173001890917
20
13.8065015711565
30
0
41
1
10
-0.324426223282842
20
13.7981391130705
30
0
41
1
10
-0.324518106074208
20
13.7916464331563
30
0
41
1
10
-0.324519052838298
20
13.7915139629335
30
0
41
1
10
-0.324519052838298
20
13.7913823539181
30
0
0
SPLINE
5
259
100
AcDbEntity
8
SK1
62
256
6
ByLayer
370
18
48
1
60
0
100
AcDbSpline
70
4
71
3
72
8
73
4
40
0
40
0
40
0
40
0
40
1
40
1
40
1
40
1
41
1
10
0
20
14.2548328366489
30
0
41
1
10
-0.0835036428820217
20
14.1460389125626
30
0
41
1
10
-0.166682772670242
20
14.0369116206157
30
0
41
1
10
-0.249519052838309
20
13.9274395693815
30
0
0
SPLINE
5
25A
100
AcDbEntity
8
SK1
62
256
6
ByLayer
370
18
48
1
60
0
100
AcDbSpline
70
4
71
3
72
8
73
4
40
0
40
0
40
0
40
0
40
1
40
1
40
1
40
1
41
1
10
-0.249519052817789
20
-6.22229127891862
30
0
41
1
10
-0.166795538784186
20
-6.31731434419987
30
0
41
1
10
-0.0836051437554488
20
-6.41179796364293
30
0
41
1
10
-1.2506E-12
20
-6.50578659354736
30
0
0
SPLINE
5
25B
100
AcDbEntity
8
SK1
62
256
6
ByLayer
370
18
48
1
60
0
100
AcDbSpline
70
4
71
3
72
8
73
4
40
0
40
0
40
0
40
0
40
1
40
1
40
1
40
1
41
1
10
0
20
-7.91045252819325
30
0
41
1
10
-0.0865100425099286
20
-7.65998975574323
30
0
41
1
10
-0.16976751611918
20
-7.40799227806866
30
0
41
1
10
-0.249519052838366
20
-7.15455621082879
30
0
0
SPLINE
5
25C
100
AcDbEntity
8
SK1
62
256
6
ByLayer
370
18
48
1
60
0
100
AcDbSpline
70
4
71
3
72
20
73
16
40
0
40
0
40
0
40
0
40
0.110988402334916
40
0.110988402334916
40
0.182835936018668
40
0.182835936018668
40
0.255553852104656
40
0.255553852104656
40
0.320786153458731
40
0.320786153458731
40
0.421448279744227
40
0.421448279744227
40
0.611436522228581
40
0.611436522228581
40
1
40
1
40
1
40
1
41
1
10
-0.249519052838309
20
6.222291278895
30
0
41
1
10
-0.254676337943579
20
6.21636719497576
30
0
41
1
10
-0.260207363467146
20
6.21089634802686
30
0
41
1
10
-0.269757158014386
20
6.20396605408337
30
0
41
1
10
-0.273706815974833
20
6.20175128138607
30
0
41
1
10
-0.281499249676756
20
6.19913668745798
30
0
41
1
10
-0.285436583269245
20
6.19875848321368
30
0
41
1
10
-0.292197773687121
20
6.20000286356787
30
0
41
1
10
-0.295173539104894
20
6.20142018151356
30
0
41
1
10
-0.30180206882153
20
6.20645535019685
30
0
41
1
10
-0.305094016319288
20
6.21087508386952
30
0
41
1
10
-0.312850998901524
20
6.22515675998784
30
0
41
1
10
-0.316087956292961
20
6.23657765630159
30
0
41
1
10
-0.323209347934267
20
6.27239611087586
30
0
41
1
10
-0.324519052838298
20
6.29884632105015
30
0
41
1
10
-0.324519052838298
20
6.32548904391899
30
0
0
SPLINE
5
25D
100
AcDbEntity
8
SK1
62
256
6
ByLayer
370
18
48
1
60
0
100
AcDbSpline
70
4
71
3
72
8
73
4
40
0
40
0
40
0
40
0
40
1
40
1
40
1
40
1
41
1
10
7.617E-12
20
6.50578659355736
30
0
41
1
10
-0.083605143756472
20
6.41179796364185
30
0
41
1
10
-0.166795538795043
20
6.31731434418757
30
0
41
1
10
-0.249519052838309
20
6.22229127889503
30
0
0
SPLINE
5
25E
100
AcDbEntity
8
SK1
62
256
6
ByLayer
370
18
48
1
60
0
100
AcDbSpline
70
4
71
3
72
20
73
16
40
0
40
0
40
0
40
0
40
0.351137548418788
40
0.351137548418788
40
0.59999486433875
40
0.59999486433875
40
0.681081596368277
40
0.681081596368277
40
0.763626254061009
40
0.763626254061009
40
0.834330729384487
40
0.834330729384487
40
0.921094402378277
40
0.921094402378277
40
1
40
1
40
1
40
1
41
1
10
-0.324519052838298
20
-6.32548904391834
30
0
41
1
10
-0.324519052838298
20
-6.30141711336103
30
0
41
1
10
-0.323401954413612
20
-6.27758745168057
30
0
41
1
10
-0.31712031655394
20
-6.23980316887824
30
0
41
1
10
-0.313249660206736
20
-6.22440438155206
30
0
41
1
10
-0.303741924658311
20
-6.20914812927663
30
0
41
1
10
-0.300954033802952
20
-6.20578722389982
30
0
41
1
10
-0.294396458565302
20
-6.20085478904468
30
0
41
1
10
-0.290490718848957
20
-6.19929379825058
30
0
41
1
10
-0.28269794706614
20
-6.1989496479967
30
0
41
1
10
-0.278797001501005
20
-6.19980014003158
30
0
41
1
10
-0.270281260419381
20
-6.20348550345392
30
0
41
1
10
-0.265573922763224
20
-6.20673167359109
30
0
41
1
10
-0.257111181143898
20
-6.21402964398405
30
0
41
1
10
-0.253227474585856
20
-6.21803147914204
30
0
41
1
10
-0.249519052807841
20
-6.22229127889875
30
0
0
SPLINE
5
25F
100
AcDbEntity
8
SK1
62
256
6
ByLayer
370
18
48
1
60
0
100
AcDbSpline
70
4
71
3
72
10
73
6
40
0
40
0
40
0
40
0
40
0.629255596758649
40
0.629255596758649
40
1
40
1
40
1
40
1
41
1
10
-0.24951905283865
20
-7.15455621082879
30
0
41
1
10
-0.276802686241297
20
-7.06785372164751
30
0
41
1
10
-0.297815816859668
20
-6.97985302655655
30
0
41
1
10
-0.319082164861925
20
-6.84256142700997
30
0
41
1
10
-0.324519052838355
20
-6.79159261532075
30
0
41
1
10
-0.324519052838355
20
-6.74297943705761
30
0
0
SPLINE
5
260
100
AcDbEntity
8
SK1
62
256
6
ByLayer
370
18
48
1
60
0
100
AcDbSpline
70
4
71
3
72
8
73
4
40
0
40
0
40
0
40
0
40
1
40
1
40
1
40
1
41
1
10
-0.249519052838366
20
7.15455621082879
30
0
41
1
10
-0.16976751611918
20
7.40799227806866
30
0
41
1
10
-0.0865100425099286
20
7.65998975574323
30
0
41
1
10
0
20
7.91045252819325
30
0
0
SPLINE
5
261
100
AcDbEntity
8
SK1
62
256
6
ByLayer
370
18
48
1
60
0
100
AcDbSpline
70
4
71
3
72
10
73
6
40
0
40
0
40
0
40
0
40
0.459290726719593
40
0.459290726719593
40
1
40
1
40
1
40
1
41
1
10
-0.324519052838355
20
6.74297943705761
30
0
41
1
10
-0.324519052838355
20
6.80309173048494
30
0
41
1
10
-0.316452834736822
20
6.86666363578013
30
0
41
1
10
-0.291710748481364
20
7.0044542180446
30
0
41
1
10
-0.272997356572489
20
7.07994637622744
30
0
41
1
10
-0.24951905283848
20
7.15455621082879
30
0
0
SPLINE
5
262
100
AcDbEntity
8
SK1
62
256
6
ByLayer
370
18
48
1
60
0
100
AcDbSpline
70
4
71
3
72
20
73
16
40
0
40
0
40
0
40
0
40
0.0875735574961561
40
0.0875735574961561
40
0.23748819442498
40
0.23748819442498
40
0.349380795322352
40
0.349380795322352
40
0.460973491781708
40
0.460973491781708
40
0.623052529517421
40
0.623052529517421
40
0.903399478576431
40
0.903399478576431
40
1
40
1
40
1
40
1
41
1
10
-0.249519052838082
20
-8.81247576350845
30
0
41
1
10
-0.253304514101274
20
-8.8090335236389
30
0
41
1
10
-0.257173009249243
20
-8.8058213446601
30
0
41
1
10
-0.26770588203533
20
-8.79813142703543
30
0
41
1
10
-0.274608643634565
20
-8.79425975834013
30
0
41
1
10
-0.285979747086969
20
-8.79074742120073
30
0
41
1
10
-0.290726291566955
20
-8.79027798160379
30
0
41
1
10
-0.299136566676395
20
-8.79159999912326
30
0
41
1
10
-0.302902380842909
20
-8.79338659480695
30
0
41
1
10
-0.310649601935097
20
-8.79972753539903
30
0
41
1
10
-0.314131198109919
20
-8.80520772514336
30
0
41
1
10
-0.321186149396169
20
-8.82216817274607
30
0
41
1
10
-0.32327358221545
20
-8.83535487005767
30
0
41
1
10
-0.324388445962427
20
-8.85386883373292
30
0
41
1
10
-0.324519052838866
20
-8.85874125227204
30
0
41
1
10
-0.324519052838866
20
-8.86368549397255
30
0
0
SPLINE
5
263
100
AcDbEntity
8
SK1
62
256
6
ByLayer
370
18
48
1
60
0
100
AcDbSpline
70
4
71
3
72
8
73
4
40
0
40
0
40
0
40
0
40
1
40
1
40
1
40
1
41
1
10
0
20
9.98500171260872
30
0
41
1
10
-0.0848234304747848
20
9.79780220239837
30
0
41
1
10
-0.168035290451201
20
9.6096158622241
30
0
41
1
10
-0.249519052838309
20
9.42044872874334
30
0
0
SPLINE
5
264
100
AcDbEntity
8
SK1
62
256
6
ByLayer
370
18
48
1
60
0
100
AcDbSpline
70
4
71
3
72
20
73
16
40
0
40
0
40
0
40
0
40
0.278916696808843
40
0.278916696808843
40
0.430775456755833
40
0.430775456755833
40
0.584791538830682
40
0.584791538830682
40
0.697662414697189
40
0.697662414697189
40
0.810525316853762
40
0.810525316853762
40
0.962008496048587
40
0.962008496048587
40
1
40
1
40
1
40
1
41
1
10
-0.324519052838355
20
8.86368549397287
30
0
41
1
10
-0.324519052838355
20
8.84951825767013
30
0
41
1
10
-0.323488803138503
20
8.8357913182659
30
0
41
1
10
-0.31901954862559
20
8.81701876215411
30
0
41
1
10
-0.316846164076878
20
8.81079728184002
30
0
41
1
10
-0.310836396571688
20
8.8002319537184
30
0
41
1
10
-0.306880052762153
20
8.7958153308613
30
0
41
1
10
-0.298296049091107
20
8.79134031734102
30
0
41
1
10
-0.294030867298318
20
8.79042535432404
30
0
41
1
10
-0.284842870078933
20
8.79094270208469
30
0
41
1
10
-0.279817333239293
20
8.79237568903289
30
0
41
1
10
-0.268049181094114
20
8.79782673815956
30
0
41
1
10
-0.261125998125635
20
8.80258900206155
30
0
41
1
10
-0.25283317771823
20
8.80952020215403
30
0
41
1
10
-0.251169073035044
20
8.81097534786335
30
0
41
1
10
-0.249519052838309
20
8.81247576350935
30
0
0
SPLINE
5
265
100
AcDbEntity
8
SK1
62
256
6
ByLayer
370
18
48
1
60
0
100
AcDbSpline
70
4
71
3
72
8
73
4
40
0
40
0
40
0
40
0
40
1
40
1
40
1
40
1
41
1
10
-0.249519052838309
20
-9.42044872874334
30
0
41
1
10
-0.168035290451201
20
-9.6096158622241
30
0
41
1
10
-0.0848234304747848
20
-9.79780220239837
30
0
41
1
10
0
20
-9.98500171260872
30
0
0
SPLINE
5
266
100
AcDbEntity
8
SK1
62
256
6
ByLayer
370
18
48
1
60
0
100
AcDbSpline
70
4
71
3
72
8
73
4
40
0
40
0
40
0
40
0
40
1
40
1
40
1
40
1
41
1
10
-0.249519052838309
20
8.81247576350941
30
0
41
1
10
-0.166423399330142
20
8.88803727414282
30
0
41
1
10
-0.0832484707354411
20
8.96348267082536
30
0
41
1
10
0
20
9.03881956899238
30
0
0
SPLINE
5
267
100
AcDbEntity
8
SK1
62
256
6
ByLayer
370
18
48
1
60
0
100
AcDbSpline
70
4
71
3
72
12
73
8
40
0
40
0
40
0
40
0
40
0.270484536940596
40
0.270484536940596
40
0.937427070528407
40
0.937427070528407
40
1
40
1
40
1
40
1
41
1
10
-0.324519052838298
20
-9.1331628036117
30
0
41
1
10
-0.324519052838241
20
-9.15662389101993
30
0
41
1
10
-0.321431965764134
20
-9.1819609628343
30
0
41
1
10
-0.305259255733063
20
-9.27044162478353
30
0
41
1
10
-0.284044475433234
20
-9.33694265823081
30
0
41
1
10
-0.254764371834767
20
-9.40813112531038
30
0
41
1
10
-0.252170482870554
20
-9.41429335000129
30
0
41
1
10
-0.249519052838309
20
-9.42044872874334
30
0
0
SPLINE
5
268
100
AcDbEntity
8
SK1
62
256
6
ByLayer
370
18
48
1
60
0
100
AcDbSpline
70
4
71
3
72
10
73
6
40
0
40
0
40
0
40
0
40
0.723732362008855
40
0.723732362008855
40
1
40
1
40
1
40
1
41
1
10
-0.24951905283848
20
9.42044872874331
30
0
41
1
10
-0.279825998467914
20
9.35009019519836
30
0
41
1
10
-0.303722292690395
20
9.27767388060064
30
0
41
1
10
-0.321285411184021
20
9.18319404200969
30
0
41
1
10
-0.324519052838298
20
9.15719647951528
30
0
41
1
10
-0.324519052838298
20
9.13316280361067
30
0
0
SPLINE
5
269
100
AcDbEntity
8
SK1
62
256
6
ByLayer
370
18
48
1
60
0
100
AcDbSpline
70
4
71
3
72
8
73
4
40
0
40
0
40
0
40
0
40
1
40
1
40
1
40
1
41
1
10
0
20
-9.03881956899238
30
0
41
1
10
-0.0832484707354411
20
-8.96348267082536
30
0
41
1
10
-0.166423399330142
20
-8.88803727414282
30
0
41
1
10
-0.249519052838309
20
-8.81247576350941
30
0
0
SPLINE
5
26A
100
AcDbEntity
8
1
62
256
6
ByLayer
370
18
48
1
60
0
100
AcDbSpline
70
4
71
3
72
8
73
4
40
0
40
0
40
0
40
0
40
1
40
1
40
1
40
1
41
1
10
0
20
13.9355753092867
30
0
41
1
10
0.131482808102248
20
14.0454361577269
30
0
41
1
10
0.262989702442042
20
14.1552585794663
30
0
41
1
10
0.394519052838348
20
14.2650451197814
30
0
0
SPLINE
5
26B
100
AcDbEntity
8
1
62
256
6
ByLayer
370
18
48
1
60
0
100
AcDbSpline
70
4
71
3
72
8
73
4
40
0
40
0
40
0
40
0
40
1
40
1
40
1
40
1
41
1
10
11.8927212066815
20
-5.25544591000821
30
0
41
1
10
11.8821510786265
20
-5.27357872540429
30
0
41
1
10
11.8715984387392
20
-5.29182208170394
30
0
41
1
10
11.8610575827903
20
-5.31016954164863
30
0
0
SPLINE
5
26C
100
AcDbEntity
8
1
62
256
6
ByLayer
370
18
48
1
60
0
100
AcDbSpline
70
4
71
3
72
10
73
6
40
0
40
0
40
0
40
0
40
0.483570196894762
40
0.483570196894762
40
1
40
1
40
1
40
1
41
1
10
11.8294111460252
20
-5.36561213142301
30
0
41
1
10
11.5194312499308
20
-5.91203487025336
30
0
41
1
10
11.2147185772884
20
-6.54319729372386
30
0
41
1
10
10.2939550809069
20
-7.68337609551759
30
0
41
1
10
9.6881074571657
20
-8.17841446434031
30
0
41
1
10
9.04092370817216
20
-8.58738950102136
30
0
0
SPLINE
5
26D
100
AcDbEntity
8
1
62
256
6
ByLayer
370
18
48
1
60
0
100
AcDbSpline
70
4
71
3
72
8
73
4
40
0
40
0
40
0
40
0
40
1
40
1
40
1
40
1
41
1
10
0
20
-4.57714531130458
30
0
41
1
10
0.112166098433818
20
-5.15960305852678
30
0
41
1
10
0.244211265331842
20
-5.73686900991925
30
0
41
1
10
0.394519052838063
20
-6.30936533150313
30
0
0
SPLINE
5
26E
100
AcDbEntity
8
1
62
256
6
ByLayer
370
18
48
1
60
0
100
AcDbSpline
70
4
71
3
72
8
73
4
40
0
40
0
40
0
40
0
40
1
40
1
40
1
40
1
41
1
10
0.394519052838348
20
-15.2282566821645
30
0
41
1
10
0.262459483945349
20
-15.0724284831646
30
0
41
1
10
0.130938109510964
20
-14.9159893571169
30
0
41
1
10
0
20
-14.75890440381
30
0
0
SPLINE
5
26F
100
AcDbEntity
8
1
62
256
6
ByLayer
370
18
48
1
60
0
100
AcDbSpline
70
4
71
3
72
8
73
4
40
0
40
0
40
0
40
0
40
1
40
1
40
1
40
1
41
1
10
0.394519052838348
20
10.8254993787
30
0
41
1
10
0.259571603612187
20
10.5475238397796
30
0
41
1
10
0.127941497480151
20
10.2673598479706
30
0
41
1
10
0
20
9.98500171260872
30
0
0
SPLINE
5
270
100
AcDbEntity
8
1
62
256
6
ByLayer
370
18
48
1
60
0
100
AcDbSpline
70
4
71
3
72
8
73
4
40
0
40
0
40
0
40
0
40
1
40
1
40
1
40
1
41
1
10
10.501556885624
20
-15.8561651257432
30
0
41
1
10
10.666641167201
20
-15.8799247654944
30
0
41
1
10
10.8325339340015
20
-15.9006561632606
30
0
41
1
10
10.9992453246693
20
-15.9184140129174
30
0
0
SPLINE
5
271
100
AcDbEntity
8
1
62
256
6
ByLayer
370
18
48
1
60
0
100
AcDbSpline
70
4
71
3
72
26
73
22
40
0
40
0
40
0
40
0
40
0.382416079780423
40
0.382416079780423
40
0.625446865907617
40
0.625446865907617
40
0.748481835855895
40
0.748481835855895
40
0.83122079349798
40
0.83122079349798
40
0.867992352396404
40
0.867992352396404
40
0.905528358794446
40
0.905528358794446
40
0.928191876611158
40
0.928191876611158
40
0.950839409630492
40
0.950839409630492
40
0.982422117125992
40
0.982422117125992
40
1
40
1
40
1
40
1
41
1
10
0.394519052838348
20
-6.30936533150305
30
0
41
1
10
0.42026669583953
20
-6.40743364288059
30
0
41
1
10
0.441691148981818
20
-6.50613477427538
30
0
41
1
10
0.46734700192718
20
-6.66557696100602
30
0
41
1
10
0.475141396853815
20
-6.72750273907948
30
0
41
1
10
0.479813680638017
20
-6.81806972584943
30
0
41
1
10
0.480203319321106
20
-6.84825615130319
30
0
41
1
10
0.476613839678123
20
-6.89624745681957
30
0
41
1
10
0.474058384742989
20
-6.91515250325077
30
0
41
1
10
0.466664242688694
20
-6.93919867902213
30
0
41
1
10
0.463826752822911
20
-6.94621503768491
30
0
41
1
10
0.456445662378542
20
-6.95822130564929
30
0
41
1
10
0.451715146081199
20
-6.96332136834178
30
0
41
1
10
0.442437839439322
20
-6.96766684506957
30
0
41
1
10
0.438458385856506
20
-6.96842822907178
30
0
41
1
10
0.430158065096123
20
-6.9678562316202
30
0
41
1
10
0.425746323658075
20
-6.96652503932521
30
0
41
1
10
0.415409016187141
20
-6.96148228361216
30
0
41
1
10
0.409403538076958
20
-6.95701921340074
30
0
41
1
10
0.400600106125921
20
-6.94900187952325
30
0
41
1
10
0.397516551743138
20
-6.94588443832998
30
0
41
1
10
0.394519052836472
20
-6.94261312828942
30
0
0
SPLINE
5
272
100
AcDbEntity
8
1
62
256
6
ByLayer
370
18
48
1
60
0
100
AcDbSpline
70
4
71
3
72
8
73
4
40
0
40
0
40
0
40
0
40
1
40
1
40
1
40
1
41
1
10
0
20
-13.1463021112708
30
0
41
1
10
0.131502041716601
20
-13.2541129588158
30
0
41
1
10
0.263008496126361
20
-13.361916630174
30
0
41
1
10
0.394519052838348
20
-13.4697136281856
30
0
0
SPLINE
5
273
100
AcDbEntity
8
1
62
256
6
ByLayer
370
18
48
1
60
0
100
AcDbSpline
70
4
71
3
72
12
73
8
40
0
40
0
40
0
40
0
40
0.350963857910506
40
0.350963857910506
40
0.698979458962355
40
0.698979458962355
40
1
40
1
40
1
40
1
41
1
10
7.62298736124558
20
-10.0775379235372
30
0
41
1
10
7.47483443340428
20
-10.4146644460772
30
0
41
1
10
7.38552071027152
20
-10.7480889708794
30
0
41
1
10
7.28913714565147
20
-11.3213068865632
30
0
41
1
10
7.27839107630791
20
-11.5703002661991
30
0
41
1
10
7.28487166592629
20
-11.9320045922082
30
0
41
1
10
7.29838886761695
20
-12.0619613986331
30
0
41
1
10
7.31276685931277
20
-12.1482669291672
30
0
0
SPLINE
5
274
100
AcDbEntity
8
1
62
256
6
ByLayer
370
18
48
1
60
0
100
AcDbSpline
70
4
71
3
72
22
73
18
40
0
40
0
40
0
40
0
40
0.181772800722523
40
0.181772800722523
40
0.322815668892992
40
0.322815668892992
40
0.437578849014696
40
0.437578849014696
40
0.553409214648909
40
0.553409214648909
40
0.654532825235583
40
0.654532825235583
40
0.758895010297743
40
0.758895010297743
40
0.920739014933402
40
0.920739014933402
40
1
40
1
40
1
40
1
41
1
10
0.394519052838348
20
15.6934109577794
30
0
41
1
10
0.410183145303279
20
15.709617674464
30
0
41
1
10
0.425172057013469
20
15.7253084706092
30
0
41
1
10
0.448353996413232
20
15.749994152865
30
0
41
1
10
0.457507507824744
20
15.7599080993953
30
0
41
1
10
0.470312786569423
20
15.774211178945
30
0
41
1
10
0.474769112529373
20
15.7793987443354
30
0
41
1
10
0.479711282278572
20
15.7858170958926
30
0
41
1
10
0.480191571695968
20
15.7870639803357
30
0
41
1
10
0.477019234877616
20
15.785225950923
30
0
41
1
10
0.473857797227424
20
15.7826619943546
30
0
41
1
10
0.46486137684343
20
15.7747513282695
30
0
41
1
10
0.458865178029725
20
15.7692527371461
30
0
41
1
10
0.441503085677994
20
15.7529889095056
30
0
41
1
10
0.428738355895973
20
15.7407547202414
30
0
41
1
10
0.408527137730971
20
15.7211571513005
30
0
41
1
10
0.401594999605663
20
15.7144009592402
30
0
41
1
10
0.394519052838348
20
15.7074765779128
30
0
0
SPLINE
5
275
100
AcDbEntity
8
1
62
256
6
ByLayer
370
18
48
1
60
0
100
AcDbSpline
70
4
71
3
72
8
73
4
40
0
40
0
40
0
40
0
40
1
40
1
40
1
40
1
41
1
10
0
20
11.5032716737805
30
0
41
1
10
0.129262744342782
20
11.7411619891241
30
0
41
1
10
0.26084223691646
20
11.9773915907675
30
0
41
1
10
0.394519052838348
20
12.2120067865264
30
0
0
SPLINE
5
276
100
AcDbEntity
8
1
62
256
6
ByLayer
370
18
48
1
60
0
100
AcDbSpline
70
4
71
3
72
8
73
4
40
0
40
0
40
0
40
0
40
1
40
1
40
1
40
1
41
1
10
0
20
-14.5284293439038
30
0
41
1
10
0.131452231218077
20
-14.6416183903692
30
0
41
1
10
0.262959813047758
20
-14.7547217722481
30
0
41
1
10
0.394519052838348
20
-14.8677449303339
30
0
0
SPLINE
5
277
100
AcDbEntity
8
1
62
256
6
ByLayer
370
18
48
1
60
0
100
AcDbSpline
70
4
71
3
72
8
73
4
40
0
40
0
40
0
40
0
40
1
40
1
40
1
40
1
41
1
10
0
20
13.5674337735919
30
0
41
1
10
0.130432506420675
20
13.7543051691889
30
0
41
1
10
0.261970125944401
20
13.9401542765635
30
0
41
1
10
0.394519052838348
20
14.1250294040765
30
0
0
SPLINE
5
278
100
AcDbEntity
8
1
62
256
6
ByLayer
370
18
48
1
60
0
100
AcDbSpline
70
4
71
3
72
22
73
18
40
0
40
0
40
0
40
0
40
0.0317280275851564
40
0.0317280275851564
40
0.0851306362308564
40
0.0851306362308564
40
0.125040283460517
40
0.125040283460517
40
0.164842865624564
40
0.164842865624564
40
0.22242114951215
40
0.22242114951215
40
0.321342631608059
40
0.321342631608059
40
0.530784893222136
40
0.530784893222136
40
1
40
1
40
1
40
1
41
1
10
0.394519052838063
20
-9.39458376369802
30
0
41
1
10
0.398975418242287
20
-9.398588656474
30
0
41
1
10
0.403527612681558
20
-9.40231746740102
30
0
41
1
10
0.415771147214912
20
-9.4111096214217
30
0
41
1
10
0.423721884101724
20
-9.41548013233927
30
0
41
1
10
0.436760920620543
20
-9.41937868906595
30
0
41
1
10
0.442185788209201
20
-9.41985658127669
30
0
41
1
10
0.451756177125333
20
-9.41821965932223
30
0
41
1
10
0.456018696244769
20
-9.41610858640556
30
0
41
1
10
0.464719566513395
20
-9.40869747776401
30
0
41
1
10
0.468581658184689
20
-9.40234469662184
30
0
41
1
10
0.4762838106696
20
-9.38278507168744
30
0
41
1
10
0.478449046714957
20
-9.36764649748747
30
0
41
1
10
0.480807931526272
20
-9.31858356885041
30
0
41
1
10
0.476444629298499
20
-9.28127271989987
30
0
41
1
10
0.454947669045964
20
-9.16042629488874
30
0
41
1
10
0.427946893898252
20
-9.07226094256012
30
0
41
1
10
0.394519052838405
20
-8.98608723763041
30
0
0
SPLINE
5
279
100
AcDbEntity
8
1
62
256
6
ByLayer
370
18
48
1
60
0
100
AcDbSpline
70
4
71
3
72
8
73
4
40
0
40
0
40
0
40
0
40
1
40
1
40
1
40
1
41
1
10
11.4504024290997
20
-4.88339078756587
30
0
41
1
10
11.5902809360631
20
-5.00834807985962
30
0
41
1
10
11.7394368313482
20
-5.13143747182249
30
0
41
1
10
11.8927212066812
20
-5.25544591000812
30
0
0
SPLINE
5
27A
100
AcDbEntity
8
1
62
256
6
ByLayer
370
18
48
1
60
0
100
AcDbSpline
70
4
71
3
72
8
73
4
40
0
40
0
40
0
40
0
40
1
40
1
40
1
40
1
41
1
10
0.394519052838348
20
14.7634050483605
30
0
41
1
10
0.262257574731848
20
14.5946660798309
30
0
41
1
10
0.130729719974965
20
14.4251559356168
30
0
41
1
10
0
20
14.2548328366489
30
0
0
SPLINE
5
27B
100
AcDbEntity
8
1
62
256
6
ByLayer
370
18
48
1
60
0
100
AcDbSpline
70
4
71
3
72
8
73
4
40
0
40
0
40
0
40
0
40
1
40
1
40
1
40
1
41
1
10
0.394519052838348
20
-15.6934109577794
30
0
41
1
10
0.26271729608095
20
-15.5570434194058
30
0
41
1
10
0.131203544366883
20
-15.4203036908594
30
0
41
1
10
0
20
-15.2831691478176
30
0
0
SPLINE
5
27C
100
AcDbEntity
8
1
62
256
6
ByLayer
370
18
48
1
60
0
100
AcDbSpline
70
4
71
3
72
22
73
18
40
0
40
0
40
0
40
0
40
0.0978949077639572
40
0.0978949077639572
40
0.197217391642589
40
0.197217391642589
40
0.297669469642263
40
0.297669469642263
40
0.383334024954328
40
0.383334024954328
40
0.493542908086325
40
0.493542908086325
40
0.652113642063539
40
0.652113642063539
40
0.896260024620787
40
0.896260024620787
40
1
40
1
40
1
40
1
41
1
10
0.394519052838348
20
-14.2650451197815
30
0
41
1
10
0.404456367986256
20
-14.2733397205441
30
0
41
1
10
0.414357879039926
20
-14.2809791030295
30
0
41
1
10
0.433217578718484
20
-14.2938376259792
30
0
41
1
10
0.442348823240025
20
-14.2991235343043
30
0
41
1
10
0.458106198068549
20
-14.3056960627012
30
0
41
1
10
0.464904227819147
20
-14.3069806281756
30
0
41
1
10
0.473869274134358
20
-14.3050597006797
30
0
41
1
10
0.476693117318234
20
-14.3024807401507
30
0
41
1
10
0.480073941639432
20
-14.2936463228138
30
0
41
1
10
0.479855610519735
20
-14.286463239779
30
0
41
1
10
0.475607761639253
20
-14.2662050765765
30
0
41
1
10
0.469975375022614
20
-14.2516278556136
30
0
41
1
10
0.451398043803863
20
-14.2125608908871
30
0
41
1
10
0.435849266069795
20
-14.1861728302651
30
0
41
1
10
0.410778315148264
20
-14.1481541910076
30
0
41
1
10
0.402819177746153
20
-14.1366061605745
30
0
41
1
10
0.394519052838348
20
-14.1250294040765
30
0
0
SPLINE
5
27D
100
AcDbEntity
8
1
62
256
6
ByLayer
370
18
48
1
60
0
100
AcDbSpline
70
4
71
3
72
16
73
12
40
0
40
0
40
0
40
0
40
0.215862211496583
40
0.215862211496583
40
0.431858391045379
40
0.431858391045379
40
0.64604218400196
40
0.64604218400196
40
0.859605008122676
40
0.859605008122676
40
1
40
1
40
1
40
1
41
1
10
6.94970000000001
20
-3.33644429035641
30
0
41
1
10
6.94970000000001
20
-3.32739763956235
30
0
41
1
10
6.95926336542095
20
-3.31932874436964
30
0
41
1
10
6.99627421370951
20
-3.30614498702033
30
0
41
1
10
7.02425383343916
20
-3.30083602650956
30
0
41
1
10
7.09432532826315
20
-3.2928455842075
30
0
41
1
10
7.13726189822108
20
-3.29000786342664
30
0
41
1
10
7.23197246944943
20
-3.28608108367638
30
0
41
1
10
7.28502230130186
20
-3.28491065130225
30
0
41
1
10
7.37551383379719
20
-3.28384480977408
30
0
41
1
10
7.4127199585642
20
-3.28364530859605
30
0
41
1
10
7.44970000000001
20
-3.28364530859605
30
0
0
SPLINE
5
27E
100
AcDbEntity
8
1
62
256
6
ByLayer
370
18
48
1
60
0
100
AcDbSpline
70
4
71
3
72
8
73
4
40
0
40
0
40
0
40
0
40
1
40
1
40
1
40
1
41
1
10
0.394519052838348
20
13.4697136281856
30
0
41
1
10
0.263008496126361
20
13.361916630174
30
0
41
1
10
0.131502041716601
20
13.2541129588158
30
0
41
1
10
0
20
13.1463021112708
30
0
0
SPLINE
5
27F
100
AcDbEntity
8
1
62
256
6
ByLayer
370
18
48
1
60
0
100
AcDbSpline
70
4
71
3
72
8
73
4
40
0
40
0
40
0
40
0
40
1
40
1
40
1
40
1
41
1
10
0
20
15.3199301304152
30
0
41
1
10
0.13129057331804
20
15.4494045883561
30
0
41
1
10
0.262802036987978
20
15.5785809156017
30
0
41
1
10
0.394519052838348
20
15.7074765779128
30
0
0
SPLINE
5
280
100
AcDbEntity
8
1
62
256
6
ByLayer
370
18
48
1
60
0
100
AcDbSpline
70
4
71
3
72
8
73
4
40
0
40
0
40
0
40
0
40
1
40
1
40
1
40
1
41
1
10
0
20
-12.6668961944433
30
0
41
1
10
0.129986023832657
20
-12.8752548682079
30
0
41
1
10
0.261539119589486
20
-13.0823202242462
30
0
41
1
10
0.394519052838348
20
-13.2881444419488
30
0
0
SPLINE
5
281
100
AcDbEntity
8
1
62
256
6
ByLayer
370
18
48
1
60
0
100
AcDbSpline
70
4
71
3
72
8
73
4
40
0
40
0
40
0
40
0
40
1
40
1
40
1
40
1
41
1
10
0.394519052842099
20
6.94261312828979
30
0
41
1
10
0.262105760748
20
6.79810434099764
30
0
41
1
10
0.130544772386656
20
6.65254460085367
30
0
41
1
10
3.6948E-12
20
6.50578659355295
30
0
0
SPLINE
5
282
100
AcDbEntity
8
1
62
256
6
ByLayer
370
18
48
1
60
0
100
AcDbSpline
70
4
71
3
72
8
73
4
40
0
40
0
40
0
40
0
40
1
40
1
40
1
40
1
41
1
10
0
20
9.03881956899238
30
0
41
1
10
0.131329741485217
20
9.15766830306723
30
0
41
1
10
0.262842699722114
20
9.27624749018221
30
0
41
1
10
0.394519052838348
20
9.3945837636968
30
0
0
SPLINE
5
283
100
AcDbEntity
8
1
62
256
6
ByLayer
370
18
48
1
60
0
100
AcDbSpline
70
4
71
3
72
8
73
4
40
0
40
0
40
0
40
0
40
1
40
1
40
1
40
1
41
1
10
0
20
-14.2548328366489
30
0
41
1
10
0.130729719974965
20
-14.4251559356168
30
0
41
1
10
0.262257574731848
20
-14.5946660798308
30
0
41
1
10
0.394519052838348
20
-14.7634050483605
30
0
0
SPLINE
5
284
100
AcDbEntity
8
1
62
256
6
ByLayer
370
18
48
1
60
0
100
AcDbSpline
70
4
71
3
72
8
73
4
40
0
40
0
40
0
40
0
40
1
40
1
40
1
40
1
41
1
10
0
20
-9.98500171260872
30
0
41
1
10
0.127941497480151
20
-10.2673598479706
30
0
41
1
10
0.259571603612187
20
-10.5475238397796
30
0
41
1
10
0.394519052838348
20
-10.8254993787
30
0
0
SPLINE
5
285
100
AcDbEntity
8
1
62
256
6
ByLayer
370
18
48
1
60
0
100
AcDbSpline
70
4
71
3
72
12
73
8
40
0
40
0
40
0
40
0
40
0.476798888856971
40
0.476798888856971
40
0.865978360124779
40
0.865978360124779
40
1
40
1
40
1
40
1
41
1
10
9.04092370817096
20
-8.58738950101983
30
0
41
1
10
8.7519033199527
20
-8.77003024880901
30
0
41
1
10
8.480173976316
20
-8.98348514957144
30
0
41
1
10
8.04987393017029
20
-9.41229413269409
30
0
41
1
10
7.87601727830287
20
-9.62413671795429
30
0
41
1
10
7.69836870184486
20
-9.92111886159464
30
0
41
1
10
7.65746415126063
20
-9.99908493245863
30
0
41
1
10
7.62298736124535
20
-10.0775379235371
30
0
0
SPLINE
5
286
100
AcDbEntity
8
1
62
256
6
ByLayer
370
18
48
1
60
0
100
AcDbSpline
70
4
71
3
72
22
73
18
40
0
40
0
40
0
40
0
40
0.0485369988028128
40
0.0485369988028128
40
0.12169185857681
40
0.12169185857681
40
0.186452904513411
40
0.186452904513411
40
0.24070730095209
40
0.24070730095209
40
0.326722671082103
40
0.326722671082103
40
0.473923043189161
40
0.473923043189161
40
0.758600935702209
40
0.758600935702209
40
1
40
1
40
1
40
1
41
1
10
0.394519052838291
20
11.1272876810659
30
0
41
1
10
0.400543179707654
20
11.1323273349708
30
0
41
1
10
0.406662695794864
20
11.136953414537
30
0
41
1
10
0.421794237454776
20
11.1467939674328
30
0
41
1
10
0.430987918481264
20
11.1512533560243
30
0
41
1
10
0.446472277516818
20
11.1548926655493
30
0
41
1
10
0.453167452203104
20
11.1546167184667
30
0
41
1
10
0.463078217811813
20
11.1505641824855
30
0
41
1
10
0.466819023292146
20
11.1473519674863
30
0
41
1
10
0.474312021128299
20
11.1367678925064
30
0
41
1
10
0.476995069944564
20
11.1279581260299
30
0
41
1
10
0.480671778068256
20
11.1016264570794
30
0
41
1
10
0.479372223667099
20
11.08190645367
30
0
41
1
10
0.470308558694683
20
11.0223270904008
30
0
41
1
10
0.457586814638319
20
10.9792766550568
30
0
41
1
10
0.42842450285849
20
10.8996959649751
30
0
41
1
10
0.412457691929433
20
10.8624508208906
30
0
41
1
10
0.394519052838348
20
10.8254993787
30
0
0
SPLINE
5
287
100
AcDbEntity
8
1
62
256
6
ByLayer
370
18
48
1
60
0
100
AcDbSpline
70
4
71
3
72
10
73
6
40
0
40
0
40
0
40
0
40
0.430575240229148
40
0.430575240229148
40
1
40
1
40
1
40
1
41
1
10
7.05000000000001
20
13.7392340767633
30
0
41
1
10
7.02117610654602
20
13.7163455609895
30
0
41
1
10
6.99836226535029
20
13.691062454534
30
0
41
1
10
6.96046871566398
20
13.6300300238962
30
0
41
1
10
6.94970000000001
20
13.5927021486636
30
0
41
1
10
6.94970000000001
20
13.555441711726
30
0
0
SPLINE
5
288
100
AcDbEntity
8
1
62
256
6
ByLayer
370
18
48
1
60
0
100
AcDbSpline
70
4
71
3
72
8
73
4
40
0
40
0
40
0
40
0
40
1
40
1
40
1
40
1
41
1
10
0
20
15.2831691478176
30
0
41
1
10
0.131203544366883
20
15.4203036908594
30
0
41
1
10
0.26271729608095
20
15.5570434194058
30
0
41
1
10
0.394519052838348
20
15.6934109577794
30
0
0
SPLINE
5
289
100
AcDbEntity
8
1
62
256
6
ByLayer
370
18
48
1
60
0
100
AcDbSpline
70
4
71
3
72
8
73
4
40
0
40
0
40
0
40
0
40
1
40
1
40
1
40
1
41
1
10
0.394519052838348
20
-14.1250294040765
30
0
41
1
10
0.261970125944401
20
-13.9401542765635
30
0
41
1
10
0.130432506420675
20
-13.7543051691889
30
0
41
1
10
0
20
-13.5674337735919
30
0
0
SPLINE
5
28A
100
AcDbEntity
8
1
62
256
6
ByLayer
370
18
48
1
60
0
100
AcDbSpline
70
4
71
3
72
22
73
18
40
0
40
0
40
0
40
0
40
0.130929604938372
40
0.130929604938372
40
0.248729715319068
40
0.248729715319068
40
0.348313611888293
40
0.348313611888293
40
0.448213686997928
40
0.448213686997928
40
0.544052341101989
40
0.544052341101989
40
0.682881840050245
40
0.682881840050245
40
0.880643516034922
40
0.880643516034922
40
1
40
1
40
1
40
1
41
1
10
0.394519052838348
20
-15.3005936602976
30
0
41
1
10
0.406793368920546
20
-15.3115350060354
30
0
41
1
10
0.418848721279005
20
-15.321794497331
30
0
41
1
10
0.439843225373522
20
-15.3383849628528
30
0
41
1
10
0.449166624560121
20
-15.3451432028426
30
0
41
1
10
0.463378099503586
20
-15.3538571213953
30
0
41
1
10
0.468854877427475
20
-15.3564546548133
30
0
41
1
10
0.476517832707884
20
-15.3580215421777
30
0
41
1
10
0.478783056280235
20
-15.3569888830282
30
0
41
1
10
0.479917810672987
20
-15.351742007887
30
0
41
1
10
0.478958289488332
20
-15.3476217257855
30
0
41
1
10
0.473685016390505
20
-15.3350152240167
30
0
41
1
10
0.468031511452182
20
-15.3252403229432
30
0
41
1
10
0.450833383492864
20
-15.2990950101823
30
0
41
1
10
0.43755646167051
20
-15.2812401979297
30
0
41
1
10
0.4139839491163
20
-15.2515605043491
30
0
41
1
10
0.404449543122325
20
-15.2399745033653
30
0
41
1
10
0.394519052838348
20
-15.2282566821645
30
0
0
SPLINE
5
28B
100
AcDbEntity
8
1
62
256
6
ByLayer
370
18
48
1
60
0
100
AcDbSpline
70
4
71
3
72
8
73
4
40
0
40
0
40
0
40
0
40
1
40
1
40
1
40
1
41
1
10
0
20
-15.0980216982492
30
0
41
1
10
0.131089853996229
20
-15.2442369780298
30
0
41
1
10
0.262606766088936
20
-15.3899432504731
30
0
41
1
10
0.394519052838348
20
-15.5351689573631
30
0
0
SPLINE
5
28C
100
AcDbEntity
8
1
62
256
6
ByLayer
370
18
48
1
60
0
100
AcDbSpline
70
4
71
3
72
22
73
18
40
0
40
0
40
0
40
0
40
0.310969711152366
40
0.310969711152366
40
0.473308837917371
40
0.473308837917371
40
0.60431761119424
40
0.60431761119424
40
0.694166348377252
40
0.694166348377252
40
0.785120849567651
40
0.785120849567651
40
0.862961976256698
40
0.862961976256698
40
0.962756378971622
40
0.962756378971622
40
1
40
1
40
1
40
1
41
1
10
0.394519052838348
20
-13.2881444419488
30
0
41
1
10
0.418595248390716
20
-13.3254091930565
30
0
41
1
10
0.439916949748863
20
-13.3631641119501
30
0
41
1
10
0.463904625759597
20
-13.416504409402
30
0
41
1
10
0.470732464910554
20
-13.4344206075694
30
0
41
1
10
0.478407602326456
20
-13.4634985188068
30
0
41
1
10
0.480201011905876
20
-13.4755506065015
30
0
41
1
10
0.47864352391656
20
-13.4915904019846
30
0
41
1
10
0.476672093123454
20
-13.4970178957177
30
0
41
1
10
0.469483003597134
20
-13.504036740362
30
0
41
1
10
0.464071411349209
20
-13.5056254328389
30
0
41
1
10
0.451483729723748
20
-13.5043043104865
30
0
41
1
10
0.444532750292581
20
-13.502009852261
30
0
41
1
10
0.427601446935796
20
-13.4938313242566
30
0
41
1
10
0.417078192315103
20
-13.4870459229691
30
0
41
1
10
0.402543734423148
20
-13.4761595635071
30
0
41
1
10
0.39853339470568
20
-13.473004116897
30
0
41
1
10
0.394519052838348
20
-13.4697136281856
30
0
0
SPLINE
5
28D
100
AcDbEntity
8
1
62
256
6
ByLayer
370
18
48
1
60
0
100
AcDbSpline
70
4
71
1
72
4
73
2
40
0
40
0
40
1
40
1
41
1
10
10.5015585560536
20
-15.8561514396711
30
0
41
1
10
10.5015568856244
20
-15.8561651257432
30
0
0
SPLINE
5
28E
100
AcDbEntity
8
1
62
256
6
ByLayer
370
18
48
1
60
0
100
AcDbSpline
70
4
71
3
72
8
73
4
40
0
40
0
40
0
40
0
40
1
40
1
40
1
40
1
41
1
10
0
20
7.91045252819325
30
0
41
1
10
0.124921427303036
20
8.27212345231914
30
0
41
1
10
0.256672355506737
20
8.63073193364531
30
0
41
1
10
0.394519052838348
20
8.98608723763041
30
0
0
SPLINE
5
28F
100
AcDbEntity
8
1
62
256
6
ByLayer
370
18
48
1
60
0
100
AcDbSpline
70
4
71
3
72
8
73
4
40
0
40
0
40
0
40
0
40
1
40
1
40
1
40
1
41
1
10
0.394519052838348
20
-9.3945837636968
30
0
41
1
10
0.262842699722114
20
-9.27624749018221
30
0
41
1
10
0.131329741485217
20
-9.15766830306723
30
0
41
1
10
0
20
-9.03881956899238
30
0
0
SPLINE
5
290
100
AcDbEntity
8
1
62
256
6
ByLayer
370
18
48
1
60
0
100
AcDbSpline
70
4
71
3
72
22
73
18
40
0
40
0
40
0
40
0
40
0.276909142394787
40
0.276909142394787
40
0.440382550516488
40
0.440382550516488
40
0.567354492135134
40
0.567354492135134
40
0.662274759990467
40
0.662274759990467
40
0.758056376283697
40
0.758056376283697
40
0.842836859349834
40
0.842836859349834
40
0.956262363181079
40
0.956262363181079
40
1
40
1
40
1
40
1
41
1
10
0.394519052838348
20
14.1250294040765
30
0
41
1
10
0.416414395757158
20
14.155568348517
30
0
41
1
10
0.43622644786376
20
14.1862775794713
30
0
41
1
10
0.460667161555591
20
14.2312890841829
30
0
41
1
10
0.468340507500841
20
14.2474987744616
30
0
41
1
10
0.477271975603969
20
14.272779400922
30
0
41
1
10
0.479628030746994
20
14.2828440808009
30
0
41
1
10
0.479430576967104
20
14.2963679928293
30
0
41
1
10
0.47792198079361
20
14.3009409800678
30
0
41
1
10
0.47156087628548
20
14.3062465590508
30
0
41
1
10
0.466553336018876
20
14.3069781091816
30
0
41
1
10
0.454514314312576
20
14.3044364554009
30
0
41
1
10
0.447652323264833
20
14.3016038614337
30
0
41
1
10
0.430323272641829
20
14.2921757537758
30
0
41
1
10
0.419171078918339
20
14.2845358397099
30
0
41
1
10
0.403456741586467
20
14.272379096544
30
0
41
1
10
0.398997588430859
20
14.2687833191026
30
0
41
1
10
0.394519052838348
20
14.2650451197814
30
0
0
SPLINE
5
291
100
AcDbEntity
8
1
62
256
6
ByLayer
370
18
48
1
60
0
100
AcDbSpline
70
4
71
3
72
8
73
4
40
0
40
0
40
0
40
0
40
1
40
1
40
1
40
1
41
1
10
0
20
14.9482527139731
30
0
41
1
10
0.131411126798582
20
15.0658417230821
30
0
41
1
10
0.262919648687387
20
15.1832857329098
30
0
41
1
10
0.394519052838348
20
15.3005936602976
30
0
0
SPLINE
5
292
100
AcDbEntity
8
1
62
256
6
ByLayer
370
18
48
1
60
0
100
AcDbSpline
70
4
71
3
72
22
73
18
40
0
40
0
40
0
40
0
40
0.248964764580955
40
0.248964764580955
40
0.408890800229054
40
0.408890800229054
40
0.53314392385292
40
0.53314392385292
40
0.631271758794301
40
0.631271758794301
40
0.730008428132049
40
0.730008428132049
40
0.820670879799678
40
0.820670879799678
40
0.946179620776664
40
0.946179620776664
40
1
40
1
40
1
40
1
41
1
10
0.394519052838348
20
-14.7634050483605
30
0
41
1
10
0.414611394613417
20
-14.7890388237803
30
0
41
1
10
0.433113932782305
20
-14.8145985476361
30
0
41
1
10
0.457561375727096
20
-14.852949656603
30
0
41
1
10
0.465799866025691
20
-14.8673448873206
30
0
41
1
10
0.475884658216103
20
-14.889312142163
30
0
41
1
10
0.478805357556155
20
-14.8978683729082
30
0
41
1
10
0.479876152439147
20
-14.9092301705427
30
0
41
1
10
0.478872411685245
20
-14.9129435898108
30
0
41
1
10
0.473484603712961
20
-14.9166082717525
30
0
41
1
10
0.468984049722621
20
-14.9165603016176
30
0
41
1
10
0.45771354910238
20
-14.9128793336462
30
0
41
1
10
0.451043843850243
20
-14.9095190450698
30
0
41
1
10
0.433632269722295
20
-14.8988299595806
30
0
41
1
10
0.422056847587442
20
-14.8903504182623
30
0
41
1
10
0.40503857710064
20
-14.8766519998214
30
0
41
1
10
0.399800050797296
20
-14.8722818603748
30
0
41
1
10
0.394519052838348
20
-14.8677449303339
30
0
0
SPLINE
5
293
100
AcDbEntity
8
1
62
256
6
ByLayer
370
18
48
1
60
0
100
AcDbSpline
70
4
71
3
72
22
73
18
40
0
40
0
40
0
40
0
40
0.178865420830933
40
0.178865420830933
40
0.333949246577746
40
0.333949246577746
40
0.45545974926149
40
0.45545974926149
40
0.557751867003168
40
0.557751867003168
40
0.660328023791878
40
0.660328023791878
40
0.759368034952323
40
0.759368034952323
40
0.901760134467035
40
0.901760134467035
40
1
40
1
40
1
40
1
41
1
10
0.394519052838348
20
-15.5351689573631
30
0
41
1
10
0.40962217188752
20
-15.5517963784641
30
0
41
1
10
0.423976490534642
20
-15.5680664334073
30
0
41
1
10
0.447506711003427
20
-15.5958789249168
30
0
41
1
10
0.457321480174869
20
-15.6080119785309
30
0
41
1
10
0.470659286623004
20
-15.6259402435335
30
0
41
1
10
0.475180186271814
20
-15.6326833441272
30
0
41
1
10
0.479568300463996
20
-15.6412894405063
30
0
41
1
10
0.480073927118554
20
-15.643816982923
30
0
41
1
10
0.47761259866769
20
-15.6452657720479
30
0
41
1
10
0.474596103860392
20
-15.6441872183401
30
0
41
1
10
0.465829945580822
20
-15.6388831006993
30
0
41
1
10
0.460097103278656
20
-15.6347288131818
30
0
41
1
10
0.444099019674468
20
-15.6221015295219
30
0
41
1
10
0.432720119253815
20
-15.6123721788131
30
0
41
1
10
0.412307213507745
20
-15.5941697949703
30
0
41
1
10
0.403505560016015
20
-15.5861240208231
30
0
41
1
10
0.394519052838348
20
-15.5777563661013
30
0
0
SPLINE
5
294
100
AcDbEntity
8
1
62
256
6
ByLayer
370
18
48
1
60
0
100
AcDbSpline
70
4
71
3
72
8
73
4
40
0
40
0
40
0
40
0
40
1
40
1
40
1
40
1
41
1
10
-2.6148E-12
20
-6.50578659354585
30
0
41
1
10
0.130544772381199
20
-6.65254460084762
30
0
41
1
10
0.262105760743339
20
-6.79810434099258
30
0
41
1
10
0.394519052838348
20
-6.94261312828567
30
0
0
SPLINE
5
295
100
AcDbEntity
8
1
62
256
6
ByLayer
370
18
48
1
60
0
100
AcDbSpline
70
4
71
3
72
8
73
4
40
0
40
0
40
0
40
0
40
1
40
1
40
1
40
1
41
1
10
0.394519052838348
20
13.2881444419488
30
0
41
1
10
0.261539119589486
20
13.0823202242462
30
0
41
1
10
0.129986023832657
20
12.8752548682079
30
0
41
1
10
0
20
12.6668961944433
30
0
0
SPLINE
5
296
100
AcDbEntity
8
1
62
256
6
ByLayer
370
18
48
1
60
0
100
AcDbSpline
70
4
71
3
72
8
73
4
40
0
40
0
40
0
40
0
40
1
40
1
40
1
40
1
41
1
10
-1.705E-13
20
12.1223042034428
30
0
41
1
10
0.131504739548063
20
12.22982968561
30
0
41
1
10
0.26301113226134
20
12.3373524720372
30
0
41
1
10
0.394519052838348
20
12.4448727667766
30
0
0
SPLINE
5
297
100
AcDbEntity
8
1
62
256
6
ByLayer
370
18
48
1
60
0
100
AcDbSpline
70
4
71
3
72
8
73
4
40
0
40
0
40
0
40
0
40
1
40
1
40
1
40
1
41
1
10
0
20
14.75890440381
30
0
41
1
10
0.130938109510964
20
14.9159893571169
30
0
41
1
10
0.262459483945349
20
15.0724284831646
30
0
41
1
10
0.394519052838348
20
15.2282566821645
30
0
0
SPLINE
5
298
100
AcDbEntity
8
1
62
256
6
ByLayer
370
18
48
1
60
0
100
AcDbSpline
70
4
71
3
72
22
73
18
40
0
40
0
40
0
40
0
40
0.224921902912258
40
0.224921902912258
40
0.379224023270251
40
0.379224023270251
40
0.500686752629038
40
0.500686752629038
40
0.600781484334486
40
0.600781484334486
40
0.701251398706164
40
0.701251398706164
40
0.79684045933255
40
0.79684045933255
40
0.933327692003343
40
0.933327692003343
40
1
40
1
40
1
40
1
41
1
10
0.394519052838348
20
15.2282566821645
30
0
41
1
10
0.413049854562928
20
15.2501227346057
30
0
41
1
10
0.430366655825765
20
15.2717246076153
30
0
41
1
10
0.45455982101447
20
15.3046645143339
30
0
41
1
10
0.463187332927987
20
15.317366442302
30
0
41
1
10
0.474279263032486
20
15.3364174637632
30
0
41
1
10
0.477735702946745
20
15.3436974114459
30
0
41
1
10
0.480019222992155
20
15.3531083238412
30
0
41
1
10
0.479543519526885
20
15.3559853064192
30
0
41
1
10
0.475203783251743
20
15.3580837023413
30
0
41
1
10
0.471258387751789
20
15.3573057801613
30
0
41
1
10
0.460894444364897
20
15.3524931146553
30
0
41
1
10
0.454504129265899
20
15.3485857842537
30
0
41
1
10
0.437262505171987
20
15.3365486918662
30
0
41
1
10
0.425420019395574
20
15.3271784682404
30
0
41
1
10
0.407056749567005
20
15.3116419189068
30
0
41
1
10
0.400827413845434
20
15.3062169437747
30
0
41
1
10
0.394519052838348
20
15.3005936602976
30
0
0
SPLINE
5
299
100
AcDbEntity
8
1
62
256
6
ByLayer
370
18
48
1
60
0
100
AcDbSpline
70
4
71
3
72
22
73
18
40
0
40
0
40
0
40
0
40
0.081545201107717
40
0.081545201107717
40
0.170281602882841
40
0.170281602882841
40
0.259980827002748
40
0.259980827002748
40
0.336889904715762
40
0.336889904715762
40
0.441496715650517
40
0.441496715650517
40
0.5987705287924
40
0.5987705287924
40
0.854300043132189
40
0.854300043132189
40
1
40
1
40
1
40
1
41
1
10
0.394519052838348
20
13.4697136281857
30
0
41
1
10
0.403235644018764
20
13.4768584718061
30
0
41
1
10
0.411979100226745
20
13.4834006550078
30
0
41
1
10
0.429499903103533
20
13.494778796738
30
0
41
1
10
0.438397591007003
20
13.4995052917573
30
0
41
1
10
0.454065109753969
20
13.505018260616
30
0
41
1
10
0.461011977473049
20
13.5057903728862
30
0
41
1
10
0.470713763120102
20
13.503157300661
30
0
41
1
10
0.474057352166767
20
13.5003232796335
30
0
41
1
10
0.479120601897875
20
13.4908650832901
30
0
41
1
10
0.479962509780592
20
13.4831512480654
30
0
41
1
10
0.478322859656146
20
13.4611529991753
30
0
41
1
10
0.474049515212528
20
13.4451775774146
30
0
41
1
10
0.458196784053712
20
13.4012599266359
30
0
41
1
10
0.443484661740229
20
13.3711243209314
30
0
41
1
10
0.416624551310974
20
13.3234440094295
30
0
41
1
10
0.405917416100408
20
13.3057866466349
30
0
41
1
10
0.394519052838348
20
13.2881444419488
30
0
0
SPLINE
5
29A
100
AcDbEntity
8
1
62
256
6
ByLayer
370
18
48
1
60
0
100
AcDbSpline
70
4
71
3
72
22
73
18
40
0
40
0
40
0
40
0
40
0.323166030947059
40
0.323166030947059
40
0.490150774945796
40
0.490150774945796
40
0.660194023414524
40
0.660194023414524
40
0.73741472936069
40
0.73741472936069
40
0.815634590800508
40
0.815634590800508
40
0.88425519044865
40
0.88425519044865
40
0.96951248692841
40
0.96951248692841
40
1
40
1
40
1
40
1
41
1
10
0.394519052838348
20
12.2120067865264
30
0
41
1
10
0.419016365120228
20
12.2550018390112
30
0
41
1
10
0.440339946963547
20
12.2986566213401
30
0
41
1
10
0.464158673547104
20
12.3613470936056
30
0
41
1
10
0.470864957710944
20
12.38243853815
30
0
41
1
10
0.479296201505804
20
12.4216581663601
30
0
41
1
10
0.481103050928653
20
12.4404236877328
30
0
41
1
10
0.476412819960103
20
12.4607566951537
30
0
41
1
10
0.473798211298799
20
12.466205055699
30
0
41
1
10
0.465833001291912
20
12.4736628887282
30
0
41
1
10
0.460290854562743
20
12.4756740576236
30
0
41
1
10
0.447731262384082
20
12.4753248760065
30
0
41
1
10
0.440831653903047
20
12.4734742956647
30
0
41
1
10
0.424559140669828
20
12.4663274400331
30
0
41
1
10
0.414761422617914
20
12.4602534400551
30
0
41
1
10
0.401546171378868
20
12.4504889726409
30
0
41
1
10
0.398028322029518
20
12.44774192976
30
0
41
1
10
0.394519052838348
20
12.4448727667766
30
0
0
SPLINE
5
29B
100
AcDbEntity
8
1
62
256
6
ByLayer
370
18
48
1
60
0
100
AcDbSpline
70
4
71
3
72
8
73
4
40
0
40
0
40
0
40
0
40
1
40
1
40
1
40
1
41
1
10
0.394519052838348
20
-12.4448727667766
30
0
41
1
10
0.26301113226134
20
-12.3373524720372
30
0
41
1
10
0.131504739548063
20
-12.22982968561
30
0
41
1
10
-1.705E-13
20
-12.1223042034428
30
0
0
SPLINE
5
29C
100
AcDbEntity
8
1
62
256
6
ByLayer
370
18
48
1
60
0
100
AcDbSpline
70
4
71
3
72
8
73
4
40
0
40
0
40
0
40
0
40
1
40
1
40
1
40
1
41
1
10
0.394519052838348
20
-15.7074765779128
30
0
41
1
10
0.262802036987978
20
-15.5785809156017
30
0
41
1
10
0.13129057331804
20
-15.4494045883561
30
0
41
1
10
0
20
-15.3199301304152
30
0
0
SPLINE
5
29D
100
AcDbEntity
8
1
62
256
6
ByLayer
370
18
48
1
60
0
100
AcDbSpline
70
4
71
3
72
16
73
12
40
0
40
0
40
0
40
0
40
0.119174871501502
40
0.119174871501502
40
0.358799563083101
40
0.358799563083101
40
0.598246163793542
40
0.598246163793542
40
0.837550690272349
40
0.837550690272349
40
1
40
1
40
1
40
1
41
1
10
7.36545353809584
20
-12.2723453640203
30
0
41
1
10
7.33796379697105
20
-12.2721059537087
30
0
41
1
10
7.31077498688364
20
-12.2717418363239
30
0
41
1
10
7.23173056194702
20
-12.270202269728
30
0
41
1
10
7.18146889768593
20
-12.2685522429001
30
0
41
1
10
7.09424399663754
20
-12.2634187505554
30
0
41
1
10
7.05607159704027
20
-12.2598416718126
30
0
41
1
10
6.9968527245403
20
-12.2502593465617
30
0
41
1
10
6.97498509559318
20
-12.2441032345377
30
0
41
1
10
6.95401444874534
20
-12.2316994412862
30
0
41
1
10
6.94970000000001
20
-12.2260283765113
30
0
41
1
10
6.94970000000001
20
-12.2199048957476
30
0
0
SPLINE
5
29E
100
AcDbEntity
8
1
62
256
6
ByLayer
370
18
48
1
60
0
100
AcDbSpline
70
4
71
3
72
8
73
4
40
0
40
0
40
0
40
0
40
1
40
1
40
1
40
1
41
1
10
7.08582414757467
20
12.2621941018346
30
0
41
1
10
7.06202831348372
20
12.5425622608158
30
0
41
1
10
7.05000000000001
20
12.8253820079397
30
0
41
1
10
7.05000000000001
20
13.1078888351422
30
0
0
SPLINE
5
29F
100
AcDbEntity
8
1
62
256
6
ByLayer
370
18
48
1
60
0
100
AcDbSpline
70
4
71
3
72
12
73
8
40
0
40
0
40
0
40
0
40
0.261722636167971
40
0.261722636167971
40
0.523445272335938
40
0.523445272335938
40
1
40
1
40
1
40
1
41
1
10
11.4412098320074
20
-15.6554997155191
30
0
41
1
10
11.4051386008443
20
-15.6558021415745
30
0
41
1
10
11.3690673679839
20
-15.6561043652433
30
0
41
1
10
11.2969248988752
20
-15.6567084078512
30
0
41
1
10
11.2608536626259
20
-15.6570102267903
30
0
41
1
10
11.1591025155099
20
-15.6578610385834
30
0
41
1
10
11.0934226007215
20
-15.6584095629214
30
0
41
1
10
11.0277426803418
20
-15.6589574165308
30
0
0
SPLINE
5
2A0
100
AcDbEntity
8
1
62
256
6
ByLayer
370
18
48
1
60
0
100
AcDbSpline
70
4
71
3
72
8
73
4
40
0
40
0
40
0
40
0
40
1
40
1
40
1
40
1
41
1
10
0
20
-15.2093806317287
30
0
41
1
10
0.131358203475656
20
-15.332383790812
30
0
41
1
10
0.262867981903014
20
-15.4551713969287
30
0
41
1
10
0.394519052838348
20
-15.5777563661013
30
0
0
SPLINE
5
2A1
100
AcDbEntity
8
1
62
256
6
ByLayer
370
18
48
1
60
0
100
AcDbSpline
70
4
71
3
72
22
73
18
40
0
40
0
40
0
40
0
40
0.114356594473401
40
0.114356594473401
40
0.223363944017551
40
0.223363944017551
40
0.333701065743427
40
0.333701065743427
40
0.426946025085806
40
0.426946025085806
40
0.520583691500201
40
0.520583691500201
40
0.669161232743795
40
0.669161232743795
40
0.888367204225627
40
0.888367204225627
40
1
40
1
40
1
40
1
41
1
10
0.394519052838348
20
14.8677449303339
30
0
41
1
10
0.405634762658906
20
14.8772944886188
30
0
41
1
10
0.416633293199254
20
14.8861626206396
30
0
41
1
10
0.436639112217449
20
14.9007499391686
30
0
41
1
10
0.445906990564538
20
14.9067157307308
30
0
41
1
10
0.461585996100439
20
14.9146172158458
30
0
41
1
10
0.46816084734769
20
14.9165666715141
30
0
41
1
10
0.476233243196134
20
14.9156083649733
30
0
41
1
10
0.478468284215865
20
14.9134039833355
30
0
41
1
10
0.479970922522341
20
14.9061503798356
30
0
41
1
10
0.479269616491706
20
14.901034343567
30
0
41
1
10
0.47457492980044
20
14.8854964232455
30
0
41
1
10
0.468884561033235
20
14.8735071097984
30
0
41
1
10
0.450944781810733
20
14.8415689446733
30
0
41
1
10
0.436590353825807
20
14.8199507092781
30
0
41
1
10
0.412369708474216
20
14.7865825285839
30
0
41
1
10
0.403630431341014
20
14.7750293295378
30
0
41
1
10
0.394519052838348
20
14.7634050483605
30
0
0
SPLINE
5
2A2
100
AcDbEntity
8
1
62
256
6
ByLayer
370
18
48
1
60
0
100
AcDbSpline
70
4
71
3
72
14
73
10
40
0
40
0
40
0
40
0
40
0.3319182378701
40
0.3319182378701
40
0.625900632485152
40
0.625900632485152
40
0.838234922573856
40
0.838234922573856
40
1
40
1
40
1
40
1
41
1
10
6.94970000000001
20
-13.555441711726
30
0
41
1
10
6.94970000000001
20
-13.6005079864842
30
0
41
1
10
6.96559469784256
20
-13.6458381991637
30
0
41
1
10
7.02533552327264
20
-13.7227304336494
30
0
41
1
10
7.06696786757436
20
-13.7565349532164
30
0
41
1
10
7.15789191985931
20
-13.8036418495499
30
0
41
1
10
7.20301826482779
20
-13.8205443355806
30
0
41
1
10
7.28924426866939
20
-13.8421224233477
30
0
41
1
10
7.32942371371246
20
-13.8489438647148
30
0
41
1
10
7.370345860589
20
-13.8527457205617
30
0
0
SPLINE
5
2A3
100
AcDbEntity
8
1
62
256
6
ByLayer
370
18
48
1
60
0
100
AcDbSpline
70
4
71
3
72
26
73
22
40
0
40
0
40
0
40
0
40
0.0312500000000004
40
0.0312500000000004
40
0.0625000000000008
40
0.0625000000000008
40
0.125000000000001
40
0.125000000000001
40
0.250000000000001
40
0.250000000000001
40
0.500000000000001
40
0.500000000000001
40
0.75
40
0.75
40
0.875
40
0.875
40
0.9375
40
0.9375
40
0.96875
40
0.96875
40
1
40
1
40
1
40
1
41
1
10
0.394519052838348
20
-1.90828457127696
30
0
41
1
10
0.406316341616559
20
-1.94977152187133
30
0
41
1
10
0.439288615370174
20
-1.98353982450666
30
0
41
1
10
0.46058372165794
20
-1.90508003636987
30
0
41
1
10
0.46395057662005
20
-1.86179394745693
30
0
41
1
10
0.473924481895836
20
-1.73420399917205
30
0
41
1
10
0.476133574398489
20
-1.64783063456886
30
0
41
1
10
0.480667430112135
20
-1.3887797490089
30
0
41
1
10
0.479633898649524
20
-1.21558735452311
30
0
41
1
10
0.47622315069998
20
-0.695376262887805
30
0
41
1
10
0.472803322952416
20
-0.347559953224817
30
0
41
1
10
0.472797818848164
20
0.346444741952695
30
0
41
1
10
0.47619504039551
20
0.693102696093462
30
0
41
1
10
0.479618431528138
20
1.21223441031083
30
0
41
1
10
0.480660099427212
20
1.38514482308005
30
0
41
1
10
0.476234680507389
20
1.64401500520515
30
0
41
1
10
0.47409924788144
20
1.73023953360274
30
0
41
1
10
0.464218095152489
20
1.85919062952576
30
0
41
1
10
0.460909294374062
20
1.90302375821636
30
0
41
1
10
0.439540583365442
20
1.98344541797334
30
0
41
1
10
0.406471337296296
20
1.9503165879479
30
0
41
1
10
0.394519052778037
20
1.90828457132264
30
0
0
SPLINE
5
2A4
100
AcDbEntity
8
1
62
256
6
ByLayer
370
18
48
1
60
0
100
AcDbSpline
70
4
71
3
72
22
73
18
40
0
40
0
40
0
40
0
40
0.147855073536637
40
0.147855073536637
40
0.273752380496068
40
0.273752380496068
40
0.378899665305812
40
0.378899665305812
40
0.484569103486394
40
0.484569103486394
40
0.583012017640476
40
0.583012017640476
40
0.718511324611293
40
0.718511324611293
40
0.907123380423616
40
0.907123380423616
40
1
40
1
40
1
40
1
41
1
10
0.394519052838348
20
15.5777563661013
30
0
41
1
10
0.407952364624862
20
15.5902645978957
30
0
41
1
10
0.421041413484431
20
15.6021164353603
30
0
41
1
10
0.442890870071722
20
15.6210235767755
30
0
41
1
10
0.452198653185064
20
15.6286866726289
30
0
41
1
10
0.466007984326382
20
15.6390119673888
30
0
41
1
10
0.471165803862618
20
15.6423663521758
30
0
41
1
10
0.477961106947021
20
15.6453443845498
30
0
41
1
10
0.479654139667446
20
15.6449700042398
30
0
41
1
10
0.479375571697517
20
15.6407603948326
30
0
41
1
10
0.477664508142084
20
15.637135054499
30
0
41
1
10
0.470690265090013
20
15.6258766507299
30
0
41
1
10
0.464270540325515
20
15.6171128057996
30
0
41
1
10
0.445761416977177
20
15.5936293345729
30
0
41
1
10
0.432159571644263
20
15.5775393065386
30
0
41
1
10
0.4100960589181
20
15.5524457584387
30
0
41
1
10
0.402422495591566
20
15.5438700654174
30
0
41
1
10
0.394519052838348
20
15.5351689573631
30
0
0
SPLINE
5
2A5
100
AcDbEntity
8
1
62
256
6
ByLayer
370
18
48
1
60
0
100
AcDbSpline
70
4
71
3
72
14
73
10
40
0
40
0
40
0
40
0
40
0.228312646032832
40
0.228312646032832
40
0.485541764021888
40
0.485541764021888
40
0.742770882010944
40
0.742770882010944
40
1
40
1
40
1
40
1
41
1
10
7.08400851640323
20
12.2774535251924
30
0
41
1
10
7.08144329402364
20
12.2791594303314
30
0
41
1
10
7.09866391318133
20
11.9797278226887
30
0
41
1
10
7.29376468153487
20
10.8277553962076
30
0
41
1
10
7.52342293237615
20
9.89934116808536
30
0
41
1
10
8.37234615010192
20
8.03356401123685
30
0
41
1
10
8.98649829819578
20
7.10602228874311
30
0
41
1
10
10.3658304658284
20
5.60027007988862
30
0
41
1
10
11.1446372027997
20
4.98507203818985
30
0
41
1
10
11.9386709330967
20
4.51287195500583
30
0
0
SPLINE
5
2A6
100
AcDbEntity
8
1
62
256
6
ByLayer
370
18
48
1
60
0
100
AcDbSpline
70
4
71
3
72
16
73
12
40
0
40
0
40
0
40
0
40
0.24092266384508
40
0.24092266384508
40
0.563609994070207
40
0.563609994070207
40
0.796639910305246
40
0.796639910305246
40
0.941842125580493
40
0.941842125580493
40
1
40
1
40
1
40
1
41
1
10
13.6100558676877
20
3.71817188698182
30
0
41
1
10
13.4390082348578
20
3.78083557579669
30
0
41
1
10
13.2702150781376
20
3.84810170561988
30
0
41
1
10
12.8948537903909
20
4.00901564470294
30
0
41
1
10
12.6902899287794
20
4.10593733041318
30
0
41
1
10
12.3747438747084
20
4.26684180822005
30
0
41
1
10
12.2508513452616
20
4.3339283546932
30
0
41
1
10
12.0820936616926
20
4.42886554601554
30
0
41
1
10
12.0240923627542
20
4.46250382848075
30
0
41
1
10
11.9645364848057
20
4.4975199251312
30
0
41
1
10
11.9499243398031
20
4.50617972093551
30
0
41
1
10
11.9386709330967
20
4.51287195500583
30
0
0
SPLINE
5
2A7
100
AcDbEntity
8
1
62
256
6
ByLayer
370
18
48
1
60
0
100
AcDbSpline
70
4
71
3
72
8
73
4
40
0
40
0
40
0
40
0
40
1
40
1
40
1
40
1
41
1
10
7.19478299226057
20
-15.6130087884665
30
0
41
1
10
7.19413979616718
20
-15.6166605897931
30
0
41
1
10
7.19382282220084
20
-15.6202941773276
30
0
41
1
10
7.19383086442951
20
-15.6239060118345
30
0
0
SPLINE
5
2A8
100
AcDbEntity
8
1
62
256
6
ByLayer
370
18
48
1
60
0
100
AcDbSpline
70
4
71
3
72
16
73
12
40
0
40
0
40
0
40
0
40
0.0674618547504828
40
0.0674618547504828
40
0.33896655071622
40
0.33896655071622
40
0.60291211736686
40
0.60291211736686
40
0.858148979189244
40
0.858148979189244
40
1
40
1
40
1
40
1
41
1
10
7.22264252065116
20
-15.6803681557268
30
0
41
1
10
7.23013562087402
20
-15.6873500821723
30
0
41
1
10
7.23908026131971
20
-15.6941450678469
30
0
41
1
10
7.29122610363521
20
-15.7271546384555
30
0
41
1
10
7.35757037382672
20
-15.7507678785645
30
0
41
1
10
7.52708729736241
20
-15.7890582651687
30
0
41
1
10
7.63163937685124
20
-15.8045462993152
30
0
41
1
10
7.86133507801799
20
-15.8272957148213
30
0
41
1
10
7.98891050123194
20
-15.8351663688704
30
0
41
1
10
8.19395401178485
20
-15.8421136108259
30
0
41
1
10
8.26975925686543
20
-15.8435810995023
30
0
41
1
10
8.34551799665013
20
-15.8440163559111
30
0
0
SPLINE
5
2A9
100
AcDbEntity
8
1
62
256
6
ByLayer
370
18
48
1
60
0
100
AcDbSpline
70
4
71
3
72
22
73
18
40
0
40
0
40
0
40
0
40
0.0651035515480701
40
0.0651035515480701
40
0.142105684908165
40
0.142105684908165
40
0.219945552203454
40
0.219945552203454
40
0.286543875328415
40
0.286543875328415
40
0.381918160380104
40
0.381918160380104
40
0.532739405449496
40
0.532739405449496
40
0.796276857032062
40
0.796276857032062
40
1
40
1
40
1
40
1
41
1
10
0.394519052838348
20
-12.4448727667769
30
0
41
1
10
0.401944344270987
20
-12.4509436522404
30
0
41
1
10
0.409440734946258
20
-12.4564919575328
30
0
41
1
10
0.425378160313869
20
-12.4666249116985
30
0
41
1
10
0.43392259052996
20
-12.4709325723979
30
0
41
1
10
0.449296371479306
20
-12.4757017613629
30
0
41
1
10
0.456305203044337
20
-12.4761383401363
30
0
41
1
10
0.466541581742149
20
-12.4730924571455
30
0
41
1
10
0.47030699537163
20
-12.4701585006067
30
0
41
1
10
0.476928289719979
20
-12.4604258792709
30
0
41
1
10
0.478861897557351
20
-12.4524125459111
30
0
41
1
10
0.480180984124672
20
-12.4291145568058
30
0
41
1
10
0.477608092735466
20
-12.4119410811734
30
0
41
1
10
0.465630338912661
20
-12.3628250853249
30
0
41
1
10
0.452422039387784
20
-12.3282874191136
30
0
41
1
10
0.424243899491955
20
-12.2667374586906
30
0
41
1
10
0.410069038050267
20
-12.2392984511234
30
0
41
1
10
0.394519052838348
20
-12.2120067865264
30
0
0
SPLINE
5
2AA
100
AcDbEntity
8
1
62
256
6
ByLayer
370
18
48
1
60
0
100
AcDbSpline
70
4
71
3
72
8
73
4
40
0
40
0
40
0
40
0
40
1
40
1
40
1
40
1
41
1
10
0.394519052838348
20
14.8677449303339
30
0
41
1
10
0.262959813047758
20
14.7547217722481
30
0
41
1
10
0.131452231218077
20
14.6416183903692
30
0
41
1
10
0
20
14.5284293439038
30
0
0
SPLINE
5
2AB
100
AcDbEntity
8
1
62
256
6
ByLayer
370
18
48
1
60
0
100
AcDbSpline
70
4
71
3
72
10
73
6
40
0
40
0
40
0
40
0
40
0.0249011540548259
40
0.0249011540548259
40
1
40
1
40
1
40
1
41
1
10
11.9386709330967
20
4.51287195500583
30
0
41
1
10
11.9391411030497
20
4.5115275554771
30
0
41
1
10
11.9396136742703
20
4.5101844755267
30
0
41
1
10
11.9585578041565
20
4.45666882219371
30
0
41
1
10
11.9806831015339
20
4.40642863701226
30
0
41
1
10
12.0063892474967
20
4.35846333196693
30
0
0
SPLINE
5
2AC
100
AcDbEntity
8
1
62
256
6
ByLayer
370
18
48
1
60
0
100
AcDbSpline
70
4
71
3
72
8
73
4
40
0
40
0
40
0
40
0
40
1
40
1
40
1
40
1
41
1
10
0.394519052838348
20
-15.3005936602976
30
0
41
1
10
0.262919648687387
20
-15.1832857329098
30
0
41
1
10
0.131411126798582
20
-15.0658417230821
30
0
41
1
10
0
20
-14.9482527139731
30
0
0
SPLINE
5
2AD
100
AcDbEntity
8
1
62
256
6
ByLayer
370
18
48
1
60
0
100
AcDbSpline
70
4
71
3
72
12
73
8
40
0
40
0
40
0
40
0
40
0.447038180749487
40
0.447038180749487
40
0.894353801602664
40
0.894353801602664
40
1
40
1
40
1
40
1
41
1
10
6.94970000000001
20
12.2199048957476
30
0
41
1
10
6.94970000000001
20
12.2289515465417
30
0
41
1
10
6.95926336542095
20
12.2370204417344
30
0
41
1
10
6.99627421370951
20
12.2502041990837
30
0
41
1
10
7.02425383343916
20
12.2555131595945
30
0
41
1
10
7.06781347783647
20
12.2604803838007
30
0
41
1
10
7.0766244904803
20
12.2613692146927
30
0
41
1
10
7.08582414757467
20
12.2621941018346
30
0
0
SPLINE
5
2AE
100
AcDbEntity
8
1
62
256
6
ByLayer
370
18
48
1
60
0
100
AcDbSpline
70
4
71
3
72
22
73
18
40
0
40
0
40
0
40
0
40
0.183418461046022
40
0.183418461046022
40
0.311871091424421
40
0.311871091424421
40
0.420155996744461
40
0.420155996744461
40
0.529079619057273
40
0.529079619057273
40
0.628971589139351
40
0.628971589139351
40
0.762908710440548
40
0.762908710440548
40
0.947099361439477
40
0.947099361439477
40
1
40
1
40
1
40
1
41
1
10
0.394519052838348
20
-15.7074765779128
30
0
41
1
10
0.410681146807803
20
-15.7232924828897
30
0
41
1
10
0.426272472578603
20
-15.7384065388202
30
0
41
1
10
0.449159635726346
20
-15.760204395791
30
0
41
1
10
0.457724552601633
20
-15.76822679905
30
0
41
1
10
0.470018588672815
20
-15.7793614759515
30
0
41
1
10
0.474394902237123
20
-15.7831321259291
30
0
41
1
10
0.47944116693975
20
-15.7868835505796
30
0
41
1
10
0.480135194453681
20
-15.7868694046037
30
0
41
1
10
0.477818950607286
20
-15.7832076821115
30
0
41
1
10
0.475102931451261
20
-15.7798374601139
30
0
41
1
10
0.465947611566094
20
-15.7692381408175
30
0
41
1
10
0.458454068585866
20
-15.76096042164
30
0
41
1
10
0.437881902944412
20
-15.7387451076281
30
0
41
1
10
0.423443152580774
20
-15.7234957070015
30
0
41
1
10
0.403677815909077
20
-15.7029027227773
30
0
41
1
10
0.399134768876138
20
-15.6981865681308
30
0
41
1
10
0.394519052838348
20
-15.6934109577794
30
0
0
SPLINE
5
2AF
100
AcDbEntity
8
1
62
256
6
ByLayer
370
18
48
1
60
0
100
AcDbSpline
70
4
71
3
72
8
73
4
40
0
40
0
40
0
40
0
40
1
40
1
40
1
40
1
41
1
10
0.394519052838063
20
6.30936533150313
30
0
41
1
10
0.244211265331842
20
5.73686900991925
30
0
41
1
10
0.112166098433818
20
5.15960305852678
30
0
41
1
10
0
20
4.57714531130458
30
0
0
SPLINE
5
2B0
100
AcDbEntity
8
1
62
256
6
ByLayer
370
18
48
1
60
0
100
AcDbSpline
70
4
71
3
72
8
73
4
40
0
40
0
40
0
40
0
40
1
40
1
40
1
40
1
41
1
10
0.394519052838348
20
-12.2120067865264
30
0
41
1
10
0.26084223691646
20
-11.9773915907675
30
0
41
1
10
0.129262744342782
20
-11.7411619891241
30
0
41
1
10
0
20
-11.5032716737805
30
0
0
SPLINE
5
2B1
100
AcDbEntity
8
1
62
256
6
ByLayer
370
18
48
1
60
0
100
AcDbSpline
70
4
71
3
72
8
73
4
40
0
40
0
40
0
40
0
40
1
40
1
40
1
40
1
41
1
10
0.394519052838348
20
-1.90828457127696
30
0
41
1
10
0.04206037811025
20
-0.66881032427824
30
0
41
1
10
0.0418693110983668
20
0.668138408238946
30
0
41
1
10
0.394519052843464
20
1.90828457129504
30
0
0
SPLINE
5
2B2
100
AcDbEntity
8
1
62
256
6
ByLayer
370
18
48
1
60
0
100
AcDbSpline
70
4
71
3
72
22
73
18
40
0
40
0
40
0
40
0
40
0.525263853649316
40
0.525263853649316
40
0.66713249829058
40
0.66713249829058
40
0.766300559442613
40
0.766300559442613
40
0.821774126904874
40
0.821774126904874
40
0.8663661400369
40
0.8663661400369
40
0.91139341666927
40
0.91139341666927
40
0.950932705613866
40
0.950932705613866
40
1
40
1
40
1
40
1
41
1
10
0.394519052838461
20
8.98608723763041
30
0
41
1
10
0.431845193599941
20
9.08231037792805
30
0
41
1
10
0.46176857209656
20
9.1816228858726
30
0
41
1
10
0.477934228530671
20
9.29838016885833
30
0
41
1
10
0.480027807905799
20
9.32319000518748
30
0
41
1
10
0.478991203962096
20
9.36229400267257
30
0
41
1
10
0.477244867115644
20
9.37777235743744
30
0
41
1
10
0.470587966099174
20
9.39810014324084
30
0
41
1
10
0.467333059172972
20
9.40471387694569
30
0
41
1
10
0.459410209099985
20
9.41378339103079
30
0
41
1
10
0.455044667029995
20
9.41684447980629
30
0
41
1
10
0.444860836923795
20
9.41985166553599
30
0
41
1
10
0.438874202282136
20
9.4197686024194
30
0
41
1
10
0.42712885919434
20
9.41666484983995
30
0
41
1
10
0.421307204301911
20
9.41399984028379
30
0
41
1
10
0.408478350668247
20
9.40626966488506
30
0
41
1
10
0.401366245517124
20
9.40073726998253
30
0
41
1
10
0.394519052837154
20
9.39458376370257
30
0
0
SPLINE
5
2B3
100
AcDbEntity
8
1
62
256
6
ByLayer
370
18
48
1
60
0
100
AcDbSpline
70
4
71
3
72
8
73
4
40
0
40
0
40
0
40
0
40
1
40
1
40
1
40
1
41
1
10
0.394519052838348
20
15.5777563661013
30
0
41
1
10
0.262867981903014
20
15.4551713969287
30
0
41
1
10
0.131358203475656
20
15.332383790812
30
0
41
1
10
0
20
15.2093806317287
30
0
0
SPLINE
5
2B4
100
AcDbEntity
8
1
62
256
6
ByLayer
370
18
48
1
60
0
100
AcDbSpline
70
4
71
3
72
12
73
8
40
0
40
0
40
0
40
0
40
0.441260942561372
40
0.441260942561372
40
0.882917186850607
40
0.882917186850607
40
1
40
1
40
1
40
1
41
1
10
12.0063892474967
20
4.35846333196699
30
0
41
1
10
12.1625393960754
20
4.06710151054429
30
0
41
1
10
12.2819503034929
20
3.8157381099654
30
0
41
1
10
12.4505649782815
20
3.45164973502153
30
0
41
1
10
12.5026867177344
20
3.33400836897303
30
0
41
1
10
12.5285802437983
20
3.28348488607398
30
0
41
1
10
12.5318136500169
20
3.27816983669189
30
0
41
1
10
12.5327728063072
20
3.27818776935649
30
0
0
SPLINE
5
2B5
100
AcDbEntity
8
1
62
256
6
ByLayer
370
18
48
1
60
0
100
AcDbSpline
70
4
71
3
72
8
73
4
40
0
40
0
40
0
40
0
40
1
40
1
40
1
40
1
41
1
10
10.9992453246692
20
-15.9184140129249
30
0
41
1
10
10.9937773745501
20
-15.9677405622486
30
0
41
1
10
10.9858995481982
20
-15.9948906677675
30
0
41
1
10
10.9746364818955
20
-15.9999037259606
30
0
0
SPLINE
5
2B6
100
AcDbEntity
8
1
62
256
6
ByLayer
370
18
48
1
60
0
100
AcDbSpline
70
4
71
3
72
8
73
4
40
0
40
0
40
0
40
0
40
1
40
1
40
1
40
1
41
1
10
0
20
-10.7970023247566
30
0
41
1
10
0.131472522952208
20
-10.9071512992133
30
0
41
1
10
0.262979877184364
20
-11.0172448591573
30
0
41
1
10
0.394519052838348
20
-11.1272876810652
30
0
0
SPLINE
5
2B7
100
AcDbEntity
8
1
62
256
6
ByLayer
370
18
48
1
60
0
100
AcDbSpline
70
4
71
3
72
10
73
6
40
0
40
0
40
0
40
0
40
0.765480934283371
40
0.765480934283371
40
1
40
1
40
1
40
1
41
1
10
12.9707422188505
20
-3.27824516155874
30
0
41
1
10
12.9512655548576
20
-3.27838909819968
30
0
41
1
10
12.922515179385
20
-3.31200685854708
30
0
41
1
10
12.8720383867137
20
-3.39796389836289
30
0
41
1
10
12.8591457258547
20
-3.42131443747266
30
0
41
1
10
12.8452352893478
20
-3.44761750916078
30
0
0
SPLINE
5
2B8
100
AcDbEntity
8
1
62
256
6
ByLayer
370
18
48
1
60
0
100
AcDbSpline
70
4
71
3
72
22
73
18
40
0
40
0
40
0
40
0
40
0.403575478775622
40
0.403575478775622
40
0.609207050481859
40
0.609207050481859
40
0.697689368632875
40
0.697689368632875
40
0.787735212622767
40
0.787735212622767
40
0.843632298004038
40
0.843632298004038
40
0.89968781566057
40
0.89968781566057
40
0.966982237562598
40
0.966982237562598
40
1
40
1
40
1
40
1
41
1
10
0.394519052838348
20
-10.8254993787
30
0
41
1
10
0.424264971680884
20
-10.8867723991858
30
0
41
1
10
0.449133213846949
20
-10.9494598274969
30
0
41
1
10
0.472883178173561
20
-11.0383670380289
30
0
41
1
10
0.478682828757655
20
-11.0681647138105
30
0
41
1
10
0.479768315736123
20
-11.1057918704113
30
0
41
1
10
0.479113862417762
20
-11.1166031872923
30
0
41
1
10
0.474727838448075
20
-11.1354357784745
30
0
41
1
10
0.470834901873559
20
-11.1436487947892
30
0
41
1
10
0.460887433980815
20
-11.1518765801777
30
0
41
1
10
0.456083082982161
20
-11.1538414725005
30
0
41
1
10
0.445020334796766
20
-11.1546363606877
30
0
41
1
10
0.438621761757474
20
-11.153460034643
30
0
41
1
10
0.423967413275989
20
-11.1479417515631
30
0
41
1
10
0.415393703001541
20
-11.1429846219089
30
0
41
1
10
0.402812773399319
20
-11.133994896984
30
0
41
1
10
0.398646738121443
20
-11.1307408130639
30
0
41
1
10
0.394519052838348
20
-11.1272876810654
30
0
0
SPLINE
5
2B9
100
AcDbEntity
8
1
62
256
6
ByLayer
370
18
48
1
60
0
100
AcDbSpline
70
4
71
3
72
8
73
4
40
0
40
0
40
0
40
0
40
1
40
1
40
1
40
1
41
1
10
0.394519052838348
20
-8.98608723763041
30
0
41
1
10
0.256672355506737
20
-8.63073193364531
30
0
41
1
10
0.124921427303036
20
-8.27212345231914
30
0
41
1
10
0
20
-7.91045252819325
30
0
0
SPLINE
5
2BA
100
AcDbEntity
8
1
62
256
6
ByLayer
370
18
48
1
60
0
100
AcDbSpline
70
4
71
3
72
16
73
12
40
0
40
0
40
0
40
0
40
0.213857448013322
40
0.213857448013322
40
0.427724151475904
40
0.427724151475904
40
0.641431907597626
40
0.641431907597626
40
0.855012861479704
40
0.855012861479704
40
1
40
1
40
1
40
1
41
1
10
7.44970000000001
20
3.28364530859605
30
0
41
1
10
7.39382641360703
20
3.28364530859605
30
0
41
1
10
7.33718221718766
20
3.28409301003131
30
0
41
1
10
7.23173056194702
20
3.28614691637608
30
0
41
1
10
7.18146889768593
20
3.28779694320397
30
0
41
1
10
7.09424399663754
20
3.29293043554864
30
0
41
1
10
7.05607159704027
20
3.29650751429142
30
0
41
1
10
6.9968527245403
20
3.30608983954238
30
0
41
1
10
6.97498509559318
20
3.31224595156638
30
0
41
1
10
6.95401444874534
20
3.32464974481783
30
0
41
1
10
6.94970000000001
20
3.33032080959271
30
0
41
1
10
6.94970000000001
20
3.33644429035641
30
0
0
SPLINE
5
2BB
100
AcDbEntity
8
1
62
256
6
ByLayer
370
18
48
1
60
0
100
AcDbSpline
70
4
71
3
72
8
73
4
40
0
40
0
40
0
40
0
40
1
40
1
40
1
40
1
41
1
10
0.394519052838348
20
11.1272876810652
30
0
41
1
10
0.262979877184364
20
11.0172448591573
30
0
41
1
10
0.131472522952208
20
10.9071512992133
30
0
41
1
10
0
20
10.7970023247567
30
0
0
SPLINE
5
2BC
100
AcDbEntity
8
1
62
256
6
ByLayer
370
18
48
1
60
0
100
AcDbSpline
70
4
71
3
72
22
73
18
40
0
40
0
40
0
40
0
40
0.0358689851175304
40
0.0358689851175304
40
0.0600465896953162
40
0.0600465896953162
40
0.0844884499544436
40
0.0844884499544436
40
0.106607868922345
40
0.106607868922345
40
0.14134662670073
40
0.14134662670073
40
0.206597363697534
40
0.206597363697534
40
0.411463059366477
40
0.411463059366477
40
1
40
1
40
1
40
1
41
1
10
0.394519052841815
20
6.94261312828945
30
0
41
1
10
0.400608331126193
20
6.94925864103516
30
0
41
1
10
0.407116053132597
20
6.95534467468704
30
0
41
1
10
0.418413279214633
20
6.96308481822757
30
0
41
1
10
0.423173879627029
20
6.96555995595836
30
0
41
1
10
0.432466729339183
20
6.96831541968353
30
0
41
1
10
0.437108593316566
20
6.96857172297644
30
0
41
1
10
0.44503819338081
20
6.966779182289
30
0
41
1
10
0.448506702330974
20
6.96494857785683
30
0
41
1
10
0.456257302003109
20
6.95856231926211
30
0
41
1
10
0.460054122274073
20
6.95300958800564
30
0
41
1
10
0.468825242792889
20
6.9352162555715
30
0
41
1
10
0.4722794297532
20
6.92111038281328
30
0
41
1
10
0.482053966680723
20
6.86120537703223
30
0
41
1
10
0.480257316934399
20
6.80963987370103
30
0
41
1
10
0.465305220465893
20
6.61264780160246
30
0
41
1
10
0.433942973570367
20
6.4595242153232
30
0
41
1
10
0.394519052838518
20
6.30936533150307
30
0
0
SPLINE
5
2BD
100
AcDbEntity
8
1
62
256
6
ByLayer
370
18
48
1
60
0
100
AcDbSpline
70
4
71
3
72
8
73
4
40
0
40
0
40
0
40
0
40
1
40
1
40
1
40
1
41
1
10
0.394519052838348
20
-14.2650451197814
30
0
41
1
10
0.262989702442042
20
-14.1552585794663
30
0
41
1
10
0.131482808102248
20
-14.0454361577269
30
0
41
1
10
0
20
-13.9355753092867
30
0
0
SPLINE
5
2BE
100
AcDbEntity
8
1
62
256
6
ByLayer
370
18
48
1
60
0
100
AcDbSpline
70
4
71
3
72
8
73
4
40
0
40
0
40
0
40
0
40
1
40
1
40
1
40
1
41
1
10
0.394519052838348
20
15.5351689573631
30
0
41
1
10
0.262606766088936
20
15.3899432504731
30
0
41
1
10
0.131089853996229
20
15.2442369780298
30
0
41
1
10
0
20
15.0980216982492
30
0
0
SPLINE
5
2BF
100
AcDbEntity
8
1
62
256
6
ByLayer
370
18
48
1
60
0
100
AcDbSpline
70
4
71
3
72
30
73
26
40
0
40
0
40
0
40
0
40
0.0274525361186859
40
0.0274525361186859
40
0.118409011530628
40
0.118409011530628
40
0.218738321645217
40
0.218738321645217
40
0.334450175856466
40
0.334450175856466
40
0.399606734430092
40
0.399606734430092
40
0.465334651830171
40
0.465334651830171
40
0.546585253445708
40
0.546585253445708
40
0.694385366808357
40
0.694385366808357
40
0.857159231886553
40
0.857159231886553
40
0.923909687737368
40
0.923909687737368
40
0.99195996005729
40
0.99195996005729
40
1
40
1
40
1
40
1
41
1
10
11.8927212066817
20
-5.25544591000849
30
0
41
1
10
11.8948998562332
20
-5.25023254228057
30
0
41
1
10
11.8984873162715
20
-5.24463075920758
30
0
41
1
10
11.9196530436393
20
-5.21901655219312
30
0
41
1
10
11.9509976450253
20
-5.19517035157475
30
0
41
1
10
12.0394939349795
20
-5.13763193016757
30
0
41
1
10
12.0999302462949
20
-5.10259796877401
30
0
41
1
10
12.2448015009814
20
-5.01444315227445
30
0
41
1
10
12.3345397182213
20
-4.95821291412506
30
0
41
1
10
12.4684624315452
20
-4.84369318026501
30
0
41
1
10
12.516309017115
20
-4.79543542702913
30
0
41
1
10
12.5983815785847
20
-4.6862995076971
30
0
41
1
10
12.6330852947115
20
-4.62383097667527
30
0
41
1
10
12.6897917390851
20
-4.48059031867243
30
0
41
1
10
12.7085940454517
20
-4.39718983640958
30
0
41
1
10
12.7406676099314
20
-4.17041251324338
30
0
41
1
10
12.7400141760276
20
-4.02762395417273
30
0
41
1
10
12.7314069584612
20
-3.75482913892253
30
0
41
1
10
12.7210809363165
20
-3.62178320987638
30
0
41
1
10
12.7142917947854
20
-3.47731563550835
30
0
41
1
10
12.7132305516515
20
-3.43997692918524
30
0
41
1
10
12.7149052144047
20
-3.38175562150076
30
0
41
1
10
12.7177927733212
20
-3.36084608040144
30
0
41
1
10
12.7241413780242
20
-3.35143015346856
30
0
41
1
10
12.7248571664202
20
-3.35059857162332
30
0
41
1
10
12.7256123140511
20
-3.3499431445087
30
0
0
SPLINE
5
2C0
100
AcDbEntity
8
1
62
256
6
ByLayer
370
18
48
1
60
0
100
AcDbSpline
70
4
71
1
72
4
73
2
40
0
40
0
40
1
40
1
41
1
10
11.8922946380772
20
-5.24795492862839
30
0
41
1
10
11.8585309276938
20
-5.31163116501989
30
0
0
LINE
5
7F
100
AcDbEntity
8
SK1
62
256
6
ByLayer
370
18
48
1
60
0
100
AcDbLine
10
0
20
14.948253
30
0
11
0
21
14.75877
31
0
39
0
210
0
220
0
230
1
0
LINE
5
81
100
AcDbEntity
8
SK1
62
256
6
ByLayer
370
18
48
1
60
0
100
AcDbLine
10
-0.249519
20
-11.918279
30
0
11
-0.249519
21
-11.153837
31
0
39
0
210
0
220
0
230
1
0
LINE
5
82
100
AcDbEntity
8
1
62
256
6
ByLayer
370
18
48
1
60
0
100
AcDbLine
10
23.637324
20
-12.270946
30
0
11
23.687485
21
-12.367306
31
0
39
0
210
0
220
0
230
1
0
LINE
5
83
100
AcDbEntity
8
1
62
256
6
ByLayer
370
18
48
1
60
0
100
AcDbLine
10
24.69835
20
-12.887132
30
0
11
24.748512
21
-12.983491
31
0
39
0
210
0
220
0
230
1
0
LINE
5
84
100
AcDbEntity
8
1
62
256
6
ByLayer
370
18
48
1
60
0
100
AcDbLine
10
23.003529
20
-14.576854
30
0
11
23.054133
21
-14.674064
31
0
39
0
210
0
220
0
230
1
0
LINE
5
85
100
AcDbEntity
8
1
62
256
6
ByLayer
370
18
48
1
60
0
100
AcDbLine
10
24.691191
20
-14.113764
30
0
11
24.741353
21
-14.210123
31
0
39
0
210
0
220
0
230
1
0
LINE
5
86
100
AcDbEntity
8
1
62
256
6
ByLayer
370
18
48
1
60
0
100
AcDbLine
10
25.595754
20
-12.508944
30
0
11
25.595674
21
-12.50879
31
0
39
0
210
0
220
0
230
1
0
LINE
5
87
100
AcDbEntity
8
1
62
256
6
ByLayer
370
18
48
1
60
0
100
AcDbLine
10
23.047149
20
-12.493708
30
0
11
23.059051
21
-12.516571
31
0
39
0
210
0
220
0
230
1
0
LINE
5
88
100
AcDbEntity
8
1
62
256
6
ByLayer
370
18
48
1
60
0
100
AcDbLine
10
24.69835
20
-12.887132
30
0
11
24.7118
21
-12.872309
31
0
39
0
210
0
220
0
230
1
0
LINE
5
89
100
AcDbEntity
8
1
62
256
6
ByLayer
370
18
48
1
60
0
100
AcDbLine
10
24.251883
20
-14.575796
30
0
11
24.247702
21
-14.556285
31
0
39
0
210
0
220
0
230
1
0
LINE
5
8A
100
AcDbEntity
8
1
62
256
6
ByLayer
370
18
48
1
60
0
100
AcDbLine
10
22.381811
20
-13.498636
30
0
11
22.400847
21
-13.504727
31
0
39
0
210
0
220
0
230
1
0
LINE
5
8B
100
AcDbEntity
8
1
62
256
6
ByLayer
370
18
48
1
60
0
100
AcDbLine
10
24.251883
20
-14.575796
30
0
11
24.302487
21
-14.673006
31
0
39
0
210
0
220
0
230
1
0
LINE
5
8C
100
AcDbEntity
8
1
62
256
6
ByLayer
370
18
48
1
60
0
100
AcDbLine
10
24.247702
20
-14.556285
30
0
11
24.297864
21
-14.652645
31
0
39
0
210
0
220
0
230
1
0
LINE
5
8D
100
AcDbEntity
8
1
62
256
6
ByLayer
370
18
48
1
60
0
100
AcDbLine
10
24.691191
20
-14.113764
30
0
11
24.710745
21
-14.117935
31
0
39
0
210
0
220
0
230
1
0
LINE
5
8E
100
AcDbEntity
8
1
62
256
6
ByLayer
370
18
48
1
60
0
100
AcDbLine
10
22.400847
20
-13.504727
30
0
11
22.451008
21
-13.601086
31
0
39
0
210
0
220
0
230
1
0
LINE
5
8F
100
AcDbEntity
8
1
62
256
6
ByLayer
370
18
48
1
60
0
100
AcDbLine
10
24.710745
20
-14.117935
30
0
11
24.761349
21
-14.215145
31
0
39
0
210
0
220
0
230
1
0
LINE
5
90
100
AcDbEntity
8
1
62
256
6
ByLayer
370
18
48
1
60
0
100
AcDbLine
10
23.003529
20
-14.576854
30
0
11
23.018385
21
-14.563433
31
0
39
0
210
0
220
0
230
1
0
LINE
5
91
100
AcDbEntity
8
1
62
256
6
ByLayer
370
18
48
1
60
0
100
AcDbLine
10
23.636363
20
-12.261831
30
0
11
23.681824
21
-12.349162
31
0
39
0
210
0
220
0
230
1
0
LINE
5
92
100
AcDbEntity
8
1
62
256
6
ByLayer
370
18
48
1
60
0
100
AcDbLine
10
23.018385
20
-14.563433
30
0
11
23.068546
21
-14.659793
31
0
39
0
210
0
220
0
230
1
0
LINE
5
93
100
AcDbEntity
8
1
62
256
6
ByLayer
370
18
48
1
60
0
100
AcDbLine
10
22.381811
20
-13.498636
30
0
11
22.432415
21
-13.595846
31
0
39
0
210
0
220
0
230
1
0
LINE
5
94
100
AcDbEntity
8
1
62
256
6
ByLayer
370
18
48
1
60
0
100
AcDbLine
10
24.7118
20
-12.872309
30
0
11
24.762405
21
-12.969518
31
0
39
0
210
0
220
0
230
1
0
LINE
5
95
100
AcDbEntity
8
1
62
256
6
ByLayer
370
18
48
1
60
0
100
AcDbLine
10
26.076067
20
-10.23937
30
0
11
25.341682
21
-9.858745
31
0
39
0
210
0
220
0
230
1
0
LINE
5
96
100
AcDbEntity
8
1
62
256
6
ByLayer
370
18
48
1
60
0
100
AcDbLine
10
23.171569
20
-8.768989
30
0
11
22.196014
21
-8.241752
31
0
39
0
210
0
220
0
230
1
0
LINE
5
97
100
AcDbEntity
8
1
62
256
6
ByLayer
370
18
48
1
60
0
100
AcDbLine
10
16.531712
20
-5.396177
30
0
11
26.320649
21
-10.469694
31
0
39
0
210
0
220
0
230
1
0
LINE
5
98
100
AcDbEntity
8
1
62
256
6
ByLayer
370
18
48
1
60
0
100
AcDbLine
10
26.211996
20
-10.41338
30
0
11
26.076067
21
-10.23937
31
0
39
0
210
0
220
0
230
1
0
LINE
5
99
100
AcDbEntity
8
1
62
256
6
ByLayer
370
18
48
1
60
0
100
AcDbLine
10
21.831362
20
-8.039378
30
0
11
21.707621
21
-7.975244
31
0
39
0
210
0
220
0
230
1
0
LINE
5
9A
100
AcDbEntity
8
1
62
256
6
ByLayer
370
18
48
1
60
0
100
AcDbLine
10
21.999175
20
-8.130127
30
0
11
22.088211
21
-8.181836
31
0
39
0
210
0
220
0
230
1
0
LINE
5
9B
100
AcDbEntity
8
1
62
256
6
ByLayer
370
18
48
1
60
0
100
AcDbLine
10
25.013203
20
-9.701875
30
0
11
24.100116
21
-9.250247
31
0
39
0
210
0
220
0
230
1
0
LINE
5
9C
100
AcDbEntity
8
1
62
256
6
ByLayer
370
18
48
1
60
0
100
AcDbLine
10
25.182285
20
-9.779904
30
0
11
25.109324
21
-9.747651
31
0
39
0
210
0
220
0
230
1
0
LINE
5
9D
100
AcDbEntity
8
1
62
256
6
ByLayer
370
18
48
1
60
0
100
AcDbLine
10
30.838878
20
-21.81079
30
0
11
21.049941
21
-16.737272
31
0
39
0
210
0
220
0
230
1
0
LINE
5
9E
100
AcDbEntity
8
1
62
256
6
ByLayer
370
18
48
1
60
0
100
AcDbLine
10
26.825936
20
-10.973876
30
0
11
31.910593
21
-20.741412
31
0
39
0
210
0
220
0
230
1
0
LINE
5
9F
100
AcDbEntity
8
1
62
256
6
ByLayer
370
18
48
1
60
0
100
AcDbLine
10
20.544654
20
-16.233091
30
0
11
15.459997
21
-6.465555
31
0
39
0
210
0
220
0
230
1
0
LINE
5
A0
100
AcDbEntity
8
SK1
62
256
6
ByLayer
370
18
48
1
60
0
100
AcDbLine
10
-0.324519
20
14.717201
30
0
11
-0.324519
21
14.675952
31
0
39
0
210
0
220
0
230
1
0
LINE
5
A1
100
AcDbEntity
8
SK1
62
256
6
ByLayer
370
18
48
1
60
0
100
AcDbLine
10
-0.324519
20
14.934621
30
0
11
-0.324519
21
14.914311
31
0
39
0
210
0
220
0
230
1
0
LINE
5
A2
100
AcDbEntity
8
SK1
62
256
6
ByLayer
370
18
48
1
60
0
100
AcDbLine
10
-0.249519
20
-15.073231
30
0
11
-0.249519
21
-15.021469
31
0
39
0
210
0
220
0
230
1
0
LINE
5
A3
100
AcDbEntity
8
SK1
62
256
6
ByLayer
370
18
48
1
60
0
100
AcDbLine
10
0
20
-13.146302
30
0
11
0
21
-12.66689
31
0
39
0
210
0
220
0
230
1
0
LINE
5
A4
100
AcDbEntity
8
SK1
62
256
6
ByLayer
370
18
48
1
60
0
100
AcDbLine
10
0
20
-13.567434
30
0
11
0
21
-13.146302
31
0
39
0
210
0
220
0
230
1
0
LINE
5
A5
100
AcDbEntity
8
SK1
62
256
6
ByLayer
370
18
48
1
60
0
100
AcDbLine
10
-0.249519
20
-12.941723
30
0
11
-0.249519
21
-12.262085
31
0
39
0
210
0
220
0
230
1
0
LINE
5
A6
100
AcDbEntity
8
SK1
62
256
6
ByLayer
370
18
48
1
60
0
100
AcDbLine
10
0
20
-11.503267
30
0
11
0
21
-12.122304
31
0
39
0
210
0
220
0
230
1
0
LINE
5
A7
100
AcDbEntity
8
SK1
62
256
6
ByLayer
370
18
48
1
60
0
100
AcDbLine
10
-0.324519
20
-12.931521
30
0
11
-0.324519
21
-12.075126
31
0
39
0
210
0
220
0
230
1
0
LINE
5
A8
100
AcDbEntity
8
SK1
62
256
6
ByLayer
370
18
48
1
60
0
100
AcDbLine
10
0
20
13.146302
30
0
11
0
21
13.567434
31
0
39
0
210
0
220
0
230
1
0
LINE
5
A9
100
AcDbEntity
8
SK1
62
256
6
ByLayer
370
18
48
1
60
0
100
AcDbLine
10
-0.249519
20
12.262085
30
0
11
-0.249519
21
12.941723
31
0
39
0
210
0
220
0
230
1
0
LINE
5
AA
100
AcDbEntity
8
SK1
62
256
6
ByLayer
370
18
48
1
60
0
100
AcDbLine
10
-0.324519
20
12.075126
30
0
11
-0.324519
21
12.931521
31
0
39
0
210
0
220
0
230
1
0
LINE
5
AB
100
AcDbEntity
8
SK1
62
256
6
ByLayer
370
18
48
1
60
0
100
AcDbLine
10
-0.324519
20
13.048193
30
0
11
-0.324519
21
12.931521
31
0
39
0
210
0
220
0
230
1
0
LINE
5
AC
100
AcDbEntity
8
SK1
62
256
6
ByLayer
370
18
48
1
60
0
100
AcDbLine
10
0
20
10.797002
30
0
11
0
21
11.503272
31
0
39
0
210
0
220
0
230
1
0
LINE
5
AD
100
AcDbEntity
8
SK1
62
256
6
ByLayer
370
18
48
1
60
0
100
AcDbLine
10
0
20
9.985022
30
0
11
0
21
10.797002
31
0
39
0
210
0
220
0
230
1
0
LINE
5
AE
100
AcDbEntity
8
SK1
62
256
6
ByLayer
370
18
48
1
60
0
100
AcDbLine
10
-0.324519
20
10.810252
30
0
11
-0.324519
21
10.612164
31
0
39
0
210
0
220
0
230
1
0
LINE
5
AF
100
AcDbEntity
8
SK1
62
256
6
ByLayer
370
18
48
1
60
0
100
AcDbLine
10
-0.324519
20
-11.923554
30
0
11
-0.324519
21
-11.287097
31
0
39
0
210
0
220
0
230
1
0
LINE
5
B0
100
AcDbEntity
8
SK1
62
256
6
ByLayer
370
18
48
1
60
0
100
AcDbLine
10
-0.324519
20
-12.931521
30
0
11
-0.324519
21
-13.048193
31
0
39
0
210
0
220
0
230
1
0
LINE
5
B1
100
AcDbEntity
8
SK1
62
256
6
ByLayer
370
18
48
1
60
0
100
AcDbLine
10
-0.324519
20
-11.923554
30
0
11
-0.324519
21
-12.075117
31
0
39
0
210
0
220
0
230
1
0
LINE
5
B2
100
AcDbEntity
8
SK1
62
256
6
ByLayer
370
18
48
1
60
0
100
AcDbLine
10
-0.249519
20
9.96605
30
0
11
-0.249519
21
10.587849
31
0
39
0
210
0
220
0
230
1
0
LINE
5
B3
100
AcDbEntity
8
SK1
62
256
6
ByLayer
370
18
48
1
60
0
100
AcDbLine
10
-0.324519
20
-14.99966
30
0
11
-0.324519
21
-14.934566
31
0
39
0
210
0
220
0
230
1
0
LINE
5
B4
100
AcDbEntity
8
SK1
62
256
6
ByLayer
370
18
48
1
60
0
100
AcDbLine
10
-0.249519
20
14.81843
30
0
11
-0.249519
21
14.975295
31
0
39
0
210
0
220
0
230
1
0
LINE
5
B5
100
AcDbEntity
8
SK1
62
256
6
ByLayer
370
18
48
1
60
0
100
AcDbLine
10
-0.324519
20
14.720006
30
0
11
-0.324519
21
14.914311
31
0
39
0
210
0
220
0
230
1
0
LINE
5
B6
100
AcDbEntity
8
SK1
62
256
6
ByLayer
370
18
48
1
60
0
100
AcDbLine
10
-0.324519
20
-14.99966
30
0
11
-0.324519
21
-15
31
0
39
0
210
0
220
0
230
1
0
LINE
5
B7
100
AcDbEntity
8
SK1
62
256
6
ByLayer
370
18
48
1
60
0
100
AcDbLine
10
-0.324519
20
14.340459
30
0
11
-0.324519
21
14.675952
31
0
39
0
210
0
220
0
230
1
0
LINE
5
B8
100
AcDbEntity
8
SK1
62
256
6
ByLayer
370
18
48
1
60
0
100
AcDbLine
10
0
20
-15.283069
30
0
11
0
21
-15.31993
31
0
39
0
210
0
220
0
230
1
0
LINE
5
B9
100
AcDbEntity
8
SK1
62
256
6
ByLayer
370
18
48
1
60
0
100
AcDbLine
10
0
20
-12.666896
30
0
11
0
21
-12.122304
31
0
39
0
210
0
220
0
230
1
0
LINE
5
BA
100
AcDbEntity
8
SK1
62
256
6
ByLayer
370
18
48
1
60
0
100
AcDbLine
10
0
20
15.209381
30
0
11
0
21
15.283169
31
0
39
0
210
0
220
0
230
1
0
LINE
5
BB
100
AcDbEntity
8
SK1
62
256
6
ByLayer
370
18
48
1
60
0
100
AcDbLine
10
0
20
14.948253
30
0
11
0
21
15.098022
31
0
39
0
210
0
220
0
230
1
0
LINE
5
BC
100
AcDbEntity
8
SK1
62
256
6
ByLayer
370
18
48
1
60
0
100
AcDbLine
10
0
20
12.66689
30
0
11
0
21
13.146302
31
0
39
0
210
0
220
0
230
1
0
LINE
5
BD
100
AcDbEntity
8
SK1
62
256
6
ByLayer
370
18
48
1
60
0
100
AcDbLine
10
0
20
-15.324519
30
0
11
0
21
-15.31993
31
0
39
0
210
0
220
0
230
1
0
LINE
5
BE
100
AcDbEntity
8
SK1
62
256
6
ByLayer
370
18
48
1
60
0
100
AcDbLine
10
-0.324519
20
1.738068
30
0
11
-0.324519
21
-1.738068
31
0
39
0
210
0
220
0
230
1
0
LINE
5
BF
100
AcDbEntity
8
SK1
62
256
6
ByLayer
370
18
48
1
60
0
100
AcDbLine
10
0
20
-4.577145
30
0
11
0
21
4.577145
31
0
39
0
210
0
220
0
230
1
0
LINE
5
C0
100
AcDbEntity
8
SK1
62
256
6
ByLayer
370
18
48
1
60
0
100
AcDbLine
10
0
20
14.254772
30
0
11
0
21
14.528429
31
0
39
0
210
0
220
0
230
1
0
LINE
5
C1
100
AcDbEntity
8
SK1
62
256
6
ByLayer
370
18
48
1
60
0
100
AcDbLine
10
-0.249519
20
13.92742
30
0
11
-0.249519
21
14.313414
31
0
39
0
210
0
220
0
230
1
0
LINE
5
C2
100
AcDbEntity
8
SK1
62
256
6
ByLayer
370
18
48
1
60
0
100
AcDbLine
10
0
20
14.528429
30
0
11
0
21
14.758904
31
0
39
0
210
0
220
0
230
1
0
LINE
5
C3
100
AcDbEntity
8
SK1
62
256
6
ByLayer
370
18
48
1
60
0
100
AcDbLine
10
-0.324519
20
9.770232
30
0
11
-0.324519
21
10.246814
31
0
39
0
210
0
220
0
230
1
0
LINE
5
C4
100
AcDbEntity
8
SK1
62
256
6
ByLayer
370
18
48
1
60
0
100
AcDbLine
10
-0.324519
20
10.810291
30
0
11
-0.324519
21
11.023373
31
0
39
0
210
0
220
0
230
1
0
LINE
5
C5
100
AcDbEntity
8
SK1
62
256
6
ByLayer
370
18
48
1
60
0
100
AcDbLine
10
-0.324519
20
13.791325
30
0
11
-0.324519
21
14.276921
31
0
39
0
210
0
220
0
230
1
0
LINE
5
C6
100
AcDbEntity
8
SK1
62
256
6
ByLayer
370
18
48
1
60
0
100
AcDbLine
10
-0.324519
20
14.340471
30
0
11
-0.324519
21
14.276921
31
0
39
0
210
0
220
0
230
1
0
LINE
5
C7
100
AcDbEntity
8
SK1
62
256
6
ByLayer
370
18
48
1
60
0
100
AcDbLine
10
-0.324519
20
9.404039
30
0
11
-0.324519
21
9.770232
31
0
39
0
210
0
220
0
230
1
0
LINE
5
C8
100
AcDbEntity
8
SK1
62
256
6
ByLayer
370
18
48
1
60
0
100
AcDbLine
10
0
20
15.098013
30
0
11
0
21
15.209381
31
0
39
0
210
0
220
0
230
1
0
LINE
5
C9
100
AcDbEntity
8
SK1
62
256
6
ByLayer
370
18
48
1
60
0
100
AcDbLine
10
0
20
-14.758904
30
0
11
0
21
-14.528429
31
0
39
0
210
0
220
0
230
1
0
LINE
5
CA
100
AcDbEntity
8
SK1
62
256
6
ByLayer
370
18
48
1
60
0
100
AcDbLine
10
-0.324519
20
-9.770232
30
0
11
-0.324519
21
-9.404039
31
0
39
0
210
0
220
0
230
1
0
LINE
5
CB
100
AcDbEntity
8
SK1
62
256
6
ByLayer
370
18
48
1
60
0
100
AcDbLine
10
-0.249519
20
-14.313414
30
0
11
-0.249519
21
-13.92742
31
0
39
0
210
0
220
0
230
1
0
LINE
5
CC
100
AcDbEntity
8
SK1
62
256
6
ByLayer
370
18
48
1
60
0
100
AcDbLine
10
0
20
-14.528429
30
0
11
0
21
-14.254772
31
0
39
0
210
0
220
0
230
1
0
LINE
5
CD
100
AcDbEntity
8
SK1
62
256
6
ByLayer
370
18
48
1
60
0
100
AcDbLine
10
-0.324519
20
-14.276921
30
0
11
-0.324519
21
-14.340471
31
0
39
0
210
0
220
0
230
1
0
LINE
5
CE
100
AcDbEntity
8
SK1
62
256
6
ByLayer
370
18
48
1
60
0
100
AcDbLine
10
-0.324519
20
-14.276921
30
0
11
-0.324519
21
-13.791325
31
0
39
0
210
0
220
0
230
1
0
LINE
5
CF
100
AcDbEntity
8
SK1
62
256
6
ByLayer
370
18
48
1
60
0
100
AcDbLine
10
-0.324519
20
-11.023373
30
0
11
-0.324519
21
-10.810291
31
0
39
0
210
0
220
0
230
1
0
LINE
5
D0
100
AcDbEntity
8
SK1
62
256
6
ByLayer
370
18
48
1
60
0
100
AcDbLine
10
-0.324519
20
-10.246814
30
0
11
-0.324519
21
-9.770232
31
0
39
0
210
0
220
0
230
1
0
LINE
5
D1
100
AcDbEntity
8
SK1
62
256
6
ByLayer
370
18
48
1
60
0
100
AcDbLine
10
-0.249519
20
14.457827
30
0
11
-0.249519
21
14.724695
31
0
39
0
210
0
220
0
230
1
0
LINE
5
D2
100
AcDbEntity
8
SK1
62
256
6
ByLayer
370
18
48
1
60
0
100
AcDbLine
10
-0.249519
20
-14.724695
30
0
11
-0.249519
21
-14.457827
31
0
39
0
210
0
220
0
230
1
0
LINE
5
D3
100
AcDbEntity
8
SK1
62
256
6
ByLayer
370
18
48
1
60
0
100
AcDbLine
10
-0.324519
20
-14.675952
30
0
11
-0.324519
21
-14.717201
31
0
39
0
210
0
220
0
230
1
0
LINE
5
D4
100
AcDbEntity
8
SK1
62
256
6
ByLayer
370
18
48
1
60
0
100
AcDbLine
10
0
20
-14.75877
30
0
11
0
21
-14.948253
31
0
39
0
210
0
220
0
230
1
0
LINE
5
D5
100
AcDbEntity
8
SK1
62
256
6
ByLayer
370
18
48
1
60
0
100
AcDbLine
10
0
20
-15.098022
30
0
11
0
21
-14.948253
31
0
39
0
210
0
220
0
230
1
0
LINE
5
D6
100
AcDbEntity
8
SK1
62
256
6
ByLayer
370
18
48
1
60
0
100
AcDbLine
10
-0.324519
20
-14.675952
30
0
11
-0.324519
21
-14.340459
31
0
39
0
210
0
220
0
230
1
0
LINE
5
D7
100
AcDbEntity
8
SK1
62
256
6
ByLayer
370
18
48
1
60
0
100
AcDbLine
10
-0.324519
20
-14.914311
30
0
11
-0.324519
21
-14.934621
31
0
39
0
210
0
220
0
230
1
0
LINE
5
D8
100
AcDbEntity
8
SK1
62
256
6
ByLayer
370
18
48
1
60
0
100
AcDbLine
10
-0.324519
20
-14.914311
30
0
11
-0.324519
21
-14.717151
31
0
39
0
210
0
220
0
230
1
0
LINE
5
D9
100
AcDbEntity
8
SK1
62
256
6
ByLayer
370
18
48
1
60
0
100
AcDbLine
10
0
20
-15.209381
30
0
11
0
21
-15.098013
31
0
39
0
210
0
220
0
230
1
0
LINE
5
DA
100
AcDbEntity
8
SK1
62
256
6
ByLayer
370
18
48
1
60
0
100
AcDbLine
10
-0.249519
20
-14.975295
30
0
11
-0.249519
21
-14.81843
31
0
39
0
210
0
220
0
230
1
0
LINE
5
DB
100
AcDbEntity
8
SK1
62
256
6
ByLayer
370
18
48
1
60
0
100
AcDbLine
10
0
20
-15.283169
30
0
11
0
21
-15.209381
31
0
39
0
210
0
220
0
230
1
0
LINE
5
DC
100
AcDbEntity
8
SK1
62
256
6
ByLayer
370
18
48
1
60
0
100
AcDbLine
10
-0.324519
20
14.934566
30
0
11
-0.324519
21
14.99966
31
0
39
0
210
0
220
0
230
1
0
LINE
5
DD
100
AcDbEntity
8
SK1
62
256
6
ByLayer
370
18
48
1
60
0
100
AcDbLine
10
0
20
15.31993
30
0
11
0
21
15.283069
31
0
39
0
210
0
220
0
230
1
0
LINE
5
DE
100
AcDbEntity
8
SK1
62
256
6
ByLayer
370
18
48
1
60
0
100
AcDbLine
10
-0.249519
20
15.021469
30
0
11
-0.249519
21
15.073231
31
0
39
0
210
0
220
0
230
1
0
LINE
5
DF
100
AcDbEntity
8
SK1
62
256
6
ByLayer
370
18
48
1
60
0
100
AcDbLine
10
0
20
15.31993
30
0
11
0
21
15.324519
31
0
39
0
210
0
220
0
230
1
0
LINE
5
E0
100
AcDbEntity
8
SK1
62
256
6
ByLayer
370
18
48
1
60
0
100
AcDbLine
10
-0.324519
20
15
30
0
11
-0.324519
21
14.99966
31
0
39
0
210
0
220
0
230
1
0
LINE
5
E1
100
AcDbEntity
8
SK1
62
256
6
ByLayer
370
18
48
1
60
0
100
AcDbLine
10
-0.324519
20
10.246768
30
0
11
-0.324519
21
10.612164
31
0
39
0
210
0
220
0
230
1
0
LINE
5
E2
100
AcDbEntity
8
SK1
62
256
6
ByLayer
370
18
48
1
60
0
100
AcDbLine
10
-0.324519
20
-10.612164
30
0
11
-0.324519
21
-10.246768
31
0
39
0
210
0
220
0
230
1
0
LINE
5
E3
100
AcDbEntity
8
SK1
62
256
6
ByLayer
370
18
48
1
60
0
100
AcDbLine
10
0
20
-10.797002
30
0
11
0
21
-9.985022
31
0
39
0
210
0
220
0
230
1
0
LINE
5
E4
100
AcDbEntity
8
SK1
62
256
6
ByLayer
370
18
48
1
60
0
100
AcDbLine
10
0
20
-11.503272
30
0
11
0
21
-10.797002
31
0
39
0
210
0
220
0
230
1
0
LINE
5
E5
100
AcDbEntity
8
SK1
62
256
6
ByLayer
370
18
48
1
60
0
100
AcDbLine
10
-0.249519
20
-10.587849
30
0
11
-0.249519
21
-9.96605
31
0
39
0
210
0
220
0
230
1
0
LINE
5
E6
100
AcDbEntity
8
SK1
62
256
6
ByLayer
370
18
48
1
60
0
100
AcDbLine
10
-0.324519
20
-10.612164
30
0
11
-0.324519
21
-10.810252
31
0
39
0
210
0
220
0
230
1
0
LINE
5
E7
100
AcDbEntity
8
SK1
62
256
6
ByLayer
370
18
48
1
60
0
100
AcDbLine
10
0
20
12.122304
30
0
11
0
21
12.666896
31
0
39
0
210
0
220
0
230
1
0
LINE
5
E8
100
AcDbEntity
8
SK1
62
256
6
ByLayer
370
18
48
1
60
0
100
AcDbLine
10
0
20
12.122304
30
0
11
0
21
11.503267
31
0
39
0
210
0
220
0
230
1
0
LINE
5
E9
100
AcDbEntity
8
SK1
62
256
6
ByLayer
370
18
48
1
60
0
100
AcDbLine
10
-0.324519
20
11.287097
30
0
11
-0.324519
21
11.923554
31
0
39
0
210
0
220
0
230
1
0
LINE
5
EA
100
AcDbEntity
8
SK1
62
256
6
ByLayer
370
18
48
1
60
0
100
AcDbLine
10
-0.249519
20
11.153837
30
0
11
-0.249519
21
11.918279
31
0
39
0
210
0
220
0
230
1
0
LINE
5
EB
100
AcDbEntity
8
SK1
62
256
6
ByLayer
370
18
48
1
60
0
100
AcDbLine
10
-0.324519
20
12.075117
30
0
11
-0.324519
21
11.923554
31
0
39
0
210
0
220
0
230
1
0
LINE
5
EC
100
AcDbEntity
8
SK1
62
256
6
ByLayer
370
18
48
1
60
0
100
AcDbLine
10
0
20
-14.254833
30
0
11
0
21
-13.935575
31
0
39
0
210
0
220
0
230
1
0
LINE
5
ED
100
AcDbEntity
8
SK1
62
256
6
ByLayer
370
18
48
1
60
0
100
AcDbLine
10
-0.324519
20
-13.703188
30
0
11
-0.324519
21
-13.048157
31
0
39
0
210
0
220
0
230
1
0
LINE
5
EE
100
AcDbEntity
8
SK1
62
256
6
ByLayer
370
18
48
1
60
0
100
AcDbLine
10
-0.324519
20
-11.287133
30
0
11
-0.324519
21
-11.132233
31
0
39
0
210
0
220
0
230
1
0
LINE
5
EF
100
AcDbEntity
8
SK1
62
256
6
ByLayer
370
18
48
1
60
0
100
AcDbLine
10
-0.249519
20
-13.727018
30
0
11
-0.249519
21
-13.206671
31
0
39
0
210
0
220
0
230
1
0
LINE
5
F0
100
AcDbEntity
8
SK1
62
256
6
ByLayer
370
18
48
1
60
0
100
AcDbLine
10
-0.324519
20
-13.703188
30
0
11
-0.324519
21
-13.791382
31
0
39
0
210
0
220
0
230
1
0
LINE
5
F1
100
AcDbEntity
8
SK1
62
256
6
ByLayer
370
18
48
1
60
0
100
AcDbLine
10
0
20
-13.567411
30
0
11
0
21
-13.935575
31
0
39
0
210
0
220
0
230
1
0
LINE
5
F2
100
AcDbEntity
8
SK1
62
256
6
ByLayer
370
18
48
1
60
0
100
AcDbLine
10
-0.324519
20
-11.132233
30
0
11
-0.324519
21
-11.023335
31
0
39
0
210
0
220
0
230
1
0
LINE
5
F3
100
AcDbEntity
8
SK1
62
256
6
ByLayer
370
18
48
1
60
0
100
AcDbLine
10
0
20
13.935575
30
0
11
0
21
13.567411
31
0
39
0
210
0
220
0
230
1
0
LINE
5
F4
100
AcDbEntity
8
SK1
62
256
6
ByLayer
370
18
48
1
60
0
100
AcDbLine
10
-0.249519
20
13.206671
30
0
11
-0.249519
21
13.727018
31
0
39
0
210
0
220
0
230
1
0
LINE
5
F5
100
AcDbEntity
8
SK1
62
256
6
ByLayer
370
18
48
1
60
0
100
AcDbLine
10
-0.324519
20
13.791382
30
0
11
-0.324519
21
13.703188
31
0
39
0
210
0
220
0
230
1
0
LINE
5
F6
100
AcDbEntity
8
SK1
62
256
6
ByLayer
370
18
48
1
60
0
100
AcDbLine
10
-0.324519
20
11.023335
30
0
11
-0.324519
21
11.132233
31
0
39
0
210
0
220
0
230
1
0
LINE
5
F7
100
AcDbEntity
8
SK1
62
256
6
ByLayer
370
18
48
1
60
0
100
AcDbLine
10
0
20
13.935575
30
0
11
0
21
14.254833
31
0
39
0
210
0
220
0
230
1
0
LINE
5
F8
100
AcDbEntity
8
SK1
62
256
6
ByLayer
370
18
48
1
60
0
100
AcDbLine
10
-0.324519
20
11.132233
30
0
11
-0.324519
21
11.287133
31
0
39
0
210
0
220
0
230
1
0
LINE
5
F9
100
AcDbEntity
8
SK1
62
256
6
ByLayer
370
18
48
1
60
0
100
AcDbLine
10
-0.324519
20
13.048157
30
0
11
-0.324519
21
13.703188
31
0
39
0
210
0
220
0
230
1
0
LINE
5
FA
100
AcDbEntity
8
SK1
62
256
6
ByLayer
370
18
48
1
60
0
100
AcDbLine
10
-0.249519
20
-6.222291
30
0
11
-0.249519
21
-3.021506
31
0
39
0
210
0
220
0
230
1
0
LINE
5
FB
100
AcDbEntity
8
SK1
62
256
6
ByLayer
370
18
48
1
60
0
100
AcDbLine
10
-0.249519
20
3.021506
30
0
11
-0.249519
21
6.222291
31
0
39
0
210
0
220
0
230
1
0
LINE
5
FC
100
AcDbEntity
8
SK1
62
256
6
ByLayer
370
18
48
1
60
0
100
AcDbLine
10
-0.324519
20
-6.325489
30
0
11
-0.324519
21
-6.742979
31
0
39
0
210
0
220
0
230
1
0
LINE
5
FD
100
AcDbEntity
8
SK1
62
256
6
ByLayer
370
18
48
1
60
0
100
AcDbLine
10
-0.324519
20
-6.325489
30
0
11
-0.324519
21
-1.737928
31
0
39
0
210
0
220
0
230
1
0
LINE
5
FE
100
AcDbEntity
8
SK1
62
256
6
ByLayer
370
18
48
1
60
0
100
AcDbLine
10
-0.324519
20
1.737928
30
0
11
-0.324519
21
6.325489
31
0
39
0
210
0
220
0
230
1
0
LINE
5
FF
100
AcDbEntity
8
SK1
62
256
6
ByLayer
370
18
48
1
60
0
100
AcDbLine
10
0
20
6.505787
30
0
11
0
21
7.910453
31
0
39
0
210
0
220
0
230
1
0
LINE
5
100
100
AcDbEntity
8
SK1
62
256
6
ByLayer
370
18
48
1
60
0
100
AcDbLine
10
0
20
-6.505787
30
0
11
0
21
-4.577024
31
0
39
0
210
0
220
0
230
1
0
LINE
5
101
100
AcDbEntity
8
SK1
62
256
6
ByLayer
370
18
48
1
60
0
100
AcDbLine
10
0
20
4.577024
30
0
11
0
21
6.505787
31
0
39
0
210
0
220
0
230
1
0
LINE
5
102
100
AcDbEntity
8
SK1
62
256
6
ByLayer
370
18
48
1
60
0
100
AcDbLine
10
0
20
-7.910453
30
0
11
0
21
-6.505787
31
0
39
0
210
0
220
0
230
1
0
LINE
5
103
100
AcDbEntity
8
SK1
62
256
6
ByLayer
370
18
48
1
60
0
100
AcDbLine
10
-0.324519
20
6.742979
30
0
11
-0.324519
21
6.325489
31
0
39
0
210
0
220
0
230
1
0
LINE
5
104
100
AcDbEntity
8
SK1
62
256
6
ByLayer
370
18
48
1
60
0
100
AcDbLine
10
-0.324519
20
9.133163
30
0
11
-0.324519
21
8.863685
31
0
39
0
210
0
220
0
230
1
0
LINE
5
105
100
AcDbEntity
8
SK1
62
256
6
ByLayer
370
18
48
1
60
0
100
AcDbLine
10
0
20
-9.985002
30
0
11
0
21
-9.03882
31
0
39
0
210
0
220
0
230
1
0
LINE
5
106
100
AcDbEntity
8
SK1
62
256
6
ByLayer
370
18
48
1
60
0
100
AcDbLine
10
-0.324519
20
-8.863685
30
0
11
-0.324519
21
-6.742772
31
0
39
0
210
0
220
0
230
1
0
LINE
5
107
100
AcDbEntity
8
SK1
62
256
6
ByLayer
370
18
48
1
60
0
100
AcDbLine
10
-0.324519
20
6.742772
30
0
11
-0.324519
21
8.863685
31
0
39
0
210
0
220
0
230
1
0
LINE
5
108
100
AcDbEntity
8
SK1
62
256
6
ByLayer
370
18
48
1
60
0
100
AcDbLine
10
-0.249519
20
-8.812476
30
0
11
-0.249519
21
-7.154353
31
0
39
0
210
0
220
0
230
1
0
LINE
5
109
100
AcDbEntity
8
SK1
62
256
6
ByLayer
370
18
48
1
60
0
100
AcDbLine
10
-0.249519
20
7.154353
30
0
11
-0.249519
21
8.812476
31
0
39
0
210
0
220
0
230
1
0
LINE
5
10A
100
AcDbEntity
8
SK1
62
256
6
ByLayer
370
18
48
1
60
0
100
AcDbLine
10
0
20
9.03882
30
0
11
0
21
7.910379
31
0
39
0
210
0
220
0
230
1
0
LINE
5
10B
100
AcDbEntity
8
SK1
62
256
6
ByLayer
370
18
48
1
60
0
100
AcDbLine
10
0
20
-7.910379
30
0
11
0
21
-9.03882
31
0
39
0
210
0
220
0
230
1
0
LINE
5
10C
100
AcDbEntity
8
SK1
62
256
6
ByLayer
370
18
48
1
60
0
100
AcDbLine
10
-0.324519
20
-8.863685
30
0
11
-0.324519
21
-9.133163
31
0
39
0
210
0
220
0
230
1
0
LINE
5
10D
100
AcDbEntity
8
SK1
62
256
6
ByLayer
370
18
48
1
60
0
100
AcDbLine
10
0
20
9.03882
30
0
11
0
21
9.985002
31
0
39
0
210
0
220
0
230
1
0
LINE
5
10E
100
AcDbEntity
8
1
62
256
6
ByLayer
370
18
48
1
60
0
100
AcDbLine
10
13.819899
20
-5.896395
30
0
11
14.029167
21
-6.298395
31
0
39
0
210
0
220
0
230
1
0
LINE
5
10F
100
AcDbEntity
8
1
62
256
6
ByLayer
370
18
48
1
60
0
100
AcDbLine
10
20.403047
20
0
30
0
11
21.78066
21
-2.64637
31
0
39
0
210
0
220
0
230
1
0
LINE
5
110
100
AcDbEntity
8
1
62
256
6
ByLayer
370
18
48
1
60
0
100
AcDbLine
10
0
20
-15.283069
30
0
11
0
21
-15.31993
31
0
39
0
210
0
220
0
230
1
0
LINE
5
111
100
AcDbEntity
8
1
62
256
6
ByLayer
370
18
48
1
60
0
100
AcDbLine
10
0
20
-15.209381
30
0
11
0
21
-15.098013
31
0
39
0
210
0
220
0
230
1
0
LINE
5
112
100
AcDbEntity
8
1
62
256
6
ByLayer
370
18
48
1
60
0
100
AcDbLine
10
16.052605
20
-8.361932
30
0
11
11.566448
21
-12.838305
31
0
39
0
210
0
220
0
230
1
0
LINE
5
113
100
AcDbEntity
8
1
62
256
6
ByLayer
370
18
48
1
60
0
100
AcDbLine
10
0
20
-6.505787
30
0
11
0
21
-4.577024
31
0
39
0
210
0
220
0
230
1
0
LINE
5
114
100
AcDbEntity
8
1
62
256
6
ByLayer
370
18
48
1
60
0
100
AcDbLine
10
0
20
4.577024
30
0
11
0
21
6.505787
31
0
39
0
210
0
220
0
230
1
0
LINE
5
115
100
AcDbEntity
8
1
62
256
6
ByLayer
370
18
48
1
60
0
100
AcDbLine
10
0.394519
20
15.535108
30
0
11
0.394519
21
15.577756
31
0
39
0
210
0
220
0
230
1
0
LINE
5
116
100
AcDbEntity
8
1
62
256
6
ByLayer
370
18
48
1
60
0
100
AcDbLine
10
0
20
-11.503272
30
0
11
0
21
-10.797002
31
0
39
0
210
0
220
0
230
1
0
LINE
5
117
100
AcDbEntity
8
1
62
256
6
ByLayer
370
18
48
1
60
0
100
AcDbLine
10
0.394519
20
-14.867745
30
0
11
0.394519
21
-14.763382
31
0
39
0
210
0
220
0
230
1
0
LINE
5
118
100
AcDbEntity
8
1
62
256
6
ByLayer
370
18
48
1
60
0
100
AcDbLine
10
0
20
14.948253
30
0
11
0
21
14.75877
31
0
39
0
210
0
220
0
230
1
0
LINE
5
119
100
AcDbEntity
8
1
62
256
6
ByLayer
370
18
48
1
60
0
100
AcDbLine
10
0
20
-14.528429
30
0
11
0
21
-14.254772
31
0
39
0
210
0
220
0
230
1
0
LINE
5
11A
100
AcDbEntity
8
1
62
256
6
ByLayer
370
18
48
1
60
0
100
AcDbLine
10
12.532124
20
3.283645
30
0
11
7.4497
21
3.283645
31
0
39
0
210
0
220
0
230
1
0
LINE
5
11B
100
AcDbEntity
8
1
62
256
6
ByLayer
370
18
48
1
60
0
100
AcDbLine
10
0
20
10.797002
30
0
11
0
21
11.503272
31
0
39
0
210
0
220
0
230
1
0
LINE
5
11C
100
AcDbEntity
8
1
62
256
6
ByLayer
370
18
48
1
60
0
100
AcDbLine
10
0.394519
20
15.693314
30
0
11
0.394519
21
15.707477
31
0
39
0
210
0
220
0
230
1
0
LINE
5
11D
100
AcDbEntity
8
1
62
256
6
ByLayer
370
18
48
1
60
0
100
AcDbLine
10
0
20
-13.146302
30
0
11
0
21
-12.66689
31
0
39
0
210
0
220
0
230
1
0
LINE
5
11E
100
AcDbEntity
8
1
62
256
6
ByLayer
370
18
48
1
60
0
100
AcDbLine
10
24.350365
20
-7.582728
30
0
11
24.83268
21
-8.509246
31
0
39
0
210
0
220
0
230
1
0
LINE
5
11F
100
AcDbEntity
8
1
62
256
6
ByLayer
370
18
48
1
60
0
100
AcDbLine
10
0
20
15.31993
30
0
11
0
21
15.324519
31
0
39
0
210
0
220
0
230
1
0
LINE
5
120
100
AcDbEntity
8
1
62
256
6
ByLayer
370
18
48
1
60
0
100
AcDbLine
10
17.406918
20
-13.920792
30
0
11
17.787631
21
-14.131149
31
0
39
0
210
0
220
0
230
1
0
LINE
5
121
100
AcDbEntity
8
1
62
256
6
ByLayer
370
18
48
1
60
0
100
AcDbLine
10
25.117634
20
-9.751335
30
0
11
25.355642
21
-9.513847
31
0
39
0
210
0
220
0
230
1
0
LINE
5
122
100
AcDbEntity
8
1
62
256
6
ByLayer
370
18
48
1
60
0
100
AcDbLine
10
25.355642
20
-9.513847
30
0
11
25.259624
21
-9.329397
31
0
39
0
210
0
220
0
230
1
0
LINE
5
123
100
AcDbEntity
8
1
62
256
6
ByLayer
370
18
48
1
60
0
100
AcDbLine
10
11.450402
20
-4.883391
30
0
11
10.7787
21
-4.28334
31
0
39
0
210
0
220
0
230
1
0
LINE
5
124
100
AcDbEntity
8
1
62
256
6
ByLayer
370
18
48
1
60
0
100
AcDbLine
10
0
20
-9.985002
30
0
11
0
21
-9.03882
31
0
39
0
210
0
220
0
230
1
0
LINE
5
125
100
AcDbEntity
8
1
62
256
6
ByLayer
370
18
48
1
60
0
100
AcDbLine
10
0
20
15.31993
30
0
11
0
21
15.283069
31
0
39
0
210
0
220
0
230
1
0
LINE
5
126
100
AcDbEntity
8
1
62
256
6
ByLayer
370
18
48
1
60
0
100
AcDbLine
10
0.394519
20
-12.444873
30
0
11
0.394519
21
-12.211978
31
0
39
0
210
0
220
0
230
1
0
LINE
5
127
100
AcDbEntity
8
1
62
256
6
ByLayer
370
18
48
1
60
0
100
AcDbLine
10
0
20
-10.797002
30
0
11
0
21
-9.985022
31
0
39
0
210
0
220
0
230
1
0
LINE
5
128
100
AcDbEntity
8
1
62
256
6
ByLayer
370
18
48
1
60
0
100
AcDbLine
10
0.675481
20
16
30
0
11
0.675481
21
-16
31
0
39
0
210
0
220
0
230
1
0
LINE
5
129
100
AcDbEntity
8
1
62
256
6
ByLayer
370
18
48
1
60
0
100
AcDbLine
10
24.928356
20
-9.659942
30
0
11
25.259624
21
-9.329397
31
0
39
0
210
0
220
0
230
1
0
LINE
5
12A
100
AcDbEntity
8
1
62
256
6
ByLayer
370
18
48
1
60
0
100
AcDbLine
10
16.052605
20
-8.361932
30
0
11
16.004373
21
-8.269281
31
0
39
0
210
0
220
0
230
1
0
LINE
5
12B
100
AcDbEntity
8
1
62
256
6
ByLayer
370
18
48
1
60
0
100
AcDbLine
10
0
20
-15.283169
30
0
11
0
21
-15.209381
31
0
39
0
210
0
220
0
230
1
0
LINE
5
12C
100
AcDbEntity
8
1
62
256
6
ByLayer
370
18
48
1
60
0
100
AcDbLine
10
0
20
-7.910453
30
0
11
0
21
-6.505787
31
0
39
0
210
0
220
0
230
1
0
LINE
5
12D
100
AcDbEntity
8
1
62
256
6
ByLayer
370
18
48
1
60
0
100
AcDbLine
10
0.394519
20
-11.127288
30
0
11
0.394519
21
-10.82546
31
0
39
0
210
0
220
0
230
1
0
LINE
5
12E
100
AcDbEntity
8
1
62
256
6
ByLayer
370
18
48
1
60
0
100
AcDbLine
10
0.394519
20
10.82546
30
0
11
0.394519
21
11.127288
31
0
39
0
210
0
220
0
230
1
0
LINE
5
12F
100
AcDbEntity
8
1
62
256
6
ByLayer
370
18
48
1
60
0
100
AcDbLine
10
0
20
6.505787
30
0
11
0
21
7.910453
31
0
39
0
210
0
220
0
230
1
0
LINE
5
130
100
AcDbEntity
8
1
62
256
6
ByLayer
370
18
48
1
60
0
100
AcDbLine
10
0.394519
20
-15.707477
30
0
11
0.394519
21
-15.693314
31
0
39
0
210
0
220
0
230
1
0
LINE
5
131
100
AcDbEntity
8
1
62
256
6
ByLayer
370
18
48
1
60
0
100
AcDbLine
10
0
20
-13.567434
30
0
11
0
21
-13.146302
31
0
39
0
210
0
220
0
230
1
0
LINE
5
132
100
AcDbEntity
8
1
62
256
6
ByLayer
370
18
48
1
60
0
100
AcDbLine
10
0
20
13.146302
30
0
11
0
21
13.567434
31
0
39
0
210
0
220
0
230
1
0
LINE
5
133
100
AcDbEntity
8
1
62
256
6
ByLayer
370
18
48
1
60
0
100
AcDbLine
10
0
20
15.209381
30
0
11
0
21
15.283169
31
0
39
0
210
0
220
0
230
1
0
LINE
5
134
100
AcDbEntity
8
1
62
256
6
ByLayer
370
18
48
1
60
0
100
AcDbLine
10
0.394519
20
15.228194
30
0
11
0.394519
21
15.300594
31
0
39
0
210
0
220
0
230
1
0
LINE
5
135
100
AcDbEntity
8
1
62
256
6
ByLayer
370
18
48
1
60
0
100
AcDbLine
10
0.394519
20
-9.394584
30
0
11
0.394519
21
-8.985919
31
0
39
0
210
0
220
0
230
1
0
LINE
5
136
100
AcDbEntity
8
1
62
256
6
ByLayer
370
18
48
1
60
0
100
AcDbLine
10
0.394519
20
8.985919
30
0
11
0.394519
21
9.394584
31
0
39
0
210
0
220
0
230
1
0
LINE
5
137
100
AcDbEntity
8
1
62
256
6
ByLayer
370
18
48
1
60
0
100
AcDbLine
10
12.481571
20
-3.122746
30
0
11
12.337836
21
-3.283645
31
0
39
0
210
0
220
0
230
1
0
LINE
5
138
100
AcDbEntity
8
1
62
256
6
ByLayer
370
18
48
1
60
0
100
AcDbLine
10
17.787631
20
-14.131149
30
0
11
18.716179
21
-14.612407
31
0
39
0
210
0
220
0
230
1
0
LINE
5
139
100
AcDbEntity
8
1
62
256
6
ByLayer
370
18
48
1
60
0
100
AcDbLine
10
16.172887
20
-8.593054
30
0
11
16.321303
21
-8.444961
31
0
39
0
210
0
220
0
230
1
0
LINE
5
13A
100
AcDbEntity
8
1
62
256
6
ByLayer
370
18
48
1
60
0
100
AcDbLine
10
19.75798
20
-15.0993
30
0
11
19.887297
21
-14.970265
31
0
39
0
210
0
220
0
230
1
0
LINE
5
13B
100
AcDbEntity
8
1
62
256
6
ByLayer
370
18
48
1
60
0
100
AcDbLine
10
16.873856
20
-13.670624
30
0
11
18.411859
21
-12.135976
31
0
39
0
210
0
220
0
230
1
0
LINE
5
13C
100
AcDbEntity
8
1
62
256
6
ByLayer
370
18
48
1
60
0
100
AcDbLine
10
22.272904
20
-8.283352
30
0
11
23.880204
21
-6.679557
31
0
39
0
210
0
220
0
230
1
0
LINE
5
13D
100
AcDbEntity
8
1
62
256
6
ByLayer
370
18
48
1
60
0
100
AcDbLine
10
0
20
14.528429
30
0
11
0
21
14.758904
31
0
39
0
210
0
220
0
230
1
0
LINE
5
13E
100
AcDbEntity
8
1
62
256
6
ByLayer
370
18
48
1
60
0
100
AcDbLine
10
0
20
15.098013
30
0
11
0
21
15.209381
31
0
39
0
210
0
220
0
230
1
0
LINE
5
13F
100
AcDbEntity
8
1
62
256
6
ByLayer
370
18
48
1
60
0
100
AcDbLine
10
0
20
-14.758904
30
0
11
0
21
-14.528429
31
0
39
0
210
0
220
0
230
1
0
LINE
5
140
100
AcDbEntity
8
1
62
256
6
ByLayer
370
18
48
1
60
0
100
AcDbLine
10
0.394519
20
12.211978
30
0
11
0.394519
21
12.444873
31
0
39
0
210
0
220
0
230
1
0
LINE
5
141
100
AcDbEntity
8
1
62
256
6
ByLayer
370
18
48
1
60
0
100
AcDbLine
10
0
20
-14.75877
30
0
11
0
21
-14.948253
31
0
39
0
210
0
220
0
230
1
0
LINE
5
142
100
AcDbEntity
8
1
62
256
6
ByLayer
370
18
48
1
60
0
100
AcDbLine
10
18.402449
20
-6.017202
30
0
11
18.846601
21
-6.219177
31
0
39
0
210
0
220
0
230
1
0
LINE
5
143
100
AcDbEntity
8
1
62
256
6
ByLayer
370
18
48
1
60
0
100
AcDbLine
10
0
20
-4.577145
30
0
11
0
21
4.577145
31
0
39
0
210
0
220
0
230
1
0
LINE
5
144
100
AcDbEntity
8
1
62
256
6
ByLayer
370
18
48
1
60
0
100
AcDbLine
10
7.05
20
16
30
0
11
7.05
21
13.739234
31
0
39
0
210
0
220
0
230
1
0
LINE
5
145
100
AcDbEntity
8
1
62
256
6
ByLayer
370
18
48
1
60
0
100
AcDbLine
10
0
20
14.254772
30
0
11
0
21
14.528429
31
0
39
0
210
0
220
0
230
1
0
LINE
5
146
100
AcDbEntity
8
1
62
256
6
ByLayer
370
18
48
1
60
0
100
AcDbLine
10
18.309598
20
-5.969084
30
0
11
16.334391
21
-3.998198
31
0
39
0
210
0
220
0
230
1
0
LINE
5
147
100
AcDbEntity
8
1
62
256
6
ByLayer
370
18
48
1
60
0
100
AcDbLine
10
15.950299
20
-7.732268
30
0
11
13.953377
21
-5.739715
31
0
39
0
210
0
220
0
230
1
0
LINE
5
148
100
AcDbEntity
8
1
62
256
6
ByLayer
370
18
48
1
60
0
100
AcDbLine
10
17.97247
20
-5.714508
30
0
11
18.143098
21
-5.802943
31
0
39
0
210
0
220
0
230
1
0
LINE
5
149
100
AcDbEntity
8
1
62
256
6
ByLayer
370
18
48
1
60
0
100
AcDbLine
10
18.402451
20
-6.017209
30
0
11
18.309598
21
-5.969084
31
0
39
0
210
0
220
0
230
1
0
LINE
5
14A
100
AcDbEntity
8
1
62
256
6
ByLayer
370
18
48
1
60
0
100
AcDbLine
10
11.566444
20
-12.838298
30
0
11
11.899037
21
-13.151587
31
0
39
0
210
0
220
0
230
1
0
LINE
5
14B
100
AcDbEntity
8
1
62
256
6
ByLayer
370
18
48
1
60
0
100
AcDbLine
10
0.394519
20
-15.300594
30
0
11
0.394519
21
-15.228194
31
0
39
0
210
0
220
0
230
1
0
LINE
5
14C
100
AcDbEntity
8
1
62
256
6
ByLayer
370
18
48
1
60
0
100
AcDbLine
10
25.259624
20
-9.329397
30
0
11
24.83268
21
-8.509246
31
0
39
0
210
0
220
0
230
1
0
LINE
5
14D
100
AcDbEntity
8
1
62
256
6
ByLayer
370
18
48
1
60
0
100
AcDbLine
10
0
20
9.03882
30
0
11
0
21
9.985002
31
0
39
0
210
0
220
0
230
1
0
LINE
5
14E
100
AcDbEntity
8
1
62
256
6
ByLayer
370
18
48
1
60
0
100
AcDbLine
10
0.394519
20
14.124996
30
0
11
0.394519
21
14.265045
31
0
39
0
210
0
220
0
230
1
0
LINE
5
14F
100
AcDbEntity
8
1
62
256
6
ByLayer
370
18
48
1
60
0
100
AcDbLine
10
19.558119
20
-15.018467
30
0
11
18.716179
21
-14.612407
31
0
39
0
210
0
220
0
230
1
0
LINE
5
150
100
AcDbEntity
8
1
62
256
6
ByLayer
370
18
48
1
60
0
100
AcDbLine
10
0
20
9.03882
30
0
11
0
21
7.910379
31
0
39
0
210
0
220
0
230
1
0
LINE
5
151
100
AcDbEntity
8
1
62
256
6
ByLayer
370
18
48
1
60
0
100
AcDbLine
10
0
20
-7.910379
30
0
11
0
21
-9.03882
31
0
39
0
210
0
220
0
230
1
0
LINE
5
152
100
AcDbEntity
8
1
62
256
6
ByLayer
370
18
48
1
60
0
100
AcDbLine
10
6.9497
20
13.555442
30
0
11
6.9497
21
-13.555442
31
0
39
0
210
0
220
0
230
1
0
LINE
5
153
100
AcDbEntity
8
1
62
256
6
ByLayer
370
18
48
1
60
0
100
AcDbLine
10
19.759199
20
-15.098238
30
0
11
20.025875
21
-15.236454
31
0
39
0
210
0
220
0
230
1
0
LINE
5
154
100
AcDbEntity
8
1
62
256
6
ByLayer
370
18
48
1
60
0
100
AcDbLine
10
19.558119
20
-15.018467
30
0
11
19.791263
21
-14.785832
31
0
39
0
210
0
220
0
230
1
0
LINE
5
155
100
AcDbEntity
8
1
62
256
6
ByLayer
370
18
48
1
60
0
100
AcDbLine
10
11.899037
20
-13.151587
30
0
11
16.273636
21
-8.786529
31
0
39
0
210
0
220
0
230
1
0
LINE
5
156
100
AcDbEntity
8
1
62
256
6
ByLayer
370
18
48
1
60
0
100
AcDbLine
10
17.787631
20
-14.131149
30
0
11
18.88207
21
-13.039097
31
0
39
0
210
0
220
0
230
1
0
LINE
5
157
100
AcDbEntity
8
1
62
256
6
ByLayer
370
18
48
1
60
0
100
AcDbLine
10
23.164971
20
-8.765537
30
0
11
24.350365
21
-7.582728
31
0
39
0
210
0
220
0
230
1
0
LINE
5
158
100
AcDbEntity
8
1
62
256
6
ByLayer
370
18
48
1
60
0
100
AcDbLine
10
0
20
13.935575
30
0
11
0
21
13.567411
31
0
39
0
210
0
220
0
230
1
0
LINE
5
159
100
AcDbEntity
8
1
62
256
6
ByLayer
370
18
48
1
60
0
100
AcDbLine
10
19.75798
20
-15.0993
30
0
11
19.558119
21
-15.018467
31
0
39
0
210
0
220
0
230
1
0
LINE
5
15A
100
AcDbEntity
8
1
62
256
6
ByLayer
370
18
48
1
60
0
100
AcDbLine
10
0
20
13.935575
30
0
11
0
21
14.254833
31
0
39
0
210
0
220
0
230
1
0
LINE
5
15B
100
AcDbEntity
8
1
62
256
6
ByLayer
370
18
48
1
60
0
100
AcDbLine
10
0.394519
20
-13.469714
30
0
11
0.394519
21
-13.288111
31
0
39
0
210
0
220
0
230
1
0
LINE
5
15C
100
AcDbEntity
8
1
62
256
6
ByLayer
370
18
48
1
60
0
100
AcDbLine
10
11.44121
20
-15.6555
30
0
11
12.471995
21
-14.626962
31
0
39
0
210
0
220
0
230
1
0
LINE
5
15D
100
AcDbEntity
8
1
62
256
6
ByLayer
370
18
48
1
60
0
100
AcDbLine
10
0
20
-11.503267
30
0
11
0
21
-12.122304
31
0
39
0
210
0
220
0
230
1
0
LINE
5
15E
100
AcDbEntity
8
1
62
256
6
ByLayer
370
18
48
1
60
0
100
AcDbLine
10
0
20
9.985022
30
0
11
0
21
10.797002
31
0
39
0
210
0
220
0
230
1
0
LINE
5
15F
100
AcDbEntity
8
1
62
256
6
ByLayer
370
18
48
1
60
0
100
AcDbLine
10
15.992428
20
-3.738798
30
0
11
17.97247
21
-5.714508
31
0
39
0
210
0
220
0
230
1
0
LINE
5
160
100
AcDbEntity
8
1
62
256
6
ByLayer
370
18
48
1
60
0
100
AcDbLine
10
0.394519
20
-1.908285
30
0
11
0.394519
21
1.908285
31
0
39
0
210
0
220
0
230
1
0
LINE
5
161
100
AcDbEntity
8
1
62
256
6
ByLayer
370
18
48
1
60
0
100
AcDbLine
10
15.795105
20
-7.867281
30
0
11
16.004373
21
-8.269281
31
0
39
0
210
0
220
0
230
1
0
LINE
5
162
100
AcDbEntity
8
1
62
256
6
ByLayer
370
18
48
1
60
0
100
AcDbLine
10
12.661683
20
-3.283645
30
0
11
12.982883
21
-3.283645
31
0
39
0
210
0
220
0
230
1
0
LINE
5
163
100
AcDbEntity
8
1
62
256
6
ByLayer
370
18
48
1
60
0
100
AcDbLine
10
0
20
14.948253
30
0
11
0
21
15.098022
31
0
39
0
210
0
220
0
230
1
0
LINE
5
164
100
AcDbEntity
8
1
62
256
6
ByLayer
370
18
48
1
60
0
100
AcDbLine
10
16.004373
20
-8.269281
30
0
11
14.029167
21
-6.298395
31
0
39
0
210
0
220
0
230
1
0
LINE
5
165
100
AcDbEntity
8
1
62
256
6
ByLayer
370
18
48
1
60
0
100
AcDbLine
10
16.321303
20
-8.444961
30
0
11
15.950299
21
-7.732268
31
0
39
0
210
0
220
0
230
1
0
LINE
5
166
100
AcDbEntity
8
1
62
256
6
ByLayer
370
18
48
1
60
0
100
AcDbLine
10
0
20
12.66689
30
0
11
0
21
13.146302
31
0
39
0
210
0
220
0
230
1
0
LINE
5
167
100
AcDbEntity
8
1
62
256
6
ByLayer
370
18
48
1
60
0
100
AcDbLine
10
16.609377
20
-13.559578
30
0
11
18.283481
21
-11.889125
31
0
39
0
210
0
220
0
230
1
0
LINE
5
168
100
AcDbEntity
8
1
62
256
6
ByLayer
370
18
48
1
60
0
100
AcDbLine
10
22.031661
20
-8.149119
30
0
11
23.751744
21
-6.432788
31
0
39
0
210
0
220
0
230
1
0
LINE
5
169
100
AcDbEntity
8
1
62
256
6
ByLayer
370
18
48
1
60
0
100
AcDbLine
10
21.78066
20
-2.64637
30
0
11
18.402449
21
-6.017213
31
0
39
0
210
0
220
0
230
1
0
LINE
5
16A
100
AcDbEntity
8
1
62
256
6
ByLayer
370
18
48
1
60
0
100
AcDbLine
10
16.273636
20
-8.786529
30
0
11
16.052601
21
-8.361925
31
0
39
0
210
0
220
0
230
1
0
LINE
5
16B
100
AcDbEntity
8
1
62
256
6
ByLayer
370
18
48
1
60
0
100
AcDbLine
10
0
20
-15.098022
30
0
11
0
21
-14.948253
31
0
39
0
210
0
220
0
230
1
0
LINE
5
16C
100
AcDbEntity
8
1
62
256
6
ByLayer
370
18
48
1
60
0
100
AcDbLine
10
0.394519
20
-14.265045
30
0
11
0.394519
21
-14.124996
31
0
39
0
210
0
220
0
230
1
0
LINE
5
16D
100
AcDbEntity
8
1
62
256
6
ByLayer
370
18
48
1
60
0
100
AcDbLine
10
0
20
-14.254833
30
0
11
0
21
-13.935575
31
0
39
0
210
0
220
0
230
1
0
LINE
5
16E
100
AcDbEntity
8
1
62
256
6
ByLayer
370
18
48
1
60
0
100
AcDbLine
10
25.355695
20
-9.513948
30
0
11
25.606707
21
-9.996137
31
0
39
0
210
0
220
0
230
1
0
LINE
5
16F
100
AcDbEntity
8
1
62
256
6
ByLayer
370
18
48
1
60
0
100
AcDbLine
10
7.4497
20
-3.283645
30
0
11
12.337836
21
-3.283645
31
0
39
0
210
0
220
0
230
1
0
LINE
5
170
100
AcDbEntity
8
1
62
256
6
ByLayer
370
18
48
1
60
0
100
AcDbLine
10
7.4497
20
3.283645
30
0
11
7.4497
21
-3.283645
31
0
39
0
210
0
220
0
230
1
0
LINE
5
171
100
AcDbEntity
8
1
62
256
6
ByLayer
370
18
48
1
60
0
100
AcDbLine
10
18.716179
20
-14.612407
30
0
11
19.364337
21
-13.965662
31
0
39
0
210
0
220
0
230
1
0
LINE
5
172
100
AcDbEntity
8
1
62
256
6
ByLayer
370
18
48
1
60
0
100
AcDbLine
10
24.093348
20
-9.246965
30
0
11
24.83268
21
-8.509246
31
0
39
0
210
0
220
0
230
1
0
LINE
5
173
100
AcDbEntity
8
1
62
256
6
ByLayer
370
18
48
1
60
0
100
AcDbLine
10
0
20
12.122304
30
0
11
0
21
12.666896
31
0
39
0
210
0
220
0
230
1
0
LINE
5
174
100
AcDbEntity
8
1
62
256
6
ByLayer
370
18
48
1
60
0
100
AcDbLine
10
0.394519
20
-15.577756
30
0
11
0.394519
21
-15.535108
31
0
39
0
210
0
220
0
230
1
0
LINE
5
175
100
AcDbEntity
8
1
62
256
6
ByLayer
370
18
48
1
60
0
100
AcDbLine
10
8.345518
20
-11.825116
30
0
11
8.345518
21
-15.844016
31
0
39
0
210
0
220
0
230
1
0
LINE
5
176
100
AcDbEntity
8
1
62
256
6
ByLayer
370
18
48
1
60
0
100
AcDbLine
10
0.394519
20
14.763382
30
0
11
0.394519
21
14.867745
31
0
39
0
210
0
220
0
230
1
0
LINE
5
177
100
AcDbEntity
8
1
62
256
6
ByLayer
370
18
48
1
60
0
100
AcDbLine
10
0
20
-13.567411
30
0
11
0
21
-13.935575
31
0
39
0
210
0
220
0
230
1
0
LINE
5
178
100
AcDbEntity
8
1
62
256
6
ByLayer
370
18
48
1
60
0
100
AcDbLine
10
0.394519
20
13.288111
30
0
11
0.394519
21
13.469714
31
0
39
0
210
0
220
0
230
1
0
LINE
5
179
100
AcDbEntity
8
1
62
256
6
ByLayer
370
18
48
1
60
0
100
AcDbLine
10
23.751744
20
-6.432788
30
0
11
23.880204
21
-6.679557
31
0
39
0
210
0
220
0
230
1
0
LINE
5
17A
100
AcDbEntity
8
1
62
256
6
ByLayer
370
18
48
1
60
0
100
AcDbLine
10
14.032693
20
-4.042428
30
0
11
14.073485
21
-4.001725
31
0
39
0
210
0
220
0
230
1
0
LINE
5
17B
100
AcDbEntity
8
1
62
256
6
ByLayer
370
18
48
1
60
0
100
AcDbLine
10
13.819899
20
-5.896395
30
0
11
15.795105
21
-7.867281
31
0
39
0
210
0
220
0
230
1
0
LINE
5
17C
100
AcDbEntity
8
1
62
256
6
ByLayer
370
18
48
1
60
0
100
AcDbLine
10
0
20
12.122304
30
0
11
0
21
11.503267
31
0
39
0
210
0
220
0
230
1
0
LINE
5
17D
100
AcDbEntity
8
1
62
256
6
ByLayer
370
18
48
1
60
0
100
AcDbLine
10
7.05
20
13.107889
30
0
11
7.05
21
13.739234
31
0
39
0
210
0
220
0
230
1
0
LINE
5
17E
100
AcDbEntity
8
1
62
256
6
ByLayer
370
18
48
1
60
0
100
AcDbLine
10
23.880204
20
-6.679557
30
0
11
24.350365
21
-7.582728
31
0
39
0
210
0
220
0
230
1
0
LINE
5
17F
100
AcDbEntity
8
1
62
256
6
ByLayer
370
18
48
1
60
0
100
AcDbLine
10
12.661683
20
-3.283645
30
0
11
12.845235
21
-3.447618
31
0
39
0
210
0
220
0
230
1
0
LINE
5
180
100
AcDbEntity
8
1
62
256
6
ByLayer
370
18
48
1
60
0
100
AcDbLine
10
12.661683
20
-3.283645
30
0
11
12.481571
21
-3.122746
31
0
39
0
210
0
220
0
230
1
0
LINE
5
181
100
AcDbEntity
8
1
62
256
6
ByLayer
370
18
48
1
60
0
100
AcDbLine
10
0.394519
20
-6.942613
30
0
11
0.394519
21
-6.309317
31
0
39
0
210
0
220
0
230
1
0
LINE
5
182
100
AcDbEntity
8
1
62
256
6
ByLayer
370
18
48
1
60
0
100
AcDbLine
10
0.394519
20
6.309317
30
0
11
0.394519
21
6.942613
31
0
39
0
210
0
220
0
230
1
0
LINE
5
183
100
AcDbEntity
8
1
62
256
6
ByLayer
370
18
48
1
60
0
100
AcDbLine
10
22.001715
20
-3.071013
30
0
11
23.751744
21
-6.432788
31
0
39
0
210
0
220
0
230
1
0
LINE
5
184
100
AcDbEntity
8
1
62
256
6
ByLayer
370
18
48
1
60
0
100
AcDbLine
10
18.846601
20
-6.219177
30
0
11
22.001691
21
-3.070967
31
0
39
0
210
0
220
0
230
1
0
LINE
5
185
100
AcDbEntity
8
1
62
256
6
ByLayer
370
18
48
1
60
0
100
AcDbLine
10
0
20
-15.324519
30
0
11
0
21
-15.31993
31
0
39
0
210
0
220
0
230
1
0
LINE
5
186
100
AcDbEntity
8
1
62
256
6
ByLayer
370
18
48
1
60
0
100
AcDbLine
10
22.001691
20
-3.070967
30
0
11
21.780656
21
-2.646362
31
0
39
0
210
0
220
0
230
1
0
LINE
5
187
100
AcDbEntity
8
1
62
256
6
ByLayer
370
18
48
1
60
0
100
AcDbLine
10
0
20
-12.666896
30
0
11
0
21
-12.122304
31
0
39
0
210
0
220
0
230
1
0
LINE
5
188
100
AcDbEntity
8
1
62
256
6
ByLayer
370
18
48
1
60
0
100
AcDbLine
10
0
20
-15.324519
30
0
11
0.675481
21
-16
31
0
39
0
210
0
220
0
230
1
0
LINE
5
189
100
AcDbEntity
8
1
62
256
6
ByLayer
370
18
48
1
60
0
100
AcDbLine
10
0.675481
20
16
30
0
11
0
21
15.324519
31
0
39
0
210
0
220
0
230
1
0
LINE
5
18A
100
AcDbEntity
8
SK1
62
256
6
ByLayer
370
18
48
1
60
0
100
AcDbLine
10
0
20
15.324519
30
0
11
-0.324519
21
15
31
0
39
0
210
0
220
0
230
1
0
LINE
5
18B
100
AcDbEntity
8
1
62
256
6
ByLayer
370
18
48
1
60
0
100
AcDbLine
10
23.663599
20
-14.798102
30
0
11
23.613937
21
-14.702702
31
0
39
0
210
0
220
0
230
1
0
LINE
5
18C
100
AcDbEntity
8
1
62
256
6
ByLayer
370
18
48
1
60
0
100
AcDbLine
10
24.714951
20
-13.342034
30
0
11
24.762017
21
-13.432447
31
0
39
0
210
0
220
0
230
1
0
LINE
5
18D
100
AcDbEntity
8
1
62
256
6
ByLayer
370
18
48
1
60
0
100
AcDbLine
10
25.624661
20
-12.564474
30
0
11
25.595674
21
-12.50879
31
0
39
0
210
0
220
0
230
1
0
LINE
5
18E
100
AcDbEntity
8
1
62
256
6
ByLayer
370
18
48
1
60
0
100
AcDbLine
10
21.692826
20
-14.540483
30
0
11
21.721814
21
-14.596168
31
0
39
0
210
0
220
0
230
1
0
LINE
5
18F
100
AcDbEntity
8
1
62
256
6
ByLayer
370
18
48
1
60
0
100
AcDbLine
10
22.592573
20
-13.743785
30
0
11
22.545378
21
-13.653124
31
0
39
0
210
0
220
0
230
1
0
LINE
5
190
100
AcDbEntity
8
1
62
256
6
ByLayer
370
18
48
1
60
0
100
AcDbLine
10
23.646392
20
-12.292455
30
0
11
23.696082
21
-12.387909
31
0
39
0
210
0
220
0
230
1
0
LINE
5
191
100
AcDbEntity
8
1
62
256
6
ByLayer
370
18
48
1
60
0
100
AcDbLine
10
12.075895
20
4.226845
30
0
11
12.068132
21
4.241759
31
0
39
0
210
0
220
0
230
1
0
LINE
5
192
100
AcDbEntity
8
SK1
62
256
6
ByLayer
370
18
48
1
60
0
100
AcDbLine
10
-0.324519
20
-15
30
0
11
0
21
-15.324519
31
0
39
0
210
0
220
0
230
1
0
LINE
5
193
100
AcDbEntity
8
1
62
256
6
ByLayer
370
18
48
1
60
0
100
AcDbLine
10
0.675481
20
-16
30
0
11
10.972515
21
-16
31
0
39
0
210
0
220
0
230
1
0
LINE
5
194
100
AcDbEntity
8
1
62
256
6
ByLayer
370
18
48
1
60
0
100
AcDbLine
10
7.05
20
16
30
0
11
0.675481
21
16
31
0
39
0
210
0
220
0
230
1
0
LINE
5
195
100
AcDbEntity
8
4
62
256
6
ByLayer
370
18
48
0.05
60
0
100
AcDbLine
10
0
20
0
30
0
11
37.179454
21
0
31
0
39
0
210
0
220
0
230
1
0
LINE
5
197
100
AcDbEntity
8
SK4
62
256
6
ByLayer
370
18
48
0.05
60
0
100
AcDbLine
10
30.179454
20
0
30
0
11
-12
21
0
31
0
39
0
210
0
220
0
230
1
0
LINE
5
199
100
AcDbEntity
8
81
62
256
6
ByLayer
370
18
48
1
60
0
100
AcDbLine
10
32
20
-21.9
30
0
11
42
21
-21.9
31
0
39
0
210
0
220
0
230
1
0
LINE
5
19A
100
AcDbEntity
8
80
62
256
6
ByLayer
370
18
48
1
60
0
100
AcDbLine
10
0
20
0
30
0
11
-10
21
0
31
0
39
0
210
0
220
0
230
1
0
LINE
5
19B
100
AcDbEntity
8
2
62
256
6
ByLayer
370
13
48
1
60
0
100
AcDbLine
10
34
20
0
30
0
11
42.141212
21
0
31
0
39
0
210
0
220
0
230
1
0
LINE
5
19C
100
AcDbEntity
8
2
62
256
6
ByLayer
370
13
48
1
60
0
100
AcDbLine
10
25.073771
20
-8.594838
30
0
11
10.652764
21
19.10766
31
0
39
0
210
0
220
0
230
1
0
LINE
5
19D
100
AcDbEntity
8
1
62
256
6
ByLayer
370
13
48
1
60
0
100
AcDbLine
10
40.141212
20
0
30
0
11
39.594913
21
3.155455
31
0
39
0
210
0
220
0
230
1
0
LINE
5
19E
100
AcDbEntity
8
1
62
256
6
ByLayer
370
13
48
1
60
0
100
AcDbLine
10
40.141212
20
0
30
0
11
40.43022
21
3.189331
31
0
39
0
210
0
220
0
230
1
0
LINE
5
19F
100
AcDbEntity
8
1
62
256
6
ByLayer
370
13
48
1
60
0
100
AcDbLine
10
39.594913
20
3.155455
30
0
11
40.43022
21
3.189331
31
0
39
0
210
0
220
0
230
1
0
LINE
5
1A0
100
AcDbEntity
8
1
62
256
6
ByLayer
370
13
48
1
60
0
100
AcDbLine
10
11.576261
20
17.333638
30
0
11
14.27178
21
19.062659
31
0
39
0
210
0
220
0
230
1
0
LINE
5
1A1
100
AcDbEntity
8
1
62
256
6
ByLayer
370
13
48
1
60
0
100
AcDbLine
10
11.576261
20
17.333638
30
0
11
14.627439
21
18.306093
31
0
39
0
210
0
220
0
230
1
0
LINE
5
1A2
100
AcDbEntity
8
1
62
256
6
ByLayer
370
13
48
1
60
0
100
AcDbLine
10
14.27178
20
19.062659
30
0
11
14.627439
21
18.306093
31
0
39
0
210
0
220
0
230
1
0
MTEXT
5
2C1
100
AcDbEntity
8
2
62
256
6
ByLayer
370
18
48
1
60
0
100
AcDbMText
10
24.075902
20
22.411933
30
0
210
0
220
0
230
1
1
\W0.6809;117%%d30'
40
4.5
41
0
44
1.084337
50
328.75
71
7
72
5
7
iso_b_vert
0
MTEXT
5
2C4
100
AcDbEntity
8
SK6
62
256
6
ByLayer
370
18
48
1
60
0
100
AcDbMText
10
-16.8145
20
28.232634
30
0
210
0
220
0
230
1
1
\W0.7828;TR-SL-V13PBL-32
40
3.5
41
0
44
1.084337
50
0
71
7
72
5
7
iso_b_vert
0
DIMENSION
5
2C7
100
AcDbEntity
8
SK2
62
256
6
ByLayer
370
18
48
1
60
0
100
AcDbDimension
2
_U0
10
-7.75
20
-16
30
0
11
-7.75
21
0
31
0
70
32
71
1
72
1
41
1
210
0
220
0
230
1
3
Standard
100
AcDbAlignedDimension
13
0
23
16
33
0
14
0
24
-16
34
0
50
90
100
AcDbRotatedDimension
1001
ACAD
1000
DSTYLE
1002
{
1070
   371
1070
    13
1070
   372
1070
    13
1070
     3
1000

1070
   170
1070
     0
1070
   144
1040
1.0
1070
   277
1070
     2
1070
   284
1070
     8
1070
   278
1070
    46
1070
   146
1040
0.777778
1070
   345
1005
16
1070
   347
1005
16
1070
   346
1005
16
1070
   344
1005
2C8
1070
   343
1005
2C8
1070
   172
1070
     1
1070
    76
1070
     0
1070
    75
1070
     0
1070
   282
1070
     0
1070
   281
1070
     0
1070
    71
1070
     0
1070
   272
1070
     4
1070
   271
1070
     4
1070
    74
1070
     0
1070
   279
1070
     0
1070
   173
1070
     1
1070
   340
1005
2C2
1070
    77
1070
     1
1070
    73
1070
     0
1070
   171
1070
     4
1070
   274
1070
     4
1070
   177
1070
     2
1070
   176
1070
     2
1070
   178
1070
     7
1070
    78
1070
     8
1070
    41
1040
3.175
1070
   147
1040
2.25
1070
    42
1040
2.0
1070
    44
1040
2.0
1070
   140
1040
4.5
1002
}
1001
ACAD_DSTYLE_DIM_LINETYPE
1070
   380
1005
16
1001
ACAD_DSTYLE_DIM_EXT1_LINETYPE
1070
   381
1005
16
1001
ACAD_DSTYLE_DIM_EXT2_LINETYPE
1070
   382
1005
16
0
DIMENSION
5
2EC
100
AcDbEntity
8
2
62
256
6
ByLayer
370
18
48
1
60
0
100
AcDbDimension
2
_U1
10
49.429454
20
-21.9
30
0
11
49.429454
21
-10.95
31
0
70
32
71
1
72
1
41
1
210
0
220
0
230
1
3
Standard
100
AcDbAlignedDimension
13
32
23
0
33
0
14
32
24
-21.9
34
0
50
90
100
AcDbRotatedDimension
1001
ACAD
1000
DSTYLE
1002
{
1070
   371
1070
    13
1070
   372
1070
    13
1070
     3
1000

1070
   170
1070
     0
1070
   144
1040
1.0
1070
   277
1070
     2
1070
   284
1070
     8
1070
   278
1070
    46
1070
   146
1040
0.777778
1070
   345
1005
16
1070
   347
1005
16
1070
   346
1005
16
1070
   344
1005
2C8
1070
   343
1005
2C8
1070
   172
1070
     1
1070
    76
1070
     0
1070
    75
1070
     0
1070
   282
1070
     0
1070
   281
1070
     0
1070
    71
1070
     0
1070
   272
1070
     4
1070
   271
1070
     4
1070
    74
1070
     0
1070
   279
1070
     0
1070
   173
1070
     1
1070
   340
1005
2C2
1070
    77
1070
     1
1070
    73
1070
     0
1070
   171
1070
     4
1070
   274
1070
     4
1070
   177
1070
     2
1070
   176
1070
     2
1070
   178
1070
     7
1070
    78
1070
     8
1070
    41
1040
3.175
1070
   147
1040
2.25
1070
    42
1040
2.0
1070
    44
1040
2.0
1070
   140
1040
4.5
1002
}
1001
ACAD_DSTYLE_DIM_LINETYPE
1070
   380
1005
16
1001
ACAD_DSTYLE_DIM_EXT1_LINETYPE
1070
   381
1005
16
1001
ACAD_DSTYLE_DIM_EXT2_LINETYPE
1070
   382
1005
16
0
DIMENSION
5
309
100
AcDbEntity
8
2
62
256
6
ByLayer
370
18
48
1
60
0
100
AcDbDimension
2
_U2
10
32
20
-39.15
30
0
11
16
21
-39.15
31
0
70
32
71
1
72
1
41
1
210
0
220
0
230
1
3
Standard
100
AcDbAlignedDimension
13
0
23
-16
33
0
14
32
24
-21.9
34
0
50
0
100
AcDbRotatedDimension
1001
ACAD
1000
DSTYLE
1002
{
1070
   371
1070
    13
1070
   372
1070
    13
1070
     3
1000

1070
   170
1070
     0
1070
   144
1040
1.0
1070
   277
1070
     2
1070
   284
1070
     8
1070
   278
1070
    46
1070
   146
1040
0.777778
1070
   345
1005
16
1070
   347
1005
16
1070
   346
1005
16
1070
   344
1005
2C8
1070
   343
1005
2C8
1070
   172
1070
     1
1070
    76
1070
     0
1070
    75
1070
     0
1070
   282
1070
     0
1070
   281
1070
     0
1070
    71
1070
     0
1070
   272
1070
     4
1070
   271
1070
     4
1070
    74
1070
     0
1070
   279
1070
     0
1070
   173
1070
     1
1070
   340
1005
2C2
1070
    77
1070
     1
1070
    73
1070
     1
1070
   171
1070
     4
1070
   274
1070
     4
1070
   177
1070
     2
1070
   176
1070
     2
1070
   178
1070
     7
1070
    78
1070
     8
1070
    41
1040
3.175
1070
   147
1040
2.25
1070
    42
1040
2.0
1070
    44
1040
2.0
1070
   140
1040
4.5
1002
}
1001
ACAD_DSTYLE_DIM_LINETYPE
1070
   380
1005
16
1001
ACAD_DSTYLE_DIM_EXT1_LINETYPE
1070
   381
1005
16
1001
ACAD_DSTYLE_DIM_EXT2_LINETYPE
1070
   382
1005
16
0
ENDSEC
0
SECTION
2
OBJECTS
0
DICTIONARY
5
395
330
0
100
AcDbDictionary
280
0
281
1
3
ACAD_GROUP
350
396
3
ACAD_MLINESTYLE
350
397
0
DICTIONARY
5
396
330
0
100
AcDbDictionary
280
0
281
1
0
DICTIONARY
5
397
330
0
100
AcDbDictionary
280
0
281
1
3
Standard
350
18
0
MLINESTYLE
5
18
330
397
100
AcDbMlineStyle
2
Standard
70
0
3

62
256
51
90
52
90
71
2
49
-0.5
62
256
6
ByLayer
49
0.5
62
256
6
ByLayer
0
RASTERVARIABLES
5
383
330

100
AcDbRasterVariables
90
0
70
1
71
1
72
1
0
ENDSEC
0
EOF
