0
SECTION
2
HEADER
9
$ACADVER
1
AC1015
9
$DWGCODEPAGE
3
ANSI_1252
9
$HANDSEED
5
354
9
$ANGBASE
50
0
9
$ANGDIR
70
0
9
$ATTMODE
70
1
9
$AUNITS
70
0
9
$AUPREC
70
0
9
$CECOLOR
62
256
9
$CELTSCALE
40
1
9
$CELTYPE
6
ByLayer
9
$CELWEIGHT
370
18
9
$CLAYER
8
0
9
$CMLJUST
70
0
9
$CMLSCALE
40
1
9
$CMLSTYLE
2
Standard
9
$DIMSTYLE
2
Standard
9
$TEXTSIZE
40
0.2
9
$TEXTSTYLE
7
Standard
9
$LUNITS
70
2
9
$LUPREC
70
4
9
$EXTNAMES
290
1
9
$INSUNITS
70
4
9
$LTSCALE
40
1
9
$LWDISPLAY
290
1
9
$PDMODE
70
0
9
$PDSIZE
40
0
9
$PLINEGEN
70
0
0
ENDSEC
0
SECTION
2
CLASSES
0
CLASS
1
RASTERVARIABLES
2
AcDbRasterVariables
3
ISM
90
0
280
0
281
0
0
ENDSEC
0
SECTION
2
TABLES
0
TABLE
2
VPORT
5
34a
100
AcDbSymbolTable
0
VPORT
5
1
100
AcDbSymbolTableRecord
100
AcDbViewportTableRecord
2
*Active
70
0
10
0
20
0
11
1
21
1
12
-1
22
1
13
0
23
0
14
0.5
24
0.5
15
10
25
10
16
0
26
0
36
1
17
0
27
0
37
0
0
ENDTAB
0
TABLE
2
LTYPE
5
34b
100
AcDbSymbolTable
0
LTYPE
5
14
100
AcDbSymbolTableRecord
100
AcDbLinetypeTableRecord
70
0
2
ByBlock
3

72
65
73
0
40
0
0
LTYPE
5
15
100
AcDbSymbolTableRecord
100
AcDbLinetypeTableRecord
70
0
2
ByLayer
3

72
65
73
0
40
0
0
LTYPE
5
16
100
AcDbSymbolTableRecord
100
AcDbLinetypeTableRecord
70
0
2
Continuous
3
Solid line
72
65
73
0
40
0
0
LTYPE
5
6E
100
AcDbSymbolTableRecord
100
AcDbLinetypeTableRecord
70
0
2
CENTER
3
____ _ ____ _ ____ _ ____
72
65
73
4
40
47.5
49
22
74
0
49
-8.5
74
0
49
8.5
74
0
49
-8.5
74
0
0
LTYPE
5
6F
100
AcDbSymbolTableRecord
100
AcDbLinetypeTableRecord
70
0
2
DASHED
3
__ __ __ __ __ __ __ __ __
72
65
73
2
40
25.72
49
12.86
74
0
49
-12.86
74
0
0
ENDTAB
0
TABLE
2
LAYER
5
34c
100
AcDbSymbolTable
0
LAYER
5
10
100
AcDbSymbolTableRecord
100
AcDbLayerTableRecord
2
0
70
0
62
7
6
Continuous
290
1
370
-3
390
0
0
LAYER
5
71
100
AcDbSymbolTableRecord
100
AcDbLayerTableRecord
2
81
70
0
62
-3
6
Continuous
290
1
370
-3
390
0
0
LAYER
5
73
100
AcDbSymbolTableRecord
100
AcDbLayerTableRecord
2
80
70
0
62
-6
6
Continuous
290
1
370
-3
390
0
0
LAYER
5
75
100
AcDbSymbolTableRecord
100
AcDbLayerTableRecord
2
2
70
0
62
7
6
Continuous
290
1
370
-3
390
0
0
LAYER
5
79
100
AcDbSymbolTableRecord
100
AcDbLayerTableRecord
2
1
70
0
62
4
6
Continuous
290
1
370
-3
390
0
0
LAYER
5
16C
100
AcDbSymbolTableRecord
100
AcDbLayerTableRecord
2
4
70
0
62
-2
6
CENTER
290
1
370
-3
390
0
0
LAYER
5
283
100
AcDbSymbolTableRecord
100
AcDbLayerTableRecord
2
Defpoints
70
0
62
7
6
Continuous
290
0
370
-3
390
0
0
LAYER
5
336
100
AcDbSymbolTableRecord
100
AcDbLayerTableRecord
2
SK1
70
0
62
4
6
Continuous
290
1
370
-3
390
0
0
LAYER
5
337
100
AcDbSymbolTableRecord
100
AcDbLayerTableRecord
2
SK4
70
0
62
2
6
CENTER
290
1
370
-3
390
0
0
LAYER
5
338
100
AcDbSymbolTableRecord
100
AcDbLayerTableRecord
2
SK6
70
0
62
5
6
Continuous
290
1
370
-3
390
0
0
LAYER
5
339
100
AcDbSymbolTableRecord
100
AcDbLayerTableRecord
2
SK2
70
0
62
7
6
Continuous
290
1
370
-3
390
0
0
ENDTAB
0
TABLE
2
STYLE
5
34d
100
AcDbSymbolTable
0
STYLE
5
11
100
AcDbSymbolTableRecord
100
AcDbTextStyleTableRecord
2
Standard
3
txt
70
0
71
0
40
0
41
1
42
0
50
0
0
STYLE
5
274
100
AcDbSymbolTableRecord
100
AcDbTextStyleTableRecord
2
iso_b_vert
3
simplex.shx
70
0
71
0
40
0
41
1
42
0
50
0
0
STYLE
5
275
100
AcDbSymbolTableRecord
100
AcDbTextStyleTableRecord
2
DWGDirectTextStyle
3
simplex
70
0
71
0
40
0
41
1
42
0
50
0
0
ENDTAB
0
TABLE
2
DIMSTYLE
5
34e
100
AcDbSymbolTable
100
AcDbDimStyleTable
0
DIMSTYLE
105
27
100
AcDbSymbolTableRecord
100
AcDbDimStyleTableRecord
2
Standard
70
0
3
<>
41
0.18
42
0.0625
44
0.18
140
0.18
147
0.09
73
0
74
0
77
1
271
2
275
0
278
52
280
0
340
11
0
ENDTAB
0
TABLE
2
VIEW
5
34f
100
AcDbSymbolTable
0
ENDTAB
0
TABLE
2
UCS
5
350
100
AcDbSymbolTable
0
ENDTAB
0
TABLE
2
APPID
5
351
100
AcDbSymbolTable
0
APPID
5
12
100
AcDbSymbolTableRecord
100
AcDbRegAppTableRecord
2
ACAD
70
0
0
APPID
5
278
100
AcDbSymbolTableRecord
100
AcDbRegAppTableRecord
2
ACAD_DSTYLE_DIMBREAK
70
0
0
APPID
5
2F5
100
AcDbSymbolTableRecord
100
AcDbRegAppTableRecord
2
ACAD_DSTYLE_DIM_LINETYPE
70
0
0
APPID
5
2F6
100
AcDbSymbolTableRecord
100
AcDbRegAppTableRecord
2
ACAD_DSTYLE_DIM_EXT1_LINETYPE
70
0
0
APPID
5
2F7
100
AcDbSymbolTableRecord
100
AcDbRegAppTableRecord
2
ACAD_DSTYLE_DIM_EXT2_LINETYPE
70
0
0
APPID
5
332
100
AcDbSymbolTableRecord
100
AcDbRegAppTableRecord
2
ACAD_MLEADERVER
70
0
0
ENDTAB
0
TABLE
2
BLOCK_RECORD
5
352
100
AcDbSymbolTable
0
BLOCK_RECORD
5
1F
100
AcDbSymbolTableRecord
100
AcDbBlockTableRecord
2
*Model_Space
340
0
70
0
0
BLOCK_RECORD
5
1B
100
AcDbSymbolTableRecord
100
AcDbBlockTableRecord
2
*Paper_Space
340
0
70
0
0
BLOCK_RECORD
5
23
100
AcDbSymbolTableRecord
100
AcDbBlockTableRecord
2
*Paper_Space0
340
0
70
0
0
BLOCK_RECORD
5
27A
100
AcDbSymbolTableRecord
100
AcDbBlockTableRecord
2
_Closed
340
0
70
0
0
BLOCK_RECORD
5
284
100
AcDbSymbolTableRecord
100
AcDbBlockTableRecord
2
*D2
340
0
70
0
0
BLOCK_RECORD
5
291
100
AcDbSymbolTableRecord
100
AcDbBlockTableRecord
2
_U0
340
0
70
0
0
BLOCK_RECORD
5
2A1
100
AcDbSymbolTableRecord
100
AcDbBlockTableRecord
2
*D4
340
0
70
0
0
BLOCK_RECORD
5
2AE
100
AcDbSymbolTableRecord
100
AcDbBlockTableRecord
2
_U1
340
0
70
0
0
BLOCK_RECORD
5
2BE
100
AcDbSymbolTableRecord
100
AcDbBlockTableRecord
2
*D6
340
0
70
0
0
BLOCK_RECORD
5
2CA
100
AcDbSymbolTableRecord
100
AcDbBlockTableRecord
2
_U2
340
0
70
0
0
ENDTAB
0
ENDSEC
0
SECTION
2
BLOCKS
0
BLOCK
5
20
100
AcDbEntity
8
0
100
AcDbBlockBegin
2
*Model_Space
70
0
10
0
20
0
30
0
3
*Model_Space
0
ENDBLK
5
21
100
AcDbEntity
8
0
100
AcDbBlockEnd
0
BLOCK
5
1C
100
AcDbEntity
8
0
100
AcDbBlockBegin
2
*Paper_Space
70
0
10
0
20
0
30
0
3
*Paper_Space
0
ENDBLK
5
1D
100
AcDbEntity
8
0
100
AcDbBlockEnd
0
BLOCK
5
24
100
AcDbEntity
8
0
100
AcDbBlockBegin
2
*Paper_Space0
70
0
10
0
20
0
30
0
3
*Paper_Space0
0
ENDBLK
5
25
100
AcDbEntity
8
0
100
AcDbBlockEnd
0
BLOCK
5
27B
100
AcDbEntity
8
0
100
AcDbBlockBegin
2
_Closed
70
0
10
0
20
0
30
0
3
_Closed
0
LINE
5
27D
100
AcDbEntity
8
0
62
256
6
ByLayer
370
-2
48
1
60
0
100
AcDbLine
10
-1
20
0.166667
30
0
11
0
21
0
31
0
39
0
210
0
220
0
230
1
0
LINE
5
27E
100
AcDbEntity
8
0
62
256
6
ByLayer
370
-2
48
1
60
0
100
AcDbLine
10
0
20
0
30
0
11
-1
21
-0.166667
31
0
39
0
210
0
220
0
230
1
0
LINE
5
27F
100
AcDbEntity
8
0
62
256
6
ByLayer
370
-2
48
1
60
0
100
AcDbLine
10
-1
20
0.166667
30
0
11
-1
21
-0.166667
31
0
39
0
210
0
220
0
230
1
0
LINE
5
280
100
AcDbEntity
8
0
62
256
6
ByLayer
370
-2
48
1
60
0
100
AcDbLine
10
0
20
0
30
0
11
-1
21
0
31
0
39
0
210
0
220
0
230
1
0
ENDBLK
5
27C
100
AcDbEntity
8
0
100
AcDbBlockEnd
0
BLOCK
5
285
100
AcDbEntity
8
0
100
AcDbBlockBegin
2
*D2
70
1
10
0
20
0
30
0
3
*D2
0
LINE
5
287
100
AcDbEntity
8
0
62
256
6
ByLayer
370
-2
48
1
60
0
100
AcDbLine
10
-2
20
-12.5
30
0
11
-9.75
21
-12.5
31
0
39
0
210
0
220
0
230
1
0
LINE
5
288
100
AcDbEntity
8
0
62
256
6
ByLayer
370
-2
48
1
60
0
100
AcDbLine
10
-2
20
12.5
30
0
11
-9.75
21
12.5
31
0
39
0
210
0
220
0
230
1
0
LINE
5
289
100
AcDbEntity
8
0
62
256
6
ByLayer
370
-2
48
1
60
0
100
AcDbLine
10
-7.75
20
-9.325
30
0
11
-7.75
21
9.325
31
0
39
0
210
0
220
0
230
1
0
SOLID
5
28A
100
AcDbEntity
8
0
62
256
6
ByLayer
370
-1
48
1
60
0
100
AcDbTrace
10
-8.279167
20
-9.325
30
0
11
-7.220833
21
-9.325
31
0
12
-7.75
22
-12.5
32
0
13
-7.75
23
-12.5
33
0
39
0
210
0
220
0
230
1
0
SOLID
5
28B
100
AcDbEntity
8
0
62
256
6
ByLayer
370
-1
48
1
60
0
100
AcDbTrace
10
-7.220833
20
9.325
30
0
11
-8.279167
21
9.325
31
0
12
-7.75
22
12.5
32
0
13
-7.75
23
12.5
33
0
39
0
210
0
220
0
230
1
0
MTEXT
5
28C
100
AcDbEntity
8
0
62
256
6
ByLayer
370
18
48
1
60
0
100
AcDbMText
10
-19
20
0
30
0
210
0
220
0
230
1
1
\A1;25
40
4.5
41
0
44
1
50
90
71
5
72
5
7
iso_b_vert
0
POINT
5
28D
100
AcDbEntity
8
Defpoints
62
0
6
ByLayer
370
-1
48
1
60
0
100
AcDbPoint
10
0
20
-12.5
30
0
39
0
210
0
220
0
230
1
50
360
0
POINT
5
28E
100
AcDbEntity
8
Defpoints
62
0
6
ByLayer
370
-1
48
1
60
0
100
AcDbPoint
10
0
20
12.5
30
0
39
0
210
0
220
0
230
1
50
360
0
POINT
5
28F
100
AcDbEntity
8
Defpoints
62
0
6
ByLayer
370
-1
48
1
60
0
100
AcDbPoint
10
-7.75
20
12.5
30
0
39
0
210
0
220
0
230
1
50
360
0
ENDBLK
5
286
100
AcDbEntity
8
0
100
AcDbBlockEnd
0
BLOCK
5
29C
100
AcDbEntity
8
0
100
AcDbBlockBegin
2
_U0
70
0
10
0
20
0
30
0
3
_U0
0
MTEXT
5
292
100
AcDbEntity
8
SK2
62
256
6
ByLayer
370
18
48
1
60
0
100
AcDbMText
10
-8.636672
20
-4.669971
30
0
210
0
220
0
230
1
1
\W0.8879;%%c25
40
4.5
41
0
44
1.084337
50
90
71
7
72
5
7
iso_b_vert
0
LINE
5
293
100
AcDbEntity
8
SK2
62
256
6
ByLayer
370
13
48
1
60
0
100
AcDbLine
10
-2
20
-12.5
30
0
11
-9.75
21
-12.5
31
0
39
0
210
0
220
0
230
1
0
LINE
5
294
100
AcDbEntity
8
SK2
62
256
6
ByLayer
370
13
48
1
60
0
100
AcDbLine
10
-2
20
12.5
30
0
11
-9.75
21
12.5
31
0
39
0
210
0
220
0
230
1
0
LINE
5
295
100
AcDbEntity
8
SK2
62
256
6
ByLayer
370
13
48
1
60
0
100
AcDbLine
10
-7.75
20
-12.5
30
0
11
-7.75
21
12.5
31
0
39
0
210
0
220
0
230
1
0
LINE
5
296
100
AcDbEntity
8
SK2
62
256
6
ByLayer
370
13
48
1
60
0
100
AcDbLine
10
-7.75
20
-12.5
30
0
11
-8.167997
21
-9.325002
31
0
39
0
210
0
220
0
230
1
0
LINE
5
297
100
AcDbEntity
8
SK2
62
256
6
ByLayer
370
13
48
1
60
0
100
AcDbLine
10
-7.75
20
-12.5
30
0
11
-7.332003
21
-9.324998
31
0
39
0
210
0
220
0
230
1
0
LINE
5
298
100
AcDbEntity
8
SK2
62
256
6
ByLayer
370
13
48
1
60
0
100
AcDbLine
10
-8.167997
20
-9.325002
30
0
11
-7.332003
21
-9.324998
31
0
39
0
210
0
220
0
230
1
0
LINE
5
299
100
AcDbEntity
8
SK2
62
256
6
ByLayer
370
13
48
1
60
0
100
AcDbLine
10
-7.75
20
12.5
30
0
11
-7.332003
21
9.325002
31
0
39
0
210
0
220
0
230
1
0
LINE
5
29A
100
AcDbEntity
8
SK2
62
256
6
ByLayer
370
13
48
1
60
0
100
AcDbLine
10
-7.75
20
12.5
30
0
11
-8.167997
21
9.324998
31
0
39
0
210
0
220
0
230
1
0
LINE
5
29B
100
AcDbEntity
8
SK2
62
256
6
ByLayer
370
13
48
1
60
0
100
AcDbLine
10
-7.332003
20
9.325002
30
0
11
-8.167997
21
9.324998
31
0
39
0
210
0
220
0
230
1
0
ENDBLK
5
29D
100
AcDbEntity
8
0
100
AcDbBlockEnd
0
BLOCK
5
2A2
100
AcDbEntity
8
0
100
AcDbBlockBegin
2
*D4
70
1
10
0
20
0
30
0
3
*D4
0
LINE
5
2A4
100
AcDbEntity
8
0
62
256
6
ByLayer
370
-2
48
1
60
0
100
AcDbLine
10
29
20
19.9
30
0
11
46.329593
21
19.9
31
0
39
0
210
0
220
0
230
1
0
LINE
5
2A5
100
AcDbEntity
8
0
62
256
6
ByLayer
370
-2
48
1
60
0
100
AcDbLine
10
29
20
0
30
0
11
46.329593
21
0
31
0
39
0
210
0
220
0
230
1
0
LINE
5
2A6
100
AcDbEntity
8
0
62
256
6
ByLayer
370
-2
48
1
60
0
100
AcDbLine
10
44.329593
20
23.075
30
0
11
44.329593
21
26.25
31
0
39
0
210
0
220
0
230
1
0
LINE
5
2A7
100
AcDbEntity
8
0
62
256
6
ByLayer
370
-2
48
1
60
0
100
AcDbLine
10
44.329593
20
-3.175
30
0
11
44.329593
21
-6.35
31
0
39
0
210
0
220
0
230
1
0
SOLID
5
2A8
100
AcDbEntity
8
0
62
256
6
ByLayer
370
-1
48
1
60
0
100
AcDbTrace
10
43.800427
20
23.075
30
0
11
44.85876
21
23.075
31
0
12
44.329593
22
19.9
32
0
13
44.329593
23
19.9
33
0
39
0
210
0
220
0
230
1
0
SOLID
5
2A9
100
AcDbEntity
8
0
62
256
6
ByLayer
370
-1
48
1
60
0
100
AcDbTrace
10
44.85876
20
-3.175
30
0
11
43.800427
21
-3.175
31
0
12
44.329593
22
0
32
0
13
44.329593
23
0
33
0
39
0
210
0
220
0
230
1
0
MTEXT
5
2AA
100
AcDbEntity
8
0
62
256
6
ByLayer
370
18
48
1
60
0
100
AcDbMText
10
33.079593
20
9.95
30
0
210
0
220
0
230
1
1
\A1;19.9
40
4.5
41
0
44
1
50
90
71
5
72
5
7
iso_b_vert
0
POINT
5
2AB
100
AcDbEntity
8
Defpoints
62
0
6
ByLayer
370
-1
48
1
60
0
100
AcDbPoint
10
27
20
19.9
30
0
39
0
210
0
220
0
230
1
50
360
0
POINT
5
2AC
100
AcDbEntity
8
Defpoints
62
0
6
ByLayer
370
-1
48
1
60
0
100
AcDbPoint
10
27
20
0
30
0
39
0
210
0
220
0
230
1
50
360
0
POINT
5
2AD
100
AcDbEntity
8
Defpoints
62
0
6
ByLayer
370
-1
48
1
60
0
100
AcDbPoint
10
44.329593
20
0
30
0
39
0
210
0
220
0
230
1
50
360
0
ENDBLK
5
2A3
100
AcDbEntity
8
0
100
AcDbBlockEnd
0
BLOCK
5
2B9
100
AcDbEntity
8
0
100
AcDbBlockBegin
2
_U1
70
0
10
0
20
0
30
0
3
_U1
0
MTEXT
5
2AF
100
AcDbEntity
8
2
62
256
6
ByLayer
370
18
48
1
60
0
100
AcDbMText
10
43.442922
20
4.871816
30
0
210
0
220
0
230
1
1
\W0.7346;20.0
40
4.5
41
0
44
1.084337
50
90
71
7
72
5
7
iso_b_vert
0
LINE
5
2B0
100
AcDbEntity
8
2
62
256
6
ByLayer
370
13
48
1
60
0
100
AcDbLine
10
29
20
19.9
30
0
11
46.329593
21
19.9
31
0
39
0
210
0
220
0
230
1
0
LINE
5
2B1
100
AcDbEntity
8
2
62
256
6
ByLayer
370
13
48
1
60
0
100
AcDbLine
10
29
20
0
30
0
11
46.329593
21
0
31
0
39
0
210
0
220
0
230
1
0
LINE
5
2B2
100
AcDbEntity
8
2
62
256
6
ByLayer
370
13
48
1
60
0
100
AcDbLine
10
44.329593
20
31.15
30
0
11
44.329593
21
-11.25
31
0
39
0
210
0
220
0
230
1
0
LINE
5
2B3
100
AcDbEntity
8
2
62
256
6
ByLayer
370
13
48
1
60
0
100
AcDbLine
10
44.329593
20
19.9
30
0
11
43.911597
21
23.074998
31
0
39
0
210
0
220
0
230
1
0
LINE
5
2B4
100
AcDbEntity
8
2
62
256
6
ByLayer
370
13
48
1
60
0
100
AcDbLine
10
44.329593
20
19.9
30
0
11
44.74759
21
23.075002
31
0
39
0
210
0
220
0
230
1
0
LINE
5
2B5
100
AcDbEntity
8
2
62
256
6
ByLayer
370
13
48
1
60
0
100
AcDbLine
10
43.911597
20
23.074998
30
0
11
44.74759
21
23.075002
31
0
39
0
210
0
220
0
230
1
0
LINE
5
2B6
100
AcDbEntity
8
2
62
256
6
ByLayer
370
13
48
1
60
0
100
AcDbLine
10
44.329593
20
0
30
0
11
44.74759
21
-3.174998
31
0
39
0
210
0
220
0
230
1
0
LINE
5
2B7
100
AcDbEntity
8
2
62
256
6
ByLayer
370
13
48
1
60
0
100
AcDbLine
10
44.329593
20
0
30
0
11
43.911597
21
-3.175002
31
0
39
0
210
0
220
0
230
1
0
LINE
5
2B8
100
AcDbEntity
8
2
62
256
6
ByLayer
370
13
48
1
60
0
100
AcDbLine
10
44.74759
20
-3.174998
30
0
11
43.911597
21
-3.175002
31
0
39
0
210
0
220
0
230
1
0
ENDBLK
5
2BA
100
AcDbEntity
8
0
100
AcDbBlockEnd
0
BLOCK
5
2BF
100
AcDbEntity
8
0
100
AcDbBlockBegin
2
*D6
70
1
10
0
20
0
30
0
3
*D6
0
LINE
5
2C1
100
AcDbEntity
8
0
62
256
6
ByLayer
370
-2
48
1
60
0
100
AcDbLine
10
0
20
14.5
30
0
11
0
21
34.65
31
0
39
0
210
0
220
0
230
1
0
LINE
5
2C2
100
AcDbEntity
8
0
62
256
6
ByLayer
370
-2
48
1
60
0
100
AcDbLine
10
27
20
21.9
30
0
11
27
21
34.65
31
0
39
0
210
0
220
0
230
1
0
LINE
5
2C3
100
AcDbEntity
8
0
62
256
6
ByLayer
370
-2
48
1
60
0
100
AcDbLine
10
3.175
20
32.65
30
0
11
23.825
21
32.65
31
0
39
0
210
0
220
0
230
1
0
SOLID
5
2C4
100
AcDbEntity
8
0
62
256
6
ByLayer
370
-1
48
1
60
0
100
AcDbTrace
10
3.175
20
33.179167
30
0
11
3.175
21
32.120833
31
0
12
0
22
32.65
32
0
13
0
23
32.65
33
0
39
0
210
0
220
0
230
1
0
SOLID
5
2C5
100
AcDbEntity
8
0
62
256
6
ByLayer
370
-1
48
1
60
0
100
AcDbTrace
10
23.825
20
32.120833
30
0
11
23.825
21
33.179167
31
0
12
27
22
32.65
32
0
13
27
23
32.65
33
0
39
0
210
0
220
0
230
1
0
MTEXT
5
2C6
100
AcDbEntity
8
0
62
256
6
ByLayer
370
18
48
1
60
0
100
AcDbMText
10
13.5
20
43.9
30
0
210
0
220
0
230
1
1
\A1;27
40
4.5
41
0
44
1
50
0
71
5
72
5
7
iso_b_vert
0
POINT
5
2C7
100
AcDbEntity
8
Defpoints
62
0
6
ByLayer
370
-1
48
1
60
0
100
AcDbPoint
10
0
20
12.5
30
0
39
0
210
0
220
0
230
1
50
360
0
POINT
5
2C8
100
AcDbEntity
8
Defpoints
62
0
6
ByLayer
370
-1
48
1
60
0
100
AcDbPoint
10
27
20
19.9
30
0
39
0
210
0
220
0
230
1
50
360
0
POINT
5
2C9
100
AcDbEntity
8
Defpoints
62
0
6
ByLayer
370
-1
48
1
60
0
100
AcDbPoint
10
27
20
32.65
30
0
39
0
210
0
220
0
230
1
50
360
0
ENDBLK
5
2C0
100
AcDbEntity
8
0
100
AcDbBlockEnd
0
BLOCK
5
2D5
100
AcDbEntity
8
0
100
AcDbBlockBegin
2
_U2
70
0
10
0
20
0
30
0
3
_U2
0
MTEXT
5
2CB
100
AcDbEntity
8
2
62
256
6
ByLayer
370
18
48
1
60
0
100
AcDbMText
10
8.457816
20
33.977672
30
0
210
0
220
0
230
1
1
\W0.7346;27.0
40
4.5
41
0
44
1.084337
50
0
71
7
72
5
7
iso_b_vert
0
LINE
5
2CC
100
AcDbEntity
8
2
62
256
6
ByLayer
370
13
48
1
60
0
100
AcDbLine
10
0
20
14.5
30
0
11
0
21
34.65
31
0
39
0
210
0
220
0
230
1
0
LINE
5
2CD
100
AcDbEntity
8
2
62
256
6
ByLayer
370
13
48
1
60
0
100
AcDbLine
10
27
20
21.9
30
0
11
27
21
34.65
31
0
39
0
210
0
220
0
230
1
0
LINE
5
2CE
100
AcDbEntity
8
2
62
256
6
ByLayer
370
13
48
1
60
0
100
AcDbLine
10
0
20
32.65
30
0
11
27
21
32.65
31
0
39
0
210
0
220
0
230
1
0
LINE
5
2CF
100
AcDbEntity
8
2
62
256
6
ByLayer
370
13
48
1
60
0
100
AcDbLine
10
0
20
32.65
30
0
11
3.174998
21
33.067997
31
0
39
0
210
0
220
0
230
1
0
LINE
5
2D0
100
AcDbEntity
8
2
62
256
6
ByLayer
370
13
48
1
60
0
100
AcDbLine
10
0
20
32.65
30
0
11
3.175002
21
32.232003
31
0
39
0
210
0
220
0
230
1
0
LINE
5
2D1
100
AcDbEntity
8
2
62
256
6
ByLayer
370
13
48
1
60
0
100
AcDbLine
10
3.174998
20
33.067997
30
0
11
3.175002
21
32.232003
31
0
39
0
210
0
220
0
230
1
0
LINE
5
2D2
100
AcDbEntity
8
2
62
256
6
ByLayer
370
13
48
1
60
0
100
AcDbLine
10
27
20
32.65
30
0
11
23.825002
21
32.232003
31
0
39
0
210
0
220
0
230
1
0
LINE
5
2D3
100
AcDbEntity
8
2
62
256
6
ByLayer
370
13
48
1
60
0
100
AcDbLine
10
27
20
32.65
30
0
11
23.824998
21
33.067997
31
0
39
0
210
0
220
0
230
1
0
LINE
5
2D4
100
AcDbEntity
8
2
62
256
6
ByLayer
370
13
48
1
60
0
100
AcDbLine
10
23.825002
20
32.232003
30
0
11
23.824998
21
33.067997
31
0
39
0
210
0
220
0
230
1
0
ENDBLK
5
2D6
100
AcDbEntity
8
0
100
AcDbBlockEnd
0
ENDSEC
0
SECTION
2
ENTITIES
0
ARC
5
17A
100
AcDbEntity
8
1
62
256
6
ByLayer
370
18
48
1
60
0
100
AcDbCircle
39
0
10
20.274623
20
-2.018583
30
0
40
4.23141653000165
210
0
220
0
230
1
100
AcDbArc
50
343.977943
51
355
0
ARC
5
17B
100
AcDbEntity
8
1
62
256
6
ByLayer
370
18
48
1
60
0
100
AcDbCircle
39
0
10
12.856248
20
-14.25
30
0
40
7.99999999991418
210
0
220
0
230
1
100
AcDbArc
50
135.933085
51
146.04313
0
ARC
5
17C
100
AcDbEntity
8
2
62
256
6
ByLayer
370
13
48
1
60
0
100
AcDbCircle
39
0
10
25.258976
20
0
30
0
40
28.5416305674427
210
0
220
0
230
1
100
AcDbArc
50
265
51
0
0
ELLIPSE
5
17D
100
AcDbEntity
8
1
62
256
6
ByLayer
370
18
48
1
60
0
100
AcDbEllipse
10
22.12704
20
9.270996
30
0
11
2.19162833580183
21
-0.191742634044881
31
0
210
0
220
0
230
1
40
0.996195
41
0
42
6.28318530717959
0
ELLIPSE
5
17E
100
AcDbEntity
8
1
62
256
6
ByLayer
370
18
48
1
60
0
100
AcDbEllipse
10
22.121569
20
9.208457
30
0
11
2.19162833580184
21
-0.191742634044882
31
0
210
0
220
0
230
1
40
0.996195
41
3.14149543158597
42
0
0
ELLIPSE
5
17F
100
AcDbEntity
8
1
62
256
6
ByLayer
370
18
48
1
60
0
100
AcDbEllipse
10
23.266585
20
8.704153
30
0
11
0.126337782677239
21
0.303406460478069
31
0
210
0
220
0
230
1
40
0.509774
41
-0.979353028292697
42
0.212323239893408
0
ELLIPSE
5
180
100
AcDbEntity
8
1
62
256
6
ByLayer
370
18
48
1
60
0
100
AcDbEllipse
10
21.362525
20
10.159942
30
0
11
0.261838595633848
21
0.199579634994783
31
0
210
0
220
0
230
1
40
0.508012
41
-1.5681956986751
42
-0.314476936635896
0
ELLIPSE
5
181
100
AcDbEntity
8
1
62
256
6
ByLayer
370
18
48
1
60
0
100
AcDbEllipse
10
23.350195
20
9.339163
30
0
11
0.0433387974569926
21
-0.325733597695808
31
0
210
0
220
0
230
1
40
0.509945
41
-1.57190673661002
42
-0.318187974573347
0
ELLIPSE
5
182
100
AcDbEntity
8
1
62
256
6
ByLayer
370
18
48
1
60
0
100
AcDbEllipse
10
21.362525
20
10.159942
30
0
11
0.261838595633853
21
0.199579634995232
31
0
210
0
220
0
230
1
40
0.508012
41
-2.82191446071578
42
-1.56819569867737
0
ELLIPSE
5
183
100
AcDbEntity
8
1
62
256
6
ByLayer
370
18
48
1
60
0
100
AcDbEllipse
10
20.971235
20
9.651984
30
0
11
0.126337782677245
21
0.30340646047807
31
0
210
0
220
0
230
1
40
0.509774
41
-0.209310861251412
42
2.16224050071094
0
ELLIPSE
5
184
100
AcDbEntity
8
1
62
256
6
ByLayer
370
18
48
1
60
0
100
AcDbEllipse
10
22.129165
20
9.295281
30
0
11
1.40433566589993
21
-0.122863450551395
31
0
210
0
220
0
230
1
40
0.996195
41
1.78896248329421
42
2.83616003449079
0
ELLIPSE
5
185
100
AcDbEntity
8
1
62
256
6
ByLayer
370
18
48
1
60
0
100
AcDbEllipse
10
22.129165
20
9.295281
30
0
11
1.40433566589993
21
-0.122863450551395
31
0
210
0
220
0
230
1
40
0.996195
41
2.83616003449079
42
-2.39982772149219
0
ELLIPSE
5
186
100
AcDbEntity
8
1
62
256
6
ByLayer
370
18
48
1
60
0
100
AcDbEllipse
10
22.129165
20
9.295281
30
0
11
1.40433566589993
21
-0.122863450551395
31
0
210
0
220
0
230
1
40
0.996195
41
-0.305432619099011
42
0.741764932097594
0
ELLIPSE
5
187
100
AcDbEntity
8
1
62
256
6
ByLayer
370
18
48
1
60
0
100
AcDbEllipse
10
22.129165
20
9.295281
30
0
11
1.40433566589993
21
-0.122863450551395
31
0
210
0
220
0
230
1
40
0.996195
41
-1.35263017029558
42
-0.305432619099011
0
ELLIPSE
5
188
100
AcDbEntity
8
1
62
256
6
ByLayer
370
18
48
1
60
0
100
AcDbEllipse
10
22.129165
20
9.295281
30
0
11
1.40433566589993
21
-0.122863450551395
31
0
210
0
220
0
230
1
40
0.996195
41
-2.39982772149219
42
-1.35263017029558
0
ELLIPSE
5
189
100
AcDbEntity
8
1
62
256
6
ByLayer
370
18
48
1
60
0
100
AcDbEllipse
10
22.129165
20
9.295281
30
0
11
1.40433566589993
21
-0.122863450551395
31
0
210
0
220
0
230
1
40
0.996195
41
0.741764932097594
42
1.78896248329421
0
ELLIPSE
5
18A
100
AcDbEntity
8
1
62
256
6
ByLayer
370
18
48
1
60
0
100
AcDbEllipse
10
22.59381
20
10.321037
30
0
11
0.304823528832211
21
-0.125603049471633
31
0
210
0
220
0
230
1
40
0.5066
41
-2.82600540349873
42
-1.57228664145819
0
ELLIPSE
5
18B
100
AcDbEntity
8
1
62
256
6
ByLayer
370
18
48
1
60
0
100
AcDbEllipse
10
21.956381
20
10.404945
30
0
11
0.326978712316904
21
0.0425952354663172
31
0
210
0
220
0
230
1
40
0.506433
41
-0.0124597830621448
42
2.87069019636846
0
ELLIPSE
5
18C
100
AcDbEntity
8
1
62
256
6
ByLayer
370
18
48
1
60
0
100
AcDbEllipse
10
22.11891
20
9.178069
30
0
11
-1.07031158362977
21
0.0936401300080829
31
0
210
0
220
0
230
1
40
0.996195
41
-0.829031394697296
42
-1.05142979802507E-05
0
ELLIPSE
5
18D
100
AcDbEntity
8
1
62
256
6
ByLayer
370
18
48
1
60
0
100
AcDbEllipse
10
22.11891
20
9.178069
30
0
11
-1.07031158362977
21
0.0936401300080829
31
0
210
0
220
0
230
1
40
0.996195
41
2.54600477141905
42
-2.9234264970905
0
ELLIPSE
5
18E
100
AcDbEntity
8
1
62
256
6
ByLayer
370
18
48
1
60
0
100
AcDbEllipse
10
22.11891
20
9.178069
30
0
11
-1.07031158362977
21
0.0936401300080829
31
0
210
0
220
0
230
1
40
0.996195
41
1.47135057140964
42
2.14900165735402
0
ELLIPSE
5
18F
100
AcDbEntity
8
1
62
256
6
ByLayer
370
18
48
1
60
0
100
AcDbEllipse
10
22.11891
20
9.178069
30
0
11
1.07031158362977
21
-0.0936401300081003
31
0
210
0
220
0
230
1
40
0.996195
41
1.2653637076959
42
2.3125612588925
0
ELLIPSE
5
190
100
AcDbEntity
8
1
62
256
6
ByLayer
370
18
48
1
60
0
100
AcDbEllipse
10
22.11891
20
9.178069
30
0
11
-1.07031158362977
21
0.0936401300080829
31
0
210
0
220
0
230
1
40
0.996195
41
-2.9234264970905
42
-1.87622894589391
0
ELLIPSE
5
191
100
AcDbEntity
8
1
62
256
6
ByLayer
370
18
48
1
60
0
100
AcDbEllipse
10
22.11891
20
9.178069
30
0
11
-1.07031158362977
21
0.0936401300080829
31
0
210
0
220
0
230
1
40
0.996195
41
0.274976326332687
42
0.999048415407928
0
ELLIPSE
5
192
100
AcDbEntity
8
1
62
256
6
ByLayer
370
18
48
1
60
0
100
AcDbEllipse
10
22.113783
20
9.119462
30
0
11
-1.07031158362978
21
0.0936401300080838
31
0
210
0
220
0
230
1
40
0.996195
41
-3.11420052726656
42
-0.0273891943227004
0
ELLIPSE
5
193
100
AcDbEntity
8
1
62
256
6
ByLayer
370
18
48
1
60
0
100
AcDbEllipse
10
23.350195
20
9.339163
30
0
11
0.0433387974570809
21
-0.32573359769431
31
0
210
0
220
0
230
1
40
0.509945
41
-1.99509543722336
42
-1.5719067366119
0
ELLIPSE
5
194
100
AcDbEntity
8
1
62
256
6
ByLayer
370
18
48
1
60
0
100
AcDbEllipse
10
23.104056
20
9.93103
30
0
11
0.201195568598765
21
-0.260460774849707
31
0
210
0
220
0
230
1
40
0.508349
41
0.72693574344238
42
-2.93337916451999
0
ELLIPSE
5
195
100
AcDbEntity
8
1
62
256
6
ByLayer
370
18
48
1
60
0
100
AcDbEllipse
10
22.59381
20
10.321037
30
0
11
0.304823528831943
21
-0.125603049470868
31
0
210
0
220
0
230
1
40
0.5066
41
-1.57228664146222
42
-0.318567879419989
0
ELLIPSE
5
196
100
AcDbEntity
8
1
62
256
6
ByLayer
370
18
48
1
60
0
100
AcDbEllipse
10
20.887625
20
9.016974
30
0
11
0.0433387974575659
21
-0.325733597694928
31
0
210
0
220
0
230
1
40
0.509945
41
0.315967154936141
42
1.14649796965326
0
ELLIPSE
5
197
100
AcDbEntity
8
1
62
256
6
ByLayer
370
18
48
1
60
0
100
AcDbEllipse
10
21.133764
20
8.425107
30
0
11
0.201195568598762
21
-0.260460774849704
31
0
210
0
220
0
230
1
40
0.508349
41
2.92817204151475
42
-2.66007242908973
0
ELLIPSE
5
198
100
AcDbEntity
8
1
62
256
6
ByLayer
370
18
48
1
60
0
100
AcDbEllipse
10
24.850729
20
8.173242
30
0
11
-1.18646788542727
21
0.10380248961246
31
0
210
0
220
0
230
1
40
0.996195
41
2.53072741539178
42
3.14159265358979
0
ELLIPSE
5
199
100
AcDbEntity
8
1
62
256
6
ByLayer
370
18
48
1
60
0
100
AcDbEllipse
10
19.407903
20
10.420776
30
0
11
-1.18646788542727
21
0.10380248961246
31
0
210
0
220
0
230
1
40
0.996195
41
-0.610865238198014
42
-4.49154078978383E-15
0
ELLIPSE
5
19A
100
AcDbEntity
8
1
62
256
6
ByLayer
370
18
48
1
60
0
100
AcDbEllipse
10
22.899933
20
3.872743
30
0
11
0.202103774480527
21
0.241099681331303
31
0
210
0
220
0
230
1
40
0.031084
41
2.02096943798848
42
2.54456821318935
0
ELLIPSE
5
19B
100
AcDbEntity
8
1
62
256
6
ByLayer
370
18
48
1
60
0
100
AcDbEllipse
10
24.741802
20
6.059824
30
0
11
0.202103774341424
21
0.241099681181564
31
0
210
0
220
0
230
1
40
0.031084
41
0.450173110550377
42
0.973771885997594
0
ELLIPSE
5
19C
100
AcDbEntity
8
1
62
256
6
ByLayer
370
18
48
1
60
0
100
AcDbEllipse
10
23.8204
20
4.964762
30
0
11
0.673679247527596
21
0.803665603592949
31
0
210
0
220
0
230
1
40
0.031084
41
0.973771886205376
42
2.02096943739294
0
ELLIPSE
5
19D
100
AcDbEntity
8
1
62
256
6
ByLayer
370
18
48
1
60
0
100
AcDbEllipse
10
18.052677
20
-0.514464
30
0
11
0.790978590284844
21
-0.0692016597416526
31
0
210
0
220
0
230
1
40
0.996195
41
3.14159265358979
42
-0.610865238198006
0
ELLIPSE
5
19E
100
AcDbEntity
8
1
62
256
6
ByLayer
370
18
48
1
60
0
100
AcDbEllipse
10
22.549014
20
3.461199
30
0
11
0.138104245882617
21
0.164751448895539
31
0
210
0
220
0
230
1
40
0.031084
41
-0.893363854106571
42
-0.597024440425041
0
ELLIPSE
5
19F
100
AcDbEntity
8
1
62
256
6
ByLayer
370
18
48
1
60
0
100
AcDbEllipse
10
25.097692
20
6.487562
30
0
11
0.138104245736323
21
0.164751448728048
31
0
210
0
220
0
230
1
40
0.031084
41
-2.69141954298303
42
-1.644221991753
0
ELLIPSE
5
1A0
100
AcDbEntity
8
1
62
256
6
ByLayer
370
18
48
1
60
0
100
AcDbEllipse
10
22.122812
20
9.222664
30
0
11
-2.2507535047153
21
0.196915416053829
31
0
210
0
220
0
230
1
40
0.996195
41
0.0875982991365975
42
0.926157117324457
0
ELLIPSE
5
1A1
100
AcDbEntity
8
1
62
256
6
ByLayer
370
18
48
1
60
0
100
AcDbEllipse
10
22.122812
20
9.222664
30
0
11
-2.2507535047153
21
0.196915416053829
31
0
210
0
220
0
230
1
40
0.996195
41
2.21558408311591
42
0
0
ELLIPSE
5
1A2
100
AcDbEntity
8
1
62
256
6
ByLayer
370
18
48
1
60
0
100
AcDbEllipse
10
22.122812
20
9.222664
30
0
11
-2.2507535047153
21
0.196915416053829
31
0
210
0
220
0
230
1
40
0.996195
41
0
42
0.087598252106497
0
ELLIPSE
5
1A3
100
AcDbEntity
8
1
62
256
6
ByLayer
370
18
48
1
60
0
100
AcDbEllipse
10
17.441101
20
-2.22657
30
0
11
-1.39467257732844
21
0.12201803984672
31
0
210
0
220
0
230
1
40
0.996195
41
-0.305432619099008
42
0.288868213737608
0
ELLIPSE
5
1A4
100
AcDbEntity
8
1
62
256
6
ByLayer
370
18
48
1
60
0
100
AcDbEllipse
10
17.535383
20
-1.779716
30
0
11
-1.59391151694679
21
0.139449188396252
31
0
210
0
220
0
230
1
40
0.996195
41
2.20682660735303
42
2.8361600344908
0
ELLIPSE
5
1A5
100
AcDbEntity
8
1
62
256
6
ByLayer
370
18
48
1
60
0
100
AcDbEllipse
10
11.226798
20
11.41443
30
0
11
0.15283476858614
21
-0.153241073855017
31
0
210
0
220
0
230
1
40
0.061711
41
-3.08971742810302
42
-1.51892110130704
0
ELLIPSE
5
1A6
100
AcDbEntity
8
1
62
256
6
ByLayer
370
18
48
1
60
0
100
AcDbEllipse
10
-317.422747
20
-5.656854
30
0
11
493.658628954353
21
-0.32561831462243
31
0
210
0
220
0
230
1
40
0.007568
41
0.827453831640868
42
0.855822422478652
0
ELLIPSE
5
1A7
100
AcDbEntity
8
1
62
256
6
ByLayer
370
18
48
1
60
0
100
AcDbEllipse
10
17.44262
20
-2.209205
30
0
11
1.59391151694679
21
-0.139449188396277
31
0
210
0
220
0
230
1
40
0.996195
41
2.83616003449079
42
2.99895829092903
0
ELLIPSE
5
1A8
100
AcDbEntity
8
1
62
256
6
ByLayer
370
18
48
1
60
0
100
AcDbEllipse
10
17.48212
20
-1.757722
30
0
11
-1.59391151694679
21
0.139449188396252
31
0
210
0
220
0
230
1
40
0.996195
41
-0.305432619098986
42
1.12081704831296
0
ELLIPSE
5
1A9
100
AcDbEntity
8
1
62
256
6
ByLayer
370
18
48
1
60
0
100
AcDbEllipse
10
23.309617
20
-5.65636
30
0
11
9.05989682837393
21
-3.73836064561548
31
0
210
0
220
0
230
1
40
0.031815
41
-2.34826735363874
42
-2.33997062671929
0
ELLIPSE
5
1AA
100
AcDbEntity
8
1
62
256
6
ByLayer
370
18
48
1
60
0
100
AcDbEllipse
10
22.934395
20
0
30
0
11
12.4950352413818
21
-12.4860209809489
31
0
210
0
220
0
230
1
40
0.047299
41
2.96750527599846
42
3.09429863527858
0
ELLIPSE
5
1AB
100
AcDbEntity
8
1
62
256
6
ByLayer
370
18
48
1
60
0
100
AcDbEllipse
10
359.558939
20
0.008079
30
0
11
1644.96795555561
21
-1.08333106610499
31
0
210
0
220
0
230
1
40
0.007565
41
1.78448170069273
42
1.78728788178838
0
ELLIPSE
5
1AC
100
AcDbEntity
8
1
62
256
6
ByLayer
370
18
48
1
60
0
100
AcDbEllipse
10
17.231447
20
0.930024
30
0
11
0.196529261507303
21
-0.0482044732017208
31
0
210
0
220
0
230
1
40
0.085139
41
-3.12844151286987
42
-1.55764518607508
0
ELLIPSE
5
1AD
100
AcDbEntity
8
1
62
256
6
ByLayer
370
18
48
1
60
0
100
AcDbEllipse
10
12.636741
20
7.313952
30
0
11
-3.18782303389359
21
0.278898376792502
31
0
210
0
220
0
230
1
40
0.996195
41
-0.305432619099008
42
1.26536370769589
0
ELLIPSE
5
1AE
100
AcDbEntity
8
1
62
256
6
ByLayer
370
18
48
1
60
0
100
AcDbEllipse
10
12.601041
20
6.905889
30
0
11
3.18782303389358
21
-0.278898376792555
31
0
210
0
220
0
230
1
40
0.996195
41
2.83616003449079
42
3.07730182641058
0
ELLIPSE
5
1AF
100
AcDbEntity
8
1
62
256
6
ByLayer
370
18
48
1
60
0
100
AcDbEllipse
10
15.090497
20
6.905131
30
0
11
0.182615358465266
21
-0.0816565205524998
31
0
210
0
220
0
230
1
40
0.658009
41
-1.52693109595475
42
0.043865230839713
0
ELLIPSE
5
1B0
100
AcDbEntity
8
1
62
256
6
ByLayer
370
18
48
1
60
0
100
AcDbEllipse
10
12.64054
20
7.357372
30
0
11
-3.68592038293946
21
0.322476248166332
31
0
210
0
220
0
230
1
40
0.996195
41
1.2601890628002
42
1.26536370769591
0
ELLIPSE
5
1B1
100
AcDbEntity
8
1
62
256
6
ByLayer
370
18
48
1
60
0
100
AcDbEllipse
10
15.604823
20
12.832659
30
0
11
4.09079661666597
21
-0.971921323284476
31
0
210
0
220
0
230
1
40
0.946099
41
-1.23142407016451
42
-0.90891792210268
0
ELLIPSE
5
1B2
100
AcDbEntity
8
1
62
256
6
ByLayer
370
18
48
1
60
0
100
AcDbEllipse
10
-446.738648
20
5.656855
30
0
11
493.658248019579
21
-0.325619219285215
31
0
210
0
220
0
230
1
40
0.007568
41
0.394591449890827
42
0.40891115425326
0
ELLIPSE
5
1B3
100
AcDbEntity
8
1
62
256
6
ByLayer
370
18
48
1
60
0
100
AcDbEllipse
10
15.614205
20
12.939892
30
0
11
4.18401773198532
21
-0.366054119540228
31
0
210
0
220
0
230
1
40
0.996195
41
-2.26892802759262
42
-1.42333819992238
0
ELLIPSE
5
1B4
100
AcDbEntity
8
1
62
256
6
ByLayer
370
18
48
1
60
0
100
AcDbEllipse
10
12.599521
20
6.888524
30
0
11
-2.98858409427524
21
0.261467228242972
31
0
210
0
220
0
230
1
40
0.996195
41
-0.305432619099008
42
0.423171506467367
0
ELLIPSE
5
1B5
100
AcDbEntity
8
1
62
256
6
ByLayer
370
18
48
1
60
0
100
AcDbEllipse
10
15.579936
20
12.548201
30
0
11
4.08595557438984
21
-1.03693428354946
31
0
210
0
220
0
230
1
40
0.845976
41
-0.91038339997831
42
-0.837597766707893
0
ELLIPSE
5
1B6
100
AcDbEntity
8
1
62
256
6
ByLayer
370
18
48
1
60
0
100
AcDbEllipse
10
-446.739014
20
5.656854
30
0
11
493.6586151125
21
-0.325618372425862
31
0
210
0
220
0
230
1
40
0.007568
41
-0.408901023238261
42
-0.382695612349574
0
ELLIPSE
5
1B7
100
AcDbEntity
8
1
62
256
6
ByLayer
370
18
48
1
60
0
100
AcDbEllipse
10
5.000144
20
0
30
0
11
0.00824502917027989
21
12.4999999998445
31
0
210
0
220
0
230
1
40
0.007568
41
-2.73778356726393
42
-0.229926980664234
0
ELLIPSE
5
1B8
100
AcDbEntity
8
1
62
256
6
ByLayer
370
18
48
1
60
0
100
AcDbEllipse
10
-317.422354
20
-5.656851
30
0
11
493.658207074554
21
-0.325620204849725
31
0
210
0
220
0
230
1
40
0.007568
41
0.806117311440037
42
0.822748014174457
0
ELLIPSE
5
1B9
100
AcDbEntity
8
1
62
256
6
ByLayer
370
18
48
1
60
0
100
AcDbEllipse
10
15.613977
20
12.937288
30
0
11
4.18401773198532
21
-0.366054119540228
31
0
210
0
220
0
230
1
40
0.996195
41
-0.974361609754268
42
-0.838567374102628
0
ELLIPSE
5
1BA
100
AcDbEntity
8
1
62
256
6
ByLayer
370
18
48
1
60
0
100
AcDbEllipse
10
16.149049
20
-1.675044
30
0
11
0.184691979959788
21
-0.0767389896892931
31
0
210
0
220
0
230
1
40
0.083122
41
-3.11529037214945
42
-1.54449404535453
0
ELLIPSE
5
1BB
100
AcDbEntity
8
1
62
256
6
ByLayer
370
18
48
1
60
0
100
AcDbEllipse
10
17.301475
20
1.730444
30
0
11
0.211850974143548
21
0.128712597930921
31
0
210
0
220
0
230
1
40
0.056735
41
3.09996935989425
42
-1.61241962049054
0
ELLIPSE
5
1BC
100
AcDbEntity
8
1
62
256
6
ByLayer
370
18
48
1
60
0
100
AcDbEllipse
10
19.871853
20
-0.160292
30
0
11
0.172841049510898
21
-0.105224259244852
31
0
210
0
220
0
230
1
40
0.077261
41
-1.53257549734325
42
-1.23748777283069
0
ELLIPSE
5
1BD
100
AcDbEntity
8
1
62
256
6
ByLayer
370
18
48
1
60
0
100
AcDbEllipse
10
12.64054
20
7.357364
30
0
11
3.68592038293945
21
-0.322476248166391
31
0
210
0
220
0
230
1
40
0.996195
41
2.83616003449079
42
3.14159107831879
0
ELLIPSE
5
1BE
100
AcDbEntity
8
1
62
256
6
ByLayer
370
18
48
1
60
0
100
AcDbEllipse
10
9.829103
20
8.05052
30
0
11
0.184691979959788
21
-0.0767389896892931
31
0
210
0
220
0
230
1
40
0.083122
41
-3.1152903721493
42
-1.54449404535453
0
ELLIPSE
5
1BF
100
AcDbEntity
8
1
62
256
6
ByLayer
370
18
48
1
60
0
100
AcDbEllipse
10
12.64054
20
7.357372
30
0
11
-3.68592038293946
21
0.322476248166332
31
0
210
0
220
0
230
1
40
0.996195
41
-0.30543261909899
42
0.241470628524497
0
ELLIPSE
5
1C0
100
AcDbEntity
8
1
62
256
6
ByLayer
370
18
48
1
60
0
100
AcDbEllipse
10
26.205955
20
19.108482
30
0
11
0.790978590284844
21
-0.0692016597416526
31
0
210
0
220
0
230
1
40
0.996195
41
0
42
2.53072741539179
0
ELLIPSE
5
1C1
100
AcDbEntity
8
1
62
256
6
ByLayer
370
18
48
1
60
0
100
AcDbEllipse
10
22.129316
20
9.297009
30
0
11
-2.31040218282589
21
0.202133999182812
31
0
210
0
220
0
230
1
40
0.996195
41
0
42
6.28318530717959
0
ELLIPSE
5
1C2
100
AcDbEntity
8
1
62
256
6
ByLayer
370
18
48
1
60
0
100
AcDbEllipse
10
22.129165
20
9.295281
30
0
11
1.49429204713762
21
-0.130733614121512
31
0
210
0
220
0
230
1
40
0.996195
41
0
42
6.28318530717959
0
POINT
5
70
100
AcDbEntity
8
81
62
256
6
ByLayer
370
18
48
1
60
0
100
AcDbPoint
10
27
20
19.9
30
0
39
0
210
0
220
0
230
1
50
360
0
POINT
5
72
100
AcDbEntity
8
80
62
256
6
ByLayer
370
18
48
1
60
0
100
AcDbPoint
10
0
20
0
30
0
39
0
210
0
220
0
230
1
50
360
0
POINT
5
74
100
AcDbEntity
8
2
62
256
6
ByLayer
370
18
48
1
60
0
100
AcDbPoint
10
26.780827
20
19.20813
30
0
39
0
210
0
220
0
230
1
50
360
0
POINT
5
76
100
AcDbEntity
8
2
62
256
6
ByLayer
370
13
48
1
60
0
100
AcDbPoint
10
22.129316
20
9.297009
30
0
39
0
210
0
220
0
230
1
50
360
0
POINT
5
77
100
AcDbEntity
8
2
62
256
6
ByLayer
370
18
48
1
60
0
100
AcDbPoint
10
27
20
19.9
30
0
39
0
210
0
220
0
230
1
50
360
0
POINT
5
78
100
AcDbEntity
8
1
62
256
6
ByLayer
370
18
48
1
60
1
100
AcDbPoint
10
0
20
-12.5
30
0
39
0
210
0
220
0
230
1
50
360
0
POINT
5
7A
100
AcDbEntity
8
1
62
256
6
ByLayer
370
18
48
1
60
1
100
AcDbPoint
10
0
20
12.5
30
0
39
0
210
0
220
0
230
1
50
360
0
POINT
5
7B
100
AcDbEntity
8
1
62
256
6
ByLayer
370
18
48
1
60
1
100
AcDbPoint
10
27
20
19.9
30
0
39
0
210
0
220
0
230
1
50
360
0
POINT
5
7C
100
AcDbEntity
8
1
62
256
6
ByLayer
370
18
48
1
60
1
100
AcDbPoint
10
27
20
0
30
0
39
0
210
0
220
0
230
1
50
360
0
POINT
5
7D
100
AcDbEntity
8
1
62
256
6
ByLayer
370
18
48
1
60
1
100
AcDbPoint
10
0
20
12.5
30
0
39
0
210
0
220
0
230
1
50
360
0
POINT
5
7E
100
AcDbEntity
8
1
62
256
6
ByLayer
370
18
48
1
60
1
100
AcDbPoint
10
27
20
19.9
30
0
39
0
210
0
220
0
230
1
50
360
0
SPLINE
5
1C3
100
AcDbEntity
8
1
62
256
6
ByLayer
370
18
48
1
60
0
100
AcDbSpline
70
4
71
3
72
26
73
22
40
0
40
0
40
0
40
0
40
0.0960907153589842
40
0.0960907153589842
40
0.185424840422337
40
0.185424840422337
40
0.26822621827141
40
0.26822621827141
40
0.405006282864226
40
0.405006282864226
40
0.518657521663972
40
0.518657521663972
40
0.631966610596838
40
0.631966610596838
40
0.745131701712892
40
0.745131701712892
40
0.858230928399233
40
0.858230928399233
40
0.971301160434138
40
0.971301160434138
40
1
40
1
40
1
40
1
41
1
10
20.8898798067269
20
9.45099415211521
30
0
41
1
10
20.8774190281824
20
9.45154666079986
30
0
41
1
10
20.8647863949691
20
9.45454501528209
30
0
41
1
10
20.8425901804761
20
9.46544698702741
30
0
41
1
10
20.8326015650761
20
9.47315042278478
30
0
41
1
10
20.8163749837698
20
9.49106936658782
30
0
41
1
10
20.8097079917816
20
9.50122473544047
30
0
41
1
10
20.7954275315278
20
9.52978599523624
30
0
41
1
10
20.789654488682
20
9.54970330433613
30
0
41
1
10
20.7832856096443
20
9.58656461091024
30
0
41
1
10
20.7819244995094
20
9.60375131263703
30
0
41
1
10
20.7815034001615
20
9.63800468878705
30
0
41
1
10
20.7824388218962
20
9.65518199570266
30
0
41
1
10
20.7861075124134
20
9.68924658031622
30
0
41
1
10
20.7888477365937
20
9.70619651085494
30
0
41
1
10
20.7958348586711
20
9.73970667870253
30
0
41
1
10
20.8000908894129
20
9.75630877131653
30
0
41
1
10
20.8099397808428
20
9.78904339344263
30
0
41
1
10
20.8155426271442
20
9.80520836119646
30
0
41
1
10
20.823348943896
20
9.82512887384976
30
0
41
1
10
20.8249700073741
20
9.82914494564864
30
0
41
1
10
20.8266311768362
20
9.83314297426821
30
0
0
SPLINE
5
1C4
100
AcDbEntity
8
1
62
256
6
ByLayer
370
18
48
1
60
0
100
AcDbSpline
70
4
71
3
72
8
73
4
40
0
40
0
40
0
40
0
40
1
40
1
40
1
40
1
41
1
10
21.1365053165294
20
10.0445614364701
30
0
41
1
10
21.1427631096316
20
10.0420052924101
30
0
41
1
10
21.1490220680293
20
10.039448932029
30
0
41
1
10
21.1552822458457
20
10.0368923457758
30
0
0
SPLINE
5
1C5
100
AcDbEntity
8
1
62
256
6
ByLayer
370
18
48
1
60
0
100
AcDbSpline
70
4
71
3
72
26
73
22
40
0
40
0
40
0
40
0
40
0.192635434265245
40
0.192635434265245
40
0.302770898699823
40
0.302770898699823
40
0.412976465183187
40
0.412976465183187
40
0.523333561905856
40
0.523333561905856
40
0.619800125856668
40
0.619800125856668
40
0.690514804516464
40
0.690514804516464
40
0.807896947452412
40
0.807896947452412
40
0.891597280195605
40
0.891597280195605
40
0.975315961249752
40
0.975315961249752
40
1
40
1
40
1
40
1
41
1
10
20.8266311768362
20
9.83314297426821
30
0
41
1
10
20.8377533202456
20
9.85991125328766
30
0
41
1
10
20.8506949290284
20
9.8859632539851
30
0
41
1
10
20.8738101545607
20
9.92505498472352
30
0
41
1
10
20.8828316275344
20
9.93893707431241
30
0
41
1
10
20.902101670147
20
9.96569817812477
30
0
41
1
10
20.912376074951
20
9.97861402998583
30
0
41
1
10
20.9342536916362
20
10.00306913321
30
0
41
1
10
20.945903070945
20
10.0146603203558
30
0
41
1
10
20.9690699422499
20
10.0344532764285
30
0
41
1
10
20.9804818423058
20
10.0429498473977
30
0
41
1
10
21.0012058740291
20
10.0556242842576
30
0
41
1
10
21.0103176358466
20
10.0603756930201
30
0
41
1
10
21.0350103877939
20
10.0705798275049
30
0
41
1
10
21.0514233517759
20
10.0746025021821
30
0
41
1
10
21.0788313346344
20
10.07490873955
30
0
41
1
10
21.0902894948522
20
10.0730263115608
30
0
41
1
10
21.111237521346
20
10.0651707442855
30
0
41
1
10
21.120975889042
20
10.0591112989358
30
0
41
1
10
21.1318337617356
20
10.0494011078952
30
0
41
1
10
21.1342247031312
20
10.0470366261198
30
0
41
1
10
21.1365053165294
20
10.0445614364702
30
0
0
SPLINE
5
1C6
100
AcDbEntity
8
1
62
256
6
ByLayer
370
18
48
1
60
0
100
AcDbSpline
70
4
71
3
72
26
73
22
40
0
40
0
40
0
40
0
40
0.0864636496434012
40
0.0864636496434012
40
0.153674415595188
40
0.153674415595188
40
0.220724831832357
40
0.220724831832357
40
0.287702845087178
40
0.287702845087178
40
0.354645915321229
40
0.354645915321229
40
0.499371234495074
40
0.499371234495074
40
0.701681266350154
40
0.701681266350154
40
0.859633921782582
40
0.859633921782582
40
0.963032016066396
40
0.963032016066396
40
1
40
1
40
1
40
1
41
1
10
21.1552822458457
20
10.0368923457758
30
0
41
1
10
21.172291495671
20
10.0299459593383
30
0
41
1
10
21.1910530570436
20
10.0266557848214
30
0
41
1
10
21.2245880817431
20
10.0253042950816
30
0
41
1
10
21.2395810308288
20
10.0262374242835
30
0
41
1
10
21.2694191301614
20
10.0303892176371
30
0
41
1
10
21.2843628842356
20
10.0336190630961
30
0
41
1
10
21.3139489799019
20
10.0418903295736
30
0
41
1
10
21.3286564286266
20
10.0469499607934
30
0
41
1
10
21.3576591296157
20
10.0585820178379
30
0
41
1
10
21.3720036139972
20
10.0651744975128
30
0
41
1
10
21.4164040714637
20
10.0880146796411
30
0
41
1
10
21.4458178480803
20
10.106784379559
30
0
41
1
10
21.511676240626
20
10.1571209188249
30
0
41
1
10
21.5472526010735
20
10.1914663622964
30
0
41
1
10
21.600095941741
20
10.2584457406407
30
0
41
1
10
21.6202509797697
20
10.2905072147591
30
0
41
1
10
21.6433698613802
20
10.346004647337
30
0
41
1
10
21.6500243017044
20
10.3691013310393
30
0
41
1
10
21.6528214023426
20
10.4003160017698
30
0
41
1
10
21.6529587917077
20
10.4086273511826
30
0
41
1
10
21.6523517335198
20
10.4168098751408
30
0
0
SPLINE
5
1C7
100
AcDbEntity
8
1
62
256
6
ByLayer
370
18
48
1
60
0
100
AcDbSpline
70
4
71
3
72
26
73
22
40
0
40
0
40
0
40
0
40
0.0960918903649553
40
0.0960918903649553
40
0.185427107814067
40
0.185427107814067
40
0.268229498165902
40
0.268229498165902
40
0.405011235318663
40
0.405011235318663
40
0.51866386385639
40
0.51866386385639
40
0.631974338343395
40
0.631974338343395
40
0.745140813252771
40
0.745140813252771
40
0.85824142292703
40
0.85824142292703
40
0.971313037595307
40
0.971313037595307
40
1
40
1
40
1
40
1
41
1
10
20.9747287903212
20
8.81049682233794
30
0
41
1
10
20.9626764889227
20
8.80796587014635
30
0
41
1
10
20.9510888915191
20
8.80307558981772
30
0
41
1
10
20.9321862700106
20
8.78911530131487
30
0
41
1
10
20.9244034290014
20
8.78016806493022
30
0
41
1
10
20.9131562479348
20
8.76049913882318
30
0
41
1
10
20.9092565385532
20
8.74976519297553
30
0
41
1
10
20.9026594874411
20
8.72032690073846
30
0
41
1
10
20.9021512021685
20
8.70050227039812
30
0
41
1
10
20.9054234464638
20
8.6645858784162
30
0
41
1
10
20.9085194593577
20
8.64812721071763
30
0
41
1
10
20.9169242899169
20
8.61575651785913
30
0
41
1
10
20.922257145644
20
8.59973902843979
30
0
41
1
10
20.9345992044194
20
8.5683311822219
30
0
41
1
10
20.9416313326812
20
8.55288292732945
30
0
41
1
10
20.9570613478255
20
8.5226604464664
30
0
41
1
10
20.9654789139412
20
8.50784846454599
30
0
41
1
10
20.983493142746
20
8.47894561544112
30
0
41
1
10
20.9931078816398
20
8.46482611325919
30
0
41
1
10
21.0058331696381
20
8.44761491477971
30
0
41
1
10
21.0084446128599
20
8.44415493259882
30
0
41
1
10
21.011090400144
20
8.44072040210898
30
0
0
SPLINE
5
1C8
100
AcDbEntity
8
1
62
256
6
ByLayer
370
18
48
1
60
0
100
AcDbSpline
70
4
71
3
72
8
73
4
40
0
40
0
40
0
40
0
40
1
40
1
40
1
40
1
41
1
10
22.8893876053249
20
10.2738987502765
30
0
41
1
10
22.8838710121037
20
10.2698021113707
30
0
41
1
10
22.8783534328804
20
10.2657049746801
30
0
41
1
10
22.8728348219382
20
10.2616073175911
30
0
0
SPLINE
5
1C9
100
AcDbEntity
8
1
62
256
6
ByLayer
370
18
48
1
60
0
100
AcDbSpline
70
4
71
3
72
8
73
4
40
0
40
0
40
0
40
0
40
1
40
1
40
1
40
1
41
1
10
21.3675355765608
20
8.30058928289154
30
0
41
1
10
21.3729964386149
20
8.30404891164076
30
0
41
1
10
21.3784583203571
20
8.30750942321049
30
0
41
1
10
21.3839212691534
20
8.31097085905998
30
0
0
SPLINE
5
1CA
100
AcDbEntity
8
1
62
256
6
ByLayer
370
18
48
1
60
0
100
AcDbSpline
70
4
71
3
72
8
73
4
40
0
40
0
40
0
40
0
40
1
40
1
40
1
40
1
41
1
10
20.907894957127
20
9.44149164587941
30
0
41
1
10
20.9018887534374
20
9.44465948574091
30
0
41
1
10
20.8958837206275
20
9.44782698290879
30
0
41
1
10
20.8898798067269
20
9.45099415211521
30
0
0
SPLINE
5
1CB
100
AcDbEntity
8
1
62
256
6
ByLayer
370
18
48
1
60
0
100
AcDbSpline
70
4
71
3
72
26
73
22
40
0
40
0
40
0
40
0
40
0.0960918903649508
40
0.0960918903649508
40
0.185427107814071
40
0.185427107814071
40
0.268229498165903
40
0.268229498165903
40
0.405011235318659
40
0.405011235318659
40
0.518663863856388
40
0.518663863856388
40
0.631974338343398
40
0.631974338343398
40
0.745140813252784
40
0.745140813252784
40
0.858241422927051
40
0.858241422927051
40
0.971313037595329
40
0.971313037595329
40
1
40
1
40
1
40
1
41
1
10
21.9666850647347
20
8.0531794024518
30
0
41
1
10
21.9634333883166
20
8.04177745726687
30
0
41
1
10
21.9624869833619
20
8.0296057685992
30
0
41
1
10
21.9662528481627
20
8.00680603142465
30
0
41
1
10
21.9706429528653
20
7.99584426575302
30
0
41
1
10
21.9829755311867
20
7.97669019726462
30
0
41
1
10
21.9907300188652
20
7.9681248579482
30
0
41
1
10
22.0138819304676
20
7.94809467457787
30
0
41
1
10
22.0312836354356
20
7.93792854558822
30
0
41
1
10
22.064762894037
20
7.92306247237465
30
0
41
1
10
22.0808477677479
20
7.9176023181723
30
0
41
1
10
22.1135717400295
20
7.90882965070145
30
0
41
1
10
22.1303157338303
20
7.90548564697144
30
0
41
1
10
22.1640415409354
20
7.90053270210475
30
0
41
1
10
22.1810855239465
20
7.89891473940457
30
0
41
1
10
22.2152274176083
20
7.89717494913583
30
0
41
1
10
22.2323681294943
20
7.89705127150114
30
0
41
1
10
22.2665757265055
20
7.89816554473794
30
0
41
1
10
22.2836765921601
20
7.89940478574198
30
0
41
1
10
22.3050040039537
20
7.9017733910834
30
0
41
1
10
22.3093170101202
20
7.90229501746822
30
0
41
1
10
22.3136239668663
20
7.90285851559764
30
0
0
SPLINE
5
1CC
100
AcDbEntity
8
1
62
256
6
ByLayer
370
18
48
1
60
0
100
AcDbSpline
70
4
71
3
72
26
73
22
40
0
40
0
40
0
40
0
40
0.084397113781262
40
0.084397113781262
40
0.289834052491985
40
0.289834052491985
40
0.392095130871016
40
0.392095130871016
40
0.494452771537231
40
0.494452771537231
40
0.597019768820955
40
0.597019768820955
40
0.67295485909901
40
0.67295485909901
40
0.796883557884339
40
0.796883557884339
40
0.881282445819647
40
0.881282445819647
40
0.965825257041704
40
0.965825257041704
40
1
40
1
40
1
40
1
41
1
10
22.3136239668663
20
7.90285851559764
30
0
41
1
10
22.3262867843937
20
7.90451524781264
30
0
41
1
10
22.3389056534988
20
7.90653455423754
30
0
41
1
10
22.3818892281445
20
7.91469815370613
30
0
41
1
10
22.4120144286083
20
7.9226250265252
30
0
41
1
10
22.4556107568825
20
7.93801047126055
30
0
41
1
10
22.4699024349412
20
7.94373225083618
30
0
41
1
10
22.4977455016658
20
7.95648767050994
30
0
41
1
10
22.5113422652993
20
7.9635418902314
30
0
41
1
10
22.5373883528866
20
7.97915477229668
30
0
41
1
10
22.5499082161565
20
7.9877577430552
30
0
41
1
10
22.5700178535101
20
8.00422506515577
30
0
41
1
10
22.5780887313724
20
8.01174407213909
30
0
41
1
10
22.59707510041
20
8.03268218212324
30
0
41
1
10
22.6069382355306
20
8.04728770705407
30
0
41
1
10
22.6168018222611
20
8.0730115992705
30
0
41
1
10
22.6189741174948
20
8.084009713646
30
0
41
1
10
22.6187881501615
20
8.1052962022259
30
0
41
1
10
22.616418321054
20
8.11583663399202
30
0
41
1
10
22.6104604569469
20
8.12936991923686
30
0
41
1
10
22.6084195323477
20
8.133178985413
30
0
41
1
10
22.6061173607768
20
8.13683914736035
30
0
0
SPLINE
5
1CD
100
AcDbEntity
8
1
62
256
6
ByLayer
370
18
48
1
60
0
100
AcDbSpline
70
4
71
3
72
8
73
4
40
0
40
0
40
0
40
0
40
1
40
1
40
1
40
1
41
1
10
23.1014738452458
20
8.53568583087528
30
0
41
1
10
23.1077896852082
20
8.53376546586156
30
0
41
1
10
23.1141043410869
20
8.53184573060136
30
0
41
1
10
23.1204178653564
20
8.52992659669792
30
0
0
SPLINE
5
1CE
100
AcDbEntity
8
1
62
256
6
ByLayer
370
18
48
1
60
0
100
AcDbSpline
70
4
71
3
72
8
73
4
40
0
40
0
40
0
40
0
40
1
40
1
40
1
40
1
41
1
10
21.9629969777607
20
8.07185014768493
30
0
41
1
10
21.9642265489713
20
8.06562513511977
30
0
41
1
10
21.9654559081753
20
8.05940157500345
30
0
41
1
10
21.9666850647347
20
8.0531794024518
30
0
0
SPLINE
5
1CF
100
AcDbEntity
8
1
62
256
6
ByLayer
370
18
48
1
60
0
100
AcDbSpline
70
4
71
3
72
8
73
4
40
0
40
0
40
0
40
0
40
1
40
1
40
1
40
1
41
1
10
22.6044043575721
20
8.1557683015061
30
0
41
1
10
22.6037542337207
20
8.16295292728555
30
0
41
1
10
22.603799173436
20
8.17027643277643
30
0
41
1
10
22.6044238755747
20
8.17764342131395
30
0
0
SPLINE
5
1D0
100
AcDbEntity
8
1
62
256
6
ByLayer
370
18
48
1
60
0
100
AcDbSpline
70
4
71
3
72
30
73
26
40
0
40
0
40
0
40
0
40
0.0134043370725956
40
0.0134043370725956
40
0.0861155066654637
40
0.0861155066654637
40
0.158653203822392
40
0.158653203822392
40
0.231112572672043
40
0.231112572672043
40
0.303534138829324
40
0.303534138829324
40
0.460103508004423
40
0.460103508004423
40
0.567542487417826
40
0.567542487417826
40
0.675025257747345
40
0.675025257747345
40
0.774479279307962
40
0.774479279307962
40
0.855107872809947
40
0.855107872809947
40
0.918505202968318
40
0.918505202968318
40
1
40
1
40
1
40
1
41
1
10
22.6081486051987
20
8.20076616168015
30
0
41
1
10
22.6087335402706
20
8.20328129350773
30
0
41
1
10
22.6093722043508
20
8.2057898535931
30
0
41
1
10
22.6138157879271
20
8.22192994869539
30
0
41
1
10
22.6190837653579
20
8.23548718863373
30
0
41
1
10
22.6317111133893
20
8.26198047952605
30
0
41
1
10
22.6391098703467
20
8.2750045827473
30
0
41
1
10
22.6555010180938
20
8.30040438076304
30
0
41
1
10
22.6645295174008
20
8.31283592923515
30
0
41
1
10
22.683861401841
20
8.33702179757734
30
0
41
1
10
22.6941979065139
20
8.34881708724149
30
0
41
1
10
22.7284299169651
20
8.3848570611739
30
0
41
1
10
22.7544498332755
20
8.40803237478934
30
0
41
1
10
22.800983937844
20
8.44359907618113
30
0
41
1
10
22.8208275695476
20
8.45720526982964
30
0
41
1
10
22.8616332847308
20
8.48207855953828
30
0
41
1
10
22.8827210377473
20
8.49342373414925
30
0
41
1
10
22.9240218481599
20
8.51245401481253
30
0
41
1
10
22.9443124590386
20
8.52041204427519
30
0
41
1
10
22.9812822996435
20
8.53186817379211
30
0
41
1
10
22.9980232816248
20
8.53595689694922
30
0
41
1
10
23.0277559059417
20
8.54071250020459
30
0
41
1
10
23.0408633278544
20
8.5419337481357
30
0
41
1
10
23.0701726453889
20
8.54207381898703
30
0
41
1
10
23.0864901405555
20
8.54024170664707
30
0
41
1
10
23.1014738452458
20
8.53568583087528
30
0
0
SPLINE
5
1D1
100
AcDbEntity
8
1
62
256
6
ByLayer
370
18
48
1
60
0
100
AcDbSpline
70
4
71
3
72
8
73
4
40
0
40
0
40
0
40
0
40
1
40
1
40
1
40
1
41
1
10
22.6061173607769
20
8.13683914736035
30
0
41
1
10
22.6055464433466
20
8.14314744023773
30
0
41
1
10
22.6049754435385
20
8.14945713641487
30
0
41
1
10
22.6044043575721
20
8.1557683015061
30
0
0
SPLINE
5
1D2
100
AcDbEntity
8
1
62
256
6
ByLayer
370
18
48
1
60
0
100
AcDbSpline
70
4
71
3
72
8
73
4
40
0
40
0
40
0
40
0
40
1
40
1
40
1
40
1
41
1
10
23.3670433751589
20
9.12349388105284
30
0
41
1
10
23.360983730091
20
9.12602404010269
30
0
41
1
10
23.3549229998001
20
9.12855491214967
30
0
41
1
10
23.3488611339645
20
9.13108653077168
30
0
0
SPLINE
5
1D3
100
AcDbEntity
8
1
62
256
6
ByLayer
370
18
48
1
60
0
100
AcDbSpline
70
4
71
3
72
8
73
4
40
0
40
0
40
0
40
0
40
1
40
1
40
1
40
1
41
1
10
23.2668549130309
20
9.75012477151589
30
0
41
1
10
23.2719690128557
20
9.75474752968708
30
0
41
1
10
23.2770821582708
20
9.75936966710367
30
0
41
1
10
23.2821943915645
20
9.76399121083011
30
0
0
SPLINE
5
1D4
100
AcDbEntity
8
1
62
256
6
ByLayer
370
18
48
1
60
0
100
AcDbSpline
70
4
71
3
72
26
73
22
40
0
40
0
40
0
40
0
40
0.0960918903649518
40
0.0960918903649518
40
0.18542710781408
40
0.18542710781408
40
0.268229498165912
40
0.268229498165912
40
0.405011235318686
40
0.405011235318686
40
0.518663863856415
40
0.518663863856415
40
0.631974338343423
40
0.631974338343423
40
0.745140813252804
40
0.745140813252804
40
0.858241422927066
40
0.858241422927066
40
0.971313037595349
40
0.971313037595349
40
1
40
1
40
1
40
1
41
1
10
23.2821943915646
20
9.76399121083011
30
0
41
1
10
23.2943554359546
20
9.76776510110378
30
0
41
1
10
23.3060560423879
20
9.77394708055184
30
0
41
1
10
23.3251638838575
20
9.79025304394239
30
0
41
1
10
23.3330424232887
20
9.80029411829679
30
0
41
1
10
23.3444528484936
20
9.82182893344236
30
0
41
1
10
23.3484237053754
20
9.83337609893769
30
0
41
1
10
23.3551848797376
20
9.864690328509
30
0
41
1
10
23.3557740991602
20
9.88544004041654
30
0
41
1
10
23.3526213375559
20
9.92272212580625
30
0
41
1
10
23.3495696683556
20
9.93968764424122
30
0
41
1
10
23.341239014307
20
9.97290617849688
30
0
41
1
10
23.3359362235931
20
9.98926731258948
30
0
41
1
10
23.3236439011376
20
10.0212436475447
30
0
41
1
10
23.3166315189961
20
10.0369176016243
30
0
41
1
10
23.3012329001967
20
10.0674989443517
30
0
41
1
10
23.2928270134886
20
10.0824444225119
30
0
41
1
10
23.2748292741635
20
10.1115357472319
30
0
41
1
10
23.2652193570057
20
10.1257103621084
30
0
41
1
10
23.2524961110826
20
10.1429449016144
30
0
41
1
10
23.249884874257
20
10.1464072429149
30
0
41
1
10
23.2472390869729
20
10.1498417734047
30
0
0
SPLINE
5
1D5
100
AcDbEntity
8
1
62
256
6
ByLayer
370
18
48
1
60
0
100
AcDbSpline
70
4
71
3
72
8
73
4
40
0
40
0
40
0
40
0
40
1
40
1
40
1
40
1
41
1
10
22.2937591133309
20
10.5007280289661
30
0
41
1
10
22.2925852042662
20
10.5075892627708
30
0
41
1
10
22.2914115425432
20
10.514449448008
30
0
41
1
10
22.2902381171511
20
10.5213086307163
30
0
0
SPLINE
5
1D6
100
AcDbEntity
8
1
62
256
6
ByLayer
370
18
48
1
60
0
100
AcDbSpline
70
4
71
3
72
8
73
4
40
0
40
0
40
0
40
0
40
1
40
1
40
1
40
1
41
1
10
21.6508058211089
20
10.4376488858077
30
0
41
1
10
21.6513210073719
20
10.4307035827737
30
0
41
1
10
21.651836309699
20
10.4237572614757
30
0
41
1
10
21.6523517335194
20
10.416809875145
30
0
0
SPLINE
5
1D7
100
AcDbEntity
8
1
62
256
6
ByLayer
370
18
48
1
60
0
100
AcDbSpline
70
4
71
3
72
30
73
26
40
0
40
0
40
0
40
0
40
0.0865999566996728
40
0.0865999566996728
40
0.153916678179554
40
0.153916678179554
40
0.22107279715889
40
0.22107279715889
40
0.288156399014996
40
0.288156399014996
40
0.355205002763836
40
0.355205002763836
40
0.500158476570627
40
0.500158476570627
40
0.599626548584201
40
0.599626548584201
40
0.699135162661945
40
0.699135162661945
40
0.791210681553152
40
0.791210681553152
40
0.865857432561001
40
0.865857432561001
40
0.924551309179069
40
0.924551309179069
40
1
40
1
40
1
40
1
41
1
10
21.3839212691534
20
8.31097085905998
30
0
41
1
10
21.3987644035789
20
8.32037577196246
30
0
41
1
10
21.4162410605736
20
8.32678492191937
30
0
41
1
10
21.4486189942659
20
8.33416793516329
30
0
41
1
10
21.4634814069597
20
8.33608644104689
30
0
41
1
10
21.4936340295527
20
8.33786400079302
30
0
41
1
10
21.5090232555066
20
8.3377311241903
30
0
41
1
10
21.5399581489947
20
8.33582075540596
30
0
41
1
10
21.5555719025556
20
8.33403898673157
30
0
41
1
10
21.5867709334929
20
8.3290916646543
30
0
41
1
10
21.6024092528793
20
8.32591740546266
30
0
41
1
10
21.6514134417778
20
8.31400551910076
30
0
41
1
10
21.6847716994118
20
8.30299961709605
30
0
41
1
10
21.7389829721727
20
8.28061387734832
30
0
41
1
10
21.7606554928741
20
8.27035010125149
30
0
41
1
10
21.802353431847
20
8.24781051496822
30
0
41
1
10
21.822508592051
20
8.2354659978761
30
0
41
1
10
21.8590576263676
20
8.20980263931733
30
0
41
1
10
21.8757376598889
20
8.19654615085091
30
0
41
1
10
21.9033618089135
20
8.1709573291453
30
0
41
1
10
21.914871704709
20
8.15885172345608
30
0
41
1
10
21.9330510340388
20
8.13615879669183
30
0
41
1
10
21.9402750940325
20
8.12573814526073
30
0
41
1
10
21.95409999634
20
8.10119625426606
30
0
41
1
10
21.9600799418597
20
8.08661837337232
30
0
41
1
10
21.9629969777607
20
8.07185014768493
30
0
0
SPLINE
5
1D8
100
AcDbEntity
8
1
62
256
6
ByLayer
370
18
48
1
60
0
100
AcDbSpline
70
4
71
3
72
30
73
26
40
0
40
0
40
0
40
0
40
0.0865999566996698
40
0.0865999566996698
40
0.153916678179542
40
0.153916678179542
40
0.221072797158868
40
0.221072797158868
40
0.288156399014982
40
0.288156399014982
40
0.355205002763825
40
0.355205002763825
40
0.500158476570616
40
0.500158476570616
40
0.599626548584192
40
0.599626548584192
40
0.699135162661944
40
0.699135162661944
40
0.791210681553148
40
0.791210681553148
40
0.865857432560998
40
0.865857432560998
40
0.924551309179071
40
0.924551309179071
40
1
40
1
40
1
40
1
41
1
10
22.8728348219382
20
10.2616073175911
30
0
41
1
10
22.8578404503795
20
10.2504737563461
30
0
41
1
10
22.84022022324
20
10.2424235921241
30
0
41
1
10
22.8076128790426
20
10.2324184048094
30
0
41
1
10
22.792657143655
20
10.2294332156554
30
0
41
1
10
22.7623346422782
20
10.2257139325243
30
0
41
1
10
22.7468682757124
20
10.2249650878993
30
0
41
1
10
22.7157955558708
20
10.2253000942547
30
0
41
1
10
22.7001208074727
20
10.2263846887476
30
0
41
1
10
22.6688163070323
20
10.2301264888892
30
0
41
1
10
22.653133333064
20
10.2327903438741
30
0
41
1
10
22.6040147782235
20
10.2433950215368
30
0
41
1
10
22.5706167882882
20
10.2539467812607
30
0
41
1
10
22.5164055155273
20
10.2763325210084
30
0
41
1
10
22.49475171138
20
10.286810228297
30
0
41
1
10
22.4531280052962
20
10.3101983003851
30
0
41
1
10
22.4330285812687
20
10.3231798848904
30
0
41
1
10
22.3966210727837
20
10.3504608911063
30
0
41
1
10
22.3800246903268
20
10.3646735156136
30
0
41
1
10
22.3525786979803
20
10.392298677468
30
0
41
1
10
22.3411587616455
20
10.4054325244985
30
0
41
1
10
22.3231570392998
20
10.4301555083797
30
0
41
1
10
22.3160174969536
20
10.4415422009421
30
0
41
1
10
22.3023978231483
20
10.468429864452
30
0
41
1
10
22.2965440963042
20
10.4844504314094
30
0
41
1
10
22.2937591133309
20
10.5007280289661
30
0
0
SPLINE
5
1D9
100
AcDbEntity
8
1
62
256
6
ByLayer
370
18
48
1
60
0
100
AcDbSpline
70
4
71
3
72
26
73
22
40
0
40
0
40
0
40
0
40
0.0843971137812678
40
0.0843971137812678
40
0.289834052491987
40
0.289834052491987
40
0.392095130871007
40
0.392095130871007
40
0.494452771537216
40
0.494452771537216
40
0.597019768820931
40
0.597019768820931
40
0.672954859099008
40
0.672954859099008
40
0.796883557884313
40
0.796883557884313
40
0.881282445819634
40
0.881282445819634
40
0.965825257041698
40
0.965825257041698
40
1
40
1
40
1
40
1
41
1
10
23.2472390869729
20
10.1498417734047
30
0
41
1
10
23.2394602483242
20
10.1599395838653
30
0
41
1
10
23.2313780622696
20
10.1698039280997
30
0
41
1
10
23.202694526599
20
10.2027116746784
30
0
41
1
10
23.1806136708979
20
10.2245872553577
30
0
41
1
10
23.1451325104208
20
10.2541136679558
30
0
41
1
10
23.132889961188
20
10.2634234447779
30
0
41
1
10
23.1075841688465
20
10.2806766976919
30
0
41
1
10
23.0944799364901
20
10.2886484947387
30
0
41
1
10
23.0674698228943
20
10.3027536275103
30
0
41
1
10
23.0534890558471
20
10.308924187047
30
0
41
1
10
23.0286160055746
20
10.3173500734085
30
0
41
1
10
23.0178031332084
20
10.3202214758476
30
0
41
1
10
22.9893926910322
20
10.3251418589392
30
0
41
1
10
22.9712227158502
20
10.3255937972139
30
0
41
1
10
22.9428503303298
20
10.3197288453221
30
0
41
1
10
22.9317078757432
20
10.3154064459669
30
0
41
1
10
22.9122546324484
20
10.3031315588113
30
0
41
1
10
22.9037177626259
20
10.2950250458862
30
0
41
1
10
22.8941573004558
20
10.2820178512953
30
0
41
1
10
22.8916413292217
20
10.2780323693527
30
0
41
1
10
22.8893876053249
20
10.2738987502765
30
0
0
SPLINE
5
1DA
100
AcDbEntity
8
1
62
256
6
ByLayer
370
18
48
1
60
0
100
AcDbSpline
70
4
71
3
72
26
73
22
40
0
40
0
40
0
40
0
40
0.0960918903649598
40
0.0960918903649598
40
0.185427107814085
40
0.185427107814085
40
0.268229498165925
40
0.268229498165925
40
0.405011235318694
40
0.405011235318694
40
0.518663863856427
40
0.518663863856427
40
0.631974338343441
40
0.631974338343441
40
0.745140813252829
40
0.745140813252829
40
0.858241422927095
40
0.858241422927095
40
0.97131303759538
40
0.97131303759538
40
1
40
1
40
1
40
1
41
1
10
23.1204178653563
20
8.52992659669789
30
0
41
1
10
23.1292728618325
20
8.52167707274558
30
0
41
1
10
23.1399705587964
20
8.51504151396628
30
0
41
1
10
23.1627416550862
20
8.50737490273843
30
0
41
1
10
23.1749624500089
20
8.50590729243632
30
0
41
1
10
23.1986238314661
20
8.50735509457422
30
0
41
1
10
23.2103136022762
20
8.50993031092926
30
0
41
1
10
23.2401446266158
20
8.52027638846315
30
0
41
1
10
23.2580950839314
20
8.53039743059742
30
0
41
1
10
23.2883618395831
20
8.5521305960697
30
0
41
1
10
23.3013728722468
20
8.56338253493408
30
0
41
1
10
23.3257291022245
20
8.58740448102034
30
0
41
1
10
23.3371552728048
20
8.6002497890463
30
0
41
1
10
23.3585638892945
20
8.62698893476616
30
0
41
1
10
23.3685856171039
20
8.64093207655202
30
0
41
1
10
23.3873131937939
20
8.6695941980785
30
0
41
1
10
23.3960421792679
20
8.6843492504841
30
0
41
1
10
23.4122437922142
20
8.71446061063335
30
0
41
1
10
23.419732329843
20
8.72984691016657
30
0
41
1
10
23.4283354746759
20
8.74943838450076
30
0
41
1
10
23.4300371408186
20
8.75342117262625
30
0
41
1
10
23.4316983102807
20
8.75741920124545
30
0
0
SPLINE
5
1DB
100
AcDbEntity
8
1
62
256
6
ByLayer
370
18
48
1
60
0
100
AcDbSpline
70
4
71
3
72
26
73
22
40
0
40
0
40
0
40
0
40
0.0843971137812962
40
0.0843971137812962
40
0.289834052492005
40
0.289834052492005
40
0.39209513087103
40
0.39209513087103
40
0.494452771537234
40
0.494452771537234
40
0.597019768820951
40
0.597019768820951
40
0.672954859099015
40
0.672954859099015
40
0.796883557884334
40
0.796883557884334
40
0.881282445819645
40
0.881282445819645
40
0.965825257041704
40
0.965825257041704
40
1
40
1
40
1
40
1
41
1
10
23.4316983102807
20
8.75741920124545
30
0
41
1
10
23.4365822891593
20
8.76917374392107
30
0
41
1
10
23.4411198612125
20
8.78106755592657
30
0
41
1
10
23.4554260753964
20
8.8222094849333
30
0
41
1
10
23.4634800633768
20
8.85212216091435
30
0
41
1
10
23.4716200367805
20
8.89731754762897
30
0
41
1
10
23.4736791921253
20
8.91246370766018
30
0
41
1
10
23.4762409688464
20
8.94275244325405
30
0
41
1
10
23.476748009714
20
8.95794430540107
30
0
41
1
10
23.4758189697093
20
8.98806221209151
30
0
41
1
10
23.4743786349557
20
9.00307084740203
30
0
41
1
10
23.4696582362626
20
9.02845571071492
30
0
41
1
10
23.4669369349869
20
9.03908264481819
30
0
41
1
10
23.4575745258578
20
9.06564596074779
30
0
41
1
10
23.4493145893204
20
9.08123953368619
30
0
41
1
10
23.4308996640005
20
9.10217145268314
30
0
41
1
10
23.4219727506539
20
9.10934147181675
30
0
41
1
10
23.402424681693
20
9.11939482726359
30
0
41
1
10
23.3915669942856
20
9.12238895037112
30
0
41
1
10
23.3761167438357
20
9.12369315129087
30
0
41
1
10
23.3715796482446
20
9.12374305332912
30
0
41
1
10
23.3670433751589
20
9.12349388105284
30
0
0
SPLINE
5
1DC
100
AcDbEntity
8
1
62
256
6
ByLayer
370
18
48
1
60
0
100
AcDbSpline
70
4
71
3
72
26
73
22
40
0
40
0
40
0
40
0
40
0.0960918903649528
40
0.0960918903649528
40
0.185427107814073
40
0.185427107814073
40
0.268229498165903
40
0.268229498165903
40
0.405011235318668
40
0.405011235318668
40
0.51866386385639
40
0.51866386385639
40
0.631974338343383
40
0.631974338343383
40
0.745140813252753
40
0.745140813252753
40
0.85824142292701
40
0.85824142292701
40
0.971313037595284
40
0.971313037595284
40
1
40
1
40
1
40
1
41
1
10
22.2902381171511
20
10.5213086307163
30
0
41
1
10
22.2935985365608
20
10.5339535139832
30
0
41
1
10
22.2946579505451
20
10.5474169017703
30
0
41
1
10
22.2910973057053
20
10.5725623138326
30
0
41
1
10
22.2868028994249
20
10.584617917474
30
0
41
1
10
22.2746335652416
20
10.6056378750009
30
0
41
1
10
22.2669502250633
20
10.615016433965
30
0
41
1
10
22.2439624367112
20
10.6369225546696
30
0
41
1
10
22.2266416658931
20
10.6480137652264
30
0
41
1
10
22.1932818899828
20
10.6642455318478
30
0
41
1
10
22.1772413599654
20
10.6702125367866
30
0
41
1
10
22.1445915641945
20
10.6798330456546
30
0
41
1
10
22.1278776354069
20
10.6835206940578
30
0
41
1
10
22.0942015646216
20
10.6890421276619
30
0
41
1
10
22.0771773277308
20
10.6908857895492
30
0
41
1
10
22.0430668304139
20
10.6929844416823
30
0
41
1
10
22.0259377979356
20
10.6932416155567
30
0
41
1
10
21.991746690404
20
10.6923158179352
30
0
41
1
10
21.9746506464854
20
10.6911316896256
30
0
41
1
10
21.953325276767
20
10.6887864253107
30
0
41
1
10
21.9490124769968
20
10.6882671580455
30
0
41
1
10
21.9447055202506
20
10.687703659916
30
0
0
SPLINE
5
1DD
100
AcDbEntity
8
1
62
256
6
ByLayer
370
18
48
1
60
0
100
AcDbSpline
70
4
71
3
72
26
73
22
40
0
40
0
40
0
40
0
40
0.0843971137812047
40
0.0843971137812047
40
0.289834052491932
40
0.289834052491932
40
0.392095130870963
40
0.392095130870963
40
0.494452771537181
40
0.494452771537181
40
0.597019768820906
40
0.597019768820906
40
0.67295485909899
40
0.67295485909899
40
0.7968835578843
40
0.7968835578843
40
0.881282445819618
40
0.881282445819618
40
0.965825257041679
40
0.965825257041679
40
1
40
1
40
1
40
1
41
1
10
21.9447055202506
20
10.687703659916
30
0
41
1
10
21.9320427027233
20
10.6860469277011
30
0
41
1
10
21.9194220556129
20
10.6840072985838
30
0
41
1
10
21.8764261305497
20
10.6757025331963
30
0
41
1
10
21.8462816436505
20
10.667555215412
30
0
41
1
10
21.802635704163
20
10.6516027119142
30
0
41
1
10
21.7883239730668
20
10.6456517250716
30
0
41
1
10
21.760431901666
20
10.6323361793857
30
0
41
1
10
21.7468061188514
20
10.6249502689066
30
0
41
1
10
21.7206900592565
20
10.6085376031343
30
0
41
1
10
21.7081290579395
20
10.5994644223451
30
0
41
1
10
21.6879333921342
20
10.5820137905428
30
0
41
1
10
21.6798211278154
20
10.5740217341979
30
0
41
1
10
21.6607114307588
20
10.5516739785061
30
0
41
1
10
21.6507544885902
20
10.5359962341095
30
0
41
1
10
21.6407031549196
20
10.5081263845483
30
0
41
1
10
21.6384443676734
20
10.4961396619462
30
0
41
1
10
21.6384480516724
20
10.4727696653214
30
0
41
1
10
21.6407198577347
20
10.4611088250221
30
0
41
1
10
21.6465415701873
20
10.4460193192459
30
0
41
1
10
21.648542894302
20
10.4417576174601
30
0
41
1
10
21.6508058211089
20
10.4376488858077
30
0
0
SPLINE
5
1DE
100
AcDbEntity
8
1
62
256
6
ByLayer
370
18
48
1
60
0
100
AcDbSpline
70
4
71
3
72
8
73
4
40
0
40
0
40
0
40
0
40
1
40
1
40
1
40
1
41
1
10
20.9899011780607
20
8.82245340513521
30
0
41
1
10
20.9848427403819
20
8.8184668682035
30
0
41
1
10
20.9797852924477
20
8.81448135590782
30
0
41
1
10
20.9747287903212
20
8.81049682233791
30
0
0
SPLINE
5
1DF
100
AcDbEntity
8
1
62
256
6
ByLayer
370
18
48
1
60
0
100
AcDbSpline
70
4
71
3
72
26
73
22
40
0
40
0
40
0
40
0
40
0.0843971137812278
40
0.0843971137812278
40
0.289834052491954
40
0.289834052491954
40
0.392095130870986
40
0.392095130870986
40
0.494452771537197
40
0.494452771537197
40
0.597019768820921
40
0.597019768820921
40
0.672954859098984
40
0.672954859098984
40
0.796883557884322
40
0.796883557884322
40
0.88128244581964
40
0.88128244581964
40
0.965825257041704
40
0.965825257041704
40
1
40
1
40
1
40
1
41
1
10
21.011090400144
20
8.44072040210898
30
0
41
1
10
21.0188692387927
20
8.43062259164839
30
0
41
1
10
21.0269496468421
20
8.42073792472164
30
0
41
1
10
21.0556208320951
20
8.38768901222403
30
0
41
1
10
21.0776824013608
20
8.36559298657946
30
0
41
1
10
21.1131139506247
20
8.33549951521894
30
0
41
1
10
21.12533644682
20
8.32596053112991
30
0
41
1
10
21.1505932344853
20
8.30814715220373
30
0
41
1
10
21.1636684476606
20
8.29984366439933
30
0
41
1
10
21.1906085892488
20
8.28493874792065
30
0
41
1
10
21.2045482182488
20
8.27829797835327
30
0
41
1
10
21.2293352400697
20
8.26888878229013
30
0
41
1
10
21.2401067259794
20
8.26554433048941
30
0
41
1
10
21.2683938401367
20
8.25921430169012
30
0
41
1
10
21.2864700082706
20
8.25769014394965
30
0
41
1
10
21.3146546468509
20
8.26140913849676
30
0
41
1
10
21.325710609425
20
8.26474292962536
30
0
41
1
10
21.3449815693855
20
8.27493430873596
30
0
41
1
10
21.3534204161629
20
8.28192041312798
30
0
41
1
10
21.3628447266784
20
8.29337138718736
30
0
41
1
10
21.3653210974281
20
8.29690423352045
30
0
41
1
10
21.3675355765608
20
8.30058928289156
30
0
0
SPLINE
5
1E0
100
AcDbEntity
8
1
62
256
6
ByLayer
370
18
48
1
60
0
100
AcDbSpline
70
4
71
3
72
30
73
26
40
0
40
0
40
0
40
0
40
0.0865999566996724
40
0.0865999566996724
40
0.153916678179548
40
0.153916678179548
40
0.221072797158878
40
0.221072797158878
40
0.288156399014989
40
0.288156399014989
40
0.355205002763826
40
0.355205002763826
40
0.500158476570617
40
0.500158476570617
40
0.599626548584194
40
0.599626548584194
40
0.699135162661941
40
0.699135162661941
40
0.791210681553145
40
0.791210681553145
40
0.865857432560996
40
0.865857432560996
40
0.924551309179061
40
0.924551309179061
40
1
40
1
40
1
40
1
41
1
10
23.3488611339645
20
9.13108653077168
30
0
41
1
10
23.3323907087743
20
9.13796507877245
30
0
41
1
10
23.3172500209885
20
9.14867433440861
30
0
41
1
10
23.2933127303154
20
9.17105518351843
30
0
41
1
10
23.2836716337055
20
9.18216057593799
30
0
41
1
10
23.2660614197521
20
9.20590544539169
30
0
41
1
10
23.2580323804495
20
9.21862156460182
30
0
41
1
10
23.2434197215319
20
9.24514405018738
30
0
41
1
10
23.2368039698593
20
9.25900878024316
30
0
41
1
10
23.2248840886107
20
9.28753920969478
30
0
41
1
10
23.2195599466063
20
9.3022535564472
30
0
41
1
10
23.2047305851879
20
9.34955181239189
30
0
41
1
10
23.1973723777137
20
9.38350595687166
30
0
41
1
10
23.1896952095213
20
9.44145839801118
30
0
41
1
10
23.1878756788006
20
9.46543533335242
30
0
41
1
10
23.1870205714554
20
9.5132724522467
30
0
41
1
10
23.1879810323562
20
9.53728067765636
30
0
41
1
10
23.192803571368
20
9.58278314070699
30
0
41
1
10
23.1964559742576
20
9.60447572665652
30
0
41
1
10
23.2058907441768
20
9.64253884795346
30
0
41
1
10
23.2111668100931
20
9.65924729747042
30
0
41
1
10
23.2228089085722
20
9.68771085604851
30
0
41
1
10
23.228734529315
20
9.69983577597642
30
0
41
1
10
23.2443215587931
20
9.72569062407999
30
0
41
1
10
23.2547222177777
20
9.73915773566563
30
0
41
1
10
23.2668549130309
20
9.75012477151589
30
0
0
SPLINE
5
1E1
100
AcDbEntity
8
1
62
256
6
ByLayer
370
18
48
1
60
0
100
AcDbSpline
70
4
71
3
72
26
73
22
40
0
40
0
40
0
40
0
40
0.0861353043401028
40
0.0861353043401028
40
0.222839638383432
40
0.222839638383432
40
0.422253970651479
40
0.422253970651479
40
0.500724537936421
40
0.500724537936421
40
0.600079964181073
40
0.600079964181073
40
0.699475886576773
40
0.699475886576773
40
0.791447131630209
40
0.791447131630209
40
0.866009346561451
40
0.866009346561451
40
0.924636753439456
40
0.924636753439456
40
1
40
1
40
1
40
1
41
1
10
20.9899011780607
20
8.82245340513521
30
0
41
1
10
21.0036452333778
20
8.83328504675896
30
0
41
1
10
21.0151261641174
20
8.84747732605322
30
0
41
1
10
21.0393472443501
20
8.88759144438802
30
0
41
1
10
21.0495708826588
20
8.91628015959409
30
0
41
1
10
21.0663924925852
20
8.98922855280958
30
0
41
1
10
21.0695830937796
20
9.03621068136104
30
0
41
1
10
21.0667037515215
20
9.10167792905528
30
0
41
1
10
21.0650379591958
20
9.12043478981798
30
0
41
1
10
21.0594327388086
20
9.16274677210311
30
0
41
1
10
21.0549921334329
20
9.18638078069759
30
0
41
1
10
21.043543179102
20
9.23283185990962
30
0
41
1
10
21.0365006458769
20
9.25579301833312
30
0
41
1
10
21.0203418296451
20
9.29855039822425
30
0
41
1
10
21.0113711357561
20
9.31859144879931
30
0
41
1
10
20.992785224185
20
9.35298850086579
30
0
41
1
10
20.9835598168612
20
9.36779965873924
30
0
41
1
10
20.9653404760654
20
9.39235631363454
30
0
41
1
10
20.9566679018917
20
9.4025712873954
30
0
41
1
10
20.9353857057589
20
9.42360237225017
30
0
41
1
10
20.9221440804313
20
9.43397625960091
30
0
41
1
10
20.907894957127
20
9.44149164587941
30
0
0
SPLINE
5
1E2
100
AcDbEntity
8
1
62
256
6
ByLayer
370
18
48
1
60
0
100
AcDbSpline
70
4
71
3
72
8
73
4
40
0
40
0
40
0
40
0
40
1
40
1
40
1
40
1
41
1
10
25.7946914092479
20
7.37637420137233
30
0
41
1
10
25.7519636682388
20
7.27841210970732
30
0
41
1
10
25.694396409448
20
7.18570146202288
30
0
41
1
10
25.625491862363
20
7.10388251236191
30
0
0
SPLINE
5
1E3
100
AcDbEntity
8
1
62
256
6
ByLayer
370
18
48
1
60
0
100
AcDbSpline
70
4
71
3
72
12
73
8
40
0
40
0
40
0
40
0
40
0.462337058274407
40
0.462337058274407
40
0.924102030814561
40
0.924102030814561
40
1
40
1
40
1
40
1
41
1
10
22.545796313348
20
3.44697646254409
30
0
41
1
10
22.5613340089823
20
3.46542630353028
30
0
41
1
10
22.5771717822867
20
3.48444830833176
30
0
41
1
10
22.6068012117114
20
3.52044756216662
30
0
41
1
10
22.621003133045
20
3.53792206971644
30
0
41
1
10
22.6355533480619
20
3.55608753840514
30
0
41
1
10
22.6375830082666
20
3.55862838725236
30
0
41
1
10
22.6395671308868
20
3.56111926049891
30
0
0
SPLINE
5
1E4
100
AcDbEntity
8
1
62
256
6
ByLayer
370
18
48
1
60
0
100
AcDbSpline
70
4
71
3
72
10
73
6
40
0
40
0
40
0
40
0
40
0.292299554846436
40
0.292299554846436
40
1
40
1
40
1
40
1
41
1
10
22.0604636366723
20
3.01324037415159
30
0
41
1
10
22.1209540907845
20
3.07165726662063
30
0
41
1
10
22.1687741711466
20
3.11461644369007
30
0
41
1
10
22.315910811049
20
3.24207019600638
30
0
41
1
10
22.3905116346884
20
3.29669865068738
30
0
41
1
10
22.4560177782884
20
3.34037122745576
30
0
0
SPLINE
5
1E5
100
AcDbEntity
8
SK1
62
256
6
ByLayer
370
18
48
1
60
0
100
AcDbSpline
70
4
71
3
72
8
73
4
40
0
40
0
40
0
40
0
40
1
40
1
40
1
40
1
41
1
10
-0.238765877365267
20
11.1388165661098
30
0
41
1
10
-0.159200675789634
20
11.2069906389168
30
0
41
1
10
-0.079611629094245
20
11.2751276199598
30
0
41
1
10
0
20
11.3432293866236
30
0
0
SPLINE
5
1E6
100
AcDbEntity
8
SK1
62
256
6
ByLayer
370
18
48
1
60
0
100
AcDbSpline
70
4
71
3
72
16
73
12
40
0
40
0
40
0
40
0
40
0.210039912343659
40
0.210039912343659
40
0.422600373214431
40
0.422600373214431
40
0.625709443860493
40
0.625709443860493
40
0.912004007388696
40
0.912004007388696
40
1
40
1
40
1
40
1
41
1
10
-0.29876587736527
20
11.1114606311097
30
0
41
1
10
-0.298765877363849
20
11.1084130121671
30
0
41
1
10
-0.297746293283467
20
11.1062733994636
30
0
41
1
10
-0.293484377719835
20
11.1044554474082
30
0
41
1
10
-0.290149978961608
20
11.1047962449267
30
0
41
1
10
-0.281919625731803
20
11.1078100000203
30
0
41
1
10
-0.277015883809611
20
11.1103984677619
30
0
41
1
10
-0.264189867832783
20
11.1184878603832
30
0
41
1
10
-0.255663847027563
20
11.1248436274716
30
0
41
1
10
-0.244257279562191
20
11.1341627417141
30
0
41
1
10
-0.241520089959181
20
11.136456666478
30
0
41
1
10
-0.238765877365267
20
11.1388165661098
30
0
0
SPLINE
5
1E7
100
AcDbEntity
8
SK1
62
256
6
ByLayer
370
18
48
1
60
0
100
AcDbSpline
70
4
71
3
72
8
73
4
40
0
40
0
40
0
40
0
40
1
40
1
40
1
40
1
41
1
10
0
20
11.5480021180099
30
0
41
1
10
-0.0798848200118982
20
11.4509241806265
30
0
41
1
10
-0.159479868968901
20
11.3535270823981
30
0
41
1
10
-0.238765877365267
20
11.2557967883171
30
0
0
SPLINE
5
1E8
100
AcDbEntity
8
SK1
62
256
6
ByLayer
370
18
48
1
60
0
100
AcDbSpline
70
4
71
3
72
16
73
12
40
0
40
0
40
0
40
0
40
0.292491579582493
40
0.292491579582493
40
0.527631995282123
40
0.527631995282123
40
0.765166109719466
40
0.765166109719466
40
0.97059714519833
40
0.97059714519833
40
1
40
1
40
1
40
1
41
1
10
-0.238765877365267
20
-11.1388165661098
30
0
41
1
10
-0.247837214062542
20
-11.1310439474749
30
0
41
1
10
-0.256829760825156
20
-11.1239037323205
30
0
41
1
10
-0.271558256549156
20
-11.1136371742293
30
0
41
1
10
-0.277718386787626
20
-11.1099214964727
30
0
41
1
10
-0.287948077838735
20
-11.1053063028291
30
0
41
1
10
-0.292121988616714
20
-11.1044002778149
30
0
41
1
10
-0.297140012927798
20
-11.1056941402468
30
0
41
1
10
-0.298428795335383
20
-11.1074954259507
30
0
41
1
10
-0.298746081603156
20
-11.1106138309926
30
0
41
1
10
-0.298765877368964
20
-11.1110280281527
30
0
41
1
10
-0.298765877368908
20
-11.1114606311129
30
0
0
SPLINE
5
1E9
100
AcDbEntity
8
SK1
62
256
6
ByLayer
370
18
48
1
60
0
100
AcDbSpline
70
4
71
3
72
12
73
8
40
0
40
0
40
0
40
0
40
0.253957747132074
40
0.253957747132074
40
0.582089054619914
40
0.582089054619914
40
1
40
1
40
1
40
1
41
1
10
-0.29876587736527
20
-11.1590966693763
30
0
41
1
10
-0.29876587736527
20
-11.1633235063877
30
0
41
1
10
-0.296663419365984
20
-11.1695667994603
30
0
41
1
10
-0.288791107664849
20
-11.1859990663606
30
0
41
1
10
-0.282045506154418
20
-11.1970807629067
30
0
41
1
10
-0.264101945293135
20
-11.2234935642837
30
0
41
1
10
-0.251913376698269
20
-11.2395907892735
30
0
41
1
10
-0.238765877365267
20
-11.2557967883171
30
0
0
SPLINE
5
1EA
100
AcDbEntity
8
SK1
62
256
6
ByLayer
370
18
48
1
60
0
100
AcDbSpline
70
4
71
3
72
8
73
4
40
0
40
0
40
0
40
0
40
1
40
1
40
1
40
1
41
1
10
-0.238765877365267
20
-11.2557967883171
30
0
41
1
10
-0.159479868968901
20
-11.3535270823981
30
0
41
1
10
-0.0798848200118982
20
-11.4509241806265
30
0
41
1
10
0
20
-11.5480021180099
30
0
0
SPLINE
5
1EB
100
AcDbEntity
8
SK1
62
256
6
ByLayer
370
18
48
1
60
0
100
AcDbSpline
70
4
71
3
72
8
73
4
40
0
40
0
40
0
40
0
40
1
40
1
40
1
40
1
41
1
10
0
20
-11.3432293866236
30
0
41
1
10
-0.079611629094245
20
-11.2751276199598
30
0
41
1
10
-0.159200675789634
20
-11.2069906389168
30
0
41
1
10
-0.238765877365267
20
-11.1388165661098
30
0
0
SPLINE
5
1EC
100
AcDbEntity
8
SK1
62
256
6
ByLayer
370
18
48
1
60
0
100
AcDbSpline
70
4
71
3
72
18
73
14
40
0
40
0
40
0
40
0
40
0.231364130267331
40
0.231364130267331
40
0.423018276302015
40
0.423018276302015
40
0.58448612678702
40
0.58448612678702
40
0.745846932488442
40
0.745846932488442
40
0.957614777614412
40
0.957614777614412
40
1
40
1
40
1
40
1
41
1
10
-0.29876587736527
20
-8.98591212938507
30
0
41
1
10
-0.29876587736527
20
-8.97907505018273
30
0
41
1
10
-0.297941575860989
20
-8.9727703941397
30
0
41
1
10
-0.294256705909334
20
-8.96351033998559
30
0
41
1
10
-0.291709473078186
20
-8.96010446225606
30
0
41
1
10
-0.285251518735777
20
-8.95636911104307
30
0
41
1
10
-0.281536242470622
20
-8.95562459102783
30
0
41
1
10
-0.273099041772014
20
-8.95635498020698
30
0
41
1
10
-0.268282440295934
20
-8.9578313545357
30
0
41
1
10
-0.256765136198908
20
-8.96321412954867
30
0
41
1
10
-0.249776689926478
20
-8.96777615161204
30
0
41
1
10
-0.241536840072399
20
-8.97416001024368
30
0
41
1
10
-0.240149961705924
20
-8.97526857193253
30
0
41
1
10
-0.238765877365267
20
-8.97640635612146
30
0
0
SPLINE
5
1ED
100
AcDbEntity
8
SK1
62
256
6
ByLayer
370
18
48
1
60
0
100
AcDbSpline
70
4
71
3
72
8
73
4
40
0
40
0
40
0
40
0
40
1
40
1
40
1
40
1
41
1
10
-0.238765877365267
20
-8.97640635612146
30
0
41
1
10
-0.159181106889775
20
-9.0418288819516
30
0
41
1
10
-0.0795923986217986
20
-9.10724502123347
30
0
41
1
10
0
20
-9.17265517271639
30
0
0
SPLINE
5
1EE
100
AcDbEntity
8
SK1
62
256
6
ByLayer
370
18
48
1
60
0
100
AcDbSpline
70
4
71
3
72
14
73
10
40
0
40
0
40
0
40
0
40
0.212950562836663
40
0.212950562836663
40
0.427428050810884
40
0.427428050810884
40
0.640050359310837
40
0.640050359310837
40
1
40
1
40
1
40
1
41
1
10
-0.29876587736527
20
-11.4653334394072
30
0
41
1
10
-0.29876587736527
20
-11.4632300242236
30
0
41
1
10
-0.297616838400643
20
-11.4622038288371
30
0
41
1
10
-0.293036027323183
20
-11.4626507621602
30
0
41
1
10
-0.289531278889285
20
-11.4641459722421
30
0
41
1
10
-0.280923527143216
20
-11.4691883037868
30
0
41
1
10
-0.275751144194487
20
-11.4727574768906
30
0
41
1
10
-0.260733018879307
20
-11.4840987776231
30
0
41
1
10
-0.249843150268532
20
-11.4932597388786
30
0
41
1
10
-0.238765877365267
20
-11.5031454669806
30
0
0
SPLINE
5
1EF
100
AcDbEntity
8
SK1
62
256
6
ByLayer
370
18
48
1
60
0
100
AcDbSpline
70
4
71
3
72
8
73
4
40
0
40
0
40
0
40
0
40
1
40
1
40
1
40
1
41
1
10
-0.238765877365267
20
-11.5031454669806
30
0
41
1
10
-0.159221330323135
20
-11.5741336759854
30
0
41
1
10
-0.0796319116662971
20
-11.64505489041
30
0
41
1
10
0
20
-11.7159123809271
30
0
0
SPLINE
5
1F0
100
AcDbEntity
8
SK1
62
256
6
ByLayer
370
18
48
1
60
0
100
AcDbSpline
70
4
71
3
72
14
73
10
40
0
40
0
40
0
40
0
40
0.398059746216925
40
0.398059746216925
40
0.693323693834734
40
0.693323693834734
40
0.922806602790955
40
0.922806602790955
40
1
40
1
40
1
40
1
41
1
10
-0.238765877365267
20
-11.5788099647078
30
0
41
1
10
-0.251174659992955
20
-11.564714644084
30
0
41
1
10
-0.262840240377841
20
-11.5508559119363
30
0
41
1
10
-0.279922046802881
20
-11.5290447140746
30
0
41
1
10
-0.28631138006665
20
-11.5203057387915
30
0
41
1
10
-0.294552822892115
20
-11.5073910162738
30
0
41
1
10
-0.297152754621379
20
-11.502528709658
30
0
41
1
10
-0.298577488330693
20
-11.4979555647174
30
0
41
1
10
-0.298765877365042
20
-11.4969534311461
30
0
41
1
10
-0.29876587736527
20
-11.4961352182629
30
0
0
SPLINE
5
1F1
100
AcDbEntity
8
SK1
62
256
6
ByLayer
370
18
48
1
60
0
100
AcDbSpline
70
4
71
3
72
8
73
4
40
0
40
0
40
0
40
0
40
1
40
1
40
1
40
1
41
1
10
0
20
-11.8485274577714
30
0
41
1
10
-0.079800450824564
20
-11.7588723315613
30
0
41
1
10
-0.159393454826954
20
-11.6689702792148
30
0
41
1
10
-0.238765877365267
20
-11.5788099647078
30
0
0
SPLINE
5
1F2
100
AcDbEntity
8
SK1
62
256
6
ByLayer
370
18
48
1
60
0
100
AcDbSpline
70
4
71
3
72
8
73
4
40
0
40
0
40
0
40
0
40
1
40
1
40
1
40
1
41
1
10
0
20
-9.67019146230109
30
0
41
1
10
-0.080478593082205
20
-9.53538232680586
30
0
41
1
10
-0.160090205844085
20
-9.39987687468368
30
0
41
1
10
-0.238765877365267
20
-9.26365612288765
30
0
0
SPLINE
5
1F3
100
AcDbEntity
8
SK1
62
256
6
ByLayer
370
18
48
1
60
0
100
AcDbSpline
70
4
71
3
72
12
73
8
40
0
40
0
40
0
40
0
40
0.484332075892093
40
0.484332075892093
40
0.759599113932283
40
0.759599113932283
40
1
40
1
40
1
40
1
41
1
10
-0.238765877365267
20
11.2557967883171
30
0
41
1
10
-0.253947320922464
20
11.2370836890777
30
0
41
1
10
-0.267914047667603
20
11.2184369514559
30
0
41
1
10
-0.284918456751655
20
11.1923133728769
30
0
41
1
10
-0.290177835347833
20
11.1832967108164
30
0
41
1
10
-0.296877828596564
20
11.1689238453736
30
0
41
1
10
-0.29876587736527
20
11.1631048086578
30
0
41
1
10
-0.29876587736527
20
11.1590966693763
30
0
0
SPLINE
5
1F4
100
AcDbEntity
8
SK1
62
256
6
ByLayer
370
18
48
1
60
0
100
AcDbSpline
70
4
71
3
72
16
73
12
40
0
40
0
40
0
40
0
40
0.261334481281272
40
0.261334481281272
40
0.480926293513676
40
0.480926293513676
40
0.702467905700653
40
0.702467905700653
40
0.897306639604516
40
0.897306639604516
40
1
40
1
40
1
40
1
41
1
10
-0.238765877365267
20
10.6159838617232
30
0
41
1
10
-0.246933690800006
20
10.6091959988815
30
0
41
1
10
-0.255105225208354
20
10.6030392244446
30
0
41
1
10
-0.269018448199176
20
10.5941866909431
30
0
41
1
10
-0.275067758048976
20
10.5910318483189
30
0
41
1
10
-0.285353755871881
20
10.5874900519906
30
0
41
1
10
-0.289701245004608
20
10.5871056806544
30
0
41
1
10
-0.295447130297077
20
10.5891482342205
30
0
41
1
10
-0.297219003298949
20
10.5912502493987
30
0
41
1
10
-0.298548138973672
20
10.5957450822788
30
0
41
1
10
-0.29876587736527
20
10.5975482439017
30
0
41
1
10
-0.29876587736527
20
10.5995397936377
30
0
0
SPLINE
5
1F5
100
AcDbEntity
8
SK1
62
256
6
ByLayer
370
18
48
1
60
0
100
AcDbSpline
70
4
71
3
72
12
73
8
40
0
40
0
40
0
40
0
40
0.269166044883486
40
0.269166044883486
40
0.64099078507109
40
0.64099078507109
40
1
40
1
40
1
40
1
41
1
10
-0.29876587736527
20
10.6660560656997
30
0
41
1
10
-0.298765877362655
20
10.67243759811
30
0
41
1
10
-0.296360985000433
20
10.6810273129822
30
0
41
1
10
-0.287309657354115
20
10.7033515105428
30
0
41
1
10
-0.27927917237156
20
10.7182345266058
30
0
41
1
10
-0.260787526217712
20
10.7482809922032
30
0
41
1
10
-0.250205346169082
20
10.7637532172037
30
0
41
1
10
-0.238765877365267
20
10.7792431311741
30
0
0
SPLINE
5
1F6
100
AcDbEntity
8
SK1
62
256
6
ByLayer
370
18
48
1
60
0
100
AcDbSpline
70
4
71
3
72
8
73
4
40
0
40
0
40
0
40
0
40
1
40
1
40
1
40
1
41
1
10
-0.238765877365267
20
10.7792431311741
30
0
41
1
10
-0.159603446789845
20
10.8864351048867
30
0
41
1
10
-0.080005291008888
20
10.9931998426727
30
0
41
1
10
0
20
11.0995541765226
30
0
0
SPLINE
5
1F7
100
AcDbEntity
8
SK1
62
256
6
ByLayer
370
18
48
1
60
0
100
AcDbSpline
70
4
71
3
72
8
73
4
40
0
40
0
40
0
40
0
40
1
40
1
40
1
40
1
41
1
10
0
20
10.8143470869748
30
0
41
1
10
-0.0795971164004641
20
10.748239640664
30
0
41
1
10
-0.159185900775299
20
10.6821188157543
30
0
41
1
10
-0.238765877365267
20
10.6159838617232
30
0
0
SPLINE
5
1F8
100
AcDbEntity
8
SK1
62
256
6
ByLayer
370
18
48
1
60
0
100
AcDbSpline
70
4
71
3
72
20
73
16
40
0
40
0
40
0
40
0
40
0.371557089871401
40
0.371557089871401
40
0.54796745611351
40
0.54796745611351
40
0.651761826966437
40
0.651761826966437
40
0.756978995077812
40
0.756978995077812
40
0.847809177992069
40
0.847809177992069
40
0.983214186629639
40
0.983214186629639
40
1
40
1
40
1
40
1
41
1
10
-0.29876587736527
20
-6.05334533602297
30
0
41
1
10
-0.29876587736527
20
-6.03618474628615
30
0
41
1
10
-0.297586840943779
20
-6.01928195538792
30
0
41
1
10
-0.291587129137326
20
-5.99799381625229
30
0
41
1
10
-0.288918731985348
20
-5.99158924089926
30
0
41
1
10
-0.282851335326825
20
-5.98388507734103
30
0
41
1
10
-0.2801396360382
20
-5.9815454505343
30
0
41
1
10
-0.273836631334916
20
-5.97871974620085
30
0
41
1
10
-0.270131204618508
20
-5.97825755441343
30
0
41
1
10
-0.26289799927315
20
-5.97942600754413
30
0
41
1
10
-0.259337776708946
20
-5.98077647349041
30
0
41
1
10
-0.250654077105821
20
-5.98553157239985
30
0
41
1
10
-0.245471323006882
20
-5.98964617933623
30
0
41
1
10
-0.239978694875276
20
-5.99486240648923
30
0
41
1
10
-0.239370582162792
20
-5.99545248474797
30
0
41
1
10
-0.238765877352591
20
-5.99605109948618
30
0
0
SPLINE
5
1F9
100
AcDbEntity
8
SK1
62
256
6
ByLayer
370
18
48
1
60
0
100
AcDbSpline
70
4
71
3
72
8
73
4
40
0
40
0
40
0
40
0
40
1
40
1
40
1
40
1
41
1
10
0
20
-7.1641540266497
30
0
41
1
10
-0.0821982891991411
20
-6.96173939342538
30
0
41
1
10
-0.161864666216957
20
-6.75792418630598
30
0
41
1
10
-0.238765877365267
20
-6.55275263116678
30
0
0
SPLINE
5
1FA
100
AcDbEntity
8
SK1
62
256
6
ByLayer
370
18
48
1
60
0
100
AcDbSpline
70
4
71
3
72
8
73
4
40
0
40
0
40
0
40
0
40
1
40
1
40
1
40
1
41
1
10
-0.238765877365267
20
-5.99605109952111
30
0
41
1
10
-0.159381307385502
20
-6.07463617565884
30
0
41
1
10
-0.0797852962249408
20
-6.15293718980229
30
0
41
1
10
0
20
-6.23097929041342
30
0
0
SPLINE
5
1FB
100
AcDbEntity
8
SK1
62
256
6
ByLayer
370
18
48
1
60
0
100
AcDbSpline
70
4
71
3
72
8
73
4
40
0
40
0
40
0
40
0
40
1
40
1
40
1
40
1
41
1
10
-0.238765877365267
20
6.55275263116678
30
0
41
1
10
-0.161864666216957
20
6.75792418630598
30
0
41
1
10
-0.0821982891991411
20
6.96173939342538
30
0
41
1
10
0
20
7.1641540266497
30
0
0
SPLINE
5
1FC
100
AcDbEntity
8
SK1
62
256
6
ByLayer
370
18
48
1
60
0
100
AcDbSpline
70
4
71
3
72
20
73
16
40
0
40
0
40
0
40
0
40
0.137921400070282
40
0.137921400070282
40
0.235836963560455
40
0.235836963560455
40
0.334552114107333
40
0.334552114107333
40
0.424407727099833
40
0.424407727099833
40
0.578099622764308
40
0.578099622764308
40
0.873815550805934
40
0.873815550805934
40
1
40
1
40
1
40
1
41
1
10
-0.238765877365267
20
5.99605109952111
30
0
41
1
10
-0.243677414243166
20
5.99118902746352
30
0
41
1
10
-0.248892622815788
20
5.98681268459779
30
0
41
1
10
-0.257906474560798
20
5.98141021194542
30
0
41
1
10
-0.261754067843867
20
5.97976375138757
30
0
41
1
10
-0.269058185841516
20
5.9783098270895
30
0
41
1
10
-0.27259862822666
20
5.97851856163166
30
0
41
1
10
-0.27850492948312
20
5.98060936605074
30
0
41
1
10
-0.281020959805176
20
5.98234184140836
30
0
41
1
10
-0.286836328686718
20
5.98828347828291
30
0
41
1
10
-0.289574712930801
20
5.99342361840962
30
0
41
1
10
-0.295631057684318
20
6.00986238258204
30
0
41
1
10
-0.297443395295431
20
6.02275721056145
30
0
41
1
10
-0.298611388991844
20
6.04167041093768
30
0
41
1
10
-0.29876587736527
20
6.04747194175164
30
0
41
1
10
-0.29876587736527
20
6.05334533602297
30
0
0
SPLINE
5
1FD
100
AcDbEntity
8
SK1
62
256
6
ByLayer
370
18
48
1
60
0
100
AcDbSpline
70
4
71
3
72
10
73
6
40
0
40
0
40
0
40
0
40
0.819455868218799
40
0.819455868218799
40
1
40
1
40
1
40
1
41
1
10
-0.238765877365267
20
-6.55275263116675
30
0
41
1
10
-0.266587606639973
20
-6.47852457445978
30
0
41
1
10
-0.287582546423039
20
-6.40182222649028
30
0
41
1
10
-0.297630166436761
20
-6.31387340961507
30
0
41
1
10
-0.29876587736527
20
-6.29797221549205
30
0
41
1
10
-0.29876587736527
20
-6.28267507326143
30
0
0
SPLINE
5
1FE
100
AcDbEntity
8
SK1
62
256
6
ByLayer
370
18
48
1
60
0
100
AcDbSpline
70
4
71
3
72
8
73
4
40
0
40
0
40
0
40
0
40
1
40
1
40
1
40
1
41
1
10
0
20
6.23097929041342
30
0
41
1
10
-0.0797852962249408
20
6.15293718980229
30
0
41
1
10
-0.159381307385502
20
6.07463617565884
30
0
41
1
10
-0.238765877365267
20
5.99605109952111
30
0
0
SPLINE
5
1FF
100
AcDbEntity
8
SK1
62
256
6
ByLayer
370
18
48
1
60
0
100
AcDbSpline
70
4
71
3
72
10
73
6
40
0
40
0
40
0
40
0
40
0.530419996739525
40
0.530419996739525
40
1
40
1
40
1
40
1
41
1
10
-0.29876587736527
20
6.2826750732815
30
0
41
1
10
-0.298765877362314
20
6.32700950790598
30
0
41
1
10
-0.290209982182716
20
6.37573892310346
30
0
41
1
10
-0.268219532290971
20
6.46660789749893
30
0
41
1
10
-0.25481659894939
20
6.50992948886065
30
0
41
1
10
-0.238765877365267
20
6.55275263116675
30
0
0
SPLINE
5
200
100
AcDbEntity
8
SK1
62
256
6
ByLayer
370
18
48
1
60
0
100
AcDbSpline
70
4
71
3
72
10
73
6
40
0
40
0
40
0
40
0
40
0.596087017044984
40
0.596087017044984
40
1
40
1
40
1
40
1
41
1
10
-0.238765877365267
20
-9.26365612288765
30
0
41
1
10
-0.258177986783494
20
-9.23004557863979
30
0
41
1
10
-0.274733722240171
20
-9.19569141208962
30
0
41
1
10
-0.293406206355655
20
-9.14199387211551
30
0
41
1
10
-0.29876587736527
20
-9.1205304502254
30
0
41
1
10
-0.29876587736527
20
-9.10320707422949
30
0
0
SPLINE
5
201
100
AcDbEntity
8
SK1
62
256
6
ByLayer
370
18
48
1
60
0
100
AcDbSpline
70
4
71
3
72
8
73
4
40
0
40
0
40
0
40
0
40
1
40
1
40
1
40
1
41
1
10
0
20
10.4842192326163
30
0
41
1
10
-0.0801862240620608
20
10.3658484917975
30
0
41
1
10
-0.159789338391761
20
10.2469475923676
30
0
41
1
10
-0.238765877365267
20
10.1274974017296
30
0
0
SPLINE
5
202
100
AcDbEntity
8
SK1
62
256
6
ByLayer
370
18
48
1
60
0
100
AcDbSpline
70
4
71
3
72
16
73
12
40
0
40
0
40
0
40
0
40
0.214658011402209
40
0.214658011402209
40
0.43397471246679
40
0.43397471246679
40
0.628894734479578
40
0.628894734479578
40
0.810218601956625
40
0.810218601956625
40
1
40
1
40
1
40
1
41
1
10
-0.29876587736527
20
9.90509617907787
30
0
41
1
10
-0.298765877364303
20
9.89991843014951
30
0
41
1
10
-0.297928870706187
20
9.89536820681329
30
0
41
1
10
-0.294052756620886
20
9.88857909029605
30
0
41
1
10
-0.29087533187419
20
9.88633662419321
30
0
41
1
10
-0.282770923805742
20
9.8852826702057
30
0
41
1
10
-0.277968787893542
20
9.8861133087654
30
0
41
1
10
-0.267751432123589
20
9.88997157391211
30
0
41
1
10
-0.26229731401645
20
9.89286375870753
30
0
41
1
10
-0.250878967960602
20
9.90014729125721
30
0
41
1
10
-0.244805851873764
20
9.90465346262923
30
0
41
1
10
-0.238765877365267
20
9.90959092048166
30
0
0
SPLINE
5
203
100
AcDbEntity
8
SK1
62
256
6
ByLayer
370
18
48
1
60
0
100
AcDbSpline
70
4
71
3
72
12
73
8
40
0
40
0
40
0
40
0
40
0.573995963408261
40
0.573995963408261
40
0.883237318344663
40
0.883237318344663
40
1
40
1
40
1
40
1
41
1
10
-0.238765877365267
20
10.1274974017296
30
0
41
1
10
-0.257126354705463
20
10.0997276039264
30
0
41
1
10
-0.273233723682324
20
10.0714721889067
30
0
41
1
10
-0.290502439897068
20
10.0317043742365
30
0
41
1
10
-0.295238975170889
20
10.0181423168519
30
0
41
1
10
-0.298291467288777
20
10.0019764534974
30
0
41
1
10
-0.29876587736527
20
9.99776023823972
30
0
41
1
10
-0.29876587736527
20
9.99395144656819
30
0
0
SPLINE
5
204
100
AcDbEntity
8
SK1
62
256
6
ByLayer
370
18
48
1
60
0
100
AcDbSpline
70
4
71
3
72
8
73
4
40
0
40
0
40
0
40
0
40
1
40
1
40
1
40
1
41
1
10
-0.238765877365267
20
9.90959092048166
30
0
41
1
10
-0.159177858211592
20
9.9746512099878
30
0
41
1
10
-0.0795892207058841
20
10.0397104909339
30
0
41
1
10
-1.137E-13
20
10.1047688205899
30
0
0
SPLINE
5
205
100
AcDbEntity
8
SK1
62
256
6
ByLayer
370
18
48
1
60
0
100
AcDbSpline
70
4
71
3
72
10
73
6
40
0
40
0
40
0
40
0
40
0.518916447624163
40
0.518916447624163
40
1
40
1
40
1
40
1
41
1
10
-0.238765877365267
20
4.10032781449698
30
0
41
1
10
-0.257531566578905
20
4.01701318090892
30
0
41
1
10
-0.271987947971809
20
3.93308169944626
30
0
41
1
10
-0.292130917382622
20
3.77176695180694
30
0
41
1
10
-0.29876587736527
20
3.69371940226705
30
0
41
1
10
-0.29876587736527
20
3.61750184466015
30
0
0
SPLINE
5
206
100
AcDbEntity
8
SK1
62
256
6
ByLayer
370
18
48
1
60
0
100
AcDbSpline
70
4
71
3
72
8
73
4
40
0
40
0
40
0
40
0
40
1
40
1
40
1
40
1
41
1
10
6.1391E-12
20
-3.38841451384468
30
0
41
1
10
-0.082018511251988
20
-3.25835426295225
30
0
41
1
10
-0.16179934083101
20
-3.12635532268044
30
0
41
1
10
-0.238765877365324
20
-2.99224124144325
30
0
0
SPLINE
5
207
100
AcDbEntity
8
SK1
62
256
6
ByLayer
370
18
48
1
60
0
100
AcDbSpline
70
4
71
3
72
24
73
20
40
0
40
0
40
0
40
0
40
0.0832000397086008
40
0.0832000397086008
40
0.122087539725297
40
0.122087539725297
40
0.1552386845278
40
0.1552386845278
40
0.188798997941688
40
0.188798997941688
40
0.217237575740967
40
0.217237575740967
40
0.268128981657875
40
0.268128981657875
40
0.403293075744324
40
0.403293075744324
40
0.918571691058269
40
0.918571691058269
40
1
40
1
40
1
40
1
41
1
10
-0.238765877365267
20
-2.99224124144322
30
0
41
1
10
-0.242146788682021
20
-2.98635000824751
30
0
41
1
10
-0.24584804975899
20
-2.98064306655442
30
0
41
1
10
-0.252027155238466
20
-2.97365129659056
30
0
41
1
10
-0.254141759385107
20
-2.97161274048884
30
0
41
1
10
-0.258256997942567
20
-2.96867919350305
30
0
41
1
10
-0.260269750215002
20
-2.96764656465933
30
0
41
1
10
-0.264275347577438
20
-2.96665412864263
30
0
41
1
10
-0.266321163784312
20
-2.96671271228837
30
0
41
1
10
-0.269760042284929
20
-2.96781969976831
30
0
41
1
10
-0.271246670612584
20
-2.96871400675425
30
0
41
1
10
-0.274971164976137
20
-2.97186653350602
30
0
41
1
10
-0.276968524148287
20
-2.97466198029585
30
0
41
1
10
-0.283145482672012
20
-2.98574307193232
30
0
41
1
10
-0.285940011027321
20
-2.9956772992598
30
0
41
1
10
-0.296640081252008
20
-3.04364744914943
30
0
41
1
10
-0.298070396750291
20
-3.08575482779807
30
0
41
1
10
-0.298723871153527
20
-3.13381259169321
30
0
41
1
10
-0.29876587736527
20
-3.14040695431842
30
0
41
1
10
-0.29876587736527
20
-3.14701068272913
30
0
0
SPLINE
5
208
100
AcDbEntity
8
SK1
62
256
6
ByLayer
370
18
48
1
60
0
100
AcDbSpline
70
4
71
3
72
8
73
4
40
0
40
0
40
0
40
0
40
1
40
1
40
1
40
1
41
1
10
0
20
5.05409268984661
30
0
41
1
10
-0.0868041138065223
20
4.73869872463547
30
0
41
1
10
-0.166625773327553
20
4.42061055319698
30
0
41
1
10
-0.238765877365495
20
4.10032781449706
30
0
0
SPLINE
5
209
100
AcDbEntity
8
SK1
62
256
6
ByLayer
370
18
48
1
60
0
100
AcDbSpline
70
4
71
3
72
10
73
6
40
0
40
0
40
0
40
0
40
0.481083552375838
40
0.481083552375838
40
1
40
1
40
1
40
1
41
1
10
-0.29876587736527
20
-3.61750184466015
30
0
41
1
10
-0.29876587736527
20
-3.69371940226705
30
0
41
1
10
-0.292130917382622
20
-3.77176695180694
30
0
41
1
10
-0.271987947971809
20
-3.93308169944626
30
0
41
1
10
-0.257531566578905
20
-4.01701318090892
30
0
41
1
10
-0.238765877365267
20
-4.10032781449698
30
0
0
SPLINE
5
20A
100
AcDbEntity
8
SK1
62
256
6
ByLayer
370
18
48
1
60
0
100
AcDbSpline
70
4
71
3
72
8
73
4
40
0
40
0
40
0
40
0
40
1
40
1
40
1
40
1
41
1
10
-0.238765877365495
20
-4.10032781449706
30
0
41
1
10
-0.166625773327553
20
-4.42061055319698
30
0
41
1
10
-0.0868041138065223
20
-4.73869872463547
30
0
41
1
10
0
20
-5.05409268984661
30
0
0
SPLINE
5
20B
100
AcDbEntity
8
SK1
62
256
6
ByLayer
370
18
48
1
60
0
100
AcDbSpline
70
4
71
3
72
8
73
4
40
0
40
0
40
0
40
0
40
1
40
1
40
1
40
1
41
1
10
-0.238765877367655
20
2.99224124143913
30
0
41
1
10
-0.161799340834705
20
3.12635532267416
30
0
41
1
10
-0.0820185112571039
20
3.2583542629439
30
0
41
1
10
-3.979E-13
20
3.38841451383433
30
0
0
SPLINE
5
20C
100
AcDbEntity
8
SK1
62
256
6
ByLayer
370
18
48
1
60
0
100
AcDbSpline
70
4
71
3
72
24
73
20
40
0
40
0
40
0
40
0
40
0.479739039533208
40
0.479739039533208
40
0.723737062044239
40
0.723737062044239
40
0.764376308814104
40
0.764376308814104
40
0.80564661597954
40
0.80564661597954
40
0.834501279781492
40
0.834501279781492
40
0.863334099810595
40
0.863334099810595
40
0.90465485255856
40
0.90465485255856
40
0.982024721761035
40
0.982024721761035
40
1
40
1
40
1
40
1
41
1
10
-0.29876587736527
20
3.14701068272044
30
0
41
1
10
-0.298765877365042
20
3.10821797927031
30
0
41
1
10
-0.297693326598448
20
3.06937700377099
30
0
41
1
10
-0.290273440450051
20
3.01356780666677
30
0
41
1
10
-0.287129412531044
20
2.99425411358234
30
0
41
1
10
-0.278263063775171
20
2.97683901158274
30
0
41
1
10
-0.276801392134587
20
2.97445264062415
30
0
41
1
10
-0.273410374353887
20
2.97037971092669
30
0
41
1
10
-0.271424858060868
20
2.96866530566342
30
0
41
1
10
-0.267645721871531
20
2.96702024202355
30
0
41
1
10
-0.26593552364551
20
2.96670953496113
30
0
41
1
10
-0.262474891376485
20
2.96696639244001
30
0
41
1
10
-0.260686982208199
20
2.96753276948951
30
0
41
1
10
-0.256525856462758
20
2.96968656220989
30
0
41
1
10
-0.254161631987358
20
2.97161482624802
30
0
41
1
10
-0.247908877898794
20
2.97793518037429
30
0
41
1
10
-0.244301250766569
20
2.9830844384515
30
0
41
1
10
-0.24025416758758
20
2.98968703294486
30
0
41
1
10
-0.239502827138551
20
2.9909571075039
30
0
41
1
10
-0.238765877367712
20
2.99224124143902
30
0
0
SPLINE
5
20D
100
AcDbEntity
8
SK1
62
256
6
ByLayer
370
18
48
1
60
0
100
AcDbSpline
70
4
71
3
72
8
73
4
40
0
40
0
40
0
40
0
40
1
40
1
40
1
40
1
41
1
10
0
20
9.17265517271642
30
0
41
1
10
-0.0795923986217986
20
9.10724502123347
30
0
41
1
10
-0.159181106889775
20
9.0418288819516
30
0
41
1
10
-0.238765877365267
20
8.97640635612146
30
0
0
SPLINE
5
20E
100
AcDbEntity
8
SK1
62
256
6
ByLayer
370
18
48
1
60
0
100
AcDbSpline
70
4
71
3
72
12
73
8
40
0
40
0
40
0
40
0
40
0.297414859089309
40
0.297414859089309
40
0.799854936445216
40
0.799854936445216
40
1
40
1
40
1
40
1
41
1
10
-0.29876587736527
20
9.10320707424387
30
0
41
1
10
-0.298765877362996
20
9.11599358349343
30
0
41
1
10
-0.29578495149002
20
9.13110530495646
30
0
41
1
10
-0.28374599238083
20
9.17283777111277
30
0
41
1
10
-0.271680716458263
20
9.20126910941363
30
0
41
1
10
-0.251545879823823
20
9.24085646295393
30
0
41
1
10
-0.24534081883894
20
9.25227212764182
30
0
41
1
10
-0.238765877365267
20
9.26365612288765
30
0
0
SPLINE
5
20F
100
AcDbEntity
8
SK1
62
256
6
ByLayer
370
18
48
1
60
0
100
AcDbSpline
70
4
71
3
72
16
73
12
40
0
40
0
40
0
40
0
40
0.193433579471105
40
0.193433579471105
40
0.391767673980788
40
0.391767673980788
40
0.569013280049542
40
0.569013280049542
40
0.72883115361672
40
0.72883115361672
40
1
40
1
40
1
40
1
41
1
10
-0.238765877365267
20
8.97640635612146
30
0
41
1
10
-0.245038393437596
20
8.97125004490377
30
0
41
1
10
-0.251435042692265
20
8.96664634074145
30
0
41
1
10
-0.263867371760171
20
8.95954936784651
30
0
41
1
10
-0.270054134436691
20
8.95705473683878
30
0
41
1
10
-0.280192124794951
20
8.95547795116542
30
0
41
1
10
-0.284433212958618
20
8.95605705346574
30
0
41
1
10
-0.290753716088602
20
8.95942545428665
30
0
41
1
10
-0.293092798719158
20
8.96200588568567
30
0
41
1
10
-0.297634717199344
20
8.97062575318353
30
0
41
1
10
-0.29876587736527
20
8.97792240770085
30
0
41
1
10
-0.29876587736527
20
8.98591212938507
30
0
0
SPLINE
5
210
100
AcDbEntity
8
SK1
62
256
6
ByLayer
370
18
48
1
60
0
100
AcDbSpline
70
4
71
3
72
8
73
4
40
0
40
0
40
0
40
0
40
1
40
1
40
1
40
1
41
1
10
-0.238765877365267
20
9.26365612288765
30
0
41
1
10
-0.160090205844085
20
9.39987687468368
30
0
41
1
10
-0.080478593082205
20
9.53538232680586
30
0
41
1
10
0
20
9.67019146230109
30
0
0
SPLINE
5
211
100
AcDbEntity
8
SK1
62
256
6
ByLayer
370
18
48
1
60
0
100
AcDbSpline
70
4
71
3
72
12
73
8
40
0
40
0
40
0
40
0
40
0.334159016265323
40
0.334159016265323
40
0.785142639537227
40
0.785142639537227
40
1
40
1
40
1
40
1
41
1
10
-0.29876587736527
20
-9.99395144656819
30
0
41
1
10
-0.29876587736527
20
-10.0046742975357
30
0
41
1
10
-0.295057916091821
20
-10.0185740298973
30
0
41
1
10
-0.282130682144668
20
-10.05271997426
30
0
41
1
10
-0.271156331256407
20
-10.074343234747
30
0
41
1
10
-0.252315399761414
20
-10.106434498115
30
0
41
1
10
-0.245726673726779
20
-10.1169693580449
30
0
41
1
10
-0.238765877365267
20
-10.1274974017296
30
0
0
SPLINE
5
212
100
AcDbEntity
8
SK1
62
256
6
ByLayer
370
18
48
1
60
0
100
AcDbSpline
70
4
71
3
72
8
73
4
40
0
40
0
40
0
40
0
40
1
40
1
40
1
40
1
41
1
10
-0.238765877365267
20
-10.1274974017296
30
0
41
1
10
-0.159789338391761
20
-10.2469475923676
30
0
41
1
10
-0.0801862240620608
20
-10.3658484917975
30
0
41
1
10
0
20
-10.4842192326163
30
0
0
SPLINE
5
213
100
AcDbEntity
8
SK1
62
256
6
ByLayer
370
18
48
1
60
0
100
AcDbSpline
70
4
71
3
72
8
73
4
40
0
40
0
40
0
40
0
40
1
40
1
40
1
40
1
41
1
10
-1.137E-13
20
-10.1047688205899
30
0
41
1
10
-0.079589220705941
20
-10.0397104909339
30
0
41
1
10
-0.159177858211592
20
-9.9746512099878
30
0
41
1
10
-0.238765877365267
20
-9.90959092048166
30
0
0
SPLINE
5
214
100
AcDbEntity
8
SK1
62
256
6
ByLayer
370
18
48
1
60
0
100
AcDbSpline
70
4
71
3
72
16
73
12
40
0
40
0
40
0
40
0
40
0.228549310179964
40
0.228549310179964
40
0.462777162604809
40
0.462777162604809
40
0.664452649220864
40
0.664452649220864
40
0.844763102553302
40
0.844763102553302
40
1
40
1
40
1
40
1
41
1
10
-0.238765877365267
20
-9.90959092048166
30
0
41
1
10
-0.246008246130771
20
-9.90367054938056
30
0
41
1
10
-0.253321397934656
20
-9.89835531107175
30
0
41
1
10
-0.267244857910612
20
-9.89010267447617
30
0
41
1
10
-0.274027522908966
20
-9.88714943684971
30
0
41
1
10
-0.284502863770968
20
-9.88518313170721
30
0
41
1
10
-0.288620246190476
20
-9.88567189364898
30
0
41
1
10
-0.294323386407029
20
-9.88904418677447
30
0
41
1
10
-0.296214446551914
20
-9.8916848989353
30
0
41
1
10
-0.298326684128824
20
-9.89789820701844
30
0
41
1
10
-0.29876587736527
20
-9.901326026715
30
0
41
1
10
-0.29876587736527
20
-9.90509617908728
30
0
0
SPLINE
5
215
100
AcDbEntity
8
SK1
62
256
6
ByLayer
370
18
48
1
60
0
100
AcDbSpline
70
4
71
3
72
8
73
4
40
0
40
0
40
0
40
0
40
1
40
1
40
1
40
1
41
1
10
0
20
-11.9550307054211
30
0
41
1
10
-0.0360856896209611
20
-11.9186620806572
30
0
41
1
10
-0.0721700933509624
20
-11.8822921799584
30
0
41
1
10
-0.108253175473067
20
-11.8459209681666
30
0
0
SPLINE
5
216
100
AcDbEntity
8
SK1
62
256
6
ByLayer
370
18
48
1
60
0
100
AcDbSpline
70
4
71
3
72
8
73
4
40
0
40
0
40
0
40
0
40
1
40
1
40
1
40
1
41
1
10
0
20
-11.9470227637501
30
0
41
1
10
-0.0360986241494174
20
-11.9133424940816
30
0
41
1
10
-0.0721831347633497
20
-11.8796420447089
30
0
41
1
10
-0.108253175473067
20
-11.8459209681666
30
0
0
SPLINE
5
217
100
AcDbEntity
8
SK1
62
256
6
ByLayer
370
18
48
1
60
0
100
AcDbSpline
70
4
71
3
72
8
73
4
40
0
40
0
40
0
40
0
40
1
40
1
40
1
40
1
41
1
10
-0.108253175473124
20
11.8459209681665
30
0
41
1
10
-0.0721831347633497
20
11.8796420447089
30
0
41
1
10
-0.0360986241494174
20
11.9133424940816
30
0
41
1
10
0
20
11.9470227637501
30
0
0
SPLINE
5
218
100
AcDbEntity
8
SK1
62
256
6
ByLayer
370
18
48
1
60
0
100
AcDbSpline
70
4
71
3
72
8
73
4
40
0
40
0
40
0
40
0
40
1
40
1
40
1
40
1
41
1
10
-0.108253175473124
20
11.8459209681665
30
0
41
1
10
-0.0721700933509624
20
11.8822921799584
30
0
41
1
10
-0.036085689621018
20
11.9186620806572
30
0
41
1
10
0
20
11.9550307054211
30
0
0
SPLINE
5
219
100
AcDbEntity
8
SK1
62
256
6
ByLayer
370
18
48
1
60
0
100
AcDbSpline
70
4
71
3
72
12
73
8
40
0
40
0
40
0
40
0
40
0.52543165796393
40
0.52543165796393
40
0.815757207557959
40
0.815757207557959
40
1
40
1
40
1
40
1
41
1
10
-0.238765877365267
20
-10.7792431311741
30
0
41
1
10
-0.255379109730029
20
-10.7567475464128
30
0
41
1
10
-0.27034588896646
20
-10.7340820414756
30
0
41
1
10
-0.287573524473885
20
-10.7022379463445
30
0
41
1
10
-0.292629687149542
20
-10.6913138956421
30
0
41
1
10
-0.297621894307213
20
-10.6759163113556
30
0
41
1
10
-0.29876587736527
20
-10.6704607773984
30
0
41
1
10
-0.29876587736527
20
-10.6660560656891
30
0
0
SPLINE
5
21A
100
AcDbEntity
8
SK1
62
256
6
ByLayer
370
18
48
1
60
0
100
AcDbSpline
70
4
71
3
72
8
73
4
40
0
40
0
40
0
40
0
40
1
40
1
40
1
40
1
41
1
10
0
20
-11.0995541765226
30
0
41
1
10
-0.080005291008888
20
-10.9931998426727
30
0
41
1
10
-0.159603446789845
20
-10.8864351048867
30
0
41
1
10
-0.238765877365267
20
-10.7792431311741
30
0
0
SPLINE
5
21B
100
AcDbEntity
8
SK1
62
256
6
ByLayer
370
18
48
1
60
0
100
AcDbSpline
70
4
71
3
72
16
73
12
40
0
40
0
40
0
40
0
40
0.2096782408889
40
0.2096782408889
40
0.422880221604212
40
0.422880221604212
40
0.619995482772675
40
0.619995482772675
40
0.869457005193572
40
0.869457005193572
40
1
40
1
40
1
40
1
41
1
10
-0.29876587736527
20
-10.5995397936377
30
0
41
1
10
-0.29876587736527
20
-10.5955120372414
30
0
41
1
10
-0.29785402330657
20
-10.5922399845028
30
0
41
1
10
-0.293849319830144
20
-10.58807856899
30
0
41
1
10
-0.290643767309575
20
-10.5872022240513
30
0
41
1
10
-0.282622200099581
20
-10.5882078098061
30
0
41
1
10
-0.277855489883962
20
-10.5898910548946
30
0
41
1
10
-0.266055538090029
20
-10.5958109717812
30
0
41
1
10
-0.258592672110865
20
-10.6006630651702
30
0
41
1
10
-0.246975821648618
20
-10.6093199070543
30
0
41
1
10
-0.242879346175925
20
-10.6125653627193
30
0
41
1
10
-0.238765877365267
20
-10.6159838617232
30
0
0
SPLINE
5
21C
100
AcDbEntity
8
SK1
62
256
6
ByLayer
370
18
48
1
60
0
100
AcDbSpline
70
4
71
3
72
8
73
4
40
0
40
0
40
0
40
0
40
1
40
1
40
1
40
1
41
1
10
-0.238765877365267
20
-10.6159838617232
30
0
41
1
10
-0.159185900775299
20
-10.6821188157543
30
0
41
1
10
-0.0795971164004641
20
-10.748239640664
30
0
41
1
10
0
20
-10.8143470869748
30
0
0
SPLINE
5
21D
100
AcDbEntity
8
SK1
62
256
6
ByLayer
370
18
48
1
60
0
100
AcDbSpline
70
4
71
3
72
18
73
14
40
0
40
0
40
0
40
0
40
0.279852181771266
40
0.279852181771266
40
0.456091821257823
40
0.456091821257823
40
0.596962647585721
40
0.596962647585721
40
0.738728013184086
40
0.738728013184086
40
0.869502521540462
40
0.869502521540462
40
1
40
1
40
1
40
1
41
1
10
-0.29876587736527
20
7.76255777929552
30
0
41
1
10
-0.298765877364474
20
7.75245201903687
30
0
41
1
10
-0.297804401212886
20
7.74281601282661
30
0
41
1
10
-0.293524517674939
20
7.72973859458529
30
0
41
1
10
-0.291153261717511
20
7.72525890156399
30
0
41
1
10
-0.285267993870264
20
7.71944942576491
30
0
41
1
10
-0.282003561316173
20
7.71764254724292
30
0
41
1
10
-0.274425880391618
20
7.71627318222053
30
0
41
1
10
-0.270002541715712
20
7.71672439308088
30
0
41
1
10
-0.261125761033895
20
7.71959297042625
30
0
41
1
10
-0.256609053618263
20
7.721864336029
30
0
41
1
10
-0.24766221663856
20
7.72754832307891
30
0
41
1
10
-0.243161121055039
20
7.73099236018138
30
0
41
1
10
-0.238765877365836
20
7.73477536384448
30
0
0
SPLINE
5
21E
100
AcDbEntity
8
SK1
62
256
6
ByLayer
370
18
48
1
60
0
100
AcDbSpline
70
4
71
3
72
8
73
4
40
0
40
0
40
0
40
0
40
1
40
1
40
1
40
1
41
1
10
0
20
-7.94001592678256
30
0
41
1
10
-0.0796244802621118
20
-7.87165805586332
30
0
41
1
10
-0.159214054156166
20
-7.80324593337252
30
0
41
1
10
-0.238765877365267
20
-7.73477536384496
30
0
0
SPLINE
5
21F
100
AcDbEntity
8
SK1
62
256
6
ByLayer
370
18
48
1
60
0
100
AcDbSpline
70
4
71
3
72
10
73
6
40
0
40
0
40
0
40
0
40
0.358354645666515
40
0.358354645666515
40
1
40
1
40
1
40
1
41
1
10
-0.29876587736527
20
-7.92039724737597
30
0
41
1
10
-0.29876587736527
20
-7.94125551722695
30
0
41
1
10
-0.294515007603536
20
-7.9649635119265
30
0
41
1
10
-0.277470018670897
20
-8.03140495798044
30
0
41
1
10
-0.260038212961945
20
-8.07640287219567
30
0
41
1
10
-0.238765877365267
20
-8.12031070244166
30
0
0
SPLINE
5
220
100
AcDbEntity
8
SK1
62
256
6
ByLayer
370
18
48
1
60
0
100
AcDbSpline
70
4
71
3
72
10
73
6
40
0
40
0
40
0
40
0
40
0.699816394681512
40
0.699816394681512
40
1
40
1
40
1
40
1
41
1
10
-0.238765877365267
20
8.12031070244166
30
0
41
1
10
-0.261922899786043
20
8.07251272535385
30
0
41
1
10
-0.280673182390842
20
8.02326065273672
30
0
41
1
10
-0.295715024309288
20
7.95753447596658
30
0
41
1
10
-0.29876587736527
20
7.93793733713127
30
0
41
1
10
-0.29876587736527
20
7.92039724737597
30
0
0
SPLINE
5
221
100
AcDbEntity
8
SK1
62
256
6
ByLayer
370
18
48
1
60
0
100
AcDbSpline
70
4
71
3
72
18
73
14
40
0
40
0
40
0
40
0
40
0.155962719707662
40
0.155962719707662
40
0.316191253865889
40
0.316191253865889
40
0.463249051640795
40
0.463249051640795
40
0.59433326381777
40
0.59433326381777
40
0.817301503146325
40
0.817301503146325
40
1
40
1
40
1
40
1
41
1
10
-0.238765877365267
20
-7.73477536384496
30
0
41
1
10
-0.244000003617089
20
-7.73027033063539
30
0
41
1
10
-0.249398953289358
20
-7.72623582217693
30
0
41
1
10
-0.260148081082662
20
-7.71996293203006
30
0
41
1
10
-0.265631979707962
20
-7.71773050220111
30
0
41
1
10
-0.275094048606832
20
-7.71624772580867
30
0
41
1
10
-0.27927304236556
20
-7.71676691016663
30
0
41
1
10
-0.285796989435369
20
-7.71983448026506
30
0
41
1
10
-0.288379389627266
20
-7.72216561169233
30
0
41
1
10
-0.293940532646388
20
-7.72993371369111
30
0
41
1
10
-0.296088840058417
20
-7.73647927933084
30
0
41
1
10
-0.29834417407119
20
-7.74951880175573
30
0
41
1
10
-0.29876587736527
20
-7.75591705973869
30
0
41
1
10
-0.29876587736527
20
-7.76255777930768
30
0
0
SPLINE
5
222
100
AcDbEntity
8
SK1
62
256
6
ByLayer
370
18
48
1
60
0
100
AcDbSpline
70
4
71
3
72
8
73
4
40
0
40
0
40
0
40
0
40
1
40
1
40
1
40
1
41
1
10
-0.238765877365836
20
7.73477536384448
30
0
41
1
10
-0.159214054156507
20
7.80324593337218
30
0
41
1
10
-0.0796244802622823
20
7.87165805586315
30
0
41
1
10
0
20
7.94001592678256
30
0
0
SPLINE
5
223
100
AcDbEntity
8
SK1
62
256
6
ByLayer
370
18
48
1
60
0
100
AcDbSpline
70
4
71
3
72
8
73
4
40
0
40
0
40
0
40
0
40
1
40
1
40
1
40
1
41
1
10
-0.238765877365267
20
-8.12031070244166
30
0
41
1
10
-0.1606368346728
20
-8.28157539894053
30
0
41
1
10
-0.0810089209749663
20
-8.44188252382057
30
0
41
1
10
0
20
-8.60124135910399
30
0
0
SPLINE
5
224
100
AcDbEntity
8
SK1
62
256
6
ByLayer
370
18
48
1
60
0
100
AcDbSpline
70
4
71
3
72
8
73
4
40
0
40
0
40
0
40
0
40
1
40
1
40
1
40
1
41
1
10
0
20
8.60124135910399
30
0
41
1
10
-0.0810089209749663
20
8.44188252382057
30
0
41
1
10
-0.1606368346728
20
8.28157539894053
30
0
41
1
10
-0.238765877365267
20
8.12031070244166
30
0
0
SPLINE
5
225
100
AcDbEntity
8
1
62
256
6
ByLayer
370
18
48
1
60
0
100
AcDbSpline
70
4
71
3
72
8
73
4
40
0
40
0
40
0
40
0
40
1
40
1
40
1
40
1
41
1
10
0.346265877365283
20
-3.15192937208195
30
0
41
1
10
0.0033852009711381
20
-1.05064312402732
30
0
41
1
10
0.0033852009711381
20
1.05064312402732
30
0
41
1
10
0.346265877365283
20
3.15192937208192
30
0
0
SPLINE
5
226
100
AcDbEntity
8
1
62
256
6
ByLayer
370
18
48
1
60
0
100
AcDbSpline
70
4
71
3
72
16
73
12
40
0
40
0
40
0
40
0
40
0.206660322057515
40
0.206660322057515
40
0.413228875203248
40
0.413228875203248
40
0.62125363135876
40
0.62125363135876
40
0.833923060799142
40
0.833923060799142
40
1
40
1
40
1
40
1
41
1
10
6.2205812892995
20
12.3951415388541
30
0
41
1
10
6.08888162988279
20
12.3950091345498
30
0
41
1
10
5.95554382273491
20
12.3919759642699
30
0
41
1
10
5.70777507072017
20
12.3799388298593
30
0
41
1
10
5.58995573166396
20
12.3707413867447
30
0
41
1
10
5.38454285285474
20
12.345770400341
30
0
41
1
10
5.29440338546402
20
12.3295724594968
30
0
41
1
10
5.1516783956377
20
12.2901341930973
30
0
41
1
10
5.09803696845466
20
12.2661887430475
30
0
41
1
10
5.0411617291428
20
12.218396203556
30
0
41
1
10
5.02896277149665
20
12.1952885051946
30
0
41
1
10
5.0297312586469
20
12.1710237692243
30
0
0
SPLINE
5
227
100
AcDbEntity
8
1
62
256
6
ByLayer
370
18
48
1
60
0
100
AcDbSpline
70
4
71
3
72
8
73
4
40
0
40
0
40
0
40
0
40
1
40
1
40
1
40
1
41
1
10
0.346265877365283
20
-10.2376995361025
30
0
41
1
10
0.229219722500602
20
-10.0498655286572
30
0
41
1
10
0.113739105797208
20
-9.8607150529516
30
0
41
1
10
0
20
-9.67019146230109
30
0
0
SPLINE
5
228
100
AcDbEntity
8
1
62
256
6
ByLayer
370
18
48
1
60
0
100
AcDbSpline
70
4
71
1
72
4
73
2
40
0
40
0
40
1
40
1
41
1
10
10.7302967985549
20
12.3996252125922
30
0
41
1
10
10.7303050270988
20
12.3996381624771
30
0
0
SPLINE
5
229
100
AcDbEntity
8
1
62
256
6
ByLayer
370
18
48
1
60
0
100
AcDbSpline
70
4
71
3
72
22
73
18
40
0
40
0
40
0
40
0
40
0.0579606326123945
40
0.0579606326123945
40
0.11743246651474
40
0.11743246651474
40
0.172080770318652
40
0.172080770318652
40
0.220598143404019
40
0.220598143404019
40
0.302231310800994
40
0.302231310800994
40
0.448314356305543
40
0.448314356305543
40
0.747292843339461
40
0.747292843339461
40
1
40
1
40
1
40
1
41
1
10
0.346265877365283
20
-8.23677419397316
30
0
41
1
10
0.352019173101098
20
-8.24169670610792
30
0
41
1
10
0.357947364008623
20
-8.24610240699562
30
0
41
1
10
0.36972017776867
20
-8.2529455053141
30
0
41
1
10
0.37571043926647
20
-8.25537996936694
30
0
41
1
10
0.386027517323043
20
-8.25699584944564
30
0
41
1
10
0.390575063632582
20
-8.25642441872694
30
0
41
1
10
0.397632369509552
20
-8.2530492756301
30
0
41
1
10
0.400408629689252
20
-8.25049190255419
30
0
41
1
10
0.406315233496571
20
-8.24201972579004
30
0
41
1
10
0.408563769937984
20
-8.23491945047897
30
0
41
1
10
0.412108036421842
20
-8.21332516813919
30
0
41
1
10
0.411488905987085
20
-8.19701959008833
30
0
41
1
10
0.405446007553678
20
-8.14614702573405
30
0
41
1
10
0.39565344119643
20
-8.1088736568162
30
0
41
1
10
0.37296577993385
20
-8.04019375421305
30
0
41
1
10
0.360448762908277
20
-8.0081557098064
30
0
41
1
10
0.346265877365283
20
-7.97637607432429
30
0
0
SPLINE
5
22A
100
AcDbEntity
8
1
62
256
6
ByLayer
370
18
48
1
60
0
100
AcDbSpline
70
4
71
3
72
16
73
12
40
0
40
0
40
0
40
0
40
0.190888740157229
40
0.190888740157229
40
0.379990862464519
40
0.379990862464519
40
0.641001548296174
40
0.641001548296174
40
0.904451410149793
40
0.904451410149793
40
1
40
1
40
1
40
1
41
1
10
6.2205812892995
20
-8.69127557143312
30
0
41
1
10
6.10593640150142
20
-8.69195322000783
30
0
41
1
10
5.98993477701248
20
-8.70617461898368
30
0
41
1
10
5.77712314209947
20
-8.75413384895603
30
0
41
1
10
5.67717034789621
20
-8.78792530391868
30
0
41
1
10
5.4653117410175
20
-8.8780488659456
30
0
41
1
10
5.35905579309099
20
-8.93930433806042
30
0
41
1
10
5.18843109347586
20
-9.05935049800544
30
0
41
1
10
5.12202213608123
20
-9.11985183149375
30
0
41
1
10
5.0654240015898
20
-9.19224814839035
30
0
41
1
10
5.05349994992804
20
-9.21076530995546
30
0
41
1
10
5.04500740133909
20
-9.22821679815385
30
0
0
SPLINE
5
22B
100
AcDbEntity
8
1
62
256
6
ByLayer
370
18
48
1
60
0
100
AcDbSpline
70
4
71
3
72
8
73
4
40
0
40
0
40
0
40
0
40
1
40
1
40
1
40
1
41
1
10
0
20
-10.8143470869748
30
0
41
1
10
0.115404887590387
20
-10.9101938054917
30
0
41
1
10
0.230827288584976
20
-11.0060124131739
30
0
41
1
10
0.346265877365283
20
-11.1018050043141
30
0
0
SPLINE
5
22C
100
AcDbEntity
8
1
62
256
6
ByLayer
370
18
48
1
60
0
100
AcDbSpline
70
4
71
3
72
8
73
4
40
0
40
0
40
0
40
0
40
1
40
1
40
1
40
1
41
1
10
0.346265877365283
20
9.45716611180498
30
0
41
1
10
0.230836614090947
20
9.36234098597944
30
0
41
1
10
0.115414428426277
20
9.26750437160226
30
0
41
1
10
0
20
9.17265517271642
30
0
0
SPLINE
5
22D
100
AcDbEntity
8
1
62
256
6
ByLayer
370
18
48
1
60
0
100
AcDbSpline
70
4
71
3
72
8
73
4
40
0
40
0
40
0
40
0
40
1
40
1
40
1
40
1
41
1
10
0
20
11.3432293866236
30
0
41
1
10
0.115375688133611
20
11.4419246184803
30
0
41
1
10
0.230798820375014
20
11.5405459370123
30
0
41
1
10
0.346265877365283
20
11.6390985947187
30
0
0
SPLINE
5
22E
100
AcDbEntity
8
1
62
256
6
ByLayer
370
18
48
1
60
0
100
AcDbSpline
70
4
71
3
72
8
73
4
40
0
40
0
40
0
40
0
40
1
40
1
40
1
40
1
41
1
10
0
20
9.67019146230109
30
0
41
1
10
0.113739105797208
20
9.8607150529516
30
0
41
1
10
0.229219722500602
20
10.0498655286572
30
0
41
1
10
0.346265877365283
20
10.2376995361025
30
0
0
SPLINE
5
22F
100
AcDbEntity
8
1
62
256
6
ByLayer
370
18
48
1
60
0
100
AcDbSpline
70
4
71
3
72
10
73
6
40
0
40
0
40
0
40
0
40
0.229404610914831
40
0.229404610914831
40
1
40
1
40
1
40
1
41
1
10
0
20
11.9550307054211
30
0
41
1
10
0.0345001260635058
20
11.9898013347839
30
0
41
1
10
0.0690014275515409
20
12.024570797904
30
0
41
1
10
0.219401395605189
20
12.1761297650726
30
0
41
1
10
0.335311831666388
20
12.29290759086
30
0
41
1
10
0.45123412263473
20
12.4096736459909
30
0
0
SPLINE
5
230
100
AcDbEntity
8
1
62
256
6
ByLayer
370
18
48
1
60
0
100
AcDbSpline
70
4
71
3
72
22
73
18
40
0
40
0
40
0
40
0
40
0.0937899592824883
40
0.0937899592824883
40
0.189854034426562
40
0.189854034426562
40
0.272605725624804
40
0.272605725624804
40
0.346148559318351
40
0.346148559318351
40
0.459236172195494
40
0.459236172195494
40
0.637860101421922
40
0.637860101421922
40
0.93102931569287
40
0.93102931569287
40
1
40
1
40
1
40
1
41
1
10
0.346265877365283
20
-10.3878069201368
30
0
41
1
10
0.354074084013234
20
-10.3941891643003
30
0
41
1
10
0.361959053222563
20
-10.3999207606531
30
0
41
1
10
0.376978434313287
20
-10.4088208375763
30
0
41
1
10
0.38430014974017
20
-10.4120085908662
30
0
41
1
10
0.395632421950836
20
-10.4141125277954
30
0
41
1
10
0.400098122400777
20
-10.4135650107224
30
0
41
1
10
0.406284689033498
20
-10.4098610546666
30
0
41
1
10
0.408346128861012
20
-10.4069832633312
30
0
41
1
10
0.411528330630574
20
-10.3978083856368
30
0
41
1
10
0.411660331481983
20
-10.390400372159
30
0
41
1
10
0.408950615759522
20
-10.3693495326978
30
0
41
1
10
0.404396282509708
20
-10.3542127341877
30
0
41
1
10
0.388508267453517
20
-10.3129918015878
30
0
41
1
10
0.374404158784216
20
-10.2851494179618
30
0
41
1
10
0.35436625391759
20
-10.2508990114363
30
0
41
1
10
0.350378224558881
20
-10.2442989724895
30
0
41
1
10
0.346265877365283
20
-10.2376995361025
30
0
0
SPLINE
5
231
100
AcDbEntity
8
1
62
256
6
ByLayer
370
18
48
1
60
0
100
AcDbSpline
70
4
71
2
72
6
73
3
40
0
40
0
40
0
40
1
40
1
40
1
41
0.500000081332131
10
7.10802326792354
20
-8.68601598682898
30
0
41
0.499999918667869
10
6.6647624412271
20
-8.68865008389248
30
0
41
0.500000081332131
10
6.22058128930026
20
-8.69127557143313
30
0
0
SPLINE
5
232
100
AcDbEntity
8
1
62
256
6
ByLayer
370
18
48
1
60
0
100
AcDbSpline
70
4
71
3
72
8
73
4
40
0
40
0
40
0
40
0
40
1
40
1
40
1
40
1
41
1
10
0.346265877365283
20
12.023400427556
30
0
41
1
10
0.230759121535527
20
11.9210318587676
30
0
41
1
10
0.11533495691981
20
11.8185388964186
30
0
41
1
10
0
20
11.7159123809271
30
0
0
SPLINE
5
233
100
AcDbEntity
8
1
62
256
6
ByLayer
370
18
48
1
60
0
100
AcDbSpline
70
4
71
3
72
22
73
18
40
0
40
0
40
0
40
0
40
0.477178642487609
40
0.477178642487609
40
0.659175456068532
40
0.659175456068532
40
0.736104569890873
40
0.736104569890873
40
0.814382117909337
40
0.814382117909337
40
0.863913762798868
40
0.863913762798868
40
0.913546342599439
40
0.913546342599439
40
0.975074166835151
40
0.975074166835151
40
1
40
1
40
1
40
1
41
1
10
0.346265877365283
20
7.97637607432429
30
0
41
1
10
0.372778154651485
20
8.03578221600117
30
0
41
1
10
0.394400157228063
20
8.09707740388515
30
0
41
1
10
0.409434752644927
20
8.17508192335137
30
0
41
1
10
0.412041066221491
20
8.19648428882579
30
0
41
1
10
0.410659271015391
20
8.22320983200302
30
0
41
1
10
0.409565154625
20
8.23077165946216
30
0
41
1
10
0.405274018447017
20
8.24387335831761
30
0
41
1
10
0.4019474005147
20
8.24953857106073
30
0
41
1
10
0.394108553840454
20
8.25513076380884
30
0
41
1
10
0.390382910386563
20
8.25641347658166
30
0
41
1
10
0.382017011442088
20
8.25669809163008
30
0
41
1
10
0.377275238983202
20
8.25569635864159
30
0
41
1
10
0.366386136226822
20
8.25135011345853
30
0
41
1
10
0.360018907213885
20
8.24748036020759
30
0
41
1
10
0.351293317230329
20
8.24095059115768
30
0
41
1
10
0.348767421550065
20
8.23891451183107
30
0
41
1
10
0.346265877365283
20
8.23677419397316
30
0
0
SPLINE
5
234
100
AcDbEntity
8
1
62
256
6
ByLayer
370
18
48
1
60
0
100
AcDbSpline
70
4
71
3
72
8
73
4
40
0
40
0
40
0
40
0
40
1
40
1
40
1
40
1
41
1
10
-3.979E-13
20
3.38841451383433
30
0
41
1
10
0.11157892342294
20
3.56534997086928
30
0
41
1
10
0.227359890228342
20
3.738812969881
30
0
41
1
10
0.346265877371934
20
3.90926663647247
30
0
0
SPLINE
5
235
100
AcDbEntity
8
1
62
256
6
ByLayer
370
18
48
1
60
0
100
AcDbSpline
70
4
71
3
72
8
73
4
40
0
40
0
40
0
40
0
40
1
40
1
40
1
40
1
41
1
10
0
20
-6.23097929041342
30
0
41
1
10
0.11504583101447
20
-6.34351153311647
30
0
41
1
10
0.230486373726592
20
-6.45550739381841
30
0
41
1
10
0.346265877365283
20
-6.56703185455439
30
0
0
SPLINE
5
236
100
AcDbEntity
8
1
62
256
6
ByLayer
370
18
48
1
60
0
100
AcDbSpline
70
4
71
3
72
8
73
4
40
0
40
0
40
0
40
0
40
1
40
1
40
1
40
1
41
1
10
5.25241684171766
20
-11.7636856171422
30
0
41
1
10
5.14875201846985
20
-12.0807210522311
30
0
41
1
10
5.09751535172705
20
-12.2966534799648
30
0
41
1
10
5.0707996132316
20
-12.4096736459909
30
0
0
SPLINE
5
237
100
AcDbEntity
8
1
62
256
6
ByLayer
370
18
48
1
60
0
100
AcDbSpline
70
4
71
3
72
26
73
22
40
0
40
0
40
0
40
0
40
0.0215505198331116
40
0.0215505198331116
40
0.525005642187974
40
0.525005642187974
40
0.824449194733949
40
0.824449194733949
40
0.89910280771347
40
0.89910280771347
40
0.924036687229077
40
0.924036687229077
40
0.938625375606082
40
0.938625375606082
40
0.950365640115396
40
0.950365640115396
40
0.962059698270156
40
0.962059698270156
40
0.976523903036288
40
0.976523903036288
40
1
40
1
40
1
40
1
41
1
10
0.346265877365283
20
3.15192937208192
30
0
41
1
10
0.347275169430759
20
3.15811464784565
30
0
41
1
10
0.348276170534746
20
3.16430004271618
30
0
41
1
10
0.372416928601126
20
3.31471564910015
30
0
41
1
10
0.391926820896856
20
3.45946915233969
30
0
41
1
10
0.410147811892614
20
3.68731393541643
30
0
41
1
10
0.415844835011228
20
3.77346988155708
30
0
41
1
10
0.405949554049187
20
3.87324528234981
30
0
41
1
10
0.403093935091135
20
3.89331024655675
30
0
41
1
10
0.394583001608851
20
3.91592721724609
30
0
41
1
10
0.391958926544533
20
3.92132124998827
30
0
41
1
10
0.386527065070652
20
3.92796446499253
30
0
41
1
10
0.384187574617442
20
3.93002639738688
30
0
41
1
10
0.37943632959616
20
3.93228311844913
30
0
41
1
10
0.377073515010522
20
3.93276482232844
30
0
41
1
10
0.37224469105513
20
3.93245325859232
30
0
41
1
10
0.369724081272409
20
3.93166606170212
30
0
41
1
10
0.36429349673773
20
3.92887545085796
30
0
41
1
10
0.361354553333001
20
3.92661858176516
30
0
41
1
10
0.354145003402834
20
3.91982820961209
30
0
41
1
10
0.350044980277289
20
3.91468404195408
30
0
41
1
10
0.346265877371138
20
3.90926663647136
30
0
0
SPLINE
5
238
100
AcDbEntity
8
1
62
256
6
ByLayer
370
18
48
1
60
0
100
AcDbSpline
70
4
71
3
72
22
73
18
40
0
40
0
40
0
40
0
40
0.211681005287411
40
0.211681005287411
40
0.358865067454461
40
0.358865067454461
40
0.47623511333246
40
0.47623511333246
40
0.594943769528849
40
0.594943769528849
40
0.695709219858455
40
0.695709219858455
40
0.796855446613136
40
0.796855446613136
40
0.951499789890484
40
0.951499789890484
40
1
40
1
40
1
40
1
41
1
10
0.346265877365283
20
12.2346362764258
30
0
41
1
10
0.359897943066585
20
12.2497256596616
30
0
41
1
10
0.372770597480098
20
12.2644997576675
30
0
41
1
10
0.391049178604703
20
12.2867182654336
30
0
41
1
10
0.397675231776532
20
12.2952039928828
30
0
41
1
10
0.406445335378976
20
12.3076317214513
30
0
41
1
10
0.409285349024458
20
12.3122448613141
30
0
41
1
10
0.411787148559824
20
12.3183716780987
30
0
41
1
10
0.411410134675123
20
12.3199037798468
30
0
41
1
10
0.40747235660109
20
12.3192754591657
30
0
41
1
10
0.404358615666467
20
12.317637340799
30
0
41
1
10
0.396237688026133
20
12.3121674865849
30
0
41
1
10
0.391147528307385
20
12.3082841619878
30
0
41
1
10
0.37692356397838
20
12.2966974376908
30
0
41
1
10
0.36685665552659
20
12.2878975199698
30
0
41
1
10
0.353065493124234
20
12.2753706822286
30
0
41
1
10
0.349685067617599
20
12.2722660219198
30
0
41
1
10
0.346265877365283
20
12.2690953042644
30
0
0
SPLINE
5
239
100
AcDbEntity
8
1
62
256
6
ByLayer
370
18
48
1
60
0
100
AcDbSpline
70
4
71
3
72
22
73
18
40
0
40
0
40
0
40
0
40
0.347878771885175
40
0.347878771885175
40
0.504265863018444
40
0.504265863018444
40
0.662888634847354
40
0.662888634847354
40
0.739143923400673
40
0.739143923400673
40
0.816554116248827
40
0.816554116248827
40
0.883605498439367
40
0.883605498439367
40
0.946498597364854
40
0.946498597364854
40
1
40
1
40
1
40
1
41
1
10
0.346265877365283
20
-9.26169711960412
30
0
41
1
10
0.366274728170595
20
-9.29874992424587
30
0
41
1
10
0.383456169467706
20
-9.33647187791232
30
0
41
1
10
0.401032009849246
20
-9.38812676386112
30
0
41
1
10
0.405505721737598
20
-9.40396107155431
30
0
41
1
10
0.411112145227037
20
-9.43369559580424
30
0
41
1
10
0.412305279142686
20
-9.44799507894703
30
0
41
1
10
0.409211398904347
20
-9.46472902496856
30
0
41
1
10
0.407379241288879
20
-9.46954009071652
30
0
41
1
10
0.401608330623162
20
-9.47662233853595
30
0
41
1
10
0.397514162786933
20
-9.47890660004865
30
0
41
1
10
0.388054262423168
20
-9.47976443409331
30
0
41
1
10
0.382811073308062
20
-9.47879812069075
30
0
41
1
10
0.372026875593406
20
-9.474672866692
30
0
41
1
10
0.366413193063693
20
-9.47163297005366
30
0
41
1
10
0.355977234112459
20
-9.46479165097011
30
0
41
1
10
0.351096993348449
20
-9.46113487300113
30
0
41
1
10
0.346265877365283
20
-9.45716611180498
30
0
0
SPLINE
5
23A
100
AcDbEntity
8
1
62
256
6
ByLayer
370
18
48
1
60
0
100
AcDbSpline
70
4
71
3
72
22
73
18
40
0
40
0
40
0
40
0
40
0.111422414433504
40
0.111422414433504
40
0.205111172273924
40
0.205111172273924
40
0.299657140499009
40
0.299657140499009
40
0.382486320635791
40
0.382486320635791
40
0.495613585904334
40
0.495613585904334
40
0.662349487041781
40
0.662349487041781
40
0.921512922257098
40
0.921512922257098
40
1
40
1
40
1
40
1
41
1
10
0.346265877365283
20
11.1018050043141
30
0
41
1
10
0.355023063017256
20
11.1090718421502
30
0
41
1
10
0.363788987443456
20
11.1156611768721
30
0
41
1
10
0.378747405177251
20
11.1251291664588
30
0
41
1
10
0.385265192512691
20
11.128498750246
30
0
41
1
10
0.396385436677235
20
11.1322419855247
30
0
41
1
10
0.401108130389161
20
11.1326092035909
30
0
41
1
10
0.407391363284773
20
11.1302941327085
30
0
41
1
10
0.409359911166746
20
11.1279738226419
30
0
41
1
10
0.411758588645455
20
11.120376774234
30
0
41
1
10
0.411446700103113
20
11.1142498565473
30
0
41
1
10
0.407766825470617
20
11.0970475640183
30
0
41
1
10
0.403038219661426
20
11.0847336117631
30
0
41
1
10
0.387560797644767
20
11.0518258049637
30
0
41
1
10
0.374663188185195
20
11.0297313270701
30
0
41
1
10
0.355680213817095
20
11.0007934437107
30
0
41
1
10
0.351049668056817
20
10.9939656548854
30
0
41
1
10
0.346265877365283
20
10.987126560104
30
0
0
SPLINE
5
23B
100
AcDbEntity
8
1
62
256
6
ByLayer
370
18
48
1
60
0
100
AcDbSpline
70
4
71
3
72
8
73
4
40
0
40
0
40
0
40
0
40
1
40
1
40
1
40
1
41
1
10
0
20
7.1641540266497
30
0
41
1
10
0.110951948162096
20
7.43737501593759
30
0
41
1
10
0.226551674694576
20
7.70813209030851
30
0
41
1
10
0.346265877365283
20
7.97637607432429
30
0
0
SPLINE
5
23C
100
AcDbEntity
8
1
62
256
6
ByLayer
370
18
48
1
60
0
100
AcDbSpline
70
4
71
3
72
14
73
10
40
0
40
0
40
0
40
0
40
0.27368753892541
40
0.27368753892541
40
0.548645254017166
40
0.548645254017166
40
0.810920324928037
40
0.810920324928037
40
1
40
1
40
1
40
1
41
1
10
18.3704227603429
20
-3.13990917057791
30
0
41
1
10
18.2648225534651
20
-3.20997028833355
30
0
41
1
10
18.1431765569048
20
-3.2714226396578
30
0
41
1
10
17.8826482431186
20
-3.35941899436625
30
0
41
1
10
17.7401355536684
20
-3.38680529684211
30
0
41
1
10
17.4627032144601
20
-3.39885702992717
30
0
41
1
10
17.3239764603009
20
-3.38558400849482
30
0
41
1
10
17.0993846882604
20
-3.33292403482116
30
0
41
1
10
17.0077589764011
20
-3.30150827918524
30
0
41
1
10
16.9226218934808
20
-3.26327028628725
30
0
0
SPLINE
5
23D
100
AcDbEntity
8
1
62
256
6
ByLayer
370
18
48
1
60
0
100
AcDbSpline
70
4
71
3
72
16
73
12
40
0
40
0
40
0
40
0
40
0.0440595418052061
40
0.0440595418052061
40
0.326838326923333
40
0.326838326923333
40
0.633607184693641
40
0.633607184693641
40
0.849235915888076
40
0.849235915888076
40
1
40
1
40
1
40
1
41
1
10
5.08152970233476
20
-2.4211537694695
30
0
41
1
10
5.08785148604341
20
-2.43281611437755
30
0
41
1
10
5.09471788830035
20
-2.44456900120107
30
0
41
1
10
5.1496421671963
20
-2.53236294560497
30
0
41
1
10
5.21989362280891
20
-2.61295639737742
30
0
41
1
10
5.40312755514367
20
-2.77272728730057
30
0
41
1
10
5.52226953971496
20
-2.85394286690016
30
0
41
1
10
5.75545638332454
20
-2.96340550791723
30
0
41
1
10
5.86333146586998
20
-3.00101194392366
30
0
41
1
10
6.05527764004756
20
-3.03983768214542
30
0
41
1
10
6.13820405685618
20
-3.0487646638347
30
0
41
1
10
6.2205812892995
20
-3.04936024938979
30
0
0
SPLINE
5
23E
100
AcDbEntity
8
1
62
256
6
ByLayer
370
18
48
1
60
0
100
AcDbSpline
70
4
71
3
72
8
73
4
40
0
40
0
40
0
40
0
40
1
40
1
40
1
40
1
41
1
10
0
20
11.0995541765226
30
0
41
1
10
0.114608295288519
20
11.2519077114624
30
0
41
1
10
0.230055585113348
20
11.4034243160505
30
0
41
1
10
0.346265877365283
20
11.5541511286625
30
0
0
SPLINE
5
23F
100
AcDbEntity
8
1
62
256
6
ByLayer
370
18
48
1
60
0
100
AcDbSpline
70
4
71
3
72
10
73
6
40
0
40
0
40
0
40
0
40
0.554261862740599
40
0.554261862740599
40
1
40
1
40
1
40
1
41
1
10
5.0297312586469
20
-11.4946618617228
30
0
41
1
10
5.02869407717424
20
-11.5511206119412
30
0
41
1
10
5.05156767427661
20
-11.6060413261048
30
0
41
1
10
5.13440162132298
20
-11.6948054562033
30
0
41
1
10
5.1868740667839
20
-11.7315175451153
30
0
41
1
10
5.25241684171806
20
-11.7636856171422
30
0
0
SPLINE
5
240
100
AcDbEntity
8
1
62
256
6
ByLayer
370
18
48
1
60
0
100
AcDbSpline
70
4
71
3
72
8
73
4
40
0
40
0
40
0
40
0
40
1
40
1
40
1
40
1
41
1
10
0.346265877365283
20
-11.5541511286625
30
0
41
1
10
0.230055585113348
20
-11.4034243160505
30
0
41
1
10
0.114608295288519
20
-11.2519077114624
30
0
41
1
10
0
20
-11.0995541765226
30
0
0
SPLINE
5
241
100
AcDbEntity
8
1
62
256
6
ByLayer
370
18
48
1
60
0
100
AcDbSpline
70
4
71
3
72
22
73
18
40
0
40
0
40
0
40
0
40
0.165560074114725
40
0.165560074114725
40
0.287334689196968
40
0.287334689196968
40
0.390247095847815
40
0.390247095847815
40
0.493512754322351
40
0.493512754322351
40
0.592108808155919
40
0.592108808155919
40
0.732314561320585
40
0.732314561320585
40
0.928845505575987
40
0.928845505575987
40
1
40
1
40
1
40
1
41
1
10
0.346265877365283
20
-12.2690953042644
30
0
41
1
10
0.357799583619681
20
-12.2797908559458
30
0
41
1
10
0.369040108069839
20
-12.2898692880663
30
0
41
1
10
0.386152608347459
20
-12.3043308346909
30
0
41
1
10
0.39280113962576
20
-12.3096273696433
30
0
41
1
10
0.402542863488861
20
-12.3165297273373
30
0
41
1
10
0.406110251470352
20
-12.3186298789994
30
0
41
1
10
0.41059314984409
20
-12.3200427247317
30
0
41
1
10
0.411549468561304
20
-12.3193551528903
30
0
41
1
10
0.410844222274648
20
-12.3155080909522
30
0
41
1
10
0.409308242994314
20
-12.3124342069743
30
0
41
1
10
0.403413103679327
20
-12.3030442816101
30
0
41
1
10
0.398079874829477
20
-12.2957891019168
30
0
41
1
10
0.382856676349491
20
-12.2764957997901
30
0
41
1
10
0.371760782843921
20
-12.2633826977337
30
0
41
1
10
0.355420407242775
20
-12.2448298676077
30
0
41
1
10
0.350896308718006
20
-12.2397617177756
30
0
41
1
10
0.346265877365283
20
-12.2346362764258
30
0
0
SPLINE
5
242
100
AcDbEntity
8
1
62
256
6
ByLayer
370
18
48
1
60
0
100
AcDbSpline
70
4
71
3
72
8
73
4
40
0
40
0
40
0
40
0
40
1
40
1
40
1
40
1
41
1
10
0.346265877365283
20
-10.3878069201368
30
0
41
1
10
0.230842757174344
20
-10.293462780903
30
0
41
1
10
0.115420765530587
20
-10.1991168007114
30
0
41
1
10
-1.137E-13
20
-10.1047688205899
30
0
0
SPLINE
5
243
100
AcDbEntity
8
1
62
256
6
ByLayer
370
18
48
1
60
0
100
AcDbSpline
70
4
71
3
72
8
73
4
40
0
40
0
40
0
40
0
40
1
40
1
40
1
40
1
41
1
10
11.2075434234919
20
3.95997410410945
30
0
41
1
10
10.2458079747506
20
4.66112937870616
30
0
41
1
10
9.5634663672671
20
5.74346962735731
30
0
41
1
10
8.98477439477426
20
6.79218081906689
30
0
0
SPLINE
5
244
100
AcDbEntity
8
1
62
256
6
ByLayer
370
18
48
1
60
0
100
AcDbSpline
70
4
71
3
72
8
73
4
40
0
40
0
40
0
40
0
40
1
40
1
40
1
40
1
41
1
10
0.346265877365283
20
-7.97637607432429
30
0
41
1
10
0.226551674694576
20
-7.70813209030851
30
0
41
1
10
0.110951948162096
20
-7.43737501593759
30
0
41
1
10
0
20
-7.1641540266497
30
0
0
SPLINE
5
245
100
AcDbEntity
8
1
62
256
6
ByLayer
370
18
48
1
60
0
100
AcDbSpline
70
4
71
3
72
8
73
4
40
0
40
0
40
0
40
0
40
1
40
1
40
1
40
1
41
1
10
0.346265877365283
20
11.1018050043141
30
0
41
1
10
0.230827288584976
20
11.0060124131739
30
0
41
1
10
0.115404887590387
20
10.9101938054917
30
0
41
1
10
0
20
10.8143470869748
30
0
0
SPLINE
5
246
100
AcDbEntity
8
1
62
256
6
ByLayer
370
18
48
1
60
0
100
AcDbSpline
70
4
71
3
72
8
73
4
40
0
40
0
40
0
40
0
40
1
40
1
40
1
40
1
41
1
10
0.346265877365283
20
-11.6390985947187
30
0
41
1
10
0.230798820375014
20
-11.5405459370123
30
0
41
1
10
0.115375688133611
20
-11.4419246184803
30
0
41
1
10
0
20
-11.3432293866236
30
0
0
SPLINE
5
247
100
AcDbEntity
8
1
62
256
6
ByLayer
370
18
48
1
60
0
100
AcDbSpline
70
4
71
3
72
8
73
4
40
0
40
0
40
0
40
0
40
1
40
1
40
1
40
1
41
1
10
0.346265877365283
20
-12.2346362764258
30
0
41
1
10
0.230435625110601
20
-12.106423347816
30
0
41
1
10
0.115001762472957
20
-11.9777309575305
30
0
41
1
10
0
20
-11.8485274577714
30
0
0
SPLINE
5
248
100
AcDbEntity
8
1
62
256
6
ByLayer
370
18
48
1
60
0
100
AcDbSpline
70
4
71
3
72
16
73
12
40
0
40
0
40
0
40
0
40
0.167876707554185
40
0.167876707554185
40
0.351371390538021
40
0.351371390538021
40
0.536603508820304
40
0.536603508820304
40
0.750014151237737
40
0.750014151237737
40
1
40
1
40
1
40
1
41
1
10
24.3416721852723
20
-3.18648569780098
30
0
41
1
10
24.2750607490102
20
-3.4184503182147
30
0
41
1
10
24.1790393515668
20
-3.67459146036731
30
0
41
1
10
23.9080778653371
20
-4.20975412176074
30
0
41
1
10
23.7224773633353
20
-4.49496392761432
30
0
41
1
10
23.2809508216975
20
-5.0160579299928
30
0
41
1
10
23.0197013499665
20
-5.25764467978809
30
0
41
1
10
22.4082975270634
20
-5.69472966747173
30
0
41
1
10
22.0433696440176
20
-5.88357276037499
30
0
41
1
10
21.2201262678539
20
-6.16963496624209
30
0
41
1
10
20.7442382080968
20
-6.24999999945314
30
0
41
1
10
20.2746228573962
20
-6.24999999945314
30
0
0
SPLINE
5
249
100
AcDbEntity
8
1
62
256
6
ByLayer
370
18
48
1
60
0
100
AcDbSpline
70
4
71
3
72
8
73
4
40
0
40
0
40
0
40
0
40
1
40
1
40
1
40
1
41
1
10
0.346265877365283
20
11.9647342870706
30
0
41
1
10
0.230277541532871
20
11.826454009731
30
0
41
1
10
0.114838291584874
20
11.6875563471868
30
0
41
1
10
0
20
11.5480021180099
30
0
0
SPLINE
5
24A
100
AcDbEntity
8
1
62
256
6
ByLayer
370
18
48
1
60
0
100
AcDbSpline
70
4
71
3
72
22
73
18
40
0
40
0
40
0
40
0
40
0.207675188636617
40
0.207675188636617
40
0.370644281583627
40
0.370644281583627
40
0.494997184196364
40
0.494997184196364
40
0.596186530762269
40
0.596186530762269
40
0.697879528049506
40
0.697879528049506
40
0.792807826306802
40
0.792807826306802
40
0.925276789612654
40
0.925276789612654
40
1
40
1
40
1
40
1
41
1
10
0.346265877365283
20
-11.9647342870706
30
0
41
1
10
0.359372209632909
20
-11.9803595415229
30
0
41
1
10
0.371647363562147
20
-11.995802080732
30
0
41
1
10
0.390236131413815
20
-12.0211362171773
30
0
41
1
10
0.397417324135859
20
-12.0317253186461
30
0
41
1
10
0.40660963514938
20
-12.0475379397915
30
0
41
1
10
0.409501414892304
20
-12.0535649594317
30
0
41
1
10
0.411627869726544
20
-12.061536775635
30
0
41
1
10
0.411437888994158
20
-12.0640888370587
30
0
41
1
10
0.408401322012992
20
-12.0663483395009
30
0
41
1
10
0.405487448283225
20
-12.0660570999757
30
0
41
1
10
0.397718253708149
20
-12.0628501293161
30
0
41
1
10
0.39292802110748
20
-12.0600898295608
30
0
41
1
10
0.38010492766972
20
-12.0514703650392
30
0
41
1
10
0.371354499046845
20
-12.044714471476
30
0
41
1
10
0.357058756644619
20
-12.0328337851015
30
0
41
1
10
0.35169804073729
20
-12.0282147155673
30
0
41
1
10
0.346265877365283
20
-12.023400427556
30
0
0
SPLINE
5
24B
100
AcDbEntity
8
1
62
256
6
ByLayer
370
18
48
1
60
0
100
AcDbSpline
70
4
71
3
72
8
73
4
40
0
40
0
40
0
40
0
40
1
40
1
40
1
40
1
41
1
10
0.346265877365283
20
10.987126560104
30
0
41
1
10
0.229729664239528
20
10.8205218195503
30
0
41
1
10
0.114269838928124
20
10.652904136356
30
0
41
1
10
0
20
10.4842192326163
30
0
0
SPLINE
5
24C
100
AcDbEntity
8
1
62
256
6
ByLayer
370
18
48
1
60
0
100
AcDbSpline
70
4
71
3
72
8
73
4
40
0
40
0
40
0
40
0
40
1
40
1
40
1
40
1
41
1
10
0
20
-9.17265517271639
30
0
41
1
10
0.115414428426277
20
-9.26750437160226
30
0
41
1
10
0.230836614090947
20
-9.36234098597942
30
0
41
1
10
0.346265877365283
20
-9.45716611180498
30
0
0
SPLINE
5
24D
100
AcDbEntity
8
1
62
256
6
ByLayer
370
18
48
1
60
0
100
AcDbSpline
70
4
71
3
72
22
73
18
40
0
40
0
40
0
40
0
40
0.278994554121862
40
0.278994554121862
40
0.431992036032686
40
0.431992036032686
40
0.552666573772419
40
0.552666573772419
40
0.648553314219654
40
0.648553314219654
40
0.744960055493873
40
0.744960055493873
40
0.834535819088658
40
0.834535819088658
40
0.961189644705772
40
0.961189644705772
40
1
40
1
40
1
40
1
41
1
10
0.346265877365283
20
11.5541511286625
30
0
41
1
10
0.363411421661169
20
11.57638920407
30
0
41
1
10
0.379066550646996
20
11.5986681115014
30
0
41
1
10
0.397538236924731
20
11.6295557843882
30
0
41
1
10
0.403071023539496
20
11.6400215441734
30
0
41
1
10
0.409569583288032
20
11.6560087830561
30
0
41
1
10
0.411286714963637
20
11.6622372072947
30
0
41
1
10
0.411248946879653
20
11.6703928249904
30
0
41
1
10
0.410105628114763
20
11.6729948760845
30
0
41
1
10
0.405335505900212
20
11.675354983723
30
0
41
1
10
0.401617619872525
20
11.6751126740786
30
0
41
1
10
0.392577979999487
20
11.6719915696825
30
0
41
1
10
0.387296366402552
20
11.6692825034614
30
0
41
1
10
0.373500436120253
20
11.660738655423
30
0
41
1
10
0.364347430904843
20
11.6539747618803
30
0
41
1
10
0.352129910353142
20
11.6440472880504
30
0
41
1
10
0.349206449933604
20
11.6416084122315
30
0
41
1
10
0.346265877365283
20
11.6390985947187
30
0
0
SPLINE
5
24E
100
AcDbEntity
8
1
62
256
6
ByLayer
370
18
48
1
60
0
100
AcDbSpline
70
4
71
3
72
8
73
4
40
0
40
0
40
0
40
0
40
1
40
1
40
1
40
1
41
1
10
8.98477439477426
20
6.79218081906691
30
0
41
1
10
8.98476213704845
20
6.79226369870409
30
0
41
1
10
8.98474988217703
20
6.79234657780898
30
0
41
1
10
8.98473763015977
20
6.79242945638103
30
0
0
SPLINE
5
24F
100
AcDbEntity
8
1
62
256
6
ByLayer
370
18
48
1
60
0
100
AcDbSpline
70
4
71
3
72
14
73
10
40
0
40
0
40
0
40
0
40
0.133940212851456
40
0.133940212851456
40
0.398256581259816
40
0.398256581259816
40
0.694439329433551
40
0.694439329433551
40
1
40
1
40
1
40
1
41
1
10
16.0714602054622
20
8.79010479431466
30
0
41
1
10
16.066187677389
20
8.78870935520561
30
0
41
1
10
16.0601072970608
20
8.78727368823661
30
0
41
1
10
16.0400905362699
20
8.78300779122961
30
0
41
1
10
16.0239784845181
20
8.78011738779142
30
0
41
1
10
15.9865897494695
20
8.77442579208923
30
0
41
1
10
15.9644584430109
20
8.77160630300827
30
0
41
1
10
15.9179359969233
20
8.76676894008543
30
0
41
1
10
15.8929403270957
20
8.76472218519876
30
0
41
1
10
15.8682351499418
20
8.76324705383456
30
0
0
SPLINE
5
250
100
AcDbEntity
8
1
62
256
6
ByLayer
370
18
48
1
60
0
100
AcDbSpline
70
4
71
3
72
8
73
4
40
0
40
0
40
0
40
0
40
1
40
1
40
1
40
1
41
1
10
0.346265877365283
20
-8.23677419397316
30
0
41
1
10
0.230775716236792
20
-8.13796096661619
30
0
41
1
10
0.115351215931071
20
-8.03904531451656
30
0
41
1
10
0
20
-7.94001592678256
30
0
0
SPLINE
5
251
100
AcDbEntity
8
1
62
256
6
ByLayer
370
18
48
1
60
0
100
AcDbSpline
70
4
71
3
72
8
73
4
40
0
40
0
40
0
40
0
40
1
40
1
40
1
40
1
41
1
10
0
20
11.9470227637501
30
0
41
1
10
0.115281542761693
20
12.0545812521827
30
0
41
1
10
0.230707112539164
20
12.161934196277
30
0
41
1
10
0.346265877365283
20
12.2690953042644
30
0
0
SPLINE
5
252
100
AcDbEntity
8
1
62
256
6
ByLayer
370
18
48
1
60
0
100
AcDbSpline
70
4
71
3
72
8
73
4
40
0
40
0
40
0
40
0
40
1
40
1
40
1
40
1
41
1
10
0
20
-8.60124135910399
30
0
41
1
10
0.112822336155318
20
-8.82318279305082
30
0
41
1
10
0.228340842567093
20
-9.04332109595023
30
0
41
1
10
0.346265877365283
20
-9.26169711960412
30
0
0
SPLINE
5
253
100
AcDbEntity
8
1
62
256
6
ByLayer
370
18
48
1
60
0
100
AcDbSpline
70
4
71
3
72
8
73
4
40
0
40
0
40
0
40
0
40
1
40
1
40
1
40
1
41
1
10
0.346265877365283
20
-12.2690953042644
30
0
41
1
10
0.230707112539164
20
-12.161934196277
30
0
41
1
10
0.115281542761693
20
-12.0545812521827
30
0
41
1
10
0
20
-11.9470227637501
30
0
0
SPLINE
5
254
100
AcDbEntity
8
1
62
256
6
ByLayer
370
18
48
1
60
0
100
AcDbSpline
70
4
71
3
72
8
73
4
40
0
40
0
40
0
40
0
40
1
40
1
40
1
40
1
41
1
10
0.346265877365283
20
6.56703185455439
30
0
41
1
10
0.230486373726592
20
6.45550739381841
30
0
41
1
10
0.11504583101447
20
6.34351153311647
30
0
41
1
10
0
20
6.23097929041342
30
0
0
SPLINE
5
255
100
AcDbEntity
8
1
62
256
6
ByLayer
370
18
48
1
60
0
100
AcDbSpline
70
4
71
3
72
10
73
6
40
0
40
0
40
0
40
0
40
0.5
40
0.5
40
1
40
1
40
1
40
1
41
1
10
7.10802326792344
20
-8.68601598682898
30
0
41
1
10
7.66733033118641
20
-8.10818858634366
30
0
41
1
10
8.58179822791368
20
-7.39788769869241
30
0
41
1
10
10.6004520261281
20
-6.49540482163786
30
0
41
1
10
11.7258179176024
20
-6.24999999945314
30
0
41
1
10
12.8562475073962
20
-6.24999999945314
30
0
0
SPLINE
5
256
100
AcDbEntity
8
1
62
256
6
ByLayer
370
18
48
1
60
0
100
AcDbSpline
70
4
71
3
72
8
73
4
40
0
40
0
40
0
40
0
40
1
40
1
40
1
40
1
41
1
10
0
20
-11.7159123809271
30
0
41
1
10
0.11533495691981
20
-11.8185388964186
30
0
41
1
10
0.230759121535527
20
-11.9210318587676
30
0
41
1
10
0.346265877365283
20
-12.023400427556
30
0
0
SPLINE
5
257
100
AcDbEntity
8
1
62
256
6
ByLayer
370
18
48
1
60
0
100
AcDbSpline
70
4
71
3
72
18
73
14
40
0
40
0
40
0
40
0
40
0.130705171207119
40
0.130705171207119
40
0.510233865640778
40
0.510233865640778
40
0.731497398510302
40
0.731497398510302
40
0.861741675762445
40
0.861741675762445
40
0.952522423802307
40
0.952522423802307
40
1
40
1
40
1
40
1
41
1
10
5.05581607719938
20
8.23426370951611
30
0
41
1
10
5.07031662552811
20
8.16781104959097
30
0
41
1
10
5.09043982568846
20
8.09973321045837
30
0
41
1
10
5.18661709883025
20
7.83239078251097
30
0
41
1
10
5.2972155772452
20
7.62218324087635
30
0
41
1
10
5.52046702547449
20
7.30519075592397
30
0
41
1
10
5.6147750887942
20
7.18914209412708
30
0
41
1
10
5.79007427033787
20
7.02585821702098
30
0
41
1
10
5.86174721963988
20
6.96914196270561
30
0
41
1
10
5.99654476887662
20
6.89407613469268
30
0
41
1
10
6.05689708957794
20
6.86909239610463
30
0
41
1
10
6.15264708733707
20
6.84822686678845
30
0
41
1
10
6.18666065229024
20
6.84410362896671
30
0
41
1
10
6.2205812892995
20
6.84348886932816
30
0
0
SPLINE
5
258
100
AcDbEntity
8
1
62
256
6
ByLayer
370
18
48
1
60
0
100
AcDbSpline
70
4
71
3
72
8
73
4
40
0
40
0
40
0
40
0
40
1
40
1
40
1
40
1
41
1
10
0
20
-10.4842192326163
30
0
41
1
10
0.114269838928124
20
-10.652904136356
30
0
41
1
10
0.229729664239528
20
-10.8205218195503
30
0
41
1
10
0.346265877365283
20
-10.987126560104
30
0
0
SPLINE
5
259
100
AcDbEntity
8
1
62
256
6
ByLayer
370
18
48
1
60
0
100
AcDbSpline
70
4
71
3
72
8
73
4
40
0
40
0
40
0
40
0
40
1
40
1
40
1
40
1
41
1
10
0
20
11.8485274577714
30
0
41
1
10
0.115001762472957
20
11.9777309575305
30
0
41
1
10
0.230435625110601
20
12.106423347816
30
0
41
1
10
0.346265877365283
20
12.2346362764258
30
0
0
SPLINE
5
25A
100
AcDbEntity
8
1
62
256
6
ByLayer
370
18
48
1
60
0
100
AcDbSpline
70
4
71
3
72
22
73
18
40
0
40
0
40
0
40
0
40
0.047912519068037
40
0.047912519068037
40
0.0820624641789727
40
0.0820624641789727
40
0.116468624686352
40
0.116468624686352
40
0.148035618421806
40
0.148035618421806
40
0.201848864027685
40
0.201848864027685
40
0.304248920768651
40
0.304248920768651
40
0.606177712089761
40
0.606177712089761
40
1
40
1
40
1
40
1
41
1
10
0.346265877365283
20
6.56703185455439
30
0
41
1
10
0.351809765583312
20
6.57237199788258
30
0
41
1
10
0.357684033582075
20
6.57715094112274
30
0
41
1
10
0.367781181833095
20
6.58298730596937
30
0
41
1
10
0.372080053091963
20
6.58473778906733
30
0
41
1
10
0.380182470440388
20
6.58619255022234
30
0
41
1
10
0.384078551334085
20
6.58588028144888
30
0
41
1
10
0.390561356880767
20
6.58341828742329
30
0
41
1
10
0.393310642457777
20
6.58141760162408
30
0
41
1
10
0.399600857145344
20
6.57461945814666
30
0
41
1
10
0.40250077969057
20
6.56878804925816
30
0
41
1
10
0.408739250414726
20
6.55029393553889
30
0
41
1
10
0.410422260473865
20
6.53588369251832
30
0
41
1
10
0.412775529623787
20
6.47787911164298
30
0
41
1
10
0.405949963550654
20
6.42958064468257
30
0
41
1
10
0.384682204571789
20
6.31927000907072
30
0
41
1
10
0.367332524316112
20
6.25528269104478
30
0
41
1
10
0.346265877365283
20
6.1920204313958
30
0
0
SPLINE
5
25B
100
AcDbEntity
8
1
62
256
6
ByLayer
370
18
48
1
60
0
100
AcDbSpline
70
4
71
3
72
8
73
4
40
0
40
0
40
0
40
0
40
1
40
1
40
1
40
1
41
1
10
0
20
-5.05409268984661
30
0
41
1
10
0.10545472559312
20
-5.43725176603041
30
0
41
1
10
0.221303491542983
20
-5.81676361351231
30
0
41
1
10
0.34626587736517
20
-6.19202043139583
30
0
0
SPLINE
5
25C
100
AcDbEntity
8
1
62
256
6
ByLayer
370
18
48
1
60
0
100
AcDbSpline
70
4
71
3
72
8
73
4
40
0
40
0
40
0
40
0
40
1
40
1
40
1
40
1
41
1
10
0.346265877365283
20
-3.90926663646292
30
0
41
1
10
0.227359890227604
20
-3.73881296987966
30
0
41
1
10
0.111578923427828
20
-3.56534997087638
30
0
41
1
10
9.6065E-12
20
-3.38841451385025
30
0
0
SPLINE
5
25D
100
AcDbEntity
8
1
62
256
6
ByLayer
370
18
48
1
60
0
100
AcDbSpline
70
4
71
3
72
10
73
6
40
0
40
0
40
0
40
0
40
0.770595389085173
40
0.770595389085173
40
1
40
1
40
1
40
1
41
1
10
0.45123412263473
20
-12.4096736459909
30
0
41
1
10
0.335311831666388
20
-12.29290759086
30
0
41
1
10
0.219401395605189
20
-12.1761297650726
30
0
41
1
10
0.0690014275515409
20
-12.024570797904
30
0
41
1
10
0.0345001260635058
20
-11.9898013347839
30
0
41
1
10
0
20
-11.9550307054211
30
0
0
SPLINE
5
25E
100
AcDbEntity
8
1
62
256
6
ByLayer
370
18
48
1
60
0
100
AcDbSpline
70
4
71
3
72
8
73
4
40
0
40
0
40
0
40
0
40
1
40
1
40
1
40
1
41
1
10
0
20
7.94001592678256
30
0
41
1
10
0.115351215931071
20
8.03904531451656
30
0
41
1
10
0.230775716236792
20
8.13796096661619
30
0
41
1
10
0.346265877365283
20
8.23677419397316
30
0
0
SPLINE
5
25F
100
AcDbEntity
8
1
62
256
6
ByLayer
370
18
48
1
60
0
100
AcDbSpline
70
4
71
2
72
6
73
3
40
0
40
0
40
0
40
1
40
1
40
1
41
0.500000911369163
10
10.7303050270989
20
12.3996381624771
30
0
41
0.499999088630837
10
10.7304099715758
20
12.3996499210124
30
0
41
0.500000911369163
10
10.730514916088
20
12.3996616782068
30
0
0
SPLINE
5
260
100
AcDbEntity
8
1
62
256
6
ByLayer
370
18
48
1
60
0
100
AcDbSpline
70
4
71
3
72
20
73
16
40
0
40
0
40
0
40
0
40
0.353208827241179
40
0.353208827241179
40
0.501260849719145
40
0.501260849719145
40
0.652000542139395
40
0.652000542139395
40
0.732433063749091
40
0.732433063749091
40
0.813569072455397
40
0.813569072455397
40
0.886953367887478
40
0.886953367887478
40
1
40
1
40
1
40
1
41
1
10
0.346265877365283
20
10.2376995361025
30
0
41
1
10
0.367024394812972
20
10.2710125101625
30
0
41
1
10
0.385125926464411
20
10.3050003885362
30
0
41
1
10
0.402490572695456
20
10.3489824587486
30
0
41
1
10
0.406644118009922
20
10.3617025373474
30
0
41
1
10
0.411488599477934
20
10.3847639906631
30
0
41
1
10
0.412177663029468
20
10.3954310328707
30
0
41
1
10
0.408445488673806
20
10.4069467225303
30
0
41
1
10
0.406175720657586
20
10.4101051689533
30
0
41
1
10
0.399557977012137
20
10.413679442094
30
0
41
1
10
0.395081463021882
20
10.4140899161445
30
0
41
1
10
0.385114609086656
20
10.4120793834186
30
0
41
1
10
0.379655484006946
20
10.4099187424723
30
0
41
1
10
0.365215379560425
20
10.40225185236
30
0
41
1
10
0.355659448274821
20
10.3954850036987
30
0
41
1
10
0.346265877365283
20
10.3878069201368
30
0
0
SPLINE
5
261
100
AcDbEntity
8
1
62
256
6
ByLayer
370
18
48
1
60
0
100
AcDbSpline
70
4
71
3
72
22
73
18
40
0
40
0
40
0
40
0
40
0.14712764913231
40
0.14712764913231
40
0.260485434751287
40
0.260485434751287
40
0.375168964926516
40
0.375168964926516
40
0.47256630673283
40
0.47256630673283
40
0.570229196564232
40
0.570229196564232
40
0.722117072447015
40
0.722117072447015
40
0.940988336750846
40
0.940988336750846
40
1
40
1
40
1
40
1
41
1
10
0.346265877365283
20
12.023400427556
30
0
41
1
10
0.356868283759127
20
12.0327968750664
30
0
41
1
10
0.367297545093265
20
12.0415328318058
30
0
41
1
10
0.383811426077614
20
12.0540717641356
30
0
41
1
10
0.39048669256465
20
12.0586421363153
30
0
41
1
10
0.401383430943554
20
12.0647065742613
30
0
41
1
10
0.40570927072099
20
12.0662154735187
30
0
41
1
10
0.410454269801903
20
12.065541083902
30
0
41
1
10
0.411429459743658
20
12.063878295389
30
0
41
1
10
0.411054614865179
20
12.0583608575975
30
0
41
1
10
0.40971409884412
20
12.054457413458
30
0
41
1
10
0.404123992963207
20
12.0427133159693
30
0
41
1
10
0.398626833027038
20
12.0337262881214
30
0
41
1
10
0.382505397514137
20
12.0100824394028
30
0
41
1
10
0.370426840784205
20
11.9942400498638
30
0
41
1
10
0.353703980384694
20
11.9736684794656
30
0
41
1
10
0.350024309849346
20
11.9692150573354
30
0
41
1
10
0.346265877365283
20
11.9647342870706
30
0
0
SPLINE
5
262
100
AcDbEntity
8
1
62
256
6
ByLayer
370
18
48
1
60
0
100
AcDbSpline
70
4
71
3
72
8
73
4
40
0
40
0
40
0
40
0
40
1
40
1
40
1
40
1
41
1
10
0.34626587736517
20
6.19202043139583
30
0
41
1
10
0.221303491542983
20
5.81676361351231
30
0
41
1
10
0.10545472559312
20
5.43725176603041
30
0
41
1
10
0
20
5.05409268984661
30
0
0
SPLINE
5
263
100
AcDbEntity
8
1
62
256
6
ByLayer
370
18
48
1
60
0
100
AcDbSpline
70
4
71
3
72
8
73
4
40
0
40
0
40
0
40
0
40
1
40
1
40
1
40
1
41
1
10
16.8695219500813
20
-3.23940490832015
30
0
41
1
10
16.7964038450537
20
-3.20651979043444
30
0
41
1
10
16.7273257421426
20
-3.16832407352072
30
0
41
1
10
16.6637626343403
20
-3.12685487237888
30
0
0
SPLINE
5
264
100
AcDbEntity
8
1
62
256
6
ByLayer
370
18
48
1
60
0
100
AcDbSpline
70
4
71
3
72
8
73
4
40
0
40
0
40
0
40
0
40
1
40
1
40
1
40
1
41
1
10
5.25241684171857
20
-11.7636856171395
30
0
41
1
10
5.46702694718488
20
-11.1073491084835
30
0
41
1
10
5.7840932132097
20
-10.429622716079
30
0
41
1
10
6.2205812892995
20
-9.78145058806587
30
0
0
SPLINE
5
265
100
AcDbEntity
8
1
62
256
6
ByLayer
370
18
48
1
60
0
100
AcDbSpline
70
4
71
3
72
16
73
12
40
0
40
0
40
0
40
0
40
0.0963002434020707
40
0.0963002434020707
40
0.227093033093765
40
0.227093033093765
40
0.479884269576384
40
0.479884269576384
40
0.900796564413531
40
0.900796564413531
40
1
40
1
40
1
40
1
41
1
10
6.2205812892995
20
3.87270743769363
30
0
41
1
10
6.15767640628633
20
3.87165036261237
30
0
41
1
10
6.09429488650448
20
3.85897258970058
30
0
41
1
10
5.95660654027171
20
3.8105764654247
30
0
41
1
10
5.88359203918935
20
3.76844781603379
30
0
41
1
10
5.6912423511788
20
3.63154048544166
30
0
41
1
10
5.58522717941975
20
3.52222039521118
30
0
41
1
10
5.34023402164007
20
3.23224752505121
30
0
41
1
10
5.22003097410396
20
3.04291218115168
30
0
41
1
10
5.11956178211341
20
2.82801377994232
30
0
41
1
10
5.102495817977
20
2.78749667784123
30
0
41
1
10
5.08788156336675
20
2.74776910480003
30
0
0
SPLINE
5
266
100
AcDbEntity
8
1
62
256
6
ByLayer
370
18
48
1
60
0
100
AcDbSpline
70
4
71
3
72
22
73
18
40
0
40
0
40
0
40
0
40
0.076003412125595
40
0.076003412125595
40
0.15387019842922
40
0.15387019842922
40
0.223455688856948
40
0.223455688856948
40
0.285796807149923
40
0.285796807149923
40
0.386327790897015
40
0.386327790897015
40
0.554663739773593
40
0.554663739773593
40
0.858182253120758
40
0.858182253120758
40
1
40
1
40
1
40
1
41
1
10
0.346265877365283
20
9.45716611180498
30
0
41
1
10
0.353080398826194
20
9.46276424036131
30
0
41
1
10
0.360026749084682
20
9.46776433143455
30
0
41
1
10
0.373516527129425
20
9.47547667452699
30
0
41
1
10
0.380224615466545
20
9.47819364590518
30
0
41
1
10
0.39121288921217
20
9.47991266801969
30
0
41
1
10
0.395808338589916
20
9.47928157766455
30
0
41
1
10
0.402625282773784
20
9.47560079623548
30
0
41
1
10
0.405139438569961
20
9.47279367063126
30
0
41
1
10
0.409875329987244
20
9.46369612926208
30
0
41
1
10
0.411120970949412
20
9.45622582342216
30
0
41
1
10
0.411475421061709
20
9.43435359058293
30
0
41
1
10
0.408718434364289
20
9.41827884048826
30
0
41
1
10
0.396869003968788
20
9.37199306815333
30
0
41
1
10
0.384269477335408
20
9.33961147704818
30
0
41
1
10
0.362194018163166
20
9.29222705574227
30
0
41
1
10
0.354496231725022
20
9.27693826039686
30
0
41
1
10
0.346265877365283
20
9.26169711960412
30
0
0
SPLINE
5
267
100
AcDbEntity
8
1
62
256
6
ByLayer
370
18
48
1
60
0
100
AcDbSpline
70
4
71
3
72
22
73
18
40
0
40
0
40
0
40
0
40
0.12909646557881
40
0.12909646557881
40
0.23309286199016
40
0.23309286199016
40
0.338165588650447
40
0.338165588650447
40
0.428832221516919
40
0.428832221516919
40
0.545043792869115
40
0.545043792869115
40
0.709173541959672
40
0.709173541959672
40
0.953399099907675
40
0.953399099907675
40
1
40
1
40
1
40
1
41
1
10
0.346265877365283
20
-11.6390985947187
30
0
41
1
10
0.355948425049348
20
-11.6473627770103
30
0
41
1
10
0.365557239060536
20
-11.6549464285523
30
0
41
1
10
0.38135902531468
20
-11.6658316067365
30
0
41
1
10
0.387994066200008
20
-11.6697594578585
30
0
41
1
10
0.399070997344381
20
-11.6745666840586
30
0
41
1
10
0.403626772714347
20
-11.6754483057535
30
0
41
1
10
0.409197431365612
20
-11.6738631837349
30
0
41
1
10
0.410690880175878
20
-11.6718321804927
30
0
41
1
10
0.411679255294416
20
-11.6649547943325
30
0
41
1
10
0.410547474357997
20
-11.6594064821057
30
0
41
1
10
0.405005776545693
20
-11.6439370302391
30
0
41
1
10
0.39940785291634
20
-11.6329253302104
30
0
41
1
10
0.38243720587991
20
-11.6040063758033
30
0
41
1
10
0.369287916311009
20
-11.5847824383228
30
0
41
1
10
0.352022862222498
20
-11.5616751241132
30
0
41
1
10
0.349170470757826
20
-11.5579184378699
30
0
41
1
10
0.346265877365283
20
-11.5541511286625
30
0
0
SPLINE
5
268
100
AcDbEntity
8
1
62
256
6
ByLayer
370
18
48
1
60
0
100
AcDbSpline
70
4
71
3
72
8
73
4
40
0
40
0
40
0
40
0
40
1
40
1
40
1
40
1
41
1
10
0
20
-11.5480021180099
30
0
41
1
10
0.114838291584874
20
-11.6875563471868
30
0
41
1
10
0.230277541532871
20
-11.826454009731
30
0
41
1
10
0.346265877365283
20
-11.9647342870706
30
0
0
SPLINE
5
269
100
AcDbEntity
8
1
62
256
6
ByLayer
370
18
48
1
60
0
100
AcDbSpline
70
4
71
3
72
26
73
22
40
0
40
0
40
0
40
0
40
0.0234760969784364
40
0.0234760969784364
40
0.0379403017443503
40
0.0379403017443503
40
0.0496343598989342
40
0.0496343598989342
40
0.0613746244080722
40
0.0613746244080722
40
0.0759633127848566
40
0.0759633127848566
40
0.100897192300089
40
0.100897192300089
40
0.175550805278485
40
0.175550805278485
40
0.474994357819951
40
0.474994357819951
40
0.978449480167231
40
0.978449480167231
40
1
40
1
40
1
40
1
41
1
10
0.346265877365283
20
-3.90926663646292
30
0
41
1
10
0.350044980273026
20
-3.91468404194882
30
0
41
1
10
0.354145003400504
20
-3.91982820960993
30
0
41
1
10
0.361354553333001
20
-3.92661858176516
30
0
41
1
10
0.36429349673773
20
-3.92887545085796
30
0
41
1
10
0.369724081272409
20
-3.93166606170212
30
0
41
1
10
0.37224469105513
20
-3.93245325859232
30
0
41
1
10
0.377073515010522
20
-3.93276482232844
30
0
41
1
10
0.37943632959616
20
-3.93228311844913
30
0
41
1
10
0.384187574617442
20
-3.93002639738688
30
0
41
1
10
0.386527065070652
20
-3.92796446499253
30
0
41
1
10
0.391958926544533
20
-3.92132124998827
30
0
41
1
10
0.394583001608851
20
-3.91592721724609
30
0
41
1
10
0.403093935091135
20
-3.89331024655675
30
0
41
1
10
0.405949554049187
20
-3.87324528234981
30
0
41
1
10
0.415844835011228
20
-3.77346988155708
30
0
41
1
10
0.410147811892614
20
-3.68731393541643
30
0
41
1
10
0.391926820896856
20
-3.45946915233969
30
0
41
1
10
0.372416928601126
20
-3.31471564910015
30
0
41
1
10
0.348276170534746
20
-3.16430004271618
30
0
41
1
10
0.347275169430759
20
-3.15811464784568
30
0
41
1
10
0.346265877365283
20
-3.15192937208195
30
0
0
SPLINE
5
26A
100
AcDbEntity
8
1
62
256
6
ByLayer
370
18
48
1
60
0
100
AcDbSpline
70
4
71
3
72
22
73
18
40
0
40
0
40
0
40
0
40
0.50859174063716
40
0.50859174063716
40
0.647845461867348
40
0.647845461867348
40
0.788896273306471
40
0.788896273306471
40
0.846386804156537
40
0.846386804156537
40
0.882332196000897
40
0.882332196000897
40
0.918719530208233
40
0.918719530208233
40
0.950428846197531
40
0.950428846197531
40
1
40
1
40
1
40
1
41
1
10
0.346265877365283
20
-6.1920204313958
30
0
41
1
10
0.373388420424646
20
-6.27346829376182
30
0
41
1
10
0.394971184528174
20
-6.35664104750251
30
0
41
1
10
0.408625851331067
20
-6.45763251998042
30
0
41
1
10
0.410693645492358
20
-6.47931010629293
30
0
41
1
10
0.411644943802173
20
-6.5211304545538
30
0
41
1
10
0.41069000362296
20
-6.54189457324304
30
0
41
1
10
0.403655776404833
20
-6.56610129268435
30
0
41
1
10
0.400831866990586
20
-6.5726185213137
30
0
41
1
10
0.394339150576741
20
-6.58058665555734
30
0
41
1
10
0.391310697182973
20
-6.58304786763239
30
0
41
1
10
0.38428147256144
20
-6.58588133170812
30
0
41
1
10
0.38015839625757
20
-6.58622995625581
30
0
41
1
10
0.372090265079009
20
-6.58470056389604
30
0
41
1
10
0.368104510284752
20
-6.58310502244856
30
0
41
1
10
0.358092830509463
20
-6.57748204639393
30
0
41
1
10
0.351999194687323
20
-6.57255446522788
30
0
41
1
10
0.346265877365283
20
-6.56703185455439
30
0
0
SPLINE
5
26B
100
AcDbEntity
8
1
62
256
6
ByLayer
370
18
48
1
60
0
100
AcDbSpline
70
4
71
3
72
22
73
18
40
0
40
0
40
0
40
0
40
0.311884300959237
40
0.311884300959237
40
0.465968148306108
40
0.465968148306108
40
0.589165383849381
40
0.589165383849381
40
0.680901708381323
40
0.680901708381323
40
0.773412121124607
40
0.773412121124607
40
0.856097586472542
40
0.856097586472542
40
0.969121184006609
40
0.969121184006609
40
1
40
1
40
1
40
1
41
1
10
0.346265877365283
20
-10.987126560104
30
0
41
1
10
0.365019408399974
20
-11.0139373435395
30
0
41
1
10
0.381793635901658
20
-11.0410587782309
30
0
41
1
10
0.399968420371351
20
-11.0777206053032
30
0
41
1
10
0.404942741917068
20
-11.089462603473
30
0
41
1
10
0.410460359423951
20
-11.1079756222918
30
0
41
1
10
0.41171815107316
20
-11.1154260796129
30
0
41
1
10
0.410665704232201
20
-11.1252907388565
30
0
41
1
10
0.409142432182591
20
-11.1285670491561
30
0
41
1
10
0.403660684510669
20
-11.1322193505593
30
0
41
1
10
0.399582097537689
20
-11.1325928358937
30
0
41
1
10
0.390041844068889
20
-11.1303972088145
30
0
41
1
10
0.384671726153442
20
-11.12812744597
30
0
41
1
10
0.371096742201075
20
-11.1206555724069
30
0
41
1
10
0.362374426103088
20
-11.1146056412353
30
0
41
1
10
0.351161946283071
20
-11.1058147907816
30
0
41
1
10
0.34871742353738
20
-11.103839332372
30
0
41
1
10
0.346265877365283
20
-11.1018050043141
30
0
0
SPLINE
5
26C
100
AcDbEntity
8
1
62
256
6
ByLayer
370
18
48
1
60
0
100
AcDbSpline
70
4
71
3
72
8
73
4
40
0
40
0
40
0
40
0
40
1
40
1
40
1
40
1
41
1
10
11.2081102460281
20
3.9597455588891
30
0
41
1
10
11.2079212981763
20
3.95982172548921
30
0
41
1
10
11.2077323573296
20
3.95989790722925
30
0
41
1
10
11.2075434234907
20
3.9599741041084
30
0
0
SPLINE
5
26D
100
AcDbEntity
8
1
62
256
6
ByLayer
370
18
48
1
60
0
100
AcDbSpline
70
4
71
3
72
8
73
4
40
0
40
0
40
0
40
0
40
1
40
1
40
1
40
1
41
1
10
-1.137E-13
20
10.1047688205899
30
0
41
1
10
0.11542076553053
20
10.1991168007114
30
0
41
1
10
0.230842757174344
20
10.293462780903
30
0
41
1
10
0.346265877365283
20
10.3878069201368
30
0
0
SPLINE
5
26E
100
AcDbEntity
8
1
62
256
6
ByLayer
370
18
48
1
60
0
100
AcDbSpline
70
4
71
3
72
8
73
4
40
0
40
0
40
0
40
0
40
1
40
1
40
1
40
1
41
1
10
0.346265877365283
20
9.26169711960412
30
0
41
1
10
0.228340842567093
20
9.04332109595023
30
0
41
1
10
0.112822336155318
20
8.82318279305082
30
0
41
1
10
0
20
8.60124135910399
30
0
0
SPLINE
5
26F
100
AcDbEntity
8
SK1
62
256
6
ByLayer
370
18
48
1
60
0
100
AcDbSpline
70
4
71
3
72
14
73
10
40
0
40
0
40
0
40
0
40
0.32298644366154
40
0.32298644366154
40
0.570965853456878
40
0.570965853456878
40
0.821832336393636
40
0.821832336393636
40
1
40
1
40
1
40
1
41
1
10
-0.238765877365267
20
11.5031454669806
30
0
41
1
10
-0.248738130945071
20
11.4942458950088
30
0
41
1
10
-0.258530665092337
20
11.4859559893804
30
0
41
1
10
-0.273942062548599
20
11.4740242858109
30
0
41
1
10
-0.28013509697189
20
11.4696579187186
30
0
41
1
10
-0.290168207869556
20
11.4637651762911
30
0
41
1
10
-0.29410283915422
20
11.4622189878207
30
0
41
1
10
-0.297964519278139
20
11.4625513755991
30
0
41
1
10
-0.298765877364133
20
11.4635650918881
30
0
41
1
10
-0.29876587736527
20
11.4653334394032
30
0
0
SPLINE
5
270
100
AcDbEntity
8
SK1
62
256
6
ByLayer
370
18
48
1
60
0
100
AcDbSpline
70
4
71
3
72
14
73
10
40
0
40
0
40
0
40
0
40
0.242050302543071
40
0.242050302543071
40
0.536389825503336
40
0.536389825503336
40
0.949282256315957
40
0.949282256315957
40
1
40
1
40
1
40
1
41
1
10
-0.29876587736527
20
11.4961352182612
30
0
41
1
10
-0.29876587736527
20
11.498666489242
30
0
41
1
10
-0.296910420715108
20
11.5030232937529
30
0
41
1
10
-0.289955941907579
20
11.5149862169268
30
0
41
1
10
-0.284176055445983
20
11.5232580950904
30
0
41
1
10
-0.26788309470976
20
11.5447002958532
30
0
41
1
10
-0.256130001342797
20
11.5588906375721
30
0
41
1
10
-0.24194932225754
20
11.5751837517705
30
0
41
1
10
-0.240365079560149
20
11.576993407165
30
0
41
1
10
-0.238765877365267
20
11.5788099647078
30
0
0
SPLINE
5
271
100
AcDbEntity
8
SK1
62
256
6
ByLayer
370
18
48
1
60
0
100
AcDbSpline
70
4
71
3
72
8
73
4
40
0
40
0
40
0
40
0
40
1
40
1
40
1
40
1
41
1
10
0
20
11.7159123809271
30
0
41
1
10
-0.0796319116662971
20
11.64505489041
30
0
41
1
10
-0.159221330323135
20
11.5741336759854
30
0
41
1
10
-0.238765877365267
20
11.5031454669806
30
0
0
SPLINE
5
272
100
AcDbEntity
8
SK1
62
256
6
ByLayer
370
18
48
1
60
0
100
AcDbSpline
70
4
71
3
72
8
73
4
40
0
40
0
40
0
40
0
40
1
40
1
40
1
40
1
41
1
10
-0.238765877365267
20
11.5788099647078
30
0
41
1
10
-0.159393454826954
20
11.6689702792148
30
0
41
1
10
-0.079800450824564
20
11.7588723315613
30
0
41
1
10
0
20
11.8485274577714
30
0
0
LINE
5
7F
100
AcDbEntity
8
1
62
256
6
ByLayer
370
18
48
1
60
0
100
AcDbLine
10
22.594936
20
8.047548
30
0
11
22.604404
21
8.155768
31
0
39
0
210
0
220
0
230
1
0
LINE
5
80
100
AcDbEntity
8
1
62
256
6
ByLayer
370
18
48
1
60
0
100
AcDbLine
10
21.126954
20
9.935386
30
0
11
21.136505
21
10.044561
31
0
39
0
210
0
220
0
230
1
0
LINE
5
81
100
AcDbEntity
8
1
62
256
6
ByLayer
370
18
48
1
60
0
100
AcDbLine
10
23.339393
20
9.022866
30
0
11
23.357492
21
9.014318
31
0
39
0
210
0
220
0
230
1
0
LINE
5
82
100
AcDbEntity
8
1
62
256
6
ByLayer
370
18
48
1
60
0
100
AcDbLine
10
23.357492
20
9.014318
30
0
11
23.367043
21
9.123494
31
0
39
0
210
0
220
0
230
1
0
LINE
5
83
100
AcDbEntity
8
1
62
256
6
ByLayer
370
18
48
1
60
0
100
AcDbLine
10
20.965177
20
8.701321
30
0
11
20.980433
21
8.714233
31
0
39
0
210
0
220
0
230
1
0
LINE
5
84
100
AcDbEntity
8
1
62
256
6
ByLayer
370
18
48
1
60
0
100
AcDbLine
10
22.879836
20
10.164723
30
0
11
22.889388
21
10.273899
31
0
39
0
210
0
220
0
230
1
0
LINE
5
85
100
AcDbEntity
8
1
62
256
6
ByLayer
370
18
48
1
60
0
100
AcDbLine
10
20.980433
20
8.714233
30
0
11
20.989901
21
8.822453
31
0
39
0
210
0
220
0
230
1
0
LINE
5
86
100
AcDbEntity
8
1
62
256
6
ByLayer
370
18
48
1
60
0
100
AcDbLine
10
22.280687
20
10.412133
30
0
11
22.284291
21
10.392508
31
0
39
0
210
0
220
0
230
1
0
LINE
5
87
100
AcDbEntity
8
1
62
256
6
ByLayer
370
18
48
1
60
0
100
AcDbLine
10
21.145814
20
9.928672
30
0
11
21.155282
21
10.036892
31
0
39
0
210
0
220
0
230
1
0
LINE
5
88
100
AcDbEntity
8
1
62
256
6
ByLayer
370
18
48
1
60
0
100
AcDbLine
10
22.280687
20
10.412133
30
0
11
22.290238
21
10.521309
31
0
39
0
210
0
220
0
230
1
0
LINE
5
89
100
AcDbEntity
8
1
62
256
6
ByLayer
370
18
48
1
60
0
100
AcDbLine
10
22.284291
20
10.392508
30
0
11
22.293759
21
10.500728
31
0
39
0
210
0
220
0
230
1
0
LINE
5
8A
100
AcDbEntity
8
1
62
256
6
ByLayer
370
18
48
1
60
0
100
AcDbLine
10
23.339393
20
9.022866
30
0
11
23.348861
21
9.131087
31
0
39
0
210
0
220
0
230
1
0
LINE
5
8B
100
AcDbEntity
8
1
62
256
6
ByLayer
370
18
48
1
60
0
100
AcDbLine
10
22.863367
20
10.153387
30
0
11
22.872835
21
10.261607
31
0
39
0
210
0
220
0
230
1
0
LINE
5
8C
100
AcDbEntity
8
1
62
256
6
ByLayer
370
18
48
1
60
0
100
AcDbLine
10
22.596566
20
8.027664
30
0
11
22.606117
21
8.136839
31
0
39
0
210
0
220
0
230
1
0
LINE
5
8D
100
AcDbEntity
8
1
62
256
6
ByLayer
370
18
48
1
60
0
100
AcDbLine
10
22.863367
20
10.153387
30
0
11
22.879836
21
10.164723
31
0
39
0
210
0
220
0
230
1
0
LINE
5
8E
100
AcDbEntity
8
1
62
256
6
ByLayer
370
18
48
1
60
0
100
AcDbLine
10
20.965177
20
8.701321
30
0
11
20.974729
21
8.810497
31
0
39
0
210
0
220
0
230
1
0
LINE
5
8F
100
AcDbEntity
8
1
62
256
6
ByLayer
370
18
48
1
60
0
100
AcDbLine
10
21.126954
20
9.935386
30
0
11
21.145814
21
9.928672
31
0
39
0
210
0
220
0
230
1
0
LINE
5
90
100
AcDbEntity
8
1
62
256
6
ByLayer
370
18
48
1
60
0
100
AcDbLine
10
25.625492
20
7.103883
30
0
11
25.092668
21
6.471194
31
0
39
0
210
0
220
0
230
1
0
LINE
5
91
100
AcDbEntity
8
1
62
256
6
ByLayer
370
18
48
1
60
0
100
AcDbLine
10
23.504776
20
4.633924
30
0
11
22.805245
21
3.773492
31
0
39
0
210
0
220
0
230
1
0
LINE
5
92
100
AcDbEntity
8
1
62
256
6
ByLayer
370
18
48
1
60
0
100
AcDbLine
10
24.975575
20
6.337356
30
0
11
24.92051
21
6.279637
31
0
39
0
210
0
220
0
230
1
0
LINE
5
93
100
AcDbEntity
8
1
62
256
6
ByLayer
370
18
48
1
60
0
100
AcDbLine
10
18.221435
20
10.524579
30
0
11
17.261698
21
-0.445262
31
0
39
0
210
0
220
0
230
1
0
LINE
5
94
100
AcDbEntity
8
1
62
256
6
ByLayer
370
18
48
1
60
0
100
AcDbLine
10
24.849224
20
6.200562
30
0
11
24.178472
21
5.433888
31
0
39
0
210
0
220
0
230
1
0
LINE
5
95
100
AcDbEntity
8
1
62
256
6
ByLayer
370
18
48
1
60
0
100
AcDbLine
10
25.684483
20
7.316665
30
0
11
25.625492
21
7.103883
31
0
39
0
210
0
220
0
230
1
0
LINE
5
96
100
AcDbEntity
8
1
62
256
6
ByLayer
370
18
48
1
60
0
100
AcDbLine
10
22.545796
20
3.446976
30
0
11
22.456018
21
3.340371
31
0
39
0
210
0
220
0
230
1
0
LINE
5
97
100
AcDbEntity
8
1
62
256
6
ByLayer
370
18
48
1
60
0
100
AcDbLine
10
26.037197
20
8.06944
30
0
11
26.996934
21
19.039281
31
0
39
0
210
0
220
0
230
1
0
LINE
5
98
100
AcDbEntity
8
1
62
256
6
ByLayer
370
18
48
1
60
0
100
AcDbLine
10
18.661067
20
-1.023111
30
0
11
25.763314
21
7.410272
31
0
39
0
210
0
220
0
230
1
0
LINE
5
99
100
AcDbEntity
8
1
62
256
6
ByLayer
370
18
48
1
60
0
100
AcDbLine
10
22.666107
20
3.595037
30
0
11
22.728577
21
3.676882
31
0
39
0
210
0
220
0
230
1
0
LINE
5
9A
100
AcDbEntity
8
SK1
62
256
6
ByLayer
370
18
48
1
60
0
100
AcDbLine
10
0
20
11.343229
30
0
11
0
21
11.548002
31
0
39
0
210
0
220
0
230
1
0
LINE
5
9C
100
AcDbEntity
8
SK1
62
256
6
ByLayer
370
18
48
1
60
0
100
AcDbLine
10
0
20
11.099518
30
0
11
0
21
11.343229
31
0
39
0
210
0
220
0
230
1
0
LINE
5
9D
100
AcDbEntity
8
SK1
62
256
6
ByLayer
370
18
48
1
60
0
100
AcDbLine
10
-0.298766
20
11.111461
30
0
11
-0.298766
21
10.666044
31
0
39
0
210
0
220
0
230
1
0
LINE
5
9E
100
AcDbEntity
8
SK1
62
256
6
ByLayer
370
18
48
1
60
0
100
AcDbLine
10
0
20
-11.343229
30
0
11
0
21
-11.099518
31
0
39
0
210
0
220
0
230
1
0
LINE
5
9F
100
AcDbEntity
8
SK1
62
256
6
ByLayer
370
18
48
1
60
0
100
AcDbLine
10
0
20
-11.548002
30
0
11
0
21
-11.343229
31
0
39
0
210
0
220
0
230
1
0
LINE
5
A0
100
AcDbEntity
8
SK1
62
256
6
ByLayer
370
18
48
1
60
0
100
AcDbLine
10
-0.298766
20
-11.159097
30
0
11
-0.298766
21
-11.111461
31
0
39
0
210
0
220
0
230
1
0
LINE
5
A1
100
AcDbEntity
8
SK1
62
256
6
ByLayer
370
18
48
1
60
0
100
AcDbLine
10
0
20
-8.601222
30
0
11
0
21
-9.172655
31
0
39
0
210
0
220
0
230
1
0
LINE
5
A2
100
AcDbEntity
8
SK1
62
256
6
ByLayer
370
18
48
1
60
0
100
AcDbLine
10
0
20
-9.670191
30
0
11
0
21
-9.172655
31
0
39
0
210
0
220
0
230
1
0
LINE
5
A3
100
AcDbEntity
8
SK1
62
256
6
ByLayer
370
18
48
1
60
0
100
AcDbLine
10
-0.238766
20
-8.120312
30
0
11
-0.238766
21
-8.976406
31
0
39
0
210
0
220
0
230
1
0
LINE
5
A4
100
AcDbEntity
8
SK1
62
256
6
ByLayer
370
18
48
1
60
0
100
AcDbLine
10
-0.298766
20
-7.96707
30
0
11
-0.298766
21
-8.985912
31
0
39
0
210
0
220
0
230
1
0
LINE
5
A5
100
AcDbEntity
8
SK1
62
256
6
ByLayer
370
18
48
1
60
0
100
AcDbLine
10
-0.298766
20
-11.159033
30
0
11
-0.298766
21
-11.465333
31
0
39
0
210
0
220
0
230
1
0
LINE
5
A6
100
AcDbEntity
8
SK1
62
256
6
ByLayer
370
18
48
1
60
0
100
AcDbLine
10
-0.298766
20
-11.496135
30
0
11
-0.298766
21
-11.465333
31
0
39
0
210
0
220
0
230
1
0
LINE
5
A7
100
AcDbEntity
8
SK1
62
256
6
ByLayer
370
18
48
1
60
0
100
AcDbLine
10
0
20
-11.848527
30
0
11
0
21
-11.715912
31
0
39
0
210
0
220
0
230
1
0
LINE
5
A8
100
AcDbEntity
8
SK1
62
256
6
ByLayer
370
18
48
1
60
0
100
AcDbLine
10
-0.238766
20
-11.255741
30
0
11
-0.238766
21
-11.503145
31
0
39
0
210
0
220
0
230
1
0
LINE
5
A9
100
AcDbEntity
8
SK1
62
256
6
ByLayer
370
18
48
1
60
0
100
AcDbLine
10
0
20
-11.547995
30
0
11
0
21
-11.715912
31
0
39
0
210
0
220
0
230
1
0
LINE
5
AA
100
AcDbEntity
8
SK1
62
256
6
ByLayer
370
18
48
1
60
0
100
AcDbLine
10
-0.298766
20
-10.666044
30
0
11
-0.298766
21
-11.111461
31
0
39
0
210
0
220
0
230
1
0
LINE
5
AB
100
AcDbEntity
8
SK1
62
256
6
ByLayer
370
18
48
1
60
0
100
AcDbLine
10
-0.238766
20
10.615984
30
0
11
-0.238766
21
10.127467
31
0
39
0
210
0
220
0
230
1
0
LINE
5
AC
100
AcDbEntity
8
SK1
62
256
6
ByLayer
370
18
48
1
60
0
100
AcDbLine
10
-0.298766
20
10.59954
30
0
11
-0.298766
21
9.993951
31
0
39
0
210
0
220
0
230
1
0
LINE
5
AD
100
AcDbEntity
8
SK1
62
256
6
ByLayer
370
18
48
1
60
0
100
AcDbLine
10
-0.298766
20
10.59954
30
0
11
-0.298766
21
10.666056
31
0
39
0
210
0
220
0
230
1
0
LINE
5
AE
100
AcDbEntity
8
SK1
62
256
6
ByLayer
370
18
48
1
60
0
100
AcDbLine
10
0
20
10.814347
30
0
11
0
21
11.099554
31
0
39
0
210
0
220
0
230
1
0
LINE
5
AF
100
AcDbEntity
8
SK1
62
256
6
ByLayer
370
18
48
1
60
0
100
AcDbLine
10
0
20
10.814347
30
0
11
0
21
10.484191
31
0
39
0
210
0
220
0
230
1
0
LINE
5
B0
100
AcDbEntity
8
SK1
62
256
6
ByLayer
370
18
48
1
60
0
100
AcDbLine
10
-0.298766
20
-9.103207
30
0
11
-0.298766
21
-8.985912
31
0
39
0
210
0
220
0
230
1
0
LINE
5
B1
100
AcDbEntity
8
SK1
62
256
6
ByLayer
370
18
48
1
60
0
100
AcDbLine
10
0
20
6.230979
30
0
11
0
21
5.053908
31
0
39
0
210
0
220
0
230
1
0
LINE
5
B2
100
AcDbEntity
8
SK1
62
256
6
ByLayer
370
18
48
1
60
0
100
AcDbLine
10
0
20
-5.053908
30
0
11
0
21
-6.230979
31
0
39
0
210
0
220
0
230
1
0
LINE
5
B3
100
AcDbEntity
8
SK1
62
256
6
ByLayer
370
18
48
1
60
0
100
AcDbLine
10
0
20
6.230979
30
0
11
0
21
7.164154
31
0
39
0
210
0
220
0
230
1
0
LINE
5
B4
100
AcDbEntity
8
SK1
62
256
6
ByLayer
370
18
48
1
60
0
100
AcDbLine
10
-0.238766
20
5.996051
30
0
11
-0.238766
21
4.100175
31
0
39
0
210
0
220
0
230
1
0
LINE
5
B5
100
AcDbEntity
8
SK1
62
256
6
ByLayer
370
18
48
1
60
0
100
AcDbLine
10
-0.238766
20
-4.100175
30
0
11
-0.238766
21
-5.996051
31
0
39
0
210
0
220
0
230
1
0
LINE
5
B6
100
AcDbEntity
8
SK1
62
256
6
ByLayer
370
18
48
1
60
0
100
AcDbLine
10
-0.298766
20
6.053345
30
0
11
-0.298766
21
6.282675
31
0
39
0
210
0
220
0
230
1
0
LINE
5
B7
100
AcDbEntity
8
SK1
62
256
6
ByLayer
370
18
48
1
60
0
100
AcDbLine
10
0
20
-7.164154
30
0
11
0
21
-6.230979
31
0
39
0
210
0
220
0
230
1
0
LINE
5
B8
100
AcDbEntity
8
SK1
62
256
6
ByLayer
370
18
48
1
60
0
100
AcDbLine
10
-0.298766
20
-6.282675
30
0
11
-0.298766
21
-6.053345
31
0
39
0
210
0
220
0
230
1
0
LINE
5
B9
100
AcDbEntity
8
SK1
62
256
6
ByLayer
370
18
48
1
60
0
100
AcDbLine
10
-0.298766
20
6.053345
30
0
11
-0.298766
21
3.617441
31
0
39
0
210
0
220
0
230
1
0
LINE
5
BA
100
AcDbEntity
8
SK1
62
256
6
ByLayer
370
18
48
1
60
0
100
AcDbLine
10
-0.298766
20
-3.617441
30
0
11
-0.298766
21
-6.053345
31
0
39
0
210
0
220
0
230
1
0
LINE
5
BB
100
AcDbEntity
8
SK1
62
256
6
ByLayer
370
18
48
1
60
0
100
AcDbLine
10
-0.298766
20
11.111461
30
0
11
-0.298766
21
11.159097
31
0
39
0
210
0
220
0
230
1
0
LINE
5
BC
100
AcDbEntity
8
SK1
62
256
6
ByLayer
370
18
48
1
60
0
100
AcDbLine
10
-0.238766
20
11.138817
30
0
11
-0.238766
21
10.779197
31
0
39
0
210
0
220
0
230
1
0
LINE
5
BD
100
AcDbEntity
8
SK1
62
256
6
ByLayer
370
18
48
1
60
0
100
AcDbLine
10
-0.238766
20
-10.779197
30
0
11
-0.238766
21
-11.138817
31
0
39
0
210
0
220
0
230
1
0
LINE
5
BE
100
AcDbEntity
8
SK1
62
256
6
ByLayer
370
18
48
1
60
0
100
AcDbLine
10
-0.298766
20
9.905096
30
0
11
-0.298766
21
9.125268
31
0
39
0
210
0
220
0
230
1
0
LINE
5
BF
100
AcDbEntity
8
SK1
62
256
6
ByLayer
370
18
48
1
60
0
100
AcDbLine
10
-0.298766
20
9.905096
30
0
11
-0.298766
21
9.993951
31
0
39
0
210
0
220
0
230
1
0
LINE
5
C0
100
AcDbEntity
8
SK1
62
256
6
ByLayer
370
18
48
1
60
0
100
AcDbLine
10
0
20
10.104769
30
0
11
0
21
10.484219
31
0
39
0
210
0
220
0
230
1
0
LINE
5
C1
100
AcDbEntity
8
SK1
62
256
6
ByLayer
370
18
48
1
60
0
100
AcDbLine
10
0
20
9.670166
30
0
11
0
21
10.104769
31
0
39
0
210
0
220
0
230
1
0
LINE
5
C2
100
AcDbEntity
8
SK1
62
256
6
ByLayer
370
18
48
1
60
0
100
AcDbLine
10
-0.238766
20
9.909591
30
0
11
-0.238766
21
9.263641
31
0
39
0
210
0
220
0
230
1
0
LINE
5
C3
100
AcDbEntity
8
SK1
62
256
6
ByLayer
370
18
48
1
60
0
100
AcDbLine
10
-0.298766
20
3.147011
30
0
11
-0.298766
21
-3.147011
31
0
39
0
210
0
220
0
230
1
0
LINE
5
C4
100
AcDbEntity
8
SK1
62
256
6
ByLayer
370
18
48
1
60
0
100
AcDbLine
10
-0.298766
20
-3.617502
30
0
11
-0.298766
21
-3.147011
31
0
39
0
210
0
220
0
230
1
0
LINE
5
C5
100
AcDbEntity
8
SK1
62
256
6
ByLayer
370
18
48
1
60
0
100
AcDbLine
10
-0.238766
20
2.992241
30
0
11
-0.238766
21
-2.992241
31
0
39
0
210
0
220
0
230
1
0
LINE
5
C6
100
AcDbEntity
8
SK1
62
256
6
ByLayer
370
18
48
1
60
0
100
AcDbLine
10
0
20
-3.388415
30
0
11
0
21
3.388415
31
0
39
0
210
0
220
0
230
1
0
LINE
5
C7
100
AcDbEntity
8
SK1
62
256
6
ByLayer
370
18
48
1
60
0
100
AcDbLine
10
0
20
-5.054093
30
0
11
0
21
-3.388415
31
0
39
0
210
0
220
0
230
1
0
LINE
5
C8
100
AcDbEntity
8
SK1
62
256
6
ByLayer
370
18
48
1
60
0
100
AcDbLine
10
0
20
3.388415
30
0
11
0
21
5.054093
31
0
39
0
210
0
220
0
230
1
0
LINE
5
C9
100
AcDbEntity
8
SK1
62
256
6
ByLayer
370
18
48
1
60
0
100
AcDbLine
10
0
20
9.172655
30
0
11
0
21
8.601222
31
0
39
0
210
0
220
0
230
1
0
LINE
5
CA
100
AcDbEntity
8
SK1
62
256
6
ByLayer
370
18
48
1
60
0
100
AcDbLine
10
-0.238766
20
8.976406
30
0
11
-0.238766
21
8.120312
31
0
39
0
210
0
220
0
230
1
0
LINE
5
CB
100
AcDbEntity
8
SK1
62
256
6
ByLayer
370
18
48
1
60
0
100
AcDbLine
10
-0.298766
20
8.985912
30
0
11
-0.298766
21
7.96707
31
0
39
0
210
0
220
0
230
1
0
LINE
5
CC
100
AcDbEntity
8
SK1
62
256
6
ByLayer
370
18
48
1
60
0
100
AcDbLine
10
0
20
9.172655
30
0
11
0
21
9.670191
31
0
39
0
210
0
220
0
230
1
0
LINE
5
CD
100
AcDbEntity
8
SK1
62
256
6
ByLayer
370
18
48
1
60
0
100
AcDbLine
10
-0.298766
20
3.147011
30
0
11
-0.298766
21
3.617502
31
0
39
0
210
0
220
0
230
1
0
LINE
5
CE
100
AcDbEntity
8
SK1
62
256
6
ByLayer
370
18
48
1
60
0
100
AcDbLine
10
-0.298766
20
-9.993951
30
0
11
-0.298766
21
-9.905096
31
0
39
0
210
0
220
0
230
1
0
LINE
5
CF
100
AcDbEntity
8
SK1
62
256
6
ByLayer
370
18
48
1
60
0
100
AcDbLine
10
-0.238766
20
-9.263641
30
0
11
-0.238766
21
-9.909591
31
0
39
0
210
0
220
0
230
1
0
LINE
5
D0
100
AcDbEntity
8
SK1
62
256
6
ByLayer
370
18
48
1
60
0
100
AcDbLine
10
0
20
-10.104769
30
0
11
0
21
-9.670166
31
0
39
0
210
0
220
0
230
1
0
LINE
5
D1
100
AcDbEntity
8
SK1
62
256
6
ByLayer
370
18
48
1
60
0
100
AcDbLine
10
0
20
-10.484219
30
0
11
0
21
-10.104769
31
0
39
0
210
0
220
0
230
1
0
LINE
5
D2
100
AcDbEntity
8
SK1
62
256
6
ByLayer
370
18
48
1
60
0
100
AcDbLine
10
-0.298766
20
-9.103218
30
0
11
-0.298766
21
-9.905096
31
0
39
0
210
0
220
0
230
1
0
LINE
5
D3
100
AcDbEntity
8
SK1
62
256
6
ByLayer
370
18
48
1
60
0
100
AcDbLine
10
0
20
-11.947023
30
0
11
0
21
-11.848403
31
0
39
0
210
0
220
0
230
1
0
LINE
5
D4
100
AcDbEntity
8
SK1
62
256
6
ByLayer
370
18
48
1
60
0
100
AcDbLine
10
0
20
-11.955031
30
0
11
0
21
-11.947023
31
0
39
0
210
0
220
0
230
1
0
LINE
5
D5
100
AcDbEntity
8
SK1
62
256
6
ByLayer
370
18
48
1
60
0
100
AcDbLine
10
-0.108253
20
-11.845921
30
0
11
-0.108253
21
-11.726237
31
0
39
0
210
0
220
0
230
1
0
LINE
5
D6
100
AcDbEntity
8
SK1
62
256
6
ByLayer
370
18
48
1
60
0
100
AcDbLine
10
0
20
11.947023
30
0
11
0
21
11.955031
31
0
39
0
210
0
220
0
230
1
0
LINE
5
D7
100
AcDbEntity
8
SK1
62
256
6
ByLayer
370
18
48
1
60
0
100
AcDbLine
10
-0.108253
20
11.726237
30
0
11
-0.108253
21
11.845921
31
0
39
0
210
0
220
0
230
1
0
LINE
5
D8
100
AcDbEntity
8
SK1
62
256
6
ByLayer
370
18
48
1
60
0
100
AcDbLine
10
0
20
11.848403
30
0
11
0
21
11.947023
31
0
39
0
210
0
220
0
230
1
0
LINE
5
D9
100
AcDbEntity
8
SK1
62
256
6
ByLayer
370
18
48
1
60
0
100
AcDbLine
10
0
20
-11.099554
30
0
11
0
21
-10.814347
31
0
39
0
210
0
220
0
230
1
0
LINE
5
DA
100
AcDbEntity
8
SK1
62
256
6
ByLayer
370
18
48
1
60
0
100
AcDbLine
10
-0.298766
20
-9.993951
30
0
11
-0.298766
21
-10.59954
31
0
39
0
210
0
220
0
230
1
0
LINE
5
DB
100
AcDbEntity
8
SK1
62
256
6
ByLayer
370
18
48
1
60
0
100
AcDbLine
10
-0.238766
20
-10.127467
30
0
11
-0.238766
21
-10.615984
31
0
39
0
210
0
220
0
230
1
0
LINE
5
DC
100
AcDbEntity
8
SK1
62
256
6
ByLayer
370
18
48
1
60
0
100
AcDbLine
10
0
20
-10.484191
30
0
11
0
21
-10.814347
31
0
39
0
210
0
220
0
230
1
0
LINE
5
DD
100
AcDbEntity
8
SK1
62
256
6
ByLayer
370
18
48
1
60
0
100
AcDbLine
10
-0.298766
20
-10.666056
30
0
11
-0.298766
21
-10.59954
31
0
39
0
210
0
220
0
230
1
0
LINE
5
DE
100
AcDbEntity
8
SK1
62
256
6
ByLayer
370
18
48
1
60
0
100
AcDbLine
10
-0.298766
20
7.762558
30
0
11
-0.298766
21
7.920397
31
0
39
0
210
0
220
0
230
1
0
LINE
5
DF
100
AcDbEntity
8
SK1
62
256
6
ByLayer
370
18
48
1
60
0
100
AcDbLine
10
0
20
-8.601241
30
0
11
0
21
-7.940016
31
0
39
0
210
0
220
0
230
1
0
LINE
5
E0
100
AcDbEntity
8
SK1
62
256
6
ByLayer
370
18
48
1
60
0
100
AcDbLine
10
0
20
-7.940016
30
0
11
0
21
-7.164127
31
0
39
0
210
0
220
0
230
1
0
LINE
5
E1
100
AcDbEntity
8
SK1
62
256
6
ByLayer
370
18
48
1
60
0
100
AcDbLine
10
0
20
7.164127
30
0
11
0
21
7.940016
31
0
39
0
210
0
220
0
230
1
0
LINE
5
E2
100
AcDbEntity
8
SK1
62
256
6
ByLayer
370
18
48
1
60
0
100
AcDbLine
10
-0.298766
20
-7.920397
30
0
11
-0.298766
21
-7.762558
31
0
39
0
210
0
220
0
230
1
0
LINE
5
E3
100
AcDbEntity
8
SK1
62
256
6
ByLayer
370
18
48
1
60
0
100
AcDbLine
10
-0.298766
20
7.762558
30
0
11
-0.298766
21
6.282578
31
0
39
0
210
0
220
0
230
1
0
LINE
5
E4
100
AcDbEntity
8
SK1
62
256
6
ByLayer
370
18
48
1
60
0
100
AcDbLine
10
-0.298766
20
-6.282578
30
0
11
-0.298766
21
-7.762558
31
0
39
0
210
0
220
0
230
1
0
LINE
5
E5
100
AcDbEntity
8
SK1
62
256
6
ByLayer
370
18
48
1
60
0
100
AcDbLine
10
0
20
7.940016
30
0
11
0
21
8.601241
31
0
39
0
210
0
220
0
230
1
0
LINE
5
E6
100
AcDbEntity
8
SK1
62
256
6
ByLayer
370
18
48
1
60
0
100
AcDbLine
10
-0.238766
20
7.734775
30
0
11
-0.238766
21
6.552563
31
0
39
0
210
0
220
0
230
1
0
LINE
5
E7
100
AcDbEntity
8
SK1
62
256
6
ByLayer
370
18
48
1
60
0
100
AcDbLine
10
-0.238766
20
-6.552563
30
0
11
-0.238766
21
-7.734775
31
0
39
0
210
0
220
0
230
1
0
LINE
5
E8
100
AcDbEntity
8
SK1
62
256
6
ByLayer
370
18
48
1
60
0
100
AcDbLine
10
-0.298766
20
8.985912
30
0
11
-0.298766
21
9.103207
31
0
39
0
210
0
220
0
230
1
0
LINE
5
E9
100
AcDbEntity
8
1
62
256
6
ByLayer
370
18
48
1
60
0
100
AcDbLine
10
0
20
11.343229
30
0
11
0
21
11.548002
31
0
39
0
210
0
220
0
230
1
0
LINE
5
EA
100
AcDbEntity
8
1
62
256
6
ByLayer
370
18
48
1
60
0
100
AcDbLine
10
25.237562
20
6.158006
30
0
11
25.28494
21
6.699548
31
0
39
0
210
0
220
0
230
1
0
LINE
5
EB
100
AcDbEntity
8
1
62
256
6
ByLayer
370
18
48
1
60
0
100
AcDbLine
10
0
20
-8.601222
30
0
11
0
21
-9.172655
31
0
39
0
210
0
220
0
230
1
0
LINE
5
EC
100
AcDbEntity
8
1
62
256
6
ByLayer
370
18
48
1
60
0
100
AcDbLine
10
0
20
-11.947023
30
0
11
0
21
-11.848403
31
0
39
0
210
0
220
0
230
1
0
LINE
5
ED
100
AcDbEntity
8
1
62
256
6
ByLayer
370
18
48
1
60
0
100
AcDbLine
10
0
20
11.947023
30
0
11
0
21
11.955031
31
0
39
0
210
0
220
0
230
1
0
LINE
5
EE
100
AcDbEntity
8
1
62
256
6
ByLayer
370
18
48
1
60
0
100
AcDbLine
10
0
20
10.814347
30
0
11
0
21
11.099554
31
0
39
0
210
0
220
0
230
1
0
LINE
5
EF
100
AcDbEntity
8
1
62
256
6
ByLayer
370
18
48
1
60
0
100
AcDbLine
10
0.346266
20
-11.964676
30
0
11
0.346266
21
-12.0234
31
0
39
0
210
0
220
0
230
1
0
LINE
5
F0
100
AcDbEntity
8
1
62
256
6
ByLayer
370
18
48
1
60
0
100
AcDbLine
10
0
20
9.172655
30
0
11
0
21
9.670191
31
0
39
0
210
0
220
0
230
1
0
LINE
5
F1
100
AcDbEntity
8
1
62
256
6
ByLayer
370
18
48
1
60
0
100
AcDbLine
10
0
20
-11.099554
30
0
11
0
21
-10.814347
31
0
39
0
210
0
220
0
230
1
0
LINE
5
F2
100
AcDbEntity
8
1
62
256
6
ByLayer
370
18
48
1
60
0
100
AcDbLine
10
11.225782
20
3.952395
30
0
11
17.083484
21
1.533544
31
0
39
0
210
0
220
0
230
1
0
LINE
5
F3
100
AcDbEntity
8
1
62
256
6
ByLayer
370
18
48
1
60
0
100
AcDbLine
10
17.662652
20
9.285834
30
0
11
18.097367
21
9.106325
31
0
39
0
210
0
220
0
230
1
0
LINE
5
F4
100
AcDbEntity
8
1
62
256
6
ByLayer
370
18
48
1
60
0
100
AcDbLine
10
15.044826
20
6.781503
30
0
11
17.794706
21
5.645981
31
0
39
0
210
0
220
0
230
1
0
LINE
5
F5
100
AcDbEntity
8
1
62
256
6
ByLayer
370
18
48
1
60
0
100
AcDbLine
10
22.688859
20
3.625013
30
0
11
24.934814
21
2.69758
31
0
39
0
210
0
220
0
230
1
0
LINE
5
F6
100
AcDbEntity
8
1
62
256
6
ByLayer
370
18
48
1
60
0
100
AcDbLine
10
0.346266
20
11.639099
30
0
11
0.346266
21
11.55409
31
0
39
0
210
0
220
0
230
1
0
LINE
5
F7
100
AcDbEntity
8
1
62
256
6
ByLayer
370
18
48
1
60
0
100
AcDbLine
10
0.346266
20
12.269095
30
0
11
0.346266
21
12.234513
31
0
39
0
210
0
220
0
230
1
0
LINE
5
F8
100
AcDbEntity
8
1
62
256
6
ByLayer
370
18
48
1
60
0
100
AcDbLine
10
0.451234
20
-12.409674
30
0
11
5.0708
21
-12.409674
31
0
39
0
210
0
220
0
230
1
0
LINE
5
F9
100
AcDbEntity
8
1
62
256
6
ByLayer
370
18
48
1
60
0
100
AcDbLine
10
15.681344
20
7.856809
30
0
11
16.063711
21
8.777073
31
0
39
0
210
0
220
0
230
1
0
LINE
5
FA
100
AcDbEntity
8
1
62
256
6
ByLayer
370
18
48
1
60
0
100
AcDbLine
10
9.933646
20
12.5
30
0
11
9.653249
21
12.409674
31
0
39
0
210
0
220
0
230
1
0
LINE
5
FB
100
AcDbEntity
8
1
62
256
6
ByLayer
370
18
48
1
60
0
100
AcDbLine
10
17.074381
20
1.429487
30
0
11
17.083484
21
1.533544
31
0
39
0
210
0
220
0
230
1
0
LINE
5
FC
100
AcDbEntity
8
1
62
256
6
ByLayer
370
18
48
1
60
0
100
AcDbLine
10
24.926778
20
6.286221
30
0
11
25.237552
21
6.157892
31
0
39
0
210
0
220
0
230
1
0
LINE
5
FD
100
AcDbEntity
8
1
62
256
6
ByLayer
370
18
48
1
60
0
100
AcDbLine
10
11.073678
20
11.566976
30
0
11
11.109379
21
11.975038
31
0
39
0
210
0
220
0
230
1
0
LINE
5
FE
100
AcDbEntity
8
1
62
256
6
ByLayer
370
18
48
1
60
0
100
AcDbLine
10
10.730297
20
12.399625
30
0
11
9.221817
21
8.769083
31
0
39
0
210
0
220
0
230
1
0
LINE
5
FF
100
AcDbEntity
8
1
62
256
6
ByLayer
370
18
48
1
60
0
100
AcDbLine
10
9.644307
20
8.126828
30
0
11
11.073678
21
11.566976
31
0
39
0
210
0
220
0
230
1
0
LINE
5
100
100
AcDbEntity
8
1
62
256
6
ByLayer
370
18
48
1
60
0
100
AcDbLine
10
15.964253
20
-1.598735
30
0
11
17.034881
21
0.978004
31
0
39
0
210
0
220
0
230
1
0
LINE
5
101
100
AcDbEntity
8
1
62
256
6
ByLayer
370
18
48
1
60
0
100
AcDbLine
10
0
20
10.814347
30
0
11
0
21
10.484191
31
0
39
0
210
0
220
0
230
1
0
LINE
5
102
100
AcDbEntity
8
1
62
256
6
ByLayer
370
18
48
1
60
0
100
AcDbLine
10
9.680008
20
8.534891
30
0
11
9.644307
21
8.126828
31
0
39
0
210
0
220
0
230
1
0
LINE
5
103
100
AcDbEntity
8
1
62
256
6
ByLayer
370
18
48
1
60
0
100
AcDbLine
10
17.393661
20
9.182273
30
0
11
18.079282
21
8.899156
31
0
39
0
210
0
220
0
230
1
0
LINE
5
104
100
AcDbEntity
8
1
62
256
6
ByLayer
370
18
48
1
60
0
100
AcDbLine
10
0
20
-8.601241
30
0
11
0
21
-7.940016
31
0
39
0
210
0
220
0
230
1
0
LINE
5
105
100
AcDbEntity
8
1
62
256
6
ByLayer
370
18
48
1
60
0
100
AcDbLine
10
0
20
3.388415
30
0
11
0
21
5.054093
31
0
39
0
210
0
220
0
230
1
0
LINE
5
106
100
AcDbEntity
8
1
62
256
6
ByLayer
370
18
48
1
60
0
100
AcDbLine
10
11.413167
20
4.369106
30
0
11
17.125204
21
2.010405
31
0
39
0
210
0
220
0
230
1
0
LINE
5
107
100
AcDbEntity
8
1
62
256
6
ByLayer
370
18
48
1
60
0
100
AcDbLine
10
16.003753
20
-1.147252
30
0
11
17.074381
21
1.429487
31
0
39
0
210
0
220
0
230
1
0
LINE
5
108
100
AcDbEntity
8
1
62
256
6
ByLayer
370
18
48
1
60
0
100
AcDbLine
10
25.047804
20
3.989068
30
0
11
25.138842
21
5.029632
31
0
39
0
210
0
220
0
230
1
0
LINE
5
109
100
AcDbEntity
8
1
62
256
6
ByLayer
370
18
48
1
60
0
100
AcDbLine
10
0.451234
20
-12.409674
30
0
11
0.451234
21
12.409674
31
0
39
0
210
0
220
0
230
1
0
LINE
5
10A
100
AcDbEntity
8
1
62
256
6
ByLayer
370
18
48
1
60
0
100
AcDbLine
10
12.856248
20
-6.25
30
0
11
20.274623
21
-6.25
31
0
39
0
210
0
220
0
230
1
0
LINE
5
10B
100
AcDbEntity
8
1
62
256
6
ByLayer
370
18
48
1
60
0
100
AcDbLine
10
10.730305
20
12.399638
30
0
11
9.221816
21
8.769075
31
0
39
0
210
0
220
0
230
1
0
LINE
5
10C
100
AcDbEntity
8
1
62
256
6
ByLayer
370
18
48
1
60
0
100
AcDbLine
10
9.221816
20
8.769075
30
0
11
9.680008
21
8.534891
31
0
39
0
210
0
220
0
230
1
0
LINE
5
10D
100
AcDbEntity
8
1
62
256
6
ByLayer
370
18
48
1
60
0
100
AcDbLine
10
17.299956
20
1.713079
30
0
11
17.229928
21
0.912659
31
0
39
0
210
0
220
0
230
1
0
LINE
5
10E
100
AcDbEntity
8
1
62
256
6
ByLayer
370
18
48
1
60
0
100
AcDbLine
10
0
20
10.104769
30
0
11
0
21
10.484219
31
0
39
0
210
0
220
0
230
1
0
LINE
5
10F
100
AcDbEntity
8
1
62
256
6
ByLayer
370
18
48
1
60
0
100
AcDbLine
10
15.964253
20
-1.598735
30
0
11
16.003753
21
-1.147252
31
0
39
0
210
0
220
0
230
1
0
LINE
5
110
100
AcDbEntity
8
1
62
256
6
ByLayer
370
18
48
1
60
0
100
AcDbLine
10
0
20
-10.484219
30
0
11
0
21
-10.104769
31
0
39
0
210
0
220
0
230
1
0
LINE
5
111
100
AcDbEntity
8
1
62
256
6
ByLayer
370
18
48
1
60
0
100
AcDbLine
10
24.959061
20
2.974724
30
0
11
25.047804
21
3.989068
31
0
39
0
210
0
220
0
230
1
0
LINE
5
112
100
AcDbEntity
8
1
62
256
6
ByLayer
370
18
48
1
60
0
100
AcDbLine
10
25.219428
20
5.950738
30
0
11
25.138842
21
5.029632
31
0
39
0
210
0
220
0
230
1
0
LINE
5
113
100
AcDbEntity
8
1
62
256
6
ByLayer
370
18
48
1
60
0
100
AcDbLine
10
10.730515
20
12.399662
30
0
11
11.109379
21
11.975038
31
0
39
0
210
0
220
0
230
1
0
LINE
5
114
100
AcDbEntity
8
1
62
256
6
ByLayer
370
18
48
1
60
0
100
AcDbLine
10
0.346266
20
-12.234513
30
0
11
0.346266
21
-12.269095
31
0
39
0
210
0
220
0
230
1
0
LINE
5
115
100
AcDbEntity
8
1
62
256
6
ByLayer
370
18
48
1
60
0
100
AcDbLine
10
0.346266
20
-11.55409
30
0
11
0.346266
21
-11.639099
31
0
39
0
210
0
220
0
230
1
0
LINE
5
116
100
AcDbEntity
8
1
62
256
6
ByLayer
370
18
48
1
60
0
100
AcDbLine
10
17.125204
20
2.010405
30
0
11
17.083484
21
1.533535
31
0
39
0
210
0
220
0
230
1
0
LINE
5
117
100
AcDbEntity
8
1
62
256
6
ByLayer
370
18
48
1
60
0
100
AcDbLine
10
0
20
-11.848527
30
0
11
0
21
-11.715912
31
0
39
0
210
0
220
0
230
1
0
LINE
5
118
100
AcDbEntity
8
1
62
256
6
ByLayer
370
18
48
1
60
0
100
AcDbLine
10
15.275293
20
6.828822
30
0
11
15.321664
21
6.954344
31
0
39
0
210
0
220
0
230
1
0
LINE
5
119
100
AcDbEntity
8
1
62
256
6
ByLayer
370
18
48
1
60
0
100
AcDbLine
10
0
20
-10.104769
30
0
11
0
21
-9.670166
31
0
39
0
210
0
220
0
230
1
0
LINE
5
11A
100
AcDbEntity
8
1
62
256
6
ByLayer
370
18
48
1
60
0
100
AcDbLine
10
0
20
-7.164154
30
0
11
0
21
-6.230979
31
0
39
0
210
0
220
0
230
1
0
LINE
5
11B
100
AcDbEntity
8
1
62
256
6
ByLayer
370
18
48
1
60
0
100
AcDbLine
10
6.220581
20
12.395142
30
0
11
6.220581
21
6.843489
31
0
39
0
210
0
220
0
230
1
0
LINE
5
11C
100
AcDbEntity
8
1
62
256
6
ByLayer
370
18
48
1
60
0
100
AcDbLine
10
0.346266
20
11.101805
30
0
11
0.346266
21
10.987118
31
0
39
0
210
0
220
0
230
1
0
LINE
5
11D
100
AcDbEntity
8
1
62
256
6
ByLayer
370
18
48
1
60
0
100
AcDbLine
10
15.681344
20
7.856809
30
0
11
17.907635
21
6.937495
31
0
39
0
210
0
220
0
230
1
0
LINE
5
11E
100
AcDbEntity
8
1
62
256
6
ByLayer
370
18
48
1
60
0
100
AcDbLine
10
23.499997
20
4.628212
30
0
11
25.047804
21
3.989068
31
0
39
0
210
0
220
0
230
1
0
LINE
5
11F
100
AcDbEntity
8
1
62
256
6
ByLayer
370
18
48
1
60
0
100
AcDbLine
10
0.346266
20
12.0234
30
0
11
0.346266
21
11.964676
31
0
39
0
210
0
220
0
230
1
0
LINE
5
120
100
AcDbEntity
8
1
62
256
6
ByLayer
370
18
48
1
60
0
100
AcDbLine
10
0.346266
20
8.236774
30
0
11
0.346266
21
7.976286
31
0
39
0
210
0
220
0
230
1
0
LINE
5
121
100
AcDbEntity
8
1
62
256
6
ByLayer
370
18
48
1
60
0
100
AcDbLine
10
0.346266
20
-7.976286
30
0
11
0.346266
21
-8.236774
31
0
39
0
210
0
220
0
230
1
0
LINE
5
122
100
AcDbEntity
8
1
62
256
6
ByLayer
370
18
48
1
60
0
100
AcDbLine
10
0
20
11.715912
30
0
11
0
21
11.848527
31
0
39
0
210
0
220
0
230
1
0
LINE
5
123
100
AcDbEntity
8
1
62
256
6
ByLayer
370
18
48
1
60
0
100
AcDbLine
10
24.562768
20
-1.554916
30
0
11
24.489938
21
-2.387376
31
0
39
0
210
0
220
0
230
1
0
LINE
5
124
100
AcDbEntity
8
1
62
256
6
ByLayer
370
18
48
1
60
0
100
AcDbLine
10
0
20
-7.940016
30
0
11
0
21
-7.164127
31
0
39
0
210
0
220
0
230
1
0
LINE
5
125
100
AcDbEntity
8
1
62
256
6
ByLayer
370
18
48
1
60
0
100
AcDbLine
10
0
20
7.164127
30
0
11
0
21
7.940016
31
0
39
0
210
0
220
0
230
1
0
LINE
5
126
100
AcDbEntity
8
1
62
256
6
ByLayer
370
18
48
1
60
0
100
AcDbLine
10
11.109379
20
11.975038
30
0
11
9.680008
21
8.534891
31
0
39
0
210
0
220
0
230
1
0
LINE
5
127
100
AcDbEntity
8
1
62
256
6
ByLayer
370
18
48
1
60
0
100
AcDbLine
10
24.786883
20
6.129352
30
0
11
25.219428
21
5.950738
31
0
39
0
210
0
220
0
230
1
0
LINE
5
128
100
AcDbEntity
8
1
62
256
6
ByLayer
370
18
48
1
60
0
100
AcDbLine
10
20.151747
20
0.26655
30
0
11
24.562768
21
-1.554916
31
0
39
0
210
0
220
0
230
1
0
LINE
5
129
100
AcDbEntity
8
1
62
256
6
ByLayer
370
18
48
1
60
0
100
AcDbLine
10
6.220581
20
3.872707
30
0
11
6.220581
21
-3.04936
31
0
39
0
210
0
220
0
230
1
0
LINE
5
12A
100
AcDbEntity
8
1
62
256
6
ByLayer
370
18
48
1
60
0
100
AcDbLine
10
19.870334
20
-0.177657
30
0
11
19.994131
21
-0.030657
31
0
39
0
210
0
220
0
230
1
0
LINE
5
12B
100
AcDbEntity
8
1
62
256
6
ByLayer
370
18
48
1
60
0
100
AcDbLine
10
17.106165
20
1.793102
30
0
11
17.299956
21
1.713079
31
0
39
0
210
0
220
0
230
1
0
LINE
5
12C
100
AcDbEntity
8
1
62
256
6
ByLayer
370
18
48
1
60
0
100
AcDbLine
10
20.484797
20
0.623111
30
0
11
24.604488
21
-1.078054
31
0
39
0
210
0
220
0
230
1
0
LINE
5
12D
100
AcDbEntity
8
1
62
256
6
ByLayer
370
18
48
1
60
0
100
AcDbLine
10
0.346266
20
10.387807
30
0
11
0.346266
21
10.237659
31
0
39
0
210
0
220
0
230
1
0
LINE
5
12E
100
AcDbEntity
8
1
62
256
6
ByLayer
370
18
48
1
60
0
100
AcDbLine
10
0.346266
20
3.909267
30
0
11
0.346266
21
3.151846
31
0
39
0
210
0
220
0
230
1
0
LINE
5
12F
100
AcDbEntity
8
1
62
256
6
ByLayer
370
18
48
1
60
0
100
AcDbLine
10
0.346266
20
-3.151846
30
0
11
0.346266
21
-3.909267
31
0
39
0
210
0
220
0
230
1
0
LINE
5
130
100
AcDbEntity
8
1
62
256
6
ByLayer
370
18
48
1
60
0
100
AcDbLine
10
17.229928
20
0.912659
30
0
11
16.14753
21
-1.692409
31
0
39
0
210
0
220
0
230
1
0
LINE
5
131
100
AcDbEntity
8
1
62
256
6
ByLayer
370
18
48
1
60
0
100
AcDbLine
10
15.321664
20
6.954344
30
0
11
17.818954
21
5.923125
31
0
39
0
210
0
220
0
230
1
0
LINE
5
132
100
AcDbEntity
8
1
62
256
6
ByLayer
370
18
48
1
60
0
100
AcDbLine
10
22.860367
20
3.841349
30
0
11
24.959061
21
2.974724
31
0
39
0
210
0
220
0
230
1
0
LINE
5
133
100
AcDbEntity
8
1
62
256
6
ByLayer
370
18
48
1
60
0
100
AcDbLine
10
0
20
-9.670191
30
0
11
0
21
-9.172655
31
0
39
0
210
0
220
0
230
1
0
LINE
5
134
100
AcDbEntity
8
1
62
256
6
ByLayer
370
18
48
1
60
0
100
AcDbLine
10
24.604488
20
-1.078054
30
0
11
24.562768
21
-1.554924
31
0
39
0
210
0
220
0
230
1
0
LINE
5
135
100
AcDbEntity
8
1
62
256
6
ByLayer
370
18
48
1
60
0
100
AcDbLine
10
0
20
-11.955031
30
0
11
0
21
-11.947023
31
0
39
0
210
0
220
0
230
1
0
LINE
5
136
100
AcDbEntity
8
1
62
256
6
ByLayer
370
18
48
1
60
0
100
AcDbLine
10
0
20
-11.547995
30
0
11
0
21
-11.715912
31
0
39
0
210
0
220
0
230
1
0
LINE
5
137
100
AcDbEntity
8
1
62
256
6
ByLayer
370
18
48
1
60
0
100
AcDbLine
10
6.220581
20
-8.691276
30
0
11
6.220581
21
-9.781451
31
0
39
0
210
0
220
0
230
1
0
LINE
5
138
100
AcDbEntity
8
1
62
256
6
ByLayer
370
18
48
1
60
0
100
AcDbLine
10
18.797085
20
-2.760704
30
0
11
19.870334
21
-0.177657
31
0
39
0
210
0
220
0
230
1
0
LINE
5
139
100
AcDbEntity
8
1
62
256
6
ByLayer
370
18
48
1
60
0
100
AcDbLine
10
9.653249
20
12.409674
30
0
11
0.451234
21
12.409674
31
0
39
0
210
0
220
0
230
1
0
LINE
5
13A
100
AcDbEntity
8
1
62
256
6
ByLayer
370
18
48
1
60
0
100
AcDbLine
10
0
20
11.715912
30
0
11
0
21
11.547995
31
0
39
0
210
0
220
0
230
1
0
LINE
5
13B
100
AcDbEntity
8
1
62
256
6
ByLayer
370
18
48
1
60
0
100
AcDbLine
10
0
20
9.670166
30
0
11
0
21
10.104769
31
0
39
0
210
0
220
0
230
1
0
LINE
5
13C
100
AcDbEntity
8
1
62
256
6
ByLayer
370
18
48
1
60
0
100
AcDbLine
10
0
20
11.099518
30
0
11
0
21
11.343229
31
0
39
0
210
0
220
0
230
1
0
LINE
5
13D
100
AcDbEntity
8
1
62
256
6
ByLayer
370
18
48
1
60
0
100
AcDbLine
10
0
20
-5.054093
30
0
11
0
21
-3.388415
31
0
39
0
210
0
220
0
230
1
0
LINE
5
13E
100
AcDbEntity
8
1
62
256
6
ByLayer
370
18
48
1
60
0
100
AcDbLine
10
25.237552
20
6.157892
30
0
11
25.219428
21
5.950738
31
0
39
0
210
0
220
0
230
1
0
LINE
5
13F
100
AcDbEntity
8
1
62
256
6
ByLayer
370
18
48
1
60
0
100
AcDbLine
10
11.225781
20
3.952386
30
0
11
11.413167
21
4.369106
31
0
39
0
210
0
220
0
230
1
0
LINE
5
140
100
AcDbEntity
8
1
62
256
6
ByLayer
370
18
48
1
60
0
100
AcDbLine
10
0.346266
20
-10.237659
30
0
11
0.346266
21
-10.387807
31
0
39
0
210
0
220
0
230
1
0
LINE
5
141
100
AcDbEntity
8
1
62
256
6
ByLayer
370
18
48
1
60
0
100
AcDbLine
10
0.346266
20
6.567032
30
0
11
0.346266
21
6.19189
31
0
39
0
210
0
220
0
230
1
0
LINE
5
142
100
AcDbEntity
8
1
62
256
6
ByLayer
370
18
48
1
60
0
100
AcDbLine
10
0.346266
20
-6.19189
30
0
11
0.346266
21
-6.567032
31
0
39
0
210
0
220
0
230
1
0
LINE
5
143
100
AcDbEntity
8
1
62
256
6
ByLayer
370
18
48
1
60
0
100
AcDbLine
10
0
20
-3.388415
30
0
11
0
21
3.388415
31
0
39
0
210
0
220
0
230
1
0
LINE
5
144
100
AcDbEntity
8
1
62
256
6
ByLayer
370
18
48
1
60
0
100
AcDbLine
10
0
20
9.172655
30
0
11
0
21
8.601222
31
0
39
0
210
0
220
0
230
1
0
LINE
5
145
100
AcDbEntity
8
1
62
256
6
ByLayer
370
18
48
1
60
0
100
AcDbLine
10
16.063711
20
8.777073
30
0
11
17.998699
21
7.978048
31
0
39
0
210
0
220
0
230
1
0
LINE
5
146
100
AcDbEntity
8
1
62
256
6
ByLayer
370
18
48
1
60
0
100
AcDbLine
10
24.173475
20
5.428266
30
0
11
25.138842
21
5.029632
31
0
39
0
210
0
220
0
230
1
0
LINE
5
147
100
AcDbEntity
8
1
62
256
6
ByLayer
370
18
48
1
60
0
100
AcDbLine
10
0.346266
20
-10.987118
30
0
11
0.346266
21
-11.101805
31
0
39
0
210
0
220
0
230
1
0
LINE
5
148
100
AcDbEntity
8
1
62
256
6
ByLayer
370
18
48
1
60
0
100
AcDbLine
10
11.225279
20
11.397065
30
0
11
12.645424
21
9.98224
31
0
39
0
210
0
220
0
230
1
0
LINE
5
149
100
AcDbEntity
8
1
62
256
6
ByLayer
370
18
48
1
60
0
100
AcDbLine
10
0
20
-10.484191
30
0
11
0
21
-10.814347
31
0
39
0
210
0
220
0
230
1
0
LINE
5
14A
100
AcDbEntity
8
1
62
256
6
ByLayer
370
18
48
1
60
0
100
AcDbLine
10
20.151747
20
0.266541
30
0
11
20.484797
21
0.623111
31
0
39
0
210
0
220
0
230
1
0
LINE
5
14B
100
AcDbEntity
8
1
62
256
6
ByLayer
370
18
48
1
60
0
100
AcDbLine
10
9.221816
20
8.769075
30
0
11
9.221817
21
8.769083
31
0
39
0
210
0
220
0
230
1
0
LINE
5
14C
100
AcDbEntity
8
1
62
256
6
ByLayer
370
18
48
1
60
0
100
AcDbLine
10
0
20
-11.548002
30
0
11
0
21
-11.343229
31
0
39
0
210
0
220
0
230
1
0
LINE
5
14D
100
AcDbEntity
8
1
62
256
6
ByLayer
370
18
48
1
60
0
100
AcDbLine
10
24.934814
20
2.69758
30
0
11
24.959061
21
2.974724
31
0
39
0
210
0
220
0
230
1
0
LINE
5
14E
100
AcDbEntity
8
1
62
256
6
ByLayer
370
18
48
1
60
0
100
AcDbLine
10
0
20
6.230979
30
0
11
0
21
7.164154
31
0
39
0
210
0
220
0
230
1
0
LINE
5
14F
100
AcDbEntity
8
1
62
256
6
ByLayer
370
18
48
1
60
0
100
AcDbLine
10
0
20
7.940016
30
0
11
0
21
8.601241
31
0
39
0
210
0
220
0
230
1
0
LINE
5
150
100
AcDbEntity
8
1
62
256
6
ByLayer
370
18
48
1
60
0
100
AcDbLine
10
0
20
11.848403
30
0
11
0
21
11.947023
31
0
39
0
210
0
220
0
230
1
0
LINE
5
151
100
AcDbEntity
8
1
62
256
6
ByLayer
370
18
48
1
60
0
100
AcDbLine
10
0.346266
20
9.457166
30
0
11
0.346266
21
9.261521
31
0
39
0
210
0
220
0
230
1
0
LINE
5
152
100
AcDbEntity
8
1
62
256
6
ByLayer
370
18
48
1
60
0
100
AcDbLine
10
0.346266
20
-9.261521
30
0
11
0.346266
21
-9.457166
31
0
39
0
210
0
220
0
230
1
0
LINE
5
153
100
AcDbEntity
8
1
62
256
6
ByLayer
370
18
48
1
60
0
100
AcDbLine
10
0
20
6.230979
30
0
11
0
21
5.053908
31
0
39
0
210
0
220
0
230
1
0
LINE
5
154
100
AcDbEntity
8
1
62
256
6
ByLayer
370
18
48
1
60
0
100
AcDbLine
10
0
20
-5.053908
30
0
11
0
21
-6.230979
31
0
39
0
210
0
220
0
230
1
0
LINE
5
155
100
AcDbEntity
8
1
62
256
6
ByLayer
370
18
48
1
60
0
100
AcDbLine
10
16.099543
20
8.859559
30
0
11
16.063711
21
8.777073
31
0
39
0
210
0
220
0
230
1
0
LINE
5
156
100
AcDbEntity
8
1
62
256
6
ByLayer
370
18
48
1
60
0
100
AcDbLine
10
20.084378
20
0.186554
30
0
11
20.151747
21
0.26655
31
0
39
0
210
0
220
0
230
1
0
LINE
5
157
100
AcDbEntity
8
1
62
256
6
ByLayer
370
18
48
1
60
0
100
AcDbLine
10
11.225279
20
11.397065
30
0
11
9.827584
21
8.033155
31
0
39
0
210
0
220
0
230
1
0
LINE
5
158
100
AcDbEntity
8
1
62
256
6
ByLayer
370
18
48
1
60
0
100
AcDbLine
10
24.604493
20
-1.078002
30
0
11
24.934814
21
2.69758
31
0
39
0
210
0
220
0
230
1
0
LINE
5
159
100
AcDbEntity
8
1
62
256
6
ByLayer
370
18
48
1
60
0
100
AcDbLine
10
19.01375
20
-2.390186
30
0
11
20.084378
21
0.186554
31
0
39
0
210
0
220
0
230
1
0
LINE
5
15A
100
AcDbEntity
8
1
62
256
6
ByLayer
370
18
48
1
60
0
100
AcDbLine
10
17.034881
20
0.978004
30
0
11
17.074381
21
1.429487
31
0
39
0
210
0
220
0
230
1
0
LINE
5
15B
100
AcDbEntity
8
1
62
256
6
ByLayer
370
18
48
1
60
0
100
AcDbLine
10
15.044826
20
6.781503
30
0
11
15.868235
21
8.763247
31
0
39
0
210
0
220
0
230
1
0
LINE
5
15C
100
AcDbEntity
8
1
62
256
6
ByLayer
370
18
48
1
60
0
100
AcDbLine
10
0
20
-11.343229
30
0
11
0
21
-11.099518
31
0
39
0
210
0
220
0
230
1
0
LINE
5
15D
100
AcDbEntity
8
1
62
256
6
ByLayer
370
18
48
1
60
0
100
AcDbLine
10
15.321664
20
6.954344
30
0
11
15.681344
21
7.856809
31
0
39
0
210
0
220
0
230
1
0
LINE
5
15E
100
AcDbEntity
8
SK1
62
256
6
ByLayer
370
18
48
1
60
0
100
AcDbLine
10
0
20
11.715912
30
0
11
0
21
11.547995
31
0
39
0
210
0
220
0
230
1
0
LINE
5
15F
100
AcDbEntity
8
SK1
62
256
6
ByLayer
370
18
48
1
60
0
100
AcDbLine
10
-0.298766
20
11.465333
30
0
11
-0.298766
21
11.159033
31
0
39
0
210
0
220
0
230
1
0
LINE
5
160
100
AcDbEntity
8
SK1
62
256
6
ByLayer
370
18
48
1
60
0
100
AcDbLine
10
0
20
11.715912
30
0
11
0
21
11.848527
31
0
39
0
210
0
220
0
230
1
0
LINE
5
161
100
AcDbEntity
8
SK1
62
256
6
ByLayer
370
18
48
1
60
0
100
AcDbLine
10
-0.238766
20
11.503145
30
0
11
-0.238766
21
11.255741
31
0
39
0
210
0
220
0
230
1
0
LINE
5
162
100
AcDbEntity
8
SK1
62
256
6
ByLayer
370
18
48
1
60
0
100
AcDbLine
10
-0.298766
20
11.465333
30
0
11
-0.298766
21
11.496135
31
0
39
0
210
0
220
0
230
1
0
LINE
5
163
100
AcDbEntity
8
1
62
256
6
ByLayer
370
18
48
1
60
0
100
AcDbLine
10
21.642737
20
10.285247
30
0
11
21.652111
21
10.39239
31
0
39
0
210
0
220
0
230
1
0
LINE
5
164
100
AcDbEntity
8
1
62
256
6
ByLayer
370
18
48
1
60
0
100
AcDbLine
10
23.18953
20
9.551036
30
0
11
23.180647
21
9.449494
31
0
39
0
210
0
220
0
230
1
0
LINE
5
165
100
AcDbEntity
8
1
62
256
6
ByLayer
370
18
48
1
60
0
100
AcDbLine
10
19.935412
20
9.462738
30
0
11
19.92994
21
9.4002
31
0
39
0
210
0
220
0
230
1
0
LINE
5
166
100
AcDbEntity
8
1
62
256
6
ByLayer
370
18
48
1
60
0
100
AcDbLine
10
24.313197
20
9.016714
30
0
11
24.318668
21
9.079253
31
0
39
0
210
0
220
0
230
1
0
LINE
5
167
100
AcDbEntity
8
1
62
256
6
ByLayer
370
18
48
1
60
0
100
AcDbLine
10
21.057173
20
8.906644
30
0
11
21.066082
21
9.008465
31
0
39
0
210
0
220
0
230
1
0
LINE
5
168
100
AcDbEntity
8
1
62
256
6
ByLayer
370
18
48
1
60
0
100
AcDbLine
10
22.604462
20
8.178093
30
0
11
22.595083
21
8.07089
31
0
39
0
210
0
220
0
230
1
0
LINE
5
169
100
AcDbEntity
8
1
62
256
6
ByLayer
370
18
48
1
60
0
100
AcDbLine
10
8.95462
20
7.679849
30
0
11
8.954619
21
7.67984
31
0
39
0
210
0
220
0
230
1
0
LINE
5
16A
100
AcDbEntity
8
1
62
256
6
ByLayer
370
18
48
1
60
0
100
AcDbLine
10
10.481256
20
12.5
30
0
11
9.933646
21
12.5
31
0
39
0
210
0
220
0
230
1
0
LINE
5
16B
100
AcDbEntity
8
4
62
256
6
ByLayer
370
18
48
0.05
60
0
100
AcDbLine
10
0
20
0
30
0
11
32.079593
21
0
31
0
39
0
210
0
220
0
230
1
0
LINE
5
16D
100
AcDbEntity
8
SK4
62
256
6
ByLayer
370
18
48
0.05
60
0
100
AcDbLine
10
27.079593
20
0
30
0
11
-10
21
0
31
0
39
0
210
0
220
0
230
1
0
LINE
5
16F
100
AcDbEntity
8
81
62
256
6
ByLayer
370
18
48
1
60
0
100
AcDbLine
10
27
20
19.9
30
0
11
37
21
19.9
31
0
39
0
210
0
220
0
230
1
0
LINE
5
170
100
AcDbEntity
8
80
62
256
6
ByLayer
370
18
48
1
60
0
100
AcDbLine
10
0
20
0
30
0
11
-10
21
0
31
0
39
0
210
0
220
0
230
1
0
LINE
5
171
100
AcDbEntity
8
1
62
256
6
ByLayer
370
18
48
1
60
0
100
AcDbLine
10
25.597565
20
19.617129
30
0
11
18.495317
21
11.183747
31
0
39
0
210
0
220
0
230
1
0
LINE
5
172
100
AcDbEntity
8
2
62
256
6
ByLayer
370
13
48
1
60
0
100
AcDbLine
10
29
20
0
30
0
11
55.800606
21
0
31
0
39
0
210
0
220
0
230
1
0
LINE
5
173
100
AcDbEntity
8
2
62
256
6
ByLayer
370
13
48
1
60
0
100
AcDbLine
10
25.692664
20
4.95708
30
0
11
22.597097
21
-30.42541
31
0
39
0
210
0
220
0
230
1
0
LINE
5
174
100
AcDbEntity
8
1
62
256
6
ByLayer
370
13
48
1
60
0
100
AcDbLine
10
53.800606
20
0
30
0
11
54.130246
21
-3.185384
31
0
39
0
210
0
220
0
230
1
0
LINE
5
175
100
AcDbEntity
8
1
62
256
6
ByLayer
370
13
48
1
60
0
100
AcDbLine
10
53.800606
20
0
30
0
11
53.294575
21
-3.162165
31
0
39
0
210
0
220
0
230
1
0
LINE
5
176
100
AcDbEntity
8
1
62
256
6
ByLayer
370
13
48
1
60
0
100
AcDbLine
10
54.130246
20
-3.185384
30
0
11
53.294575
21
-3.162165
31
0
39
0
210
0
220
0
230
1
0
LINE
5
177
100
AcDbEntity
8
1
62
256
6
ByLayer
370
13
48
1
60
0
100
AcDbLine
10
22.771409
20
-28.433021
30
0
11
25.965641
21
-28.204517
31
0
39
0
210
0
220
0
230
1
0
LINE
5
178
100
AcDbEntity
8
1
62
256
6
ByLayer
370
13
48
1
60
0
100
AcDbLine
10
22.771409
20
-28.433021
30
0
11
25.915945
21
-29.039031
31
0
39
0
210
0
220
0
230
1
0
LINE
5
179
100
AcDbEntity
8
1
62
256
6
ByLayer
370
13
48
1
60
0
100
AcDbLine
10
25.965641
20
-28.204517
30
0
11
25.915945
21
-29.039031
31
0
39
0
210
0
220
0
230
1
0
MTEXT
5
273
100
AcDbEntity
8
2
62
256
6
ByLayer
370
18
48
1
60
0
100
AcDbMText
10
39.215386
20
-24.413438
30
0
210
0
220
0
230
1
1
\W0.7588;95%%d0'
40
4.5
41
0
44
1.084337
50
42.5
71
7
72
5
7
iso_b_vert
0
MTEXT
5
276
100
AcDbEntity
8
SK6
62
256
6
ByLayer
370
18
48
1
60
0
100
AcDbMText
10
-18.3145
20
-26.917366
30
0
210
0
220
0
230
1
1
\W0.7828;TR-SL-V13LBR-25
40
3.5
41
0
44
1.084337
50
0
71
7
72
5
7
iso_b_vert
0
DIMENSION
5
279
100
AcDbEntity
8
SK2
62
256
6
ByLayer
370
18
48
1
60
0
100
AcDbDimension
2
_U0
10
-7.75
20
12.5
30
0
11
-7.75
21
0
31
0
70
32
71
1
72
1
41
1
210
0
220
0
230
1
3
Standard
100
AcDbAlignedDimension
13
0
23
-12.5
33
0
14
0
24
12.5
34
0
50
90
100
AcDbRotatedDimension
1001
ACAD
1000
DSTYLE
1002
{
1070
   371
1070
    13
1070
   372
1070
    13
1070
     3
1000

1070
   170
1070
     0
1070
   144
1040
1.0
1070
   277
1070
     2
1070
   284
1070
     8
1070
   278
1070
    46
1070
   146
1040
0.777778
1070
   345
1005
16
1070
   347
1005
16
1070
   346
1005
16
1070
   344
1005
27A
1070
   343
1005
27A
1070
   172
1070
     1
1070
    76
1070
     0
1070
    75
1070
     0
1070
   282
1070
     0
1070
   281
1070
     0
1070
    71
1070
     0
1070
   272
1070
     4
1070
   271
1070
     4
1070
    74
1070
     0
1070
   279
1070
     0
1070
   173
1070
     1
1070
   340
1005
274
1070
    77
1070
     1
1070
    73
1070
     0
1070
   171
1070
     4
1070
   274
1070
     4
1070
   177
1070
     2
1070
   176
1070
     2
1070
   178
1070
     7
1070
    78
1070
     8
1070
    41
1040
3.175
1070
   147
1040
2.25
1070
    42
1040
2.0
1070
    44
1040
2.0
1070
   140
1040
4.5
1002
}
1001
ACAD_DSTYLE_DIM_LINETYPE
1070
   380
1005
16
1001
ACAD_DSTYLE_DIM_EXT1_LINETYPE
1070
   381
1005
16
1001
ACAD_DSTYLE_DIM_EXT2_LINETYPE
1070
   382
1005
16
0
DIMENSION
5
29E
100
AcDbEntity
8
2
62
256
6
ByLayer
370
18
48
1
60
0
100
AcDbDimension
2
_U1
10
44.329593
20
0
30
0
11
44.329593
21
9.95
31
0
70
32
71
1
72
1
41
1
210
0
220
0
230
1
3
Standard
100
AcDbAlignedDimension
13
27
23
19.9
33
0
14
27
24
0
34
0
50
90
100
AcDbRotatedDimension
1001
ACAD
1000
DSTYLE
1002
{
1070
   371
1070
    13
1070
   372
1070
    13
1070
     3
1000

1070
   170
1070
     0
1070
   144
1040
1.0
1070
   277
1070
     2
1070
   284
1070
     8
1070
   278
1070
    46
1070
   146
1040
0.777778
1070
   345
1005
16
1070
   347
1005
16
1070
   346
1005
16
1070
   344
1005
27A
1070
   343
1005
27A
1070
   172
1070
     1
1070
    76
1070
     0
1070
    75
1070
     0
1070
   282
1070
     0
1070
   281
1070
     0
1070
    71
1070
     0
1070
   272
1070
     4
1070
   271
1070
     4
1070
    74
1070
     0
1070
   279
1070
     0
1070
   173
1070
     1
1070
   340
1005
274
1070
    77
1070
     1
1070
    73
1070
     0
1070
   171
1070
     4
1070
   274
1070
     4
1070
   177
1070
     2
1070
   176
1070
     2
1070
   178
1070
     7
1070
    78
1070
     8
1070
    41
1040
3.175
1070
   147
1040
2.25
1070
    42
1040
2.0
1070
    44
1040
2.0
1070
   140
1040
4.5
1002
}
1001
ACAD_DSTYLE_DIM_LINETYPE
1070
   380
1005
16
1001
ACAD_DSTYLE_DIM_EXT1_LINETYPE
1070
   381
1005
16
1001
ACAD_DSTYLE_DIM_EXT2_LINETYPE
1070
   382
1005
16
0
DIMENSION
5
2BB
100
AcDbEntity
8
2
62
256
6
ByLayer
370
18
48
1
60
0
100
AcDbDimension
2
_U2
10
27
20
32.65
30
0
11
13.5
21
32.65
31
0
70
32
71
1
72
1
41
1
210
0
220
0
230
1
3
Standard
100
AcDbAlignedDimension
13
0
23
12.5
33
0
14
27
24
19.9
34
0
50
0
100
AcDbRotatedDimension
1001
ACAD
1000
DSTYLE
1002
{
1070
   371
1070
    13
1070
   372
1070
    13
1070
     3
1000

1070
   170
1070
     0
1070
   144
1040
1.0
1070
   277
1070
     2
1070
   284
1070
     8
1070
   278
1070
    46
1070
   146
1040
0.777778
1070
   345
1005
16
1070
   347
1005
16
1070
   346
1005
16
1070
   344
1005
27A
1070
   343
1005
27A
1070
   172
1070
     1
1070
    76
1070
     0
1070
    75
1070
     0
1070
   282
1070
     0
1070
   281
1070
     0
1070
    71
1070
     0
1070
   272
1070
     4
1070
   271
1070
     4
1070
    74
1070
     0
1070
   279
1070
     0
1070
   173
1070
     1
1070
   340
1005
274
1070
    77
1070
     1
1070
    73
1070
     1
1070
   171
1070
     4
1070
   274
1070
     4
1070
   177
1070
     2
1070
   176
1070
     2
1070
   178
1070
     7
1070
    78
1070
     8
1070
    41
1040
3.175
1070
   147
1040
2.25
1070
    42
1040
2.0
1070
    44
1040
2.0
1070
   140
1040
4.5
1002
}
1001
ACAD_DSTYLE_DIM_LINETYPE
1070
   380
1005
16
1001
ACAD_DSTYLE_DIM_EXT1_LINETYPE
1070
   381
1005
16
1001
ACAD_DSTYLE_DIM_EXT2_LINETYPE
1070
   382
1005
16
0
ENDSEC
0
SECTION
2
OBJECTS
0
DICTIONARY
5
347
330
0
100
AcDbDictionary
280
0
281
1
3
ACAD_GROUP
350
348
3
ACAD_MLINESTYLE
350
349
0
DICTIONARY
5
348
330
0
100
AcDbDictionary
280
0
281
1
0
DICTIONARY
5
349
330
0
100
AcDbDictionary
280
0
281
1
3
Standard
350
18
0
MLINESTYLE
5
18
330
349
100
AcDbMlineStyle
2
Standard
70
0
3

62
256
51
90
52
90
71
2
49
-0.5
62
256
6
ByLayer
49
0.5
62
256
6
ByLayer
0
RASTERVARIABLES
5
335
330

100
AcDbRasterVariables
90
0
70
1
71
1
72
1
0
ENDSEC
0
EOF
