0
SECTION
2
HEADER
9
$ACADVER
1
AC1015
9
$DWGCODEPAGE
3
ANSI_1252
9
$HANDSEED
5
3b6
9
$ANGBASE
50
0
9
$ANGDIR
70
0
9
$ATTMODE
70
1
9
$AUNITS
70
0
9
$AUPREC
70
0
9
$CECOLOR
62
256
9
$CELTSCALE
40
1
9
$CELTYPE
6
ByLayer
9
$CELWEIGHT
370
18
9
$CLAYER
8
0
9
$CMLJUST
70
0
9
$CMLSCALE
40
1
9
$CMLSTYLE
2
Standard
9
$DIMSTYLE
2
Standard
9
$TEXTSIZE
40
0.2
9
$TEXTSTYLE
7
Standard
9
$LUNITS
70
2
9
$LUPREC
70
4
9
$EXTNAMES
290
1
9
$INSUNITS
70
4
9
$LTSCALE
40
1
9
$LWDISPLAY
290
1
9
$PDMODE
70
0
9
$PDSIZE
40
0
9
$PLINEGEN
70
0
0
ENDSEC
0
SECTION
2
CLASSES
0
CLASS
1
RASTERVARIABLES
2
AcDbRasterVariables
3
ISM
90
0
280
0
281
0
0
ENDSEC
0
SECTION
2
TABLES
0
TABLE
2
VPORT
5
3ac
100
AcDbSymbolTable
0
VPORT
5
1
100
AcDbSymbolTableRecord
100
AcDbViewportTableRecord
2
*Active
70
0
10
0
20
0
11
1
21
1
12
-1
22
1
13
0
23
0
14
0.5
24
0.5
15
10
25
10
16
0
26
0
36
1
17
0
27
0
37
0
0
ENDTAB
0
TABLE
2
LTYPE
5
3ad
100
AcDbSymbolTable
0
LTYPE
5
14
100
AcDbSymbolTableRecord
100
AcDbLinetypeTableRecord
70
0
2
ByBlock
3

72
65
73
0
40
0
0
LTYPE
5
15
100
AcDbSymbolTableRecord
100
AcDbLinetypeTableRecord
70
0
2
ByLayer
3

72
65
73
0
40
0
0
LTYPE
5
16
100
AcDbSymbolTableRecord
100
AcDbLinetypeTableRecord
70
0
2
Continuous
3
Solid line
72
65
73
0
40
0
0
LTYPE
5
6E
100
AcDbSymbolTableRecord
100
AcDbLinetypeTableRecord
70
0
2
CENTER
3
____ _ ____ _ ____ _ ____
72
65
73
4
40
47.5
49
22
74
0
49
-8.5
74
0
49
8.5
74
0
49
-8.5
74
0
0
LTYPE
5
6F
100
AcDbSymbolTableRecord
100
AcDbLinetypeTableRecord
70
0
2
DASHED
3
__ __ __ __ __ __ __ __ __
72
65
73
2
40
25.72
49
12.86
74
0
49
-12.86
74
0
0
ENDTAB
0
TABLE
2
LAYER
5
3ae
100
AcDbSymbolTable
0
LAYER
5
10
100
AcDbSymbolTableRecord
100
AcDbLayerTableRecord
2
0
70
0
62
7
6
Continuous
290
1
370
-3
390
0
0
LAYER
5
71
100
AcDbSymbolTableRecord
100
AcDbLayerTableRecord
2
2
70
0
62
7
6
Continuous
290
1
370
-3
390
0
0
LAYER
5
74
100
AcDbSymbolTableRecord
100
AcDbLayerTableRecord
2
81
70
0
62
-3
6
Continuous
290
1
370
-3
390
0
0
LAYER
5
76
100
AcDbSymbolTableRecord
100
AcDbLayerTableRecord
2
80
70
0
62
-6
6
Continuous
290
1
370
-3
390
0
0
LAYER
5
78
100
AcDbSymbolTableRecord
100
AcDbLayerTableRecord
2
1
70
0
62
4
6
Continuous
290
1
370
-3
390
0
0
LAYER
5
18B
100
AcDbSymbolTableRecord
100
AcDbLayerTableRecord
2
4
70
0
62
-2
6
CENTER
290
1
370
-3
390
0
0
LAYER
5
2E5
100
AcDbSymbolTableRecord
100
AcDbLayerTableRecord
2
Defpoints
70
0
62
7
6
Continuous
290
0
370
-3
390
0
0
LAYER
5
398
100
AcDbSymbolTableRecord
100
AcDbLayerTableRecord
2
SK1
70
0
62
4
6
Continuous
290
1
370
-3
390
0
0
LAYER
5
399
100
AcDbSymbolTableRecord
100
AcDbLayerTableRecord
2
SK4
70
0
62
2
6
CENTER
290
1
370
-3
390
0
0
LAYER
5
39a
100
AcDbSymbolTableRecord
100
AcDbLayerTableRecord
2
SK6
70
0
62
5
6
Continuous
290
1
370
-3
390
0
0
LAYER
5
39b
100
AcDbSymbolTableRecord
100
AcDbLayerTableRecord
2
SK2
70
0
62
7
6
Continuous
290
1
370
-3
390
0
0
ENDTAB
0
TABLE
2
STYLE
5
3af
100
AcDbSymbolTable
0
STYLE
5
11
100
AcDbSymbolTableRecord
100
AcDbTextStyleTableRecord
2
Standard
3
txt
70
0
71
0
40
0
41
1
42
0
50
0
0
STYLE
5
2D6
100
AcDbSymbolTableRecord
100
AcDbTextStyleTableRecord
2
iso_b_vert
3
simplex.shx
70
0
71
0
40
0
41
1
42
0
50
0
0
STYLE
5
2D7
100
AcDbSymbolTableRecord
100
AcDbTextStyleTableRecord
2
DWGDirectTextStyle
3
simplex
70
0
71
0
40
0
41
1
42
0
50
0
0
ENDTAB
0
TABLE
2
DIMSTYLE
5
3b0
100
AcDbSymbolTable
100
AcDbDimStyleTable
0
DIMSTYLE
105
27
100
AcDbSymbolTableRecord
100
AcDbDimStyleTableRecord
2
Standard
70
0
3
<>
41
0.18
42
0.0625
44
0.18
140
0.18
147
0.09
73
0
74
0
77
1
271
2
275
0
278
52
280
0
340
11
0
ENDTAB
0
TABLE
2
VIEW
5
3b1
100
AcDbSymbolTable
0
ENDTAB
0
TABLE
2
UCS
5
3b2
100
AcDbSymbolTable
0
ENDTAB
0
TABLE
2
APPID
5
3b3
100
AcDbSymbolTable
0
APPID
5
12
100
AcDbSymbolTableRecord
100
AcDbRegAppTableRecord
2
ACAD
70
0
0
APPID
5
2DA
100
AcDbSymbolTableRecord
100
AcDbRegAppTableRecord
2
ACAD_DSTYLE_DIMBREAK
70
0
0
APPID
5
357
100
AcDbSymbolTableRecord
100
AcDbRegAppTableRecord
2
ACAD_DSTYLE_DIM_LINETYPE
70
0
0
APPID
5
358
100
AcDbSymbolTableRecord
100
AcDbRegAppTableRecord
2
ACAD_DSTYLE_DIM_EXT1_LINETYPE
70
0
0
APPID
5
359
100
AcDbSymbolTableRecord
100
AcDbRegAppTableRecord
2
ACAD_DSTYLE_DIM_EXT2_LINETYPE
70
0
0
APPID
5
394
100
AcDbSymbolTableRecord
100
AcDbRegAppTableRecord
2
ACAD_MLEADERVER
70
0
0
ENDTAB
0
TABLE
2
BLOCK_RECORD
5
3b4
100
AcDbSymbolTable
0
BLOCK_RECORD
5
1F
100
AcDbSymbolTableRecord
100
AcDbBlockTableRecord
2
*Model_Space
340
0
70
0
0
BLOCK_RECORD
5
1B
100
AcDbSymbolTableRecord
100
AcDbBlockTableRecord
2
*Paper_Space
340
0
70
0
0
BLOCK_RECORD
5
23
100
AcDbSymbolTableRecord
100
AcDbBlockTableRecord
2
*Paper_Space0
340
0
70
0
0
BLOCK_RECORD
5
2DC
100
AcDbSymbolTableRecord
100
AcDbBlockTableRecord
2
_Closed
340
0
70
0
0
BLOCK_RECORD
5
2E6
100
AcDbSymbolTableRecord
100
AcDbBlockTableRecord
2
*D2
340
0
70
0
0
BLOCK_RECORD
5
2F3
100
AcDbSymbolTableRecord
100
AcDbBlockTableRecord
2
_U0
340
0
70
0
0
BLOCK_RECORD
5
303
100
AcDbSymbolTableRecord
100
AcDbBlockTableRecord
2
*D4
340
0
70
0
0
BLOCK_RECORD
5
310
100
AcDbSymbolTableRecord
100
AcDbBlockTableRecord
2
_U1
340
0
70
0
0
BLOCK_RECORD
5
320
100
AcDbSymbolTableRecord
100
AcDbBlockTableRecord
2
*D6
340
0
70
0
0
BLOCK_RECORD
5
32C
100
AcDbSymbolTableRecord
100
AcDbBlockTableRecord
2
_U2
340
0
70
0
0
ENDTAB
0
ENDSEC
0
SECTION
2
BLOCKS
0
BLOCK
5
20
100
AcDbEntity
8
0
100
AcDbBlockBegin
2
*Model_Space
70
0
10
0
20
0
30
0
3
*Model_Space
0
ENDBLK
5
21
100
AcDbEntity
8
0
100
AcDbBlockEnd
0
BLOCK
5
1C
100
AcDbEntity
8
0
100
AcDbBlockBegin
2
*Paper_Space
70
0
10
0
20
0
30
0
3
*Paper_Space
0
ENDBLK
5
1D
100
AcDbEntity
8
0
100
AcDbBlockEnd
0
BLOCK
5
24
100
AcDbEntity
8
0
100
AcDbBlockBegin
2
*Paper_Space0
70
0
10
0
20
0
30
0
3
*Paper_Space0
0
ENDBLK
5
25
100
AcDbEntity
8
0
100
AcDbBlockEnd
0
BLOCK
5
2DD
100
AcDbEntity
8
0
100
AcDbBlockBegin
2
_Closed
70
0
10
0
20
0
30
0
3
_Closed
0
LINE
5
2DF
100
AcDbEntity
8
0
62
256
6
ByLayer
370
-2
48
1
60
0
100
AcDbLine
10
-1
20
0.166667
30
0
11
0
21
0
31
0
39
0
210
0
220
0
230
1
0
LINE
5
2E0
100
AcDbEntity
8
0
62
256
6
ByLayer
370
-2
48
1
60
0
100
AcDbLine
10
0
20
0
30
0
11
-1
21
-0.166667
31
0
39
0
210
0
220
0
230
1
0
LINE
5
2E1
100
AcDbEntity
8
0
62
256
6
ByLayer
370
-2
48
1
60
0
100
AcDbLine
10
-1
20
0.166667
30
0
11
-1
21
-0.166667
31
0
39
0
210
0
220
0
230
1
0
LINE
5
2E2
100
AcDbEntity
8
0
62
256
6
ByLayer
370
-2
48
1
60
0
100
AcDbLine
10
0
20
0
30
0
11
-1
21
0
31
0
39
0
210
0
220
0
230
1
0
ENDBLK
5
2DE
100
AcDbEntity
8
0
100
AcDbBlockEnd
0
BLOCK
5
2E7
100
AcDbEntity
8
0
100
AcDbBlockBegin
2
*D2
70
1
10
0
20
0
30
0
3
*D2
0
LINE
5
2E9
100
AcDbEntity
8
0
62
256
6
ByLayer
370
-2
48
1
60
0
100
AcDbLine
10
-2
20
16
30
0
11
-9.75
21
16
31
0
39
0
210
0
220
0
230
1
0
LINE
5
2EA
100
AcDbEntity
8
0
62
256
6
ByLayer
370
-2
48
1
60
0
100
AcDbLine
10
-2
20
-16
30
0
11
-9.75
21
-16
31
0
39
0
210
0
220
0
230
1
0
LINE
5
2EB
100
AcDbEntity
8
0
62
256
6
ByLayer
370
-2
48
1
60
0
100
AcDbLine
10
-7.75
20
12.825
30
0
11
-7.75
21
-12.825
31
0
39
0
210
0
220
0
230
1
0
SOLID
5
2EC
100
AcDbEntity
8
0
62
256
6
ByLayer
370
-1
48
1
60
0
100
AcDbTrace
10
-7.220833
20
12.825
30
0
11
-8.279167
21
12.825
31
0
12
-7.75
22
16
32
0
13
-7.75
23
16
33
0
39
0
210
0
220
0
230
1
0
SOLID
5
2ED
100
AcDbEntity
8
0
62
256
6
ByLayer
370
-1
48
1
60
0
100
AcDbTrace
10
-8.279167
20
-12.825
30
0
11
-7.220833
21
-12.825
31
0
12
-7.75
22
-16
32
0
13
-7.75
23
-16
33
0
39
0
210
0
220
0
230
1
0
MTEXT
5
2EE
100
AcDbEntity
8
0
62
256
6
ByLayer
370
18
48
1
60
0
100
AcDbMText
10
-19
20
0
30
0
210
0
220
0
230
1
1
\A1;32
40
4.5
41
0
44
1
50
90
71
5
72
5
7
iso_b_vert
0
POINT
5
2EF
100
AcDbEntity
8
Defpoints
62
0
6
ByLayer
370
-1
48
1
60
0
100
AcDbPoint
10
0
20
16
30
0
39
0
210
0
220
0
230
1
50
360
0
POINT
5
2F0
100
AcDbEntity
8
Defpoints
62
0
6
ByLayer
370
-1
48
1
60
0
100
AcDbPoint
10
0
20
-16
30
0
39
0
210
0
220
0
230
1
50
360
0
POINT
5
2F1
100
AcDbEntity
8
Defpoints
62
0
6
ByLayer
370
-1
48
1
60
0
100
AcDbPoint
10
-7.75
20
-16
30
0
39
0
210
0
220
0
230
1
50
360
0
ENDBLK
5
2E8
100
AcDbEntity
8
0
100
AcDbBlockEnd
0
BLOCK
5
2FE
100
AcDbEntity
8
0
100
AcDbBlockBegin
2
_U0
70
0
10
0
20
0
30
0
3
_U0
0
MTEXT
5
2F4
100
AcDbEntity
8
SK2
62
256
6
ByLayer
370
18
48
1
60
0
100
AcDbMText
10
-8.636672
20
-4.669971
30
0
210
0
220
0
230
1
1
\W0.8879;%%c32
40
4.5
41
0
44
1.084337
50
90
71
7
72
5
7
iso_b_vert
0
LINE
5
2F5
100
AcDbEntity
8
SK2
62
256
6
ByLayer
370
13
48
1
60
0
100
AcDbLine
10
-2
20
16
30
0
11
-9.75
21
16
31
0
39
0
210
0
220
0
230
1
0
LINE
5
2F6
100
AcDbEntity
8
SK2
62
256
6
ByLayer
370
13
48
1
60
0
100
AcDbLine
10
-2
20
-16
30
0
11
-9.75
21
-16
31
0
39
0
210
0
220
0
230
1
0
LINE
5
2F7
100
AcDbEntity
8
SK2
62
256
6
ByLayer
370
13
48
1
60
0
100
AcDbLine
10
-7.75
20
16
30
0
11
-7.75
21
-16
31
0
39
0
210
0
220
0
230
1
0
LINE
5
2F8
100
AcDbEntity
8
SK2
62
256
6
ByLayer
370
13
48
1
60
0
100
AcDbLine
10
-7.75
20
16
30
0
11
-7.332003
21
12.825002
31
0
39
0
210
0
220
0
230
1
0
LINE
5
2F9
100
AcDbEntity
8
SK2
62
256
6
ByLayer
370
13
48
1
60
0
100
AcDbLine
10
-7.75
20
16
30
0
11
-8.167997
21
12.824998
31
0
39
0
210
0
220
0
230
1
0
LINE
5
2FA
100
AcDbEntity
8
SK2
62
256
6
ByLayer
370
13
48
1
60
0
100
AcDbLine
10
-7.332003
20
12.825002
30
0
11
-8.167997
21
12.824998
31
0
39
0
210
0
220
0
230
1
0
LINE
5
2FB
100
AcDbEntity
8
SK2
62
256
6
ByLayer
370
13
48
1
60
0
100
AcDbLine
10
-7.75
20
-16
30
0
11
-8.167997
21
-12.825002
31
0
39
0
210
0
220
0
230
1
0
LINE
5
2FC
100
AcDbEntity
8
SK2
62
256
6
ByLayer
370
13
48
1
60
0
100
AcDbLine
10
-7.75
20
-16
30
0
11
-7.332003
21
-12.824998
31
0
39
0
210
0
220
0
230
1
0
LINE
5
2FD
100
AcDbEntity
8
SK2
62
256
6
ByLayer
370
13
48
1
60
0
100
AcDbLine
10
-8.167997
20
-12.825002
30
0
11
-7.332003
21
-12.824998
31
0
39
0
210
0
220
0
230
1
0
ENDBLK
5
2FF
100
AcDbEntity
8
0
100
AcDbBlockEnd
0
BLOCK
5
304
100
AcDbEntity
8
0
100
AcDbBlockBegin
2
*D4
70
1
10
0
20
0
30
0
3
*D4
0
LINE
5
306
100
AcDbEntity
8
0
62
256
6
ByLayer
370
-2
48
1
60
0
100
AcDbLine
10
34
20
0
30
0
11
51.336808
21
0
31
0
39
0
210
0
220
0
230
1
0
LINE
5
307
100
AcDbEntity
8
0
62
256
6
ByLayer
370
-2
48
1
60
0
100
AcDbLine
10
34
20
-21.9
30
0
11
51.336808
21
-21.9
31
0
39
0
210
0
220
0
230
1
0
LINE
5
308
100
AcDbEntity
8
0
62
256
6
ByLayer
370
-2
48
1
60
0
100
AcDbLine
10
49.336808
20
3.175
30
0
11
49.336808
21
6.35
31
0
39
0
210
0
220
0
230
1
0
LINE
5
309
100
AcDbEntity
8
0
62
256
6
ByLayer
370
-2
48
1
60
0
100
AcDbLine
10
49.336808
20
-25.075
30
0
11
49.336808
21
-28.25
31
0
39
0
210
0
220
0
230
1
0
SOLID
5
30A
100
AcDbEntity
8
0
62
256
6
ByLayer
370
-1
48
1
60
0
100
AcDbTrace
10
48.807642
20
3.175
30
0
11
49.865975
21
3.175
31
0
12
49.336808
22
0
32
0
13
49.336808
23
0
33
0
39
0
210
0
220
0
230
1
0
SOLID
5
30B
100
AcDbEntity
8
0
62
256
6
ByLayer
370
-1
48
1
60
0
100
AcDbTrace
10
49.865975
20
-25.075
30
0
11
48.807642
21
-25.075
31
0
12
49.336808
22
-21.9
32
0
13
49.336808
23
-21.9
33
0
39
0
210
0
220
0
230
1
0
MTEXT
5
30C
100
AcDbEntity
8
0
62
256
6
ByLayer
370
18
48
1
60
0
100
AcDbMText
10
38.086808
20
-10.95
30
0
210
0
220
0
230
1
1
\A1;21.9
40
4.5
41
0
44
1
50
90
71
5
72
5
7
iso_b_vert
0
POINT
5
30D
100
AcDbEntity
8
Defpoints
62
0
6
ByLayer
370
-1
48
1
60
0
100
AcDbPoint
10
32
20
0
30
0
39
0
210
0
220
0
230
1
50
360
0
POINT
5
30E
100
AcDbEntity
8
Defpoints
62
0
6
ByLayer
370
-1
48
1
60
0
100
AcDbPoint
10
32
20
-21.9
30
0
39
0
210
0
220
0
230
1
50
360
0
POINT
5
30F
100
AcDbEntity
8
Defpoints
62
0
6
ByLayer
370
-1
48
1
60
0
100
AcDbPoint
10
49.336808
20
-21.9
30
0
39
0
210
0
220
0
230
1
50
360
0
ENDBLK
5
305
100
AcDbEntity
8
0
100
AcDbBlockEnd
0
BLOCK
5
31B
100
AcDbEntity
8
0
100
AcDbBlockBegin
2
_U1
70
0
10
0
20
0
30
0
3
_U1
0
MTEXT
5
311
100
AcDbEntity
8
2
62
256
6
ByLayer
370
18
48
1
60
0
100
AcDbMText
10
48.450137
20
-16.028184
30
0
210
0
220
0
230
1
1
\W0.7346;22.0
40
4.5
41
0
44
1.084337
50
90
71
7
72
5
7
iso_b_vert
0
LINE
5
312
100
AcDbEntity
8
2
62
256
6
ByLayer
370
13
48
1
60
0
100
AcDbLine
10
34
20
0
30
0
11
51.336808
21
0
31
0
39
0
210
0
220
0
230
1
0
LINE
5
313
100
AcDbEntity
8
2
62
256
6
ByLayer
370
13
48
1
60
0
100
AcDbLine
10
34
20
-21.9
30
0
11
51.336808
21
-21.9
31
0
39
0
210
0
220
0
230
1
0
LINE
5
314
100
AcDbEntity
8
2
62
256
6
ByLayer
370
13
48
1
60
0
100
AcDbLine
10
49.336808
20
0
30
0
11
49.336808
21
-21.9
31
0
39
0
210
0
220
0
230
1
0
LINE
5
315
100
AcDbEntity
8
2
62
256
6
ByLayer
370
13
48
1
60
0
100
AcDbLine
10
49.336808
20
0
30
0
11
49.754805
21
-3.174998
31
0
39
0
210
0
220
0
230
1
0
LINE
5
316
100
AcDbEntity
8
2
62
256
6
ByLayer
370
13
48
1
60
0
100
AcDbLine
10
49.336808
20
0
30
0
11
48.918812
21
-3.175002
31
0
39
0
210
0
220
0
230
1
0
LINE
5
317
100
AcDbEntity
8
2
62
256
6
ByLayer
370
13
48
1
60
0
100
AcDbLine
10
49.754805
20
-3.174998
30
0
11
48.918812
21
-3.175002
31
0
39
0
210
0
220
0
230
1
0
LINE
5
318
100
AcDbEntity
8
2
62
256
6
ByLayer
370
13
48
1
60
0
100
AcDbLine
10
49.336808
20
-21.9
30
0
11
48.918812
21
-18.725002
31
0
39
0
210
0
220
0
230
1
0
LINE
5
319
100
AcDbEntity
8
2
62
256
6
ByLayer
370
13
48
1
60
0
100
AcDbLine
10
49.336808
20
-21.9
30
0
11
49.754805
21
-18.724998
31
0
39
0
210
0
220
0
230
1
0
LINE
5
31A
100
AcDbEntity
8
2
62
256
6
ByLayer
370
13
48
1
60
0
100
AcDbLine
10
48.918812
20
-18.725002
30
0
11
49.754805
21
-18.724998
31
0
39
0
210
0
220
0
230
1
0
ENDBLK
5
31C
100
AcDbEntity
8
0
100
AcDbBlockEnd
0
BLOCK
5
321
100
AcDbEntity
8
0
100
AcDbBlockBegin
2
*D6
70
1
10
0
20
0
30
0
3
*D6
0
LINE
5
323
100
AcDbEntity
8
0
62
256
6
ByLayer
370
-2
48
1
60
0
100
AcDbLine
10
0
20
-18
30
0
11
0
21
-41.15
31
0
39
0
210
0
220
0
230
1
0
LINE
5
324
100
AcDbEntity
8
0
62
256
6
ByLayer
370
-2
48
1
60
0
100
AcDbLine
10
32
20
-23.9
30
0
11
32
21
-41.15
31
0
39
0
210
0
220
0
230
1
0
LINE
5
325
100
AcDbEntity
8
0
62
256
6
ByLayer
370
-2
48
1
60
0
100
AcDbLine
10
3.175
20
-39.15
30
0
11
28.825
21
-39.15
31
0
39
0
210
0
220
0
230
1
0
SOLID
5
326
100
AcDbEntity
8
0
62
256
6
ByLayer
370
-1
48
1
60
0
100
AcDbTrace
10
3.175
20
-38.620833
30
0
11
3.175
21
-39.679167
31
0
12
0
22
-39.15
32
0
13
0
23
-39.15
33
0
39
0
210
0
220
0
230
1
0
SOLID
5
327
100
AcDbEntity
8
0
62
256
6
ByLayer
370
-1
48
1
60
0
100
AcDbTrace
10
28.825
20
-39.679167
30
0
11
28.825
21
-38.620833
31
0
12
32
22
-39.15
32
0
13
32
23
-39.15
33
0
39
0
210
0
220
0
230
1
0
MTEXT
5
328
100
AcDbEntity
8
0
62
256
6
ByLayer
370
18
48
1
60
0
100
AcDbMText
10
16
20
-27.9
30
0
210
0
220
0
230
1
1
\A1;32
40
4.5
41
0
44
1
50
0
71
5
72
5
7
iso_b_vert
0
POINT
5
329
100
AcDbEntity
8
Defpoints
62
0
6
ByLayer
370
-1
48
1
60
0
100
AcDbPoint
10
0
20
-16
30
0
39
0
210
0
220
0
230
1
50
360
0
POINT
5
32A
100
AcDbEntity
8
Defpoints
62
0
6
ByLayer
370
-1
48
1
60
0
100
AcDbPoint
10
32
20
-21.9
30
0
39
0
210
0
220
0
230
1
50
360
0
POINT
5
32B
100
AcDbEntity
8
Defpoints
62
0
6
ByLayer
370
-1
48
1
60
0
100
AcDbPoint
10
32
20
-39.15
30
0
39
0
210
0
220
0
230
1
50
360
0
ENDBLK
5
322
100
AcDbEntity
8
0
100
AcDbBlockEnd
0
BLOCK
5
337
100
AcDbEntity
8
0
100
AcDbBlockBegin
2
_U2
70
0
10
0
20
0
30
0
3
_U2
0
MTEXT
5
32D
100
AcDbEntity
8
2
62
256
6
ByLayer
370
18
48
1
60
0
100
AcDbMText
10
10.957816
20
-37.822328
30
0
210
0
220
0
230
1
1
\W0.7346;32.0
40
4.5
41
0
44
1.084337
50
0
71
7
72
5
7
iso_b_vert
0
LINE
5
32E
100
AcDbEntity
8
2
62
256
6
ByLayer
370
13
48
1
60
0
100
AcDbLine
10
0
20
-18
30
0
11
0
21
-41.15
31
0
39
0
210
0
220
0
230
1
0
LINE
5
32F
100
AcDbEntity
8
2
62
256
6
ByLayer
370
13
48
1
60
0
100
AcDbLine
10
32
20
-23.9
30
0
11
32
21
-41.15
31
0
39
0
210
0
220
0
230
1
0
LINE
5
330
100
AcDbEntity
8
2
62
256
6
ByLayer
370
13
48
1
60
0
100
AcDbLine
10
0
20
-39.15
30
0
11
32
21
-39.15
31
0
39
0
210
0
220
0
230
1
0
LINE
5
331
100
AcDbEntity
8
2
62
256
6
ByLayer
370
13
48
1
60
0
100
AcDbLine
10
0
20
-39.15
30
0
11
3.174998
21
-38.732003
31
0
39
0
210
0
220
0
230
1
0
LINE
5
332
100
AcDbEntity
8
2
62
256
6
ByLayer
370
13
48
1
60
0
100
AcDbLine
10
0
20
-39.15
30
0
11
3.175002
21
-39.567997
31
0
39
0
210
0
220
0
230
1
0
LINE
5
333
100
AcDbEntity
8
2
62
256
6
ByLayer
370
13
48
1
60
0
100
AcDbLine
10
3.174998
20
-38.732003
30
0
11
3.175002
21
-39.567997
31
0
39
0
210
0
220
0
230
1
0
LINE
5
334
100
AcDbEntity
8
2
62
256
6
ByLayer
370
13
48
1
60
0
100
AcDbLine
10
32
20
-39.15
30
0
11
28.825002
21
-39.567997
31
0
39
0
210
0
220
0
230
1
0
LINE
5
335
100
AcDbEntity
8
2
62
256
6
ByLayer
370
13
48
1
60
0
100
AcDbLine
10
32
20
-39.15
30
0
11
28.824998
21
-38.732003
31
0
39
0
210
0
220
0
230
1
0
LINE
5
336
100
AcDbEntity
8
2
62
256
6
ByLayer
370
13
48
1
60
0
100
AcDbLine
10
28.825002
20
-39.567997
30
0
11
28.824998
21
-38.732003
31
0
39
0
210
0
220
0
230
1
0
ENDBLK
5
338
100
AcDbEntity
8
0
100
AcDbBlockEnd
0
ENDSEC
0
SECTION
2
ENTITIES
0
ARC
5
1A7
100
AcDbEntity
8
1
62
256
6
ByLayer
370
18
48
1
60
0
100
AcDbCircle
39
0
10
17.05
20
15.685984
30
0
40
10.0000000000027
210
0
220
0
230
1
100
AcDbArc
50
233.462774
51
270
0
ARC
5
1A8
100
AcDbEntity
8
1
62
256
6
ByLayer
370
18
48
1
60
0
100
AcDbCircle
39
0
10
17.05
20
15.685984
30
0
40
9.99999999995733
210
0
220
0
230
1
100
AcDbArc
50
208.153299
51
224.084136
0
ARC
5
1A9
100
AcDbEntity
8
1
62
256
6
ByLayer
370
18
48
1
60
0
100
AcDbCircle
39
0
10
24.182043
20
-0.314016
30
0
40
5.99999999999988
210
0
220
0
230
1
100
AcDbArc
50
7.742829
51
90
0
ARC
5
1AA
100
AcDbEntity
8
2
62
256
6
ByLayer
370
13
48
1
60
0
100
AcDbCircle
39
0
10
30.85227
20
0
30
0
40
19.5416305532426
210
0
220
0
230
1
100
AcDbArc
50
0
51
93
0
ELLIPSE
5
1AB
100
AcDbEntity
8
1
62
256
6
ByLayer
370
18
48
1
60
0
100
AcDbEllipse
10
26.028592
20
-12.237341
30
0
11
-1.20484653368139
21
-0.0631433312071096
31
0
210
0
220
0
230
1
40
0.996195
41
-2.54057028518536
42
-1.82945531094403
0
ELLIPSE
5
1AC
100
AcDbEntity
8
1
62
256
6
ByLayer
370
18
48
1
60
0
100
AcDbEllipse
10
24.644129
20
-12.245803
30
0
11
-0.291599824148336
21
-0.015282099222939
31
0
210
0
220
0
230
1
40
0.996195
41
0.202213628296778
42
1.27122687921971
0
ELLIPSE
5
1AD
100
AcDbEntity
8
1
62
256
6
ByLayer
370
18
48
1
60
0
100
AcDbEllipse
10
26.035092
20
-12.361367
30
0
11
1.67420241501605
21
0.0877412306412929
31
0
210
0
220
0
230
1
40
0.996195
41
-0.046423778981195
42
1.00635486757808
0
ELLIPSE
5
1AE
100
AcDbEntity
8
1
62
256
6
ByLayer
370
18
48
1
60
0
100
AcDbEllipse
10
26.033854
20
-12.33775
30
0
11
1.20484653368139
21
0.0631433312071098
31
0
210
0
220
0
230
1
40
0.996195
41
-2.73065974270325
42
-2.59259447587945
0
ELLIPSE
5
1AF
100
AcDbEntity
8
1
62
256
6
ByLayer
370
18
48
1
60
0
100
AcDbEllipse
10
27.674235
20
-13.167677
30
0
11
-0.685059860841638
21
-0.0359024659826584
31
0
210
0
220
0
230
1
40
0.996195
41
-1.35261792435964
42
-0.568627280738837
0
ELLIPSE
5
1B0
100
AcDbEntity
8
1
62
256
6
ByLayer
370
18
48
1
60
0
100
AcDbEllipse
10
26.028592
20
-12.237341
30
0
11
-1.20484653368139
21
-0.0631433312071096
31
0
210
0
220
0
230
1
40
0.996195
41
-0.358679668904258
42
0.410932910886534
0
ELLIPSE
5
1B1
100
AcDbEntity
8
1
62
256
6
ByLayer
370
18
48
1
60
0
100
AcDbEllipse
10
26.028592
20
-12.237341
30
0
11
1.20484653368139
21
0.0631433312071098
31
0
210
0
220
0
230
1
40
0.996195
41
-1.61303428425409
42
-0.568627280738829
0
ELLIPSE
5
1B2
100
AcDbEntity
8
1
62
256
6
ByLayer
370
18
48
1
60
0
100
AcDbEllipse
10
26.047371
20
-14.122559
30
0
11
-0.685059860841638
21
-0.0359024659826584
31
0
210
0
220
0
230
1
40
0.996195
41
-2.39702492787488
42
-1.61303428425409
0
ELLIPSE
5
1B3
100
AcDbEntity
8
1
62
256
6
ByLayer
370
18
48
1
60
0
100
AcDbEllipse
10
25.349964
20
-13.439801
30
0
11
-0.291599824148336
21
-0.015282099222939
31
0
210
0
220
0
230
1
40
0.996195
41
0.186454243535258
42
2.31254901295651
0
ELLIPSE
5
1B4
100
AcDbEntity
8
1
62
256
6
ByLayer
370
18
48
1
60
0
100
AcDbEllipse
10
26.035092
20
-12.361367
30
0
11
1.67420241501605
21
0.0877412306412929
31
0
210
0
220
0
230
1
40
0.996195
41
-1.09083078249646
42
-0.046423778981195
0
ELLIPSE
5
1B5
100
AcDbEntity
8
1
62
256
6
ByLayer
370
18
48
1
60
0
100
AcDbEllipse
10
26.035092
20
-12.361367
30
0
11
1.67420241501605
21
0.0877412306412929
31
0
210
0
220
0
230
1
40
0.996195
41
2.05076187109333
42
3.09516887460859
0
ELLIPSE
5
1B6
100
AcDbEntity
8
1
62
256
6
ByLayer
370
18
48
1
60
0
100
AcDbEllipse
10
24.404627
20
-13.19052
30
0
11
-0.685059860841638
21
-0.0359024659826584
31
0
210
0
220
0
230
1
40
0.996195
41
-2.54001306807444
42
-1.87036577437011
0
ELLIPSE
5
1B7
100
AcDbEntity
8
1
62
256
6
ByLayer
370
18
48
1
60
0
100
AcDbEllipse
10
27.674235
20
-13.167677
30
0
11
-0.685059860841638
21
-0.0359024659826584
31
0
210
0
220
0
230
1
40
0.996195
41
-0.568627280738837
42
-1.66073580053944E-06
0
ELLIPSE
5
1B8
100
AcDbEntity
8
1
62
256
6
ByLayer
370
18
48
1
60
0
100
AcDbEllipse
10
26.028592
20
-12.237341
30
0
11
-1.20484653368139
21
-0.0631433312071096
31
0
210
0
220
0
230
1
40
0.996195
41
0.548998177710354
42
1.52855836933571
0
ELLIPSE
5
1B9
100
AcDbEntity
8
1
62
256
6
ByLayer
370
18
48
1
60
0
100
AcDbEllipse
10
26.035092
20
-12.361367
30
0
11
1.79753316255824
21
0.0942047212372967
31
0
210
0
220
0
230
1
40
0.996195
41
0
42
6.28318530717959
0
ELLIPSE
5
1BA
100
AcDbEntity
8
1
62
256
6
ByLayer
370
18
48
1
60
0
100
AcDbEllipse
10
26.035092
20
-12.361367
30
0
11
1.67420241501605
21
0.0877412306412929
31
0
210
0
220
0
230
1
40
0.996195
41
1.00635486757808
42
2.05076187109333
0
ELLIPSE
5
1BB
100
AcDbEntity
8
1
62
256
6
ByLayer
370
18
48
1
60
0
100
AcDbEllipse
10
26.028706
20
-12.239517
30
0
11
2.62140252873076
21
0.137381885137724
31
0
210
0
220
0
230
1
40
0.996195
41
3.08903307614397
42
-3.14153045944323
0
ELLIPSE
5
1BC
100
AcDbEntity
8
1
62
256
6
ByLayer
370
18
48
1
60
0
100
AcDbEllipse
10
26.028706
20
-12.239517
30
0
11
2.62140252873076
21
0.137381885137724
31
0
210
0
220
0
230
1
40
0.996195
41
0
42
3.08903297030804
0
ELLIPSE
5
1BD
100
AcDbEntity
8
1
62
256
6
ByLayer
370
18
48
1
60
0
100
AcDbEllipse
10
26.035092
20
-12.361367
30
0
11
1.67420241501605
21
0.0877412306412929
31
0
210
0
220
0
230
1
40
0.996195
41
-2.13523778601172
42
-1.09083078249646
0
ELLIPSE
5
1BE
100
AcDbEntity
8
1
62
256
6
ByLayer
370
18
48
1
60
0
100
AcDbEllipse
10
24.404627
20
-13.19052
30
0
11
-0.685059860841638
21
-0.0359024659826584
31
0
210
0
220
0
230
1
40
0.996195
41
-3.14158567007401
42
-2.78324115050825
0
ELLIPSE
5
1BF
100
AcDbEntity
8
1
62
256
6
ByLayer
370
18
48
1
60
0
100
AcDbEllipse
10
26.033854
20
-12.33775
30
0
11
1.20484653368139
21
0.0631433312071098
31
0
210
0
220
0
230
1
40
0.996195
41
0.410932910886592
42
0.548998177710289
0
ELLIPSE
5
1C0
100
AcDbEntity
8
1
62
256
6
ByLayer
370
18
48
1
60
0
100
AcDbEllipse
10
26.731034
20
-13.4256
30
0
11
-0.291599824148336
21
-0.015282099222939
31
0
210
0
220
0
230
1
40
0.996195
41
0.744567725714935
42
2.94677137698392
0
ELLIPSE
5
1C1
100
AcDbEntity
8
1
62
256
6
ByLayer
370
18
48
1
60
0
100
AcDbEllipse
10
26.028592
20
-12.237341
30
0
11
-1.20484653368139
21
-0.0631433312071096
31
0
210
0
220
0
230
1
40
0.996195
41
2.57296537285096
42
-2.82977860167266
0
ELLIPSE
5
1C2
100
AcDbEntity
8
1
62
256
6
ByLayer
370
18
48
1
60
0
100
AcDbEllipse
10
26.035092
20
-12.361367
30
0
11
1.67420241501605
21
0.0877412306412929
31
0
210
0
220
0
230
1
40
0.996195
41
3.09516887460859
42
-2.13523778601172
0
ELLIPSE
5
1C3
100
AcDbEntity
8
1
62
256
6
ByLayer
370
18
48
1
60
0
100
AcDbEllipse
10
26.028592
20
-12.237341
30
0
11
1.20484653368139
21
0.0631433312071098
31
0
210
0
220
0
230
1
40
0.996195
41
-2.73065974270326
42
-2.59259447587944
0
ELLIPSE
5
1C4
100
AcDbEntity
8
1
62
256
6
ByLayer
370
18
48
1
60
0
100
AcDbEllipse
10
26.047371
20
-14.122559
30
0
11
-0.685059860841638
21
-0.0359024659826584
31
0
210
0
220
0
230
1
40
0.996195
41
-1.61303428425409
42
-0.82904364063329
0
ELLIPSE
5
1C5
100
AcDbEntity
8
1
62
256
6
ByLayer
370
18
48
1
60
0
100
AcDbEllipse
10
27.652557
20
-11.284161
30
0
11
-0.685059860841638
21
-0.0359024659826584
31
0
210
0
220
0
230
1
40
0.996195
41
-0.311295790622807
42
7.19130540332502E-06
0
ELLIPSE
5
1C6
100
AcDbEntity
8
1
62
256
6
ByLayer
370
18
48
1
60
0
100
AcDbEllipse
10
26.033836
20
-12.337394
30
0
11
2.62140252873076
21
0.137381885137724
31
0
210
0
220
0
230
1
40
0.996195
41
0
42
6.28318530717959
0
ELLIPSE
5
1C7
100
AcDbEntity
8
1
62
256
6
ByLayer
370
18
48
1
60
0
100
AcDbEllipse
10
26.028592
20
-12.237341
30
0
11
-1.20484653368139
21
-0.0631433312071096
31
0
210
0
220
0
230
1
40
0.996195
41
-1.37481147143503
42
-0.66722605955189
0
ELLIPSE
5
1C8
100
AcDbEntity
8
1
62
256
6
ByLayer
370
18
48
1
60
0
100
AcDbEllipse
10
27.413055
20
-12.228878
30
0
11
-0.291599824148336
21
-0.015282099222939
31
0
210
0
220
0
230
1
40
0.996195
41
1.78897472923017
42
2.95531333444523
0
ELLIPSE
5
1C9
100
AcDbEntity
8
1
62
256
6
ByLayer
370
18
48
1
60
0
100
AcDbEllipse
10
29.621849
20
-7.885928
30
0
11
0.286727474113663
21
-0.179456430262853
31
0
210
0
220
0
230
1
40
0.047891
41
-0.994725690933279
42
-0.357786566961265
0
ELLIPSE
5
1CA
100
AcDbEntity
8
1
62
256
6
ByLayer
370
18
48
1
60
0
100
AcDbEllipse
10
20.864234
20
-3.614585
30
0
11
0.79291185059513
21
0.0415547492568961
31
0
210
0
220
0
230
1
40
0.996195
41
0.959931088596865
42
-3.14159265358978
0
ELLIPSE
5
1CB
100
AcDbEntity
8
1
62
256
6
ByLayer
370
18
48
1
60
0
100
AcDbEllipse
10
30.107546
20
-8.194799
30
0
11
0.195930440564644
21
-0.122628560626234
31
0
210
0
220
0
230
1
40
0.047891
41
1.62326818682888
42
2.78380608658606
0
ELLIPSE
5
1CC
100
AcDbEntity
8
1
62
256
6
ByLayer
370
18
48
1
60
0
100
AcDbEllipse
10
26.031315
20
-12.289294
30
0
11
-3.00833212086854
21
-0.157660005800557
31
0
210
0
220
0
230
1
40
0.996195
41
-0.926020403463097
42
0
0
ELLIPSE
5
1CD
100
AcDbEntity
8
1
62
256
6
ByLayer
370
18
48
1
60
0
100
AcDbEllipse
10
26.031315
20
-12.289294
30
0
11
-3.00833212086854
21
-0.157660005800557
31
0
210
0
220
0
230
1
40
0.996195
41
0
42
3.08903327519192
0
ELLIPSE
5
1CE
100
AcDbEntity
8
1
62
256
6
ByLayer
370
18
48
1
60
0
100
AcDbEllipse
10
26.031315
20
-12.289294
30
0
11
-3.00833212086854
21
-0.157660005800557
31
0
210
0
220
0
230
1
40
0.996195
41
3.08903301308994
42
-2.21544789300052
0
ELLIPSE
5
1CF
100
AcDbEntity
8
1
62
256
6
ByLayer
370
18
48
1
60
0
100
AcDbEllipse
10
21.848963
20
-14.818732
30
0
11
-1.1893677758927
21
-0.0623321238853438
31
0
210
0
220
0
230
1
40
0.996195
41
0
42
0.959931088596878
0
ELLIPSE
5
1D0
100
AcDbEntity
8
1
62
256
6
ByLayer
370
18
48
1
60
0
100
AcDbEllipse
10
26.035109
20
-12.361691
30
0
11
-3.06641789373852
21
-0.160704152164612
31
0
210
0
220
0
230
1
40
0.996195
41
0
42
6.28318530717959
0
ELLIPSE
5
1D1
100
AcDbEntity
8
1
62
256
6
ByLayer
370
18
48
1
60
0
100
AcDbEllipse
10
31.205984
20
-21.108797
30
0
11
0.79291185059513
21
0.0415547492568961
31
0
210
0
220
0
230
1
40
0.996195
41
-2.18166156499294
42
2.24577039489193E-14
0
ELLIPSE
5
1D2
100
AcDbEntity
8
1
62
256
6
ByLayer
370
18
48
1
60
0
100
AcDbEllipse
10
30.221254
20
-9.90465
30
0
11
-1.1893677758927
21
-0.0623321238853438
31
0
210
0
220
0
230
1
40
0.996195
41
3.14159265358979
42
-2.18166156499292
0
ELLIPSE
5
1D3
100
AcDbEntity
8
1
62
256
6
ByLayer
370
18
48
1
60
0
100
AcDbEllipse
10
26.029943
20
-12.263126
30
0
11
-2.8804280057408
21
-0.15095683516555
31
0
210
0
220
0
230
1
40
0.996195
41
0
42
6.28318530717959
0
ELLIPSE
5
1D4
100
AcDbEntity
8
1
62
256
6
ByLayer
370
18
48
1
60
0
100
AcDbEllipse
10
28.311528
20
-7.069315
30
0
11
0.955758246697149
21
-0.598188100643174
31
0
210
0
220
0
230
1
40
0.047891
41
-2.04192324232178
42
-0.994725691127085
0
ELLIPSE
5
1D5
100
AcDbEntity
8
1
62
256
6
ByLayer
370
18
48
1
60
0
100
AcDbEllipse
10
3.012066
20
-0.229643
30
0
11
-11.1846507892512
21
-0.586162709920952
31
0
210
0
220
0
230
1
40
0.996195
41
-2.26101088258126
42
-2.23857729395338
0
ELLIPSE
5
1D6
100
AcDbEntity
8
1
62
256
6
ByLayer
370
18
48
1
60
0
100
AcDbEllipse
10
9.485078
20
-9.440673
30
0
11
0.691466575659107
21
-0.980751739609097
31
0
210
0
220
0
230
1
40
0.046551
41
1.6446259159239
42
-3.14092484280839
0
ELLIPSE
5
1D7
100
AcDbEntity
8
1
62
256
6
ByLayer
370
18
48
1
60
0
100
AcDbEllipse
10
29.476914
20
-4.600249
30
0
11
0.167993761815937
21
0.108699915161036
31
0
210
0
220
0
230
1
40
0.651849
41
1.50407230622287
42
3.07486863301739
0
ELLIPSE
5
1D8
100
AcDbEntity
8
1
62
256
6
ByLayer
370
18
48
1
60
0
100
AcDbEllipse
10
18.630113
20
-17.428132
30
0
11
4.04164010314038
21
1.27398555729258
31
0
210
0
220
0
230
1
40
0.847029
41
0.983500770756163
42
1.0597609355588
0
ELLIPSE
5
1D9
100
AcDbEntity
8
1
62
256
6
ByLayer
370
18
48
1
60
0
100
AcDbEllipse
10
20.71915
20
-3.454962
30
0
11
-1.59780725560732
21
-0.0837375299887069
31
0
210
0
220
0
230
1
40
0.996195
41
-1.09083078249646
42
0.479965544298439
0
ELLIPSE
5
1DA
100
AcDbEntity
8
1
62
256
6
ByLayer
370
18
48
1
60
0
100
AcDbEllipse
10
20.017564
20
-4.541105
30
0
11
0.197115754403643
21
0.0594931732486355
31
0
210
0
220
0
230
1
40
0.082234
41
1.55060841957868
42
3.12140474637105
0
ELLIPSE
5
1DB
100
AcDbEntity
8
1
62
256
6
ByLayer
370
18
48
1
60
0
100
AcDbEllipse
10
9.485078
20
8.777635
30
0
11
0.690946107721693
21
0.981118482255963
31
0
210
0
220
0
230
1
40
0.053971
41
1.50220818398766
42
1.59980470943464
0
ELLIPSE
5
1DC
100
AcDbEntity
8
1
62
256
6
ByLayer
370
18
48
1
60
0
100
AcDbEllipse
10
15.291242
20
-11.807087
30
0
11
2.99588860426372
21
0.157007868728827
31
0
210
0
220
0
230
1
40
0.996195
41
2.80390977339525
42
-2.66162710929136
0
ELLIPSE
5
1DD
100
AcDbEntity
8
1
62
256
6
ByLayer
370
18
48
1
60
0
100
AcDbEllipse
10
15.292154
20
-11.824494
30
0
11
-3.19561451121464
21
-0.167475059977414
31
0
210
0
220
0
230
1
40
0.996195
41
0.0752399873742215
42
0.479965544298439
0
ELLIPSE
5
1DE
100
AcDbEntity
8
1
62
256
6
ByLayer
370
18
48
1
60
0
100
AcDbEllipse
10
3.012066
20
-0.229643
30
0
11
-11.1846507892512
21
-0.586162709920952
31
0
210
0
220
0
230
1
40
0.996195
41
2.13425530533511
42
-2.41058044003625
0
ELLIPSE
5
1DF
100
AcDbEntity
8
1
62
256
6
ByLayer
370
18
48
1
60
0
100
AcDbEllipse
10
-968.330625
20
7.77871
30
0
11
985.983054116169
21
0.391142418578059
31
0
210
0
220
0
230
1
40
0.004545
41
0.125749651906786
42
0.127226707830533
0
ELLIPSE
5
1E0
100
AcDbEntity
8
1
62
256
6
ByLayer
370
18
48
1
60
0
100
AcDbEllipse
10
20.691782
20
-2.932746
30
0
11
-1.59780725560732
21
-0.0837375299887069
31
0
210
0
220
0
230
1
40
0.996195
41
0.164775269761709
42
0.479965544298438
0
ELLIPSE
5
1E1
100
AcDbEntity
8
1
62
256
6
ByLayer
370
18
48
1
60
0
100
AcDbEllipse
10
19.485372
20
-3.640843
30
0
11
-0.172166940798305
21
-0.101776934990954
31
0
210
0
220
0
230
1
40
0.077308
41
-1.61117214123189
42
-0.0403758144368599
0
ELLIPSE
5
1E2
100
AcDbEntity
8
1
62
256
6
ByLayer
370
18
48
1
60
0
100
AcDbEllipse
10
4.429853
20
0
30
0
11
9.40442813888644
21
-15.9966677066455
31
0
210
0
220
0
230
1
40
0.034721
41
-0.0642128245250887
42
0.281508283398081
0
ELLIPSE
5
1E3
100
AcDbEntity
8
1
62
256
6
ByLayer
370
18
48
1
60
0
100
AcDbEllipse
10
8.217486
20
11.217084
30
0
11
1.2
21
0
31
0
210
0
220
0
230
1
40
0.087037
41
1.7081572727878
42
3.11916620046832
0
ELLIPSE
5
1E4
100
AcDbEntity
8
1
62
256
6
ByLayer
370
18
48
1
60
0
100
AcDbEllipse
10
18.651834
20
-17.842594
30
0
11
-4.19424404596919
21
-0.219811016220354
31
0
210
0
220
0
230
1
40
0.996195
41
-2.11096941675115
42
-1.9496935432736
0
ELLIPSE
5
1E5
100
AcDbEntity
8
1
62
256
6
ByLayer
370
18
48
1
60
0
100
AcDbEllipse
10
20.69087
20
-2.915339
30
0
11
1.3980813486564
21
0.0732703387401192
31
0
210
0
220
0
230
1
40
0.996195
41
2.938875031323
42
-2.66162710929136
0
ELLIPSE
5
1E6
100
AcDbEntity
8
1
62
256
6
ByLayer
370
18
48
1
60
0
100
AcDbEllipse
10
18.645909
20
-17.729575
30
0
11
4.04510873911203
21
1.17171651652149
31
0
210
0
220
0
230
1
40
0.946422
41
1.05766440589216
42
1.07755501760622
0
ELLIPSE
5
1E7
100
AcDbEntity
8
1
62
256
6
ByLayer
370
18
48
1
60
0
100
AcDbEllipse
10
18.651971
20
-17.845206
30
0
11
4.19424404596919
21
0.219811016220356
31
0
210
0
220
0
230
1
40
0.996195
41
1.35879553899782
42
2.30383461263251
0
ELLIPSE
5
1E8
100
AcDbEntity
8
1
62
256
6
ByLayer
370
18
48
1
60
0
100
AcDbEllipse
10
-959.205056
20
7.776896
30
0
11
976.857280365821
21
0.392919812430486
31
0
210
0
220
0
230
1
40
0.004566
41
-0.117217087614782
42
-0.115919947967594
0
ELLIPSE
5
1E9
100
AcDbEntity
8
1
62
256
6
ByLayer
370
18
48
1
60
0
100
AcDbEllipse
10
12.706991
20
-13.341845
30
0
11
0.172166940798304
21
0.101776934990955
31
0
210
0
220
0
230
1
40
0.077308
41
1.53042051235796
42
3.10121683915282
0
ELLIPSE
5
1EA
100
AcDbEntity
8
1
62
256
6
ByLayer
370
18
48
1
60
0
100
AcDbEllipse
10
15.319522
20
-12.346701
30
0
11
-3.69492927859192
21
-0.193643038098884
31
0
210
0
220
0
230
1
40
0.996195
41
-1.08155139079897E-05
42
0.479965544298439
0
ELLIPSE
5
1EB
100
AcDbEntity
8
1
62
256
6
ByLayer
370
18
48
1
60
0
100
AcDbEllipse
10
7.000073
20
0
30
0
11
0.00635235226030256
21
-16.000000000112
31
0
210
0
220
0
230
1
40
0.004544
41
0.153941332384564
42
0.538775197228747
0
ELLIPSE
5
1EC
100
AcDbEntity
8
1
62
256
6
ByLayer
370
18
48
1
60
0
100
AcDbEllipse
10
31.17291
20
-2.996763
30
0
11
3.19561451121464
21
0.167475059977415
31
0
210
0
220
0
230
1
40
0.996195
41
1.83671987146539
42
2.05076187109334
0
ELLIPSE
5
1ED
100
AcDbEntity
8
1
62
256
6
ByLayer
370
18
48
1
60
0
100
AcDbEllipse
10
18.651971
20
-17.845206
30
0
11
4.19424404596919
21
0.219811016220356
31
0
210
0
220
0
230
1
40
0.996195
41
1.1918991103162
42
1.19908524246578
0
ELLIPSE
5
1EE
100
AcDbEntity
8
1
62
256
6
ByLayer
370
18
48
1
60
0
100
AcDbEllipse
10
20.752683
20
-3.43528
30
0
11
1.59780725560732
21
0.0837375299887077
31
0
210
0
220
0
230
1
40
0.996195
41
0.479965544298438
42
2.05076187109334
0
ELLIPSE
5
1EF
100
AcDbEntity
8
1
62
256
6
ByLayer
370
18
48
1
60
0
100
AcDbEllipse
10
7.03233
20
7.778175
30
0
11
0.00178659907312552
21
-4.49999999999968
31
0
210
0
220
0
230
1
40
0.004544
41
-3.14156718853038
42
-2.43878885721439
0
ELLIPSE
5
1F0
100
AcDbEntity
8
1
62
256
6
ByLayer
370
18
48
1
60
0
100
AcDbEllipse
10
8.217486
20
-11.881128
30
0
11
1.2
21
0
31
0
210
0
220
0
230
1
40
0.087037
41
1.57535772175129
42
-3.13703125863341
0
ELLIPSE
5
1F1
100
AcDbEntity
8
1
62
256
6
ByLayer
370
18
48
1
60
0
100
AcDbEllipse
10
15.317241
20
-12.303183
30
0
11
3.19561451121464
21
0.167475059977415
31
0
210
0
220
0
230
1
40
0.996195
41
2.05076187109334
42
-2.66162710929135
0
ELLIPSE
5
1F2
100
AcDbEntity
8
1
62
256
6
ByLayer
370
18
48
1
60
0
100
AcDbEllipse
10
3.036662
20
-0.69895
30
0
11
-0.525358710934674
21
10.0244413734333
31
0
210
-1.24800250070274E-16
220
-6.93334779979405E-33
230
1
40
0.996195
41
-1.88337963027927
42
-1.21498577577706
0
ELLIPSE
5
1F3
100
AcDbEntity
8
1
62
256
6
ByLayer
370
18
48
1
60
0
100
AcDbEllipse
10
3.01754
20
-0.334087
30
0
11
9.98629534754574
21
0.523359562429423
31
0
210
0
220
0
230
1
40
0.996195
41
1.54683877620135E-06
42
0.510703000271503
0
ELLIPSE
5
1F4
100
AcDbEntity
8
1
62
256
6
ByLayer
370
18
48
1
60
0
100
AcDbEllipse
10
7.000073
20
0
30
0
11
0.00635235225738822
21
-16.0000000017915
31
0
210
0
220
0
230
1
40
0.004544
41
2.60166369782831
42
2.81335276906375
0
ELLIPSE
5
1F5
100
AcDbEntity
8
1
62
256
6
ByLayer
370
18
48
1
60
0
100
AcDbEllipse
10
31.175191
20
-3.04029
30
0
11
-3.69492927859193
21
-0.193643038098885
31
0
210
0
220
0
230
1
40
0.996195
41
-1.33582186901278
42
-1.09083078249646
0
ELLIPSE
5
1F6
100
AcDbEntity
8
1
62
256
6
ByLayer
370
18
48
1
60
0
100
AcDbEllipse
10
17.929851
20
-11.37775
30
0
11
0.167993761815851
21
0.10869991516104
31
0
210
0
220
0
230
1
40
0.651849
41
-0.0667240205725001
42
1.50407230622247
0
ELLIPSE
5
1F7
100
AcDbEntity
8
1
62
256
6
ByLayer
370
18
48
1
60
0
100
AcDbEllipse
10
11.211981
20
11.322719
30
0
11
2.99588860426372
21
0.157007868728827
31
0
210
0
220
0
230
1
40
0.996195
41
-3.0750676886314
42
-2.23857729395338
0
ELLIPSE
5
1F8
100
AcDbEntity
8
1
62
256
6
ByLayer
370
18
48
1
60
0
100
AcDbEllipse
10
8.274411
20
-7.778175
30
0
11
4.10301789984318
21
4.47308672824952
31
0
210
0
220
0
230
1
40
0.119771
41
0.158745327563347
42
0.790921165719988
0
ELLIPSE
5
1F9
100
AcDbEntity
8
1
62
256
6
ByLayer
370
18
48
1
60
0
100
AcDbEllipse
10
20.070527
20
-5.551691
30
0
11
0.205934227944229
21
-0.110859519823884
31
0
210
0
220
0
230
1
40
0.063735
41
1.60952041155925
42
-3.10286856882311
0
ELLIPSE
5
1FA
100
AcDbEntity
8
1
62
256
6
ByLayer
370
18
48
1
60
0
100
AcDbEllipse
10
11.211981
20
-11.775494
30
0
11
2.99588860426372
21
0.157007868728827
31
0
210
0
220
0
230
1
40
0.996195
41
2.13425530533511
42
3.08943165928066
0
ELLIPSE
5
1FB
100
AcDbEntity
8
1
62
256
6
ByLayer
370
18
48
1
60
0
100
AcDbEllipse
10
15.319522
20
-12.34671
30
0
11
-3.69492927859192
21
-0.193643038098884
31
0
210
0
220
0
230
1
40
0.996195
41
-1.09083078249645
42
0.479965544298439
0
ELLIPSE
5
1FC
100
AcDbEntity
8
1
62
256
6
ByLayer
370
18
48
1
60
0
100
AcDbEllipse
10
6.890774
20
0
30
0
11
19.6189729172037
21
-10.3163912326418
31
0
210
0
220
0
230
1
40
0.623374
41
-0.945642199234709
42
-0.913871417192416
0
ELLIPSE
5
1FD
100
AcDbEntity
8
1
62
256
6
ByLayer
370
18
48
1
60
0
100
AcDbEllipse
10
11.217455
20
11.218275
30
0
11
-4.19424404596921
21
-0.219811016220355
31
0
210
0
220
0
230
1
40
0.996195
41
-0.052160994309137
42
-0.0387025370970752
0
POINT
5
70
100
AcDbEntity
8
2
62
256
6
ByLayer
370
18
48
1
60
0
100
AcDbPoint
10
31.762289
20
20.75614
30
0
39
0
210
0
220
0
230
1
50
360
0
POINT
5
72
100
AcDbEntity
8
2
62
256
6
ByLayer
370
18
48
1
60
0
100
AcDbPoint
10
32
20
21.9
30
0
39
0
210
0
220
0
230
1
50
360
0
POINT
5
73
100
AcDbEntity
8
81
62
256
6
ByLayer
370
18
48
1
60
0
100
AcDbPoint
10
32
20
-21.9
30
0
39
0
210
0
220
0
230
1
50
360
0
POINT
5
75
100
AcDbEntity
8
80
62
256
6
ByLayer
370
18
48
1
60
0
100
AcDbPoint
10
0
20
0
30
0
39
0
210
0
220
0
230
1
50
360
0
POINT
5
77
100
AcDbEntity
8
1
62
256
6
ByLayer
370
18
48
1
60
1
100
AcDbPoint
10
0
20
16
30
0
39
0
210
0
220
0
230
1
50
360
0
POINT
5
79
100
AcDbEntity
8
1
62
256
6
ByLayer
370
18
48
1
60
1
100
AcDbPoint
10
0
20
-16
30
0
39
0
210
0
220
0
230
1
50
360
0
POINT
5
7A
100
AcDbEntity
8
1
62
256
6
ByLayer
370
18
48
1
60
1
100
AcDbPoint
10
32
20
0
30
0
39
0
210
0
220
0
230
1
50
360
0
POINT
5
7B
100
AcDbEntity
8
1
62
256
6
ByLayer
370
18
48
1
60
1
100
AcDbPoint
10
32
20
-21.9
30
0
39
0
210
0
220
0
230
1
50
360
0
POINT
5
7C
100
AcDbEntity
8
1
62
256
6
ByLayer
370
18
48
1
60
1
100
AcDbPoint
10
0
20
-16
30
0
39
0
210
0
220
0
230
1
50
360
0
POINT
5
7D
100
AcDbEntity
8
1
62
256
6
ByLayer
370
18
48
1
60
1
100
AcDbPoint
10
32
20
-21.9
30
0
39
0
210
0
220
0
230
1
50
360
0
SPLINE
5
1FE
100
AcDbEntity
8
1
62
256
6
ByLayer
370
18
48
1
60
0
100
AcDbSpline
70
4
71
3
72
14
73
10
40
0
40
0
40
0
40
0
40
0.281078615704811
40
0.281078615704811
40
0.565947605785656
40
0.565947605785656
40
0.823680232964409
40
0.823680232964409
40
1
40
1
40
1
40
1
41
1
10
24.5786164774029
20
-12.6422593745205
30
0
41
1
10
24.546252819161
20
-12.6356266114289
30
0
41
1
10
24.514320811537
20
-12.6229758991928
30
0
41
1
10
24.4566669713627
20
-12.5862280066622
30
0
41
1
10
24.4301748932339
20
-12.5613542837064
30
0
41
1
10
24.3906966697319
20
-12.505377314384
30
0
41
1
10
24.3761178001319
20
-12.4742102037277
30
0
41
1
10
24.3618538753947
20
-12.4189282799569
30
0
41
1
10
24.3587730031303
20
-12.3952387395588
30
0
41
1
10
24.3586369515712
20
-12.371614933037
30
0
0
SPLINE
5
1FF
100
AcDbEntity
8
1
62
256
6
ByLayer
370
18
48
1
60
0
100
AcDbSpline
70
4
71
3
72
14
73
10
40
0
40
0
40
0
40
0
40
0.262206567587415
40
0.262206567587415
40
0.551261184473391
40
0.551261184473391
40
0.812649842076682
40
0.812649842076682
40
1
40
1
40
1
40
1
41
1
10
26.5049993339329
20
-10.9455753451114
30
0
41
1
10
26.5267810598967
20
-10.9249665081286
30
0
41
1
10
26.5527503224103
20
-10.90719307492
30
0
41
1
10
26.6130136422441
20
-10.8793067138721
30
0
41
1
10
26.6488896180074
20
-10.8697896181832
30
0
41
1
10
26.7190193624227
20
-10.8647753798746
30
0
41
1
10
26.7541698116614
20
-10.8680087231407
30
0
41
1
10
26.8115148739541
20
-10.883534115248
30
0
41
1
10
26.8350917856535
20
-10.8931214586135
30
0
41
1
10
26.8568470702748
20
-10.9053007464185
30
0
0
SPLINE
5
200
100
AcDbEntity
8
1
62
256
6
ByLayer
370
18
48
1
60
0
100
AcDbSpline
70
4
71
3
72
12
73
8
40
0
40
0
40
0
40
0
40
0.494681231014446
40
0.494681231014446
40
0.8997485075334
40
0.8997485075334
40
1
40
1
40
1
40
1
41
1
10
27.4905576274439
20
-12.0612086884354
30
0
41
1
10
27.4213430360064
20
-12.0406319266893
30
0
41
1
10
27.3525937524334
20
-12.0087750630702
30
0
41
1
10
27.2370703197638
20
-11.9310579526426
30
0
41
1
10
27.1873546732423
20
-11.8877841436944
30
0
41
1
10
27.1335574374243
20
-11.8261519021989
30
0
41
1
10
27.123191974891
20
-11.8134462523854
30
0
41
1
10
27.113267937483
20
-11.8004009624544
30
0
0
SPLINE
5
201
100
AcDbEntity
8
1
62
256
6
ByLayer
370
18
48
1
60
0
100
AcDbSpline
70
4
71
3
72
12
73
8
40
0
40
0
40
0
40
0
40
0.321205682179273
40
0.321205682179273
40
0.789835449508407
40
0.789835449508407
40
1
40
1
40
1
40
1
41
1
10
27.0288208922021
20
-11.6575494465706
30
0
41
1
10
27.0080982917278
20
-11.6105617374243
30
0
41
1
10
26.9930080147429
20
-11.5617782412618
30
0
41
1
10
26.9703985880241
20
-11.4443255118214
30
0
41
1
10
26.9689803924203
20
-11.3748230480325
30
0
41
1
10
26.9816210268857
20
-11.2803377816368
30
0
41
1
10
26.987602467691
20
-11.2515932906072
30
0
41
1
10
26.9954629307604
20
-11.2237012576895
30
0
0
SPLINE
5
202
100
AcDbEntity
8
1
62
256
6
ByLayer
370
18
48
1
60
0
100
AcDbSpline
70
4
71
3
72
12
73
8
40
0
40
0
40
0
40
0
40
0.484869942037235
40
0.484869942037235
40
0.891643636277227
40
0.891643636277227
40
1
40
1
40
1
40
1
41
1
10
24.5786164774029
20
-12.6422593745205
30
0
41
1
10
24.6461321369124
20
-12.656096357075
30
0
41
1
10
24.71319323116
20
-12.6810908297724
30
0
41
1
10
24.8275463293293
20
-12.7483467841724
30
0
41
1
10
24.8774982647301
20
-12.7881003390999
30
0
41
1
10
24.9325210653159
20
-12.8480810228329
30
0
41
1
10
24.9437361763945
20
-12.8613400839045
30
0
41
1
10
24.9544403989079
20
-12.8750985722384
30
0
0
SPLINE
5
203
100
AcDbEntity
8
1
62
256
6
ByLayer
370
18
48
1
60
0
100
AcDbSpline
70
4
71
3
72
14
73
10
40
0
40
0
40
0
40
0
40
0.267209902874942
40
0.267209902874942
40
0.553814858952082
40
0.553814858952082
40
0.812970428586415
40
0.812970428586415
40
1
40
1
40
1
40
1
41
1
10
27.4905576274439
20
-12.0612086884354
30
0
41
1
10
27.5214802169726
20
-12.0704016453552
30
0
41
1
10
27.5519830964943
20
-12.0848871304771
30
0
41
1
10
27.6092224942975
20
-12.1247847307572
30
0
41
1
10
27.6363908828855
20
-12.1516094594715
30
0
41
1
10
27.6771497601542
20
-12.210559805237
30
0
41
1
10
27.6923584031747
20
-12.2428616738102
30
0
41
1
10
27.7079233944769
20
-12.3006515349961
30
0
41
1
10
27.7114026028526
20
-12.3260666202861
30
0
41
1
10
27.711546887485
20
-12.3511200063816
30
0
0
SPLINE
5
204
100
AcDbEntity
8
1
62
256
6
ByLayer
370
18
48
1
60
0
100
AcDbSpline
70
4
71
3
72
16
73
12
40
0
40
0
40
0
40
0
40
0.0197557871611283
40
0.0197557871611283
40
0.339856717382949
40
0.339856717382949
40
0.627452265397742
40
0.627452265397742
40
0.880397404253096
40
0.880397404253096
40
1
40
1
40
1
40
1
41
1
10
27.0186474008228
20
-13.4631366951286
30
0
41
1
10
27.0192766441679
20
-13.4655096758394
30
0
41
1
10
27.0198790392457
20
-13.4678924921978
30
0
41
1
10
27.0296345072953
20
-13.5084631278988
30
0
41
1
10
27.0318210155864
20
-13.5497927572798
30
0
41
1
10
27.020321051433
20
-13.6262281658992
30
0
41
1
10
27.0079581306911
20
-13.6627348739751
30
0
41
1
10
26.9726368063262
20
-13.7241763861372
30
0
41
1
10
26.9505610505712
20
-13.7508608120177
30
0
41
1
10
26.912630384431
20
-13.7828306941766
30
0
41
1
10
26.8994672092849
20
-13.7921476490662
30
0
41
1
10
26.8856838281939
20
-13.8002377480862
30
0
0
SPLINE
5
205
100
AcDbEntity
8
1
62
256
6
ByLayer
370
18
48
1
60
0
100
AcDbSpline
70
4
71
3
72
18
73
14
40
0
40
0
40
0
40
0
40
0.0470280027594843
40
0.0470280027594843
40
0.268098810962239
40
0.268098810962239
40
0.491061075983766
40
0.491061075983766
40
0.727631638692481
40
0.727631638692481
40
0.987033683030386
40
0.987033683030386
40
1
40
1
40
1
40
1
41
1
10
26.8568470702748
20
-10.9053007464185
30
0
41
1
10
26.8623916139102
20
-10.908404755116
30
0
41
1
10
26.8678372802837
20
-10.911682969198
30
0
41
1
10
26.8979902149509
20
-10.9311559921275
30
0
41
1
10
26.9205285843768
20
-10.9510558143107
30
0
41
1
10
26.9578029398383
20
-10.9952991261476
30
0
41
1
10
26.9729635551784
20
-11.0202293592879
30
0
41
1
10
26.9952518743924
20
-11.0730431841401
30
0
41
1
10
27.0021413085605
20
-11.1016645338447
30
0
41
1
10
27.0070054384393
20
-11.1602869074327
30
0
41
1
10
27.0041525581146
20
-11.1908888287052
30
0
41
1
10
26.9962581012501
20
-11.2208333104527
30
0
41
1
10
26.9958664096472
20
-11.2222695549648
30
0
41
1
10
26.9954629307604
20
-11.2237012576895
30
0
0
SPLINE
5
206
100
AcDbEntity
8
1
62
256
6
ByLayer
370
18
48
1
60
0
100
AcDbSpline
70
4
71
3
72
18
73
14
40
0
40
0
40
0
40
0
40
0.206015522409796
40
0.206015522409796
40
0.381289027047594
40
0.381289027047594
40
0.558319917426833
40
0.558319917426833
40
0.711523298247865
40
0.711523298247865
40
0.913245083194254
40
0.913245083194254
40
1
40
1
40
1
40
1
41
1
10
25.5641906369289
20
-13.7581954594511
30
0
41
1
10
25.6122660277537
20
-13.7061896543617
30
0
41
1
10
25.6693868394531
20
-13.6601130076674
30
0
41
1
10
25.7879416626176
20
-13.5933592746139
30
0
41
1
10
25.8488942027853
20
-13.569318070095
30
0
41
1
10
25.9765112170903
20
-13.5407389594587
30
0
41
1
10
26.0451830971681
20
-13.5361928948141
30
0
41
1
10
26.1685603170764
20
-13.547582062392
30
0
41
1
10
26.2253813575531
20
-13.560882320333
30
0
41
1
10
26.3468456477112
20
-13.6060610222289
30
0
41
1
10
26.4104427703769
20
-13.6430088309196
30
0
41
1
10
26.48937602449
20
-13.7059909352807
30
0
41
1
10
26.5119062692706
20
-13.7265261239057
30
0
41
1
10
26.532916900183
20
-13.7482342210048
30
0
0
SPLINE
5
207
100
AcDbEntity
8
1
62
256
6
ByLayer
370
18
48
1
60
0
100
AcDbSpline
70
4
71
3
72
14
73
10
40
0
40
0
40
0
40
0
40
0.258017080902243
40
0.258017080902243
40
0.547596971892511
40
0.547596971892511
40
0.809420526908568
40
0.809420526908568
40
1
40
1
40
1
40
1
41
1
10
25.0505425700395
20
-11.2406341094333
30
0
41
1
10
25.0425594957919
20
-11.2127356591492
30
0
41
1
10
25.0390483034523
20
-11.1826973314619
30
0
41
1
10
25.042663843342
20
-11.1186013573324
30
0
41
1
10
25.0512880339006
20
-11.0834714533309
30
0
41
1
10
25.0804776652223
20
-11.0212733595077
30
0
41
1
10
25.1003204742844
20
-10.9928353908906
30
0
41
1
10
25.1422412585628
20
-10.9510765979068
30
0
41
1
10
25.1626225999627
20
-10.9353380479635
30
0
41
1
10
25.1845000108623
20
-10.9224971913324
30
0
0
SPLINE
5
208
100
AcDbEntity
8
1
62
256
6
ByLayer
370
18
48
1
60
0
100
AcDbSpline
70
4
71
3
72
16
73
12
40
0
40
0
40
0
40
0
40
0.0444757760832895
40
0.0444757760832895
40
0.267630380646445
40
0.267630380646445
40
0.492521651895587
40
0.492521651895587
40
0.731005790857653
40
0.731005790857653
40
1
40
1
40
1
40
1
41
1
10
25.1845000108623
20
-10.9224971913324
30
0
41
1
10
25.1896388376079
20
-10.9194809780431
30
0
41
1
10
25.1948730316151
20
-10.9166124468232
30
0
41
1
10
25.2266044138506
20
-10.9004154421779
30
0
41
1
10
25.2554144110225
20
-10.8907281272336
30
0
41
1
10
25.3132759194659
20
-10.8801318606505
30
0
41
1
10
25.343061924524
20
-10.8791347978995
30
0
41
1
10
25.4014408131038
20
-10.8853759321348
30
0
41
1
10
25.4305884819631
20
-10.8931632539214
30
0
41
1
10
25.4866950271944
20
-10.9172920731557
30
0
41
1
10
25.5136612953869
20
-10.934883034733
30
0
41
1
10
25.5362730706793
20
-10.955536583557
30
0
0
SPLINE
5
209
100
AcDbEntity
8
1
62
256
6
ByLayer
370
18
48
1
60
0
100
AcDbSpline
70
4
71
3
72
12
73
8
40
0
40
0
40
0
40
0
40
0.315745044720758
40
0.315745044720758
40
0.783199078066851
40
0.783199078066851
40
1
40
1
40
1
40
1
41
1
10
25.0388874441888
20
-13.0179500881222
30
0
41
1
10
25.0592865497552
20
-13.0650610013068
30
0
41
1
10
25.0743041675992
20
-13.1147960643021
30
0
41
1
10
25.0975222697495
20
-13.237330264555
30
0
41
1
10
25.0995250891485
20
-13.3117407977133
30
0
41
1
10
25.0876825275252
20
-13.4154464301233
30
0
41
1
10
25.081702231463
20
-13.448024454349
30
0
41
1
10
25.0737111740867
20
-13.4797668052665
30
0
0
SPLINE
5
20A
100
AcDbEntity
8
1
62
256
6
ByLayer
370
18
48
1
60
0
100
AcDbSpline
70
4
71
3
72
14
73
10
40
0
40
0
40
0
40
0
40
0.281998414290789
40
0.281998414290789
40
0.568568424035193
40
0.568568424035193
40
0.827932398160451
40
0.827932398160451
40
1
40
1
40
1
40
1
41
1
10
25.5641906369289
20
-13.7581954594511
30
0
41
1
10
25.5409276965759
20
-13.783360266664
30
0
41
1
10
25.5127712226734
20
-13.8051173347544
30
0
41
1
10
25.449923313416
20
-13.8374933508541
30
0
41
1
10
25.4141294420406
20
-13.8483700342562
30
0
41
1
10
25.3444464484293
20
-13.855103479069
30
0
41
1
10
25.3096420518974
20
-13.8523282698182
30
0
41
1
10
25.2548192096082
20
-13.8373979981835
30
0
41
1
10
25.2333241183943
20
-13.8286237355703
30
0
41
1
10
25.2133367687813
20
-13.8174341930002
30
0
0
SPLINE
5
20B
100
AcDbEntity
8
1
62
256
6
ByLayer
370
18
48
1
60
0
100
AcDbSpline
70
4
71
3
72
18
73
14
40
0
40
0
40
0
40
0
40
0.211905360630374
40
0.211905360630374
40
0.386129004723073
40
0.386129004723073
40
0.562040926715455
40
0.562040926715455
40
0.715019026128062
40
0.715019026128062
40
0.917770982563784
40
0.917770982563784
40
1
40
1
40
1
40
1
41
1
10
26.5049993339329
20
-10.9455753451114
30
0
41
1
10
26.4552120283606
20
-10.992681734479
30
0
41
1
10
26.3958352992655
20
-11.0338912157582
30
0
41
1
10
26.2745053670972
20
-11.0916103286438
30
0
41
1
10
26.2134441912532
20
-11.1117352530246
30
0
41
1
10
26.086053612857
20
-11.1353200346312
30
0
41
1
10
26.0177529401671
20
-11.1388069497497
30
0
41
1
10
25.8950933844689
20
-11.1286047437576
30
0
41
1
10
25.838606423671
20
-11.1170470350962
30
0
41
1
10
25.7175920863148
20
-11.0776878923786
30
0
41
1
10
25.6542460575867
20
-11.0453440822171
30
0
41
1
10
25.5771971808205
20
-10.990679689456
30
0
41
1
10
25.5560522850586
20
-10.9736028770966
30
0
41
1
10
25.5362730706793
20
-10.955536583557
30
0
0
SPLINE
5
20C
100
AcDbEntity
8
1
62
256
6
ByLayer
370
18
48
1
60
0
100
AcDbSpline
70
4
71
3
72
16
73
12
40
0
40
0
40
0
40
0
40
0.110455962028404
40
0.110455962028404
40
0.3328272813116
40
0.3328272813116
40
0.560651034858768
40
0.560651034858768
40
0.805074806678647
40
0.805074806678647
40
1
40
1
40
1
40
1
41
1
10
26.8856838281939
20
-13.8002377480862
30
0
41
1
10
26.8729987862353
20
-13.8076831814557
30
0
41
1
10
26.8596980906099
20
-13.8141444951977
30
0
41
1
10
26.8186833636129
20
-13.8302380143688
30
0
41
1
10
26.7893893572548
20
-13.8366146535143
30
0
41
1
10
26.7309548723106
20
-13.8401666169773
30
0
41
1
10
26.7010978717385
20
-13.837183782704
30
0
41
1
10
26.6429998834381
20
-13.8224041775216
30
0
41
1
10
26.6143009513057
20
-13.8098288907994
30
0
41
1
10
26.5682776503099
20
-13.7807428040647
30
0
41
1
10
26.549482075209
20
-13.7653492914389
30
0
41
1
10
26.532916900183
20
-13.7482342210048
30
0
0
SPLINE
5
20D
100
AcDbEntity
8
1
62
256
6
ByLayer
370
18
48
1
60
0
100
AcDbSpline
70
4
71
3
72
18
73
14
40
0
40
0
40
0
40
0
40
0.205491519670282
40
0.205491519670282
40
0.380859013077685
40
0.380859013077685
40
0.557990014066118
40
0.557990014066118
40
0.711214516597879
40
0.711214516597879
40
0.912845515554404
40
0.912845515554404
40
1
40
1
40
1
40
1
41
1
10
27.0186474008228
20
-13.4631366951286
30
0
41
1
10
27.0003424793506
20
-13.394105809213
30
0
41
1
10
26.9915399075196
20
-13.3203801491639
30
0
41
1
10
26.9968116766453
20
-13.1825154188501
30
0
41
1
10
27.0079495044435
20
-13.1170006133696
30
0
41
1
10
27.0488932115861
20
-12.9915679951879
30
0
41
1
10
27.0796920561847
20
-12.9299206924309
30
0
41
1
10
27.150799768671
20
-12.8297848828598
30
0
41
1
10
27.1900441182059
20
-12.7880366069669
30
0
41
1
10
27.2875353179168
20
-12.7078158078334
30
0
41
1
10
27.3493894401827
20
-12.6729463554546
30
0
41
1
10
27.4404199496256
20
-12.6386753073114
30
0
41
1
10
27.4686164840226
20
-12.6302292307645
30
0
41
1
10
27.497038073909
20
-12.6237185809071
30
0
0
SPLINE
5
20E
100
AcDbEntity
8
1
62
256
6
ByLayer
370
18
48
1
60
0
100
AcDbSpline
70
4
71
3
72
18
73
14
40
0
40
0
40
0
40
0
40
0.0461474884042704
40
0.0461474884042704
40
0.269316451132873
40
0.269316451132873
40
0.494318410179611
40
0.494318410179611
40
0.732994232718073
40
0.732994232718073
40
0.994669656400518
40
0.994669656400518
40
1
40
1
40
1
40
1
41
1
10
27.711546887485
20
-12.3511200063816
30
0
41
1
10
27.7115823720063
20
-12.3572814900836
30
0
41
1
10
27.7114206516014
20
-12.3634398166376
30
0
41
1
10
27.7093456366228
20
-12.3989781194934
30
0
41
1
10
27.7029490907698
20
-12.4282404002397
30
0
41
1
10
27.6821038556113
20
-12.4820616223388
30
0
41
1
10
27.6673450078632
20
-12.5072749673863
30
0
41
1
10
27.6309911295044
20
-12.5520760449311
30
0
41
1
10
27.6086045665492
20
-12.5718100206297
30
0
41
1
10
27.5579373117952
20
-12.6041173057711
30
0
41
1
10
27.5286800747746
20
-12.6162532949979
30
0
41
1
10
27.4982667909836
20
-12.6234349484789
30
0
41
1
10
27.4976526146099
20
-12.6235778055549
30
0
41
1
10
27.497038073909
20
-12.6237185809071
30
0
0
SPLINE
5
20F
100
AcDbEntity
8
1
62
256
6
ByLayer
370
18
48
1
60
0
100
AcDbSpline
70
4
71
3
72
18
73
14
40
0
40
0
40
0
40
0
40
0.111538086393703
40
0.111538086393703
40
0.305728847141483
40
0.305728847141483
40
0.465232868161154
40
0.465232868161154
40
0.625325180234517
40
0.625325180234517
40
0.778371711705989
40
0.778371711705989
40
1
40
1
40
1
40
1
41
1
10
25.0505425700396
20
-11.2406341094333
30
0
41
1
10
25.0603277285364
20
-11.2748303037036
30
0
41
1
10
25.0672974431251
20
-11.310375077522
30
0
41
1
10
25.0777625751018
20
-11.4101077182103
30
0
41
1
10
25.0748599581511
20
-11.4774513199842
30
0
41
1
10
25.0493153072812
20
-11.6000135782405
30
0
41
1
10
25.0298538124197
20
-11.6565945184649
30
0
41
1
10
24.9765642411809
20
-11.7634680059776
30
0
41
1
10
24.9419658785286
20
-11.815071333343
30
0
41
1
10
24.8651948433247
20
-11.9037825828376
30
0
41
1
10
24.8226085637589
20
-11.9425292867643
30
0
41
1
10
24.7136321707208
20
-12.0217896685594
30
0
41
1
10
24.6432248800422
20
-12.057017276144
30
0
41
1
10
24.5721518969533
20
-12.0800522236548
30
0
0
SPLINE
5
210
100
AcDbEntity
8
1
62
256
6
ByLayer
370
18
48
1
60
0
100
AcDbSpline
70
4
71
3
72
16
73
12
40
0
40
0
40
0
40
0
40
0.0561291061741174
40
0.0561291061741174
40
0.279003278185659
40
0.279003278185659
40
0.50428444549829
40
0.50428444549829
40
0.743700215435471
40
0.743700215435471
40
1
40
1
40
1
40
1
41
1
10
24.3586369515712
20
-12.371614933037
30
0
41
1
10
24.3585938191392
20
-12.3641254765818
30
0
41
1
10
24.3588409897077
20
-12.3566153435457
30
0
41
1
10
24.3614873817259
20
-12.3196042364007
30
0
41
1
10
24.3682454030654
20
-12.2899203136936
30
0
41
1
10
24.3897076872998
20
-12.2346117524587
30
0
41
1
10
24.4047486606174
20
-12.2083218908507
30
0
41
1
10
24.4415929162038
20
-12.1607969835074
30
0
41
1
10
24.4641979720242
20
-12.1393681257196
30
0
41
1
10
24.5145349492494
20
-12.1036363178321
30
0
41
1
10
24.5430964098414
20
-12.0894691862112
30
0
41
1
10
24.5721518969532
20
-12.0800522236548
30
0
0
SPLINE
5
211
100
AcDbEntity
8
1
62
256
6
ByLayer
370
18
48
1
60
0
100
AcDbSpline
70
4
71
3
72
16
73
12
40
0
40
0
40
0
40
0
40
0.0610421755376184
40
0.0610421755376184
40
0.281808293882917
40
0.281808293882917
40
0.50526927047908
40
0.50526927047908
40
0.742988318186616
40
0.742988318186616
40
1
40
1
40
1
40
1
41
1
10
25.2133367687813
20
-13.8174341930002
30
0
41
1
10
25.2061492827153
20
-13.8134104138166
30
0
41
1
10
25.1991248251443
20
-13.8090635279707
30
0
41
1
10
25.1678265904025
20
-13.7877531147
30
0
41
1
10
25.1457027746134
20
-13.7669022704606
30
0
41
1
10
25.1092187320876
20
-13.7201884193532
30
0
41
1
10
25.0944736291701
20
-13.6936878449215
30
0
41
1
10
25.0730204236803
20
-13.6371976772964
30
0
41
1
10
25.0665867402329
20
-13.6063980348368
30
0
41
1
10
25.062706104508
20
-13.5434426923156
30
0
41
1
10
25.0659459182096
20
-13.5106122197601
30
0
41
1
10
25.0737111740867
20
-13.4797668052665
30
0
0
SPLINE
5
212
100
AcDbEntity
8
1
62
256
6
ByLayer
370
18
48
1
60
0
100
AcDbSpline
70
4
71
3
72
10
73
6
40
0
40
0
40
0
40
0
40
0.568852748629155
40
0.568852748629155
40
1
40
1
40
1
40
1
41
1
10
31.1727764840759
20
-9.159920937518
30
0
41
1
10
31.1601290943608
20
-9.11019760290381
30
0
41
1
10
31.1440113845498
20
-9.06140401169071
30
0
41
1
10
31.1096940925966
20
-8.97813640519001
30
0
41
1
10
31.0928169681664
20
-8.94274236221213
30
0
41
1
10
31.0741052613885
20
-8.90840533286075
30
0
0
SPLINE
5
213
100
AcDbEntity
8
1
62
256
6
ByLayer
370
18
48
1
60
0
100
AcDbSpline
70
4
71
3
72
10
73
6
40
0
40
0
40
0
40
0
40
0.759346300360642
40
0.759346300360642
40
1
40
1
40
1
40
1
41
1
10
30.7315933958221
20
-8.57013902695411
30
0
41
1
10
30.835301833015
20
-8.63468539529202
30
0
41
1
10
30.9292469770791
20
-8.71796399131949
30
0
41
1
10
31.0301526887403
20
-8.84358332427871
30
0
41
1
10
31.0530375822487
20
-8.87545113182779
30
0
41
1
10
31.0741052613885
20
-8.90840533286075
30
0
0
SPLINE
5
214
100
AcDbEntity
8
1
62
256
6
ByLayer
370
18
48
1
60
0
100
AcDbSpline
70
4
71
3
72
12
73
8
40
0
40
0
40
0
40
0
40
0.0406711006730118
40
0.0406711006730118
40
0.360447400448675
40
0.360447400448675
40
1
40
1
40
1
40
1
41
1
10
26.1301308741504
20
-5.95962921140236
30
0
41
1
10
26.1490904358146
20
-5.96844058757677
30
0
41
1
10
26.1673179005162
20
-5.97682070558648
30
0
41
1
10
26.3248157203826
20
-6.04928415266019
30
0
41
1
10
26.4309680030328
20
-6.0915983312388
30
0
41
1
10
26.7158887735777
20
-6.19659300578931
30
0
41
1
10
26.8546445401738
20
-6.23384700839702
30
0
41
1
10
26.9767904409989
20
-6.26051330521057
30
0
0
SPLINE
5
215
100
AcDbEntity
8
1
62
256
6
ByLayer
370
18
48
1
60
0
100
AcDbSpline
70
4
71
3
72
10
73
6
40
0
40
0
40
0
40
0
40
0.208486446978588
40
0.208486446978588
40
1
40
1
40
1
40
1
41
1
10
31.1320794587433
20
-9.16231587233594
30
0
41
1
10
31.1280688545071
20
-9.14465944208692
30
0
41
1
10
31.1240544279497
20
-9.12700526153617
30
0
41
1
10
31.1047809961679
20
-9.04233822072189
30
0
41
1
10
31.089470716548
20
-8.97535553887462
30
0
41
1
10
31.0741052613885
20
-8.90840533286084
30
0
0
SPLINE
5
216
100
AcDbEntity
8
SK1
62
256
6
ByLayer
370
18
48
1
60
0
100
AcDbSpline
70
4
71
3
72
8
73
4
40
0
40
0
40
0
40
0
40
1
40
1
40
1
40
1
41
1
10
-0.249519052838309
20
13.7270175338474
30
0
41
1
10
-0.166355973154907
20
13.7965526425918
30
0
41
1
10
-0.083182806918785
20
13.8660716694145
30
0
41
1
10
0
20
13.9355753092867
30
0
0
SPLINE
5
217
100
AcDbEntity
8
SK1
62
256
6
ByLayer
370
18
48
1
60
0
100
AcDbSpline
70
4
71
3
72
8
73
4
40
0
40
0
40
0
40
0
40
1
40
1
40
1
40
1
41
1
10
-0.249519052838309
20
-12.9417228393876
30
0
41
1
10
-0.166347857745961
20
-13.009918893748
30
0
41
1
10
-0.0831748117722668
20
-13.0781119384452
30
0
41
1
10
0
20
-13.1463021112708
30
0
0
SPLINE
5
218
100
AcDbEntity
8
SK1
62
256
6
ByLayer
370
18
48
1
60
0
100
AcDbSpline
70
4
71
3
72
8
73
4
40
0
40
0
40
0
40
0
40
1
40
1
40
1
40
1
41
1
10
0
20
-13.5674337735919
30
0
41
1
10
-0.0836345631109339
20
-13.4476100581886
30
0
41
1
10
-0.166816582690672
20
-13.3273631154338
30
0
41
1
10
-0.249519052838309
20
-13.2066798735262
30
0
0
SPLINE
5
219
100
AcDbEntity
8
SK1
62
256
6
ByLayer
370
18
48
1
60
0
100
AcDbSpline
70
4
71
3
72
10
73
6
40
0
40
0
40
0
40
0
40
0.186420200417436
40
0.186420200417436
40
1
40
1
40
1
40
1
41
1
10
-0.24951905283848
20
3.02167087832794
30
0
41
1
10
-0.259705526289054
20
2.94210551587779
30
0
41
1
10
-0.268527010535479
20
2.86241469726204
30
0
41
1
10
-0.309952002456726
20
2.43518299426378
30
0
41
1
10
-0.324519052838298
20
2.08621209306065
30
0
41
1
10
-0.324519052838298
20
1.73806805963053
30
0
0
SPLINE
5
21A
100
AcDbEntity
8
SK1
62
256
6
ByLayer
370
18
48
1
60
0
100
AcDbSpline
70
4
71
3
72
8
73
4
40
0
40
0
40
0
40
0
40
1
40
1
40
1
40
1
41
1
10
0
20
4.57714531130458
30
0
41
1
10
-0.0990493806369273
20
4.0628002470196
30
0
41
1
10
-0.182595100372225
20
3.54440610759005
30
0
41
1
10
-0.249519052838309
20
3.02167087832794
30
0
0
SPLINE
5
21B
100
AcDbEntity
8
SK1
62
256
6
ByLayer
370
18
48
1
60
0
100
AcDbSpline
70
4
71
3
72
8
73
4
40
0
40
0
40
0
40
0
40
1
40
1
40
1
40
1
41
1
10
-0.249519052838309
20
11.9182788072984
30
0
41
1
10
-0.166346719817398
20
11.9862883889892
30
0
41
1
10
-0.0831736906827132
20
12.0542968356096
30
0
41
1
10
-1.705E-13
20
12.1223042034428
30
0
0
SPLINE
5
21C
100
AcDbEntity
8
SK1
62
256
6
ByLayer
370
18
48
1
60
0
100
AcDbSpline
70
4
71
3
72
8
73
4
40
0
40
0
40
0
40
0
40
1
40
1
40
1
40
1
41
1
10
-0.249519052838309
20
11.1538370998082
30
0
41
1
10
-0.23724268661681
20
11.1374218023923
30
0
41
1
10
-0.224998037660214
20
11.1209741373647
30
0
41
1
10
-0.212786371493678
20
11.1044934159156
30
0
0
SPLINE
5
21D
100
AcDbEntity
8
SK1
62
256
6
ByLayer
370
18
48
1
60
0
100
AcDbSpline
70
4
71
3
72
18
73
14
40
0
40
0
40
0
40
0
40
0.162908015129708
40
0.162908015129708
40
0.366856942139421
40
0.366856942139421
40
0.537715648408697
40
0.537715648408697
40
0.708673066351339
40
0.708673066351339
40
0.922902784772065
40
0.922902784772065
40
1
40
1
40
1
40
1
41
1
10
-0.324519052839662
20
11.9235539298772
30
0
41
1
10
-0.324519052839719
20
11.9179428666907
30
0
41
1
10
-0.323977693929749
20
11.9127236095739
30
0
41
1
10
-0.321195057870682
20
11.902505708986
30
0
41
1
10
-0.318498962159822
20
11.8978016333709
30
0
41
1
10
-0.311108270472573
20
11.8923725996573
30
0
41
1
10
-0.306710307968672
20
11.8911010457693
30
0
41
1
10
-0.296401107399049
20
11.891447470528
30
0
41
1
10
-0.290367789838058
20
11.8930691428619
30
0
41
1
10
-0.276072133680145
20
11.8993307385164
30
0
41
1
10
-0.267430432852564
20
11.9046767021517
30
0
41
1
10
-0.255755825556264
20
11.9132947437304
30
0
41
1
10
-0.252633498128318
20
11.9157321416744
30
0
41
1
10
-0.249519052838309
20
11.9182788072983
30
0
0
SPLINE
5
21E
100
AcDbEntity
8
SK1
62
256
6
ByLayer
370
18
48
1
60
0
100
AcDbSpline
70
4
71
3
72
18
73
14
40
0
40
0
40
0
40
0
40
0.16297382564123
40
0.16297382564123
40
0.356080197241825
40
0.356080197241825
40
0.551219871992702
40
0.551219871992702
40
0.719028519435641
40
0.719028519435641
40
0.960472783679774
40
0.960472783679774
40
1
40
1
40
1
40
1
41
1
10
-0.249519052838366
20
-11.9182788072982
30
0
41
1
10
-0.256066147235742
20
-11.9129252824531
30
0
41
1
10
-0.262676875300372
20
-11.9080335625595
30
0
41
1
10
-0.276746105583584
20
-11.8990936105681
30
0
41
1
10
-0.284295457198198
20
-11.8952947011298
30
0
41
1
10
-0.29787255596267
20
-11.8910878374727
30
0
41
1
10
-0.304057976638887
20
-11.8906991948608
30
0
41
1
10
-0.313115400174013
20
-11.8933481858029
30
0
41
1
10
-0.316452091942267
20
-11.8959195280297
30
0
41
1
10
-0.322322667931587
20
-11.9044743965087
30
0
41
1
10
-0.32401620362316
20
-11.9115412397585
30
0
41
1
10
-0.32448673763156
20
-11.920834585719
30
0
41
1
10
-0.324519052838355
20
-11.9221817744123
30
0
41
1
10
-0.324519052838355
20
-11.9235539298783
30
0
0
SPLINE
5
21F
100
AcDbEntity
8
SK1
62
256
6
ByLayer
370
18
48
1
60
0
100
AcDbSpline
70
4
71
3
72
8
73
4
40
0
40
0
40
0
40
0
40
1
40
1
40
1
40
1
41
1
10
-0.249519052838309
20
-12.2621047787412
30
0
41
1
10
-0.167022275036572
20
-12.3975876519351
30
0
41
1
10
-0.0838355637598056
20
-12.5325135403374
30
0
41
1
10
0
20
-12.6668961944433
30
0
0
SPLINE
5
220
100
AcDbEntity
8
SK1
62
256
6
ByLayer
370
18
48
1
60
0
100
AcDbSpline
70
4
71
3
72
8
73
4
40
0
40
0
40
0
40
0
40
1
40
1
40
1
40
1
41
1
10
-0.212786371493678
20
-11.1044934159156
30
0
41
1
10
-0.224998037660214
20
-11.1209741373647
30
0
41
1
10
-0.23724268661681
20
-11.1374218023923
30
0
41
1
10
-0.249519052838309
20
-11.1538370998082
30
0
0
SPLINE
5
221
100
AcDbEntity
8
SK1
62
256
6
ByLayer
370
18
48
1
60
0
100
AcDbSpline
70
4
71
3
72
14
73
10
40
0
40
0
40
0
40
0
40
0.472444801964618
40
0.472444801964618
40
0.754260170617129
40
0.754260170617129
40
0.972203826490864
40
0.972203826490864
40
1
40
1
40
1
40
1
41
1
10
-0.249519052838366
20
-11.1538370998082
30
0
41
1
10
-0.267892464509487
20
-11.1784050388615
30
0
41
1
10
-0.284742554365437
20
-11.2029809473635
30
0
41
1
10
-0.306128094603025
20
-11.2387749004426
30
0
41
1
10
-0.313022584718283
20
-11.2516484601971
30
0
41
1
10
-0.321463908345891
20
-11.2713923447886
30
0
41
1
10
-0.323914527321392
20
-11.2791144723247
30
0
41
1
10
-0.324485697762157
20
-11.2856875937471
30
0
41
1
10
-0.324519052838355
20
-11.2864087447582
30
0
41
1
10
-0.324519052838355
20
-11.2870970646865
30
0
0
SPLINE
5
222
100
AcDbEntity
8
SK1
62
256
6
ByLayer
370
18
48
1
60
0
100
AcDbSpline
70
4
71
3
72
12
73
8
40
0
40
0
40
0
40
0
40
0.250507189467315
40
0.250507189467315
40
0.690757941880344
40
0.690757941880344
40
1
40
1
40
1
40
1
41
1
10
-0.324519052838298
20
-12.0751167702277
30
0
41
1
10
-0.324519052838184
20
-12.0872022981673
30
0
41
1
10
-0.321870682724068
20
-12.1014440699219
30
0
41
1
10
-0.310431675455391
20
-12.1424308946337
30
0
41
1
10
-0.298355983619331
20
-12.1712758548189
30
0
41
1
10
-0.273693251786028
20
-12.2206292720073
30
0
41
1
10
-0.262116790820869
20
-12.2414157556896
30
0
41
1
10
-0.249519052838309
20
-12.2621047787412
30
0
0
SPLINE
5
223
100
AcDbEntity
8
SK1
62
256
6
ByLayer
370
18
48
1
60
0
100
AcDbSpline
70
4
71
3
72
12
73
8
40
0
40
0
40
0
40
0
40
0.557830778225335
40
0.557830778225335
40
0.870882196541651
40
0.870882196541651
40
1
40
1
40
1
40
1
41
1
10
-0.249519052838309
20
12.2621047787412
30
0
41
1
10
-0.272038315577049
20
12.2251218262024
30
0
41
1
10
-0.291569279190355
20
12.1874748887669
30
0
41
1
10
-0.313299966276361
20
12.1323944002646
30
0
41
1
10
-0.319473967210513
20
12.1129016838172
30
0
41
1
10
-0.323792183799355
20
12.0882969528288
30
0
41
1
10
-0.324519052841254
20
12.0814110455706
30
0
41
1
10
-0.324519052841367
20
12.0751167702244
30
0
0
SPLINE
5
224
100
AcDbEntity
8
SK1
62
256
6
ByLayer
370
18
48
1
60
0
100
AcDbSpline
70
4
71
3
72
14
73
10
40
0
40
0
40
0
40
0
40
0.162532156028832
40
0.162532156028832
40
0.454453497015791
40
0.454453497015791
40
0.894044317623277
40
0.894044317623277
40
1
40
1
40
1
40
1
41
1
10
-0.324519052839492
20
11.2870970646875
30
0
41
1
10
-0.324519052839435
20
11.2831306309011
30
0
41
1
10
-0.323399220715885
20
11.2780446462272
30
0
41
1
10
-0.317969983797013
20
11.2619786818204
30
0
41
1
10
-0.311790369630501
20
11.2493081123089
30
0
41
1
10
-0.292867893333153
20
11.2157243305683
30
0
41
1
10
-0.278062281087955
20
11.1932107425178
30
0
41
1
10
-0.257775243243657
20
11.1649835616635
30
0
41
1
10
-0.253693672661143
20
11.1594191771716
30
0
41
1
10
-0.249519052838309
20
11.1538370998082
30
0
0
SPLINE
5
225
100
AcDbEntity
8
SK1
62
256
6
ByLayer
370
18
48
1
60
0
100
AcDbSpline
70
4
71
3
72
8
73
4
40
0
40
0
40
0
40
0
40
1
40
1
40
1
40
1
41
1
10
-0.249519052838309
20
-3.02167087832794
30
0
41
1
10
-0.182595100372225
20
-3.54440610759005
30
0
41
1
10
-0.0990493806369273
20
-4.0628002470196
30
0
41
1
10
0
20
-4.57714531130458
30
0
0
SPLINE
5
226
100
AcDbEntity
8
SK1
62
256
6
ByLayer
370
18
48
1
60
0
100
AcDbSpline
70
4
71
3
72
10
73
6
40
0
40
0
40
0
40
0
40
0.144920755270329
40
0.144920755270329
40
1
40
1
40
1
40
1
41
1
10
-0.324519052838411
20
-1.73806805962974
30
0
41
1
10
-0.324519052838411
20
-1.80016865628997
30
0
41
1
10
-0.323998261580868
20
-1.86228627081658
30
0
41
1
10
-0.317036224678418
20
-2.29038457046121
30
0
41
1
10
-0.296171225026512
20
-2.65727617320752
30
0
41
1
10
-0.249519052838309
20
-3.02167087832794
30
0
0
SPLINE
5
227
100
AcDbEntity
8
SK1
62
256
6
ByLayer
370
18
48
1
60
0
100
AcDbSpline
70
4
71
3
72
10
73
6
40
0
40
0
40
0
40
0
40
0.459290726719593
40
0.459290726719593
40
1
40
1
40
1
40
1
41
1
10
-0.324519052838355
20
6.74297943705761
30
0
41
1
10
-0.324519052838355
20
6.80309173048494
30
0
41
1
10
-0.316452834736822
20
6.86666363578013
30
0
41
1
10
-0.291710748481364
20
7.0044542180446
30
0
41
1
10
-0.272997356572489
20
7.07994637622744
30
0
41
1
10
-0.24951905283848
20
7.15455621082879
30
0
0
SPLINE
5
228
100
AcDbEntity
8
SK1
62
256
6
ByLayer
370
18
48
1
60
0
100
AcDbSpline
70
4
71
3
72
8
73
4
40
0
40
0
40
0
40
0
40
1
40
1
40
1
40
1
41
1
10
7.617E-12
20
6.50578659355736
30
0
41
1
10
-0.083605143756472
20
6.41179796364185
30
0
41
1
10
-0.166795538795043
20
6.31731434418757
30
0
41
1
10
-0.249519052838309
20
6.22229127889503
30
0
0
SPLINE
5
229
100
AcDbEntity
8
SK1
62
256
6
ByLayer
370
18
48
1
60
0
100
AcDbSpline
70
4
71
3
72
8
73
4
40
0
40
0
40
0
40
0
40
1
40
1
40
1
40
1
41
1
10
-0.249519052817789
20
-6.22229127891862
30
0
41
1
10
-0.166795538784186
20
-6.31731434419987
30
0
41
1
10
-0.0836051437554488
20
-6.41179796364293
30
0
41
1
10
-1.2506E-12
20
-6.50578659354736
30
0
0
SPLINE
5
22A
100
AcDbEntity
8
SK1
62
256
6
ByLayer
370
18
48
1
60
0
100
AcDbSpline
70
4
71
3
72
20
73
16
40
0
40
0
40
0
40
0
40
0.351137548418788
40
0.351137548418788
40
0.59999486433875
40
0.59999486433875
40
0.681081596368277
40
0.681081596368277
40
0.763626254061009
40
0.763626254061009
40
0.834330729384487
40
0.834330729384487
40
0.921094402378277
40
0.921094402378277
40
1
40
1
40
1
40
1
41
1
10
-0.324519052838298
20
-6.32548904391834
30
0
41
1
10
-0.324519052838298
20
-6.30141711336103
30
0
41
1
10
-0.323401954413612
20
-6.27758745168057
30
0
41
1
10
-0.31712031655394
20
-6.23980316887824
30
0
41
1
10
-0.313249660206736
20
-6.22440438155206
30
0
41
1
10
-0.303741924658311
20
-6.20914812927663
30
0
41
1
10
-0.300954033802952
20
-6.20578722389982
30
0
41
1
10
-0.294396458565302
20
-6.20085478904468
30
0
41
1
10
-0.290490718848957
20
-6.19929379825058
30
0
41
1
10
-0.28269794706614
20
-6.1989496479967
30
0
41
1
10
-0.278797001501005
20
-6.19980014003158
30
0
41
1
10
-0.270281260419381
20
-6.20348550345392
30
0
41
1
10
-0.265573922763224
20
-6.20673167359109
30
0
41
1
10
-0.257111181143898
20
-6.21402964398405
30
0
41
1
10
-0.253227474585856
20
-6.21803147914204
30
0
41
1
10
-0.249519052807841
20
-6.22229127889875
30
0
0
SPLINE
5
22B
100
AcDbEntity
8
SK1
62
256
6
ByLayer
370
18
48
1
60
0
100
AcDbSpline
70
4
71
3
72
8
73
4
40
0
40
0
40
0
40
0
40
1
40
1
40
1
40
1
41
1
10
0
20
-7.91045252819325
30
0
41
1
10
-0.0865100425099286
20
-7.65998975574323
30
0
41
1
10
-0.16976751611918
20
-7.40799227806866
30
0
41
1
10
-0.249519052838366
20
-7.15455621082879
30
0
0
SPLINE
5
22C
100
AcDbEntity
8
SK1
62
256
6
ByLayer
370
18
48
1
60
0
100
AcDbSpline
70
4
71
3
72
8
73
4
40
0
40
0
40
0
40
0
40
1
40
1
40
1
40
1
41
1
10
-0.249519052838366
20
7.15455621082879
30
0
41
1
10
-0.16976751611918
20
7.40799227806866
30
0
41
1
10
-0.0865100425099286
20
7.65998975574323
30
0
41
1
10
0
20
7.91045252819325
30
0
0
SPLINE
5
22D
100
AcDbEntity
8
SK1
62
256
6
ByLayer
370
18
48
1
60
0
100
AcDbSpline
70
4
71
3
72
10
73
6
40
0
40
0
40
0
40
0
40
0.629255596758649
40
0.629255596758649
40
1
40
1
40
1
40
1
41
1
10
-0.24951905283865
20
-7.15455621082879
30
0
41
1
10
-0.276802686241297
20
-7.06785372164751
30
0
41
1
10
-0.297815816859668
20
-6.97985302655655
30
0
41
1
10
-0.319082164861925
20
-6.84256142700997
30
0
41
1
10
-0.324519052838355
20
-6.79159261532075
30
0
41
1
10
-0.324519052838355
20
-6.74297943705761
30
0
0
SPLINE
5
22E
100
AcDbEntity
8
SK1
62
256
6
ByLayer
370
18
48
1
60
0
100
AcDbSpline
70
4
71
3
72
20
73
16
40
0
40
0
40
0
40
0
40
0.110988402334916
40
0.110988402334916
40
0.182835936018668
40
0.182835936018668
40
0.255553852104656
40
0.255553852104656
40
0.320786153458731
40
0.320786153458731
40
0.421448279744227
40
0.421448279744227
40
0.611436522228581
40
0.611436522228581
40
1
40
1
40
1
40
1
41
1
10
-0.249519052838309
20
6.222291278895
30
0
41
1
10
-0.254676337943579
20
6.21636719497576
30
0
41
1
10
-0.260207363467146
20
6.21089634802686
30
0
41
1
10
-0.269757158014386
20
6.20396605408337
30
0
41
1
10
-0.273706815974833
20
6.20175128138607
30
0
41
1
10
-0.281499249676756
20
6.19913668745798
30
0
41
1
10
-0.285436583269245
20
6.19875848321368
30
0
41
1
10
-0.292197773687121
20
6.20000286356787
30
0
41
1
10
-0.295173539104894
20
6.20142018151356
30
0
41
1
10
-0.30180206882153
20
6.20645535019685
30
0
41
1
10
-0.305094016319288
20
6.21087508386952
30
0
41
1
10
-0.312850998901524
20
6.22515675998784
30
0
41
1
10
-0.316087956292961
20
6.23657765630159
30
0
41
1
10
-0.323209347934267
20
6.27239611087586
30
0
41
1
10
-0.324519052838298
20
6.29884632105015
30
0
41
1
10
-0.324519052838298
20
6.32548904391899
30
0
0
SPLINE
5
22F
100
AcDbEntity
8
SK1
62
256
6
ByLayer
370
18
48
1
60
0
100
AcDbSpline
70
4
71
3
72
8
73
4
40
0
40
0
40
0
40
0
40
1
40
1
40
1
40
1
41
1
10
-1.705E-13
20
-12.1223042034428
30
0
41
1
10
-0.0831736906827132
20
-12.0542968356096
30
0
41
1
10
-0.166346719817398
20
-11.9862883889892
30
0
41
1
10
-0.249519052838309
20
-11.9182788072984
30
0
0
SPLINE
5
230
100
AcDbEntity
8
SK1
62
256
6
ByLayer
370
18
48
1
60
0
100
AcDbSpline
70
4
71
3
72
14
73
10
40
0
40
0
40
0
40
0
40
0.4681906779061
40
0.4681906779061
40
0.766658887129561
40
0.766658887129561
40
0.995274023650263
40
0.995274023650263
40
1
40
1
40
1
40
1
41
1
10
-0.249519052838309
20
13.9274395693815
30
0
41
1
10
-0.267988531614549
20
13.9030312820616
30
0
41
1
10
-0.284824338654062
20
13.8785816371167
30
0
41
1
10
-0.306597660781449
20
13.8416964321552
30
0
41
1
10
-0.31378542042512
20
13.8278196277625
30
0
41
1
10
-0.322173001890917
20
13.8065015711565
30
0
41
1
10
-0.324426223282842
20
13.7981391130705
30
0
41
1
10
-0.324518106074208
20
13.7916464331563
30
0
41
1
10
-0.324519052838298
20
13.7915139629335
30
0
41
1
10
-0.324519052838298
20
13.7913823539181
30
0
0
SPLINE
5
231
100
AcDbEntity
8
SK1
62
256
6
ByLayer
370
18
48
1
60
0
100
AcDbSpline
70
4
71
3
72
16
73
12
40
0
40
0
40
0
40
0
40
0.130624672145521
40
0.130624672145521
40
0.353528046871907
40
0.353528046871907
40
0.553774977999994
40
0.553774977999994
40
0.746732495380425
40
0.746732495380425
40
1
40
1
40
1
40
1
41
1
10
-0.324519052838468
20
11.1322329014719
30
0
41
1
10
-0.324519052838468
20
11.1355011895269
30
0
41
1
10
-0.324087874001975
20
11.1383805823507
30
0
41
1
10
-0.321579653791901
20
11.1446942324891
30
0
41
1
10
-0.318457693103994
20
11.14715180263
30
0
41
1
10
-0.309751543328332
20
11.148013128415
30
0
41
1
10
-0.304338658879317
20
11.1468131043017
30
0
41
1
10
-0.292244012299591
20
11.1417689696497
30
0
41
1
10
-0.285493581620585
20
11.137991214891
30
0
41
1
10
-0.269270335143744
20
11.1273720556151
30
0
41
1
10
-0.259403750772378
20
11.1198435010377
30
0
41
1
10
-0.249519052838195
20
11.1115948256756
30
0
0
SPLINE
5
232
100
AcDbEntity
8
SK1
62
256
6
ByLayer
370
18
48
1
60
0
100
AcDbSpline
70
4
71
3
72
16
73
12
40
0
40
0
40
0
40
0
40
0.134846087248371
40
0.134846087248371
40
0.359807319613972
40
0.359807319613972
40
0.563975635911578
40
0.563975635911578
40
0.764440841140041
40
0.764440841140041
40
1
40
1
40
1
40
1
41
1
10
-0.324519052838411
20
13.7031878080016
30
0
41
1
10
-0.324519052838411
20
13.700128711894
30
0
41
1
10
-0.324041900077304
20
13.6974842500044
30
0
41
1
10
-0.321336502499037
20
13.6919455912478
30
0
41
1
10
-0.318053250017101
20
13.6900141396597
30
0
41
1
10
-0.30902237915376
20
13.689999437979
30
0
41
1
10
-0.303419812192203
20
13.6915758670914
30
0
41
1
10
-0.290856811988931
20
13.6973149632769
30
0
41
1
10
-0.283796286626341
20
13.7014706681422
30
0
41
1
10
-0.267850823763752
20
13.7122840528572
30
0
41
1
10
-0.258702075034648
20
13.7193393375919
30
0
41
1
10
-0.249519052838366
20
13.7270175338474
30
0
0
SPLINE
5
233
100
AcDbEntity
8
SK1
62
256
6
ByLayer
370
18
48
1
60
0
100
AcDbSpline
70
4
71
3
72
12
73
8
40
0
40
0
40
0
40
0
40
0.193311030321318
40
0.193311030321318
40
0.687748278223258
40
0.687748278223258
40
1
40
1
40
1
40
1
41
1
10
-0.294761472052528
20
10.9346867030517
30
0
41
1
10
-0.297966519126248
20
10.9411528460546
30
0
41
1
10
-0.300990091854487
20
10.9475308660965
30
0
41
1
10
-0.311105775139083
20
10.969998681264
30
0
41
1
10
-0.317134123071185
20
10.9856949103867
30
0
41
1
10
-0.323123606525599
20
11.0083488497432
30
0
41
1
10
-0.324519052846767
20
11.0164953468261
30
0
41
1
10
-0.324519052847279
20
11.0233350560103
30
0
0
SPLINE
5
234
100
AcDbEntity
8
SK1
62
256
6
ByLayer
370
18
48
1
60
0
100
AcDbSpline
70
4
71
3
72
14
73
10
40
0
40
0
40
0
40
0
40
0.174165348412026
40
0.174165348412026
40
0.488731550094917
40
0.488731550094917
40
0.951732659959532
40
0.951732659959532
40
1
40
1
40
1
40
1
41
1
10
-0.324519052840287
20
-13.7913823539168
30
0
41
1
10
-0.324519052840117
20
-13.7961558098304
30
0
41
1
10
-0.32326236399183
20
-13.8020977216168
30
0
41
1
10
-0.31719000845851
20
-13.8205661989345
30
0
41
1
10
-0.310274273823268
20
-13.8348073956468
30
0
41
1
10
-0.289342841880114
20
-13.8716120725747
30
0
41
1
10
-0.273140591797983
20
-13.8956873791114
30
0
41
1
10
-0.253358933480229
20
-13.9223407894786
30
0
41
1
10
-0.251449453822317
20
-13.9248884534334
30
0
41
1
10
-0.249519052838309
20
-13.9274395693815
30
0
0
SPLINE
5
235
100
AcDbEntity
8
SK1
62
256
6
ByLayer
370
18
48
1
60
0
100
AcDbSpline
70
4
71
3
72
8
73
4
40
0
40
0
40
0
40
0
40
1
40
1
40
1
40
1
41
1
10
0
20
-13.9355753092867
30
0
41
1
10
-0.083182806918785
20
-13.8660716694145
30
0
41
1
10
-0.166355973154907
20
-13.7965526425918
30
0
41
1
10
-0.249519052838309
20
-13.7270175338474
30
0
0
SPLINE
5
236
100
AcDbEntity
8
SK1
62
256
6
ByLayer
370
18
48
1
60
0
100
AcDbSpline
70
4
71
3
72
16
73
12
40
0
40
0
40
0
40
0
40
0.22253571561892
40
0.22253571561892
40
0.448104736418018
40
0.448104736418018
40
0.676351070427471
40
0.676351070427471
40
0.869758580671089
40
0.869758580671089
40
1
40
1
40
1
40
1
41
1
10
-0.249519052838366
20
-11.1115948256756
30
0
41
1
10
-0.258226755330668
20
-11.1188613108518
30
0
41
1
10
-0.266903698070792
20
-11.1255566695252
30
0
41
1
10
-0.283440235690762
20
-11.1368254195924
30
0
41
1
10
-0.291452567983356
20
-11.141459661865
30
0
41
1
10
-0.305318987363137
20
-11.1472005194737
30
0
41
1
10
-0.311325193165772
20
-11.1483002269251
30
0
41
1
10
-0.319266917193147
20
-11.1464973508985
30
0
41
1
10
-0.321792178573389
20
-11.144171965175
30
0
41
1
10
-0.324089972813454
20
-11.1383666766871
30
0
41
1
10
-0.324519052838468
20
-11.1354933142615
30
0
41
1
10
-0.324519052838468
20
-11.1322329014718
30
0
0
SPLINE
5
237
100
AcDbEntity
8
SK1
62
256
6
ByLayer
370
18
48
1
60
0
100
AcDbSpline
70
4
71
3
72
16
73
12
40
0
40
0
40
0
40
0
40
0.227410137494248
40
0.227410137494248
40
0.457633159158895
40
0.457633159158895
40
0.690406257431545
40
0.690406257431545
40
0.889694003076131
40
0.889694003076131
40
1
40
1
40
1
40
1
41
1
10
-0.249519052838366
20
-13.7270175338474
30
0
41
1
10
-0.258388740504415
20
-13.719601325853
30
0
41
1
10
-0.267222085052993
20
-13.7127693758787
30
0
41
1
10
-0.284002054360087
20
-13.7012774798479
30
0
41
1
10
-0.292104123302636
20
-13.6965527529122
30
0
41
1
10
-0.306039542114547
20
-13.6906349188685
30
0
41
1
10
-0.312024024103778
20
-13.6894390738458
30
0
41
1
10
-0.3198674412385
20
-13.6910001998921
30
0
41
1
10
-0.322303145867579
20
-13.693217262892
30
0
41
1
10
-0.324198844665489
20
-13.6984464266487
30
0
41
1
10
-0.324519052838355
20
-13.7006768393079
30
0
41
1
10
-0.324519052838355
20
-13.7031878080016
30
0
0
SPLINE
5
238
100
AcDbEntity
8
SK1
62
256
6
ByLayer
370
18
48
1
60
0
100
AcDbSpline
70
4
71
3
72
8
73
4
40
0
40
0
40
0
40
0
40
1
40
1
40
1
40
1
41
1
10
-0.249519052838309
20
-13.9274395693815
30
0
41
1
10
-0.166682772670242
20
-14.0369116206157
30
0
41
1
10
-0.0835036428820217
20
-14.1460389125626
30
0
41
1
10
0
20
-14.2548328366489
30
0
0
SPLINE
5
239
100
AcDbEntity
8
SK1
62
256
6
ByLayer
370
18
48
1
60
0
100
AcDbSpline
70
4
71
3
72
12
73
8
40
0
40
0
40
0
40
0
40
0.314884237121294
40
0.314884237121294
40
0.928595027736014
40
0.928595027736014
40
1
40
1
40
1
40
1
41
1
10
-0.324519052847563
20
-11.023335056011
30
0
41
1
10
-0.324519052847109
20
-11.0164569652603
30
0
41
1
10
-0.323107949578627
20
-11.0082573948464
30
0
41
1
10
-0.31621973419476
20
-10.9822999670504
30
0
41
1
10
-0.308130968212197
20
-10.9624562701045
30
0
41
1
10
-0.297241347842032
20
-10.9397463779992
30
0
41
1
10
-0.296084588295003
20
-10.9373738562999
30
0
41
1
10
-0.294903467020447
20
-10.9349895070378
30
0
0
SPLINE
5
23A
100
AcDbEntity
8
SK1
62
256
6
ByLayer
370
18
48
1
60
0
100
AcDbSpline
70
4
71
3
72
8
73
4
40
0
40
0
40
0
40
0
40
1
40
1
40
1
40
1
41
1
10
0
20
12.6668961944433
30
0
41
1
10
-0.0838355637598056
20
12.5325135403374
30
0
41
1
10
-0.167022275036572
20
12.3975876519351
30
0
41
1
10
-0.249519052838309
20
12.2621047787412
30
0
0
SPLINE
5
23B
100
AcDbEntity
8
SK1
62
256
6
ByLayer
370
18
48
1
60
0
100
AcDbSpline
70
4
71
3
72
14
73
10
40
0
40
0
40
0
40
0
40
0.142197558479051
40
0.142197558479051
40
0.357599590411523
40
0.357599590411523
40
0.639435747374543
40
0.639435747374543
40
1
40
1
40
1
40
1
41
1
10
-0.324519052838355
20
14.9996597183625
30
0
41
1
10
-0.324519052838355
20
14.9996031492092
30
0
41
1
10
-0.323799623380694
20
15.0002583841984
30
0
41
1
10
-0.320317597520784
20
15.003567656703
30
0
41
1
10
-0.316634840922404
20
15.0071337884173
30
0
41
1
10
-0.305660318569323
20
15.017840226712
30
0
41
1
10
-0.297469915106603
20
15.025875603209
30
0
41
1
10
-0.276779854221616
20
15.0462487187143
30
0
41
1
10
-0.263411084463769
20
15.059460185851
30
0
41
1
10
-0.249519052838309
20
15.0732309630904
30
0
0
SPLINE
5
23C
100
AcDbEntity
8
SK1
62
256
6
ByLayer
370
18
48
1
60
0
100
AcDbSpline
70
4
71
3
72
8
73
4
40
0
40
0
40
0
40
0
40
1
40
1
40
1
40
1
41
1
10
-0.249519052838309
20
15.0732309630904
30
0
41
1
10
-0.166437562506246
20
15.1555872898627
30
0
41
1
10
-0.0832631335832161
20
15.2378187585574
30
0
41
1
10
0
20
15.3199301304152
30
0
0
SPLINE
5
23D
100
AcDbEntity
8
SK1
62
256
6
ByLayer
370
18
48
1
60
0
100
AcDbSpline
70
4
71
3
72
8
73
4
40
0
40
0
40
0
40
0
40
1
40
1
40
1
40
1
41
1
10
0
20
14.2548328366489
30
0
41
1
10
-0.0835036428820217
20
14.1460389125626
30
0
41
1
10
-0.166682772670242
20
14.0369116206157
30
0
41
1
10
-0.249519052838309
20
13.9274395693815
30
0
0
SPLINE
5
23E
100
AcDbEntity
8
SK1
62
256
6
ByLayer
370
18
48
1
60
0
100
AcDbSpline
70
4
71
3
72
12
73
8
40
0
40
0
40
0
40
0
40
0.508125413902443
40
0.508125413902443
40
0.802151350346818
40
0.802151350346818
40
1
40
1
40
1
40
1
41
1
10
-0.249519052838309
20
-13.2066798735262
30
0
41
1
10
-0.269789778793495
20
-13.1770998994368
30
0
41
1
10
-0.287870685921973
20
-13.1472130055907
30
0
41
1
10
-0.309464028806247
20
-13.103329320023
30
0
41
1
10
-0.316031587124485
20
-13.0876160222289
30
0
41
1
10
-0.322865356476484
20
-13.0642286445772
30
0
41
1
10
-0.324519052847847
20
-13.0554819158447
30
0
41
1
10
-0.324519052848359
20
-13.0481928297782
30
0
0
SPLINE
5
23F
100
AcDbEntity
8
SK1
62
256
6
ByLayer
370
18
48
1
60
0
100
AcDbSpline
70
4
71
3
72
16
73
12
40
0
40
0
40
0
40
0
40
0.142615596449027
40
0.142615596449027
40
0.38179774910211
40
0.38179774910211
40
0.587609184323022
40
0.587609184323022
40
0.772396966615303
40
0.772396966615303
40
1
40
1
40
1
40
1
41
1
10
-0.324519052838639
20
-12.9315214576641
30
0
41
1
10
-0.324519052838639
20
-12.9274732343183
30
0
41
1
10
-0.324041433030459
20
-12.9238103974425
30
0
41
1
10
-0.321248498818591
20
-12.9155907885555
30
0
41
1
10
-0.31779065257706
20
-12.911989979749
30
0
41
1
10
-0.308166178015256
20
-12.9097094576958
30
0
41
1
10
-0.302302379168907
20
-12.9104055763687
30
0
41
1
10
-0.289689753938831
20
-12.9147957755532
30
0
41
1
10
-0.282961881686333
20
-12.9181999646831
30
0
41
1
10
-0.267500098419362
20
-12.9277267899272
30
0
41
1
10
-0.25848376123372
20
-12.934372244745
30
0
41
1
10
-0.249519052838366
20
-12.9417228393875
30
0
0
SPLINE
5
240
100
AcDbEntity
8
SK1
62
256
6
ByLayer
370
18
48
1
60
0
100
AcDbSpline
70
4
71
3
72
16
73
12
40
0
40
0
40
0
40
0
40
0.196100147587216
40
0.196100147587216
40
0.409354987154392
40
0.409354987154392
40
0.624849018925142
40
0.624849018925142
40
0.810522583042967
40
0.810522583042967
40
1
40
1
40
1
40
1
41
1
10
-0.249519052838366
20
12.9417228393875
30
0
41
1
10
-0.25726049810288
20
12.9353752568921
30
0
41
1
10
-0.265024648581971
20
12.9295640238447
30
0
41
1
10
-0.280566359325064
20
12.9194634172342
30
0
41
1
10
-0.288449918839092
20
12.9152705213105
30
0
41
1
10
-0.302305729211355
20
12.9103629099891
30
0
41
1
10
-0.308433757536136
20
12.9096573212646
30
0
41
1
10
-0.316985251021322
20
12.9119087953729
30
0
41
1
10
-0.319920559293564
20
12.9143787612632
30
0
41
1
10
-0.323674756733738
20
12.921463833466
30
0
41
1
10
-0.324519052838411
20
12.9261606664012
30
0
41
1
10
-0.324519052838411
20
12.9315214576646
30
0
0
SPLINE
5
241
100
AcDbEntity
8
SK1
62
256
6
ByLayer
370
18
48
1
60
0
100
AcDbSpline
70
4
71
3
72
8
73
4
40
0
40
0
40
0
40
0
40
1
40
1
40
1
40
1
41
1
10
-0.249519052838309
20
13.2066798735262
30
0
41
1
10
-0.166816582690672
20
13.3273631154338
30
0
41
1
10
-0.0836345631109339
20
13.4476100581886
30
0
41
1
10
0
20
13.5674337735919
30
0
0
SPLINE
5
242
100
AcDbEntity
8
SK1
62
256
6
ByLayer
370
18
48
1
60
0
100
AcDbSpline
70
4
71
3
72
12
73
8
40
0
40
0
40
0
40
0
40
0.187087688269974
40
0.187087688269974
40
0.543083547269604
40
0.543083547269604
40
1
40
1
40
1
40
1
41
1
10
-0.324519052845858
20
13.0481928297802
30
0
41
1
10
-0.324519052845517
20
13.0550913094343
30
0
41
1
10
-0.323037459116108
20
13.0632955960149
30
0
41
1
10
-0.315844641563785
20
13.0888309660212
30
0
41
1
10
-0.307479345206332
20
13.1081176603183
30
0
41
1
10
-0.284228540325216
20
13.1531780620142
30
0
41
1
10
-0.267786879797484
20
13.1800226216194
30
0
41
1
10
-0.249519052838309
20
13.2066798735262
30
0
0
SPLINE
5
243
100
AcDbEntity
8
SK1
62
256
6
ByLayer
370
18
48
1
60
0
100
AcDbSpline
70
4
71
3
72
8
73
4
40
0
40
0
40
0
40
0
40
1
40
1
40
1
40
1
41
1
10
0
20
13.1463021112708
30
0
41
1
10
-0.0831748117722668
20
13.0781119384452
30
0
41
1
10
-0.166347857745961
20
13.009918893748
30
0
41
1
10
-0.249519052838309
20
12.9417228393876
30
0
0
SPLINE
5
244
100
AcDbEntity
8
SK1
62
256
6
ByLayer
370
18
48
1
60
0
100
AcDbSpline
70
4
71
3
72
8
73
4
40
0
40
0
40
0
40
0
40
1
40
1
40
1
40
1
41
1
10
-0.249519052838309
20
8.81247576350941
30
0
41
1
10
-0.166423399330142
20
8.88803727414282
30
0
41
1
10
-0.0832484707354411
20
8.96348267082536
30
0
41
1
10
0
20
9.03881956899238
30
0
0
SPLINE
5
245
100
AcDbEntity
8
SK1
62
256
6
ByLayer
370
18
48
1
60
0
100
AcDbSpline
70
4
71
3
72
8
73
4
40
0
40
0
40
0
40
0
40
1
40
1
40
1
40
1
41
1
10
0
20
9.98500171260872
30
0
41
1
10
-0.0848234304747848
20
9.79780220239837
30
0
41
1
10
-0.168035290451201
20
9.6096158622241
30
0
41
1
10
-0.249519052838309
20
9.42044872874334
30
0
0
SPLINE
5
246
100
AcDbEntity
8
SK1
62
256
6
ByLayer
370
18
48
1
60
0
100
AcDbSpline
70
4
71
3
72
8
73
4
40
0
40
0
40
0
40
0
40
1
40
1
40
1
40
1
41
1
10
0
20
-9.03881956899238
30
0
41
1
10
-0.0832484707354411
20
-8.96348267082536
30
0
41
1
10
-0.166423399330142
20
-8.88803727414282
30
0
41
1
10
-0.249519052838309
20
-8.81247576350941
30
0
0
SPLINE
5
247
100
AcDbEntity
8
SK1
62
256
6
ByLayer
370
18
48
1
60
0
100
AcDbSpline
70
4
71
3
72
12
73
8
40
0
40
0
40
0
40
0
40
0.270484536940596
40
0.270484536940596
40
0.937427070528407
40
0.937427070528407
40
1
40
1
40
1
40
1
41
1
10
-0.324519052838298
20
-9.1331628036117
30
0
41
1
10
-0.324519052838241
20
-9.15662389101993
30
0
41
1
10
-0.321431965764134
20
-9.1819609628343
30
0
41
1
10
-0.305259255733063
20
-9.27044162478353
30
0
41
1
10
-0.284044475433234
20
-9.33694265823081
30
0
41
1
10
-0.254764371834767
20
-9.40813112531038
30
0
41
1
10
-0.252170482870554
20
-9.41429335000129
30
0
41
1
10
-0.249519052838309
20
-9.42044872874334
30
0
0
SPLINE
5
248
100
AcDbEntity
8
SK1
62
256
6
ByLayer
370
18
48
1
60
0
100
AcDbSpline
70
4
71
3
72
8
73
4
40
0
40
0
40
0
40
0
40
1
40
1
40
1
40
1
41
1
10
-0.249519052838309
20
-9.42044872874334
30
0
41
1
10
-0.168035290451201
20
-9.6096158622241
30
0
41
1
10
-0.0848234304747848
20
-9.79780220239837
30
0
41
1
10
0
20
-9.98500171260872
30
0
0
SPLINE
5
249
100
AcDbEntity
8
SK1
62
256
6
ByLayer
370
18
48
1
60
0
100
AcDbSpline
70
4
71
3
72
20
73
16
40
0
40
0
40
0
40
0
40
0.0875735574961561
40
0.0875735574961561
40
0.23748819442498
40
0.23748819442498
40
0.349380795322352
40
0.349380795322352
40
0.460973491781708
40
0.460973491781708
40
0.623052529517421
40
0.623052529517421
40
0.903399478576431
40
0.903399478576431
40
1
40
1
40
1
40
1
41
1
10
-0.249519052838082
20
-8.81247576350845
30
0
41
1
10
-0.253304514101274
20
-8.8090335236389
30
0
41
1
10
-0.257173009249243
20
-8.8058213446601
30
0
41
1
10
-0.26770588203533
20
-8.79813142703543
30
0
41
1
10
-0.274608643634565
20
-8.79425975834013
30
0
41
1
10
-0.285979747086969
20
-8.79074742120073
30
0
41
1
10
-0.290726291566955
20
-8.79027798160379
30
0
41
1
10
-0.299136566676395
20
-8.79159999912326
30
0
41
1
10
-0.302902380842909
20
-8.79338659480695
30
0
41
1
10
-0.310649601935097
20
-8.79972753539903
30
0
41
1
10
-0.314131198109919
20
-8.80520772514336
30
0
41
1
10
-0.321186149396169
20
-8.82216817274607
30
0
41
1
10
-0.32327358221545
20
-8.83535487005767
30
0
41
1
10
-0.324388445962427
20
-8.85386883373292
30
0
41
1
10
-0.324519052838866
20
-8.85874125227204
30
0
41
1
10
-0.324519052838866
20
-8.86368549397255
30
0
0
SPLINE
5
24A
100
AcDbEntity
8
SK1
62
256
6
ByLayer
370
18
48
1
60
0
100
AcDbSpline
70
4
71
3
72
20
73
16
40
0
40
0
40
0
40
0
40
0.278916696808843
40
0.278916696808843
40
0.430775456755833
40
0.430775456755833
40
0.584791538830682
40
0.584791538830682
40
0.697662414697189
40
0.697662414697189
40
0.810525316853762
40
0.810525316853762
40
0.962008496048587
40
0.962008496048587
40
1
40
1
40
1
40
1
41
1
10
-0.324519052838355
20
8.86368549397287
30
0
41
1
10
-0.324519052838355
20
8.84951825767013
30
0
41
1
10
-0.323488803138503
20
8.8357913182659
30
0
41
1
10
-0.31901954862559
20
8.81701876215411
30
0
41
1
10
-0.316846164076878
20
8.81079728184002
30
0
41
1
10
-0.310836396571688
20
8.8002319537184
30
0
41
1
10
-0.306880052762153
20
8.7958153308613
30
0
41
1
10
-0.298296049091107
20
8.79134031734102
30
0
41
1
10
-0.294030867298318
20
8.79042535432404
30
0
41
1
10
-0.284842870078933
20
8.79094270208469
30
0
41
1
10
-0.279817333239293
20
8.79237568903289
30
0
41
1
10
-0.268049181094114
20
8.79782673815956
30
0
41
1
10
-0.261125998125635
20
8.80258900206155
30
0
41
1
10
-0.25283317771823
20
8.80952020215403
30
0
41
1
10
-0.251169073035044
20
8.81097534786335
30
0
41
1
10
-0.249519052838309
20
8.81247576350935
30
0
0
SPLINE
5
24B
100
AcDbEntity
8
SK1
62
256
6
ByLayer
370
18
48
1
60
0
100
AcDbSpline
70
4
71
3
72
10
73
6
40
0
40
0
40
0
40
0
40
0.723732362008855
40
0.723732362008855
40
1
40
1
40
1
40
1
41
1
10
-0.24951905283848
20
9.42044872874331
30
0
41
1
10
-0.279825998467914
20
9.35009019519836
30
0
41
1
10
-0.303722292690395
20
9.27767388060064
30
0
41
1
10
-0.321285411184021
20
9.18319404200969
30
0
41
1
10
-0.324519052838298
20
9.15719647951528
30
0
41
1
10
-0.324519052838298
20
9.13316280361067
30
0
0
SPLINE
5
24C
100
AcDbEntity
8
SK1
62
256
6
ByLayer
370
18
48
1
60
0
100
AcDbSpline
70
4
71
3
72
12
73
8
40
0
40
0
40
0
40
0
40
0.212431548930915
40
0.212431548930915
40
0.70611465466542
40
0.70611465466542
40
1
40
1
40
1
40
1
41
1
10
-0.324519052838355
20
10.8102522591258
30
0
41
1
10
-0.324519052838355
20
10.8237933180614
30
0
41
1
10
-0.322581237104544
20
10.8387445506322
30
0
41
1
10
-0.312338569200506
20
10.8897031589326
30
0
41
1
10
-0.299001977283069
20
10.928422604424
30
0
41
1
10
-0.272775499936984
20
10.9899767356336
30
0
41
1
10
-0.261676656988982
20
11.0132582111472
30
0
41
1
10
-0.249519052838309
20
11.0363958758218
30
0
0
SPLINE
5
24D
100
AcDbEntity
8
SK1
62
256
6
ByLayer
370
18
48
1
60
0
100
AcDbSpline
70
4
71
3
72
8
73
4
40
0
40
0
40
0
40
0
40
1
40
1
40
1
40
1
41
1
10
0
20
10.7970023247567
30
0
41
1
10
-0.0831872444597366
20
10.7273072321293
30
0
41
1
10
-0.16636054285425
20
10.6575899389726
30
0
41
1
10
-0.249519052838309
20
10.58784913972
30
0
0
SPLINE
5
24E
100
AcDbEntity
8
SK1
62
256
6
ByLayer
370
18
48
1
60
0
100
AcDbSpline
70
4
71
3
72
8
73
4
40
0
40
0
40
0
40
0
40
1
40
1
40
1
40
1
41
1
10
-0.134718740348489
20
9.66508010295945
30
0
41
1
10
-0.170783341757215
20
9.76644071174252
30
0
41
1
10
-0.209141129552279
20
9.86676496459876
30
0
41
1
10
-0.249519052838139
20
9.96605046147951
30
0
0
SPLINE
5
24F
100
AcDbEntity
8
SK1
62
256
6
ByLayer
370
18
48
1
60
0
100
AcDbSpline
70
4
71
3
72
8
73
4
40
0
40
0
40
0
40
0
40
1
40
1
40
1
40
1
41
1
10
-0.249519052838309
20
11.0363958758218
30
0
41
1
10
-0.167367184647219
20
11.1927426654551
30
0
41
1
10
-0.0841721835889757
20
11.3483643383457
30
0
41
1
10
0
20
11.5032716737805
30
0
0
SPLINE
5
250
100
AcDbEntity
8
SK1
62
256
6
ByLayer
370
18
48
1
60
0
100
AcDbSpline
70
4
71
3
72
10
73
6
40
0
40
0
40
0
40
0
40
0.771448759596746
40
0.771448759596746
40
1
40
1
40
1
40
1
41
1
10
-0.249519052838366
20
9.96605046147945
30
0
41
1
10
-0.279803349716474
20
10.0405166850627
30
0
41
1
10
-0.305554542497305
20
10.117072721932
30
0
41
1
10
-0.321972400803247
20
10.207615929244
30
0
41
1
10
-0.324519052838241
20
10.2281344916218
30
0
41
1
10
-0.324519052838298
20
10.2467676740938
30
0
0
SPLINE
5
251
100
AcDbEntity
8
SK1
62
256
6
ByLayer
370
18
48
1
60
0
100
AcDbSpline
70
4
71
3
72
18
73
14
40
0
40
0
40
0
40
0
40
0.127052080585149
40
0.127052080585149
40
0.319569314460832
40
0.319569314460832
40
0.490217246958554
40
0.490217246958554
40
0.633743959765428
40
0.633743959765428
40
0.862973293405222
40
0.862973293405222
40
1
40
1
40
1
40
1
41
1
10
-0.249519052838309
20
10.5878491397196
30
0
41
1
10
-0.254766442314633
20
10.583448421908
30
0
41
1
10
-0.260098868023988
20
10.5794070927941
30
0
41
1
10
-0.273338356676561
20
10.5707735848154
30
0
41
1
10
-0.281409747363568
20
10.5668516528445
30
0
41
1
10
-0.295038068287795
20
10.5636319258971
30
0
41
1
10
-0.300944861810422
20
10.5638603498571
30
0
41
1
10
-0.309730295763018
20
10.5673766084077
30
0
41
1
10
-0.313061948872928
20
10.5701804169476
30
0
41
1
10
-0.319787163767558
20
10.5794620657242
30
0
41
1
10
-0.322215116447182
20
10.5872237714033
30
0
41
1
10
-0.324193351245753
20
10.6009462123775
30
0
41
1
10
-0.324519052839889
20
10.6064497770576
30
0
41
1
10
-0.324519052839833
20
10.61216421977
30
0
0
SPLINE
5
252
100
AcDbEntity
8
SK1
62
256
6
ByLayer
370
18
48
1
60
0
100
AcDbSpline
70
4
71
3
72
8
73
4
40
0
40
0
40
0
40
0
40
1
40
1
40
1
40
1
41
1
10
-0.249519052838309
20
-9.96605046147945
30
0
41
1
10
-0.208680207420173
20
-9.86563160064117
30
0
41
1
10
-0.170054795711167
20
-9.76452135608349
30
0
41
1
10
-0.133851890831579
20
-9.66265442214535
30
0
0
SPLINE
5
253
100
AcDbEntity
8
SK1
62
256
6
ByLayer
370
18
48
1
60
0
100
AcDbSpline
70
4
71
3
72
8
73
4
40
0
40
0
40
0
40
0
40
1
40
1
40
1
40
1
41
1
10
0
20
-11.5032716737805
30
0
41
1
10
-0.0841721835889757
20
-11.3483643383457
30
0
41
1
10
-0.167367184647219
20
-11.1927426654551
30
0
41
1
10
-0.249519052838309
20
-11.0363958758218
30
0
0
SPLINE
5
254
100
AcDbEntity
8
SK1
62
256
6
ByLayer
370
18
48
1
60
0
100
AcDbSpline
70
4
71
3
72
12
73
8
40
0
40
0
40
0
40
0
40
0.175722096897635
40
0.175722096897635
40
0.687093652631205
40
0.687093652631205
40
1
40
1
40
1
40
1
41
1
10
-0.324519052838298
20
-10.2467676740947
30
0
41
1
10
-0.324519052838298
20
-10.232526265348
30
0
41
1
10
-0.323008678484484
20
-10.2171641642495
30
0
41
1
10
-0.313763984434161
20
-10.1559273570223
30
0
41
1
10
-0.299919129425746
20
-10.1065107052185
30
0
41
1
10
-0.273289902446493
20
-10.0270752285622
30
0
41
1
10
-0.26191128954764
20
-9.99652180024631
30
0
41
1
10
-0.249519052838309
20
-9.96605046147945
30
0
0
SPLINE
5
255
100
AcDbEntity
8
SK1
62
256
6
ByLayer
370
18
48
1
60
0
100
AcDbSpline
70
4
71
3
72
12
73
8
40
0
40
0
40
0
40
0
40
0.490369879866985
40
0.490369879866985
40
0.864056985717725
40
0.864056985717725
40
1
40
1
40
1
40
1
41
1
10
-0.249519052838309
20
-11.0363958758218
30
0
41
1
10
-0.269696901042153
20
-10.9979945362315
30
0
41
1
10
-0.287094888376998
20
-10.9590328574442
30
0
41
1
10
-0.310553980891655
20
-10.8925672197375
30
0
41
1
10
-0.318544372155884
20
-10.8639838927524
30
0
41
1
10
-0.323709156884831
20
-10.8282419013268
30
0
41
1
10
-0.324519052846085
20
-10.8189524177293
30
0
41
1
10
-0.324519052846426
20
-10.8102522591203
30
0
0
SPLINE
5
256
100
AcDbEntity
8
SK1
62
256
6
ByLayer
370
18
48
1
60
0
100
AcDbSpline
70
4
71
3
72
8
73
4
40
0
40
0
40
0
40
0
40
1
40
1
40
1
40
1
41
1
10
-0.249519052838309
20
-10.58784913972
30
0
41
1
10
-0.16636054285425
20
-10.6575899389726
30
0
41
1
10
-0.0831872444597366
20
-10.7273072321293
30
0
41
1
10
0
20
-10.7970023247566
30
0
0
SPLINE
5
257
100
AcDbEntity
8
SK1
62
256
6
ByLayer
370
18
48
1
60
0
100
AcDbSpline
70
4
71
3
72
18
73
14
40
0
40
0
40
0
40
0
40
0.210398209501943
40
0.210398209501943
40
0.399960818490153
40
0.399960818490153
40
0.555256285136208
40
0.555256285136208
40
0.711544231937025
40
0.711544231937025
40
0.855214949515753
40
0.855214949515753
40
1
40
1
40
1
40
1
41
1
10
-0.324519052845801
20
-10.612164219765
30
0
41
1
10
-0.324519052846085
20
-10.6034427622157
30
0
41
1
10
-0.323764237921296
20
-10.5951758011171
30
0
41
1
10
-0.320226547111929
20
-10.5814131445702
30
0
41
1
10
-0.317596931922594
20
-10.5756308218612
30
0
41
1
10
-0.310612750599773
20
-10.567977069954
30
0
41
1
10
-0.306562294991409
20
-10.5655501660555
30
0
41
1
10
-0.296924649598225
20
-10.5636502431269
30
0
41
1
10
-0.291192977507478
20
-10.5641938016068
30
0
41
1
10
-0.279544582363769
20
-10.5678905010755
30
0
41
1
10
-0.273559252505606
20
-10.5708425954924
30
0
41
1
10
-0.261580748634799
20
-10.578292507821
30
0
41
1
10
-0.255490810248489
20
-10.5828409314817
30
0
41
1
10
-0.249519052838309
20
-10.5878491397194
30
0
0
SPLINE
5
258
100
AcDbEntity
8
SK1
62
256
6
ByLayer
370
18
48
1
60
0
100
AcDbSpline
70
4
71
3
72
8
73
4
40
0
40
0
40
0
40
0
40
1
40
1
40
1
40
1
41
1
10
0
20
-15.2831691478176
30
0
41
1
10
-0.083299862678416
20
-15.1961037513836
30
0
41
1
10
-0.166474933778943
20
-15.1088788736801
30
0
41
1
10
-0.249519052838309
20
-15.0214883413626
30
0
0
SPLINE
5
259
100
AcDbEntity
8
SK1
62
256
6
ByLayer
370
18
48
1
60
0
100
AcDbSpline
70
4
71
3
72
8
73
4
40
0
40
0
40
0
40
0
40
1
40
1
40
1
40
1
41
1
10
-0.249519052838309
20
-14.9752953674924
30
0
41
1
10
-0.166408710993608
20
-15.0534127820965
30
0
41
1
10
-0.0832347511397984
20
-15.1314400306485
30
0
41
1
10
0
20
-15.2093806317287
30
0
0
SPLINE
5
25A
100
AcDbEntity
8
SK1
62
256
6
ByLayer
370
18
48
1
60
0
100
AcDbSpline
70
4
71
3
72
14
73
10
40
0
40
0
40
0
40
0
40
0.353259729422487
40
0.353259729422487
40
0.641057242873595
40
0.641057242873595
40
0.872232887600009
40
0.872232887600009
40
1
40
1
40
1
40
1
41
1
10
-0.249519052838309
20
-15.0214883413626
30
0
41
1
10
-0.263196903462187
20
-15.0070946111321
30
0
41
1
10
-0.276248266996561
20
-14.9931084157857
30
0
41
1
10
-0.296906506240134
20
-14.9703142515366
30
0
41
1
10
-0.305248524971489
20
-14.9608281744123
30
0
41
1
10
-0.316735087259644
20
-14.946980342793
30
0
41
1
10
-0.320665072143583
20
-14.9418651848828
30
0
41
1
10
-0.323909376843005
20
-14.9366772312573
30
0
41
1
10
-0.324519052838355
20
-14.9353467830334
30
0
41
1
10
-0.324519052838355
20
-14.9346208709157
30
0
0
SPLINE
5
25B
100
AcDbEntity
8
SK1
62
256
6
ByLayer
370
18
48
1
60
0
100
AcDbSpline
70
4
71
3
72
16
73
12
40
0
40
0
40
0
40
0
40
0.137827430107147
40
0.137827430107147
40
0.352447650398417
40
0.352447650398417
40
0.567711236697166
40
0.567711236697166
40
0.898592109368094
40
0.898592109368094
40
1
40
1
40
1
40
1
41
1
10
-0.324519052838298
20
-14.9143113409684
30
0
41
1
10
-0.324519052838298
20
-14.9134644364433
30
0
41
1
10
-0.32388483853822
20
-14.9132363890929
30
0
41
1
10
-0.320682977948024
20
-14.9142790123793
30
0
41
1
10
-0.317167287329824
20
-14.9164947177628
30
0
41
1
10
-0.307857527727094
20
-14.9234299356434
30
0
41
1
10
-0.301970627393473
20
-14.9282145691655
30
0
41
1
10
-0.285383924931239
20
-14.9423519232924
30
0
41
1
10
-0.273542977885995
20
-14.9529822438002
30
0
41
1
10
-0.257360189935469
20
-14.9679526522022
30
0
41
1
10
-0.253463251144979
20
-14.971588120385
30
0
41
1
10
-0.249519052838309
20
-14.9752953674924
30
0
0
SPLINE
5
25C
100
AcDbEntity
8
SK1
62
256
6
ByLayer
370
18
48
1
60
0
100
AcDbSpline
70
4
71
3
72
14
73
10
40
0
40
0
40
0
40
0
40
0.379749037944836
40
0.379749037944836
40
0.629409369090561
40
0.629409369090561
40
0.882066871181053
40
0.882066871181053
40
1
40
1
40
1
40
1
41
1
10
-0.249519052838309
20
14.9752953674924
30
0
41
1
10
-0.264088234704047
20
14.9616014421037
30
0
41
1
10
-0.278242718197589
20
14.9486766627542
30
0
41
1
10
-0.298334409923484
20
14.9312266927151
30
0
41
1
10
-0.305587494260692
20
14.925211097021
30
0
41
1
10
-0.316943823867518
20
14.9165892041889
30
0
41
1
10
-0.321138923551416
20
14.9139384724717
30
0
41
1
10
-0.324050007382994
20
14.9133093678691
30
0
41
1
10
-0.324519052838298
20
14.913581251632
30
0
41
1
10
-0.324519052838298
20
14.9143113409685
30
0
0
SPLINE
5
25D
100
AcDbEntity
8
SK1
62
256
6
ByLayer
370
18
48
1
60
0
100
AcDbSpline
70
4
71
3
72
8
73
4
40
0
40
0
40
0
40
0
40
1
40
1
40
1
40
1
41
1
10
-0.249519052838309
20
15.0214883413626
30
0
41
1
10
-0.166474933778943
20
15.1088788736801
30
0
41
1
10
-0.083299862678416
20
15.1961037513836
30
0
41
1
10
0
20
15.2831691478176
30
0
0
SPLINE
5
25E
100
AcDbEntity
8
SK1
62
256
6
ByLayer
370
18
48
1
60
0
100
AcDbSpline
70
4
71
3
72
14
73
10
40
0
40
0
40
0
40
0
40
0.14830936637492
40
0.14830936637492
40
0.366897291757177
40
0.366897291757177
40
0.67741047833544
40
0.67741047833544
40
1
40
1
40
1
40
1
41
1
10
-0.324519052838355
20
14.9346208709158
30
0
41
1
10
-0.324519052838298
20
14.9354609124318
30
0
41
1
10
-0.323698879802805
20
14.9371147512223
30
0
41
1
10
-0.319894680546895
20
14.9428834093099
30
0
41
1
10
-0.316017940685242
20
14.9478669879496
30
0
41
1
10
-0.304122719378085
20
14.9621511471413
30
0
41
1
10
-0.294894654515076
20
14.972586861181
30
0
41
1
10
-0.274005754922484
20
14.995509434347
30
0
41
1
10
-0.26203309396027
20
15.0083193327985
30
0
41
1
10
-0.249519052838309
20
15.0214883413626
30
0
0
SPLINE
5
25F
100
AcDbEntity
8
SK1
62
256
6
ByLayer
370
18
48
1
60
0
100
AcDbSpline
70
4
71
3
72
8
73
4
40
0
40
0
40
0
40
0
40
1
40
1
40
1
40
1
41
1
10
0
20
15.2093806317287
30
0
41
1
10
-0.0832347511397984
20
15.1314400306485
30
0
41
1
10
-0.166408710993608
20
15.0534127820965
30
0
41
1
10
-0.249519052838309
20
14.9752953674924
30
0
0
SPLINE
5
260
100
AcDbEntity
8
SK1
62
256
6
ByLayer
370
18
48
1
60
0
100
AcDbSpline
70
4
71
3
72
14
73
10
40
0
40
0
40
0
40
0
40
0.337109269041112
40
0.337109269041112
40
0.647309439234683
40
0.647309439234683
40
0.886158899753204
40
0.886158899753204
40
1
40
1
40
1
40
1
41
1
10
-0.249519052838309
20
14.8184996647002
30
0
41
1
10
-0.262661157197215
20
14.8037122206232
30
0
41
1
10
-0.275115549992677
20
14.7891913808135
30
0
41
1
10
-0.296145669201167
20
14.7633570200463
30
0
41
1
10
-0.305143090422121
20
14.7516363101519
30
0
41
1
10
-0.317115972984993
20
14.7341827975658
30
0
41
1
10
-0.321084785525102
20
14.7275497096624
30
0
41
1
10
-0.324014177429035
20
14.7204810991582
30
0
41
1
10
-0.324519052838298
20
14.7185933520953
30
0
41
1
10
-0.324519052838298
20
14.717201141838
30
0
0
SPLINE
5
261
100
AcDbEntity
8
SK1
62
256
6
ByLayer
370
18
48
1
60
0
100
AcDbSpline
70
4
71
3
72
8
73
4
40
0
40
0
40
0
40
0
40
1
40
1
40
1
40
1
41
1
10
0
20
15.0980216982492
30
0
41
1
10
-0.0833481825888498
20
15.0050566253247
30
0
41
1
10
-0.166524149326051
20
14.9118852033362
30
0
41
1
10
-0.249519052838309
20
14.8184996647002
30
0
0
SPLINE
5
262
100
AcDbEntity
8
SK1
62
256
6
ByLayer
370
18
48
1
60
0
100
AcDbSpline
70
4
71
3
72
16
73
12
40
0
40
0
40
0
40
0
40
0.134462324827228
40
0.134462324827228
40
0.349537081892497
40
0.349537081892497
40
0.557949549492595
40
0.557949549492595
40
0.855748428234958
40
0.855748428234958
40
1
40
1
40
1
40
1
41
1
10
-0.324519052838355
20
14.6759522309122
30
0
41
1
10
-0.324519052838355
20
14.6743787834192
30
0
41
1
10
-0.323955191633274
20
14.6733418618032
30
0
41
1
10
-0.32098882742622
20
14.6722246617154
30
0
41
1
10
-0.317609777764858
20
14.673108731023
30
0
41
1
10
-0.308591707068899
20
14.6776622150333
30
0
41
1
10
-0.302938342605728
20
14.6812780095072
30
0
41
1
10
-0.287616734026699
20
14.6922959250361
30
0
41
1
10
-0.27704293745569
20
14.7007970790349
30
0
41
1
10
-0.260656566707326
20
14.7148095834637
30
0
41
1
10
-0.255124730107695
20
14.7196663896845
30
0
41
1
10
-0.249519052838309
20
14.7246952776827
30
0
0
SPLINE
5
263
100
AcDbEntity
8
SK1
62
256
6
ByLayer
370
18
48
1
60
0
100
AcDbSpline
70
4
71
3
72
8
73
4
40
0
40
0
40
0
40
0
40
1
40
1
40
1
40
1
41
1
10
-0.249519052838309
20
14.7246952776827
30
0
41
1
10
-0.166386250755409
20
14.7992742322957
30
0
41
1
10
-0.0832126381486091
20
14.873792568142
30
0
41
1
10
0
20
14.9482527139731
30
0
0
SPLINE
5
264
100
AcDbEntity
8
SK1
62
256
6
ByLayer
370
18
48
1
60
0
100
AcDbSpline
70
4
71
3
72
8
73
4
40
0
40
0
40
0
40
0
40
1
40
1
40
1
40
1
41
1
10
0
20
-14.9482527139731
30
0
41
1
10
-0.0832126381486091
20
-14.873792568142
30
0
41
1
10
-0.166386250755409
20
-14.7992742322958
30
0
41
1
10
-0.249519052838309
20
-14.7246952776827
30
0
0
SPLINE
5
265
100
AcDbEntity
8
SK1
62
256
6
ByLayer
370
18
48
1
60
0
100
AcDbSpline
70
4
71
3
72
14
73
10
40
0
40
0
40
0
40
0
40
0.155554913642683
40
0.155554913642683
40
0.378748716517054
40
0.378748716517054
40
0.722777278320126
40
0.722777278320126
40
1
40
1
40
1
40
1
41
1
10
-0.324519052838355
20
-14.7172011418378
30
0
41
1
10
-0.324519052838355
20
-14.7190929925243
30
0
41
1
10
-0.323579933841131
20
-14.7219087503525
30
0
41
1
10
-0.319405748850727
20
-14.7304330002503
30
0
41
1
10
-0.315303874640222
20
-14.736960537962
30
0
41
1
10
-0.302289076154921
20
-14.7555151639997
30
0
41
1
10
-0.291797813149003
20
-14.7688997437627
30
0
41
1
10
-0.270712621683913
20
-14.794307705497
30
0
41
1
10
-0.260359731626068
20
-14.8063017756139
30
0
41
1
10
-0.249519052838309
20
-14.8184996647002
30
0
0
SPLINE
5
266
100
AcDbEntity
8
SK1
62
256
6
ByLayer
370
18
48
1
60
0
100
AcDbSpline
70
4
71
3
72
16
73
12
40
0
40
0
40
0
40
0
40
0.286108909194795
40
0.286108909194795
40
0.542446162381876
40
0.542446162381876
40
0.759331366824669
40
0.759331366824669
40
0.976947344236109
40
0.976947344236109
40
1
40
1
40
1
40
1
41
1
10
-0.249519052838309
20
-14.7246952776827
30
0
41
1
10
-0.260552982423803
20
-14.7147966707172
30
0
41
1
10
-0.271374661684831
20
-14.7055016080175
30
0
41
1
10
-0.290115201429387
20
-14.6904604296736
30
0
41
1
10
-0.298390779270619
20
-14.6843207165806
30
0
41
1
10
-0.310926001379926
20
-14.6763033399035
30
0
41
1
10
-0.315718360223229
20
-14.6738568603638
30
0
41
1
10
-0.322300125587958
20
-14.6721785277975
30
0
41
1
10
-0.324155545952578
20
-14.6729454221859
30
0
41
1
10
-0.324502350243108
20
-14.6754223156877
30
0
41
1
10
-0.324519052838355
20
-14.6756792100424
30
0
41
1
10
-0.324519052838355
20
-14.6759522309123
30
0
0
SPLINE
5
267
100
AcDbEntity
8
SK1
62
256
6
ByLayer
370
18
48
1
60
0
100
AcDbSpline
70
4
71
3
72
8
73
4
40
0
40
0
40
0
40
0
40
1
40
1
40
1
40
1
41
1
10
-0.249519052838309
20
-14.8184996647002
30
0
41
1
10
-0.166524149326051
20
-14.9118852033362
30
0
41
1
10
-0.0833481825888498
20
-15.0050566253247
30
0
41
1
10
0
20
-15.0980216982492
30
0
0
SPLINE
5
268
100
AcDbEntity
8
SK1
62
256
6
ByLayer
370
18
48
1
60
0
100
AcDbSpline
70
4
71
3
72
20
73
16
40
0
40
0
40
0
40
0
40
0.292462833819564
40
0.292462833819564
40
0.439228436403266
40
0.439228436403266
40
0.588043259331042
40
0.588043259331042
40
0.692660210694212
40
0.692660210694212
40
0.797538049280218
40
0.797538049280218
40
0.928065146414678
40
0.928065146414678
40
1
40
1
40
1
40
1
41
1
10
-0.324519052838298
20
-9.77023188350532
30
0
41
1
10
-0.324519052838298
20
-9.78642911355561
30
0
41
1
10
-0.323553397689807
20
-9.80220743814087
30
0
41
1
10
-0.319133463973913
20
-9.82339031094898
30
0
41
1
10
-0.317114259665004
20
-9.83011995521008
30
0
41
1
10
-0.311491062900075
20
-9.84183607151891
30
0
41
1
10
-0.307780064998781
20
-9.84691496766376
30
0
41
1
10
-0.299689355908356
20
-9.8524666676515
30
0
41
1
10
-0.295741656639393
20
-9.85387340024545
30
0
41
1
10
-0.287109877823013
20
-9.85436666391325
30
0
41
1
10
-0.282321516564821
20
-9.85344961700247
30
0
41
1
10
-0.271491677339725
20
-9.84923779952027
30
0
41
1
10
-0.265272395610168
20
-9.8454020239374
30
0
41
1
10
-0.255994714285919
20
-9.8382383519878
30
0
41
1
10
-0.252723617515699
20
-9.83542366691546
30
0
41
1
10
-0.249519052837911
20
-9.83243528516005
30
0
0
SPLINE
5
269
100
AcDbEntity
8
SK1
62
256
6
ByLayer
370
18
48
1
60
0
100
AcDbSpline
70
4
71
3
72
8
73
4
40
0
40
0
40
0
40
0
40
1
40
1
40
1
40
1
41
1
10
-0.312448454854007
20
-9.2416271788247
30
0
41
1
10
-0.319601151491952
20
-9.29718482087242
30
0
41
1
10
-0.324519052838298
20
-9.35189911084152
30
0
41
1
10
-0.324519052838355
20
-9.4040385971507
30
0
0
SPLINE
5
26A
100
AcDbEntity
8
SK1
62
256
6
ByLayer
370
18
48
1
60
0
100
AcDbSpline
70
4
71
3
72
16
73
12
40
0
40
0
40
0
40
0
40
0.133035841363271
40
0.133035841363271
40
0.351038823774631
40
0.351038823774631
40
0.555790945797345
40
0.555790945797345
40
0.823364489376618
40
0.823364489376618
40
1
40
1
40
1
40
1
41
1
10
-0.324519052838355
20
-14.2769207111578
30
0
41
1
10
-0.324519052838298
20
-14.2746355096576
30
0
41
1
10
-0.324009175663946
20
-14.2728175035338
30
0
41
1
10
-0.321219664775526
20
-14.2695537068289
30
0
41
1
10
-0.317931197261373
20
-14.2690769904431
30
0
41
1
10
-0.309033942563019
20
-14.2713377411316
30
0
41
1
10
-0.303483642295248
20
-14.2738952150488
30
0
41
1
10
-0.289112752667052
20
-14.2823074839012
30
0
41
1
10
-0.279612210500602
20
-14.2890241874931
30
0
41
1
10
-0.263193476623201
20
-14.3018625561671
30
0
41
1
10
-0.256393307324345
20
-14.3074861480688
30
0
41
1
10
-0.249519052838309
20
-14.3134143619746
30
0
0
SPLINE
5
26B
100
AcDbEntity
8
SK1
62
256
6
ByLayer
370
18
48
1
60
0
100
AcDbSpline
70
4
71
3
72
14
73
10
40
0
40
0
40
0
40
0
40
0.433239542040563
40
0.433239542040563
40
0.728886336218938
40
0.728886336218938
40
0.958485328182054
40
0.958485328182054
40
1
40
1
40
1
40
1
41
1
10
-0.249519052838309
20
-14.4578958578262
30
0
41
1
10
-0.266462621028438
20
-14.4373405963682
30
0
41
1
10
-0.282179847961629
20
-14.4169469663585
30
0
41
1
10
-0.303785687109496
20
-14.3856776828023
30
0
41
1
10
-0.311371182329026
20
-14.3735740653659
30
0
41
1
10
-0.320775835178097
20
-14.3552941165774
30
0
41
1
10
-0.32356188803999
20
-14.3482480353127
30
0
41
1
10
-0.324448687844665
20
-14.3421646298122
30
0
41
1
10
-0.324519052838355
20
-14.3412844853204
30
0
41
1
10
-0.324519052838355
20
-14.3404713430431
30
0
0
SPLINE
5
26C
100
AcDbEntity
8
SK1
62
256
6
ByLayer
370
18
48
1
60
0
100
AcDbSpline
70
4
71
3
72
8
73
4
40
0
40
0
40
0
40
0
40
1
40
1
40
1
40
1
41
1
10
0
20
-14.75890440381
30
0
41
1
10
-0.0834132517077819
20
-14.658834479182
30
0
41
1
10
-0.166590497630466
20
-14.5585014749848
30
0
41
1
10
-0.249519052838309
20
-14.4578958578262
30
0
0
SPLINE
5
26D
100
AcDbEntity
8
SK1
62
256
6
ByLayer
370
18
48
1
60
0
100
AcDbSpline
70
4
71
3
72
8
73
4
40
0
40
0
40
0
40
0
40
1
40
1
40
1
40
1
41
1
10
-0.249519052838309
20
-14.3134143619746
30
0
41
1
10
-0.166368872792589
20
-14.3851213455646
30
0
41
1
10
-0.0831955184464732
20
-14.4567925119086
30
0
41
1
10
0
20
-14.5284293439038
30
0
0
SPLINE
5
26E
100
AcDbEntity
8
SK1
62
256
6
ByLayer
370
18
48
1
60
0
100
AcDbSpline
70
4
71
3
72
16
73
12
40
0
40
0
40
0
40
0
40
0.257140468143253
40
0.257140468143253
40
0.501441404931575
40
0.501441404931575
40
0.748669523163671
40
0.748669523163671
40
0.958155524772228
40
0.958155524772228
40
1
40
1
40
1
40
1
41
1
10
-0.249519052838309
20
14.3134143619746
30
0
41
1
10
-0.259478810200562
20
14.3048252746469
30
0
41
1
10
-0.269324580571151
20
14.2968427245203
30
0
41
1
10
-0.287159379898071
20
14.2837136505857
30
0
41
1
10
-0.295386907364502
20
14.2783379839493
30
0
41
1
10
-0.309238304654741
20
14.2711443668959
30
0
41
1
10
-0.31500558354719
20
14.2693082675902
30
0
41
1
10
-0.321985095845776
20
14.2699345238552
30
0
41
1
10
-0.32385208735036
20
14.2717830231023
30
0
41
1
10
-0.324468217972935
20
14.2755158409728
30
0
41
1
10
-0.324519052838298
20
14.2761945296771
30
0
41
1
10
-0.324519052838298
20
14.276920711158
30
0
0
SPLINE
5
26F
100
AcDbEntity
8
SK1
62
256
6
ByLayer
370
18
48
1
60
0
100
AcDbSpline
70
4
71
3
72
8
73
4
40
0
40
0
40
0
40
0
40
1
40
1
40
1
40
1
41
1
10
-0.324519052838355
20
9.4040385971507
30
0
41
1
10
-0.324519052838355
20
9.34814772889101
30
0
41
1
10
-0.31828266002276
20
9.28891913202517
30
0
41
1
10
-0.310506787131033
20
9.22960123227838
30
0
0
SPLINE
5
270
100
AcDbEntity
8
SK1
62
256
6
ByLayer
370
18
48
1
60
0
100
AcDbSpline
70
4
71
3
72
14
73
10
40
0
40
0
40
0
40
0
40
0.163920592685518
40
0.163920592685518
40
0.447623062193661
40
0.447623062193661
40
0.853611189168536
40
0.853611189168536
40
1
40
1
40
1
40
1
41
1
10
-0.324519052838696
20
14.3404713430427
30
0
41
1
10
-0.324519052838696
20
14.3436384518031
30
0
41
1
10
-0.323437542043507
20
14.3478474539898
30
0
41
1
10
-0.31820565277917
20
14.3611618955188
30
0
41
1
10
-0.312336889156029
20
14.3717827621269
30
0
41
1
10
-0.294700802347563
20
14.399571768266
30
0
41
1
10
-0.281200164437394
20
14.4181027250046
30
0
41
1
10
-0.26093722652729
20
14.4438885346389
30
0
41
1
10
-0.25531125080704
20
14.4508689941616
30
0
41
1
10
-0.249519052838309
20
14.4578958578262
30
0
0
SPLINE
5
271
100
AcDbEntity
8
SK1
62
256
6
ByLayer
370
18
48
1
60
0
100
AcDbSpline
70
4
71
3
72
20
73
16
40
0
40
0
40
0
40
0
40
0.0783024787785789
40
0.0783024787785789
40
0.21714963505232
40
0.21714963505232
40
0.319813443862677
40
0.319813443862677
40
0.422349379448345
40
0.422349379448345
40
0.564700842217201
40
0.564700842217201
40
0.806801094003386
40
0.806801094003386
40
1
40
1
40
1
40
1
41
1
10
-0.249519052831147
20
9.83243528515433
30
0
41
1
10
-0.253001610599142
20
9.83568290632718
30
0
41
1
10
-0.25656397039495
20
9.83872654414233
30
0
41
1
10
-0.266512158400531
20
9.84625543435476
30
0
41
1
10
-0.273147291146358
20
9.85015962531867
30
0
41
1
10
-0.284158938858298
20
9.85386918027731
30
0
41
1
10
-0.288773910814598
20
9.85448221934254
30
0
41
1
10
-0.297046397541237
20
9.85349757825739
30
0
41
1
10
-0.300801891327978
20
9.85189978178769
30
0
41
1
10
-0.308395663751981
20
9.84613942926086
30
0
41
1
10
-0.311859975124776
20
9.84118710785208
30
0
41
1
10
-0.319045472888035
20
9.82587999247289
30
0
41
1
10
-0.321529178183596
20
9.8139636268445
30
0
41
1
10
-0.324075444871141
20
9.79150100993184
30
0
41
1
10
-0.324519052858534
20
9.78098470034536
30
0
41
1
10
-0.324519052857795
20
9.77023188351646
30
0
0
SPLINE
5
272
100
AcDbEntity
8
SK1
62
256
6
ByLayer
370
18
48
1
60
0
100
AcDbSpline
70
4
71
3
72
8
73
4
40
0
40
0
40
0
40
0
40
1
40
1
40
1
40
1
41
1
10
-0.179596744622017
20
9.76698230034569
30
0
41
1
10
-0.202868014452633
20
9.78885171025553
30
0
41
1
10
-0.226176799701932
20
9.81066772219287
30
0
41
1
10
-0.249519052831772
20
9.83243528515274
30
0
0
SPLINE
5
273
100
AcDbEntity
8
SK1
62
256
6
ByLayer
370
18
48
1
60
0
100
AcDbSpline
70
4
71
3
72
8
73
4
40
0
40
0
40
0
40
0
40
1
40
1
40
1
40
1
41
1
10
0
20
14.5284293439038
30
0
41
1
10
-0.0831955184464732
20
14.4567925119086
30
0
41
1
10
-0.166368872792589
20
14.3851213455646
30
0
41
1
10
-0.249519052838309
20
14.3134143619746
30
0
0
SPLINE
5
274
100
AcDbEntity
8
SK1
62
256
6
ByLayer
370
18
48
1
60
0
100
AcDbSpline
70
4
71
3
72
8
73
4
40
0
40
0
40
0
40
0
40
1
40
1
40
1
40
1
41
1
10
-0.249519052838309
20
14.4578958578262
30
0
41
1
10
-0.166590497630466
20
14.5585014749848
30
0
41
1
10
-0.0834132517077819
20
14.658834479182
30
0
41
1
10
0
20
14.75890440381
30
0
0
SPLINE
5
275
100
AcDbEntity
8
1
62
256
6
ByLayer
370
18
48
1
60
0
100
AcDbSpline
70
4
71
3
72
8
73
4
40
0
40
0
40
0
40
0
40
1
40
1
40
1
40
1
41
1
10
0.394519052838348
20
-15.2282566821645
30
0
41
1
10
0.262459483945349
20
-15.0724284831646
30
0
41
1
10
0.130938109510964
20
-14.9159893571169
30
0
41
1
10
0
20
-14.75890440381
30
0
0
SPLINE
5
276
100
AcDbEntity
8
1
62
256
6
ByLayer
370
18
48
1
60
0
100
AcDbSpline
70
4
71
3
72
8
73
4
40
0
40
0
40
0
40
0
40
1
40
1
40
1
40
1
41
1
10
11.4504024290996
20
-4.88339078756587
30
0
41
1
10
11.5598497267325
20
-4.981163049066
30
0
41
1
10
11.6757161643831
20
-5.07828330890334
30
0
41
1
10
11.7944265529098
20
-5.17547433200863
30
0
0
SPLINE
5
277
100
AcDbEntity
8
1
62
256
6
ByLayer
370
18
48
1
60
0
100
AcDbSpline
70
4
71
3
72
22
73
18
40
0
40
0
40
0
40
0
40
0.130929604938372
40
0.130929604938372
40
0.248729715319068
40
0.248729715319068
40
0.348313611888293
40
0.348313611888293
40
0.448213686997928
40
0.448213686997928
40
0.544052341101989
40
0.544052341101989
40
0.682881840050245
40
0.682881840050245
40
0.880643516034922
40
0.880643516034922
40
1
40
1
40
1
40
1
41
1
10
0.394519052838348
20
-15.3005936602976
30
0
41
1
10
0.406793368920546
20
-15.3115350060354
30
0
41
1
10
0.418848721279005
20
-15.321794497331
30
0
41
1
10
0.439843225373522
20
-15.3383849628528
30
0
41
1
10
0.449166624560121
20
-15.3451432028426
30
0
41
1
10
0.463378099503586
20
-15.3538571213953
30
0
41
1
10
0.468854877427475
20
-15.3564546548133
30
0
41
1
10
0.476517832707884
20
-15.3580215421777
30
0
41
1
10
0.478783056280235
20
-15.3569888830282
30
0
41
1
10
0.479917810672987
20
-15.351742007887
30
0
41
1
10
0.478958289488332
20
-15.3476217257855
30
0
41
1
10
0.473685016390505
20
-15.3350152240167
30
0
41
1
10
0.468031511452182
20
-15.3252403229432
30
0
41
1
10
0.450833383492864
20
-15.2990950101823
30
0
41
1
10
0.43755646167051
20
-15.2812401979297
30
0
41
1
10
0.4139839491163
20
-15.2515605043491
30
0
41
1
10
0.404449543122325
20
-15.2399745033653
30
0
41
1
10
0.394519052838348
20
-15.2282566821645
30
0
0
SPLINE
5
278
100
AcDbEntity
8
1
62
256
6
ByLayer
370
18
48
1
60
0
100
AcDbSpline
70
4
71
3
72
8
73
4
40
0
40
0
40
0
40
0
40
1
40
1
40
1
40
1
41
1
10
9.41210843880862
20
8.78645385734075
30
0
41
1
10
9.50067886544451
20
8.76220732775644
30
0
41
1
10
9.59114851115999
20
8.73856911848821
30
0
41
1
10
9.68308740045296
20
8.73533873172067
30
0
0
SPLINE
5
279
100
AcDbEntity
8
1
62
256
6
ByLayer
370
18
48
1
60
0
100
AcDbSpline
70
4
71
3
72
8
73
4
40
0
40
0
40
0
40
0
40
1
40
1
40
1
40
1
41
1
10
0.394519052838348
20
13.4697136281856
30
0
41
1
10
0.263008496126361
20
13.361916630174
30
0
41
1
10
0.131502041716601
20
13.2541129588158
30
0
41
1
10
0
20
13.1463021112708
30
0
0
SPLINE
5
27A
100
AcDbEntity
8
1
62
256
6
ByLayer
370
18
48
1
60
0
100
AcDbSpline
70
4
71
3
72
8
73
4
40
0
40
0
40
0
40
0
40
1
40
1
40
1
40
1
41
1
10
-2.6148E-12
20
-6.50578659354585
30
0
41
1
10
0.130544772381199
20
-6.65254460084762
30
0
41
1
10
0.262105760743339
20
-6.79810434099258
30
0
41
1
10
0.394519052838348
20
-6.94261312828567
30
0
0
SPLINE
5
27B
100
AcDbEntity
8
1
62
256
6
ByLayer
370
18
48
1
60
0
100
AcDbSpline
70
4
71
3
72
10
73
6
40
0
40
0
40
0
40
0
40
0.5
40
0.5
40
1
40
1
40
1
40
1
41
1
10
8.05317057436747
20
11.3205449651089
30
0
41
1
10
7.74308455567092
20
11.9596080302128
30
0
41
1
10
7.51451443202478
20
12.5989764798023
30
0
41
1
10
7.18629372079863
20
13.9076703126342
30
0
41
1
10
7.08989895783861
20
14.5556807764511
30
0
41
1
10
7.05956535798572
20
15.2487021634142
30
0
0
SPLINE
5
27C
100
AcDbEntity
8
1
62
256
6
ByLayer
370
18
48
1
60
0
100
AcDbSpline
70
4
71
3
72
8
73
4
40
0
40
0
40
0
40
0
40
1
40
1
40
1
40
1
41
1
10
-1.705E-13
20
12.1223042034428
30
0
41
1
10
0.131504739548063
20
12.22982968561
30
0
41
1
10
0.26301113226134
20
12.3373524720372
30
0
41
1
10
0.394519052838348
20
12.4448727667766
30
0
0
SPLINE
5
27D
100
AcDbEntity
8
1
62
256
6
ByLayer
370
18
48
1
60
0
100
AcDbSpline
70
4
71
3
72
14
73
10
40
0
40
0
40
0
40
0
40
0.324159338718099
40
0.324159338718099
40
0.648768748021051
40
0.648768748021051
40
0.967651925810947
40
0.967651925810947
40
1
40
1
40
1
40
1
41
1
10
11.4747552052097
20
4.98512630232074
30
0
41
1
10
11.6723747494694
20
4.6496549437957
30
0
41
1
10
11.8299532095958
20
4.33337828329348
30
0
41
1
10
12.0619555135477
20
3.81436354555819
30
0
41
1
10
12.1402897690258
20
3.60493035682731
30
0
41
1
10
12.2278741208883
20
3.33630001352839
30
0
41
1
10
12.2399342959311
20
3.27071051524007
30
0
41
1
10
12.2192804357615
20
3.27971103878645
30
0
41
1
10
12.2170304775033
20
3.28130272259747
30
0
41
1
10
12.2144509456965
20
3.28364530859605
30
0
0
SPLINE
5
27E
100
AcDbEntity
8
1
62
256
6
ByLayer
370
18
48
1
60
0
100
AcDbSpline
70
4
71
3
72
12
73
8
40
0
40
0
40
0
40
0
40
0.269625384369874
40
0.269625384369874
40
0.539250768739751
40
0.539250768739751
40
1
40
1
40
1
40
1
41
1
10
15.3571734170754
20
-15.2115566557356
30
0
41
1
10
15.2192866355036
20
-15.2117568459724
30
0
41
1
10
15.0813998538737
20
-15.2119569962372
30
0
41
1
10
14.805626290498
20
-15.2123572168295
30
0
41
1
10
14.6677395087522
20
-15.2125572871571
30
0
41
1
10
14.2942249544909
20
-15.2130991393249
30
0
41
1
10
14.0585971818641
20
-15.2134408444252
30
0
41
1
10
13.8229694090682
20
-15.2137824328371
30
0
0
SPLINE
5
27F
100
AcDbEntity
8
1
62
256
6
ByLayer
370
18
48
1
60
0
100
AcDbSpline
70
4
71
3
72
8
73
4
40
0
40
0
40
0
40
0
40
1
40
1
40
1
40
1
41
1
10
0.394519052838063
20
6.30936533150313
30
0
41
1
10
0.244211265331842
20
5.73686900991925
30
0
41
1
10
0.112166098433818
20
5.15960305852678
30
0
41
1
10
0
20
4.57714531130458
30
0
0
SPLINE
5
280
100
AcDbEntity
8
1
62
256
6
ByLayer
370
18
48
1
60
0
100
AcDbSpline
70
4
71
3
72
8
73
4
40
0
40
0
40
0
40
0
40
1
40
1
40
1
40
1
41
1
10
0
20
14.75890440381
30
0
41
1
10
0.130938109510964
20
14.9159893571169
30
0
41
1
10
0.262459483945349
20
15.0724284831646
30
0
41
1
10
0.394519052838348
20
15.2282566821645
30
0
0
SPLINE
5
281
100
AcDbEntity
8
1
62
256
6
ByLayer
370
18
48
1
60
0
100
AcDbSpline
70
4
71
3
72
8
73
4
40
0
40
0
40
0
40
0
40
1
40
1
40
1
40
1
41
1
10
0.394519052838348
20
-12.2120067865264
30
0
41
1
10
0.26084223691646
20
-11.9773915907675
30
0
41
1
10
0.129262744342782
20
-11.7411619891241
30
0
41
1
10
0
20
-11.5032716737805
30
0
0
SPLINE
5
282
100
AcDbEntity
8
1
62
256
6
ByLayer
370
18
48
1
60
0
100
AcDbSpline
70
4
71
3
72
22
73
18
40
0
40
0
40
0
40
0
40
0.178865420830933
40
0.178865420830933
40
0.333949246577746
40
0.333949246577746
40
0.45545974926149
40
0.45545974926149
40
0.557751867003168
40
0.557751867003168
40
0.660328023791878
40
0.660328023791878
40
0.759368034952323
40
0.759368034952323
40
0.901760134467035
40
0.901760134467035
40
1
40
1
40
1
40
1
41
1
10
0.394519052838348
20
-15.5351689573631
30
0
41
1
10
0.40962217188752
20
-15.5517963784641
30
0
41
1
10
0.423976490534642
20
-15.5680664334073
30
0
41
1
10
0.447506711003427
20
-15.5958789249168
30
0
41
1
10
0.457321480174869
20
-15.6080119785309
30
0
41
1
10
0.470659286623004
20
-15.6259402435335
30
0
41
1
10
0.475180186271814
20
-15.6326833441272
30
0
41
1
10
0.479568300463996
20
-15.6412894405063
30
0
41
1
10
0.480073927118554
20
-15.643816982923
30
0
41
1
10
0.47761259866769
20
-15.6452657720479
30
0
41
1
10
0.474596103860392
20
-15.6441872183401
30
0
41
1
10
0.465829945580822
20
-15.6388831006993
30
0
41
1
10
0.460097103278656
20
-15.6347288131818
30
0
41
1
10
0.444099019674468
20
-15.6221015295219
30
0
41
1
10
0.432720119253815
20
-15.6123721788131
30
0
41
1
10
0.412307213507745
20
-15.5941697949703
30
0
41
1
10
0.403505560016015
20
-15.5861240208231
30
0
41
1
10
0.394519052838348
20
-15.5777563661013
30
0
0
SPLINE
5
283
100
AcDbEntity
8
1
62
256
6
ByLayer
370
18
48
1
60
0
100
AcDbSpline
70
4
71
3
72
10
73
6
40
0
40
0
40
0
40
0
40
0.57726228370066
40
0.57726228370066
40
1
40
1
40
1
40
1
41
1
10
6.94970000000001
20
12.2199048957476
30
0
41
1
10
6.94970000000001
20
12.2289515465417
30
0
41
1
10
6.95926336542095
20
12.2370204417344
30
0
41
1
10
6.99132543859048
20
12.2484413794413
30
0
41
1
10
7.00986534226985
20
12.252581948158
30
0
41
1
10
7.03257919658682
20
12.256005732033
30
0
0
SPLINE
5
284
100
AcDbEntity
8
1
62
256
6
ByLayer
370
18
48
1
60
0
100
AcDbSpline
70
4
71
3
72
8
73
4
40
0
40
0
40
0
40
0
40
1
40
1
40
1
40
1
41
1
10
0.394519052838348
20
11.1272876810652
30
0
41
1
10
0.262979877184364
20
11.0172448591573
30
0
41
1
10
0.131472522952208
20
10.9071512992133
30
0
41
1
10
0
20
10.7970023247567
30
0
0
SPLINE
5
285
100
AcDbEntity
8
1
62
256
6
ByLayer
370
18
48
1
60
0
100
AcDbSpline
70
4
71
3
72
8
73
4
40
0
40
0
40
0
40
0
40
1
40
1
40
1
40
1
41
1
10
9.86681050185979
20
8.72884486386323
30
0
41
1
10
10.2412886826599
20
8.34219920650185
30
0
41
1
10
10.6589293590793
20
7.97554492736109
30
0
41
1
10
11.0965505336397
20
7.65128206308526
30
0
0
SPLINE
5
286
100
AcDbEntity
8
1
62
256
6
ByLayer
370
18
48
1
60
0
100
AcDbSpline
70
4
71
3
72
22
73
18
40
0
40
0
40
0
40
0
40
0.403575478775622
40
0.403575478775622
40
0.609207050481859
40
0.609207050481859
40
0.697689368632875
40
0.697689368632875
40
0.787735212622767
40
0.787735212622767
40
0.843632298004038
40
0.843632298004038
40
0.89968781566057
40
0.89968781566057
40
0.966982237562598
40
0.966982237562598
40
1
40
1
40
1
40
1
41
1
10
0.394519052838348
20
-10.8254993787
30
0
41
1
10
0.424264971680884
20
-10.8867723991858
30
0
41
1
10
0.449133213846949
20
-10.9494598274969
30
0
41
1
10
0.472883178173561
20
-11.0383670380289
30
0
41
1
10
0.478682828757655
20
-11.0681647138105
30
0
41
1
10
0.479768315736123
20
-11.1057918704113
30
0
41
1
10
0.479113862417762
20
-11.1166031872923
30
0
41
1
10
0.474727838448075
20
-11.1354357784745
30
0
41
1
10
0.470834901873559
20
-11.1436487947892
30
0
41
1
10
0.460887433980815
20
-11.1518765801777
30
0
41
1
10
0.456083082982161
20
-11.1538414725005
30
0
41
1
10
0.445020334796766
20
-11.1546363606877
30
0
41
1
10
0.438621761757474
20
-11.153460034643
30
0
41
1
10
0.423967413275989
20
-11.1479417515631
30
0
41
1
10
0.415393703001541
20
-11.1429846219089
30
0
41
1
10
0.402812773399319
20
-11.133994896984
30
0
41
1
10
0.398646738121443
20
-11.1307408130639
30
0
41
1
10
0.394519052838348
20
-11.1272876810654
30
0
0
SPLINE
5
287
100
AcDbEntity
8
1
62
256
6
ByLayer
370
18
48
1
60
0
100
AcDbSpline
70
4
71
2
72
6
73
3
40
0
40
0
40
0
40
1
40
1
40
1
41
0.500001075654129
10
8.21201219730472
20
-15.9525799663077
30
0
41
0.499998924345872
10
10.6844753111833
20
-15.9534594392014
30
0
41
0.500001075654129
10
13.1575211381316
20
-15.9543226243193
30
0
0
SPLINE
5
288
100
AcDbEntity
8
1
62
256
6
ByLayer
370
18
48
1
60
0
100
AcDbSpline
70
4
71
3
72
8
73
4
40
0
40
0
40
0
40
0
40
1
40
1
40
1
40
1
41
1
10
0
20
11.5032716737805
30
0
41
1
10
0.129262744342782
20
11.7411619891241
30
0
41
1
10
0.26084223691646
20
11.9773915907675
30
0
41
1
10
0.394519052838348
20
12.2120067865264
30
0
0
SPLINE
5
289
100
AcDbEntity
8
1
62
256
6
ByLayer
370
18
48
1
60
0
100
AcDbSpline
70
4
71
3
72
22
73
18
40
0
40
0
40
0
40
0
40
0.0651035515480701
40
0.0651035515480701
40
0.142105684908165
40
0.142105684908165
40
0.219945552203454
40
0.219945552203454
40
0.286543875328415
40
0.286543875328415
40
0.381918160380104
40
0.381918160380104
40
0.532739405449496
40
0.532739405449496
40
0.796276857032062
40
0.796276857032062
40
1
40
1
40
1
40
1
41
1
10
0.394519052838348
20
-12.4448727667769
30
0
41
1
10
0.401944344270987
20
-12.4509436522404
30
0
41
1
10
0.409440734946258
20
-12.4564919575328
30
0
41
1
10
0.425378160313869
20
-12.4666249116985
30
0
41
1
10
0.43392259052996
20
-12.4709325723979
30
0
41
1
10
0.449296371479306
20
-12.4757017613629
30
0
41
1
10
0.456305203044337
20
-12.4761383401363
30
0
41
1
10
0.466541581742149
20
-12.4730924571455
30
0
41
1
10
0.47030699537163
20
-12.4701585006067
30
0
41
1
10
0.476928289719979
20
-12.4604258792709
30
0
41
1
10
0.478861897557351
20
-12.4524125459111
30
0
41
1
10
0.480180984124672
20
-12.4291145568058
30
0
41
1
10
0.477608092735466
20
-12.4119410811734
30
0
41
1
10
0.465630338912661
20
-12.3628250853249
30
0
41
1
10
0.452422039387784
20
-12.3282874191136
30
0
41
1
10
0.424243899491955
20
-12.2667374586906
30
0
41
1
10
0.410069038050267
20
-12.2392984511234
30
0
41
1
10
0.394519052838348
20
-12.2120067865264
30
0
0
SPLINE
5
28A
100
AcDbEntity
8
1
62
256
6
ByLayer
370
18
48
1
60
0
100
AcDbSpline
70
4
71
3
72
22
73
18
40
0
40
0
40
0
40
0
40
0.310969711152366
40
0.310969711152366
40
0.473308837917371
40
0.473308837917371
40
0.60431761119424
40
0.60431761119424
40
0.694166348377252
40
0.694166348377252
40
0.785120849567651
40
0.785120849567651
40
0.862961976256698
40
0.862961976256698
40
0.962756378971622
40
0.962756378971622
40
1
40
1
40
1
40
1
41
1
10
0.394519052838348
20
-13.2881444419488
30
0
41
1
10
0.418595248390716
20
-13.3254091930565
30
0
41
1
10
0.439916949748863
20
-13.3631641119501
30
0
41
1
10
0.463904625759597
20
-13.416504409402
30
0
41
1
10
0.470732464910554
20
-13.4344206075694
30
0
41
1
10
0.478407602326456
20
-13.4634985188068
30
0
41
1
10
0.480201011905876
20
-13.4755506065015
30
0
41
1
10
0.47864352391656
20
-13.4915904019846
30
0
41
1
10
0.476672093123454
20
-13.4970178957177
30
0
41
1
10
0.469483003597134
20
-13.504036740362
30
0
41
1
10
0.464071411349209
20
-13.5056254328389
30
0
41
1
10
0.451483729723748
20
-13.5043043104865
30
0
41
1
10
0.444532750292581
20
-13.502009852261
30
0
41
1
10
0.427601446935796
20
-13.4938313242566
30
0
41
1
10
0.417078192315103
20
-13.4870459229691
30
0
41
1
10
0.402543734423148
20
-13.4761595635071
30
0
41
1
10
0.39853339470568
20
-13.473004116897
30
0
41
1
10
0.394519052838348
20
-13.4697136281856
30
0
0
SPLINE
5
28B
100
AcDbEntity
8
1
62
256
6
ByLayer
370
18
48
1
60
0
100
AcDbSpline
70
4
71
3
72
8
73
4
40
0
40
0
40
0
40
0
40
1
40
1
40
1
40
1
41
1
10
0.394519052838348
20
15.5777563661013
30
0
41
1
10
0.262867981903014
20
15.4551713969287
30
0
41
1
10
0.131358203475656
20
15.332383790812
30
0
41
1
10
0
20
15.2093806317287
30
0
0
SPLINE
5
28C
100
AcDbEntity
8
1
62
256
6
ByLayer
370
18
48
1
60
0
100
AcDbSpline
70
4
71
3
72
22
73
18
40
0
40
0
40
0
40
0
40
0.224921902912258
40
0.224921902912258
40
0.379224023270251
40
0.379224023270251
40
0.500686752629038
40
0.500686752629038
40
0.600781484334486
40
0.600781484334486
40
0.701251398706164
40
0.701251398706164
40
0.79684045933255
40
0.79684045933255
40
0.933327692003343
40
0.933327692003343
40
1
40
1
40
1
40
1
41
1
10
0.394519052838348
20
15.2282566821645
30
0
41
1
10
0.413049854562928
20
15.2501227346057
30
0
41
1
10
0.430366655825765
20
15.2717246076153
30
0
41
1
10
0.45455982101447
20
15.3046645143339
30
0
41
1
10
0.463187332927987
20
15.317366442302
30
0
41
1
10
0.474279263032486
20
15.3364174637632
30
0
41
1
10
0.477735702946745
20
15.3436974114459
30
0
41
1
10
0.480019222992155
20
15.3531083238412
30
0
41
1
10
0.479543519526885
20
15.3559853064192
30
0
41
1
10
0.475203783251743
20
15.3580837023413
30
0
41
1
10
0.471258387751789
20
15.3573057801613
30
0
41
1
10
0.460894444364897
20
15.3524931146553
30
0
41
1
10
0.454504129265899
20
15.3485857842537
30
0
41
1
10
0.437262505171987
20
15.3365486918662
30
0
41
1
10
0.425420019395574
20
15.3271784682404
30
0
41
1
10
0.407056749567005
20
15.3116419189068
30
0
41
1
10
0.400827413845434
20
15.3062169437747
30
0
41
1
10
0.394519052838348
20
15.3005936602976
30
0
0
SPLINE
5
28D
100
AcDbEntity
8
1
62
256
6
ByLayer
370
18
48
1
60
0
100
AcDbSpline
70
4
71
3
72
8
73
4
40
0
40
0
40
0
40
0
40
1
40
1
40
1
40
1
41
1
10
0
20
-10.7970023247566
30
0
41
1
10
0.131472522952208
20
-10.9071512992133
30
0
41
1
10
0.262979877184364
20
-11.0172448591573
30
0
41
1
10
0.394519052838348
20
-11.1272876810652
30
0
0
SPLINE
5
28E
100
AcDbEntity
8
1
62
256
6
ByLayer
370
18
48
1
60
0
100
AcDbSpline
70
4
71
3
72
8
73
4
40
0
40
0
40
0
40
0
40
1
40
1
40
1
40
1
41
1
10
0.394519052838348
20
-8.98608723763041
30
0
41
1
10
0.256672355506737
20
-8.63073193364531
30
0
41
1
10
0.124921427303036
20
-8.27212345231914
30
0
41
1
10
0
20
-7.91045252819325
30
0
0
SPLINE
5
28F
100
AcDbEntity
8
1
62
256
6
ByLayer
370
18
48
1
60
0
100
AcDbSpline
70
4
71
3
72
8
73
4
40
0
40
0
40
0
40
0
40
1
40
1
40
1
40
1
41
1
10
0
20
-15.2093806317287
30
0
41
1
10
0.131358203475656
20
-15.332383790812
30
0
41
1
10
0.262867981903014
20
-15.4551713969287
30
0
41
1
10
0.394519052838348
20
-15.5777563661013
30
0
0
SPLINE
5
290
100
AcDbEntity
8
1
62
256
6
ByLayer
370
18
48
1
60
0
100
AcDbSpline
70
4
71
2
72
6
73
3
40
0
40
0
40
0
40
1
40
1
40
1
41
0.500011584580867
10
7.04282957277824
20
-13.733389202599
30
0
41
0.499988415419133
10
7.04255724474043
20
-13.0430843361413
30
0
41
0.500011584580867
10
7.04228563173859
20
-12.3545746710905
30
0
0
SPLINE
5
291
100
AcDbEntity
8
1
62
256
6
ByLayer
370
18
48
1
60
0
100
AcDbSpline
70
4
71
3
72
22
73
18
40
0
40
0
40
0
40
0
40
0.183418461046022
40
0.183418461046022
40
0.311871091424421
40
0.311871091424421
40
0.420155996744461
40
0.420155996744461
40
0.529079619057273
40
0.529079619057273
40
0.628971589139351
40
0.628971589139351
40
0.762908710440548
40
0.762908710440548
40
0.947099361439477
40
0.947099361439477
40
1
40
1
40
1
40
1
41
1
10
0.394519052838348
20
-15.7074765779128
30
0
41
1
10
0.410681146807803
20
-15.7232924828897
30
0
41
1
10
0.426272472578603
20
-15.7384065388202
30
0
41
1
10
0.449159635726346
20
-15.760204395791
30
0
41
1
10
0.457724552601633
20
-15.76822679905
30
0
41
1
10
0.470018588672815
20
-15.7793614759515
30
0
41
1
10
0.474394902237123
20
-15.7831321259291
30
0
41
1
10
0.47944116693975
20
-15.7868835505796
30
0
41
1
10
0.480135194453681
20
-15.7868694046037
30
0
41
1
10
0.477818950607286
20
-15.7832076821115
30
0
41
1
10
0.475102931451261
20
-15.7798374601139
30
0
41
1
10
0.465947611566094
20
-15.7692381408175
30
0
41
1
10
0.458454068585866
20
-15.76096042164
30
0
41
1
10
0.437881902944412
20
-15.7387451076281
30
0
41
1
10
0.423443152580774
20
-15.7234957070015
30
0
41
1
10
0.403677815909077
20
-15.7029027227773
30
0
41
1
10
0.399134768876138
20
-15.6981865681308
30
0
41
1
10
0.394519052838348
20
-15.6934109577794
30
0
0
SPLINE
5
292
100
AcDbEntity
8
1
62
256
6
ByLayer
370
18
48
1
60
0
100
AcDbSpline
70
4
71
3
72
12
73
8
40
0
40
0
40
0
40
0
40
0.362037033442609
40
0.362037033442609
40
0.725604387267716
40
0.725604387267716
40
1
40
1
40
1
40
1
41
1
10
12.4285403871593
20
-3.69852952206259
30
0
41
1
10
12.4664882428618
20
-3.59937824441735
30
0
41
1
10
12.4998156787613
20
-3.50927627114942
30
0
41
1
10
12.5536328568721
20
-3.36371326163521
30
0
41
1
10
12.574907856793
20
-3.30629965803516
30
0
41
1
10
12.5994943221817
20
-3.24683449568235
30
0
41
1
10
12.6061934213614
20
-3.23407487694376
30
0
41
1
10
12.6085031219666
20
-3.23613819560444
30
0
0
SPLINE
5
293
100
AcDbEntity
8
1
62
256
6
ByLayer
370
18
48
1
60
0
100
AcDbSpline
70
4
71
3
72
12
73
8
40
0
40
0
40
0
40
0
40
0.0967420865585979
40
0.0967420865585979
40
0.634767334320639
40
0.634767334320639
40
1
40
1
40
1
40
1
41
1
10
7.04335001672473
20
-12.2575365277548
30
0
41
1
10
7.03746524338197
20
-12.2567477236427
30
0
41
1
10
7.03182847324962
20
-12.2559188430343
30
0
41
1
10
6.9968527245403
20
-12.2502593465617
30
0
41
1
10
6.97498509559318
20
-12.2441032345377
30
0
41
1
10
6.95401444874534
20
-12.2316994412862
30
0
41
1
10
6.94970000000001
20
-12.2260283765113
30
0
41
1
10
6.94970000000001
20
-12.2199048957476
30
0
0
SPLINE
5
294
100
AcDbEntity
8
1
62
256
6
ByLayer
370
18
48
1
60
0
100
AcDbSpline
70
4
71
3
72
8
73
4
40
0
40
0
40
0
40
0
40
1
40
1
40
1
40
1
41
1
10
8.23311672160258
20
10.9676615489979
30
0
41
1
10
8.17081724040384
20
11.0840773364448
30
0
41
1
10
8.11081340870913
20
11.2017475857544
30
0
41
1
10
8.05317057436753
20
11.3205449651088
30
0
0
SPLINE
5
295
100
AcDbEntity
8
1
62
256
6
ByLayer
370
18
48
1
60
0
100
AcDbSpline
70
4
71
3
72
16
73
12
40
0
40
0
40
0
40
0
40
0.22083414638828
40
0.22083414638828
40
0.441945816966267
40
0.441945816966267
40
0.658922768010235
40
0.658922768010235
40
0.871637180653493
40
0.871637180653493
40
1
40
1
40
1
40
1
41
1
10
7.01749833604475
20
-15.8107862024198
30
0
41
1
10
7.01688021046164
20
-15.8321838220527
30
0
41
1
10
7.0398386418662
20
-15.8519934987535
30
0
41
1
10
7.1302967820755
20
-15.8857427460713
30
0
41
1
10
7.19917073733012
20
-15.9001675526352
30
0
41
1
10
7.37173999930076
20
-15.9228716726751
30
0
41
1
10
7.47720197348792
20
-15.9316189401756
30
0
41
1
10
7.70816630900538
20
-15.9441729176571
30
0
41
1
10
7.836443238127
20
-15.9482843148238
30
0
41
1
10
8.04787647644082
20
-15.9518676210403
30
0
41
1
10
8.13014257463965
20
-15.9525508446947
30
0
41
1
10
8.21201219730551
20
-15.9525799663077
30
0
0
SPLINE
5
296
100
AcDbEntity
8
1
62
256
6
ByLayer
370
18
48
1
60
0
100
AcDbSpline
70
4
71
3
72
8
73
4
40
0
40
0
40
0
40
0
40
1
40
1
40
1
40
1
41
1
10
30.1721274846406
20
0.0307804490943795
30
0
41
1
10
30.1631430781307
20
0.186864996226348
30
0
41
1
10
30.1481441409446
20
0.341333102315502
30
0
41
1
10
30.1273381559146
20
0.494354275776487
30
0
0
SPLINE
5
297
100
AcDbEntity
8
1
62
256
6
ByLayer
370
18
48
1
60
0
100
AcDbSpline
70
4
71
3
72
14
73
10
40
0
40
0
40
0
40
0
40
0.140110624946087
40
0.140110624946087
40
0.502365124697076
40
0.502365124697076
40
0.858200113186288
40
0.858200113186288
40
1
40
1
40
1
40
1
41
1
10
11.79442655291
20
-5.17547433200861
30
0
41
1
10
11.796091522822
20
-5.16839301792166
30
0
41
1
10
11.7991010818659
20
-5.15887510807229
30
0
41
1
10
11.8144971151352
20
-5.11652625019821
30
0
41
1
10
11.8346626483972
20
-5.06955523779385
30
0
41
1
10
11.8882538223968
20
-4.95088308125855
30
0
41
1
10
11.9221348882688
20
-4.87799513965911
30
0
41
1
10
11.9748279904979
20
-4.76411940697471
30
0
41
1
10
11.9906664751728
20
-4.72983267421131
30
0
41
1
10
12.0069324095076
20
-4.69443511296146
30
0
0
SPLINE
5
298
100
AcDbEntity
8
1
62
256
6
ByLayer
370
18
48
1
60
0
100
AcDbSpline
70
4
71
3
72
22
73
18
40
0
40
0
40
0
40
0
40
0.0358689851175304
40
0.0358689851175304
40
0.0600465896953162
40
0.0600465896953162
40
0.0844884499544436
40
0.0844884499544436
40
0.106607868922345
40
0.106607868922345
40
0.14134662670073
40
0.14134662670073
40
0.206597363697534
40
0.206597363697534
40
0.411463059366477
40
0.411463059366477
40
1
40
1
40
1
40
1
41
1
10
0.394519052841815
20
6.94261312828945
30
0
41
1
10
0.400608331126193
20
6.94925864103516
30
0
41
1
10
0.407116053132597
20
6.95534467468704
30
0
41
1
10
0.418413279214633
20
6.96308481822757
30
0
41
1
10
0.423173879627029
20
6.96555995595836
30
0
41
1
10
0.432466729339183
20
6.96831541968353
30
0
41
1
10
0.437108593316566
20
6.96857172297644
30
0
41
1
10
0.44503819338081
20
6.966779182289
30
0
41
1
10
0.448506702330974
20
6.96494857785683
30
0
41
1
10
0.456257302003109
20
6.95856231926211
30
0
41
1
10
0.460054122274073
20
6.95300958800564
30
0
41
1
10
0.468825242792889
20
6.9352162555715
30
0
41
1
10
0.4722794297532
20
6.92111038281328
30
0
41
1
10
0.482053966680723
20
6.86120537703223
30
0
41
1
10
0.480257316934399
20
6.80963987370103
30
0
41
1
10
0.465305220465893
20
6.61264780160246
30
0
41
1
10
0.433942973570367
20
6.4595242153232
30
0
41
1
10
0.394519052838518
20
6.30936533150307
30
0
0
SPLINE
5
299
100
AcDbEntity
8
1
62
256
6
ByLayer
370
18
48
1
60
0
100
AcDbSpline
70
4
71
3
72
14
73
10
40
0
40
0
40
0
40
0
40
0.128269133935633
40
0.128269133935633
40
0.383992994218439
40
0.383992994218439
40
0.721946834801129
40
0.721946834801129
40
1
40
1
40
1
40
1
41
1
10
19.566939820584
20
-13.7726005459413
30
0
41
1
10
19.5613373619063
20
-13.7703764302095
30
0
41
1
10
19.5544701595998
20
-13.7679344589291
30
0
41
1
10
19.5313459334105
20
-13.7603672156361
30
0
41
1
10
19.5121294482042
20
-13.7548414865597
30
0
41
1
10
19.4639067833973
20
-13.7423338215009
30
0
41
1
10
19.4328814841327
20
-13.7352236502509
30
0
41
1
10
19.374861303821
20
-13.7235043222888
30
0
41
1
10
19.347561599753
20
-13.7185597003503
30
0
41
1
10
19.3204361321599
20
-13.7142139850157
30
0
0
SPLINE
5
29A
100
AcDbEntity
8
1
62
256
6
ByLayer
370
18
48
1
60
0
100
AcDbSpline
70
4
71
3
72
22
73
18
40
0
40
0
40
0
40
0
40
0.0978949077639572
40
0.0978949077639572
40
0.197217391642589
40
0.197217391642589
40
0.297669469642263
40
0.297669469642263
40
0.383334024954328
40
0.383334024954328
40
0.493542908086325
40
0.493542908086325
40
0.652113642063539
40
0.652113642063539
40
0.896260024620787
40
0.896260024620787
40
1
40
1
40
1
40
1
41
1
10
0.394519052838348
20
-14.2650451197815
30
0
41
1
10
0.404456367986256
20
-14.2733397205441
30
0
41
1
10
0.414357879039926
20
-14.2809791030295
30
0
41
1
10
0.433217578718484
20
-14.2938376259792
30
0
41
1
10
0.442348823240025
20
-14.2991235343043
30
0
41
1
10
0.458106198068549
20
-14.3056960627012
30
0
41
1
10
0.464904227819147
20
-14.3069806281756
30
0
41
1
10
0.473869274134358
20
-14.3050597006797
30
0
41
1
10
0.476693117318234
20
-14.3024807401507
30
0
41
1
10
0.480073941639432
20
-14.2936463228138
30
0
41
1
10
0.479855610519735
20
-14.286463239779
30
0
41
1
10
0.475607761639253
20
-14.2662050765765
30
0
41
1
10
0.469975375022614
20
-14.2516278556136
30
0
41
1
10
0.451398043803863
20
-14.2125608908871
30
0
41
1
10
0.435849266069795
20
-14.1861728302651
30
0
41
1
10
0.410778315148264
20
-14.1481541910076
30
0
41
1
10
0.402819177746153
20
-14.1366061605745
30
0
41
1
10
0.394519052838348
20
-14.1250294040765
30
0
0
SPLINE
5
29B
100
AcDbEntity
8
1
62
256
6
ByLayer
370
18
48
1
60
0
100
AcDbSpline
70
4
71
3
72
8
73
4
40
0
40
0
40
0
40
0
40
1
40
1
40
1
40
1
41
1
10
0.394519052838348
20
-9.3945837636968
30
0
41
1
10
0.262842699722114
20
-9.27624749018221
30
0
41
1
10
0.131329741485217
20
-9.15766830306723
30
0
41
1
10
0
20
-9.03881956899238
30
0
0
SPLINE
5
29C
100
AcDbEntity
8
1
62
256
6
ByLayer
370
18
48
1
60
0
100
AcDbSpline
70
4
71
3
72
22
73
18
40
0
40
0
40
0
40
0
40
0.147855073536637
40
0.147855073536637
40
0.273752380496068
40
0.273752380496068
40
0.378899665305812
40
0.378899665305812
40
0.484569103486394
40
0.484569103486394
40
0.583012017640476
40
0.583012017640476
40
0.718511324611293
40
0.718511324611293
40
0.907123380423616
40
0.907123380423616
40
1
40
1
40
1
40
1
41
1
10
0.394519052838348
20
15.5777563661013
30
0
41
1
10
0.407952364624862
20
15.5902645978957
30
0
41
1
10
0.421041413484431
20
15.6021164353603
30
0
41
1
10
0.442890870071722
20
15.6210235767755
30
0
41
1
10
0.452198653185064
20
15.6286866726289
30
0
41
1
10
0.466007984326382
20
15.6390119673888
30
0
41
1
10
0.471165803862618
20
15.6423663521758
30
0
41
1
10
0.477961106947021
20
15.6453443845498
30
0
41
1
10
0.479654139667446
20
15.6449700042398
30
0
41
1
10
0.479375571697517
20
15.6407603948326
30
0
41
1
10
0.477664508142084
20
15.637135054499
30
0
41
1
10
0.470690265090013
20
15.6258766507299
30
0
41
1
10
0.464270540325515
20
15.6171128057996
30
0
41
1
10
0.445761416977177
20
15.5936293345729
30
0
41
1
10
0.432159571644263
20
15.5775393065386
30
0
41
1
10
0.4100960589181
20
15.5524457584387
30
0
41
1
10
0.402422495591566
20
15.5438700654174
30
0
41
1
10
0.394519052838348
20
15.5351689573631
30
0
0
SPLINE
5
29D
100
AcDbEntity
8
1
62
256
6
ByLayer
370
18
48
1
60
0
100
AcDbSpline
70
4
71
3
72
22
73
18
40
0
40
0
40
0
40
0
40
0.248964764580955
40
0.248964764580955
40
0.408890800229054
40
0.408890800229054
40
0.53314392385292
40
0.53314392385292
40
0.631271758794301
40
0.631271758794301
40
0.730008428132049
40
0.730008428132049
40
0.820670879799678
40
0.820670879799678
40
0.946179620776664
40
0.946179620776664
40
1
40
1
40
1
40
1
41
1
10
0.394519052838348
20
-14.7634050483605
30
0
41
1
10
0.414611394613417
20
-14.7890388237803
30
0
41
1
10
0.433113932782305
20
-14.8145985476361
30
0
41
1
10
0.457561375727096
20
-14.852949656603
30
0
41
1
10
0.465799866025691
20
-14.8673448873206
30
0
41
1
10
0.475884658216103
20
-14.889312142163
30
0
41
1
10
0.478805357556155
20
-14.8978683729082
30
0
41
1
10
0.479876152439147
20
-14.9092301705427
30
0
41
1
10
0.478872411685245
20
-14.9129435898108
30
0
41
1
10
0.473484603712961
20
-14.9166082717525
30
0
41
1
10
0.468984049722621
20
-14.9165603016176
30
0
41
1
10
0.45771354910238
20
-14.9128793336462
30
0
41
1
10
0.451043843850243
20
-14.9095190450698
30
0
41
1
10
0.433632269722295
20
-14.8988299595806
30
0
41
1
10
0.422056847587442
20
-14.8903504182623
30
0
41
1
10
0.40503857710064
20
-14.8766519998214
30
0
41
1
10
0.399800050797296
20
-14.8722818603748
30
0
41
1
10
0.394519052838348
20
-14.8677449303339
30
0
0
SPLINE
5
29E
100
AcDbEntity
8
1
62
256
6
ByLayer
370
18
48
1
60
0
100
AcDbSpline
70
4
71
3
72
26
73
22
40
0
40
0
40
0
40
0
40
0.382416079780423
40
0.382416079780423
40
0.625446865907617
40
0.625446865907617
40
0.748481835855895
40
0.748481835855895
40
0.83122079349798
40
0.83122079349798
40
0.867992352396404
40
0.867992352396404
40
0.905528358794446
40
0.905528358794446
40
0.928191876611158
40
0.928191876611158
40
0.950839409630492
40
0.950839409630492
40
0.982422117125992
40
0.982422117125992
40
1
40
1
40
1
40
1
41
1
10
0.394519052838348
20
-6.30936533150305
30
0
41
1
10
0.42026669583953
20
-6.40743364288059
30
0
41
1
10
0.441691148981818
20
-6.50613477427538
30
0
41
1
10
0.46734700192718
20
-6.66557696100602
30
0
41
1
10
0.475141396853815
20
-6.72750273907948
30
0
41
1
10
0.479813680638017
20
-6.81806972584943
30
0
41
1
10
0.480203319321106
20
-6.84825615130319
30
0
41
1
10
0.476613839678123
20
-6.89624745681957
30
0
41
1
10
0.474058384742989
20
-6.91515250325077
30
0
41
1
10
0.466664242688694
20
-6.93919867902213
30
0
41
1
10
0.463826752822911
20
-6.94621503768491
30
0
41
1
10
0.456445662378542
20
-6.95822130564929
30
0
41
1
10
0.451715146081199
20
-6.96332136834178
30
0
41
1
10
0.442437839439322
20
-6.96766684506957
30
0
41
1
10
0.438458385856506
20
-6.96842822907178
30
0
41
1
10
0.430158065096123
20
-6.9678562316202
30
0
41
1
10
0.425746323658075
20
-6.96652503932521
30
0
41
1
10
0.415409016187141
20
-6.96148228361216
30
0
41
1
10
0.409403538076958
20
-6.95701921340074
30
0
41
1
10
0.400600106125921
20
-6.94900187952325
30
0
41
1
10
0.397516551743138
20
-6.94588443832998
30
0
41
1
10
0.394519052836472
20
-6.94261312828942
30
0
0
SPLINE
5
29F
100
AcDbEntity
8
1
62
256
6
ByLayer
370
18
48
1
60
0
100
AcDbSpline
70
4
71
3
72
8
73
4
40
0
40
0
40
0
40
0
40
1
40
1
40
1
40
1
41
1
10
0
20
-15.0980216982492
30
0
41
1
10
0.131089853996229
20
-15.2442369780298
30
0
41
1
10
0.262606766088936
20
-15.3899432504731
30
0
41
1
10
0.394519052838348
20
-15.5351689573631
30
0
0
SPLINE
5
2A0
100
AcDbEntity
8
1
62
256
6
ByLayer
370
18
48
1
60
0
100
AcDbSpline
70
4
71
3
72
16
73
12
40
0
40
0
40
0
40
0
40
0.213857448013328
40
0.213857448013328
40
0.427724151475909
40
0.427724151475909
40
0.641431907597631
40
0.641431907597631
40
0.855012861479708
40
0.855012861479708
40
1
40
1
40
1
40
1
41
1
10
7.44970000000001
20
3.28364530859605
30
0
41
1
10
7.39382641360697
20
3.28364530859605
30
0
41
1
10
7.33718221718766
20
3.28409301003131
30
0
41
1
10
7.23173056194702
20
3.28614691637608
30
0
41
1
10
7.18146889768593
20
3.28779694320397
30
0
41
1
10
7.09424399663754
20
3.29293043554864
30
0
41
1
10
7.05607159704027
20
3.29650751429139
30
0
41
1
10
6.9968527245403
20
3.30608983954238
30
0
41
1
10
6.97498509559318
20
3.31224595156638
30
0
41
1
10
6.95401444874534
20
3.32464974481783
30
0
41
1
10
6.94970000000001
20
3.33032080959271
30
0
41
1
10
6.94970000000001
20
3.33644429035641
30
0
0
SPLINE
5
2A1
100
AcDbEntity
8
1
62
256
6
ByLayer
370
18
48
1
60
0
100
AcDbSpline
70
4
71
2
72
6
73
3
40
0
40
0
40
0
40
1
40
1
40
1
41
0.499982742579613
10
7.03257919658709
20
12.256005733293
30
0
41
0.500017257420388
10
7.03228933398921
20
12.9911323247637
30
0
41
0.499982742579613
10
7.03200039418617
20
13.723941542004
30
0
0
SPLINE
5
2A2
100
AcDbEntity
8
1
62
256
6
ByLayer
370
18
48
1
60
0
100
AcDbSpline
70
4
71
3
72
22
73
18
40
0
40
0
40
0
40
0
40
0.081545201107717
40
0.081545201107717
40
0.170281602882841
40
0.170281602882841
40
0.259980827002748
40
0.259980827002748
40
0.336889904715762
40
0.336889904715762
40
0.441496715650517
40
0.441496715650517
40
0.5987705287924
40
0.5987705287924
40
0.854300043132189
40
0.854300043132189
40
1
40
1
40
1
40
1
41
1
10
0.394519052838348
20
13.4697136281857
30
0
41
1
10
0.403235644018764
20
13.4768584718061
30
0
41
1
10
0.411979100226745
20
13.4834006550078
30
0
41
1
10
0.429499903103533
20
13.494778796738
30
0
41
1
10
0.438397591007003
20
13.4995052917573
30
0
41
1
10
0.454065109753969
20
13.505018260616
30
0
41
1
10
0.461011977473049
20
13.5057903728862
30
0
41
1
10
0.470713763120102
20
13.503157300661
30
0
41
1
10
0.474057352166767
20
13.5003232796335
30
0
41
1
10
0.479120601897875
20
13.4908650832901
30
0
41
1
10
0.479962509780592
20
13.4831512480654
30
0
41
1
10
0.478322859656146
20
13.4611529991753
30
0
41
1
10
0.474049515212528
20
13.4451775774146
30
0
41
1
10
0.458196784053712
20
13.4012599266359
30
0
41
1
10
0.443484661740229
20
13.3711243209314
30
0
41
1
10
0.416624551310974
20
13.3234440094295
30
0
41
1
10
0.405917416100408
20
13.3057866466349
30
0
41
1
10
0.394519052838348
20
13.2881444419488
30
0
0
SPLINE
5
2A3
100
AcDbEntity
8
1
62
256
6
ByLayer
370
18
48
1
60
0
100
AcDbSpline
70
4
71
3
72
8
73
4
40
0
40
0
40
0
40
0
40
1
40
1
40
1
40
1
41
1
10
0.394519052838348
20
-15.3005936602976
30
0
41
1
10
0.262919648687387
20
-15.1832857329098
30
0
41
1
10
0.131411126798582
20
-15.0658417230821
30
0
41
1
10
0
20
-14.9482527139731
30
0
0
SPLINE
5
2A4
100
AcDbEntity
8
1
62
256
6
ByLayer
370
18
48
1
60
0
100
AcDbSpline
70
4
71
3
72
22
73
18
40
0
40
0
40
0
40
0
40
0.0317280275851564
40
0.0317280275851564
40
0.0851306362308564
40
0.0851306362308564
40
0.125040283460517
40
0.125040283460517
40
0.164842865624564
40
0.164842865624564
40
0.22242114951215
40
0.22242114951215
40
0.321342631608059
40
0.321342631608059
40
0.530784893222136
40
0.530784893222136
40
1
40
1
40
1
40
1
41
1
10
0.394519052838063
20
-9.39458376369802
30
0
41
1
10
0.398975418242287
20
-9.398588656474
30
0
41
1
10
0.403527612681558
20
-9.40231746740102
30
0
41
1
10
0.415771147214912
20
-9.4111096214217
30
0
41
1
10
0.423721884101724
20
-9.41548013233927
30
0
41
1
10
0.436760920620543
20
-9.41937868906595
30
0
41
1
10
0.442185788209201
20
-9.41985658127669
30
0
41
1
10
0.451756177125333
20
-9.41821965932223
30
0
41
1
10
0.456018696244769
20
-9.41610858640556
30
0
41
1
10
0.464719566513395
20
-9.40869747776401
30
0
41
1
10
0.468581658184689
20
-9.40234469662184
30
0
41
1
10
0.4762838106696
20
-9.38278507168744
30
0
41
1
10
0.478449046714957
20
-9.36764649748747
30
0
41
1
10
0.480807931526272
20
-9.31858356885041
30
0
41
1
10
0.476444629298499
20
-9.28127271989987
30
0
41
1
10
0.454947669045964
20
-9.16042629488874
30
0
41
1
10
0.427946893898252
20
-9.07226094256012
30
0
41
1
10
0.394519052838405
20
-8.98608723763041
30
0
0
SPLINE
5
2A5
100
AcDbEntity
8
1
62
256
6
ByLayer
370
18
48
1
60
0
100
AcDbSpline
70
4
71
3
72
8
73
4
40
0
40
0
40
0
40
0
40
1
40
1
40
1
40
1
41
1
10
0.394519052838348
20
10.8254993787
30
0
41
1
10
0.259571603612187
20
10.5475238397796
30
0
41
1
10
0.127941497480151
20
10.2673598479706
30
0
41
1
10
0
20
9.98500171260872
30
0
0
SPLINE
5
2A6
100
AcDbEntity
8
1
62
256
6
ByLayer
370
18
48
1
60
0
100
AcDbSpline
70
4
71
3
72
26
73
22
40
0
40
0
40
0
40
0
40
0.0312500000000004
40
0.0312500000000004
40
0.0625000000000008
40
0.0625000000000008
40
0.125000000000001
40
0.125000000000001
40
0.250000000000001
40
0.250000000000001
40
0.500000000000001
40
0.500000000000001
40
0.75
40
0.75
40
0.875
40
0.875
40
0.9375
40
0.9375
40
0.96875
40
0.96875
40
1
40
1
40
1
40
1
41
1
10
0.394519052838348
20
-1.90828457127696
30
0
41
1
10
0.406316341616559
20
-1.94977152187133
30
0
41
1
10
0.439288615370174
20
-1.98353982450666
30
0
41
1
10
0.46058372165794
20
-1.90508003636987
30
0
41
1
10
0.46395057662005
20
-1.86179394745693
30
0
41
1
10
0.473924481895836
20
-1.73420399917205
30
0
41
1
10
0.476133574398489
20
-1.64783063456886
30
0
41
1
10
0.480667430112135
20
-1.3887797490089
30
0
41
1
10
0.479633898649524
20
-1.21558735452311
30
0
41
1
10
0.47622315069998
20
-0.695376262887805
30
0
41
1
10
0.472803322952416
20
-0.347559953224817
30
0
41
1
10
0.472797818848164
20
0.346444741952695
30
0
41
1
10
0.47619504039551
20
0.693102696093462
30
0
41
1
10
0.479618431528138
20
1.21223441031083
30
0
41
1
10
0.480660099427212
20
1.38514482308005
30
0
41
1
10
0.476234680507389
20
1.64401500520515
30
0
41
1
10
0.47409924788144
20
1.73023953360274
30
0
41
1
10
0.464218095152489
20
1.85919062952576
30
0
41
1
10
0.460909294374062
20
1.90302375821636
30
0
41
1
10
0.439540583365442
20
1.98344541797334
30
0
41
1
10
0.406471337296296
20
1.9503165879479
30
0
41
1
10
0.394519052778037
20
1.90828457132264
30
0
0
SPLINE
5
2A7
100
AcDbEntity
8
1
62
256
6
ByLayer
370
18
48
1
60
0
100
AcDbSpline
70
4
71
3
72
8
73
4
40
0
40
0
40
0
40
0
40
1
40
1
40
1
40
1
41
1
10
0.394519052838348
20
14.7634050483605
30
0
41
1
10
0.262257574731848
20
14.5946660798309
30
0
41
1
10
0.130729719974965
20
14.4251559356168
30
0
41
1
10
0
20
14.2548328366489
30
0
0
SPLINE
5
2A8
100
AcDbEntity
8
1
62
256
6
ByLayer
370
18
48
1
60
0
100
AcDbSpline
70
4
71
3
72
10
73
6
40
0
40
0
40
0
40
0
40
0.71611362818008
40
0.71611362818008
40
1
40
1
40
1
40
1
41
1
10
6.94970000000001
20
-13.555441711726
30
0
41
1
10
6.94970000000001
20
-13.6005079864842
30
0
41
1
10
6.96559469784256
20
-13.6458381991637
30
0
41
1
10
7.00990175452392
20
-13.7028656768925
30
0
41
1
10
7.02513565702657
20
-13.7185812433047
30
0
41
1
10
7.04282956147841
20
-13.7333892419071
30
0
0
SPLINE
5
2A9
100
AcDbEntity
8
1
62
256
6
ByLayer
370
18
48
1
60
0
100
AcDbSpline
70
4
71
3
72
14
73
10
40
0
40
0
40
0
40
0
40
0.155862690294887
40
0.155862690294887
40
0.463456265590309
40
0.463456265590309
40
0.766498751313635
40
0.766498751313635
40
1
40
1
40
1
40
1
41
1
10
12.0069324095076
20
-4.69443511296143
30
0
41
1
10
12.0290141309302
20
-4.64638136637225
30
0
41
1
10
12.0529848714346
20
-4.59653682547469
30
0
41
1
10
12.1255642301329
20
-4.44530391416359
30
0
41
1
10
12.1762572827792
20
-4.33816711747173
30
0
41
1
10
12.26730782495
20
-4.12689753962334
30
0
41
1
10
12.3090237401544
20
-4.0202046269147
30
0
41
1
10
12.3752902716185
20
-3.84231828394829
30
0
41
1
10
12.4022107125646
20
-3.76732447312347
30
0
41
1
10
12.4285403871584
20
-3.69852952206165
30
0
0
SPLINE
5
2AA
100
AcDbEntity
8
1
62
256
6
ByLayer
370
18
48
1
60
0
100
AcDbSpline
70
4
71
3
72
22
73
18
40
0
40
0
40
0
40
0
40
0.181772800722523
40
0.181772800722523
40
0.322815668892992
40
0.322815668892992
40
0.437578849014696
40
0.437578849014696
40
0.553409214648909
40
0.553409214648909
40
0.654532825235583
40
0.654532825235583
40
0.758895010297743
40
0.758895010297743
40
0.920739014933402
40
0.920739014933402
40
1
40
1
40
1
40
1
41
1
10
0.394519052838348
20
15.6934109577794
30
0
41
1
10
0.410183145303279
20
15.709617674464
30
0
41
1
10
0.425172057013469
20
15.7253084706092
30
0
41
1
10
0.448353996413232
20
15.749994152865
30
0
41
1
10
0.457507507824744
20
15.7599080993953
30
0
41
1
10
0.470312786569423
20
15.774211178945
30
0
41
1
10
0.474769112529373
20
15.7793987443354
30
0
41
1
10
0.479711282278572
20
15.7858170958926
30
0
41
1
10
0.480191571695968
20
15.7870639803357
30
0
41
1
10
0.477019234877616
20
15.785225950923
30
0
41
1
10
0.473857797227424
20
15.7826619943546
30
0
41
1
10
0.46486137684343
20
15.7747513282695
30
0
41
1
10
0.458865178029725
20
15.7692527371461
30
0
41
1
10
0.441503085677994
20
15.7529889095056
30
0
41
1
10
0.428738355895973
20
15.7407547202414
30
0
41
1
10
0.408527137730971
20
15.7211571513005
30
0
41
1
10
0.401594999605663
20
15.7144009592402
30
0
41
1
10
0.394519052838348
20
15.7074765779128
30
0
0
SPLINE
5
2AB
100
AcDbEntity
8
1
62
256
6
ByLayer
370
18
48
1
60
0
100
AcDbSpline
70
4
71
3
72
16
73
12
40
0
40
0
40
0
40
0
40
0.153526771978504
40
0.153526771978504
40
0.362951435184404
40
0.362951435184404
40
0.642172909000828
40
0.642172909000828
40
0.927669719420153
40
0.927669719420153
40
1
40
1
40
1
40
1
41
1
10
7.01787869949447
20
11.1602985338544
30
0
41
1
10
7.01919592580424
20
11.0280813821137
30
0
41
1
10
7.05269239882239
20
10.8843376535611
30
0
41
1
10
7.18724172049258
20
10.5429445446415
30
0
41
1
10
7.31000490732998
20
10.3390014837065
30
0
41
1
10
7.65844973249017
20
9.88755041254393
30
0
41
1
10
7.91045379902283
20
9.6397217464976
30
0
41
1
10
8.47629391847624
20
9.2054859226499
30
0
41
1
10
8.79885482706601
20
9.01239174774992
30
0
41
1
10
9.23067185954648
20
8.84242617297758
30
0
41
1
10
9.32058667352806
20
8.81150832838523
30
0
41
1
10
9.41210843880884
20
8.78645385734148
30
0
0
SPLINE
5
2AC
100
AcDbEntity
8
1
62
256
6
ByLayer
370
18
48
1
60
0
100
AcDbSpline
70
4
71
3
72
22
73
18
40
0
40
0
40
0
40
0
40
0.323166030947059
40
0.323166030947059
40
0.490150774945796
40
0.490150774945796
40
0.660194023414524
40
0.660194023414524
40
0.73741472936069
40
0.73741472936069
40
0.815634590800508
40
0.815634590800508
40
0.88425519044865
40
0.88425519044865
40
0.96951248692841
40
0.96951248692841
40
1
40
1
40
1
40
1
41
1
10
0.394519052838348
20
12.2120067865264
30
0
41
1
10
0.419016365120228
20
12.2550018390112
30
0
41
1
10
0.440339946963547
20
12.2986566213401
30
0
41
1
10
0.464158673547104
20
12.3613470936056
30
0
41
1
10
0.470864957710944
20
12.38243853815
30
0
41
1
10
0.479296201505804
20
12.4216581663601
30
0
41
1
10
0.481103050928653
20
12.4404236877328
30
0
41
1
10
0.476412819960103
20
12.4607566951537
30
0
41
1
10
0.473798211298799
20
12.466205055699
30
0
41
1
10
0.465833001291912
20
12.4736628887282
30
0
41
1
10
0.460290854562743
20
12.4756740576236
30
0
41
1
10
0.447731262384082
20
12.4753248760065
30
0
41
1
10
0.440831653903047
20
12.4734742956647
30
0
41
1
10
0.424559140669828
20
12.4663274400331
30
0
41
1
10
0.414761422617914
20
12.4602534400551
30
0
41
1
10
0.401546171378868
20
12.4504889726409
30
0
41
1
10
0.398028322029518
20
12.44774192976
30
0
41
1
10
0.394519052838348
20
12.4448727667766
30
0
0
SPLINE
5
2AD
100
AcDbEntity
8
1
62
256
6
ByLayer
370
18
48
1
60
0
100
AcDbSpline
70
4
71
3
72
22
73
18
40
0
40
0
40
0
40
0
40
0.525263853649316
40
0.525263853649316
40
0.66713249829058
40
0.66713249829058
40
0.766300559442613
40
0.766300559442613
40
0.821774126904874
40
0.821774126904874
40
0.8663661400369
40
0.8663661400369
40
0.91139341666927
40
0.91139341666927
40
0.950932705613866
40
0.950932705613866
40
1
40
1
40
1
40
1
41
1
10
0.394519052838461
20
8.98608723763041
30
0
41
1
10
0.431845193599941
20
9.08231037792805
30
0
41
1
10
0.46176857209656
20
9.1816228858726
30
0
41
1
10
0.477934228530671
20
9.29838016885833
30
0
41
1
10
0.480027807905799
20
9.32319000518748
30
0
41
1
10
0.478991203962096
20
9.36229400267257
30
0
41
1
10
0.477244867115644
20
9.37777235743744
30
0
41
1
10
0.470587966099174
20
9.39810014324084
30
0
41
1
10
0.467333059172972
20
9.40471387694569
30
0
41
1
10
0.459410209099985
20
9.41378339103079
30
0
41
1
10
0.455044667029995
20
9.41684447980629
30
0
41
1
10
0.444860836923795
20
9.41985166553599
30
0
41
1
10
0.438874202282136
20
9.4197686024194
30
0
41
1
10
0.42712885919434
20
9.41666484983995
30
0
41
1
10
0.421307204301911
20
9.41399984028379
30
0
41
1
10
0.408478350668247
20
9.40626966488506
30
0
41
1
10
0.401366245517124
20
9.40073726998253
30
0
41
1
10
0.394519052837154
20
9.39458376370257
30
0
0
SPLINE
5
2AE
100
AcDbEntity
8
1
62
256
6
ByLayer
370
18
48
1
60
0
100
AcDbSpline
70
4
71
3
72
18
73
14
40
0
40
0
40
0
40
0
40
0.177735087940198
40
0.177735087940198
40
0.355930237168943
40
0.355930237168943
40
0.529370400466815
40
0.529370400466815
40
0.711127413875788
40
0.711127413875788
40
0.915500629450309
40
0.915500629450309
40
1
40
1
40
1
40
1
41
1
10
13.6183980342781
20
-15.2762874231511
30
0
41
1
10
13.6158898892919
20
-15.2705478365084
30
0
41
1
10
13.6164766064592
20
-15.2645692301552
30
0
41
1
10
13.6242792741623
20
-15.2530856280829
30
0
41
1
10
13.6316314270522
20
-15.2474305252812
30
0
41
1
10
13.6516720946131
20
-15.2374322667626
30
0
41
1
10
13.6644506722609
20
-15.2329305212371
30
0
41
1
10
13.6941666028687
20
-15.2252107020962
30
0
41
1
10
13.7116128926837
20
-15.2219650667969
30
0
41
1
10
13.7505471470103
20
-15.2168280206818
30
0
41
1
10
13.7727228903343
20
-15.2150846079978
30
0
41
1
10
13.8042689652463
20
-15.2139646252096
30
0
41
1
10
13.8136253296273
20
-15.2137959789027
30
0
41
1
10
13.8229694090687
20
-15.2137824328371
30
0
0
SPLINE
5
2AF
100
AcDbEntity
8
1
62
256
6
ByLayer
370
18
48
1
60
0
100
AcDbSpline
70
4
71
3
72
8
73
4
40
0
40
0
40
0
40
0
40
1
40
1
40
1
40
1
41
1
10
0.394519052842099
20
6.94261312828979
30
0
41
1
10
0.262105760748
20
6.79810434099764
30
0
41
1
10
0.130544772386656
20
6.65254460085367
30
0
41
1
10
3.6948E-12
20
6.50578659355295
30
0
0
SPLINE
5
2B0
100
AcDbEntity
8
1
62
256
6
ByLayer
370
18
48
1
60
0
100
AcDbSpline
70
4
71
1
72
4
73
2
40
0
40
0
40
1
40
1
41
1
10
13.1575211381361
20
-15.9543226243193
30
0
41
1
10
13.1575303523876
20
-15.9543302792226
30
0
0
SPLINE
5
2B1
100
AcDbEntity
8
1
62
256
6
ByLayer
370
18
48
1
60
0
100
AcDbSpline
70
4
71
3
72
22
73
18
40
0
40
0
40
0
40
0
40
0.276909142394787
40
0.276909142394787
40
0.440382550516488
40
0.440382550516488
40
0.567354492135134
40
0.567354492135134
40
0.662274759990467
40
0.662274759990467
40
0.758056376283697
40
0.758056376283697
40
0.842836859349834
40
0.842836859349834
40
0.956262363181079
40
0.956262363181079
40
1
40
1
40
1
40
1
41
1
10
0.394519052838348
20
14.1250294040765
30
0
41
1
10
0.416414395757158
20
14.155568348517
30
0
41
1
10
0.43622644786376
20
14.1862775794713
30
0
41
1
10
0.460667161555591
20
14.2312890841829
30
0
41
1
10
0.468340507500841
20
14.2474987744616
30
0
41
1
10
0.477271975603969
20
14.272779400922
30
0
41
1
10
0.479628030746994
20
14.2828440808009
30
0
41
1
10
0.479430576967104
20
14.2963679928293
30
0
41
1
10
0.47792198079361
20
14.3009409800678
30
0
41
1
10
0.47156087628548
20
14.3062465590508
30
0
41
1
10
0.466553336018876
20
14.3069781091816
30
0
41
1
10
0.454514314312576
20
14.3044364554009
30
0
41
1
10
0.447652323264833
20
14.3016038614337
30
0
41
1
10
0.430323272641829
20
14.2921757537758
30
0
41
1
10
0.419171078918339
20
14.2845358397099
30
0
41
1
10
0.403456741586467
20
14.272379096544
30
0
41
1
10
0.398997588430859
20
14.2687833191026
30
0
41
1
10
0.394519052838348
20
14.2650451197814
30
0
0
SPLINE
5
2B2
100
AcDbEntity
8
1
62
256
6
ByLayer
370
18
48
1
60
0
100
AcDbSpline
70
4
71
3
72
8
73
4
40
0
40
0
40
0
40
0
40
1
40
1
40
1
40
1
41
1
10
7.04228563173859
20
-12.3545746710938
30
0
41
1
10
7.0422728691442
20
-12.3222228707815
30
0
41
1
10
7.04262896403986
20
-12.2898646599791
30
0
41
1
10
7.04335001672473
20
-12.2575365277548
30
0
0
SPLINE
5
2B3
100
AcDbEntity
8
1
62
256
6
ByLayer
370
18
48
1
60
0
100
AcDbSpline
70
4
71
3
72
22
73
18
40
0
40
0
40
0
40
0
40
0.114356594473401
40
0.114356594473401
40
0.223363944017551
40
0.223363944017551
40
0.333701065743427
40
0.333701065743427
40
0.426946025085806
40
0.426946025085806
40
0.520583691500201
40
0.520583691500201
40
0.669161232743795
40
0.669161232743795
40
0.888367204225627
40
0.888367204225627
40
1
40
1
40
1
40
1
41
1
10
0.394519052838348
20
14.8677449303339
30
0
41
1
10
0.405634762658906
20
14.8772944886188
30
0
41
1
10
0.416633293199254
20
14.8861626206396
30
0
41
1
10
0.436639112217449
20
14.9007499391686
30
0
41
1
10
0.445906990564538
20
14.9067157307308
30
0
41
1
10
0.461585996100439
20
14.9146172158458
30
0
41
1
10
0.46816084734769
20
14.9165666715141
30
0
41
1
10
0.476233243196134
20
14.9156083649733
30
0
41
1
10
0.478468284215865
20
14.9134039833355
30
0
41
1
10
0.479970922522341
20
14.9061503798356
30
0
41
1
10
0.479269616491706
20
14.901034343567
30
0
41
1
10
0.47457492980044
20
14.8854964232455
30
0
41
1
10
0.468884561033235
20
14.8735071097984
30
0
41
1
10
0.450944781810733
20
14.8415689446733
30
0
41
1
10
0.436590353825807
20
14.8199507092781
30
0
41
1
10
0.412369708474216
20
14.7865825285839
30
0
41
1
10
0.403630431341014
20
14.7750293295378
30
0
41
1
10
0.394519052838348
20
14.7634050483605
30
0
0
SPLINE
5
2B4
100
AcDbEntity
8
1
62
256
6
ByLayer
370
18
48
1
60
0
100
AcDbSpline
70
4
71
3
72
22
73
18
40
0
40
0
40
0
40
0
40
0.0485369988028128
40
0.0485369988028128
40
0.12169185857681
40
0.12169185857681
40
0.186452904513411
40
0.186452904513411
40
0.24070730095209
40
0.24070730095209
40
0.326722671082103
40
0.326722671082103
40
0.473923043189161
40
0.473923043189161
40
0.758600935702209
40
0.758600935702209
40
1
40
1
40
1
40
1
41
1
10
0.394519052838291
20
11.1272876810659
30
0
41
1
10
0.400543179707654
20
11.1323273349708
30
0
41
1
10
0.406662695794864
20
11.136953414537
30
0
41
1
10
0.421794237454776
20
11.1467939674328
30
0
41
1
10
0.430987918481264
20
11.1512533560243
30
0
41
1
10
0.446472277516818
20
11.1548926655493
30
0
41
1
10
0.453167452203104
20
11.1546167184667
30
0
41
1
10
0.463078217811813
20
11.1505641824855
30
0
41
1
10
0.466819023292146
20
11.1473519674863
30
0
41
1
10
0.474312021128299
20
11.1367678925064
30
0
41
1
10
0.476995069944564
20
11.1279581260299
30
0
41
1
10
0.480671778068256
20
11.1016264570794
30
0
41
1
10
0.479372223667099
20
11.08190645367
30
0
41
1
10
0.470308558694683
20
11.0223270904008
30
0
41
1
10
0.457586814638319
20
10.9792766550568
30
0
41
1
10
0.42842450285849
20
10.8996959649751
30
0
41
1
10
0.412457691929433
20
10.8624508208906
30
0
41
1
10
0.394519052838348
20
10.8254993787
30
0
0
SPLINE
5
2B5
100
AcDbEntity
8
1
62
256
6
ByLayer
370
18
48
1
60
0
100
AcDbSpline
70
4
71
3
72
10
73
6
40
0
40
0
40
0
40
0
40
0.5
40
0.5
40
1
40
1
40
1
40
1
41
1
10
11.79442655291
20
-5.17547433200858
30
0
41
1
10
11.4629795169348
20
-5.74554533936043
30
0
41
1
10
11.0235738278986
20
-6.36892455882722
30
0
41
1
10
9.99394859404197
20
-7.51795983645528
30
0
41
1
10
9.42240978403248
20
-8.03319411895495
30
0
41
1
10
8.79325982393993
20
-8.48656853326742
30
0
0
SPLINE
5
2B6
100
AcDbEntity
8
1
62
256
6
ByLayer
370
18
48
1
60
0
100
AcDbSpline
70
4
71
3
72
16
73
12
40
0
40
0
40
0
40
0
40
0.215862211496584
40
0.215862211496584
40
0.431858391045382
40
0.431858391045382
40
0.646042184001963
40
0.646042184001963
40
0.85960500812268
40
0.85960500812268
40
1
40
1
40
1
40
1
41
1
10
6.94970000000001
20
-3.33644429035641
30
0
41
1
10
6.94970000000001
20
-3.32739763956235
30
0
41
1
10
6.95926336542095
20
-3.31932874436964
30
0
41
1
10
6.99627421370951
20
-3.30614498702033
30
0
41
1
10
7.02425383343916
20
-3.30083602650956
30
0
41
1
10
7.09432532826315
20
-3.2928455842075
30
0
41
1
10
7.13726189822108
20
-3.29000786342664
30
0
41
1
10
7.23197246944943
20
-3.28608108367638
30
0
41
1
10
7.28502230130186
20
-3.28491065130225
30
0
41
1
10
7.37551383379719
20
-3.28384480977408
30
0
41
1
10
7.4127199585642
20
-3.28364530859605
30
0
41
1
10
7.44970000000001
20
-3.28364530859605
30
0
0
SPLINE
5
2B7
100
AcDbEntity
8
1
62
256
6
ByLayer
370
18
48
1
60
0
100
AcDbSpline
70
4
71
3
72
8
73
4
40
0
40
0
40
0
40
0
40
1
40
1
40
1
40
1
41
1
10
0.394519052838348
20
-12.4448727667766
30
0
41
1
10
0.26301113226134
20
-12.3373524720372
30
0
41
1
10
0.131504739548063
20
-12.22982968561
30
0
41
1
10
-1.705E-13
20
-12.1223042034428
30
0
0
SPLINE
5
2B8
100
AcDbEntity
8
1
62
256
6
ByLayer
370
18
48
1
60
0
100
AcDbSpline
70
4
71
3
72
8
73
4
40
0
40
0
40
0
40
0
40
1
40
1
40
1
40
1
41
1
10
0.394519052838348
20
13.2881444419488
30
0
41
1
10
0.261539119589486
20
13.0823202242462
30
0
41
1
10
0.129986023832657
20
12.8752548682079
30
0
41
1
10
0
20
12.6668961944433
30
0
0
SPLINE
5
2B9
100
AcDbEntity
8
1
62
256
6
ByLayer
370
18
48
1
60
0
100
AcDbSpline
70
4
71
3
72
8
73
4
40
0
40
0
40
0
40
0
40
1
40
1
40
1
40
1
41
1
10
0
20
-13.1463021112708
30
0
41
1
10
0.131502041716601
20
-13.2541129588158
30
0
41
1
10
0.263008496126361
20
-13.361916630174
30
0
41
1
10
0.394519052838348
20
-13.4697136281856
30
0
0
SPLINE
5
2BA
100
AcDbEntity
8
1
62
256
6
ByLayer
370
18
48
1
60
0
100
AcDbSpline
70
4
71
3
72
8
73
4
40
0
40
0
40
0
40
0
40
1
40
1
40
1
40
1
41
1
10
0.394519052838348
20
-1.90828457127696
30
0
41
1
10
0.04206037811025
20
-0.66881032427824
30
0
41
1
10
0.0418693110983668
20
0.668138408238946
30
0
41
1
10
0.394519052843464
20
1.90828457129504
30
0
0
SPLINE
5
2BB
100
AcDbEntity
8
1
62
256
6
ByLayer
370
18
48
1
60
0
100
AcDbSpline
70
4
71
3
72
8
73
4
40
0
40
0
40
0
40
0
40
1
40
1
40
1
40
1
41
1
10
0
20
-14.5284293439038
30
0
41
1
10
0.131452231218077
20
-14.6416183903692
30
0
41
1
10
0.262959813047758
20
-14.7547217722481
30
0
41
1
10
0.394519052838348
20
-14.8677449303339
30
0
0
SPLINE
5
2BC
100
AcDbEntity
8
1
62
256
6
ByLayer
370
18
48
1
60
0
100
AcDbSpline
70
4
71
3
72
8
73
4
40
0
40
0
40
0
40
0
40
1
40
1
40
1
40
1
41
1
10
0
20
7.91045252819325
30
0
41
1
10
0.124921427303036
20
8.27212345231914
30
0
41
1
10
0.256672355506737
20
8.63073193364531
30
0
41
1
10
0.394519052838348
20
8.98608723763041
30
0
0
SPLINE
5
2BD
100
AcDbEntity
8
1
62
256
6
ByLayer
370
18
48
1
60
0
100
AcDbSpline
70
4
71
3
72
8
73
4
40
0
40
0
40
0
40
0
40
1
40
1
40
1
40
1
41
1
10
0
20
13.5674337735919
30
0
41
1
10
0.130432506420675
20
13.7543051691889
30
0
41
1
10
0.261970125944401
20
13.9401542765635
30
0
41
1
10
0.394519052838348
20
14.1250294040765
30
0
0
SPLINE
5
2BE
100
AcDbEntity
8
1
62
256
6
ByLayer
370
18
48
1
60
0
100
AcDbSpline
70
4
71
3
72
8
73
4
40
0
40
0
40
0
40
0
40
1
40
1
40
1
40
1
41
1
10
0.394519052838348
20
-15.7074765779128
30
0
41
1
10
0.262802036987978
20
-15.5785809156017
30
0
41
1
10
0.13129057331804
20
-15.4494045883561
30
0
41
1
10
0
20
-15.3199301304152
30
0
0
SPLINE
5
2BF
100
AcDbEntity
8
1
62
256
6
ByLayer
370
18
48
1
60
0
100
AcDbSpline
70
4
71
3
72
8
73
4
40
0
40
0
40
0
40
0
40
1
40
1
40
1
40
1
41
1
10
0
20
15.2831691478176
30
0
41
1
10
0.131203544366883
20
15.4203036908594
30
0
41
1
10
0.26271729608095
20
15.5570434194058
30
0
41
1
10
0.394519052838348
20
15.6934109577794
30
0
0
SPLINE
5
2C0
100
AcDbEntity
8
1
62
256
6
ByLayer
370
18
48
1
60
0
100
AcDbSpline
70
4
71
3
72
8
73
4
40
0
40
0
40
0
40
0
40
1
40
1
40
1
40
1
41
1
10
0.394519052838348
20
15.5351689573631
30
0
41
1
10
0.262606766088936
20
15.3899432504731
30
0
41
1
10
0.131089853996229
20
15.2442369780298
30
0
41
1
10
0
20
15.0980216982492
30
0
0
SPLINE
5
2C1
100
AcDbEntity
8
1
62
256
6
ByLayer
370
18
48
1
60
0
100
AcDbSpline
70
4
71
3
72
8
73
4
40
0
40
0
40
0
40
0
40
1
40
1
40
1
40
1
41
1
10
0
20
15.3199301304152
30
0
41
1
10
0.13129057331804
20
15.4494045883561
30
0
41
1
10
0.262802036987978
20
15.5785809156017
30
0
41
1
10
0.394519052838348
20
15.7074765779128
30
0
0
SPLINE
5
2C2
100
AcDbEntity
8
1
62
256
6
ByLayer
370
18
48
1
60
0
100
AcDbSpline
70
4
71
3
72
8
73
4
40
0
40
0
40
0
40
0
40
1
40
1
40
1
40
1
41
1
10
0.394519052838348
20
-14.2650451197814
30
0
41
1
10
0.262989702442042
20
-14.1552585794663
30
0
41
1
10
0.131482808102248
20
-14.0454361577269
30
0
41
1
10
0
20
-13.9355753092867
30
0
0
SPLINE
5
2C3
100
AcDbEntity
8
1
62
256
6
ByLayer
370
18
48
1
60
0
100
AcDbSpline
70
4
71
3
72
8
73
4
40
0
40
0
40
0
40
0
40
1
40
1
40
1
40
1
41
1
10
0
20
-12.6668961944433
30
0
41
1
10
0.129986023832657
20
-12.8752548682079
30
0
41
1
10
0.261539119589486
20
-13.0823202242462
30
0
41
1
10
0.394519052838348
20
-13.2881444419488
30
0
0
SPLINE
5
2C4
100
AcDbEntity
8
1
62
256
6
ByLayer
370
18
48
1
60
0
100
AcDbSpline
70
4
71
3
72
8
73
4
40
0
40
0
40
0
40
0
40
1
40
1
40
1
40
1
41
1
10
0
20
14.9482527139731
30
0
41
1
10
0.131411126798582
20
15.0658417230821
30
0
41
1
10
0.262919648687387
20
15.1832857329098
30
0
41
1
10
0.394519052838348
20
15.3005936602976
30
0
0
SPLINE
5
2C5
100
AcDbEntity
8
1
62
256
6
ByLayer
370
18
48
1
60
0
100
AcDbSpline
70
4
71
3
72
8
73
4
40
0
40
0
40
0
40
0
40
1
40
1
40
1
40
1
41
1
10
0
20
-4.57714531130458
30
0
41
1
10
0.112166098433818
20
-5.15960305852678
30
0
41
1
10
0.244211265331842
20
-5.73686900991925
30
0
41
1
10
0.394519052838063
20
-6.30936533150313
30
0
0
SPLINE
5
2C6
100
AcDbEntity
8
1
62
256
6
ByLayer
370
18
48
1
60
0
100
AcDbSpline
70
4
71
3
72
8
73
4
40
0
40
0
40
0
40
0
40
1
40
1
40
1
40
1
41
1
10
0
20
9.03881956899238
30
0
41
1
10
0.131329741485217
20
9.15766830306723
30
0
41
1
10
0.262842699722114
20
9.27624749018221
30
0
41
1
10
0.394519052838348
20
9.3945837636968
30
0
0
SPLINE
5
2C7
100
AcDbEntity
8
1
62
256
6
ByLayer
370
18
48
1
60
0
100
AcDbSpline
70
4
71
3
72
8
73
4
40
0
40
0
40
0
40
0
40
1
40
1
40
1
40
1
41
1
10
0
20
-14.2548328366489
30
0
41
1
10
0.130729719974965
20
-14.4251559356168
30
0
41
1
10
0.262257574731848
20
-14.5946660798308
30
0
41
1
10
0.394519052838348
20
-14.7634050483605
30
0
0
SPLINE
5
2C8
100
AcDbEntity
8
1
62
256
6
ByLayer
370
18
48
1
60
0
100
AcDbSpline
70
4
71
3
72
8
73
4
40
0
40
0
40
0
40
0
40
1
40
1
40
1
40
1
41
1
10
0.394519052838348
20
14.8677449303339
30
0
41
1
10
0.262959813047758
20
14.7547217722481
30
0
41
1
10
0.131452231218077
20
14.6416183903692
30
0
41
1
10
0
20
14.5284293439038
30
0
0
SPLINE
5
2C9
100
AcDbEntity
8
1
62
256
6
ByLayer
370
18
48
1
60
0
100
AcDbSpline
70
4
71
3
72
8
73
4
40
0
40
0
40
0
40
0
40
1
40
1
40
1
40
1
41
1
10
0
20
-9.98500171260872
30
0
41
1
10
0.127941497480151
20
-10.2673598479706
30
0
41
1
10
0.259571603612187
20
-10.5475238397796
30
0
41
1
10
0.394519052838348
20
-10.8254993787
30
0
0
SPLINE
5
2CA
100
AcDbEntity
8
1
62
256
6
ByLayer
370
18
48
1
60
0
100
AcDbSpline
70
4
71
3
72
8
73
4
40
0
40
0
40
0
40
0
40
1
40
1
40
1
40
1
41
1
10
7.01774937823006
20
11.2118175221041
30
0
41
1
10
7.01766494503454
20
11.1948198329936
30
0
41
1
10
7.01770588261957
20
11.1776451012619
30
0
41
1
10
7.01787869949447
20
11.1602985338544
30
0
0
SPLINE
5
2CB
100
AcDbEntity
8
1
62
256
6
ByLayer
370
18
48
1
60
0
100
AcDbSpline
70
4
71
3
72
18
73
14
40
0
40
0
40
0
40
0
40
0.170381139424488
40
0.170381139424488
40
0.341408213401755
40
0.341408213401755
40
0.504719541995625
40
0.504719541995625
40
0.681021475890483
40
0.681021475890483
40
0.884072880535791
40
0.884072880535791
40
1
40
1
40
1
40
1
41
1
10
8.79325982393993
20
-8.48656853326742
30
0
41
1
10
8.4781232887654
20
-8.71366040504029
30
0
41
1
10
8.19402696296015
20
-8.98943414323577
30
0
41
1
10
7.73002634531514
20
-9.5815934649213
30
0
41
1
10
7.54464511231123
20
-9.90558436838788
30
0
41
1
10
7.28326920304613
20
-10.5105263420733
30
0
41
1
10
7.19844839612455
20
-10.7995867937269
30
0
41
1
10
7.08538304548756
20
-11.3280270961142
30
0
41
1
10
7.05963664529577
20
-11.5683163096452
30
0
41
1
10
7.03307074291445
20
-11.9741391223486
30
0
41
1
10
7.03514970474055
20
-12.1286796862468
30
0
41
1
10
7.03787989017928
20
-12.2558257843869
30
0
41
1
10
7.03884372817652
20
-12.2787261826485
30
0
41
1
10
7.04038355288725
20
-12.2780004043952
30
0
0
SPLINE
5
2CC
100
AcDbEntity
8
1
62
256
6
ByLayer
370
18
48
1
60
0
100
AcDbSpline
70
4
71
3
72
8
73
4
40
0
40
0
40
0
40
0
40
1
40
1
40
1
40
1
41
1
10
0.394519052838348
20
-15.6934109577794
30
0
41
1
10
0.26271729608095
20
-15.5570434194058
30
0
41
1
10
0.131203544366883
20
-15.4203036908594
30
0
41
1
10
0
20
-15.2831691478176
30
0
0
SPLINE
5
2CD
100
AcDbEntity
8
1
62
256
6
ByLayer
370
18
48
1
60
0
100
AcDbSpline
70
4
71
3
72
8
73
4
40
0
40
0
40
0
40
0
40
1
40
1
40
1
40
1
41
1
10
7.05956535798572
20
15.2487021634142
30
0
41
1
10
7.05188300499242
20
15.4242182562076
30
0
41
1
10
7.05000000147254
20
15.5703475712822
30
0
41
1
10
7.05000000147254
20
15.6859842625424
30
0
0
SPLINE
5
2CE
100
AcDbEntity
8
1
62
256
6
ByLayer
370
18
48
1
60
0
100
AcDbSpline
70
4
71
3
72
14
73
10
40
0
40
0
40
0
40
0
40
0.125
40
0.125
40
0.25
40
0.25
40
0.5
40
0.5
40
1
40
1
40
1
40
1
41
1
10
10.9491808027835
20
7.64547624200569
30
0
41
1
10
10.8203390792088
20
7.64042840878491
30
0
41
1
10
10.7832331529917
20
7.47318635565614
30
0
41
1
10
10.7953760345873
20
7.21782919490218
30
0
41
1
10
10.8167528888426
20
7.09158117643633
30
0
41
1
10
10.8841240596139
20
6.7208523240368
30
0
41
1
10
10.9392245133126
20
6.48075848200671
30
0
41
1
10
11.1203155602656
20
5.77837745388635
30
0
41
1
10
11.2589729902729
20
5.35142991394864
30
0
41
1
10
11.4747552052102
20
4.98512630232008
30
0
0
SPLINE
5
2CF
100
AcDbEntity
8
1
62
256
6
ByLayer
370
18
48
1
60
0
100
AcDbSpline
70
4
71
3
72
8
73
4
40
0
40
0
40
0
40
0
40
1
40
1
40
1
40
1
41
1
10
0.394519052838348
20
-14.1250294040765
30
0
41
1
10
0.261970125944401
20
-13.9401542765635
30
0
41
1
10
0.130432506420675
20
-13.7543051691889
30
0
41
1
10
0
20
-13.5674337735919
30
0
0
SPLINE
5
2D0
100
AcDbEntity
8
1
62
256
6
ByLayer
370
18
48
1
60
0
100
AcDbSpline
70
4
71
3
72
10
73
6
40
0
40
0
40
0
40
0
40
0.371731889260637
40
0.371731889260637
40
1
40
1
40
1
40
1
41
1
10
7.03200145182967
20
13.7239378659094
30
0
41
1
10
7.0115409768037
20
13.7053002055265
30
0
41
1
10
6.99481973338106
20
13.6853567516246
30
0
41
1
10
6.96046871566398
20
13.6300300238962
30
0
41
1
10
6.94970000000001
20
13.5927021486636
30
0
41
1
10
6.94970000000001
20
13.555441711726
30
0
0
SPLINE
5
2D1
100
AcDbEntity
8
1
62
256
6
ByLayer
370
18
48
1
60
0
100
AcDbSpline
70
4
71
3
72
10
73
6
40
0
40
0
40
0
40
0
40
0.108035160992002
40
0.108035160992002
40
1
40
1
40
1
40
1
41
1
10
7.059565357986
20
15.2487021634142
30
0
41
1
10
7.05648359461446
20
15.2451863472308
30
0
41
1
10
7.05356904975014
20
15.2416446492126
30
0
41
1
10
7.0282590301581
20
15.2087790748715
30
0
41
1
10
7.01706112050368
20
15.1776092065012
30
0
41
1
10
7.01749833604475
20
15.1457890009352
30
0
0
SPLINE
5
2D2
100
AcDbEntity
8
1
62
256
6
ByLayer
370
18
48
1
60
0
100
AcDbSpline
70
4
71
3
72
8
73
4
40
0
40
0
40
0
40
0
40
1
40
1
40
1
40
1
41
1
10
0
20
13.9355753092867
30
0
41
1
10
0.131482808102248
20
14.0454361577269
30
0
41
1
10
0.262989702442042
20
14.1552585794663
30
0
41
1
10
0.394519052838348
20
14.2650451197814
30
0
0
SPLINE
5
2D3
100
AcDbEntity
8
SK1
62
256
6
ByLayer
370
18
48
1
60
0
100
AcDbSpline
70
4
71
3
72
8
73
4
40
0
40
0
40
0
40
0
40
1
40
1
40
1
40
1
41
1
10
0
20
-15.3199301304152
30
0
41
1
10
-0.0832631335832161
20
-15.2378187585574
30
0
41
1
10
-0.166437562506246
20
-15.1555872898627
30
0
41
1
10
-0.249519052838309
20
-15.0732309630904
30
0
0
SPLINE
5
2D4
100
AcDbEntity
8
SK1
62
256
6
ByLayer
370
18
48
1
60
0
100
AcDbSpline
70
4
71
3
72
14
73
10
40
0
40
0
40
0
40
0
40
0.367432709789044
40
0.367432709789044
40
0.635304387947877
40
0.635304387947877
40
0.858919697257545
40
0.858919697257545
40
1
40
1
40
1
40
1
41
1
10
-0.249519052838309
20
-15.0732309630904
30
0
41
1
10
-0.263669083765649
20
-15.0592044384549
30
0
41
1
10
-0.277282290724997
20
-15.0457522457748
30
0
41
1
10
-0.29763514709839
20
-15.0257142600187
30
0
41
1
10
-0.305402926441502
20
-15.0180935017558
30
0
41
1
10
-0.316418010645293
20
-15.0073436599959
30
0
41
1
10
-0.320287627093364
20
-15.0035954672048
30
0
41
1
10
-0.323810802126559
20
-15.0002481931507
30
0
41
1
10
-0.324519052838298
20
-14.9996035823679
30
0
41
1
10
-0.324519052838355
20
-14.9996597183625
30
0
0
LINE
5
7E
100
AcDbEntity
8
1
62
256
6
ByLayer
370
18
48
1
60
0
100
AcDbLine
10
26.989468
20
-11.109308
30
0
11
26.995463
21
-11.223701
31
0
39
0
210
0
220
0
230
1
0
LINE
5
7F
100
AcDbEntity
8
1
62
256
6
ByLayer
370
18
48
1
60
0
100
AcDbLine
10
27.491035
20
-12.509174
30
0
11
27.497038
21
-12.623719
31
0
39
0
210
0
220
0
230
1
0
LINE
5
80
100
AcDbEntity
8
1
62
256
6
ByLayer
370
18
48
1
60
0
100
AcDbLine
10
26.526914
20
-13.63369
30
0
11
26.532917
21
-13.748234
31
0
39
0
210
0
220
0
230
1
0
LINE
5
81
100
AcDbEntity
8
1
62
256
6
ByLayer
370
18
48
1
60
0
100
AcDbLine
10
24.572621
20
-12.527866
30
0
11
24.578616
21
-12.642259
31
0
39
0
210
0
220
0
230
1
0
LINE
5
82
100
AcDbEntity
8
1
62
256
6
ByLayer
370
18
48
1
60
0
100
AcDbLine
10
25.033625
20
-12.917541
30
0
11
25.038887
21
-13.01795
31
0
39
0
210
0
220
0
230
1
0
LINE
5
83
100
AcDbEntity
8
1
62
256
6
ByLayer
370
18
48
1
60
0
100
AcDbLine
10
28.650113
20
-12.102229
30
0
11
28.650109
21
-12.102135
31
0
39
0
210
0
220
0
230
1
0
LINE
5
84
100
AcDbEntity
8
1
62
256
6
ByLayer
370
18
48
1
60
0
100
AcDbLine
10
24.95444
20
-12.875099
30
0
11
24.949178
21
-12.77469
31
0
39
0
210
0
220
0
230
1
0
LINE
5
85
100
AcDbEntity
8
1
62
256
6
ByLayer
370
18
48
1
60
0
100
AcDbLine
10
25.04454
20
-11.126089
30
0
11
25.050543
21
-11.240634
31
0
39
0
210
0
220
0
230
1
0
LINE
5
86
100
AcDbEntity
8
1
62
256
6
ByLayer
370
18
48
1
60
0
100
AcDbLine
10
25.558188
20
-13.643651
30
0
11
25.564191
21
-13.758195
31
0
39
0
210
0
220
0
230
1
0
LINE
5
87
100
AcDbEntity
8
1
62
256
6
ByLayer
370
18
48
1
60
0
100
AcDbLine
10
30.785098
20
-21.779676
30
0
11
21.217635
21
-15.82505
31
0
39
0
210
0
220
0
230
1
0
LINE
5
88
100
AcDbEntity
8
1
62
256
6
ByLayer
370
18
48
1
60
0
100
AcDbLine
10
30.103134
20
-8.178997
30
0
11
30.731593
21
-8.570139
31
0
39
0
210
0
220
0
230
1
0
LINE
5
89
100
AcDbEntity
8
1
62
256
6
ByLayer
370
18
48
1
60
0
100
AcDbLine
10
27.852191
20
-6.838589
30
0
11
26.97679
21
-6.260513
31
0
39
0
210
0
220
0
230
1
0
LINE
5
8A
100
AcDbEntity
8
1
62
256
6
ByLayer
370
18
48
1
60
0
100
AcDbLine
10
29.926079
20
-8.07665
30
0
11
29.887409
21
-8.058829
31
0
39
0
210
0
220
0
230
1
0
LINE
5
8B
100
AcDbEntity
8
1
62
256
6
ByLayer
370
18
48
1
60
0
100
AcDbLine
10
21.28512
20
-2.943706
30
0
11
30.852582
21
-8.898332
31
0
39
0
210
0
220
0
230
1
0
LINE
5
8C
100
AcDbEntity
8
1
62
256
6
ByLayer
370
18
48
1
60
0
100
AcDbLine
10
20.659596
20
-14.881064
30
0
11
20.071322
21
-3.65614
31
0
39
0
210
0
220
0
230
1
0
LINE
5
8D
100
AcDbEntity
8
1
62
256
6
ByLayer
370
18
48
1
60
0
100
AcDbLine
10
30.786443
20
-8.857165
30
0
11
30.731593
21
-8.570139
31
0
39
0
210
0
220
0
230
1
0
LINE
5
8E
100
AcDbEntity
8
1
62
256
6
ByLayer
370
18
48
1
60
0
100
AcDbLine
10
29.770831
20
-7.995199
30
0
11
28.808137
21
-7.433553
31
0
39
0
210
0
220
0
230
1
0
LINE
5
8F
100
AcDbEntity
8
1
62
256
6
ByLayer
370
18
48
1
60
0
100
AcDbLine
10
31.410622
20
-9.842318
30
0
11
31.998895
21
-21.067243
31
0
39
0
210
0
220
0
230
1
0
LINE
5
90
100
AcDbEntity
8
SK1
62
256
6
ByLayer
370
18
48
1
60
0
100
AcDbLine
10
-0.324519
20
13.791382
30
0
11
-0.324519
21
13.703188
31
0
39
0
210
0
220
0
230
1
0
LINE
5
92
100
AcDbEntity
8
SK1
62
256
6
ByLayer
370
18
48
1
60
0
100
AcDbLine
10
-0.324519
20
11.023335
30
0
11
-0.324519
21
11.132233
31
0
39
0
210
0
220
0
230
1
0
LINE
5
93
100
AcDbEntity
8
SK1
62
256
6
ByLayer
370
18
48
1
60
0
100
AcDbLine
10
0
20
13.935575
30
0
11
0
21
14.254833
31
0
39
0
210
0
220
0
230
1
0
LINE
5
94
100
AcDbEntity
8
SK1
62
256
6
ByLayer
370
18
48
1
60
0
100
AcDbLine
10
0
20
13.935575
30
0
11
0
21
13.567411
31
0
39
0
210
0
220
0
230
1
0
LINE
5
95
100
AcDbEntity
8
SK1
62
256
6
ByLayer
370
18
48
1
60
0
100
AcDbLine
10
0
20
-13.146302
30
0
11
0
21
-12.66689
31
0
39
0
210
0
220
0
230
1
0
LINE
5
96
100
AcDbEntity
8
SK1
62
256
6
ByLayer
370
18
48
1
60
0
100
AcDbLine
10
-0.249519
20
-12.941723
30
0
11
-0.249519
21
-12.262085
31
0
39
0
210
0
220
0
230
1
0
LINE
5
97
100
AcDbEntity
8
SK1
62
256
6
ByLayer
370
18
48
1
60
0
100
AcDbLine
10
0
20
-13.567434
30
0
11
0
21
-13.146302
31
0
39
0
210
0
220
0
230
1
0
LINE
5
98
100
AcDbEntity
8
SK1
62
256
6
ByLayer
370
18
48
1
60
0
100
AcDbLine
10
0
20
-4.577145
30
0
11
0
21
4.577145
31
0
39
0
210
0
220
0
230
1
0
LINE
5
99
100
AcDbEntity
8
SK1
62
256
6
ByLayer
370
18
48
1
60
0
100
AcDbLine
10
0
20
12.122304
30
0
11
0
21
11.503267
31
0
39
0
210
0
220
0
230
1
0
LINE
5
9A
100
AcDbEntity
8
SK1
62
256
6
ByLayer
370
18
48
1
60
0
100
AcDbLine
10
0
20
12.122304
30
0
11
0
21
12.666896
31
0
39
0
210
0
220
0
230
1
0
LINE
5
9B
100
AcDbEntity
8
SK1
62
256
6
ByLayer
370
18
48
1
60
0
100
AcDbLine
10
-0.324519
20
-12.931521
30
0
11
-0.324519
21
-12.075126
31
0
39
0
210
0
220
0
230
1
0
LINE
5
9C
100
AcDbEntity
8
SK1
62
256
6
ByLayer
370
18
48
1
60
0
100
AcDbLine
10
-0.324519
20
12.075117
30
0
11
-0.324519
21
11.923554
31
0
39
0
210
0
220
0
230
1
0
LINE
5
9D
100
AcDbEntity
8
SK1
62
256
6
ByLayer
370
18
48
1
60
0
100
AcDbLine
10
-0.324519
20
-12.931521
30
0
11
-0.324519
21
-13.048193
31
0
39
0
210
0
220
0
230
1
0
LINE
5
9E
100
AcDbEntity
8
SK1
62
256
6
ByLayer
370
18
48
1
60
0
100
AcDbLine
10
-0.249519
20
-11.918279
30
0
11
-0.249519
21
-11.153837
31
0
39
0
210
0
220
0
230
1
0
LINE
5
9F
100
AcDbEntity
8
SK1
62
256
6
ByLayer
370
18
48
1
60
0
100
AcDbLine
10
0
20
-12.666896
30
0
11
0
21
-12.122304
31
0
39
0
210
0
220
0
230
1
0
LINE
5
A0
100
AcDbEntity
8
SK1
62
256
6
ByLayer
370
18
48
1
60
0
100
AcDbLine
10
-0.324519
20
-11.923554
30
0
11
-0.324519
21
-12.075117
31
0
39
0
210
0
220
0
230
1
0
LINE
5
A1
100
AcDbEntity
8
SK1
62
256
6
ByLayer
370
18
48
1
60
0
100
AcDbLine
10
0
20
-11.503267
30
0
11
0
21
-12.122304
31
0
39
0
210
0
220
0
230
1
0
LINE
5
A2
100
AcDbEntity
8
SK1
62
256
6
ByLayer
370
18
48
1
60
0
100
AcDbLine
10
-0.324519
20
11.287097
30
0
11
-0.324519
21
11.923554
31
0
39
0
210
0
220
0
230
1
0
LINE
5
A3
100
AcDbEntity
8
SK1
62
256
6
ByLayer
370
18
48
1
60
0
100
AcDbLine
10
-0.324519
20
-11.923554
30
0
11
-0.324519
21
-11.287097
31
0
39
0
210
0
220
0
230
1
0
LINE
5
A4
100
AcDbEntity
8
SK1
62
256
6
ByLayer
370
18
48
1
60
0
100
AcDbLine
10
-0.249519
20
11.153837
30
0
11
-0.249519
21
11.918279
31
0
39
0
210
0
220
0
230
1
0
LINE
5
A5
100
AcDbEntity
8
SK1
62
256
6
ByLayer
370
18
48
1
60
0
100
AcDbLine
10
-0.324519
20
1.738068
30
0
11
-0.324519
21
-1.738068
31
0
39
0
210
0
220
0
230
1
0
LINE
5
A6
100
AcDbEntity
8
SK1
62
256
6
ByLayer
370
18
48
1
60
0
100
AcDbLine
10
-0.324519
20
-6.325489
30
0
11
-0.324519
21
-6.742979
31
0
39
0
210
0
220
0
230
1
0
LINE
5
A7
100
AcDbEntity
8
SK1
62
256
6
ByLayer
370
18
48
1
60
0
100
AcDbLine
10
-0.324519
20
-6.325489
30
0
11
-0.324519
21
-1.737928
31
0
39
0
210
0
220
0
230
1
0
LINE
5
A8
100
AcDbEntity
8
SK1
62
256
6
ByLayer
370
18
48
1
60
0
100
AcDbLine
10
-0.324519
20
1.737928
30
0
11
-0.324519
21
6.325489
31
0
39
0
210
0
220
0
230
1
0
LINE
5
A9
100
AcDbEntity
8
SK1
62
256
6
ByLayer
370
18
48
1
60
0
100
AcDbLine
10
0
20
-6.505787
30
0
11
0
21
-4.577024
31
0
39
0
210
0
220
0
230
1
0
LINE
5
AA
100
AcDbEntity
8
SK1
62
256
6
ByLayer
370
18
48
1
60
0
100
AcDbLine
10
0
20
4.577024
30
0
11
0
21
6.505787
31
0
39
0
210
0
220
0
230
1
0
LINE
5
AB
100
AcDbEntity
8
SK1
62
256
6
ByLayer
370
18
48
1
60
0
100
AcDbLine
10
0
20
6.505787
30
0
11
0
21
7.910453
31
0
39
0
210
0
220
0
230
1
0
LINE
5
AC
100
AcDbEntity
8
SK1
62
256
6
ByLayer
370
18
48
1
60
0
100
AcDbLine
10
-0.249519
20
-6.222291
30
0
11
-0.249519
21
-3.021506
31
0
39
0
210
0
220
0
230
1
0
LINE
5
AD
100
AcDbEntity
8
SK1
62
256
6
ByLayer
370
18
48
1
60
0
100
AcDbLine
10
-0.249519
20
3.021506
30
0
11
-0.249519
21
6.222291
31
0
39
0
210
0
220
0
230
1
0
LINE
5
AE
100
AcDbEntity
8
SK1
62
256
6
ByLayer
370
18
48
1
60
0
100
AcDbLine
10
0
20
-7.910453
30
0
11
0
21
-6.505787
31
0
39
0
210
0
220
0
230
1
0
LINE
5
AF
100
AcDbEntity
8
SK1
62
256
6
ByLayer
370
18
48
1
60
0
100
AcDbLine
10
-0.324519
20
6.742979
30
0
11
-0.324519
21
6.325489
31
0
39
0
210
0
220
0
230
1
0
LINE
5
B0
100
AcDbEntity
8
SK1
62
256
6
ByLayer
370
18
48
1
60
0
100
AcDbLine
10
-0.249519
20
-13.727018
30
0
11
-0.249519
21
-13.206671
31
0
39
0
210
0
220
0
230
1
0
LINE
5
B1
100
AcDbEntity
8
SK1
62
256
6
ByLayer
370
18
48
1
60
0
100
AcDbLine
10
-0.324519
20
-13.703188
30
0
11
-0.324519
21
-13.791382
31
0
39
0
210
0
220
0
230
1
0
LINE
5
B2
100
AcDbEntity
8
SK1
62
256
6
ByLayer
370
18
48
1
60
0
100
AcDbLine
10
0
20
-14.254833
30
0
11
0
21
-13.935575
31
0
39
0
210
0
220
0
230
1
0
LINE
5
B3
100
AcDbEntity
8
SK1
62
256
6
ByLayer
370
18
48
1
60
0
100
AcDbLine
10
0
20
-13.567411
30
0
11
0
21
-13.935575
31
0
39
0
210
0
220
0
230
1
0
LINE
5
B4
100
AcDbEntity
8
SK1
62
256
6
ByLayer
370
18
48
1
60
0
100
AcDbLine
10
-0.324519
20
-11.132233
30
0
11
-0.324519
21
-11.023335
31
0
39
0
210
0
220
0
230
1
0
LINE
5
B5
100
AcDbEntity
8
SK1
62
256
6
ByLayer
370
18
48
1
60
0
100
AcDbLine
10
-0.324519
20
11.132233
30
0
11
-0.324519
21
11.287133
31
0
39
0
210
0
220
0
230
1
0
LINE
5
B6
100
AcDbEntity
8
SK1
62
256
6
ByLayer
370
18
48
1
60
0
100
AcDbLine
10
-0.324519
20
13.048157
30
0
11
-0.324519
21
13.703188
31
0
39
0
210
0
220
0
230
1
0
LINE
5
B7
100
AcDbEntity
8
SK1
62
256
6
ByLayer
370
18
48
1
60
0
100
AcDbLine
10
-0.324519
20
-13.703188
30
0
11
-0.324519
21
-13.048157
31
0
39
0
210
0
220
0
230
1
0
LINE
5
B8
100
AcDbEntity
8
SK1
62
256
6
ByLayer
370
18
48
1
60
0
100
AcDbLine
10
-0.324519
20
-11.287133
30
0
11
-0.324519
21
-11.132233
31
0
39
0
210
0
220
0
230
1
0
LINE
5
B9
100
AcDbEntity
8
SK1
62
256
6
ByLayer
370
18
48
1
60
0
100
AcDbLine
10
-0.249519
20
13.206671
30
0
11
-0.249519
21
13.727018
31
0
39
0
210
0
220
0
230
1
0
LINE
5
BA
100
AcDbEntity
8
SK1
62
256
6
ByLayer
370
18
48
1
60
0
100
AcDbLine
10
0
20
15.31993
30
0
11
0
21
15.324519
31
0
39
0
210
0
220
0
230
1
0
LINE
5
BB
100
AcDbEntity
8
SK1
62
256
6
ByLayer
370
18
48
1
60
0
100
AcDbLine
10
-0.324519
20
14.934566
30
0
11
-0.324519
21
14.99966
31
0
39
0
210
0
220
0
230
1
0
LINE
5
BC
100
AcDbEntity
8
SK1
62
256
6
ByLayer
370
18
48
1
60
0
100
AcDbLine
10
0
20
15.31993
30
0
11
0
21
15.283069
31
0
39
0
210
0
220
0
230
1
0
LINE
5
BD
100
AcDbEntity
8
SK1
62
256
6
ByLayer
370
18
48
1
60
0
100
AcDbLine
10
-0.249519
20
15.021469
30
0
11
-0.249519
21
15.073231
31
0
39
0
210
0
220
0
230
1
0
LINE
5
BE
100
AcDbEntity
8
SK1
62
256
6
ByLayer
370
18
48
1
60
0
100
AcDbLine
10
-0.324519
20
15
30
0
11
-0.324519
21
14.99966
31
0
39
0
210
0
220
0
230
1
0
LINE
5
BF
100
AcDbEntity
8
SK1
62
256
6
ByLayer
370
18
48
1
60
0
100
AcDbLine
10
0
20
12.66689
30
0
11
0
21
13.146302
31
0
39
0
210
0
220
0
230
1
0
LINE
5
C0
100
AcDbEntity
8
SK1
62
256
6
ByLayer
370
18
48
1
60
0
100
AcDbLine
10
-0.324519
20
12.075126
30
0
11
-0.324519
21
12.931521
31
0
39
0
210
0
220
0
230
1
0
LINE
5
C1
100
AcDbEntity
8
SK1
62
256
6
ByLayer
370
18
48
1
60
0
100
AcDbLine
10
-0.324519
20
13.048193
30
0
11
-0.324519
21
12.931521
31
0
39
0
210
0
220
0
230
1
0
LINE
5
C2
100
AcDbEntity
8
SK1
62
256
6
ByLayer
370
18
48
1
60
0
100
AcDbLine
10
0
20
13.146302
30
0
11
0
21
13.567434
31
0
39
0
210
0
220
0
230
1
0
LINE
5
C3
100
AcDbEntity
8
SK1
62
256
6
ByLayer
370
18
48
1
60
0
100
AcDbLine
10
-0.249519
20
12.262085
30
0
11
-0.249519
21
12.941723
31
0
39
0
210
0
220
0
230
1
0
LINE
5
C4
100
AcDbEntity
8
SK1
62
256
6
ByLayer
370
18
48
1
60
0
100
AcDbLine
10
0
20
9.03882
30
0
11
0
21
7.910379
31
0
39
0
210
0
220
0
230
1
0
LINE
5
C5
100
AcDbEntity
8
SK1
62
256
6
ByLayer
370
18
48
1
60
0
100
AcDbLine
10
0
20
-7.910379
30
0
11
0
21
-9.03882
31
0
39
0
210
0
220
0
230
1
0
LINE
5
C6
100
AcDbEntity
8
SK1
62
256
6
ByLayer
370
18
48
1
60
0
100
AcDbLine
10
-0.249519
20
-8.812476
30
0
11
-0.249519
21
-7.154353
31
0
39
0
210
0
220
0
230
1
0
LINE
5
C7
100
AcDbEntity
8
SK1
62
256
6
ByLayer
370
18
48
1
60
0
100
AcDbLine
10
-0.249519
20
7.154353
30
0
11
-0.249519
21
8.812476
31
0
39
0
210
0
220
0
230
1
0
LINE
5
C8
100
AcDbEntity
8
SK1
62
256
6
ByLayer
370
18
48
1
60
0
100
AcDbLine
10
0
20
-9.985002
30
0
11
0
21
-9.03882
31
0
39
0
210
0
220
0
230
1
0
LINE
5
C9
100
AcDbEntity
8
SK1
62
256
6
ByLayer
370
18
48
1
60
0
100
AcDbLine
10
-0.324519
20
-8.863685
30
0
11
-0.324519
21
-9.133163
31
0
39
0
210
0
220
0
230
1
0
LINE
5
CA
100
AcDbEntity
8
SK1
62
256
6
ByLayer
370
18
48
1
60
0
100
AcDbLine
10
0
20
9.03882
30
0
11
0
21
9.985002
31
0
39
0
210
0
220
0
230
1
0
LINE
5
CB
100
AcDbEntity
8
SK1
62
256
6
ByLayer
370
18
48
1
60
0
100
AcDbLine
10
-0.324519
20
9.133163
30
0
11
-0.324519
21
8.863685
31
0
39
0
210
0
220
0
230
1
0
LINE
5
CC
100
AcDbEntity
8
SK1
62
256
6
ByLayer
370
18
48
1
60
0
100
AcDbLine
10
-0.324519
20
-8.863685
30
0
11
-0.324519
21
-6.742772
31
0
39
0
210
0
220
0
230
1
0
LINE
5
CD
100
AcDbEntity
8
SK1
62
256
6
ByLayer
370
18
48
1
60
0
100
AcDbLine
10
-0.324519
20
6.742772
30
0
11
-0.324519
21
8.863685
31
0
39
0
210
0
220
0
230
1
0
LINE
5
CE
100
AcDbEntity
8
SK1
62
256
6
ByLayer
370
18
48
1
60
0
100
AcDbLine
10
0
20
10.797002
30
0
11
0
21
11.503272
31
0
39
0
210
0
220
0
230
1
0
LINE
5
CF
100
AcDbEntity
8
SK1
62
256
6
ByLayer
370
18
48
1
60
0
100
AcDbLine
10
-0.324519
20
10.810252
30
0
11
-0.324519
21
10.612164
31
0
39
0
210
0
220
0
230
1
0
LINE
5
D0
100
AcDbEntity
8
SK1
62
256
6
ByLayer
370
18
48
1
60
0
100
AcDbLine
10
-0.249519
20
9.96605
30
0
11
-0.249519
21
10.587849
31
0
39
0
210
0
220
0
230
1
0
LINE
5
D1
100
AcDbEntity
8
SK1
62
256
6
ByLayer
370
18
48
1
60
0
100
AcDbLine
10
0
20
9.985022
30
0
11
0
21
10.797002
31
0
39
0
210
0
220
0
230
1
0
LINE
5
D2
100
AcDbEntity
8
SK1
62
256
6
ByLayer
370
18
48
1
60
0
100
AcDbLine
10
-0.324519
20
10.246768
30
0
11
-0.324519
21
10.612164
31
0
39
0
210
0
220
0
230
1
0
LINE
5
D3
100
AcDbEntity
8
SK1
62
256
6
ByLayer
370
18
48
1
60
0
100
AcDbLine
10
-0.324519
20
-10.612164
30
0
11
-0.324519
21
-10.810252
31
0
39
0
210
0
220
0
230
1
0
LINE
5
D4
100
AcDbEntity
8
SK1
62
256
6
ByLayer
370
18
48
1
60
0
100
AcDbLine
10
0
20
-11.503272
30
0
11
0
21
-10.797002
31
0
39
0
210
0
220
0
230
1
0
LINE
5
D5
100
AcDbEntity
8
SK1
62
256
6
ByLayer
370
18
48
1
60
0
100
AcDbLine
10
-0.249519
20
-10.587849
30
0
11
-0.249519
21
-9.96605
31
0
39
0
210
0
220
0
230
1
0
LINE
5
D6
100
AcDbEntity
8
SK1
62
256
6
ByLayer
370
18
48
1
60
0
100
AcDbLine
10
-0.324519
20
-10.612164
30
0
11
-0.324519
21
-10.246768
31
0
39
0
210
0
220
0
230
1
0
LINE
5
D7
100
AcDbEntity
8
SK1
62
256
6
ByLayer
370
18
48
1
60
0
100
AcDbLine
10
0
20
-10.797002
30
0
11
0
21
-9.985022
31
0
39
0
210
0
220
0
230
1
0
LINE
5
D8
100
AcDbEntity
8
SK1
62
256
6
ByLayer
370
18
48
1
60
0
100
AcDbLine
10
-0.249519
20
-14.975295
30
0
11
-0.249519
21
-14.81843
31
0
39
0
210
0
220
0
230
1
0
LINE
5
D9
100
AcDbEntity
8
SK1
62
256
6
ByLayer
370
18
48
1
60
0
100
AcDbLine
10
-0.324519
20
-14.914311
30
0
11
-0.324519
21
-14.717151
31
0
39
0
210
0
220
0
230
1
0
LINE
5
DA
100
AcDbEntity
8
SK1
62
256
6
ByLayer
370
18
48
1
60
0
100
AcDbLine
10
0
20
-15.283169
30
0
11
0
21
-15.209381
31
0
39
0
210
0
220
0
230
1
0
LINE
5
DB
100
AcDbEntity
8
SK1
62
256
6
ByLayer
370
18
48
1
60
0
100
AcDbLine
10
0
20
-15.209381
30
0
11
0
21
-15.098013
31
0
39
0
210
0
220
0
230
1
0
LINE
5
DC
100
AcDbEntity
8
SK1
62
256
6
ByLayer
370
18
48
1
60
0
100
AcDbLine
10
-0.249519
20
14.81843
30
0
11
-0.249519
21
14.975295
31
0
39
0
210
0
220
0
230
1
0
LINE
5
DD
100
AcDbEntity
8
SK1
62
256
6
ByLayer
370
18
48
1
60
0
100
AcDbLine
10
0
20
15.209381
30
0
11
0
21
15.283169
31
0
39
0
210
0
220
0
230
1
0
LINE
5
DE
100
AcDbEntity
8
SK1
62
256
6
ByLayer
370
18
48
1
60
0
100
AcDbLine
10
0
20
15.098013
30
0
11
0
21
15.209381
31
0
39
0
210
0
220
0
230
1
0
LINE
5
DF
100
AcDbEntity
8
SK1
62
256
6
ByLayer
370
18
48
1
60
0
100
AcDbLine
10
-0.324519
20
14.720006
30
0
11
-0.324519
21
14.914311
31
0
39
0
210
0
220
0
230
1
0
LINE
5
E0
100
AcDbEntity
8
SK1
62
256
6
ByLayer
370
18
48
1
60
0
100
AcDbLine
10
-0.324519
20
14.934621
30
0
11
-0.324519
21
14.914311
31
0
39
0
210
0
220
0
230
1
0
LINE
5
E1
100
AcDbEntity
8
SK1
62
256
6
ByLayer
370
18
48
1
60
0
100
AcDbLine
10
-0.249519
20
14.457827
30
0
11
-0.249519
21
14.724695
31
0
39
0
210
0
220
0
230
1
0
LINE
5
E2
100
AcDbEntity
8
SK1
62
256
6
ByLayer
370
18
48
1
60
0
100
AcDbLine
10
0
20
14.948253
30
0
11
0
21
14.75877
31
0
39
0
210
0
220
0
230
1
0
LINE
5
E3
100
AcDbEntity
8
SK1
62
256
6
ByLayer
370
18
48
1
60
0
100
AcDbLine
10
0
20
14.948253
30
0
11
0
21
15.098022
31
0
39
0
210
0
220
0
230
1
0
LINE
5
E4
100
AcDbEntity
8
SK1
62
256
6
ByLayer
370
18
48
1
60
0
100
AcDbLine
10
-0.324519
20
14.717201
30
0
11
-0.324519
21
14.675952
31
0
39
0
210
0
220
0
230
1
0
LINE
5
E5
100
AcDbEntity
8
SK1
62
256
6
ByLayer
370
18
48
1
60
0
100
AcDbLine
10
-0.324519
20
14.340459
30
0
11
-0.324519
21
14.675952
31
0
39
0
210
0
220
0
230
1
0
LINE
5
E6
100
AcDbEntity
8
SK1
62
256
6
ByLayer
370
18
48
1
60
0
100
AcDbLine
10
-0.324519
20
-14.675952
30
0
11
-0.324519
21
-14.340459
31
0
39
0
210
0
220
0
230
1
0
LINE
5
E7
100
AcDbEntity
8
SK1
62
256
6
ByLayer
370
18
48
1
60
0
100
AcDbLine
10
-0.249519
20
-14.724695
30
0
11
-0.249519
21
-14.457827
31
0
39
0
210
0
220
0
230
1
0
LINE
5
E8
100
AcDbEntity
8
SK1
62
256
6
ByLayer
370
18
48
1
60
0
100
AcDbLine
10
0
20
-14.75877
30
0
11
0
21
-14.948253
31
0
39
0
210
0
220
0
230
1
0
LINE
5
E9
100
AcDbEntity
8
SK1
62
256
6
ByLayer
370
18
48
1
60
0
100
AcDbLine
10
0
20
-15.098022
30
0
11
0
21
-14.948253
31
0
39
0
210
0
220
0
230
1
0
LINE
5
EA
100
AcDbEntity
8
SK1
62
256
6
ByLayer
370
18
48
1
60
0
100
AcDbLine
10
-0.324519
20
-14.914311
30
0
11
-0.324519
21
-14.934621
31
0
39
0
210
0
220
0
230
1
0
LINE
5
EB
100
AcDbEntity
8
SK1
62
256
6
ByLayer
370
18
48
1
60
0
100
AcDbLine
10
-0.324519
20
-14.675952
30
0
11
-0.324519
21
-14.717201
31
0
39
0
210
0
220
0
230
1
0
LINE
5
EC
100
AcDbEntity
8
SK1
62
256
6
ByLayer
370
18
48
1
60
0
100
AcDbLine
10
-0.324519
20
-14.276921
30
0
11
-0.324519
21
-14.340471
31
0
39
0
210
0
220
0
230
1
0
LINE
5
ED
100
AcDbEntity
8
SK1
62
256
6
ByLayer
370
18
48
1
60
0
100
AcDbLine
10
-0.249519
20
-14.313414
30
0
11
-0.249519
21
-13.92742
31
0
39
0
210
0
220
0
230
1
0
LINE
5
EE
100
AcDbEntity
8
SK1
62
256
6
ByLayer
370
18
48
1
60
0
100
AcDbLine
10
0
20
-14.758904
30
0
11
0
21
-14.528429
31
0
39
0
210
0
220
0
230
1
0
LINE
5
EF
100
AcDbEntity
8
SK1
62
256
6
ByLayer
370
18
48
1
60
0
100
AcDbLine
10
-0.324519
20
-14.276921
30
0
11
-0.324519
21
-13.791325
31
0
39
0
210
0
220
0
230
1
0
LINE
5
F0
100
AcDbEntity
8
SK1
62
256
6
ByLayer
370
18
48
1
60
0
100
AcDbLine
10
-0.324519
20
-11.023373
30
0
11
-0.324519
21
-10.810291
31
0
39
0
210
0
220
0
230
1
0
LINE
5
F1
100
AcDbEntity
8
SK1
62
256
6
ByLayer
370
18
48
1
60
0
100
AcDbLine
10
-0.324519
20
-10.246814
30
0
11
-0.324519
21
-9.770232
31
0
39
0
210
0
220
0
230
1
0
LINE
5
F2
100
AcDbEntity
8
SK1
62
256
6
ByLayer
370
18
48
1
60
0
100
AcDbLine
10
-0.324519
20
-9.770232
30
0
11
-0.324519
21
-9.404039
31
0
39
0
210
0
220
0
230
1
0
LINE
5
F3
100
AcDbEntity
8
SK1
62
256
6
ByLayer
370
18
48
1
60
0
100
AcDbLine
10
0
20
-14.528429
30
0
11
0
21
-14.254772
31
0
39
0
210
0
220
0
230
1
0
LINE
5
F4
100
AcDbEntity
8
SK1
62
256
6
ByLayer
370
18
48
1
60
0
100
AcDbLine
10
-0.324519
20
9.770232
30
0
11
-0.324519
21
10.246814
31
0
39
0
210
0
220
0
230
1
0
LINE
5
F5
100
AcDbEntity
8
SK1
62
256
6
ByLayer
370
18
48
1
60
0
100
AcDbLine
10
-0.324519
20
10.810291
30
0
11
-0.324519
21
11.023373
31
0
39
0
210
0
220
0
230
1
0
LINE
5
F6
100
AcDbEntity
8
SK1
62
256
6
ByLayer
370
18
48
1
60
0
100
AcDbLine
10
-0.324519
20
13.791325
30
0
11
-0.324519
21
14.276921
31
0
39
0
210
0
220
0
230
1
0
LINE
5
F7
100
AcDbEntity
8
SK1
62
256
6
ByLayer
370
18
48
1
60
0
100
AcDbLine
10
-0.324519
20
9.404039
30
0
11
-0.324519
21
9.770232
31
0
39
0
210
0
220
0
230
1
0
LINE
5
F8
100
AcDbEntity
8
SK1
62
256
6
ByLayer
370
18
48
1
60
0
100
AcDbLine
10
-0.324519
20
14.340471
30
0
11
-0.324519
21
14.276921
31
0
39
0
210
0
220
0
230
1
0
LINE
5
F9
100
AcDbEntity
8
SK1
62
256
6
ByLayer
370
18
48
1
60
0
100
AcDbLine
10
-0.249519
20
9.832435
30
0
11
-0.249519
21
9.966094
31
0
39
0
210
0
220
0
230
1
0
LINE
5
FA
100
AcDbEntity
8
SK1
62
256
6
ByLayer
370
18
48
1
60
0
100
AcDbLine
10
-0.249519
20
13.92742
30
0
11
-0.249519
21
14.313414
31
0
39
0
210
0
220
0
230
1
0
LINE
5
FB
100
AcDbEntity
8
SK1
62
256
6
ByLayer
370
18
48
1
60
0
100
AcDbLine
10
0
20
14.254772
30
0
11
0
21
14.528429
31
0
39
0
210
0
220
0
230
1
0
LINE
5
FC
100
AcDbEntity
8
SK1
62
256
6
ByLayer
370
18
48
1
60
0
100
AcDbLine
10
0
20
14.528429
30
0
11
0
21
14.758904
31
0
39
0
210
0
220
0
230
1
0
LINE
5
FD
100
AcDbEntity
8
1
62
256
6
ByLayer
370
18
48
1
60
0
100
AcDbLine
10
12.706079
20
-13.324438
30
0
11
13.822969
21
-15.213782
31
0
39
0
210
0
220
0
230
1
0
LINE
5
FE
100
AcDbEntity
8
1
62
256
6
ByLayer
370
18
48
1
60
0
100
AcDbLine
10
0.394519
20
-15.577756
30
0
11
0.394519
21
-15.535108
31
0
39
0
210
0
220
0
230
1
0
LINE
5
FF
100
AcDbEntity
8
1
62
256
6
ByLayer
370
18
48
1
60
0
100
AcDbLine
10
8.212012
20
-11.776685
30
0
11
8.212012
21
-15.95258
31
0
39
0
210
0
220
0
230
1
0
LINE
5
100
100
AcDbEntity
8
1
62
256
6
ByLayer
370
18
48
1
60
0
100
AcDbLine
10
0.394519
20
-14.265045
30
0
11
0.394519
21
-14.124996
31
0
39
0
210
0
220
0
230
1
0
LINE
5
101
100
AcDbEntity
8
1
62
256
6
ByLayer
370
18
48
1
60
0
100
AcDbLine
10
30.346636
20
-6.522873
30
0
11
30.53115
21
-6.818256
31
0
39
0
210
0
220
0
230
1
0
LINE
5
102
100
AcDbEntity
8
1
62
256
6
ByLayer
370
18
48
1
60
0
100
AcDbLine
10
0
20
9.03882
30
0
11
0
21
9.985002
31
0
39
0
210
0
220
0
230
1
0
LINE
5
103
100
AcDbEntity
8
1
62
256
6
ByLayer
370
18
48
1
60
0
100
AcDbLine
10
0
20
-11.503267
30
0
11
0
21
-12.122304
31
0
39
0
210
0
220
0
230
1
0
LINE
5
104
100
AcDbEntity
8
1
62
256
6
ByLayer
370
18
48
1
60
0
100
AcDbLine
10
0
20
-15.098022
30
0
11
0
21
-14.948253
31
0
39
0
210
0
220
0
230
1
0
LINE
5
105
100
AcDbEntity
8
1
62
256
6
ByLayer
370
18
48
1
60
0
100
AcDbLine
10
0
20
-14.758904
30
0
11
0
21
-14.528429
31
0
39
0
210
0
220
0
230
1
0
LINE
5
106
100
AcDbEntity
8
1
62
256
6
ByLayer
370
18
48
1
60
0
100
AcDbLine
10
12.131154
20
-14.218101
30
0
11
12.559734
21
-13.921691
31
0
39
0
210
0
220
0
230
1
0
LINE
5
107
100
AcDbEntity
8
1
62
256
6
ByLayer
370
18
48
1
60
0
100
AcDbLine
10
0.394519
20
-9.394584
30
0
11
0.394519
21
-8.985919
31
0
39
0
210
0
220
0
230
1
0
LINE
5
108
100
AcDbEntity
8
1
62
256
6
ByLayer
370
18
48
1
60
0
100
AcDbLine
10
0.394519
20
8.985919
30
0
11
0.394519
21
9.394584
31
0
39
0
210
0
220
0
230
1
0
LINE
5
109
100
AcDbEntity
8
1
62
256
6
ByLayer
370
18
48
1
60
0
100
AcDbLine
10
19.144262
20
-13.098061
30
0
11
18.6369
21
-12.239802
31
0
39
0
210
0
220
0
230
1
0
LINE
5
10A
100
AcDbEntity
8
1
62
256
6
ByLayer
370
18
48
1
60
0
100
AcDbLine
10
12.131154
20
-14.21811
30
0
11
12.131154
21
-14.218101
31
0
39
0
210
0
220
0
230
1
0
LINE
5
10B
100
AcDbEntity
8
1
62
256
6
ByLayer
370
18
48
1
60
0
100
AcDbLine
10
6.9497
20
13.555442
30
0
11
6.9497
21
-13.555442
31
0
39
0
210
0
220
0
230
1
0
LINE
5
10C
100
AcDbEntity
8
1
62
256
6
ByLayer
370
18
48
1
60
0
100
AcDbLine
10
18.162605
20
-11.394889
30
0
11
18.102196
21
-11.276594
31
0
39
0
210
0
220
0
230
1
0
LINE
5
10D
100
AcDbEntity
8
1
62
256
6
ByLayer
370
18
48
1
60
0
100
AcDbLine
10
0
20
-14.75877
30
0
11
0
21
-14.948253
31
0
39
0
210
0
220
0
230
1
0
LINE
5
10E
100
AcDbEntity
8
1
62
256
6
ByLayer
370
18
48
1
60
0
100
AcDbLine
10
0
20
-4.577145
30
0
11
0
21
4.577145
31
0
39
0
210
0
220
0
230
1
0
LINE
5
10F
100
AcDbEntity
8
1
62
256
6
ByLayer
370
18
48
1
60
0
100
AcDbLine
10
0.394519
20
-15.300594
30
0
11
0.394519
21
-15.228194
31
0
39
0
210
0
220
0
230
1
0
LINE
5
110
100
AcDbEntity
8
1
62
256
6
ByLayer
370
18
48
1
60
0
100
AcDbLine
10
29.364979
20
-4.819701
30
0
11
26.930213
21
-6.248777
31
0
39
0
210
0
220
0
230
1
0
LINE
5
111
100
AcDbEntity
8
1
62
256
6
ByLayer
370
18
48
1
60
0
100
AcDbLine
10
20.407981
20
-10.076975
30
0
11
18.162605
21
-11.394889
31
0
39
0
210
0
220
0
230
1
0
LINE
5
112
100
AcDbEntity
8
1
62
256
6
ByLayer
370
18
48
1
60
0
100
AcDbLine
10
12.131154
20
-14.21811
30
0
11
13.157521
21
-15.954323
31
0
39
0
210
0
220
0
230
1
0
LINE
5
113
100
AcDbEntity
8
1
62
256
6
ByLayer
370
18
48
1
60
0
100
AcDbLine
10
0
20
14.254772
30
0
11
0
21
14.528429
31
0
39
0
210
0
220
0
230
1
0
LINE
5
114
100
AcDbEntity
8
1
62
256
6
ByLayer
370
18
48
1
60
0
100
AcDbLine
10
0.394519
20
-1.908285
30
0
11
0.394519
21
1.908285
31
0
39
0
210
0
220
0
230
1
0
LINE
5
115
100
AcDbEntity
8
1
62
256
6
ByLayer
370
18
48
1
60
0
100
AcDbLine
10
23.353476
20
-3.886981
30
0
11
22.877784
21
-3.633017
31
0
39
0
210
0
220
0
230
1
0
LINE
5
116
100
AcDbEntity
8
1
62
256
6
ByLayer
370
18
48
1
60
0
100
AcDbLine
10
12.559734
20
-13.921691
30
0
11
13.779259
21
-15.984653
31
0
39
0
210
0
220
0
230
1
0
LINE
5
117
100
AcDbEntity
8
1
62
256
6
ByLayer
370
18
48
1
60
0
100
AcDbLine
10
0
20
-9.985002
30
0
11
0
21
-9.03882
31
0
39
0
210
0
220
0
230
1
0
LINE
5
118
100
AcDbEntity
8
1
62
256
6
ByLayer
370
18
48
1
60
0
100
AcDbLine
10
30.562839
20
-7.422932
30
0
11
30.53115
21
-6.818256
31
0
39
0
210
0
220
0
230
1
0
LINE
5
119
100
AcDbEntity
8
1
62
256
6
ByLayer
370
18
48
1
60
0
100
AcDbLine
10
22.877784
20
-3.633026
30
0
11
22.638798
21
-3.484285
31
0
39
0
210
0
220
0
230
1
0
LINE
5
11A
100
AcDbEntity
8
1
62
256
6
ByLayer
370
18
48
1
60
0
100
AcDbLine
10
12.661683
20
-3.283645
30
0
11
12.700602
21
-3.283645
31
0
39
0
210
0
220
0
230
1
0
LINE
5
11B
100
AcDbEntity
8
1
62
256
6
ByLayer
370
18
48
1
60
0
100
AcDbLine
10
0.394519
20
15.535108
30
0
11
0.394519
21
15.577756
31
0
39
0
210
0
220
0
230
1
0
LINE
5
11C
100
AcDbEntity
8
1
62
256
6
ByLayer
370
18
48
1
60
0
100
AcDbLine
10
0
20
12.122304
30
0
11
0
21
12.666896
31
0
39
0
210
0
220
0
230
1
0
LINE
5
11D
100
AcDbEntity
8
1
62
256
6
ByLayer
370
18
48
1
60
0
100
AcDbLine
10
0.394519
20
-15.707477
30
0
11
0.394519
21
-15.693314
31
0
39
0
210
0
220
0
230
1
0
LINE
5
11E
100
AcDbEntity
8
1
62
256
6
ByLayer
370
18
48
1
60
0
100
AcDbLine
10
0
20
13.935575
30
0
11
0
21
14.254833
31
0
39
0
210
0
220
0
230
1
0
LINE
5
11F
100
AcDbEntity
8
1
62
256
6
ByLayer
370
18
48
1
60
0
100
AcDbLine
10
0
20
-13.567411
30
0
11
0
21
-13.935575
31
0
39
0
210
0
220
0
230
1
0
LINE
5
120
100
AcDbEntity
8
1
62
256
6
ByLayer
370
18
48
1
60
0
100
AcDbLine
10
0
20
9.03882
30
0
11
0
21
7.910379
31
0
39
0
210
0
220
0
230
1
0
LINE
5
121
100
AcDbEntity
8
1
62
256
6
ByLayer
370
18
48
1
60
0
100
AcDbLine
10
0
20
-7.910379
30
0
11
0
21
-9.03882
31
0
39
0
210
0
220
0
230
1
0
LINE
5
122
100
AcDbEntity
8
1
62
256
6
ByLayer
370
18
48
1
60
0
100
AcDbLine
10
0
20
-12.666896
30
0
11
0
21
-12.122304
31
0
39
0
210
0
220
0
230
1
0
LINE
5
123
100
AcDbEntity
8
1
62
256
6
ByLayer
370
18
48
1
60
0
100
AcDbLine
10
29.417417
20
-4.483739
30
0
11
30.505242
21
-6.323915
31
0
39
0
210
0
220
0
230
1
0
LINE
5
124
100
AcDbEntity
8
1
62
256
6
ByLayer
370
18
48
1
60
0
100
AcDbLine
10
19.847758
20
-5.122474
30
0
11
19.340396
21
-4.264216
31
0
39
0
210
0
220
0
230
1
0
LINE
5
125
100
AcDbEntity
8
1
62
256
6
ByLayer
370
18
48
1
60
0
100
AcDbLine
10
0.394519
20
-11.127288
30
0
11
0.394519
21
-10.82546
31
0
39
0
210
0
220
0
230
1
0
LINE
5
126
100
AcDbEntity
8
1
62
256
6
ByLayer
370
18
48
1
60
0
100
AcDbLine
10
0.394519
20
10.82546
30
0
11
0.394519
21
11.127288
31
0
39
0
210
0
220
0
230
1
0
LINE
5
127
100
AcDbEntity
8
1
62
256
6
ByLayer
370
18
48
1
60
0
100
AcDbLine
10
13.442284
20
-9.171145
30
0
11
13.693684
21
-9.556756
31
0
39
0
210
0
220
0
230
1
0
LINE
5
128
100
AcDbEntity
8
1
62
256
6
ByLayer
370
18
48
1
60
0
100
AcDbLine
10
12.131154
20
-14.218101
30
0
11
13.15753
21
-15.95433
31
0
39
0
210
0
220
0
230
1
0
LINE
5
129
100
AcDbEntity
8
1
62
256
6
ByLayer
370
18
48
1
60
0
100
AcDbLine
10
0
20
13.935575
30
0
11
0
21
13.567411
31
0
39
0
210
0
220
0
230
1
0
LINE
5
12A
100
AcDbEntity
8
1
62
256
6
ByLayer
370
18
48
1
60
0
100
AcDbLine
10
0.394519
20
-14.867745
30
0
11
0.394519
21
-14.763382
31
0
39
0
210
0
220
0
230
1
0
LINE
5
12B
100
AcDbEntity
8
1
62
256
6
ByLayer
370
18
48
1
60
0
100
AcDbLine
10
18.6369
20
-12.239802
30
0
11
18.162605
21
-11.394889
31
0
39
0
210
0
220
0
230
1
0
LINE
5
12C
100
AcDbEntity
8
1
62
256
6
ByLayer
370
18
48
1
60
0
100
AcDbLine
10
0.394519
20
15.228194
30
0
11
0.394519
21
15.300594
31
0
39
0
210
0
220
0
230
1
0
LINE
5
12D
100
AcDbEntity
8
1
62
256
6
ByLayer
370
18
48
1
60
0
100
AcDbLine
10
29.417417
20
-4.483739
30
0
11
26.584778
21
-6.146344
31
0
39
0
210
0
220
0
230
1
0
LINE
5
12E
100
AcDbEntity
8
1
62
256
6
ByLayer
370
18
48
1
60
0
100
AcDbLine
10
20.392485
20
-9.780885
30
0
11
17.870354
21
-11.26124
31
0
39
0
210
0
220
0
230
1
0
LINE
5
12F
100
AcDbEntity
8
1
62
256
6
ByLayer
370
18
48
1
60
0
100
AcDbLine
10
0
20
9.985022
30
0
11
0
21
10.797002
31
0
39
0
210
0
220
0
230
1
0
LINE
5
130
100
AcDbEntity
8
1
62
256
6
ByLayer
370
18
48
1
60
0
100
AcDbLine
10
20.575964
20
-13.284687
30
0
11
19.665566
21
-13.819042
31
0
39
0
210
0
220
0
230
1
0
LINE
5
131
100
AcDbEntity
8
1
62
256
6
ByLayer
370
18
48
1
60
0
100
AcDbLine
10
0
20
-15.283169
30
0
11
0
21
-15.209381
31
0
39
0
210
0
220
0
230
1
0
LINE
5
132
100
AcDbEntity
8
1
62
256
6
ByLayer
370
18
48
1
60
0
100
AcDbLine
10
29.549352
20
-0.250336
30
0
11
23.353476
21
-3.886981
31
0
39
0
210
0
220
0
230
1
0
LINE
5
133
100
AcDbEntity
8
1
62
256
6
ByLayer
370
18
48
1
60
0
100
AcDbLine
10
0
20
14.528429
30
0
11
0
21
14.758904
31
0
39
0
210
0
220
0
230
1
0
LINE
5
134
100
AcDbEntity
8
1
62
256
6
ByLayer
370
18
48
1
60
0
100
AcDbLine
10
30.346636
20
-6.522873
30
0
11
28.801584
21
-7.429735
31
0
39
0
210
0
220
0
230
1
0
LINE
5
135
100
AcDbEntity
8
1
62
256
6
ByLayer
370
18
48
1
60
0
100
AcDbLine
10
20.523729
20
-12.288388
30
0
11
19.144262
21
-13.098061
31
0
39
0
210
0
220
0
230
1
0
LINE
5
136
100
AcDbEntity
8
1
62
256
6
ByLayer
370
18
48
1
60
0
100
AcDbLine
10
0
20
-7.910453
30
0
11
0
21
-6.505787
31
0
39
0
210
0
220
0
230
1
0
LINE
5
137
100
AcDbEntity
8
1
62
256
6
ByLayer
370
18
48
1
60
0
100
AcDbLine
10
30.17382
20
0
30
0
11
30.505242
21
-6.323915
31
0
39
0
210
0
220
0
230
1
0
LINE
5
138
100
AcDbEntity
8
1
62
256
6
ByLayer
370
18
48
1
60
0
100
AcDbLine
10
22.638798
20
-3.484285
30
0
11
22.131436
21
-2.626026
31
0
39
0
210
0
220
0
230
1
0
LINE
5
139
100
AcDbEntity
8
1
62
256
6
ByLayer
370
18
48
1
60
0
100
AcDbLine
10
20.069615
20
-5.534284
30
0
11
19.875285
21
-5.648345
31
0
39
0
210
0
220
0
230
1
0
LINE
5
13A
100
AcDbEntity
8
1
62
256
6
ByLayer
370
18
48
1
60
0
100
AcDbLine
10
13.618398
20
-15.276287
30
0
11
12.534647
21
-13.443002
31
0
39
0
210
0
220
0
230
1
0
LINE
5
13B
100
AcDbEntity
8
1
62
256
6
ByLayer
370
18
48
1
60
0
100
AcDbLine
10
0.394519
20
15.693314
30
0
11
0.394519
21
15.707477
31
0
39
0
210
0
220
0
230
1
0
LINE
5
13C
100
AcDbEntity
8
1
62
256
6
ByLayer
370
18
48
1
60
0
100
AcDbLine
10
0
20
6.505787
30
0
11
0
21
7.910453
31
0
39
0
210
0
220
0
230
1
0
LINE
5
13D
100
AcDbEntity
8
1
62
256
6
ByLayer
370
18
48
1
60
0
100
AcDbLine
10
29.364979
20
-4.819701
30
0
11
29.30457
21
-4.701406
31
0
39
0
210
0
220
0
230
1
0
LINE
5
13E
100
AcDbEntity
8
1
62
256
6
ByLayer
370
18
48
1
60
0
100
AcDbLine
10
29.839275
20
-5.664614
30
0
11
29.364979
21
-4.819701
31
0
39
0
210
0
220
0
230
1
0
LINE
5
13F
100
AcDbEntity
8
1
62
256
6
ByLayer
370
18
48
1
60
0
100
AcDbLine
10
0
20
13.146302
30
0
11
0
21
13.567434
31
0
39
0
210
0
220
0
230
1
0
LINE
5
140
100
AcDbEntity
8
1
62
256
6
ByLayer
370
18
48
1
60
0
100
AcDbLine
10
30.528737
20
-6.772219
30
0
11
29.30457
21
-4.701406
31
0
39
0
210
0
220
0
230
1
0
LINE
5
141
100
AcDbEntity
8
1
62
256
6
ByLayer
370
18
48
1
60
0
100
AcDbLine
10
0
20
-6.505787
30
0
11
0
21
-4.577024
31
0
39
0
210
0
220
0
230
1
0
LINE
5
142
100
AcDbEntity
8
1
62
256
6
ByLayer
370
18
48
1
60
0
100
AcDbLine
10
0
20
4.577024
30
0
11
0
21
6.505787
31
0
39
0
210
0
220
0
230
1
0
LINE
5
143
100
AcDbEntity
8
1
62
256
6
ByLayer
370
18
48
1
60
0
100
AcDbLine
10
0
20
15.209381
30
0
11
0
21
15.283169
31
0
39
0
210
0
220
0
230
1
0
LINE
5
144
100
AcDbEntity
8
1
62
256
6
ByLayer
370
18
48
1
60
0
100
AcDbLine
10
0
20
-15.209381
30
0
11
0
21
-15.098013
31
0
39
0
210
0
220
0
230
1
0
LINE
5
145
100
AcDbEntity
8
1
62
256
6
ByLayer
370
18
48
1
60
0
100
AcDbLine
10
12.661683
20
-3.283645
30
0
11
12.481571
21
-3.122746
31
0
39
0
210
0
220
0
230
1
0
LINE
5
146
100
AcDbEntity
8
1
62
256
6
ByLayer
370
18
48
1
60
0
100
AcDbLine
10
12.481571
20
-3.122746
30
0
11
12.337836
21
-3.283645
31
0
39
0
210
0
220
0
230
1
0
LINE
5
147
100
AcDbEntity
8
1
62
256
6
ByLayer
370
18
48
1
60
0
100
AcDbLine
10
0
20
12.66689
30
0
11
0
21
13.146302
31
0
39
0
210
0
220
0
230
1
0
LINE
5
148
100
AcDbEntity
8
1
62
256
6
ByLayer
370
18
48
1
60
0
100
AcDbLine
10
30.574679
20
-7.648846
30
0
11
29.881129
21
-8.055923
31
0
39
0
210
0
220
0
230
1
0
LINE
5
149
100
AcDbEntity
8
1
62
256
6
ByLayer
370
18
48
1
60
0
100
AcDbLine
10
0.394519
20
12.211978
30
0
11
0.394519
21
12.444873
31
0
39
0
210
0
220
0
230
1
0
LINE
5
14A
100
AcDbEntity
8
1
62
256
6
ByLayer
370
18
48
1
60
0
100
AcDbLine
10
24.182043
20
5.685984
30
0
11
17.05
21
5.685984
31
0
39
0
210
0
220
0
230
1
0
LINE
5
14B
100
AcDbEntity
8
1
62
256
6
ByLayer
370
18
48
1
60
0
100
AcDbLine
10
0.394519
20
-6.942613
30
0
11
0.394519
21
-6.309317
31
0
39
0
210
0
220
0
230
1
0
LINE
5
14C
100
AcDbEntity
8
1
62
256
6
ByLayer
370
18
48
1
60
0
100
AcDbLine
10
0.394519
20
6.309317
30
0
11
0.394519
21
6.942613
31
0
39
0
210
0
220
0
230
1
0
LINE
5
14D
100
AcDbEntity
8
1
62
256
6
ByLayer
370
18
48
1
60
0
100
AcDbLine
10
19.340396
20
-4.264216
30
0
11
19.313028
21
-3.742
31
0
39
0
210
0
220
0
230
1
0
LINE
5
14E
100
AcDbEntity
8
1
62
256
6
ByLayer
370
18
48
1
60
0
100
AcDbLine
10
0
20
-14.254833
30
0
11
0
21
-13.935575
31
0
39
0
210
0
220
0
230
1
0
LINE
5
14F
100
AcDbEntity
8
1
62
256
6
ByLayer
370
18
48
1
60
0
100
AcDbLine
10
0.394519
20
-13.469714
30
0
11
0.394519
21
-13.288111
31
0
39
0
210
0
220
0
230
1
0
LINE
5
150
100
AcDbEntity
8
1
62
256
6
ByLayer
370
18
48
1
60
0
100
AcDbLine
10
7.4497
20
-3.283645
30
0
11
12.337836
21
-3.283645
31
0
39
0
210
0
220
0
230
1
0
LINE
5
151
100
AcDbEntity
8
1
62
256
6
ByLayer
370
18
48
1
60
0
100
AcDbLine
10
29.839275
20
-5.664614
30
0
11
27.845952
21
-6.834587
31
0
39
0
210
0
220
0
230
1
0
LINE
5
152
100
AcDbEntity
8
1
62
256
6
ByLayer
370
18
48
1
60
0
100
AcDbLine
10
20.464988
20
-11.166814
30
0
11
18.6369
21
-12.239802
31
0
39
0
210
0
220
0
230
1
0
LINE
5
153
100
AcDbEntity
8
1
62
256
6
ByLayer
370
18
48
1
60
0
100
AcDbLine
10
11.450402
20
-4.883391
30
0
11
10.7787
21
-4.28334
31
0
39
0
210
0
220
0
230
1
0
LINE
5
154
100
AcDbEntity
8
1
62
256
6
ByLayer
370
18
48
1
60
0
100
AcDbLine
10
19.999825
20
-13.879356
30
0
11
19.999962
21
-13.881967
31
0
39
0
210
0
220
0
230
1
0
LINE
5
155
100
AcDbEntity
8
1
62
256
6
ByLayer
370
18
48
1
60
0
100
AcDbLine
10
0
20
14.948253
30
0
11
0
21
14.75877
31
0
39
0
210
0
220
0
230
1
0
LINE
5
156
100
AcDbEntity
8
1
62
256
6
ByLayer
370
18
48
1
60
0
100
AcDbLine
10
0
20
-15.283069
30
0
11
0
21
-15.31993
31
0
39
0
210
0
220
0
230
1
0
LINE
5
157
100
AcDbEntity
8
1
62
256
6
ByLayer
370
18
48
1
60
0
100
AcDbLine
10
20.016652
20
-4.523697
30
0
11
20.069615
21
-5.534284
31
0
39
0
210
0
220
0
230
1
0
LINE
5
158
100
AcDbEntity
8
1
62
256
6
ByLayer
370
18
48
1
60
0
100
AcDbLine
10
19.999962
20
-13.881967
30
0
11
19.988405
21
-13.862417
31
0
39
0
210
0
220
0
230
1
0
LINE
5
159
100
AcDbEntity
8
1
62
256
6
ByLayer
370
18
48
1
60
0
100
AcDbLine
10
0
20
-13.567434
30
0
11
0
21
-13.146302
31
0
39
0
210
0
220
0
230
1
0
LINE
5
15A
100
AcDbEntity
8
1
62
256
6
ByLayer
370
18
48
1
60
0
100
AcDbLine
10
30.619303
20
-8.500315
30
0
11
30.574683
21
-7.648915
31
0
39
0
210
0
220
0
230
1
0
LINE
5
15B
100
AcDbEntity
8
1
62
256
6
ByLayer
370
18
48
1
60
0
100
AcDbLine
10
19.862453
20
-5.402862
30
0
11
19.847758
21
-5.122474
31
0
39
0
210
0
220
0
230
1
0
LINE
5
15C
100
AcDbEntity
8
1
62
256
6
ByLayer
370
18
48
1
60
0
100
AcDbLine
10
0
20
-14.528429
30
0
11
0
21
-14.254772
31
0
39
0
210
0
220
0
230
1
0
LINE
5
15D
100
AcDbEntity
8
1
62
256
6
ByLayer
370
18
48
1
60
0
100
AcDbLine
10
7.05
20
15.685984
30
0
11
7.05
21
16
31
0
39
0
210
0
220
0
230
1
0
LINE
5
15E
100
AcDbEntity
8
1
62
256
6
ByLayer
370
18
48
1
60
0
100
AcDbLine
10
19.971343
20
-13.872431
30
0
11
19.988405
21
-13.862417
31
0
39
0
210
0
220
0
230
1
0
LINE
5
15F
100
AcDbEntity
8
1
62
256
6
ByLayer
370
18
48
1
60
0
100
AcDbLine
10
19.862453
20
-5.402862
30
0
11
13.442284
21
-9.171154
31
0
39
0
210
0
220
0
230
1
0
LINE
5
160
100
AcDbEntity
8
1
62
256
6
ByLayer
370
18
48
1
60
0
100
AcDbLine
10
0.394519
20
13.288111
30
0
11
0.394519
21
13.469714
31
0
39
0
210
0
220
0
230
1
0
LINE
5
161
100
AcDbEntity
8
1
62
256
6
ByLayer
370
18
48
1
60
0
100
AcDbLine
10
15.357173
20
-15.211557
30
0
11
15.682744
21
-14.887218
31
0
39
0
210
0
220
0
230
1
0
LINE
5
162
100
AcDbEntity
8
1
62
256
6
ByLayer
370
18
48
1
60
0
100
AcDbLine
10
12.214451
20
3.283645
30
0
11
7.4497
21
3.283645
31
0
39
0
210
0
220
0
230
1
0
LINE
5
163
100
AcDbEntity
8
1
62
256
6
ByLayer
370
18
48
1
60
0
100
AcDbLine
10
19.88956
20
-5.920112
30
0
11
13.693684
21
-9.556756
31
0
39
0
210
0
220
0
230
1
0
LINE
5
164
100
AcDbEntity
8
1
62
256
6
ByLayer
370
18
48
1
60
0
100
AcDbLine
10
0
20
-13.146302
30
0
11
0
21
-12.66689
31
0
39
0
210
0
220
0
230
1
0
LINE
5
165
100
AcDbEntity
8
1
62
256
6
ByLayer
370
18
48
1
60
0
100
AcDbLine
10
0
20
10.797002
30
0
11
0
21
11.503272
31
0
39
0
210
0
220
0
230
1
0
LINE
5
166
100
AcDbEntity
8
1
62
256
6
ByLayer
370
18
48
1
60
0
100
AcDbLine
10
19.907371
20
-2.081748
30
0
11
19.940904
21
-2.062067
31
0
39
0
210
0
220
0
230
1
0
LINE
5
167
100
AcDbEntity
8
1
62
256
6
ByLayer
370
18
48
1
60
0
100
AcDbLine
10
0.675481
20
16
30
0
11
0.675481
21
-16
31
0
39
0
210
0
220
0
230
1
0
LINE
5
168
100
AcDbEntity
8
1
62
256
6
ByLayer
370
18
48
1
60
0
100
AcDbLine
10
12.661683
20
-3.283645
30
0
11
12.678356
21
-3.29854
31
0
39
0
210
0
220
0
230
1
0
LINE
5
169
100
AcDbEntity
8
1
62
256
6
ByLayer
370
18
48
1
60
0
100
AcDbLine
10
20.587805
20
-13.510601
30
0
11
19.988405
21
-13.862417
31
0
39
0
210
0
220
0
230
1
0
LINE
5
16A
100
AcDbEntity
8
1
62
256
6
ByLayer
370
18
48
1
60
0
100
AcDbLine
10
30.53115
20
-6.818256
30
0
11
30.528737
21
-6.772219
31
0
39
0
210
0
220
0
230
1
0
LINE
5
16B
100
AcDbEntity
8
1
62
256
6
ByLayer
370
18
48
1
60
0
100
AcDbLine
10
0
20
-15.324519
30
0
11
0
21
-15.31993
31
0
39
0
210
0
220
0
230
1
0
LINE
5
16C
100
AcDbEntity
8
1
62
256
6
ByLayer
370
18
48
1
60
0
100
AcDbLine
10
19.82039
20
-4.600259
30
0
11
19.313028
21
-3.742
31
0
39
0
210
0
220
0
230
1
0
LINE
5
16D
100
AcDbEntity
8
1
62
256
6
ByLayer
370
18
48
1
60
0
100
AcDbLine
10
0
20
14.948253
30
0
11
0
21
15.098022
31
0
39
0
210
0
220
0
230
1
0
LINE
5
16E
100
AcDbEntity
8
1
62
256
6
ByLayer
370
18
48
1
60
0
100
AcDbLine
10
19.847758
20
-5.122474
30
0
11
19.82039
21
-4.600259
31
0
39
0
210
0
220
0
230
1
0
LINE
5
16F
100
AcDbEntity
8
1
62
256
6
ByLayer
370
18
48
1
60
0
100
AcDbLine
10
0
20
15.31993
30
0
11
0
21
15.324519
31
0
39
0
210
0
220
0
230
1
0
LINE
5
170
100
AcDbEntity
8
1
62
256
6
ByLayer
370
18
48
1
60
0
100
AcDbLine
10
7.4497
20
3.283645
30
0
11
7.4497
21
-3.283645
31
0
39
0
210
0
220
0
230
1
0
LINE
5
171
100
AcDbEntity
8
1
62
256
6
ByLayer
370
18
48
1
60
0
100
AcDbLine
10
0.394519
20
-12.444873
30
0
11
0.394519
21
-12.211978
31
0
39
0
210
0
220
0
230
1
0
LINE
5
172
100
AcDbEntity
8
1
62
256
6
ByLayer
370
18
48
1
60
0
100
AcDbLine
10
0
20
15.31993
30
0
11
0
21
15.283069
31
0
39
0
210
0
220
0
230
1
0
LINE
5
173
100
AcDbEntity
8
1
62
256
6
ByLayer
370
18
48
1
60
0
100
AcDbLine
10
29.839275
20
-5.664614
30
0
11
30.346636
21
-6.522873
31
0
39
0
210
0
220
0
230
1
0
LINE
5
174
100
AcDbEntity
8
1
62
256
6
ByLayer
370
18
48
1
60
0
100
AcDbLine
10
19.320436
20
-13.714214
30
0
11
17.870354
21
-11.26124
31
0
39
0
210
0
220
0
230
1
0
LINE
5
175
100
AcDbEntity
8
1
62
256
6
ByLayer
370
18
48
1
60
0
100
AcDbLine
10
0
20
-10.797002
30
0
11
0
21
-9.985022
31
0
39
0
210
0
220
0
230
1
0
LINE
5
176
100
AcDbEntity
8
1
62
256
6
ByLayer
370
18
48
1
60
0
100
AcDbLine
10
19.48446
20
-3.623436
30
0
11
20.016652
21
-4.523697
31
0
39
0
210
0
220
0
230
1
0
LINE
5
177
100
AcDbEntity
8
1
62
256
6
ByLayer
370
18
48
1
60
0
100
AcDbLine
10
29.297952
20
0.135275
30
0
11
29.549352
21
-0.250336
31
0
39
0
210
0
220
0
230
1
0
LINE
5
178
100
AcDbEntity
8
1
62
256
6
ByLayer
370
18
48
1
60
0
100
AcDbLine
10
12.534647
20
-13.443002
30
0
11
12.559734
21
-13.921691
31
0
39
0
210
0
220
0
230
1
0
LINE
5
179
100
AcDbEntity
8
1
62
256
6
ByLayer
370
18
48
1
60
0
100
AcDbLine
10
0.394519
20
14.763382
30
0
11
0.394519
21
14.867745
31
0
39
0
210
0
220
0
230
1
0
LINE
5
17A
100
AcDbEntity
8
1
62
256
6
ByLayer
370
18
48
1
60
0
100
AcDbLine
10
0
20
-11.503272
30
0
11
0
21
-10.797002
31
0
39
0
210
0
220
0
230
1
0
LINE
5
17B
100
AcDbEntity
8
1
62
256
6
ByLayer
370
18
48
1
60
0
100
AcDbLine
10
19.144262
20
-13.098061
30
0
11
19.584444
21
-13.802739
31
0
39
0
210
0
220
0
230
1
0
LINE
5
17C
100
AcDbEntity
8
1
62
256
6
ByLayer
370
18
48
1
60
0
100
AcDbLine
10
19.989449
20
-13.861804
30
0
11
19.999825
21
-13.879356
31
0
39
0
210
0
220
0
230
1
0
LINE
5
17D
100
AcDbEntity
8
1
62
256
6
ByLayer
370
18
48
1
60
0
100
AcDbLine
10
30.574679
20
-7.648846
30
0
11
30.562839
21
-7.422932
31
0
39
0
210
0
220
0
230
1
0
LINE
5
17E
100
AcDbEntity
8
1
62
256
6
ByLayer
370
18
48
1
60
0
100
AcDbLine
10
19.862452
20
-5.402854
30
0
11
19.88956
21
-5.920112
31
0
39
0
210
0
220
0
230
1
0
LINE
5
17F
100
AcDbEntity
8
1
62
256
6
ByLayer
370
18
48
1
60
0
100
AcDbLine
10
0.394519
20
14.124996
30
0
11
0.394519
21
14.265045
31
0
39
0
210
0
220
0
230
1
0
LINE
5
180
100
AcDbEntity
8
1
62
256
6
ByLayer
370
18
48
1
60
0
100
AcDbLine
10
30.562839
20
-7.422932
30
0
11
29.679018
21
-7.941687
31
0
39
0
210
0
220
0
230
1
0
LINE
5
181
100
AcDbEntity
8
1
62
256
6
ByLayer
370
18
48
1
60
0
100
AcDbLine
10
0
20
12.122304
30
0
11
0
21
11.503267
31
0
39
0
210
0
220
0
230
1
0
LINE
5
182
100
AcDbEntity
8
1
62
256
6
ByLayer
370
18
48
1
60
0
100
AcDbLine
10
30.505242
20
-6.323915
30
0
11
30.528737
21
-6.772219
31
0
39
0
210
0
220
0
230
1
0
LINE
5
183
100
AcDbEntity
8
1
62
256
6
ByLayer
370
18
48
1
60
0
100
AcDbLine
10
29.297953
20
0.135266
30
0
11
22.877784
21
-3.633026
31
0
39
0
210
0
220
0
230
1
0
LINE
5
184
100
AcDbEntity
8
1
62
256
6
ByLayer
370
18
48
1
60
0
100
AcDbLine
10
0
20
15.098013
30
0
11
0
21
15.209381
31
0
39
0
210
0
220
0
230
1
0
LINE
5
185
100
AcDbEntity
8
SK1
62
256
6
ByLayer
370
18
48
1
60
0
100
AcDbLine
10
0
20
-15.324519
30
0
11
0
21
-15.31993
31
0
39
0
210
0
220
0
230
1
0
LINE
5
186
100
AcDbEntity
8
SK1
62
256
6
ByLayer
370
18
48
1
60
0
100
AcDbLine
10
-0.249519
20
-15.073231
30
0
11
-0.249519
21
-15.021469
31
0
39
0
210
0
220
0
230
1
0
LINE
5
187
100
AcDbEntity
8
SK1
62
256
6
ByLayer
370
18
48
1
60
0
100
AcDbLine
10
-0.324519
20
-14.99966
30
0
11
-0.324519
21
-15
31
0
39
0
210
0
220
0
230
1
0
LINE
5
188
100
AcDbEntity
8
SK1
62
256
6
ByLayer
370
18
48
1
60
0
100
AcDbLine
10
-0.324519
20
-14.99966
30
0
11
-0.324519
21
-14.934566
31
0
39
0
210
0
220
0
230
1
0
LINE
5
189
100
AcDbEntity
8
SK1
62
256
6
ByLayer
370
18
48
1
60
0
100
AcDbLine
10
0
20
-15.283069
30
0
11
0
21
-15.31993
31
0
39
0
210
0
220
0
230
1
0
LINE
5
18A
100
AcDbEntity
8
4
62
256
6
ByLayer
370
18
48
0.05
60
0
100
AcDbLine
10
0
20
0
30
0
11
37.086808
21
0
31
0
39
0
210
0
220
0
230
1
0
LINE
5
18C
100
AcDbEntity
8
SK4
62
256
6
ByLayer
370
18
48
0.05
60
0
100
AcDbLine
10
30.086808
20
0
30
0
11
-12
21
0
31
0
39
0
210
0
220
0
230
1
0
LINE
5
18E
100
AcDbEntity
8
1
62
256
6
ByLayer
370
18
48
1
60
0
100
AcDbLine
10
28.655238
20
-12.200012
30
0
11
28.650109
21
-12.102135
31
0
39
0
210
0
220
0
230
1
0
LINE
5
18F
100
AcDbEntity
8
1
62
256
6
ByLayer
370
18
48
1
60
0
100
AcDbLine
10
23.407303
20
-12.376899
30
0
11
23.412433
21
-12.474776
31
0
39
0
210
0
220
0
230
1
0
LINE
5
190
100
AcDbEntity
8
1
62
256
6
ByLayer
370
18
48
1
60
0
100
AcDbLine
10
11.624593
20
-12.540344
30
0
11
11.624593
21
-12.540353
31
0
39
0
210
0
220
0
230
1
0
LINE
5
191
100
AcDbEntity
8
1
62
256
6
ByLayer
370
18
48
1
60
0
100
AcDbLine
10
13.022957
20
-0.175591
30
0
11
13.003835
21
0.189273
31
0
39
0
210
0
220
0
230
1
0
LINE
5
192
100
AcDbEntity
8
1
62
256
6
ByLayer
370
18
48
1
60
0
100
AcDbLine
10
25.095256
20
-13.260885
30
0
11
25.089687
21
-13.154618
31
0
39
0
210
0
220
0
230
1
0
LINE
5
193
100
AcDbEntity
8
1
62
256
6
ByLayer
370
18
48
1
60
0
100
AcDbLine
10
26.989175
20
-13.20358
30
0
11
26.994871
21
-13.312249
31
0
39
0
210
0
220
0
230
1
0
LINE
5
194
100
AcDbEntity
8
1
62
256
6
ByLayer
370
18
48
1
60
0
100
AcDbLine
10
26.967497
20
-11.320064
30
0
11
26.973066
21
-11.426328
31
0
39
0
210
0
220
0
230
1
0
LINE
5
195
100
AcDbEntity
8
1
62
256
6
ByLayer
370
18
48
1
60
0
100
AcDbLine
10
25.073701
20
-11.379715
30
0
11
25.068008
21
-11.271102
31
0
39
0
210
0
220
0
230
1
0
LINE
5
196
100
AcDbEntity
8
1
62
256
6
ByLayer
370
18
48
1
60
0
100
AcDbLine
10
0.675481
20
-16
30
0
11
13.820988
21
-16
31
0
39
0
210
0
220
0
230
1
0
LINE
5
197
100
AcDbEntity
8
1
62
256
6
ByLayer
370
18
48
1
60
0
100
AcDbLine
10
7.05
20
16
30
0
11
0.675481
21
16
31
0
39
0
210
0
220
0
230
1
0
LINE
5
198
100
AcDbEntity
8
SK1
62
256
6
ByLayer
370
18
48
1
60
0
100
AcDbLine
10
-0.324519
20
-15
30
0
11
0
21
-15.324519
31
0
39
0
210
0
220
0
230
1
0
LINE
5
199
100
AcDbEntity
8
1
62
256
6
ByLayer
370
18
48
1
60
0
100
AcDbLine
10
0
20
-15.324519
30
0
11
0.675481
21
-16
31
0
39
0
210
0
220
0
230
1
0
LINE
5
19A
100
AcDbEntity
8
1
62
256
6
ByLayer
370
18
48
1
60
0
100
AcDbLine
10
0.675481
20
16
30
0
11
0
21
15.324519
31
0
39
0
210
0
220
0
230
1
0
LINE
5
19B
100
AcDbEntity
8
SK1
62
256
6
ByLayer
370
18
48
1
60
0
100
AcDbLine
10
0
20
15.324519
30
0
11
-0.324519
21
15
31
0
39
0
210
0
220
0
230
1
0
LINE
5
19C
100
AcDbEntity
8
1
62
256
6
ByLayer
370
18
48
1
60
0
100
AcDbLine
10
31.184924
20
-9.207068
30
0
11
31.172721
21
-9.159281
31
0
39
0
210
0
220
0
230
1
0
LINE
5
19D
100
AcDbEntity
8
81
62
256
6
ByLayer
370
18
48
1
60
0
100
AcDbLine
10
32
20
-21.9
30
0
11
42
21
-21.9
31
0
39
0
210
0
220
0
230
1
0
LINE
5
19E
100
AcDbEntity
8
80
62
256
6
ByLayer
370
18
48
1
60
0
100
AcDbLine
10
0
20
0
30
0
11
-10
21
0
31
0
39
0
210
0
220
0
230
1
0
LINE
5
19F
100
AcDbEntity
8
2
62
256
6
ByLayer
370
13
48
1
60
0
100
AcDbLine
10
34
20
0
30
0
11
52.3939
21
0
31
0
39
0
210
0
220
0
230
1
0
LINE
5
1A0
100
AcDbEntity
8
2
62
256
6
ByLayer
370
13
48
1
60
0
100
AcDbLine
10
31.319633
20
-8.917816
30
0
11
29.724868
21
21.512108
31
0
39
0
210
0
220
0
230
1
0
LINE
5
1A1
100
AcDbEntity
8
1
62
256
6
ByLayer
370
13
48
1
60
0
100
AcDbLine
10
50.3939
20
0
30
0
11
49.847601
21
3.155455
31
0
39
0
210
0
220
0
230
1
0
LINE
5
1A2
100
AcDbEntity
8
1
62
256
6
ByLayer
370
13
48
1
60
0
100
AcDbLine
10
50.3939
20
0
30
0
11
50.682908
21
3.189331
31
0
39
0
210
0
220
0
230
1
0
LINE
5
1A3
100
AcDbEntity
8
1
62
256
6
ByLayer
370
13
48
1
60
0
100
AcDbLine
10
49.847601
20
3.155455
30
0
11
50.682908
21
3.189331
31
0
39
0
210
0
220
0
230
1
0
LINE
5
1A4
100
AcDbEntity
8
1
62
256
6
ByLayer
370
13
48
1
60
0
100
AcDbLine
10
29.82954
20
19.514849
30
0
11
32.999371
21
19.970378
31
0
39
0
210
0
220
0
230
1
0
LINE
5
1A5
100
AcDbEntity
8
1
62
256
6
ByLayer
370
13
48
1
60
0
100
AcDbLine
10
29.82954
20
19.514849
30
0
11
33.009264
21
19.134443
31
0
39
0
210
0
220
0
230
1
0
LINE
5
1A6
100
AcDbEntity
8
1
62
256
6
ByLayer
370
13
48
1
60
0
100
AcDbLine
10
32.999371
20
19.970378
30
0
11
33.009264
21
19.134443
31
0
39
0
210
0
220
0
230
1
0
MTEXT
5
2D5
100
AcDbEntity
8
2
62
256
6
ByLayer
370
18
48
1
60
0
100
AcDbMText
10
40.590041
20
19.67925
30
0
210
0
220
0
230
1
1
\W0.7588;93%%d0'
40
4.5
41
0
44
1.084337
50
316.5
71
7
72
5
7
iso_b_vert
0
MTEXT
5
2D8
100
AcDbEntity
8
SK6
62
256
6
ByLayer
370
18
48
1
60
0
100
AcDbMText
10
-16.8145
20
28.232634
30
0
210
0
220
0
230
1
1
\W0.7568;TR-SL-D13UCL-32
40
3.5
41
0
44
1.084337
50
0
71
7
72
5
7
iso_b_vert
0
DIMENSION
5
2DB
100
AcDbEntity
8
SK2
62
256
6
ByLayer
370
18
48
1
60
0
100
AcDbDimension
2
_U0
10
-7.75
20
-16
30
0
11
-7.75
21
0
31
0
70
32
71
1
72
1
41
1
210
0
220
0
230
1
3
Standard
100
AcDbAlignedDimension
13
0
23
16
33
0
14
0
24
-16
34
0
50
90
100
AcDbRotatedDimension
1001
ACAD
1000
DSTYLE
1002
{
1070
   371
1070
    13
1070
   372
1070
    13
1070
     3
1000

1070
   170
1070
     0
1070
   144
1040
1.0
1070
   277
1070
     2
1070
   284
1070
     8
1070
   278
1070
    46
1070
   146
1040
0.777778
1070
   345
1005
16
1070
   347
1005
16
1070
   346
1005
16
1070
   344
1005
2DC
1070
   343
1005
2DC
1070
   172
1070
     1
1070
    76
1070
     0
1070
    75
1070
     0
1070
   282
1070
     0
1070
   281
1070
     0
1070
    71
1070
     0
1070
   272
1070
     4
1070
   271
1070
     4
1070
    74
1070
     0
1070
   279
1070
     0
1070
   173
1070
     1
1070
   340
1005
2D6
1070
    77
1070
     1
1070
    73
1070
     0
1070
   171
1070
     4
1070
   274
1070
     4
1070
   177
1070
     2
1070
   176
1070
     2
1070
   178
1070
     7
1070
    78
1070
     8
1070
    41
1040
3.175
1070
   147
1040
2.25
1070
    42
1040
2.0
1070
    44
1040
2.0
1070
   140
1040
4.5
1002
}
1001
ACAD_DSTYLE_DIM_LINETYPE
1070
   380
1005
16
1001
ACAD_DSTYLE_DIM_EXT1_LINETYPE
1070
   381
1005
16
1001
ACAD_DSTYLE_DIM_EXT2_LINETYPE
1070
   382
1005
16
0
DIMENSION
5
300
100
AcDbEntity
8
2
62
256
6
ByLayer
370
18
48
1
60
0
100
AcDbDimension
2
_U1
10
49.336808
20
-21.9
30
0
11
49.336808
21
-10.95
31
0
70
32
71
1
72
1
41
1
210
0
220
0
230
1
3
Standard
100
AcDbAlignedDimension
13
32
23
0
33
0
14
32
24
-21.9
34
0
50
90
100
AcDbRotatedDimension
1001
ACAD
1000
DSTYLE
1002
{
1070
   371
1070
    13
1070
   372
1070
    13
1070
     3
1000

1070
   170
1070
     0
1070
   144
1040
1.0
1070
   277
1070
     2
1070
   284
1070
     8
1070
   278
1070
    46
1070
   146
1040
0.777778
1070
   345
1005
16
1070
   347
1005
16
1070
   346
1005
16
1070
   344
1005
2DC
1070
   343
1005
2DC
1070
   172
1070
     1
1070
    76
1070
     0
1070
    75
1070
     0
1070
   282
1070
     0
1070
   281
1070
     0
1070
    71
1070
     0
1070
   272
1070
     4
1070
   271
1070
     4
1070
    74
1070
     0
1070
   279
1070
     0
1070
   173
1070
     1
1070
   340
1005
2D6
1070
    77
1070
     1
1070
    73
1070
     0
1070
   171
1070
     4
1070
   274
1070
     4
1070
   177
1070
     2
1070
   176
1070
     2
1070
   178
1070
     7
1070
    78
1070
     8
1070
    41
1040
3.175
1070
   147
1040
2.25
1070
    42
1040
2.0
1070
    44
1040
2.0
1070
   140
1040
4.5
1002
}
1001
ACAD_DSTYLE_DIM_LINETYPE
1070
   380
1005
16
1001
ACAD_DSTYLE_DIM_EXT1_LINETYPE
1070
   381
1005
16
1001
ACAD_DSTYLE_DIM_EXT2_LINETYPE
1070
   382
1005
16
0
DIMENSION
5
31D
100
AcDbEntity
8
2
62
256
6
ByLayer
370
18
48
1
60
0
100
AcDbDimension
2
_U2
10
32
20
-39.15
30
0
11
16
21
-39.15
31
0
70
32
71
1
72
1
41
1
210
0
220
0
230
1
3
Standard
100
AcDbAlignedDimension
13
0
23
-16
33
0
14
32
24
-21.9
34
0
50
0
100
AcDbRotatedDimension
1001
ACAD
1000
DSTYLE
1002
{
1070
   371
1070
    13
1070
   372
1070
    13
1070
     3
1000

1070
   170
1070
     0
1070
   144
1040
1.0
1070
   277
1070
     2
1070
   284
1070
     8
1070
   278
1070
    46
1070
   146
1040
0.777778
1070
   345
1005
16
1070
   347
1005
16
1070
   346
1005
16
1070
   344
1005
2DC
1070
   343
1005
2DC
1070
   172
1070
     1
1070
    76
1070
     0
1070
    75
1070
     0
1070
   282
1070
     0
1070
   281
1070
     0
1070
    71
1070
     0
1070
   272
1070
     4
1070
   271
1070
     4
1070
    74
1070
     0
1070
   279
1070
     0
1070
   173
1070
     1
1070
   340
1005
2D6
1070
    77
1070
     1
1070
    73
1070
     1
1070
   171
1070
     4
1070
   274
1070
     4
1070
   177
1070
     2
1070
   176
1070
     2
1070
   178
1070
     7
1070
    78
1070
     8
1070
    41
1040
3.175
1070
   147
1040
2.25
1070
    42
1040
2.0
1070
    44
1040
2.0
1070
   140
1040
4.5
1002
}
1001
ACAD_DSTYLE_DIM_LINETYPE
1070
   380
1005
16
1001
ACAD_DSTYLE_DIM_EXT1_LINETYPE
1070
   381
1005
16
1001
ACAD_DSTYLE_DIM_EXT2_LINETYPE
1070
   382
1005
16
0
ENDSEC
0
SECTION
2
OBJECTS
0
DICTIONARY
5
3a9
330
0
100
AcDbDictionary
280
0
281
1
3
ACAD_GROUP
350
3aa
3
ACAD_MLINESTYLE
350
3ab
0
DICTIONARY
5
3aa
330
0
100
AcDbDictionary
280
0
281
1
0
DICTIONARY
5
3ab
330
0
100
AcDbDictionary
280
0
281
1
3
Standard
350
18
0
MLINESTYLE
5
18
330
3ab
100
AcDbMlineStyle
2
Standard
70
0
3

62
256
51
90
52
90
71
2
49
-0.5
62
256
6
ByLayer
49
0.5
62
256
6
ByLayer
0
RASTERVARIABLES
5
397
330

100
AcDbRasterVariables
90
0
70
1
71
1
72
1
0
ENDSEC
0
EOF
