0
SECTION
2
HEADER
9
$ACADVER
1
AC1015
9
$DWGCODEPAGE
3
ANSI_1252
9
$HANDSEED
5
346
9
$ANGBASE
50
0
9
$ANGDIR
70
0
9
$ATTMODE
70
1
9
$AUNITS
70
0
9
$AUPREC
70
0
9
$CECOLOR
62
256
9
$CELTSCALE
40
1
9
$CELTYPE
6
ByLayer
9
$CELWEIGHT
370
18
9
$CLAYER
8
0
9
$CMLJUST
70
0
9
$CMLSCALE
40
1
9
$CMLSTYLE
2
Standard
9
$DIMSTYLE
2
Standard
9
$TEXTSIZE
40
0.2
9
$TEXTSTYLE
7
Standard
9
$LUNITS
70
2
9
$LUPREC
70
4
9
$EXTNAMES
290
1
9
$INSUNITS
70
4
9
$LTSCALE
40
1
9
$LWDISPLAY
290
1
9
$PDMODE
70
0
9
$PDSIZE
40
0
9
$PLINEGEN
70
0
0
ENDSEC
0
SECTION
2
CLASSES
0
CLASS
1
RASTERVARIABLES
2
AcDbRasterVariables
3
ISM
90
0
280
0
281
0
0
ENDSEC
0
SECTION
2
TABLES
0
TABLE
2
VPORT
5
33c
100
AcDbSymbolTable
0
VPORT
5
1
100
AcDbSymbolTableRecord
100
AcDbViewportTableRecord
2
*Active
70
0
10
0
20
0
11
1
21
1
12
-1
22
1
13
0
23
0
14
0.5
24
0.5
15
10
25
10
16
0
26
0
36
1
17
0
27
0
37
0
0
ENDTAB
0
TABLE
2
LTYPE
5
33d
100
AcDbSymbolTable
0
LTYPE
5
14
100
AcDbSymbolTableRecord
100
AcDbLinetypeTableRecord
70
0
2
ByBlock
3

72
65
73
0
40
0
0
LTYPE
5
15
100
AcDbSymbolTableRecord
100
AcDbLinetypeTableRecord
70
0
2
ByLayer
3

72
65
73
0
40
0
0
LTYPE
5
16
100
AcDbSymbolTableRecord
100
AcDbLinetypeTableRecord
70
0
2
Continuous
3
Solid line
72
65
73
0
40
0
0
LTYPE
5
6E
100
AcDbSymbolTableRecord
100
AcDbLinetypeTableRecord
70
0
2
CENTER
3
____ _ ____ _ ____ _ ____
72
65
73
4
40
47.5
49
22
74
0
49
-8.5
74
0
49
8.5
74
0
49
-8.5
74
0
0
LTYPE
5
6F
100
AcDbSymbolTableRecord
100
AcDbLinetypeTableRecord
70
0
2
DASHED
3
__ __ __ __ __ __ __ __ __
72
65
73
2
40
25.72
49
12.86
74
0
49
-12.86
74
0
0
ENDTAB
0
TABLE
2
LAYER
5
33e
100
AcDbSymbolTable
0
LAYER
5
10
100
AcDbSymbolTableRecord
100
AcDbLayerTableRecord
2
0
70
0
62
7
6
Continuous
290
1
370
-3
390
0
0
LAYER
5
71
100
AcDbSymbolTableRecord
100
AcDbLayerTableRecord
2
2
70
0
62
7
6
Continuous
290
1
370
-3
390
0
0
LAYER
5
74
100
AcDbSymbolTableRecord
100
AcDbLayerTableRecord
2
81
70
0
62
-3
6
Continuous
290
1
370
-3
390
0
0
LAYER
5
76
100
AcDbSymbolTableRecord
100
AcDbLayerTableRecord
2
80
70
0
62
-6
6
Continuous
290
1
370
-3
390
0
0
LAYER
5
78
100
AcDbSymbolTableRecord
100
AcDbLayerTableRecord
2
1
70
0
62
4
6
Continuous
290
1
370
-3
390
0
0
LAYER
5
15F
100
AcDbSymbolTableRecord
100
AcDbLayerTableRecord
2
4
70
0
62
-2
6
CENTER
290
1
370
-3
390
0
0
LAYER
5
275
100
AcDbSymbolTableRecord
100
AcDbLayerTableRecord
2
Defpoints
70
0
62
7
6
Continuous
290
0
370
-3
390
0
0
LAYER
5
328
100
AcDbSymbolTableRecord
100
AcDbLayerTableRecord
2
SK1
70
0
62
4
6
Continuous
290
1
370
-3
390
0
0
LAYER
5
329
100
AcDbSymbolTableRecord
100
AcDbLayerTableRecord
2
SK4
70
0
62
2
6
CENTER
290
1
370
-3
390
0
0
LAYER
5
32a
100
AcDbSymbolTableRecord
100
AcDbLayerTableRecord
2
SK6
70
0
62
5
6
Continuous
290
1
370
-3
390
0
0
LAYER
5
32b
100
AcDbSymbolTableRecord
100
AcDbLayerTableRecord
2
SK2
70
0
62
7
6
Continuous
290
1
370
-3
390
0
0
ENDTAB
0
TABLE
2
STYLE
5
33f
100
AcDbSymbolTable
0
STYLE
5
11
100
AcDbSymbolTableRecord
100
AcDbTextStyleTableRecord
2
Standard
3
txt
70
0
71
0
40
0
41
1
42
0
50
0
0
STYLE
5
266
100
AcDbSymbolTableRecord
100
AcDbTextStyleTableRecord
2
iso_b_vert
3
simplex.shx
70
0
71
0
40
0
41
1
42
0
50
0
0
STYLE
5
267
100
AcDbSymbolTableRecord
100
AcDbTextStyleTableRecord
2
DWGDirectTextStyle
3
simplex
70
0
71
0
40
0
41
1
42
0
50
0
0
ENDTAB
0
TABLE
2
DIMSTYLE
5
340
100
AcDbSymbolTable
100
AcDbDimStyleTable
0
DIMSTYLE
105
27
100
AcDbSymbolTableRecord
100
AcDbDimStyleTableRecord
2
Standard
70
0
3
<>
41
0.18
42
0.0625
44
0.18
140
0.18
147
0.09
73
0
74
0
77
1
271
2
275
0
278
52
280
0
340
11
0
ENDTAB
0
TABLE
2
VIEW
5
341
100
AcDbSymbolTable
0
ENDTAB
0
TABLE
2
UCS
5
342
100
AcDbSymbolTable
0
ENDTAB
0
TABLE
2
APPID
5
343
100
AcDbSymbolTable
0
APPID
5
12
100
AcDbSymbolTableRecord
100
AcDbRegAppTableRecord
2
ACAD
70
0
0
APPID
5
26A
100
AcDbSymbolTableRecord
100
AcDbRegAppTableRecord
2
ACAD_DSTYLE_DIMBREAK
70
0
0
APPID
5
2E7
100
AcDbSymbolTableRecord
100
AcDbRegAppTableRecord
2
ACAD_DSTYLE_DIM_LINETYPE
70
0
0
APPID
5
2E8
100
AcDbSymbolTableRecord
100
AcDbRegAppTableRecord
2
ACAD_DSTYLE_DIM_EXT1_LINETYPE
70
0
0
APPID
5
2E9
100
AcDbSymbolTableRecord
100
AcDbRegAppTableRecord
2
ACAD_DSTYLE_DIM_EXT2_LINETYPE
70
0
0
APPID
5
324
100
AcDbSymbolTableRecord
100
AcDbRegAppTableRecord
2
ACAD_MLEADERVER
70
0
0
ENDTAB
0
TABLE
2
BLOCK_RECORD
5
344
100
AcDbSymbolTable
0
BLOCK_RECORD
5
1F
100
AcDbSymbolTableRecord
100
AcDbBlockTableRecord
2
*Model_Space
340
0
70
0
0
BLOCK_RECORD
5
1B
100
AcDbSymbolTableRecord
100
AcDbBlockTableRecord
2
*Paper_Space
340
0
70
0
0
BLOCK_RECORD
5
23
100
AcDbSymbolTableRecord
100
AcDbBlockTableRecord
2
*Paper_Space0
340
0
70
0
0
BLOCK_RECORD
5
26C
100
AcDbSymbolTableRecord
100
AcDbBlockTableRecord
2
_Closed
340
0
70
0
0
BLOCK_RECORD
5
276
100
AcDbSymbolTableRecord
100
AcDbBlockTableRecord
2
*D2
340
0
70
0
0
BLOCK_RECORD
5
283
100
AcDbSymbolTableRecord
100
AcDbBlockTableRecord
2
_U0
340
0
70
0
0
BLOCK_RECORD
5
293
100
AcDbSymbolTableRecord
100
AcDbBlockTableRecord
2
*D4
340
0
70
0
0
BLOCK_RECORD
5
2A0
100
AcDbSymbolTableRecord
100
AcDbBlockTableRecord
2
_U1
340
0
70
0
0
BLOCK_RECORD
5
2B0
100
AcDbSymbolTableRecord
100
AcDbBlockTableRecord
2
*D6
340
0
70
0
0
BLOCK_RECORD
5
2BC
100
AcDbSymbolTableRecord
100
AcDbBlockTableRecord
2
_U2
340
0
70
0
0
ENDTAB
0
ENDSEC
0
SECTION
2
BLOCKS
0
BLOCK
5
20
100
AcDbEntity
8
0
100
AcDbBlockBegin
2
*Model_Space
70
0
10
0
20
0
30
0
3
*Model_Space
0
ENDBLK
5
21
100
AcDbEntity
8
0
100
AcDbBlockEnd
0
BLOCK
5
1C
100
AcDbEntity
8
0
100
AcDbBlockBegin
2
*Paper_Space
70
0
10
0
20
0
30
0
3
*Paper_Space
0
ENDBLK
5
1D
100
AcDbEntity
8
0
100
AcDbBlockEnd
0
BLOCK
5
24
100
AcDbEntity
8
0
100
AcDbBlockBegin
2
*Paper_Space0
70
0
10
0
20
0
30
0
3
*Paper_Space0
0
ENDBLK
5
25
100
AcDbEntity
8
0
100
AcDbBlockEnd
0
BLOCK
5
26D
100
AcDbEntity
8
0
100
AcDbBlockBegin
2
_Closed
70
0
10
0
20
0
30
0
3
_Closed
0
LINE
5
26F
100
AcDbEntity
8
0
62
256
6
ByLayer
370
-2
48
1
60
0
100
AcDbLine
10
-1
20
0.166667
30
0
11
0
21
0
31
0
39
0
210
0
220
0
230
1
0
LINE
5
270
100
AcDbEntity
8
0
62
256
6
ByLayer
370
-2
48
1
60
0
100
AcDbLine
10
0
20
0
30
0
11
-1
21
-0.166667
31
0
39
0
210
0
220
0
230
1
0
LINE
5
271
100
AcDbEntity
8
0
62
256
6
ByLayer
370
-2
48
1
60
0
100
AcDbLine
10
-1
20
0.166667
30
0
11
-1
21
-0.166667
31
0
39
0
210
0
220
0
230
1
0
LINE
5
272
100
AcDbEntity
8
0
62
256
6
ByLayer
370
-2
48
1
60
0
100
AcDbLine
10
0
20
0
30
0
11
-1
21
0
31
0
39
0
210
0
220
0
230
1
0
ENDBLK
5
26E
100
AcDbEntity
8
0
100
AcDbBlockEnd
0
BLOCK
5
277
100
AcDbEntity
8
0
100
AcDbBlockBegin
2
*D2
70
1
10
0
20
0
30
0
3
*D2
0
LINE
5
279
100
AcDbEntity
8
0
62
256
6
ByLayer
370
-2
48
1
60
0
100
AcDbLine
10
-2
20
12.5
30
0
11
-9.75
21
12.5
31
0
39
0
210
0
220
0
230
1
0
LINE
5
27A
100
AcDbEntity
8
0
62
256
6
ByLayer
370
-2
48
1
60
0
100
AcDbLine
10
-2
20
-12.5
30
0
11
-9.75
21
-12.5
31
0
39
0
210
0
220
0
230
1
0
LINE
5
27B
100
AcDbEntity
8
0
62
256
6
ByLayer
370
-2
48
1
60
0
100
AcDbLine
10
-7.75
20
9.325
30
0
11
-7.75
21
-9.325
31
0
39
0
210
0
220
0
230
1
0
SOLID
5
27C
100
AcDbEntity
8
0
62
256
6
ByLayer
370
-1
48
1
60
0
100
AcDbTrace
10
-7.220833
20
9.325
30
0
11
-8.279167
21
9.325
31
0
12
-7.75
22
12.5
32
0
13
-7.75
23
12.5
33
0
39
0
210
0
220
0
230
1
0
SOLID
5
27D
100
AcDbEntity
8
0
62
256
6
ByLayer
370
-1
48
1
60
0
100
AcDbTrace
10
-8.279167
20
-9.325
30
0
11
-7.220833
21
-9.325
31
0
12
-7.75
22
-12.5
32
0
13
-7.75
23
-12.5
33
0
39
0
210
0
220
0
230
1
0
MTEXT
5
27E
100
AcDbEntity
8
0
62
256
6
ByLayer
370
18
48
1
60
0
100
AcDbMText
10
-19
20
0
30
0
210
0
220
0
230
1
1
\A1;25
40
4.5
41
0
44
1
50
90
71
5
72
5
7
iso_b_vert
0
POINT
5
27F
100
AcDbEntity
8
Defpoints
62
0
6
ByLayer
370
-1
48
1
60
0
100
AcDbPoint
10
0
20
12.5
30
0
39
0
210
0
220
0
230
1
50
360
0
POINT
5
280
100
AcDbEntity
8
Defpoints
62
0
6
ByLayer
370
-1
48
1
60
0
100
AcDbPoint
10
0
20
-12.5
30
0
39
0
210
0
220
0
230
1
50
360
0
POINT
5
281
100
AcDbEntity
8
Defpoints
62
0
6
ByLayer
370
-1
48
1
60
0
100
AcDbPoint
10
-7.75
20
-12.5
30
0
39
0
210
0
220
0
230
1
50
360
0
ENDBLK
5
278
100
AcDbEntity
8
0
100
AcDbBlockEnd
0
BLOCK
5
28E
100
AcDbEntity
8
0
100
AcDbBlockBegin
2
_U0
70
0
10
0
20
0
30
0
3
_U0
0
MTEXT
5
284
100
AcDbEntity
8
SK2
62
256
6
ByLayer
370
18
48
1
60
0
100
AcDbMText
10
-8.636672
20
-4.669971
30
0
210
0
220
0
230
1
1
\W0.8879;%%c25
40
4.5
41
0
44
1.084337
50
90
71
7
72
5
7
iso_b_vert
0
LINE
5
285
100
AcDbEntity
8
SK2
62
256
6
ByLayer
370
13
48
1
60
0
100
AcDbLine
10
-2
20
12.5
30
0
11
-9.75
21
12.5
31
0
39
0
210
0
220
0
230
1
0
LINE
5
286
100
AcDbEntity
8
SK2
62
256
6
ByLayer
370
13
48
1
60
0
100
AcDbLine
10
-2
20
-12.5
30
0
11
-9.75
21
-12.5
31
0
39
0
210
0
220
0
230
1
0
LINE
5
287
100
AcDbEntity
8
SK2
62
256
6
ByLayer
370
13
48
1
60
0
100
AcDbLine
10
-7.75
20
12.5
30
0
11
-7.75
21
-12.5
31
0
39
0
210
0
220
0
230
1
0
LINE
5
288
100
AcDbEntity
8
SK2
62
256
6
ByLayer
370
13
48
1
60
0
100
AcDbLine
10
-7.75
20
12.5
30
0
11
-7.332003
21
9.325002
31
0
39
0
210
0
220
0
230
1
0
LINE
5
289
100
AcDbEntity
8
SK2
62
256
6
ByLayer
370
13
48
1
60
0
100
AcDbLine
10
-7.75
20
12.5
30
0
11
-8.167997
21
9.324998
31
0
39
0
210
0
220
0
230
1
0
LINE
5
28A
100
AcDbEntity
8
SK2
62
256
6
ByLayer
370
13
48
1
60
0
100
AcDbLine
10
-7.332003
20
9.325002
30
0
11
-8.167997
21
9.324998
31
0
39
0
210
0
220
0
230
1
0
LINE
5
28B
100
AcDbEntity
8
SK2
62
256
6
ByLayer
370
13
48
1
60
0
100
AcDbLine
10
-7.75
20
-12.5
30
0
11
-8.167997
21
-9.325002
31
0
39
0
210
0
220
0
230
1
0
LINE
5
28C
100
AcDbEntity
8
SK2
62
256
6
ByLayer
370
13
48
1
60
0
100
AcDbLine
10
-7.75
20
-12.5
30
0
11
-7.332003
21
-9.324998
31
0
39
0
210
0
220
0
230
1
0
LINE
5
28D
100
AcDbEntity
8
SK2
62
256
6
ByLayer
370
13
48
1
60
0
100
AcDbLine
10
-8.167997
20
-9.325002
30
0
11
-7.332003
21
-9.324998
31
0
39
0
210
0
220
0
230
1
0
ENDBLK
5
28F
100
AcDbEntity
8
0
100
AcDbBlockEnd
0
BLOCK
5
294
100
AcDbEntity
8
0
100
AcDbBlockBegin
2
*D4
70
1
10
0
20
0
30
0
3
*D4
0
LINE
5
296
100
AcDbEntity
8
0
62
256
6
ByLayer
370
-2
48
1
60
0
100
AcDbLine
10
29
20
0
30
0
11
46.311055
21
0
31
0
39
0
210
0
220
0
230
1
0
LINE
5
297
100
AcDbEntity
8
0
62
256
6
ByLayer
370
-2
48
1
60
0
100
AcDbLine
10
29
20
-19.9
30
0
11
46.311055
21
-19.9
31
0
39
0
210
0
220
0
230
1
0
LINE
5
298
100
AcDbEntity
8
0
62
256
6
ByLayer
370
-2
48
1
60
0
100
AcDbLine
10
44.311055
20
3.175
30
0
11
44.311055
21
6.35
31
0
39
0
210
0
220
0
230
1
0
LINE
5
299
100
AcDbEntity
8
0
62
256
6
ByLayer
370
-2
48
1
60
0
100
AcDbLine
10
44.311055
20
-23.075
30
0
11
44.311055
21
-26.25
31
0
39
0
210
0
220
0
230
1
0
SOLID
5
29A
100
AcDbEntity
8
0
62
256
6
ByLayer
370
-1
48
1
60
0
100
AcDbTrace
10
43.781889
20
3.175
30
0
11
44.840222
21
3.175
31
0
12
44.311055
22
0
32
0
13
44.311055
23
0
33
0
39
0
210
0
220
0
230
1
0
SOLID
5
29B
100
AcDbEntity
8
0
62
256
6
ByLayer
370
-1
48
1
60
0
100
AcDbTrace
10
44.840222
20
-23.075
30
0
11
43.781889
21
-23.075
31
0
12
44.311055
22
-19.9
32
0
13
44.311055
23
-19.9
33
0
39
0
210
0
220
0
230
1
0
MTEXT
5
29C
100
AcDbEntity
8
0
62
256
6
ByLayer
370
18
48
1
60
0
100
AcDbMText
10
33.061055
20
-9.95
30
0
210
0
220
0
230
1
1
\A1;19.9
40
4.5
41
0
44
1
50
90
71
5
72
5
7
iso_b_vert
0
POINT
5
29D
100
AcDbEntity
8
Defpoints
62
0
6
ByLayer
370
-1
48
1
60
0
100
AcDbPoint
10
27
20
0
30
0
39
0
210
0
220
0
230
1
50
360
0
POINT
5
29E
100
AcDbEntity
8
Defpoints
62
0
6
ByLayer
370
-1
48
1
60
0
100
AcDbPoint
10
27
20
-19.9
30
0
39
0
210
0
220
0
230
1
50
360
0
POINT
5
29F
100
AcDbEntity
8
Defpoints
62
0
6
ByLayer
370
-1
48
1
60
0
100
AcDbPoint
10
44.311055
20
-19.9
30
0
39
0
210
0
220
0
230
1
50
360
0
ENDBLK
5
295
100
AcDbEntity
8
0
100
AcDbBlockEnd
0
BLOCK
5
2AB
100
AcDbEntity
8
0
100
AcDbBlockBegin
2
_U1
70
0
10
0
20
0
30
0
3
_U1
0
MTEXT
5
2A1
100
AcDbEntity
8
2
62
256
6
ByLayer
370
18
48
1
60
0
100
AcDbMText
10
43.424383
20
-15.028184
30
0
210
0
220
0
230
1
1
\W0.7346;20.0
40
4.5
41
0
44
1.084337
50
90
71
7
72
5
7
iso_b_vert
0
LINE
5
2A2
100
AcDbEntity
8
2
62
256
6
ByLayer
370
13
48
1
60
0
100
AcDbLine
10
29
20
0
30
0
11
46.311055
21
0
31
0
39
0
210
0
220
0
230
1
0
LINE
5
2A3
100
AcDbEntity
8
2
62
256
6
ByLayer
370
13
48
1
60
0
100
AcDbLine
10
29
20
-19.9
30
0
11
46.311055
21
-19.9
31
0
39
0
210
0
220
0
230
1
0
LINE
5
2A4
100
AcDbEntity
8
2
62
256
6
ByLayer
370
13
48
1
60
0
100
AcDbLine
10
44.311055
20
11.25
30
0
11
44.311055
21
-31.15
31
0
39
0
210
0
220
0
230
1
0
LINE
5
2A5
100
AcDbEntity
8
2
62
256
6
ByLayer
370
13
48
1
60
0
100
AcDbLine
10
44.311055
20
0
30
0
11
43.893058
21
3.174998
31
0
39
0
210
0
220
0
230
1
0
LINE
5
2A6
100
AcDbEntity
8
2
62
256
6
ByLayer
370
13
48
1
60
0
100
AcDbLine
10
44.311055
20
0
30
0
11
44.729052
21
3.175002
31
0
39
0
210
0
220
0
230
1
0
LINE
5
2A7
100
AcDbEntity
8
2
62
256
6
ByLayer
370
13
48
1
60
0
100
AcDbLine
10
43.893058
20
3.174998
30
0
11
44.729052
21
3.175002
31
0
39
0
210
0
220
0
230
1
0
LINE
5
2A8
100
AcDbEntity
8
2
62
256
6
ByLayer
370
13
48
1
60
0
100
AcDbLine
10
44.311055
20
-19.9
30
0
11
44.729052
21
-23.074998
31
0
39
0
210
0
220
0
230
1
0
LINE
5
2A9
100
AcDbEntity
8
2
62
256
6
ByLayer
370
13
48
1
60
0
100
AcDbLine
10
44.311055
20
-19.9
30
0
11
43.893058
21
-23.075002
31
0
39
0
210
0
220
0
230
1
0
LINE
5
2AA
100
AcDbEntity
8
2
62
256
6
ByLayer
370
13
48
1
60
0
100
AcDbLine
10
44.729052
20
-23.074998
30
0
11
43.893058
21
-23.075002
31
0
39
0
210
0
220
0
230
1
0
ENDBLK
5
2AC
100
AcDbEntity
8
0
100
AcDbBlockEnd
0
BLOCK
5
2B1
100
AcDbEntity
8
0
100
AcDbBlockBegin
2
*D6
70
1
10
0
20
0
30
0
3
*D6
0
LINE
5
2B3
100
AcDbEntity
8
0
62
256
6
ByLayer
370
-2
48
1
60
0
100
AcDbLine
10
0
20
-14.5
30
0
11
0
21
-39.15
31
0
39
0
210
0
220
0
230
1
0
LINE
5
2B4
100
AcDbEntity
8
0
62
256
6
ByLayer
370
-2
48
1
60
0
100
AcDbLine
10
27
20
-21.9
30
0
11
27
21
-39.15
31
0
39
0
210
0
220
0
230
1
0
LINE
5
2B5
100
AcDbEntity
8
0
62
256
6
ByLayer
370
-2
48
1
60
0
100
AcDbLine
10
3.175
20
-37.15
30
0
11
23.825
21
-37.15
31
0
39
0
210
0
220
0
230
1
0
SOLID
5
2B6
100
AcDbEntity
8
0
62
256
6
ByLayer
370
-1
48
1
60
0
100
AcDbTrace
10
3.175
20
-36.620833
30
0
11
3.175
21
-37.679167
31
0
12
0
22
-37.15
32
0
13
0
23
-37.15
33
0
39
0
210
0
220
0
230
1
0
SOLID
5
2B7
100
AcDbEntity
8
0
62
256
6
ByLayer
370
-1
48
1
60
0
100
AcDbTrace
10
23.825
20
-37.679167
30
0
11
23.825
21
-36.620833
31
0
12
27
22
-37.15
32
0
13
27
23
-37.15
33
0
39
0
210
0
220
0
230
1
0
MTEXT
5
2B8
100
AcDbEntity
8
0
62
256
6
ByLayer
370
18
48
1
60
0
100
AcDbMText
10
13.5
20
-25.9
30
0
210
0
220
0
230
1
1
\A1;27
40
4.5
41
0
44
1
50
0
71
5
72
5
7
iso_b_vert
0
POINT
5
2B9
100
AcDbEntity
8
Defpoints
62
0
6
ByLayer
370
-1
48
1
60
0
100
AcDbPoint
10
0
20
-12.5
30
0
39
0
210
0
220
0
230
1
50
360
0
POINT
5
2BA
100
AcDbEntity
8
Defpoints
62
0
6
ByLayer
370
-1
48
1
60
0
100
AcDbPoint
10
27
20
-19.9
30
0
39
0
210
0
220
0
230
1
50
360
0
POINT
5
2BB
100
AcDbEntity
8
Defpoints
62
0
6
ByLayer
370
-1
48
1
60
0
100
AcDbPoint
10
27
20
-37.15
30
0
39
0
210
0
220
0
230
1
50
360
0
ENDBLK
5
2B2
100
AcDbEntity
8
0
100
AcDbBlockEnd
0
BLOCK
5
2C7
100
AcDbEntity
8
0
100
AcDbBlockBegin
2
_U2
70
0
10
0
20
0
30
0
3
_U2
0
MTEXT
5
2BD
100
AcDbEntity
8
2
62
256
6
ByLayer
370
18
48
1
60
0
100
AcDbMText
10
8.457816
20
-35.822328
30
0
210
0
220
0
230
1
1
\W0.7346;27.0
40
4.5
41
0
44
1.084337
50
0
71
7
72
5
7
iso_b_vert
0
LINE
5
2BE
100
AcDbEntity
8
2
62
256
6
ByLayer
370
13
48
1
60
0
100
AcDbLine
10
0
20
-14.5
30
0
11
0
21
-39.15
31
0
39
0
210
0
220
0
230
1
0
LINE
5
2BF
100
AcDbEntity
8
2
62
256
6
ByLayer
370
13
48
1
60
0
100
AcDbLine
10
27
20
-21.9
30
0
11
27
21
-39.15
31
0
39
0
210
0
220
0
230
1
0
LINE
5
2C0
100
AcDbEntity
8
2
62
256
6
ByLayer
370
13
48
1
60
0
100
AcDbLine
10
0
20
-37.15
30
0
11
27
21
-37.15
31
0
39
0
210
0
220
0
230
1
0
LINE
5
2C1
100
AcDbEntity
8
2
62
256
6
ByLayer
370
13
48
1
60
0
100
AcDbLine
10
0
20
-37.15
30
0
11
3.174998
21
-36.732003
31
0
39
0
210
0
220
0
230
1
0
LINE
5
2C2
100
AcDbEntity
8
2
62
256
6
ByLayer
370
13
48
1
60
0
100
AcDbLine
10
0
20
-37.15
30
0
11
3.175002
21
-37.567997
31
0
39
0
210
0
220
0
230
1
0
LINE
5
2C3
100
AcDbEntity
8
2
62
256
6
ByLayer
370
13
48
1
60
0
100
AcDbLine
10
3.174998
20
-36.732003
30
0
11
3.175002
21
-37.567997
31
0
39
0
210
0
220
0
230
1
0
LINE
5
2C4
100
AcDbEntity
8
2
62
256
6
ByLayer
370
13
48
1
60
0
100
AcDbLine
10
27
20
-37.15
30
0
11
23.825002
21
-37.567997
31
0
39
0
210
0
220
0
230
1
0
LINE
5
2C5
100
AcDbEntity
8
2
62
256
6
ByLayer
370
13
48
1
60
0
100
AcDbLine
10
27
20
-37.15
30
0
11
23.824998
21
-36.732003
31
0
39
0
210
0
220
0
230
1
0
LINE
5
2C6
100
AcDbEntity
8
2
62
256
6
ByLayer
370
13
48
1
60
0
100
AcDbLine
10
23.825002
20
-37.567997
30
0
11
23.824998
21
-36.732003
31
0
39
0
210
0
220
0
230
1
0
ENDBLK
5
2C8
100
AcDbEntity
8
0
100
AcDbBlockEnd
0
ENDSEC
0
SECTION
2
ENTITIES
0
ARC
5
174
100
AcDbEntity
8
1
62
256
6
ByLayer
370
18
48
1
60
0
100
AcDbCircle
39
0
10
20.276968
20
-0.099113
30
0
40
4.99999999994612
210
0
220
0
230
1
100
AcDbArc
50
28.920552
51
44.593805
0
ARC
5
175
100
AcDbEntity
8
1
62
256
6
ByLayer
370
18
48
1
60
0
100
AcDbCircle
39
0
10
20.276968
20
-0.099113
30
0
40
5.00000000002457
210
0
220
0
230
1
100
AcDbArc
50
3
51
23.670002
0
ARC
5
176
100
AcDbEntity
8
2
62
256
6
ByLayer
370
13
48
1
60
0
100
AcDbCircle
39
0
10
25.957085
20
0
30
0
40
19.5416305532426
210
0
220
0
230
1
100
AcDbArc
50
0
51
93
0
ELLIPSE
5
177
100
AcDbEntity
8
1
62
256
6
ByLayer
370
18
48
1
60
0
100
AcDbEllipse
10
19.404627
20
-11.19052
30
0
11
-0.685059860841638
21
-0.0359024659826584
31
0
210
0
220
0
230
1
40
0.996195
41
-3.14158567007399
42
-2.78324115050823
0
ELLIPSE
5
178
100
AcDbEntity
8
1
62
256
6
ByLayer
370
18
48
1
60
0
100
AcDbEllipse
10
22.674235
20
-11.167677
30
0
11
-0.685059860841638
21
-0.0359024659826584
31
0
210
0
220
0
230
1
40
0.996195
41
-1.35261792435963
42
-0.568627280738825
0
ELLIPSE
5
179
100
AcDbEntity
8
1
62
256
6
ByLayer
370
18
48
1
60
0
100
AcDbEllipse
10
21.028592
20
-10.237341
30
0
11
-1.20484653368139
21
-0.0631433312071102
31
0
210
0
220
0
230
1
40
0.996195
41
-1.37481147143503
42
-0.667226059551897
0
ELLIPSE
5
17A
100
AcDbEntity
8
1
62
256
6
ByLayer
370
18
48
1
60
0
100
AcDbEllipse
10
21.047371
20
-12.122559
30
0
11
-0.685059860841638
21
-0.0359024659826584
31
0
210
0
220
0
230
1
40
0.996195
41
-2.39702492787488
42
-1.61303428425409
0
ELLIPSE
5
17B
100
AcDbEntity
8
1
62
256
6
ByLayer
370
18
48
1
60
0
100
AcDbEllipse
10
21.731034
20
-11.4256
30
0
11
-0.291599824148336
21
-0.0152820992229393
31
0
210
0
220
0
230
1
40
0.996195
41
0.744567725714901
42
2.94677137698389
0
ELLIPSE
5
17C
100
AcDbEntity
8
1
62
256
6
ByLayer
370
18
48
1
60
0
100
AcDbEllipse
10
21.035092
20
-10.361367
30
0
11
1.67420241501605
21
0.0877412306412929
31
0
210
0
220
0
230
1
40
0.996195
41
-2.13523778601171
42
-1.09083078249646
0
ELLIPSE
5
17D
100
AcDbEntity
8
1
62
256
6
ByLayer
370
18
48
1
60
0
100
AcDbEllipse
10
21.028592
20
-10.237341
30
0
11
1.20484653368139
21
0.0631433312071098
31
0
210
0
220
0
230
1
40
0.996195
41
-1.61303428425408
42
-0.568627280738829
0
ELLIPSE
5
17E
100
AcDbEntity
8
1
62
256
6
ByLayer
370
18
48
1
60
0
100
AcDbEllipse
10
21.028592
20
-10.237341
30
0
11
-1.20484653368139
21
-0.0631433312071102
31
0
210
0
220
0
230
1
40
0.996195
41
-2.54057028518536
42
-1.82945531094404
0
ELLIPSE
5
17F
100
AcDbEntity
8
1
62
256
6
ByLayer
370
18
48
1
60
0
100
AcDbEllipse
10
22.413055
20
-10.228878
30
0
11
-0.291599824148336
21
-0.0152820992229393
31
0
210
0
220
0
230
1
40
0.996195
41
1.78897472923013
42
2.95531333444519
0
ELLIPSE
5
180
100
AcDbEntity
8
1
62
256
6
ByLayer
370
18
48
1
60
0
100
AcDbEllipse
10
20.349964
20
-11.439801
30
0
11
-0.291599824148336
21
-0.0152820992229393
31
0
210
0
220
0
230
1
40
0.996195
41
0.186454243535234
42
2.3125490129565
0
ELLIPSE
5
181
100
AcDbEntity
8
1
62
256
6
ByLayer
370
18
48
1
60
0
100
AcDbEllipse
10
21.033854
20
-10.33775
30
0
11
1.20484653368139
21
0.0631433312071098
31
0
210
0
220
0
230
1
40
0.996195
41
-2.73065974270324
42
-2.59259447587946
0
ELLIPSE
5
182
100
AcDbEntity
8
1
62
256
6
ByLayer
370
18
48
1
60
0
100
AcDbEllipse
10
21.047371
20
-12.122559
30
0
11
-0.685059860841638
21
-0.0359024659826584
31
0
210
0
220
0
230
1
40
0.996195
41
-1.61303428425409
42
-0.829043640633295
0
ELLIPSE
5
183
100
AcDbEntity
8
1
62
256
6
ByLayer
370
18
48
1
60
0
100
AcDbEllipse
10
21.028592
20
-10.237341
30
0
11
1.20484653368139
21
0.0631433312071098
31
0
210
0
220
0
230
1
40
0.996195
41
-2.73065974270324
42
-2.59259447587946
0
ELLIPSE
5
184
100
AcDbEntity
8
1
62
256
6
ByLayer
370
18
48
1
60
0
100
AcDbEllipse
10
21.035092
20
-10.361367
30
0
11
1.67420241501605
21
0.0877412306412929
31
0
210
0
220
0
230
1
40
0.996195
41
3.09516887460859
42
-2.13523778601171
0
ELLIPSE
5
185
100
AcDbEntity
8
1
62
256
6
ByLayer
370
18
48
1
60
0
100
AcDbEllipse
10
21.035092
20
-10.361367
30
0
11
1.67420241501605
21
0.0877412306412929
31
0
210
0
220
0
230
1
40
0.996195
41
2.05076187109334
42
3.09516887460859
0
ELLIPSE
5
186
100
AcDbEntity
8
1
62
256
6
ByLayer
370
18
48
1
60
0
100
AcDbEllipse
10
21.033836
20
-10.337394
30
0
11
2.62140252873076
21
0.137381885137724
31
0
210
0
220
0
230
1
40
0.996195
41
0
42
6.28318530717959
0
ELLIPSE
5
187
100
AcDbEntity
8
1
62
256
6
ByLayer
370
18
48
1
60
0
100
AcDbEllipse
10
21.035092
20
-10.361367
30
0
11
1.67420241501605
21
0.0877412306412929
31
0
210
0
220
0
230
1
40
0.996195
41
1.00635486757808
42
2.05076187109334
0
ELLIPSE
5
188
100
AcDbEntity
8
1
62
256
6
ByLayer
370
18
48
1
60
0
100
AcDbEllipse
10
21.028592
20
-10.237341
30
0
11
-1.20484653368139
21
-0.0631433312071102
31
0
210
0
220
0
230
1
40
0.996195
41
0.548998177710334
42
1.52855836933571
0
ELLIPSE
5
189
100
AcDbEntity
8
1
62
256
6
ByLayer
370
18
48
1
60
0
100
AcDbEllipse
10
19.404627
20
-11.19052
30
0
11
-0.685059860841638
21
-0.0359024659826584
31
0
210
0
220
0
230
1
40
0.996195
41
-2.54001306807447
42
-1.87036577437012
0
ELLIPSE
5
18A
100
AcDbEntity
8
1
62
256
6
ByLayer
370
18
48
1
60
0
100
AcDbEllipse
10
19.644129
20
-10.245803
30
0
11
-0.291599824148336
21
-0.0152820992229393
31
0
210
0
220
0
230
1
40
0.996195
41
0.202213628296766
42
1.27122687921969
0
ELLIPSE
5
18B
100
AcDbEntity
8
1
62
256
6
ByLayer
370
18
48
1
60
0
100
AcDbEllipse
10
22.652557
20
-9.284161
30
0
11
-0.685059860841638
21
-0.0359024659826584
31
0
210
0
220
0
230
1
40
0.996195
41
-0.311295790622817
42
7.19130539292769E-06
0
ELLIPSE
5
18C
100
AcDbEntity
8
1
62
256
6
ByLayer
370
18
48
1
60
0
100
AcDbEllipse
10
21.033854
20
-10.33775
30
0
11
1.20484653368139
21
0.0631433312071098
31
0
210
0
220
0
230
1
40
0.996195
41
0.410932910886541
42
0.548998177710342
0
ELLIPSE
5
18D
100
AcDbEntity
8
1
62
256
6
ByLayer
370
18
48
1
60
0
100
AcDbEllipse
10
21.035092
20
-10.361367
30
0
11
1.67420241501605
21
0.0877412306412929
31
0
210
0
220
0
230
1
40
0.996195
41
-0.0464237789811961
42
1.00635486757808
0
ELLIPSE
5
18E
100
AcDbEntity
8
1
62
256
6
ByLayer
370
18
48
1
60
0
100
AcDbEllipse
10
21.028706
20
-10.239517
30
0
11
2.62140252873076
21
0.137381885137724
31
0
210
0
220
0
230
1
40
0.996195
41
3.08903307614397
42
-3.14153045944323
0
ELLIPSE
5
18F
100
AcDbEntity
8
1
62
256
6
ByLayer
370
18
48
1
60
0
100
AcDbEllipse
10
21.028706
20
-10.239517
30
0
11
2.62140252873076
21
0.137381885137724
31
0
210
0
220
0
230
1
40
0.996195
41
0
42
3.08903297030804
0
ELLIPSE
5
190
100
AcDbEntity
8
1
62
256
6
ByLayer
370
18
48
1
60
0
100
AcDbEllipse
10
21.035092
20
-10.361367
30
0
11
1.67420241501605
21
0.0877412306412929
31
0
210
0
220
0
230
1
40
0.996195
41
-1.09083078249646
42
-0.0464237789811961
0
ELLIPSE
5
191
100
AcDbEntity
8
1
62
256
6
ByLayer
370
18
48
1
60
0
100
AcDbEllipse
10
21.028592
20
-10.237341
30
0
11
-1.20484653368139
21
-0.0631433312071102
31
0
210
0
220
0
230
1
40
0.996195
41
-0.358679668904243
42
0.410932910886551
0
ELLIPSE
5
192
100
AcDbEntity
8
1
62
256
6
ByLayer
370
18
48
1
60
0
100
AcDbEllipse
10
21.028592
20
-10.237341
30
0
11
-1.20484653368139
21
-0.0631433312071102
31
0
210
0
220
0
230
1
40
0.996195
41
2.57296537285097
42
-2.82977860167266
0
ELLIPSE
5
193
100
AcDbEntity
8
1
62
256
6
ByLayer
370
18
48
1
60
0
100
AcDbEllipse
10
22.674235
20
-11.167677
30
0
11
-0.685059860841638
21
-0.0359024659826584
31
0
210
0
220
0
230
1
40
0.996195
41
-0.568627280738825
42
-1.66073579274144E-06
0
ELLIPSE
5
194
100
AcDbEntity
8
1
62
256
6
ByLayer
370
18
48
1
60
0
100
AcDbEllipse
10
21.035092
20
-10.361367
30
0
11
1.79753316255824
21
0.0942047212372967
31
0
210
0
220
0
230
1
40
0.996195
41
0
42
6.28318530717959
0
ELLIPSE
5
195
100
AcDbEntity
8
1
62
256
6
ByLayer
370
18
48
1
60
0
100
AcDbEllipse
10
26.205984
20
-19.108797
30
0
11
0.79291185059513
21
0.0415547492568961
31
0
210
0
220
0
230
1
40
0.996195
41
-2.18166156499293
42
1.79661631591354E-14
0
ELLIPSE
5
196
100
AcDbEntity
8
1
62
256
6
ByLayer
370
18
48
1
60
0
100
AcDbEllipse
10
25.221254
20
-7.90465
30
0
11
-1.1893677758927
21
-0.0623321238853443
31
0
210
0
220
0
230
1
40
0.996195
41
3.14159265358979
42
-2.18166156499291
0
ELLIPSE
5
197
100
AcDbEntity
8
1
62
256
6
ByLayer
370
18
48
1
60
0
100
AcDbEllipse
10
21.031315
20
-10.289294
30
0
11
-3.00833212086854
21
-0.157660005800557
31
0
210
0
220
0
230
1
40
0.996195
41
-0.926020403463089
42
0
0
ELLIPSE
5
198
100
AcDbEntity
8
1
62
256
6
ByLayer
370
18
48
1
60
0
100
AcDbEllipse
10
21.031315
20
-10.289294
30
0
11
-3.00833212086854
21
-0.157660005800557
31
0
210
0
220
0
230
1
40
0.996195
41
0
42
3.08903327519192
0
ELLIPSE
5
199
100
AcDbEntity
8
1
62
256
6
ByLayer
370
18
48
1
60
0
100
AcDbEllipse
10
21.031315
20
-10.289294
30
0
11
-3.00833212086854
21
-0.157660005800557
31
0
210
0
220
0
230
1
40
0.996195
41
3.08903301308994
42
-2.21544789300051
0
ELLIPSE
5
19A
100
AcDbEntity
8
1
62
256
6
ByLayer
370
18
48
1
60
0
100
AcDbEllipse
10
15.864234
20
-1.614585
30
0
11
0.79291185059513
21
0.0415547492568961
31
0
210
0
220
0
230
1
40
0.996195
41
0.959931088596865
42
-3.14159265358978
0
ELLIPSE
5
19B
100
AcDbEntity
8
1
62
256
6
ByLayer
370
18
48
1
60
0
100
AcDbEllipse
10
21.035109
20
-10.361691
30
0
11
-3.06641789373852
21
-0.160704152164613
31
0
210
0
220
0
230
1
40
0.996195
41
0
42
6.28318530717959
0
ELLIPSE
5
19C
100
AcDbEntity
8
1
62
256
6
ByLayer
370
18
48
1
60
0
100
AcDbEllipse
10
21.029943
20
-10.263126
30
0
11
-2.8804280057408
21
-0.15095683516555
31
0
210
0
220
0
230
1
40
0.996195
41
0
42
6.28318530717959
0
ELLIPSE
5
19D
100
AcDbEntity
8
1
62
256
6
ByLayer
370
18
48
1
60
0
100
AcDbEllipse
10
25.107546
20
-6.194799
30
0
11
0.195930440567721
21
-0.122628560628329
31
0
210
0
220
0
230
1
40
0.047891
41
1.62326818684362
42
2.78380608658737
0
ELLIPSE
5
19E
100
AcDbEntity
8
1
62
256
6
ByLayer
370
18
48
1
60
0
100
AcDbEllipse
10
23.311528
20
-5.069315
30
0
11
0.955758246697294
21
-0.598188100643308
31
0
210
0
220
0
230
1
40
0.047891
41
-2.04192324232107
42
-0.994725691126512
0
ELLIPSE
5
19F
100
AcDbEntity
8
1
62
256
6
ByLayer
370
18
48
1
60
0
100
AcDbEllipse
10
24.621849
20
-5.885928
30
0
11
0.286727474000866
21
-0.179456430187323
31
0
210
0
220
0
230
1
40
0.047891
41
-0.994725691138823
42
-0.35778656700365
0
ELLIPSE
5
1A0
100
AcDbEntity
8
1
62
256
6
ByLayer
370
18
48
1
60
0
100
AcDbEllipse
10
16.848963
20
-12.818732
30
0
11
-1.1893677758927
21
-0.0623321238853443
31
0
210
0
220
0
230
1
40
0.996195
41
0
42
0.959931088596881
0
ELLIPSE
5
1A1
100
AcDbEntity
8
1
62
256
6
ByLayer
370
18
48
1
60
0
100
AcDbEllipse
10
13.64591
20
-15.72957
30
0
11
4.04511149254756
21
1.17169420021686
31
0
210
0
220
0
230
1
40
0.946422
41
1.05766968024126
42
1.07756030559376
0
ELLIPSE
5
1A2
100
AcDbEntity
8
1
62
256
6
ByLayer
370
18
48
1
60
0
100
AcDbEllipse
10
6.216609
20
-24.502779
30
0
11
8.44195098258973E-16
21
13.7872075483518
31
0
210
0
220
0
230
1
40
0.087037
41
0.299812174457034
42
0.500953367187193
0
ELLIPSE
5
1A3
100
AcDbEntity
8
1
62
256
6
ByLayer
370
18
48
1
60
0
100
AcDbEllipse
10
15.752683
20
-1.43528
30
0
11
-1.59780725560732
21
-0.0837375299887076
31
0
210
0
220
0
230
1
40
0.996195
41
-2.66162710929137
42
-1.09083078249647
0
ELLIPSE
5
1A4
100
AcDbEntity
8
1
62
256
6
ByLayer
370
18
48
1
60
0
100
AcDbEllipse
10
10.292154
20
-9.824494
30
0
11
-3.19561451121464
21
-0.167475059977417
31
0
210
0
220
0
230
1
40
0.996195
41
0.0752399873742193
42
0.47996554429844
0
ELLIPSE
5
1A5
100
AcDbEntity
8
1
62
256
6
ByLayer
370
18
48
1
60
0
100
AcDbEllipse
10
12.929851
20
-9.37775
30
0
11
0.167993761815848
21
0.108699915160996
31
0
210
0
220
0
230
1
40
0.651849
41
-0.0667240205724127
42
1.5040723062227
0
ELLIPSE
5
1A6
100
AcDbEntity
8
1
62
256
6
ByLayer
370
18
48
1
60
0
100
AcDbEllipse
10
13.651971
20
-15.845206
30
0
11
4.1942440459692
21
0.219811016220357
31
0
210
0
220
0
230
1
40
0.996195
41
1.35879553899783
42
1.4872313613507
0
ELLIPSE
5
1A7
100
AcDbEntity
8
1
62
256
6
ByLayer
370
18
48
1
60
0
100
AcDbEllipse
10
26.17291
20
-0.996763
30
0
11
3.19561451121464
21
0.167475059977415
31
0
210
0
220
0
230
1
40
0.996195
41
1.94266574260215
42
2.05076187109334
0
ELLIPSE
5
1A8
100
AcDbEntity
8
1
62
256
6
ByLayer
370
18
48
1
60
0
100
AcDbEllipse
10
26.175191
20
-1.04029
30
0
11
3.69492927859193
21
0.193643038098887
31
0
210
0
220
0
230
1
40
0.996195
41
1.94250723515489
42
2.05076187109333
0
ELLIPSE
5
1A9
100
AcDbEntity
8
1
62
256
6
ByLayer
370
18
48
1
60
0
100
AcDbEllipse
10
10.291242
20
-9.807087
30
0
11
2.99588860426372
21
0.157007868728827
31
0
210
0
220
0
230
1
40
0.996195
41
2.80390977339525
42
-2.66162710929135
0
ELLIPSE
5
1AA
100
AcDbEntity
8
1
62
256
6
ByLayer
370
18
48
1
60
0
100
AcDbEllipse
10
4.314435
20
-5.656854
30
0
11
9.6302443775361
21
2.87600827336178
31
0
210
0
220
0
230
1
40
0.249886
41
-0.909667441878091
42
-0.679635867292493
0
ELLIPSE
5
1AB
100
AcDbEntity
8
1
62
256
6
ByLayer
370
18
48
1
60
0
100
AcDbEllipse
10
13.651834
20
-15.842594
30
0
11
4.1942440459692
21
0.219811016220357
31
0
210
0
220
0
230
1
40
0.996195
41
1.03062323683866
42
1.19189911031621
0
ELLIPSE
5
1AC
100
AcDbEntity
8
1
62
256
6
ByLayer
370
18
48
1
60
0
100
AcDbEllipse
10
13.651971
20
-15.845206
30
0
11
4.1942440459692
21
0.219811016220357
31
0
210
0
220
0
230
1
40
0.996195
41
1.19189911031622
42
1.19908524246577
0
ELLIPSE
5
1AD
100
AcDbEntity
8
1
62
256
6
ByLayer
370
18
48
1
60
0
100
AcDbEllipse
10
-805.10744
20
-5.656854
30
0
11
822.111223668554
21
0.326396255234221
31
0
210
0
220
0
230
1
40
0.004544
41
0.107499051761851
42
0.162212815349429
0
ELLIPSE
5
1AE
100
AcDbEntity
8
1
62
256
6
ByLayer
370
18
48
1
60
0
100
AcDbEllipse
10
14.485372
20
-1.640843
30
0
11
-0.172166940798305
21
-0.101776934990955
31
0
210
0
220
0
230
1
40
0.077308
41
-1.61117214123186
42
-0.0403758144368456
0
ELLIPSE
5
1AF
100
AcDbEntity
8
1
62
256
6
ByLayer
370
18
48
1
60
0
100
AcDbEllipse
10
-589.229046
20
5.656854
30
0
11
822.111249080359
21
0.326396192772791
31
0
210
0
220
0
230
1
40
0.004544
41
-0.760805985883207
42
-0.729180136210379
0
ELLIPSE
5
1B0
100
AcDbEntity
8
1
62
256
6
ByLayer
370
18
48
1
60
0
100
AcDbEllipse
10
10.317241
20
-10.303183
30
0
11
3.19561451121464
21
0.167475059977415
31
0
210
0
220
0
230
1
40
0.996195
41
2.05076187109334
42
-2.6630429040657
0
ELLIPSE
5
1B1
100
AcDbEntity
8
1
62
256
6
ByLayer
370
18
48
1
60
0
100
AcDbEllipse
10
10.319522
20
-10.346701
30
0
11
-3.69492927859192
21
-0.193643038098888
31
0
210
0
220
0
230
1
40
0.996195
41
-2.61588492090036E-06
42
0.317399156623379
0
ELLIPSE
5
1B2
100
AcDbEntity
8
1
62
256
6
ByLayer
370
18
48
1
60
0
100
AcDbEllipse
10
15.71915
20
-1.454962
30
0
11
1.59780725560732
21
0.0837375299887077
31
0
210
0
220
0
230
1
40
0.996195
41
2.05076187109333
42
-2.66162710929138
0
ELLIPSE
5
1B3
100
AcDbEntity
8
1
62
256
6
ByLayer
370
18
48
1
60
0
100
AcDbEllipse
10
15.070527
20
-3.551691
30
0
11
0.205934227944777
21
-0.110859519824209
31
0
210
0
220
0
230
1
40
0.063735
41
1.60952041156187
42
-3.10286856882316
0
ELLIPSE
5
1B4
100
AcDbEntity
8
1
62
256
6
ByLayer
370
18
48
1
60
0
100
AcDbEllipse
10
10.319522
20
-10.34671
30
0
11
3.69492927859192
21
0.193643038098887
31
0
210
0
220
0
230
1
40
0.996195
41
2.05076187109333
42
-2.82419637074985
0
ELLIPSE
5
1B5
100
AcDbEntity
8
1
62
256
6
ByLayer
370
18
48
1
60
0
100
AcDbEllipse
10
0.603745
20
0
30
0
11
7.34720948360635
21
-12.4973966459867
31
0
210
0
220
0
230
1
40
0.034721
41
0.0998802984267506
42
0.357169850229015
0
ELLIPSE
5
1B6
100
AcDbEntity
8
1
62
256
6
ByLayer
370
18
48
1
60
0
100
AcDbEllipse
10
13.039949
20
12.900887
30
0
11
6.77633220735716
21
4.2522138493114
31
0
210
0
220
0
230
1
40
1
41
3.12912618489711
42
-3.11475122500249
0
ELLIPSE
5
1B7
100
AcDbEntity
8
1
62
256
6
ByLayer
370
18
48
1
60
0
100
AcDbEllipse
10
-805.107482
20
-5.656854
30
0
11
822.111265376107
21
0.32639624554228
31
0
210
0
220
0
230
1
40
0.004544
41
-0.162216419469416
42
-0.12299676303888
0
ELLIPSE
5
1B8
100
AcDbEntity
8
1
62
256
6
ByLayer
370
18
48
1
60
0
100
AcDbEllipse
10
7.706991
20
-11.341845
30
0
11
0.172166940798304
21
0.101776934990955
31
0
210
0
220
0
230
1
40
0.077308
41
1.53042051235795
42
3.1012168391527
0
ELLIPSE
5
1B9
100
AcDbEntity
8
1
62
256
6
ByLayer
370
18
48
1
60
0
100
AcDbEllipse
10
13.630113
20
-15.428132
30
0
11
4.04164010336675
21
1.2739855588941
31
0
210
0
220
0
230
1
40
0.847029
41
0.983500770413161
42
1.05976093520587
0
ELLIPSE
5
1BA
100
AcDbEntity
8
1
62
256
6
ByLayer
370
18
48
1
60
0
100
AcDbEllipse
10
24.476914
20
-2.600249
30
0
11
0.167993761815994
21
0.108699915161012
31
0
210
0
220
0
230
1
40
0.651849
41
1.50407230622322
42
3.07486863301749
0
ELLIPSE
5
1BB
100
AcDbEntity
8
1
62
256
6
ByLayer
370
18
48
1
60
0
100
AcDbEllipse
10
15.017564
20
-2.541105
30
0
11
0.197115754403021
21
0.0594931732484956
31
0
210
0
220
0
230
1
40
0.082234
41
1.55060841957553
42
3.12140474637157
0
ELLIPSE
5
1BC
100
AcDbEntity
8
1
62
256
6
ByLayer
370
18
48
1
60
0
100
AcDbEllipse
10
15.69087
20
-0.915339
30
0
11
1.3980813486564
21
0.0732703387401192
31
0
210
0
220
0
230
1
40
0.996195
41
2.938875031323
42
-2.66162710929136
0
ELLIPSE
5
1BD
100
AcDbEntity
8
1
62
256
6
ByLayer
370
18
48
1
60
0
100
AcDbEllipse
10
5.000052
20
0
30
0
11
0.00496277520309653
21
-12.4999999999797
31
0
210
0
220
0
230
1
40
0.004544
41
0.207699100231626
42
2.75959500119954
0
ELLIPSE
5
1BE
100
AcDbEntity
8
1
62
256
6
ByLayer
370
18
48
1
60
0
100
AcDbEllipse
10
15.691782
20
-0.932746
30
0
11
-1.59780725560732
21
-0.0837375299887076
31
0
210
0
220
0
230
1
40
0.996195
41
0.164775269761709
42
0.479965544298438
0
ELLIPSE
5
1BF
100
AcDbEntity
8
1
62
256
6
ByLayer
370
18
48
1
60
0
100
AcDbEllipse
10
-821.800488
20
0.011685
30
0
11
2741.88686313343
21
1.084935014784
31
0
210
0
220
0
230
1
40
0.004546
41
-1.26340200662967
42
-1.26120590986225
0
POINT
5
70
100
AcDbEntity
8
2
62
256
6
ByLayer
370
18
48
1
60
0
100
AcDbPoint
10
26.762289
20
18.75614
30
0
39
0
210
0
220
0
230
1
50
360
0
POINT
5
72
100
AcDbEntity
8
2
62
256
6
ByLayer
370
18
48
1
60
0
100
AcDbPoint
10
27
20
19.9
30
0
39
0
210
0
220
0
230
1
50
360
0
POINT
5
73
100
AcDbEntity
8
81
62
256
6
ByLayer
370
18
48
1
60
0
100
AcDbPoint
10
27
20
-19.9
30
0
39
0
210
0
220
0
230
1
50
360
0
POINT
5
75
100
AcDbEntity
8
80
62
256
6
ByLayer
370
18
48
1
60
0
100
AcDbPoint
10
0
20
0
30
0
39
0
210
0
220
0
230
1
50
360
0
POINT
5
77
100
AcDbEntity
8
1
62
256
6
ByLayer
370
18
48
1
60
1
100
AcDbPoint
10
0
20
12.5
30
0
39
0
210
0
220
0
230
1
50
360
0
POINT
5
79
100
AcDbEntity
8
1
62
256
6
ByLayer
370
18
48
1
60
1
100
AcDbPoint
10
0
20
-12.5
30
0
39
0
210
0
220
0
230
1
50
360
0
POINT
5
7A
100
AcDbEntity
8
1
62
256
6
ByLayer
370
18
48
1
60
1
100
AcDbPoint
10
27
20
0
30
0
39
0
210
0
220
0
230
1
50
360
0
POINT
5
7B
100
AcDbEntity
8
1
62
256
6
ByLayer
370
18
48
1
60
1
100
AcDbPoint
10
27
20
-19.9
30
0
39
0
210
0
220
0
230
1
50
360
0
POINT
5
7C
100
AcDbEntity
8
1
62
256
6
ByLayer
370
18
48
1
60
1
100
AcDbPoint
10
0
20
-12.5
30
0
39
0
210
0
220
0
230
1
50
360
0
POINT
5
7D
100
AcDbEntity
8
1
62
256
6
ByLayer
370
18
48
1
60
1
100
AcDbPoint
10
27
20
-19.9
30
0
39
0
210
0
220
0
230
1
50
360
0
SPLINE
5
1C0
100
AcDbEntity
8
1
62
256
6
ByLayer
370
18
48
1
60
0
100
AcDbSpline
70
4
71
3
72
18
73
14
40
0
40
0
40
0
40
0
40
0.0461474884042657
40
0.0461474884042657
40
0.269316451132866
40
0.269316451132866
40
0.494318410179607
40
0.494318410179607
40
0.732994232718055
40
0.732994232718055
40
0.994669656400509
40
0.994669656400509
40
1
40
1
40
1
40
1
41
1
10
22.711546887485
20
-10.3511200063816
30
0
41
1
10
22.7115823720063
20
-10.3572814900836
30
0
41
1
10
22.7114206516014
20
-10.3634398166376
30
0
41
1
10
22.7093456366227
20
-10.3989781194934
30
0
41
1
10
22.7029490907698
20
-10.4282404002397
30
0
41
1
10
22.6821038556113
20
-10.4820616223388
30
0
41
1
10
22.6673450078632
20
-10.5072749673863
30
0
41
1
10
22.6309911295044
20
-10.5520760449311
30
0
41
1
10
22.6086045665492
20
-10.5718100206297
30
0
41
1
10
22.5579373117952
20
-10.6041173057711
30
0
41
1
10
22.5286800747746
20
-10.6162532949979
30
0
41
1
10
22.4982667909835
20
-10.6234349484789
30
0
41
1
10
22.4976526146099
20
-10.6235778055549
30
0
41
1
10
22.497038073909
20
-10.6237185809071
30
0
0
SPLINE
5
1C1
100
AcDbEntity
8
1
62
256
6
ByLayer
370
18
48
1
60
0
100
AcDbSpline
70
4
71
3
72
18
73
14
40
0
40
0
40
0
40
0
40
0.111538086393704
40
0.111538086393704
40
0.305728847141482
40
0.305728847141482
40
0.465232868161149
40
0.465232868161149
40
0.625325180234509
40
0.625325180234509
40
0.778371711705974
40
0.778371711705974
40
1
40
1
40
1
40
1
41
1
10
20.0505425700396
20
-9.2406341094333
30
0
41
1
10
20.0603277285364
20
-9.27483030370362
30
0
41
1
10
20.0672974431251
20
-9.31037507752202
30
0
41
1
10
20.0777625751018
20
-9.41010771821027
30
0
41
1
10
20.0748599581511
20
-9.47745131998417
30
0
41
1
10
20.0493153072812
20
-9.60001357824046
30
0
41
1
10
20.0298538124197
20
-9.65659451846491
30
0
41
1
10
19.9765642411809
20
-9.76346800597756
30
0
41
1
10
19.9419658785286
20
-9.81507133334298
30
0
41
1
10
19.8651948433247
20
-9.90378258283764
30
0
41
1
10
19.8226085637589
20
-9.94252928676434
30
0
41
1
10
19.7136321707208
20
-10.0217896685594
30
0
41
1
10
19.6432248800422
20
-10.057017276144
30
0
41
1
10
19.5721518969532
20
-10.0800522236548
30
0
0
SPLINE
5
1C2
100
AcDbEntity
8
1
62
256
6
ByLayer
370
18
48
1
60
0
100
AcDbSpline
70
4
71
3
72
18
73
14
40
0
40
0
40
0
40
0
40
0.211905360630366
40
0.211905360630366
40
0.386129004723065
40
0.386129004723065
40
0.562040926715452
40
0.562040926715452
40
0.715019026128053
40
0.715019026128053
40
0.91777098256377
40
0.91777098256377
40
1
40
1
40
1
40
1
41
1
10
21.5049993339329
20
-8.94557534511142
30
0
41
1
10
21.4552120283607
20
-8.99268173447899
30
0
41
1
10
21.3958352992655
20
-9.03389121575822
30
0
41
1
10
21.2745053670972
20
-9.09161032864381
30
0
41
1
10
21.2134441912532
20
-9.11173525302462
30
0
41
1
10
21.086053612857
20
-9.13532003463123
30
0
41
1
10
21.0177529401671
20
-9.13880694974972
30
0
41
1
10
20.8950933844689
20
-9.12860474375759
30
0
41
1
10
20.838606423671
20
-9.11704703509619
30
0
41
1
10
20.7175920863148
20
-9.07768789237858
30
0
41
1
10
20.6542460575867
20
-9.04534408221713
30
0
41
1
10
20.5771971808205
20
-8.99067968945604
30
0
41
1
10
20.5560522850586
20
-8.9736028770966
30
0
41
1
10
20.5362730706793
20
-8.95553658355703
30
0
0
SPLINE
5
1C3
100
AcDbEntity
8
1
62
256
6
ByLayer
370
18
48
1
60
0
100
AcDbSpline
70
4
71
3
72
12
73
8
40
0
40
0
40
0
40
0
40
0.315745044720799
40
0.315745044720799
40
0.783199078066879
40
0.783199078066879
40
1
40
1
40
1
40
1
41
1
10
20.0388874441888
20
-11.0179500881222
30
0
41
1
10
20.0592865497552
20
-11.0650610013068
30
0
41
1
10
20.0743041675992
20
-11.1147960643021
30
0
41
1
10
20.0975222697495
20
-11.237330264555
30
0
41
1
10
20.0995250891485
20
-11.3117407977133
30
0
41
1
10
20.0876825275252
20
-11.4154464301233
30
0
41
1
10
20.081702231463
20
-11.448024454349
30
0
41
1
10
20.0737111740867
20
-11.4797668052665
30
0
0
SPLINE
5
1C4
100
AcDbEntity
8
1
62
256
6
ByLayer
370
18
48
1
60
0
100
AcDbSpline
70
4
71
3
72
18
73
14
40
0
40
0
40
0
40
0
40
0.0470280027594849
40
0.0470280027594849
40
0.268098810962247
40
0.268098810962247
40
0.491061075983778
40
0.491061075983778
40
0.727631638692497
40
0.727631638692497
40
0.9870336830304
40
0.9870336830304
40
1
40
1
40
1
40
1
41
1
10
21.8568470702748
20
-8.90530074641848
30
0
41
1
10
21.8623916139102
20
-8.90840475511604
30
0
41
1
10
21.8678372802837
20
-8.91168296919807
30
0
41
1
10
21.8979902149509
20
-8.93115599212749
30
0
41
1
10
21.9205285843768
20
-8.95105581431071
30
0
41
1
10
21.9578029398383
20
-8.99529912614759
30
0
41
1
10
21.9729635551784
20
-9.0202293592879
30
0
41
1
10
21.9952518743925
20
-9.07304318414006
30
0
41
1
10
22.0021413085605
20
-9.10166453384468
30
0
41
1
10
22.0070054384393
20
-9.16028690743272
30
0
41
1
10
22.0041525581146
20
-9.19088882870523
30
0
41
1
10
21.9962581012501
20
-9.22083331045272
30
0
41
1
10
21.9958664096472
20
-9.22226955496475
30
0
41
1
10
21.9954629307604
20
-9.22370125768947
30
0
0
SPLINE
5
1C5
100
AcDbEntity
8
1
62
256
6
ByLayer
370
18
48
1
60
0
100
AcDbSpline
70
4
71
3
72
16
73
12
40
0
40
0
40
0
40
0
40
0.0197557871611187
40
0.0197557871611187
40
0.339856717382935
40
0.339856717382935
40
0.627452265397729
40
0.627452265397729
40
0.880397404253076
40
0.880397404253076
40
1
40
1
40
1
40
1
41
1
10
22.0186474008228
20
-11.4631366951286
30
0
41
1
10
22.0192766441679
20
-11.4655096758394
30
0
41
1
10
22.0198790392457
20
-11.4678924921978
30
0
41
1
10
22.0296345072953
20
-11.5084631278988
30
0
41
1
10
22.0318210155864
20
-11.5497927572798
30
0
41
1
10
22.020321051433
20
-11.6262281658992
30
0
41
1
10
22.0079581306911
20
-11.6627348739751
30
0
41
1
10
21.9726368063263
20
-11.7241763861372
30
0
41
1
10
21.9505610505712
20
-11.7508608120177
30
0
41
1
10
21.912630384431
20
-11.7828306941766
30
0
41
1
10
21.8994672092849
20
-11.7921476490662
30
0
41
1
10
21.8856838281939
20
-11.8002377480862
30
0
0
SPLINE
5
1C6
100
AcDbEntity
8
1
62
256
6
ByLayer
370
18
48
1
60
0
100
AcDbSpline
70
4
71
3
72
14
73
10
40
0
40
0
40
0
40
0
40
0.281998414290834
40
0.281998414290834
40
0.568568424035221
40
0.568568424035221
40
0.827932398160478
40
0.827932398160478
40
1
40
1
40
1
40
1
41
1
10
20.5641906369289
20
-11.7581954594511
30
0
41
1
10
20.5409276965759
20
-11.783360266664
30
0
41
1
10
20.5127712226734
20
-11.8051173347544
30
0
41
1
10
20.449923313416
20
-11.8374933508541
30
0
41
1
10
20.4141294420406
20
-11.8483700342562
30
0
41
1
10
20.3444464484293
20
-11.8551034790691
30
0
41
1
10
20.3096420518974
20
-11.8523282698182
30
0
41
1
10
20.2548192096082
20
-11.8373979981836
30
0
41
1
10
20.2333241183943
20
-11.8286237355703
30
0
41
1
10
20.2133367687814
20
-11.8174341930002
30
0
0
SPLINE
5
1C7
100
AcDbEntity
8
1
62
256
6
ByLayer
370
18
48
1
60
0
100
AcDbSpline
70
4
71
3
72
14
73
10
40
0
40
0
40
0
40
0
40
0.258017080902232
40
0.258017080902232
40
0.547596971892504
40
0.547596971892504
40
0.809420526908559
40
0.809420526908559
40
1
40
1
40
1
40
1
41
1
10
20.0505425700395
20
-9.2406341094333
30
0
41
1
10
20.0425594957919
20
-9.21273565914925
30
0
41
1
10
20.0390483034523
20
-9.18269733146187
30
0
41
1
10
20.042663843342
20
-9.11860135733244
30
0
41
1
10
20.0512880339006
20
-9.08347145333096
30
0
41
1
10
20.0804776652223
20
-9.02127335950772
30
0
41
1
10
20.1003204742844
20
-8.9928353908906
30
0
41
1
10
20.1422412585628
20
-8.95107659790685
30
0
41
1
10
20.1626225999627
20
-8.93533804796351
30
0
41
1
10
20.1845000108623
20
-8.92249719133247
30
0
0
SPLINE
5
1C8
100
AcDbEntity
8
1
62
256
6
ByLayer
370
18
48
1
60
0
100
AcDbSpline
70
4
71
3
72
16
73
12
40
0
40
0
40
0
40
0
40
0.110455962028383
40
0.110455962028383
40
0.332827281311578
40
0.332827281311578
40
0.560651034858733
40
0.560651034858733
40
0.805074806678615
40
0.805074806678615
40
1
40
1
40
1
40
1
41
1
10
21.8856838281939
20
-11.8002377480862
30
0
41
1
10
21.8729987862353
20
-11.8076831814557
30
0
41
1
10
21.8596980906099
20
-11.8141444951977
30
0
41
1
10
21.8186833636129
20
-11.8302380143688
30
0
41
1
10
21.7893893572548
20
-11.8366146535143
30
0
41
1
10
21.7309548723106
20
-11.8401666169773
30
0
41
1
10
21.7010978717385
20
-11.837183782704
30
0
41
1
10
21.6429998834381
20
-11.8224041775216
30
0
41
1
10
21.6143009513057
20
-11.8098288907994
30
0
41
1
10
21.5682776503099
20
-11.7807428040647
30
0
41
1
10
21.549482075209
20
-11.7653492914389
30
0
41
1
10
21.532916900183
20
-11.7482342210048
30
0
0
SPLINE
5
1C9
100
AcDbEntity
8
1
62
256
6
ByLayer
370
18
48
1
60
0
100
AcDbSpline
70
4
71
3
72
18
73
14
40
0
40
0
40
0
40
0
40
0.205491519670287
40
0.205491519670287
40
0.380859013077688
40
0.380859013077688
40
0.557990014066119
40
0.557990014066119
40
0.711214516597884
40
0.711214516597884
40
0.912845515554406
40
0.912845515554406
40
1
40
1
40
1
40
1
41
1
10
22.0186474008228
20
-11.4631366951286
30
0
41
1
10
22.0003424793506
20
-11.394105809213
30
0
41
1
10
21.9915399075196
20
-11.3203801491639
30
0
41
1
10
21.9968116766453
20
-11.1825154188501
30
0
41
1
10
22.0079495044435
20
-11.1170006133696
30
0
41
1
10
22.0488932115861
20
-10.9915679951879
30
0
41
1
10
22.0796920561847
20
-10.9299206924309
30
0
41
1
10
22.150799768671
20
-10.8297848828599
30
0
41
1
10
22.1900441182059
20
-10.7880366069669
30
0
41
1
10
22.2875353179168
20
-10.7078158078334
30
0
41
1
10
22.3493894401827
20
-10.6729463554546
30
0
41
1
10
22.4404199496256
20
-10.6386753073114
30
0
41
1
10
22.4686164840226
20
-10.6302292307645
30
0
41
1
10
22.497038073909
20
-10.6237185809071
30
0
0
SPLINE
5
1CA
100
AcDbEntity
8
1
62
256
6
ByLayer
370
18
48
1
60
0
100
AcDbSpline
70
4
71
3
72
12
73
8
40
0
40
0
40
0
40
0
40
0.321205682179163
40
0.321205682179163
40
0.789835449508348
40
0.789835449508348
40
1
40
1
40
1
40
1
41
1
10
22.0288208922021
20
-9.65754944657056
30
0
41
1
10
22.0080982917278
20
-9.61056173742432
30
0
41
1
10
21.9930080147429
20
-9.56177824126175
30
0
41
1
10
21.9703985880241
20
-9.4443255118214
30
0
41
1
10
21.9689803924203
20
-9.37482304803254
30
0
41
1
10
21.9816210268857
20
-9.28033778163683
30
0
41
1
10
21.987602467691
20
-9.25159329060722
30
0
41
1
10
21.9954629307604
20
-9.22370125768947
30
0
0
SPLINE
5
1CB
100
AcDbEntity
8
1
62
256
6
ByLayer
370
18
48
1
60
0
100
AcDbSpline
70
4
71
3
72
12
73
8
40
0
40
0
40
0
40
0
40
0.484869942037222
40
0.484869942037222
40
0.891643636277204
40
0.891643636277204
40
1
40
1
40
1
40
1
41
1
10
19.5786164774029
20
-10.6422593745205
30
0
41
1
10
19.6461321369124
20
-10.656096357075
30
0
41
1
10
19.71319323116
20
-10.6810908297724
30
0
41
1
10
19.8275463293293
20
-10.7483467841724
30
0
41
1
10
19.8774982647301
20
-10.7881003390999
30
0
41
1
10
19.9325210653159
20
-10.8480810228329
30
0
41
1
10
19.9437361763946
20
-10.8613400839046
30
0
41
1
10
19.9544403989079
20
-10.8750985722384
30
0
0
SPLINE
5
1CC
100
AcDbEntity
8
1
62
256
6
ByLayer
370
18
48
1
60
0
100
AcDbSpline
70
4
71
3
72
14
73
10
40
0
40
0
40
0
40
0
40
0.267209902874934
40
0.267209902874934
40
0.553814858952066
40
0.553814858952066
40
0.812970428586414
40
0.812970428586414
40
1
40
1
40
1
40
1
41
1
10
22.4905576274439
20
-10.0612086884354
30
0
41
1
10
22.5214802169726
20
-10.0704016453552
30
0
41
1
10
22.5519830964943
20
-10.0848871304771
30
0
41
1
10
22.6092224942975
20
-10.1247847307572
30
0
41
1
10
22.6363908828855
20
-10.1516094594714
30
0
41
1
10
22.6771497601542
20
-10.210559805237
30
0
41
1
10
22.6923584031746
20
-10.2428616738102
30
0
41
1
10
22.7079233944769
20
-10.3006515349961
30
0
41
1
10
22.7114026028526
20
-10.3260666202861
30
0
41
1
10
22.711546887485
20
-10.3511200063816
30
0
0
SPLINE
5
1CD
100
AcDbEntity
8
1
62
256
6
ByLayer
370
18
48
1
60
0
100
AcDbSpline
70
4
71
3
72
14
73
10
40
0
40
0
40
0
40
0
40
0.262206567587407
40
0.262206567587407
40
0.55126118447338
40
0.55126118447338
40
0.812649842076676
40
0.812649842076676
40
1
40
1
40
1
40
1
41
1
10
21.5049993339329
20
-8.94557534511139
30
0
41
1
10
21.5267810598967
20
-8.92496650812865
30
0
41
1
10
21.5527503224103
20
-8.90719307491995
30
0
41
1
10
21.6130136422441
20
-8.87930671387207
30
0
41
1
10
21.6488896180074
20
-8.86978961818323
30
0
41
1
10
21.7190193624227
20
-8.86477537987463
30
0
41
1
10
21.7541698116614
20
-8.86800872314072
30
0
41
1
10
21.8115148739541
20
-8.88353411524795
30
0
41
1
10
21.8350917856535
20
-8.89312145861348
30
0
41
1
10
21.8568470702748
20
-8.90530074641848
30
0
0
SPLINE
5
1CE
100
AcDbEntity
8
1
62
256
6
ByLayer
370
18
48
1
60
0
100
AcDbSpline
70
4
71
3
72
16
73
12
40
0
40
0
40
0
40
0
40
0.0610421755376336
40
0.0610421755376336
40
0.281808293882939
40
0.281808293882939
40
0.505269270479094
40
0.505269270479094
40
0.742988318186616
40
0.742988318186616
40
1
40
1
40
1
40
1
41
1
10
20.2133367687814
20
-11.8174341930002
30
0
41
1
10
20.2061492827153
20
-11.8134104138166
30
0
41
1
10
20.1991248251443
20
-11.8090635279707
30
0
41
1
10
20.1678265904025
20
-11.7877531147
30
0
41
1
10
20.1457027746134
20
-11.7669022704607
30
0
41
1
10
20.1092187320876
20
-11.7201884193532
30
0
41
1
10
20.0944736291701
20
-11.6936878449215
30
0
41
1
10
20.0730204236803
20
-11.6371976772964
30
0
41
1
10
20.0665867402329
20
-11.6063980348368
30
0
41
1
10
20.0627061045081
20
-11.5434426923156
30
0
41
1
10
20.0659459182096
20
-11.5106122197601
30
0
41
1
10
20.0737111740867
20
-11.4797668052665
30
0
0
SPLINE
5
1CF
100
AcDbEntity
8
1
62
256
6
ByLayer
370
18
48
1
60
0
100
AcDbSpline
70
4
71
3
72
16
73
12
40
0
40
0
40
0
40
0
40
0.0561291061741102
40
0.0561291061741102
40
0.279003278185661
40
0.279003278185661
40
0.504284445498299
40
0.504284445498299
40
0.743700215435486
40
0.743700215435486
40
1
40
1
40
1
40
1
41
1
10
19.3586369515712
20
-10.371614933037
30
0
41
1
10
19.3585938191392
20
-10.3641254765818
30
0
41
1
10
19.3588409897078
20
-10.3566153435457
30
0
41
1
10
19.3614873817259
20
-10.3196042364007
30
0
41
1
10
19.3682454030654
20
-10.2899203136936
30
0
41
1
10
19.3897076872998
20
-10.2346117524587
30
0
41
1
10
19.4047486606174
20
-10.2083218908506
30
0
41
1
10
19.4415929162038
20
-10.1607969835074
30
0
41
1
10
19.4641979720242
20
-10.1393681257196
30
0
41
1
10
19.5145349492494
20
-10.1036363178321
30
0
41
1
10
19.5430964098414
20
-10.0894691862112
30
0
41
1
10
19.5721518969532
20
-10.0800522236548
30
0
0
SPLINE
5
1D0
100
AcDbEntity
8
1
62
256
6
ByLayer
370
18
48
1
60
0
100
AcDbSpline
70
4
71
3
72
18
73
14
40
0
40
0
40
0
40
0
40
0.206015522409795
40
0.206015522409795
40
0.381289027047593
40
0.381289027047593
40
0.558319917426829
40
0.558319917426829
40
0.711523298247862
40
0.711523298247862
40
0.91324508319425
40
0.91324508319425
40
1
40
1
40
1
40
1
41
1
10
20.5641906369289
20
-11.7581954594511
30
0
41
1
10
20.6122660277537
20
-11.7061896543617
30
0
41
1
10
20.6693868394531
20
-11.6601130076674
30
0
41
1
10
20.7879416626176
20
-11.5933592746139
30
0
41
1
10
20.8488942027853
20
-11.569318070095
30
0
41
1
10
20.9765112170903
20
-11.5407389594587
30
0
41
1
10
21.0451830971681
20
-11.5361928948141
30
0
41
1
10
21.1685603170764
20
-11.547582062392
30
0
41
1
10
21.2253813575531
20
-11.560882320333
30
0
41
1
10
21.3468456477112
20
-11.6060610222289
30
0
41
1
10
21.4104427703769
20
-11.6430088309196
30
0
41
1
10
21.48937602449
20
-11.7059909352807
30
0
41
1
10
21.5119062692706
20
-11.7265261239057
30
0
41
1
10
21.532916900183
20
-11.7482342210048
30
0
0
SPLINE
5
1D1
100
AcDbEntity
8
1
62
256
6
ByLayer
370
18
48
1
60
0
100
AcDbSpline
70
4
71
3
72
14
73
10
40
0
40
0
40
0
40
0
40
0.281078615704811
40
0.281078615704811
40
0.565947605785654
40
0.565947605785654
40
0.823680232964402
40
0.823680232964402
40
1
40
1
40
1
40
1
41
1
10
19.5786164774029
20
-10.6422593745205
30
0
41
1
10
19.546252819161
20
-10.6356266114289
30
0
41
1
10
19.514320811537
20
-10.6229758991928
30
0
41
1
10
19.4566669713627
20
-10.5862280066622
30
0
41
1
10
19.4301748932339
20
-10.5613542837064
30
0
41
1
10
19.3906966697319
20
-10.505377314384
30
0
41
1
10
19.3761178001319
20
-10.4742102037276
30
0
41
1
10
19.3618538753947
20
-10.4189282799569
30
0
41
1
10
19.3587730031303
20
-10.3952387395588
30
0
41
1
10
19.3586369515712
20
-10.371614933037
30
0
0
SPLINE
5
1D2
100
AcDbEntity
8
1
62
256
6
ByLayer
370
18
48
1
60
0
100
AcDbSpline
70
4
71
3
72
12
73
8
40
0
40
0
40
0
40
0
40
0.4946812310145
40
0.4946812310145
40
0.899748507533492
40
0.899748507533492
40
1
40
1
40
1
40
1
41
1
10
22.4905576274439
20
-10.0612086884354
30
0
41
1
10
22.4213430360064
20
-10.0406319266893
30
0
41
1
10
22.3525937524334
20
-10.0087750630702
30
0
41
1
10
22.2370703197638
20
-9.93105795264259
30
0
41
1
10
22.1873546732423
20
-9.88778414369435
30
0
41
1
10
22.1335574374243
20
-9.82615190219889
30
0
41
1
10
22.123191974891
20
-9.81344625238546
30
0
41
1
10
22.113267937483
20
-9.8004009624544
30
0
0
SPLINE
5
1D3
100
AcDbEntity
8
1
62
256
6
ByLayer
370
18
48
1
60
0
100
AcDbSpline
70
4
71
3
72
16
73
12
40
0
40
0
40
0
40
0
40
0.0444757760832907
40
0.0444757760832907
40
0.267630380646454
40
0.267630380646454
40
0.492521651895603
40
0.492521651895603
40
0.731005790857676
40
0.731005790857676
40
1
40
1
40
1
40
1
41
1
10
20.1845000108623
20
-8.92249719133247
30
0
41
1
10
20.1896388376079
20
-8.91948097804308
30
0
41
1
10
20.1948730316151
20
-8.91661244682319
30
0
41
1
10
20.2266044138506
20
-8.90041544217794
30
0
41
1
10
20.2554144110225
20
-8.89072812723364
30
0
41
1
10
20.3132759194659
20
-8.88013186065049
30
0
41
1
10
20.343061924524
20
-8.87913479789952
30
0
41
1
10
20.4014408131038
20
-8.88537593213482
30
0
41
1
10
20.4305884819631
20
-8.89316325392144
30
0
41
1
10
20.4866950271944
20
-8.91729207315575
30
0
41
1
10
20.5136612953869
20
-8.93488303473302
30
0
41
1
10
20.5362730706793
20
-8.95553658355703
30
0
0
SPLINE
5
1D4
100
AcDbEntity
8
1
62
256
6
ByLayer
370
18
48
1
60
0
100
AcDbSpline
70
4
71
3
72
10
73
6
40
0
40
0
40
0
40
0
40
0.568852748629171
40
0.568852748629171
40
1
40
1
40
1
40
1
41
1
10
26.1727764840759
20
-7.15992093751802
30
0
41
1
10
26.1601290943608
20
-7.11019760290384
30
0
41
1
10
26.1440113845498
20
-7.06140401169071
30
0
41
1
10
26.1096940925966
20
-6.97813640519001
30
0
41
1
10
26.0928169681664
20
-6.94274236221213
30
0
41
1
10
26.0741052613884
20
-6.90840533286075
30
0
0
SPLINE
5
1D5
100
AcDbEntity
8
1
62
256
6
ByLayer
370
18
48
1
60
0
100
AcDbSpline
70
4
71
3
72
12
73
8
40
0
40
0
40
0
40
0
40
0.0406711006779511
40
0.0406711006779511
40
0.360447400451967
40
0.360447400451967
40
1
40
1
40
1
40
1
41
1
10
21.1301308741432
20
-3.95962921139898
30
0
41
1
10
21.14909043581
20
-3.96844058757463
30
0
41
1
10
21.1673179005139
20
-3.97682070558543
30
0
41
1
10
21.3248157203826
20
-4.04928415266019
30
0
41
1
10
21.4309680030328
20
-4.0915983312388
30
0
41
1
10
21.7158887735777
20
-4.19659300578931
30
0
41
1
10
21.8546445401738
20
-4.23384700839702
30
0
41
1
10
21.9767904409989
20
-4.26051330521057
30
0
0
SPLINE
5
1D6
100
AcDbEntity
8
1
62
256
6
ByLayer
370
18
48
1
60
0
100
AcDbSpline
70
4
71
3
72
10
73
6
40
0
40
0
40
0
40
0
40
0.759346300360646
40
0.759346300360646
40
1
40
1
40
1
40
1
41
1
10
25.7315933958221
20
-6.57013902695411
30
0
41
1
10
25.835301833015
20
-6.63468539529202
30
0
41
1
10
25.9292469770791
20
-6.71796399131949
30
0
41
1
10
26.0301526887403
20
-6.84358332427871
30
0
41
1
10
26.0530375822487
20
-6.87545113182779
30
0
41
1
10
26.0741052613885
20
-6.90840533286075
30
0
0
SPLINE
5
1D7
100
AcDbEntity
8
1
62
256
6
ByLayer
370
18
48
1
60
0
100
AcDbSpline
70
4
71
3
72
10
73
6
40
0
40
0
40
0
40
0
40
0.208486446978547
40
0.208486446978547
40
1
40
1
40
1
40
1
41
1
10
26.1320794587432
20
-7.16231587233594
30
0
41
1
10
26.1280688545071
20
-7.14465944208692
30
0
41
1
10
26.1240544279498
20
-7.1270052615362
30
0
41
1
10
26.1047809961679
20
-7.04233822072189
30
0
41
1
10
26.089470716548
20
-6.97535553887462
30
0
41
1
10
26.0741052613885
20
-6.90840533286084
30
0
0
SPLINE
5
1D8
100
AcDbEntity
8
SK1
62
256
6
ByLayer
370
18
48
1
60
0
100
AcDbSpline
70
4
71
3
72
8
73
4
40
0
40
0
40
0
40
0
40
1
40
1
40
1
40
1
41
1
10
0
20
11.9470227637501
30
0
41
1
10
-0.0360986241494174
20
11.9133424940816
30
0
41
1
10
-0.0721831347633497
20
11.8796420447089
30
0
41
1
10
-0.108253175473067
20
11.8459209681666
30
0
0
SPLINE
5
1D9
100
AcDbEntity
8
SK1
62
256
6
ByLayer
370
18
48
1
60
0
100
AcDbSpline
70
4
71
3
72
8
73
4
40
0
40
0
40
0
40
0
40
1
40
1
40
1
40
1
41
1
10
0
20
11.9550307054211
30
0
41
1
10
-0.036085689621018
20
11.9186620806572
30
0
41
1
10
-0.0721700933509624
20
11.8822921799584
30
0
41
1
10
-0.108253175473124
20
11.8459209681666
30
0
0
SPLINE
5
1DA
100
AcDbEntity
8
SK1
62
256
6
ByLayer
370
18
48
1
60
0
100
AcDbSpline
70
4
71
3
72
8
73
4
40
0
40
0
40
0
40
0
40
1
40
1
40
1
40
1
41
1
10
-0.238765877365267
20
-9.90959092048166
30
0
41
1
10
-0.159177858211592
20
-9.9746512099878
30
0
41
1
10
-0.079589220705941
20
-10.0397104909339
30
0
41
1
10
-1.137E-13
20
-10.1047688205899
30
0
0
SPLINE
5
1DB
100
AcDbEntity
8
SK1
62
256
6
ByLayer
370
18
48
1
60
0
100
AcDbSpline
70
4
71
3
72
8
73
4
40
0
40
0
40
0
40
0
40
1
40
1
40
1
40
1
41
1
10
0
20
-10.4842192326163
30
0
41
1
10
-0.0801862240620608
20
-10.3658484917975
30
0
41
1
10
-0.159789338391761
20
-10.2469475923676
30
0
41
1
10
-0.238765877365267
20
-10.1274974017296
30
0
0
SPLINE
5
1DC
100
AcDbEntity
8
SK1
62
256
6
ByLayer
370
18
48
1
60
0
100
AcDbSpline
70
4
71
3
72
12
73
8
40
0
40
0
40
0
40
0
40
0.573995963408261
40
0.573995963408261
40
0.883237318344663
40
0.883237318344663
40
1
40
1
40
1
40
1
41
1
10
-0.238765877365267
20
-10.1274974017296
30
0
41
1
10
-0.257126354705463
20
-10.0997276039264
30
0
41
1
10
-0.273233723682324
20
-10.0714721889067
30
0
41
1
10
-0.290502439897068
20
-10.0317043742365
30
0
41
1
10
-0.295238975170889
20
-10.0181423168519
30
0
41
1
10
-0.298291467288777
20
-10.0019764534974
30
0
41
1
10
-0.29876587736527
20
-9.99776023823972
30
0
41
1
10
-0.29876587736527
20
-9.99395144656819
30
0
0
SPLINE
5
1DD
100
AcDbEntity
8
SK1
62
256
6
ByLayer
370
18
48
1
60
0
100
AcDbSpline
70
4
71
3
72
18
73
14
40
0
40
0
40
0
40
0
40
0.231364130267331
40
0.231364130267331
40
0.423018276302015
40
0.423018276302015
40
0.58448612678702
40
0.58448612678702
40
0.745846932488442
40
0.745846932488442
40
0.957614777614412
40
0.957614777614412
40
1
40
1
40
1
40
1
41
1
10
-0.29876587736527
20
8.98591212938507
30
0
41
1
10
-0.29876587736527
20
8.97907505018273
30
0
41
1
10
-0.297941575860989
20
8.9727703941397
30
0
41
1
10
-0.294256705909334
20
8.96351033998559
30
0
41
1
10
-0.291709473078186
20
8.96010446225606
30
0
41
1
10
-0.285251518735777
20
8.95636911104307
30
0
41
1
10
-0.281536242470622
20
8.95562459102783
30
0
41
1
10
-0.273099041772014
20
8.95635498020698
30
0
41
1
10
-0.268282440295934
20
8.9578313545357
30
0
41
1
10
-0.256765136198908
20
8.96321412954867
30
0
41
1
10
-0.249776689926478
20
8.96777615161204
30
0
41
1
10
-0.241536840072399
20
8.97416001024368
30
0
41
1
10
-0.240149961705924
20
8.97526857193253
30
0
41
1
10
-0.238765877365267
20
8.97640635612146
30
0
0
SPLINE
5
1DE
100
AcDbEntity
8
SK1
62
256
6
ByLayer
370
18
48
1
60
0
100
AcDbSpline
70
4
71
3
72
8
73
4
40
0
40
0
40
0
40
0
40
1
40
1
40
1
40
1
41
1
10
-0.238765877365267
20
8.97640635612146
30
0
41
1
10
-0.159181106889775
20
9.0418288819516
30
0
41
1
10
-0.0795923986217986
20
9.10724502123347
30
0
41
1
10
0
20
9.17265517271639
30
0
0
SPLINE
5
1DF
100
AcDbEntity
8
SK1
62
256
6
ByLayer
370
18
48
1
60
0
100
AcDbSpline
70
4
71
3
72
16
73
12
40
0
40
0
40
0
40
0
40
0.214658011402209
40
0.214658011402209
40
0.43397471246679
40
0.43397471246679
40
0.628894734479578
40
0.628894734479578
40
0.810218601956625
40
0.810218601956625
40
1
40
1
40
1
40
1
41
1
10
-0.29876587736527
20
-9.90509617907787
30
0
41
1
10
-0.298765877364303
20
-9.89991843014951
30
0
41
1
10
-0.297928870706187
20
-9.89536820681329
30
0
41
1
10
-0.294052756620886
20
-9.88857909029605
30
0
41
1
10
-0.29087533187419
20
-9.88633662419321
30
0
41
1
10
-0.282770923805742
20
-9.8852826702057
30
0
41
1
10
-0.277968787893542
20
-9.8861133087654
30
0
41
1
10
-0.267751432123589
20
-9.88997157391211
30
0
41
1
10
-0.26229731401645
20
-9.89286375870753
30
0
41
1
10
-0.250878967960602
20
-9.90014729125721
30
0
41
1
10
-0.244805851873764
20
-9.90465346262923
30
0
41
1
10
-0.238765877365267
20
-9.90959092048166
30
0
0
SPLINE
5
1E0
100
AcDbEntity
8
SK1
62
256
6
ByLayer
370
18
48
1
60
0
100
AcDbSpline
70
4
71
3
72
8
73
4
40
0
40
0
40
0
40
0
40
1
40
1
40
1
40
1
41
1
10
-0.238765877365267
20
5.99605109952111
30
0
41
1
10
-0.159381307385502
20
6.07463617565884
30
0
41
1
10
-0.0797852962249408
20
6.15293718980229
30
0
41
1
10
0
20
6.23097929041342
30
0
0
SPLINE
5
1E1
100
AcDbEntity
8
SK1
62
256
6
ByLayer
370
18
48
1
60
0
100
AcDbSpline
70
4
71
3
72
20
73
16
40
0
40
0
40
0
40
0
40
0.371557089871401
40
0.371557089871401
40
0.54796745611351
40
0.54796745611351
40
0.651761826966437
40
0.651761826966437
40
0.756978995077812
40
0.756978995077812
40
0.847809177992069
40
0.847809177992069
40
0.983214186629639
40
0.983214186629639
40
1
40
1
40
1
40
1
41
1
10
-0.29876587736527
20
6.05334533602297
30
0
41
1
10
-0.29876587736527
20
6.03618474628615
30
0
41
1
10
-0.297586840943779
20
6.01928195538792
30
0
41
1
10
-0.291587129137326
20
5.99799381625229
30
0
41
1
10
-0.288918731985348
20
5.99158924089926
30
0
41
1
10
-0.282851335326825
20
5.98388507734103
30
0
41
1
10
-0.2801396360382
20
5.9815454505343
30
0
41
1
10
-0.273836631334916
20
5.97871974620085
30
0
41
1
10
-0.270131204618508
20
5.97825755441343
30
0
41
1
10
-0.26289799927315
20
5.97942600754413
30
0
41
1
10
-0.259337776708946
20
5.98077647349041
30
0
41
1
10
-0.250654077105821
20
5.98553157239985
30
0
41
1
10
-0.245471323006882
20
5.98964617933623
30
0
41
1
10
-0.239978694875276
20
5.99486240648923
30
0
41
1
10
-0.239370582162792
20
5.99545248474797
30
0
41
1
10
-0.238765877352591
20
5.99605109948618
30
0
0
SPLINE
5
1E2
100
AcDbEntity
8
SK1
62
256
6
ByLayer
370
18
48
1
60
0
100
AcDbSpline
70
4
71
3
72
8
73
4
40
0
40
0
40
0
40
0
40
1
40
1
40
1
40
1
41
1
10
0
20
-6.23097929041342
30
0
41
1
10
-0.0797852962249408
20
-6.15293718980229
30
0
41
1
10
-0.159381307385502
20
-6.07463617565884
30
0
41
1
10
-0.238765877365267
20
-5.99605109952111
30
0
0
SPLINE
5
1E3
100
AcDbEntity
8
SK1
62
256
6
ByLayer
370
18
48
1
60
0
100
AcDbSpline
70
4
71
3
72
20
73
16
40
0
40
0
40
0
40
0
40
0.137921400070282
40
0.137921400070282
40
0.235836963560455
40
0.235836963560455
40
0.334552114107333
40
0.334552114107333
40
0.424407727099833
40
0.424407727099833
40
0.578099622764308
40
0.578099622764308
40
0.873815550805934
40
0.873815550805934
40
1
40
1
40
1
40
1
41
1
10
-0.238765877365267
20
-5.99605109952111
30
0
41
1
10
-0.243677414243166
20
-5.99118902746352
30
0
41
1
10
-0.248892622815788
20
-5.98681268459779
30
0
41
1
10
-0.257906474560798
20
-5.98141021194542
30
0
41
1
10
-0.261754067843867
20
-5.97976375138757
30
0
41
1
10
-0.269058185841516
20
-5.9783098270895
30
0
41
1
10
-0.27259862822666
20
-5.97851856163166
30
0
41
1
10
-0.27850492948312
20
-5.98060936605074
30
0
41
1
10
-0.281020959805176
20
-5.98234184140836
30
0
41
1
10
-0.286836328686718
20
-5.98828347828291
30
0
41
1
10
-0.289574712930801
20
-5.99342361840962
30
0
41
1
10
-0.295631057684318
20
-6.00986238258204
30
0
41
1
10
-0.297443395295431
20
-6.02275721056145
30
0
41
1
10
-0.298611388991844
20
-6.04167041093768
30
0
41
1
10
-0.29876587736527
20
-6.04747194175164
30
0
41
1
10
-0.29876587736527
20
-6.05334533602297
30
0
0
SPLINE
5
1E4
100
AcDbEntity
8
SK1
62
256
6
ByLayer
370
18
48
1
60
0
100
AcDbSpline
70
4
71
3
72
8
73
4
40
0
40
0
40
0
40
0
40
1
40
1
40
1
40
1
41
1
10
0
20
7.1641540266497
30
0
41
1
10
-0.0821982891991411
20
6.96173939342538
30
0
41
1
10
-0.161864666216957
20
6.75792418630598
30
0
41
1
10
-0.238765877365267
20
6.55275263116678
30
0
0
SPLINE
5
1E5
100
AcDbEntity
8
SK1
62
256
6
ByLayer
370
18
48
1
60
0
100
AcDbSpline
70
4
71
3
72
10
73
6
40
0
40
0
40
0
40
0
40
0.819455868218799
40
0.819455868218799
40
1
40
1
40
1
40
1
41
1
10
-0.238765877365267
20
6.55275263116675
30
0
41
1
10
-0.266587606639973
20
6.47852457445978
30
0
41
1
10
-0.287582546423039
20
6.40182222649028
30
0
41
1
10
-0.297630166436761
20
6.31387340961507
30
0
41
1
10
-0.29876587736527
20
6.29797221549205
30
0
41
1
10
-0.29876587736527
20
6.28267507326143
30
0
0
SPLINE
5
1E6
100
AcDbEntity
8
SK1
62
256
6
ByLayer
370
18
48
1
60
0
100
AcDbSpline
70
4
71
3
72
8
73
4
40
0
40
0
40
0
40
0
40
1
40
1
40
1
40
1
41
1
10
-0.238765877365267
20
-6.55275263116678
30
0
41
1
10
-0.161864666216957
20
-6.75792418630598
30
0
41
1
10
-0.0821982891991411
20
-6.96173939342538
30
0
41
1
10
0
20
-7.1641540266497
30
0
0
SPLINE
5
1E7
100
AcDbEntity
8
SK1
62
256
6
ByLayer
370
18
48
1
60
0
100
AcDbSpline
70
4
71
3
72
10
73
6
40
0
40
0
40
0
40
0
40
0.530419996739525
40
0.530419996739525
40
1
40
1
40
1
40
1
41
1
10
-0.29876587736527
20
-6.2826750732815
30
0
41
1
10
-0.298765877362314
20
-6.32700950790598
30
0
41
1
10
-0.290209982182716
20
-6.37573892310346
30
0
41
1
10
-0.268219532290971
20
-6.46660789749893
30
0
41
1
10
-0.25481659894939
20
-6.50992948886065
30
0
41
1
10
-0.238765877365267
20
-6.55275263116675
30
0
0
SPLINE
5
1E8
100
AcDbEntity
8
SK1
62
256
6
ByLayer
370
18
48
1
60
0
100
AcDbSpline
70
4
71
3
72
24
73
20
40
0
40
0
40
0
40
0
40
0.479739039533208
40
0.479739039533208
40
0.723737062044239
40
0.723737062044239
40
0.764376308814104
40
0.764376308814104
40
0.80564661597954
40
0.80564661597954
40
0.834501279781492
40
0.834501279781492
40
0.863334099810595
40
0.863334099810595
40
0.90465485255856
40
0.90465485255856
40
0.982024721761035
40
0.982024721761035
40
1
40
1
40
1
40
1
41
1
10
-0.29876587736527
20
-3.14701068272044
30
0
41
1
10
-0.298765877365042
20
-3.10821797927031
30
0
41
1
10
-0.297693326598448
20
-3.06937700377099
30
0
41
1
10
-0.290273440450051
20
-3.01356780666677
30
0
41
1
10
-0.287129412531044
20
-2.99425411358234
30
0
41
1
10
-0.278263063775171
20
-2.97683901158274
30
0
41
1
10
-0.276801392134587
20
-2.97445264062415
30
0
41
1
10
-0.273410374353887
20
-2.97037971092669
30
0
41
1
10
-0.271424858060868
20
-2.96866530566342
30
0
41
1
10
-0.267645721871531
20
-2.96702024202355
30
0
41
1
10
-0.26593552364551
20
-2.96670953496113
30
0
41
1
10
-0.262474891376485
20
-2.96696639244001
30
0
41
1
10
-0.260686982208199
20
-2.96753276948951
30
0
41
1
10
-0.256525856462758
20
-2.96968656220989
30
0
41
1
10
-0.254161631987358
20
-2.97161482624802
30
0
41
1
10
-0.247908877898794
20
-2.97793518037429
30
0
41
1
10
-0.244301250766569
20
-2.9830844384515
30
0
41
1
10
-0.24025416758758
20
-2.98968703294486
30
0
41
1
10
-0.239502827138551
20
-2.9909571075039
30
0
41
1
10
-0.238765877367712
20
-2.99224124143902
30
0
0
SPLINE
5
1E9
100
AcDbEntity
8
SK1
62
256
6
ByLayer
370
18
48
1
60
0
100
AcDbSpline
70
4
71
3
72
8
73
4
40
0
40
0
40
0
40
0
40
1
40
1
40
1
40
1
41
1
10
-0.238765877367655
20
-2.99224124143913
30
0
41
1
10
-0.161799340834705
20
-3.12635532267419
30
0
41
1
10
-0.0820185112571039
20
-3.2583542629439
30
0
41
1
10
-3.979E-13
20
-3.38841451383433
30
0
0
SPLINE
5
1EA
100
AcDbEntity
8
SK1
62
256
6
ByLayer
370
18
48
1
60
0
100
AcDbSpline
70
4
71
3
72
8
73
4
40
0
40
0
40
0
40
0
40
1
40
1
40
1
40
1
41
1
10
9.6065E-12
20
3.38841451385025
30
0
41
1
10
-0.0820185112497143
20
3.258354262956
30
0
41
1
10
-0.16179934082993
20
3.12635532268234
30
0
41
1
10
-0.238765877365324
20
2.99224124144325
30
0
0
SPLINE
5
1EB
100
AcDbEntity
8
SK1
62
256
6
ByLayer
370
18
48
1
60
0
100
AcDbSpline
70
4
71
3
72
8
73
4
40
0
40
0
40
0
40
0
40
1
40
1
40
1
40
1
41
1
10
0
20
-5.05409268984661
30
0
41
1
10
-0.0868041138065223
20
-4.73869872463547
30
0
41
1
10
-0.166625773327553
20
-4.42061055319698
30
0
41
1
10
-0.238765877365495
20
-4.10032781449706
30
0
0
SPLINE
5
1EC
100
AcDbEntity
8
SK1
62
256
6
ByLayer
370
18
48
1
60
0
100
AcDbSpline
70
4
71
3
72
10
73
6
40
0
40
0
40
0
40
0
40
0.518916447624163
40
0.518916447624163
40
1
40
1
40
1
40
1
41
1
10
-0.238765877365267
20
-4.10032781449698
30
0
41
1
10
-0.257531566578905
20
-4.01701318090892
30
0
41
1
10
-0.271987947971809
20
-3.93308169944626
30
0
41
1
10
-0.292130917382622
20
-3.77176695180694
30
0
41
1
10
-0.29876587736527
20
-3.69371940226705
30
0
41
1
10
-0.29876587736527
20
-3.61750184466015
30
0
0
SPLINE
5
1ED
100
AcDbEntity
8
SK1
62
256
6
ByLayer
370
18
48
1
60
0
100
AcDbSpline
70
4
71
3
72
10
73
6
40
0
40
0
40
0
40
0
40
0.481083552375838
40
0.481083552375838
40
1
40
1
40
1
40
1
41
1
10
-0.29876587736527
20
3.61750184466015
30
0
41
1
10
-0.29876587736527
20
3.69371940226705
30
0
41
1
10
-0.292130917382622
20
3.77176695180694
30
0
41
1
10
-0.271987947971809
20
3.93308169944626
30
0
41
1
10
-0.257531566578905
20
4.01701318090892
30
0
41
1
10
-0.238765877365267
20
4.10032781449698
30
0
0
SPLINE
5
1EE
100
AcDbEntity
8
SK1
62
256
6
ByLayer
370
18
48
1
60
0
100
AcDbSpline
70
4
71
3
72
24
73
20
40
0
40
0
40
0
40
0
40
0.0832000397086008
40
0.0832000397086008
40
0.122087539725297
40
0.122087539725297
40
0.1552386845278
40
0.1552386845278
40
0.188798997941688
40
0.188798997941688
40
0.217237575740967
40
0.217237575740967
40
0.268128981657875
40
0.268128981657875
40
0.403293075744324
40
0.403293075744324
40
0.918571691058269
40
0.918571691058269
40
1
40
1
40
1
40
1
41
1
10
-0.238765877365267
20
2.99224124144322
30
0
41
1
10
-0.242146788682021
20
2.98635000824751
30
0
41
1
10
-0.24584804975899
20
2.98064306655442
30
0
41
1
10
-0.252027155238466
20
2.97365129659056
30
0
41
1
10
-0.254141759385107
20
2.97161274048884
30
0
41
1
10
-0.258256997942567
20
2.96867919350305
30
0
41
1
10
-0.260269750215002
20
2.96764656465933
30
0
41
1
10
-0.264275347577438
20
2.96665412864263
30
0
41
1
10
-0.266321163784312
20
2.96671271228837
30
0
41
1
10
-0.269760042284929
20
2.96781969976831
30
0
41
1
10
-0.271246670612584
20
2.96871400675425
30
0
41
1
10
-0.274971164976137
20
2.97186653350602
30
0
41
1
10
-0.276968524148287
20
2.97466198029585
30
0
41
1
10
-0.283145482672012
20
2.98574307193232
30
0
41
1
10
-0.285940011027321
20
2.9956772992598
30
0
41
1
10
-0.296640081252008
20
3.04364744914943
30
0
41
1
10
-0.298070396750291
20
3.08575482779807
30
0
41
1
10
-0.298723871153527
20
3.13381259169321
30
0
41
1
10
-0.29876587736527
20
3.14040695431842
30
0
41
1
10
-0.29876587736527
20
3.14701068272913
30
0
0
SPLINE
5
1EF
100
AcDbEntity
8
SK1
62
256
6
ByLayer
370
18
48
1
60
0
100
AcDbSpline
70
4
71
3
72
8
73
4
40
0
40
0
40
0
40
0
40
1
40
1
40
1
40
1
41
1
10
-0.238765877365495
20
4.10032781449706
30
0
41
1
10
-0.166625773327553
20
4.42061055319698
30
0
41
1
10
-0.0868041138065223
20
4.73869872463547
30
0
41
1
10
0
20
5.05409268984661
30
0
0
SPLINE
5
1F0
100
AcDbEntity
8
SK1
62
256
6
ByLayer
370
18
48
1
60
0
100
AcDbSpline
70
4
71
3
72
16
73
12
40
0
40
0
40
0
40
0
40
0.210039912343659
40
0.210039912343659
40
0.422600373214431
40
0.422600373214431
40
0.625709443860493
40
0.625709443860493
40
0.912004007388696
40
0.912004007388696
40
1
40
1
40
1
40
1
41
1
10
-0.29876587736527
20
-11.1114606311097
30
0
41
1
10
-0.298765877363849
20
-11.1084130121671
30
0
41
1
10
-0.297746293283467
20
-11.1062733994636
30
0
41
1
10
-0.293484377719835
20
-11.1044554474082
30
0
41
1
10
-0.290149978961608
20
-11.1047962449267
30
0
41
1
10
-0.281919625731803
20
-11.1078100000203
30
0
41
1
10
-0.277015883809611
20
-11.1103984677619
30
0
41
1
10
-0.264189867832783
20
-11.1184878603832
30
0
41
1
10
-0.255663847027563
20
-11.1248436274716
30
0
41
1
10
-0.244257279562191
20
-11.1341627417141
30
0
41
1
10
-0.241520089959181
20
-11.136456666478
30
0
41
1
10
-0.238765877365267
20
-11.1388165661098
30
0
0
SPLINE
5
1F1
100
AcDbEntity
8
SK1
62
256
6
ByLayer
370
18
48
1
60
0
100
AcDbSpline
70
4
71
3
72
8
73
4
40
0
40
0
40
0
40
0
40
1
40
1
40
1
40
1
41
1
10
0
20
-11.5480021180099
30
0
41
1
10
-0.0798848200118982
20
-11.4509241806265
30
0
41
1
10
-0.159479868968901
20
-11.3535270823981
30
0
41
1
10
-0.238765877365267
20
-11.2557967883171
30
0
0
SPLINE
5
1F2
100
AcDbEntity
8
SK1
62
256
6
ByLayer
370
18
48
1
60
0
100
AcDbSpline
70
4
71
3
72
12
73
8
40
0
40
0
40
0
40
0
40
0.484332075892093
40
0.484332075892093
40
0.759599113932283
40
0.759599113932283
40
1
40
1
40
1
40
1
41
1
10
-0.238765877365267
20
-11.2557967883171
30
0
41
1
10
-0.253947320922464
20
-11.2370836890777
30
0
41
1
10
-0.267914047667603
20
-11.2184369514559
30
0
41
1
10
-0.284918456751655
20
-11.1923133728769
30
0
41
1
10
-0.290177835347833
20
-11.1832967108164
30
0
41
1
10
-0.296877828596564
20
-11.1689238453736
30
0
41
1
10
-0.29876587736527
20
-11.1631048086578
30
0
41
1
10
-0.29876587736527
20
-11.1590966693763
30
0
0
SPLINE
5
1F3
100
AcDbEntity
8
SK1
62
256
6
ByLayer
370
18
48
1
60
0
100
AcDbSpline
70
4
71
3
72
8
73
4
40
0
40
0
40
0
40
0
40
1
40
1
40
1
40
1
41
1
10
-0.238765877365267
20
-11.1388165661098
30
0
41
1
10
-0.159200675789634
20
-11.2069906389168
30
0
41
1
10
-0.079611629094245
20
-11.2751276199598
30
0
41
1
10
0
20
-11.3432293866236
30
0
0
SPLINE
5
1F4
100
AcDbEntity
8
SK1
62
256
6
ByLayer
370
18
48
1
60
0
100
AcDbSpline
70
4
71
3
72
8
73
4
40
0
40
0
40
0
40
0
40
1
40
1
40
1
40
1
41
1
10
0
20
9.67019146230109
30
0
41
1
10
-0.080478593082205
20
9.53538232680586
30
0
41
1
10
-0.160090205844085
20
9.39987687468368
30
0
41
1
10
-0.238765877365267
20
9.26365612288765
30
0
0
SPLINE
5
1F5
100
AcDbEntity
8
SK1
62
256
6
ByLayer
370
18
48
1
60
0
100
AcDbSpline
70
4
71
3
72
10
73
6
40
0
40
0
40
0
40
0
40
0.596087017044984
40
0.596087017044984
40
1
40
1
40
1
40
1
41
1
10
-0.238765877365267
20
9.26365612288765
30
0
41
1
10
-0.258177986783494
20
9.23004557863979
30
0
41
1
10
-0.274733722240171
20
9.19569141208962
30
0
41
1
10
-0.293406206355655
20
9.14199387211551
30
0
41
1
10
-0.29876587736527
20
9.1205304502254
30
0
41
1
10
-0.29876587736527
20
9.10320707422949
30
0
0
SPLINE
5
1F6
100
AcDbEntity
8
SK1
62
256
6
ByLayer
370
18
48
1
60
0
100
AcDbSpline
70
4
71
3
72
8
73
4
40
0
40
0
40
0
40
0
40
1
40
1
40
1
40
1
41
1
10
-0.238765877365267
20
10.6159838617232
30
0
41
1
10
-0.159185900775299
20
10.6821188157543
30
0
41
1
10
-0.0795971164004641
20
10.748239640664
30
0
41
1
10
0
20
10.8143470869748
30
0
0
SPLINE
5
1F7
100
AcDbEntity
8
SK1
62
256
6
ByLayer
370
18
48
1
60
0
100
AcDbSpline
70
4
71
3
72
16
73
12
40
0
40
0
40
0
40
0
40
0.2096782408889
40
0.2096782408889
40
0.422880221604212
40
0.422880221604212
40
0.619995482772675
40
0.619995482772675
40
0.869457005193572
40
0.869457005193572
40
1
40
1
40
1
40
1
41
1
10
-0.29876587736527
20
10.5995397936377
30
0
41
1
10
-0.29876587736527
20
10.5955120372414
30
0
41
1
10
-0.29785402330657
20
10.5922399845028
30
0
41
1
10
-0.293849319830144
20
10.58807856899
30
0
41
1
10
-0.290643767309575
20
10.5872022240513
30
0
41
1
10
-0.282622200099581
20
10.5882078098061
30
0
41
1
10
-0.277855489883962
20
10.5898910548946
30
0
41
1
10
-0.266055538090029
20
10.5958109717812
30
0
41
1
10
-0.258592672110865
20
10.6006630651702
30
0
41
1
10
-0.246975821648618
20
10.6093199070543
30
0
41
1
10
-0.242879346175925
20
10.6125653627193
30
0
41
1
10
-0.238765877365267
20
10.6159838617232
30
0
0
SPLINE
5
1F8
100
AcDbEntity
8
SK1
62
256
6
ByLayer
370
18
48
1
60
0
100
AcDbSpline
70
4
71
3
72
8
73
4
40
0
40
0
40
0
40
0
40
1
40
1
40
1
40
1
41
1
10
0
20
11.0995541765226
30
0
41
1
10
-0.080005291008888
20
10.9931998426727
30
0
41
1
10
-0.159603446789845
20
10.8864351048867
30
0
41
1
10
-0.238765877365267
20
10.7792431311741
30
0
0
SPLINE
5
1F9
100
AcDbEntity
8
SK1
62
256
6
ByLayer
370
18
48
1
60
0
100
AcDbSpline
70
4
71
3
72
12
73
8
40
0
40
0
40
0
40
0
40
0.52543165796393
40
0.52543165796393
40
0.815757207557959
40
0.815757207557959
40
1
40
1
40
1
40
1
41
1
10
-0.238765877365267
20
10.7792431311741
30
0
41
1
10
-0.255379109730029
20
10.7567475464128
30
0
41
1
10
-0.27034588896646
20
10.7340820414756
30
0
41
1
10
-0.287573524473885
20
10.7022379463445
30
0
41
1
10
-0.292629687149542
20
10.6913138956421
30
0
41
1
10
-0.297621894307213
20
10.6759163113556
30
0
41
1
10
-0.29876587736527
20
10.6704607773984
30
0
41
1
10
-0.29876587736527
20
10.6660560656891
30
0
0
SPLINE
5
1FA
100
AcDbEntity
8
SK1
62
256
6
ByLayer
370
18
48
1
60
0
100
AcDbSpline
70
4
71
3
72
12
73
8
40
0
40
0
40
0
40
0
40
0.253957747132074
40
0.253957747132074
40
0.582089054619914
40
0.582089054619914
40
1
40
1
40
1
40
1
41
1
10
-0.29876587736527
20
11.1590966693763
30
0
41
1
10
-0.29876587736527
20
11.1633235063877
30
0
41
1
10
-0.296663419365984
20
11.1695667994603
30
0
41
1
10
-0.288791107664849
20
11.1859990663606
30
0
41
1
10
-0.282045506154418
20
11.1970807629067
30
0
41
1
10
-0.264101945293135
20
11.2234935642837
30
0
41
1
10
-0.251913376698269
20
11.2395907892735
30
0
41
1
10
-0.238765877365267
20
11.2557967883171
30
0
0
SPLINE
5
1FB
100
AcDbEntity
8
SK1
62
256
6
ByLayer
370
18
48
1
60
0
100
AcDbSpline
70
4
71
3
72
8
73
4
40
0
40
0
40
0
40
0
40
1
40
1
40
1
40
1
41
1
10
0
20
11.3432293866236
30
0
41
1
10
-0.079611629094245
20
11.2751276199598
30
0
41
1
10
-0.159200675789634
20
11.2069906389168
30
0
41
1
10
-0.238765877365267
20
11.1388165661098
30
0
0
SPLINE
5
1FC
100
AcDbEntity
8
SK1
62
256
6
ByLayer
370
18
48
1
60
0
100
AcDbSpline
70
4
71
3
72
16
73
12
40
0
40
0
40
0
40
0
40
0.292491579582493
40
0.292491579582493
40
0.527631995282123
40
0.527631995282123
40
0.765166109719466
40
0.765166109719466
40
0.97059714519833
40
0.97059714519833
40
1
40
1
40
1
40
1
41
1
10
-0.238765877365267
20
11.1388165661098
30
0
41
1
10
-0.247837214062542
20
11.1310439474749
30
0
41
1
10
-0.256829760825156
20
11.1239037323205
30
0
41
1
10
-0.271558256549156
20
11.1136371742293
30
0
41
1
10
-0.277718386787626
20
11.1099214964727
30
0
41
1
10
-0.287948077838735
20
11.1053063028291
30
0
41
1
10
-0.292121988616714
20
11.1044002778149
30
0
41
1
10
-0.297140012927798
20
11.1056941402468
30
0
41
1
10
-0.298428795335383
20
11.1074954259507
30
0
41
1
10
-0.298746081603156
20
11.1106138309926
30
0
41
1
10
-0.298765877368964
20
11.1110280281527
30
0
41
1
10
-0.298765877368908
20
11.1114606311129
30
0
0
SPLINE
5
1FD
100
AcDbEntity
8
SK1
62
256
6
ByLayer
370
18
48
1
60
0
100
AcDbSpline
70
4
71
3
72
8
73
4
40
0
40
0
40
0
40
0
40
1
40
1
40
1
40
1
41
1
10
-0.238765877365267
20
11.2557967883171
30
0
41
1
10
-0.159479868968901
20
11.3535270823981
30
0
41
1
10
-0.0798848200118982
20
11.4509241806265
30
0
41
1
10
0
20
11.5480021180099
30
0
0
SPLINE
5
1FE
100
AcDbEntity
8
SK1
62
256
6
ByLayer
370
18
48
1
60
0
100
AcDbSpline
70
4
71
3
72
8
73
4
40
0
40
0
40
0
40
0
40
1
40
1
40
1
40
1
41
1
10
0
20
-8.60124135910399
30
0
41
1
10
-0.0810089209749663
20
-8.44188252382057
30
0
41
1
10
-0.1606368346728
20
-8.28157539894053
30
0
41
1
10
-0.238765877365267
20
-8.12031070244166
30
0
0
SPLINE
5
1FF
100
AcDbEntity
8
SK1
62
256
6
ByLayer
370
18
48
1
60
0
100
AcDbSpline
70
4
71
3
72
10
73
6
40
0
40
0
40
0
40
0
40
0.699816394681512
40
0.699816394681512
40
1
40
1
40
1
40
1
41
1
10
-0.238765877365267
20
-8.12031070244166
30
0
41
1
10
-0.261922899786043
20
-8.07251272535385
30
0
41
1
10
-0.280673182390842
20
-8.02326065273672
30
0
41
1
10
-0.295715024309288
20
-7.95753447596658
30
0
41
1
10
-0.29876587736527
20
-7.93793733713127
30
0
41
1
10
-0.29876587736527
20
-7.92039724737597
30
0
0
SPLINE
5
200
100
AcDbEntity
8
SK1
62
256
6
ByLayer
370
18
48
1
60
0
100
AcDbSpline
70
4
71
3
72
8
73
4
40
0
40
0
40
0
40
0
40
1
40
1
40
1
40
1
41
1
10
-0.238765877365836
20
-7.73477536384448
30
0
41
1
10
-0.159214054156507
20
-7.80324593337218
30
0
41
1
10
-0.0796244802622823
20
-7.87165805586315
30
0
41
1
10
0
20
-7.94001592678256
30
0
0
SPLINE
5
201
100
AcDbEntity
8
SK1
62
256
6
ByLayer
370
18
48
1
60
0
100
AcDbSpline
70
4
71
3
72
8
73
4
40
0
40
0
40
0
40
0
40
1
40
1
40
1
40
1
41
1
10
-0.238765877365267
20
8.12031070244166
30
0
41
1
10
-0.1606368346728
20
8.28157539894053
30
0
41
1
10
-0.0810089209749663
20
8.44188252382057
30
0
41
1
10
0
20
8.60124135910399
30
0
0
SPLINE
5
202
100
AcDbEntity
8
SK1
62
256
6
ByLayer
370
18
48
1
60
0
100
AcDbSpline
70
4
71
3
72
18
73
14
40
0
40
0
40
0
40
0
40
0.279852181771266
40
0.279852181771266
40
0.456091821257823
40
0.456091821257823
40
0.596962647585721
40
0.596962647585721
40
0.738728013184086
40
0.738728013184086
40
0.869502521540462
40
0.869502521540462
40
1
40
1
40
1
40
1
41
1
10
-0.29876587736527
20
-7.76255777929552
30
0
41
1
10
-0.298765877364474
20
-7.75245201903687
30
0
41
1
10
-0.297804401212886
20
-7.74281601282661
30
0
41
1
10
-0.293524517674939
20
-7.72973859458529
30
0
41
1
10
-0.291153261717511
20
-7.72525890156399
30
0
41
1
10
-0.285267993870264
20
-7.71944942576491
30
0
41
1
10
-0.282003561316173
20
-7.71764254724292
30
0
41
1
10
-0.274425880391618
20
-7.71627318222053
30
0
41
1
10
-0.270002541715712
20
-7.71672439308088
30
0
41
1
10
-0.261125761033895
20
-7.71959297042625
30
0
41
1
10
-0.256609053618263
20
-7.721864336029
30
0
41
1
10
-0.24766221663856
20
-7.72754832307891
30
0
41
1
10
-0.243161121055039
20
-7.73099236018138
30
0
41
1
10
-0.238765877365836
20
-7.73477536384448
30
0
0
SPLINE
5
203
100
AcDbEntity
8
SK1
62
256
6
ByLayer
370
18
48
1
60
0
100
AcDbSpline
70
4
71
3
72
8
73
4
40
0
40
0
40
0
40
0
40
1
40
1
40
1
40
1
41
1
10
0
20
7.94001592678256
30
0
41
1
10
-0.0796244802621118
20
7.87165805586332
30
0
41
1
10
-0.159214054156166
20
7.80324593337252
30
0
41
1
10
-0.238765877365267
20
7.73477536384496
30
0
0
SPLINE
5
204
100
AcDbEntity
8
SK1
62
256
6
ByLayer
370
18
48
1
60
0
100
AcDbSpline
70
4
71
3
72
18
73
14
40
0
40
0
40
0
40
0
40
0.155962719707662
40
0.155962719707662
40
0.316191253865889
40
0.316191253865889
40
0.463249051640795
40
0.463249051640795
40
0.59433326381777
40
0.59433326381777
40
0.817301503146325
40
0.817301503146325
40
1
40
1
40
1
40
1
41
1
10
-0.238765877365267
20
7.73477536384496
30
0
41
1
10
-0.244000003617089
20
7.73027033063539
30
0
41
1
10
-0.249398953289358
20
7.72623582217693
30
0
41
1
10
-0.260148081082662
20
7.71996293203006
30
0
41
1
10
-0.265631979707962
20
7.71773050220111
30
0
41
1
10
-0.275094048606832
20
7.71624772580867
30
0
41
1
10
-0.27927304236556
20
7.71676691016663
30
0
41
1
10
-0.285796989435369
20
7.71983448026506
30
0
41
1
10
-0.288379389627266
20
7.72216561169233
30
0
41
1
10
-0.293940532646388
20
7.72993371369111
30
0
41
1
10
-0.296088840058417
20
7.73647927933084
30
0
41
1
10
-0.29834417407119
20
7.74951880175573
30
0
41
1
10
-0.29876587736527
20
7.75591705973869
30
0
41
1
10
-0.29876587736527
20
7.76255777930768
30
0
0
SPLINE
5
205
100
AcDbEntity
8
SK1
62
256
6
ByLayer
370
18
48
1
60
0
100
AcDbSpline
70
4
71
3
72
10
73
6
40
0
40
0
40
0
40
0
40
0.358354645666515
40
0.358354645666515
40
1
40
1
40
1
40
1
41
1
10
-0.29876587736527
20
7.92039724737597
30
0
41
1
10
-0.29876587736527
20
7.94125551722695
30
0
41
1
10
-0.294515007603536
20
7.9649635119265
30
0
41
1
10
-0.277470018670897
20
8.03140495798044
30
0
41
1
10
-0.260038212961945
20
8.07640287219567
30
0
41
1
10
-0.238765877365267
20
8.12031070244166
30
0
0
SPLINE
5
206
100
AcDbEntity
8
SK1
62
256
6
ByLayer
370
18
48
1
60
0
100
AcDbSpline
70
4
71
3
72
16
73
12
40
0
40
0
40
0
40
0
40
0.228549310179964
40
0.228549310179964
40
0.462777162604809
40
0.462777162604809
40
0.664452649220864
40
0.664452649220864
40
0.844763102553302
40
0.844763102553302
40
1
40
1
40
1
40
1
41
1
10
-0.238765877365267
20
9.90959092048166
30
0
41
1
10
-0.246008246130771
20
9.90367054938056
30
0
41
1
10
-0.253321397934656
20
9.89835531107175
30
0
41
1
10
-0.267244857910612
20
9.89010267447617
30
0
41
1
10
-0.274027522908966
20
9.88714943684971
30
0
41
1
10
-0.284502863770968
20
9.88518313170721
30
0
41
1
10
-0.288620246190476
20
9.88567189364898
30
0
41
1
10
-0.294323386407029
20
9.88904418677447
30
0
41
1
10
-0.296214446551914
20
9.8916848989353
30
0
41
1
10
-0.298326684128824
20
9.89789820701844
30
0
41
1
10
-0.29876587736527
20
9.901326026715
30
0
41
1
10
-0.29876587736527
20
9.90509617908728
30
0
0
SPLINE
5
207
100
AcDbEntity
8
SK1
62
256
6
ByLayer
370
18
48
1
60
0
100
AcDbSpline
70
4
71
3
72
12
73
8
40
0
40
0
40
0
40
0
40
0.334159016265323
40
0.334159016265323
40
0.785142639537227
40
0.785142639537227
40
1
40
1
40
1
40
1
41
1
10
-0.29876587736527
20
9.99395144656819
30
0
41
1
10
-0.29876587736527
20
10.0046742975357
30
0
41
1
10
-0.295057916091821
20
10.0185740298973
30
0
41
1
10
-0.282130682144668
20
10.05271997426
30
0
41
1
10
-0.271156331256407
20
10.074343234747
30
0
41
1
10
-0.252315399761414
20
10.106434498115
30
0
41
1
10
-0.245726673726779
20
10.1169693580449
30
0
41
1
10
-0.238765877365267
20
10.1274974017296
30
0
0
SPLINE
5
208
100
AcDbEntity
8
SK1
62
256
6
ByLayer
370
18
48
1
60
0
100
AcDbSpline
70
4
71
3
72
8
73
4
40
0
40
0
40
0
40
0
40
1
40
1
40
1
40
1
41
1
10
-0.238765877365267
20
10.1274974017296
30
0
41
1
10
-0.159789338391761
20
10.2469475923676
30
0
41
1
10
-0.0801862240620608
20
10.3658484917975
30
0
41
1
10
0
20
10.4842192326163
30
0
0
SPLINE
5
209
100
AcDbEntity
8
SK1
62
256
6
ByLayer
370
18
48
1
60
0
100
AcDbSpline
70
4
71
3
72
8
73
4
40
0
40
0
40
0
40
0
40
1
40
1
40
1
40
1
41
1
10
-1.137E-13
20
10.1047688205899
30
0
41
1
10
-0.0795892207058841
20
10.0397104909339
30
0
41
1
10
-0.159177858211592
20
9.9746512099878
30
0
41
1
10
-0.238765877365267
20
9.90959092048166
30
0
0
SPLINE
5
20A
100
AcDbEntity
8
SK1
62
256
6
ByLayer
370
18
48
1
60
0
100
AcDbSpline
70
4
71
3
72
12
73
8
40
0
40
0
40
0
40
0
40
0.269166044883486
40
0.269166044883486
40
0.64099078507109
40
0.64099078507109
40
1
40
1
40
1
40
1
41
1
10
-0.29876587736527
20
-10.6660560656997
30
0
41
1
10
-0.298765877362655
20
-10.67243759811
30
0
41
1
10
-0.296360985000433
20
-10.6810273129822
30
0
41
1
10
-0.287309657354115
20
-10.7033515105428
30
0
41
1
10
-0.27927917237156
20
-10.7182345266058
30
0
41
1
10
-0.260787526217712
20
-10.7482809922032
30
0
41
1
10
-0.250205346169082
20
-10.7637532172037
30
0
41
1
10
-0.238765877365267
20
-10.7792431311741
30
0
0
SPLINE
5
20B
100
AcDbEntity
8
SK1
62
256
6
ByLayer
370
18
48
1
60
0
100
AcDbSpline
70
4
71
3
72
8
73
4
40
0
40
0
40
0
40
0
40
1
40
1
40
1
40
1
41
1
10
-0.238765877365267
20
-10.7792431311741
30
0
41
1
10
-0.159603446789845
20
-10.8864351048867
30
0
41
1
10
-0.080005291008888
20
-10.9931998426727
30
0
41
1
10
0
20
-11.0995541765226
30
0
0
SPLINE
5
20C
100
AcDbEntity
8
SK1
62
256
6
ByLayer
370
18
48
1
60
0
100
AcDbSpline
70
4
71
3
72
8
73
4
40
0
40
0
40
0
40
0
40
1
40
1
40
1
40
1
41
1
10
0
20
-10.8143470869748
30
0
41
1
10
-0.0795971164004641
20
-10.748239640664
30
0
41
1
10
-0.159185900775299
20
-10.6821188157543
30
0
41
1
10
-0.238765877365267
20
-10.6159838617232
30
0
0
SPLINE
5
20D
100
AcDbEntity
8
SK1
62
256
6
ByLayer
370
18
48
1
60
0
100
AcDbSpline
70
4
71
3
72
16
73
12
40
0
40
0
40
0
40
0
40
0.261334481281272
40
0.261334481281272
40
0.480926293513676
40
0.480926293513676
40
0.702467905700653
40
0.702467905700653
40
0.897306639604516
40
0.897306639604516
40
1
40
1
40
1
40
1
41
1
10
-0.238765877365267
20
-10.6159838617232
30
0
41
1
10
-0.246933690800006
20
-10.6091959988815
30
0
41
1
10
-0.255105225208354
20
-10.6030392244446
30
0
41
1
10
-0.269018448199176
20
-10.5941866909431
30
0
41
1
10
-0.275067758048976
20
-10.5910318483189
30
0
41
1
10
-0.285353755871881
20
-10.5874900519906
30
0
41
1
10
-0.289701245004608
20
-10.5871056806544
30
0
41
1
10
-0.295447130297077
20
-10.5891482342205
30
0
41
1
10
-0.297219003298949
20
-10.5912502493987
30
0
41
1
10
-0.298548138973672
20
-10.5957450822788
30
0
41
1
10
-0.29876587736527
20
-10.5975482439017
30
0
41
1
10
-0.29876587736527
20
-10.5995397936377
30
0
0
SPLINE
5
20E
100
AcDbEntity
8
SK1
62
256
6
ByLayer
370
18
48
1
60
0
100
AcDbSpline
70
4
71
3
72
14
73
10
40
0
40
0
40
0
40
0
40
0.212950562836663
40
0.212950562836663
40
0.427428050810884
40
0.427428050810884
40
0.640050359310837
40
0.640050359310837
40
1
40
1
40
1
40
1
41
1
10
-0.29876587736527
20
11.4653334394072
30
0
41
1
10
-0.29876587736527
20
11.4632300242236
30
0
41
1
10
-0.297616838400643
20
11.4622038288371
30
0
41
1
10
-0.293036027323183
20
11.4626507621602
30
0
41
1
10
-0.289531278889285
20
11.4641459722421
30
0
41
1
10
-0.280923527143216
20
11.4691883037868
30
0
41
1
10
-0.275751144194487
20
11.4727574768906
30
0
41
1
10
-0.260733018879307
20
11.4840987776231
30
0
41
1
10
-0.249843150268532
20
11.4932597388786
30
0
41
1
10
-0.238765877365267
20
11.5031454669806
30
0
0
SPLINE
5
20F
100
AcDbEntity
8
SK1
62
256
6
ByLayer
370
18
48
1
60
0
100
AcDbSpline
70
4
71
3
72
14
73
10
40
0
40
0
40
0
40
0
40
0.398059746216925
40
0.398059746216925
40
0.693323693834734
40
0.693323693834734
40
0.922806602790955
40
0.922806602790955
40
1
40
1
40
1
40
1
41
1
10
-0.238765877365267
20
11.5788099647078
30
0
41
1
10
-0.251174659992955
20
11.564714644084
30
0
41
1
10
-0.262840240377841
20
11.5508559119363
30
0
41
1
10
-0.279922046802881
20
11.5290447140746
30
0
41
1
10
-0.28631138006665
20
11.5203057387915
30
0
41
1
10
-0.294552822892115
20
11.5073910162738
30
0
41
1
10
-0.297152754621379
20
11.502528709658
30
0
41
1
10
-0.298577488330693
20
11.4979555647174
30
0
41
1
10
-0.298765877365042
20
11.4969534311461
30
0
41
1
10
-0.29876587736527
20
11.4961352182629
30
0
0
SPLINE
5
210
100
AcDbEntity
8
SK1
62
256
6
ByLayer
370
18
48
1
60
0
100
AcDbSpline
70
4
71
3
72
8
73
4
40
0
40
0
40
0
40
0
40
1
40
1
40
1
40
1
41
1
10
-0.238765877365267
20
11.5031454669806
30
0
41
1
10
-0.159221330323135
20
11.5741336759854
30
0
41
1
10
-0.0796319116662971
20
11.64505489041
30
0
41
1
10
0
20
11.7159123809271
30
0
0
SPLINE
5
211
100
AcDbEntity
8
SK1
62
256
6
ByLayer
370
18
48
1
60
0
100
AcDbSpline
70
4
71
3
72
8
73
4
40
0
40
0
40
0
40
0
40
1
40
1
40
1
40
1
41
1
10
0
20
11.8485274577714
30
0
41
1
10
-0.079800450824564
20
11.7588723315613
30
0
41
1
10
-0.159393454826954
20
11.6689702792148
30
0
41
1
10
-0.238765877365267
20
11.5788099647078
30
0
0
SPLINE
5
212
100
AcDbEntity
8
SK1
62
256
6
ByLayer
370
18
48
1
60
0
100
AcDbSpline
70
4
71
3
72
8
73
4
40
0
40
0
40
0
40
0
40
1
40
1
40
1
40
1
41
1
10
0
20
-11.7159123809271
30
0
41
1
10
-0.0796319116662971
20
-11.64505489041
30
0
41
1
10
-0.159221330323135
20
-11.5741336759854
30
0
41
1
10
-0.238765877365267
20
-11.5031454669806
30
0
0
SPLINE
5
213
100
AcDbEntity
8
SK1
62
256
6
ByLayer
370
18
48
1
60
0
100
AcDbSpline
70
4
71
3
72
14
73
10
40
0
40
0
40
0
40
0
40
0.32298644366154
40
0.32298644366154
40
0.570965853456878
40
0.570965853456878
40
0.821832336393636
40
0.821832336393636
40
1
40
1
40
1
40
1
41
1
10
-0.238765877365267
20
-11.5031454669806
30
0
41
1
10
-0.248738130945071
20
-11.4942458950088
30
0
41
1
10
-0.258530665092337
20
-11.4859559893804
30
0
41
1
10
-0.273942062548599
20
-11.4740242858109
30
0
41
1
10
-0.28013509697189
20
-11.4696579187186
30
0
41
1
10
-0.290168207869556
20
-11.4637651762911
30
0
41
1
10
-0.29410283915422
20
-11.4622189878207
30
0
41
1
10
-0.297964519278139
20
-11.4625513755991
30
0
41
1
10
-0.298765877364133
20
-11.4635650918881
30
0
41
1
10
-0.29876587736527
20
-11.4653334394032
30
0
0
SPLINE
5
214
100
AcDbEntity
8
SK1
62
256
6
ByLayer
370
18
48
1
60
0
100
AcDbSpline
70
4
71
3
72
8
73
4
40
0
40
0
40
0
40
0
40
1
40
1
40
1
40
1
41
1
10
-0.238765877365267
20
-11.5788099647078
30
0
41
1
10
-0.159393454826954
20
-11.6689702792148
30
0
41
1
10
-0.079800450824564
20
-11.7588723315613
30
0
41
1
10
0
20
-11.8485274577714
30
0
0
SPLINE
5
215
100
AcDbEntity
8
SK1
62
256
6
ByLayer
370
18
48
1
60
0
100
AcDbSpline
70
4
71
3
72
14
73
10
40
0
40
0
40
0
40
0
40
0.242050302543071
40
0.242050302543071
40
0.536389825503336
40
0.536389825503336
40
0.949282256315957
40
0.949282256315957
40
1
40
1
40
1
40
1
41
1
10
-0.29876587736527
20
-11.4961352182612
30
0
41
1
10
-0.29876587736527
20
-11.498666489242
30
0
41
1
10
-0.296910420715108
20
-11.5030232937529
30
0
41
1
10
-0.289955941907579
20
-11.5149862169268
30
0
41
1
10
-0.284176055445983
20
-11.5232580950904
30
0
41
1
10
-0.26788309470976
20
-11.5447002958532
30
0
41
1
10
-0.256130001342797
20
-11.5588906375721
30
0
41
1
10
-0.24194932225754
20
-11.5751837517705
30
0
41
1
10
-0.240365079560149
20
-11.576993407165
30
0
41
1
10
-0.238765877365267
20
-11.5788099647078
30
0
0
SPLINE
5
216
100
AcDbEntity
8
SK1
62
256
6
ByLayer
370
18
48
1
60
0
100
AcDbSpline
70
4
71
3
72
8
73
4
40
0
40
0
40
0
40
0
40
1
40
1
40
1
40
1
41
1
10
-0.108253175473124
20
-11.8459209681665
30
0
41
1
10
-0.0721700933509624
20
-11.8822921799584
30
0
41
1
10
-0.036085689621018
20
-11.9186620806572
30
0
41
1
10
0
20
-11.9550307054211
30
0
0
SPLINE
5
217
100
AcDbEntity
8
SK1
62
256
6
ByLayer
370
18
48
1
60
0
100
AcDbSpline
70
4
71
3
72
8
73
4
40
0
40
0
40
0
40
0
40
1
40
1
40
1
40
1
41
1
10
-0.108253175473124
20
-11.8459209681665
30
0
41
1
10
-0.0721831347633497
20
-11.8796420447089
30
0
41
1
10
-0.0360986241494174
20
-11.9133424940816
30
0
41
1
10
0
20
-11.9470227637501
30
0
0
SPLINE
5
218
100
AcDbEntity
8
1
62
256
6
ByLayer
370
18
48
1
60
0
100
AcDbSpline
70
4
71
3
72
8
73
4
40
0
40
0
40
0
40
0
40
1
40
1
40
1
40
1
41
1
10
0.346265877365283
20
-11.9647342870706
30
0
41
1
10
0.230277541532871
20
-11.826454009731
30
0
41
1
10
0.114838291584874
20
-11.6875563471868
30
0
41
1
10
0
20
-11.5480021180099
30
0
0
SPLINE
5
219
100
AcDbEntity
8
1
62
256
6
ByLayer
370
18
48
1
60
0
100
AcDbSpline
70
4
71
3
72
8
73
4
40
0
40
0
40
0
40
0
40
1
40
1
40
1
40
1
41
1
10
0
20
-11.3432293866236
30
0
41
1
10
0.115375688133611
20
-11.4419246184803
30
0
41
1
10
0.230798820375014
20
-11.5405459370123
30
0
41
1
10
0.346265877365283
20
-11.6390985947187
30
0
0
SPLINE
5
21A
100
AcDbEntity
8
1
62
256
6
ByLayer
370
18
48
1
60
0
100
AcDbSpline
70
4
71
3
72
14
73
10
40
0
40
0
40
0
40
0
40
0.128269133935861
40
0.128269133935861
40
0.383992994218598
40
0.383992994218598
40
0.721946834801187
40
0.721946834801187
40
1
40
1
40
1
40
1
41
1
10
14.566939820584
20
-11.7726005459413
30
0
41
1
10
14.5613373619063
20
-11.7703764302095
30
0
41
1
10
14.5544701595999
20
-11.7679344589291
30
0
41
1
10
14.5313459334105
20
-11.760367215636
30
0
41
1
10
14.5121294482042
20
-11.7548414865596
30
0
41
1
10
14.4639067833973
20
-11.7423338215009
30
0
41
1
10
14.4328814841327
20
-11.7352236502508
30
0
41
1
10
14.374861303821
20
-11.7235043222887
30
0
41
1
10
14.347561599753
20
-11.7185597003503
30
0
41
1
10
14.3204361321599
20
-11.7142139850157
30
0
0
SPLINE
5
21B
100
AcDbEntity
8
1
62
256
6
ByLayer
370
18
48
1
60
0
100
AcDbSpline
70
4
71
3
72
22
73
18
40
0
40
0
40
0
40
0
40
0.347878771885175
40
0.347878771885175
40
0.504265863018444
40
0.504265863018444
40
0.662888634847354
40
0.662888634847354
40
0.739143923400673
40
0.739143923400673
40
0.816554116248827
40
0.816554116248827
40
0.883605498439367
40
0.883605498439367
40
0.946498597364854
40
0.946498597364854
40
1
40
1
40
1
40
1
41
1
10
0.346265877365283
20
9.26169711960412
30
0
41
1
10
0.366274728170595
20
9.29874992424587
30
0
41
1
10
0.383456169467706
20
9.33647187791232
30
0
41
1
10
0.401032009849246
20
9.38812676386112
30
0
41
1
10
0.405505721737598
20
9.40396107155431
30
0
41
1
10
0.411112145227037
20
9.43369559580424
30
0
41
1
10
0.412305279142686
20
9.44799507894703
30
0
41
1
10
0.409211398904347
20
9.46472902496856
30
0
41
1
10
0.407379241288879
20
9.46954009071652
30
0
41
1
10
0.401608330623162
20
9.47662233853595
30
0
41
1
10
0.397514162786933
20
9.47890660004865
30
0
41
1
10
0.388054262423168
20
9.47976443409331
30
0
41
1
10
0.382811073308062
20
9.47879812069075
30
0
41
1
10
0.372026875593406
20
9.474672866692
30
0
41
1
10
0.366413193063693
20
9.47163297005366
30
0
41
1
10
0.355977234112459
20
9.46479165097011
30
0
41
1
10
0.351096993348449
20
9.46113487300113
30
0
41
1
10
0.346265877365283
20
9.45716611180498
30
0
0
SPLINE
5
21C
100
AcDbEntity
8
1
62
256
6
ByLayer
370
18
48
1
60
0
100
AcDbSpline
70
4
71
3
72
22
73
18
40
0
40
0
40
0
40
0
40
0.50859174063716
40
0.50859174063716
40
0.647845461867348
40
0.647845461867348
40
0.788896273306471
40
0.788896273306471
40
0.846386804156537
40
0.846386804156537
40
0.882332196000897
40
0.882332196000897
40
0.918719530208233
40
0.918719530208233
40
0.950428846197531
40
0.950428846197531
40
1
40
1
40
1
40
1
41
1
10
0.346265877365283
20
6.1920204313958
30
0
41
1
10
0.373388420424646
20
6.27346829376182
30
0
41
1
10
0.394971184528174
20
6.35664104750251
30
0
41
1
10
0.408625851331067
20
6.45763251998042
30
0
41
1
10
0.410693645492358
20
6.47931010629293
30
0
41
1
10
0.411644943802173
20
6.5211304545538
30
0
41
1
10
0.41069000362296
20
6.54189457324304
30
0
41
1
10
0.403655776404833
20
6.56610129268435
30
0
41
1
10
0.400831866990586
20
6.5726185213137
30
0
41
1
10
0.394339150576741
20
6.58058665555734
30
0
41
1
10
0.391310697182973
20
6.58304786763239
30
0
41
1
10
0.38428147256144
20
6.58588133170812
30
0
41
1
10
0.38015839625757
20
6.58622995625581
30
0
41
1
10
0.372090265079009
20
6.58470056389604
30
0
41
1
10
0.368104510284752
20
6.58310502244856
30
0
41
1
10
0.358092830509463
20
6.57748204639393
30
0
41
1
10
0.351999194687323
20
6.57255446522788
30
0
41
1
10
0.346265877365283
20
6.56703185455439
30
0
0
SPLINE
5
21D
100
AcDbEntity
8
1
62
256
6
ByLayer
370
18
48
1
60
0
100
AcDbSpline
70
4
71
3
72
8
73
4
40
0
40
0
40
0
40
0
40
1
40
1
40
1
40
1
41
1
10
0
20
10.4842192326163
30
0
41
1
10
0.114269838928124
20
10.652904136356
30
0
41
1
10
0.229729664239528
20
10.8205218195503
30
0
41
1
10
0.346265877365283
20
10.987126560104
30
0
0
SPLINE
5
21E
100
AcDbEntity
8
1
62
256
6
ByLayer
370
18
48
1
60
0
100
AcDbSpline
70
4
71
3
72
8
73
4
40
0
40
0
40
0
40
0
40
1
40
1
40
1
40
1
41
1
10
13.7838445284806
20
-11.663154941409
30
0
41
1
10
13.7128556275018
20
-11.6187115052145
30
0
41
1
10
13.6418764338134
20
-11.5742526827725
30
0
41
1
10
13.5709072810309
20
-11.5297779687006
30
0
0
SPLINE
5
21F
100
AcDbEntity
8
1
62
256
6
ByLayer
370
18
48
1
60
0
100
AcDbSpline
70
4
71
3
72
8
73
4
40
0
40
0
40
0
40
0
40
1
40
1
40
1
40
1
41
1
10
0.346265877365283
20
-10.987126560104
30
0
41
1
10
0.229729664239528
20
-10.8205218195503
30
0
41
1
10
0.114269838928124
20
-10.652904136356
30
0
41
1
10
0
20
-10.4842192326163
30
0
0
SPLINE
5
220
100
AcDbEntity
8
1
62
256
6
ByLayer
370
18
48
1
60
0
100
AcDbSpline
70
4
71
3
72
22
73
18
40
0
40
0
40
0
40
0
40
0.0579606326123945
40
0.0579606326123945
40
0.11743246651474
40
0.11743246651474
40
0.172080770318652
40
0.172080770318652
40
0.220598143404019
40
0.220598143404019
40
0.302231310800994
40
0.302231310800994
40
0.448314356305543
40
0.448314356305543
40
0.747292843339461
40
0.747292843339461
40
1
40
1
40
1
40
1
41
1
10
0.346265877365283
20
8.23677419397316
30
0
41
1
10
0.352019173101098
20
8.24169670610792
30
0
41
1
10
0.357947364008623
20
8.24610240699562
30
0
41
1
10
0.36972017776867
20
8.2529455053141
30
0
41
1
10
0.37571043926647
20
8.25537996936694
30
0
41
1
10
0.386027517323043
20
8.25699584944564
30
0
41
1
10
0.390575063632582
20
8.25642441872694
30
0
41
1
10
0.397632369509552
20
8.2530492756301
30
0
41
1
10
0.400408629689252
20
8.25049190255419
30
0
41
1
10
0.406315233496571
20
8.24201972579004
30
0
41
1
10
0.408563769937984
20
8.23491945047897
30
0
41
1
10
0.412108036421842
20
8.21332516813919
30
0
41
1
10
0.411488905987085
20
8.19701959008833
30
0
41
1
10
0.405446007553678
20
8.14614702573405
30
0
41
1
10
0.39565344119643
20
8.1088736568162
30
0
41
1
10
0.37296577993385
20
8.04019375421305
30
0
41
1
10
0.360448762908277
20
8.0081557098064
30
0
41
1
10
0.346265877365283
20
7.97637607432429
30
0
0
SPLINE
5
221
100
AcDbEntity
8
1
62
256
6
ByLayer
370
18
48
1
60
0
100
AcDbSpline
70
4
71
3
72
8
73
4
40
0
40
0
40
0
40
0
40
1
40
1
40
1
40
1
41
1
10
0.346265877365283
20
11.5541511286625
30
0
41
1
10
0.230055585113348
20
11.4034243160505
30
0
41
1
10
0.114608295288519
20
11.2519077114624
30
0
41
1
10
0
20
11.0995541765226
30
0
0
SPLINE
5
222
100
AcDbEntity
8
1
62
256
6
ByLayer
370
18
48
1
60
0
100
AcDbSpline
70
4
71
3
72
22
73
18
40
0
40
0
40
0
40
0
40
0.311884300959237
40
0.311884300959237
40
0.465968148306108
40
0.465968148306108
40
0.589165383849381
40
0.589165383849381
40
0.680901708381323
40
0.680901708381323
40
0.773412121124607
40
0.773412121124607
40
0.856097586472542
40
0.856097586472542
40
0.969121184006609
40
0.969121184006609
40
1
40
1
40
1
40
1
41
1
10
0.346265877365283
20
10.987126560104
30
0
41
1
10
0.365019408399974
20
11.0139373435395
30
0
41
1
10
0.381793635901658
20
11.0410587782309
30
0
41
1
10
0.399968420371351
20
11.0777206053032
30
0
41
1
10
0.404942741917068
20
11.089462603473
30
0
41
1
10
0.410460359423951
20
11.1079756222918
30
0
41
1
10
0.41171815107316
20
11.1154260796129
30
0
41
1
10
0.410665704232201
20
11.1252907388565
30
0
41
1
10
0.409142432182591
20
11.1285670491561
30
0
41
1
10
0.403660684510669
20
11.1322193505593
30
0
41
1
10
0.399582097537689
20
11.1325928358937
30
0
41
1
10
0.390041844068889
20
11.1303972088145
30
0
41
1
10
0.384671726153442
20
11.12812744597
30
0
41
1
10
0.371096742201075
20
11.1206555724069
30
0
41
1
10
0.362374426103088
20
11.1146056412353
30
0
41
1
10
0.351161946283071
20
11.1058147907816
30
0
41
1
10
0.34871742353738
20
11.103839332372
30
0
41
1
10
0.346265877365283
20
11.1018050043141
30
0
0
SPLINE
5
223
100
AcDbEntity
8
1
62
256
6
ByLayer
370
18
48
1
60
0
100
AcDbSpline
70
4
71
3
72
22
73
18
40
0
40
0
40
0
40
0
40
0.477178642487609
40
0.477178642487609
40
0.659175456068532
40
0.659175456068532
40
0.736104569890873
40
0.736104569890873
40
0.814382117909337
40
0.814382117909337
40
0.863913762798868
40
0.863913762798868
40
0.913546342599439
40
0.913546342599439
40
0.975074166835151
40
0.975074166835151
40
1
40
1
40
1
40
1
41
1
10
0.346265877365283
20
-7.97637607432429
30
0
41
1
10
0.372778154651485
20
-8.03578221600117
30
0
41
1
10
0.394400157228063
20
-8.09707740388515
30
0
41
1
10
0.409434752644927
20
-8.17508192335137
30
0
41
1
10
0.412041066221491
20
-8.19648428882579
30
0
41
1
10
0.410659271015391
20
-8.22320983200302
30
0
41
1
10
0.409565154625
20
-8.23077165946216
30
0
41
1
10
0.405274018447017
20
-8.24387335831761
30
0
41
1
10
0.4019474005147
20
-8.24953857106073
30
0
41
1
10
0.394108553840454
20
-8.25513076380884
30
0
41
1
10
0.390382910386563
20
-8.25641347658166
30
0
41
1
10
0.382017011442088
20
-8.25669809163008
30
0
41
1
10
0.377275238983202
20
-8.25569635864159
30
0
41
1
10
0.366386136226822
20
-8.25135011345853
30
0
41
1
10
0.360018907213885
20
-8.24748036020759
30
0
41
1
10
0.351293317230329
20
-8.24095059115768
30
0
41
1
10
0.348767421550065
20
-8.23891451183107
30
0
41
1
10
0.346265877365283
20
-8.23677419397316
30
0
0
SPLINE
5
224
100
AcDbEntity
8
1
62
256
6
ByLayer
370
18
48
1
60
0
100
AcDbSpline
70
4
71
3
72
8
73
4
40
0
40
0
40
0
40
0
40
1
40
1
40
1
40
1
41
1
10
0.346265877365283
20
10.3878069201368
30
0
41
1
10
0.230842757174344
20
10.293462780903
30
0
41
1
10
0.11542076553053
20
10.1991168007114
30
0
41
1
10
-1.137E-13
20
10.1047688205899
30
0
0
SPLINE
5
225
100
AcDbEntity
8
1
62
256
6
ByLayer
370
18
48
1
60
0
100
AcDbSpline
70
4
71
3
72
8
73
4
40
0
40
0
40
0
40
0
40
1
40
1
40
1
40
1
41
1
10
0.346265877365283
20
-6.56703185455439
30
0
41
1
10
0.230486373726592
20
-6.45550739381841
30
0
41
1
10
0.11504583101447
20
-6.34351153311647
30
0
41
1
10
0
20
-6.23097929041342
30
0
0
SPLINE
5
226
100
AcDbEntity
8
1
62
256
6
ByLayer
370
18
48
1
60
0
100
AcDbSpline
70
4
71
3
72
22
73
18
40
0
40
0
40
0
40
0
40
0.12909646557881
40
0.12909646557881
40
0.23309286199016
40
0.23309286199016
40
0.338165588650447
40
0.338165588650447
40
0.428832221516919
40
0.428832221516919
40
0.545043792869115
40
0.545043792869115
40
0.709173541959672
40
0.709173541959672
40
0.953399099907675
40
0.953399099907675
40
1
40
1
40
1
40
1
41
1
10
0.346265877365283
20
11.6390985947187
30
0
41
1
10
0.355948425049348
20
11.6473627770103
30
0
41
1
10
0.365557239060536
20
11.6549464285523
30
0
41
1
10
0.38135902531468
20
11.6658316067365
30
0
41
1
10
0.387994066200008
20
11.6697594578585
30
0
41
1
10
0.399070997344381
20
11.6745666840586
30
0
41
1
10
0.403626772714347
20
11.6754483057535
30
0
41
1
10
0.409197431365612
20
11.6738631837349
30
0
41
1
10
0.410690880175878
20
11.6718321804927
30
0
41
1
10
0.411679255294416
20
11.6649547943325
30
0
41
1
10
0.410547474357997
20
11.6594064821057
30
0
41
1
10
0.405005776545693
20
11.6439370302391
30
0
41
1
10
0.39940785291634
20
11.6329253302104
30
0
41
1
10
0.38243720587991
20
11.6040063758033
30
0
41
1
10
0.369287916311009
20
11.5847824383228
30
0
41
1
10
0.352022862222498
20
11.5616751241132
30
0
41
1
10
0.349170470757826
20
11.5579184378699
30
0
41
1
10
0.346265877365283
20
11.5541511286625
30
0
0
SPLINE
5
227
100
AcDbEntity
8
1
62
256
6
ByLayer
370
18
48
1
60
0
100
AcDbSpline
70
4
71
3
72
22
73
18
40
0
40
0
40
0
40
0
40
0.14712764913231
40
0.14712764913231
40
0.260485434751287
40
0.260485434751287
40
0.375168964926516
40
0.375168964926516
40
0.47256630673283
40
0.47256630673283
40
0.570229196564232
40
0.570229196564232
40
0.722117072447015
40
0.722117072447015
40
0.940988336750846
40
0.940988336750846
40
1
40
1
40
1
40
1
41
1
10
0.346265877365283
20
-12.023400427556
30
0
41
1
10
0.356868283759127
20
-12.0327968750664
30
0
41
1
10
0.367297545093265
20
-12.0415328318058
30
0
41
1
10
0.383811426077614
20
-12.0540717641356
30
0
41
1
10
0.39048669256465
20
-12.0586421363153
30
0
41
1
10
0.401383430943554
20
-12.0647065742613
30
0
41
1
10
0.40570927072099
20
-12.0662154735187
30
0
41
1
10
0.410454269801903
20
-12.065541083902
30
0
41
1
10
0.411429459743658
20
-12.063878295389
30
0
41
1
10
0.411054614865179
20
-12.0583608575975
30
0
41
1
10
0.40971409884412
20
-12.054457413458
30
0
41
1
10
0.404123992963207
20
-12.0427133159693
30
0
41
1
10
0.398626833027038
20
-12.0337262881214
30
0
41
1
10
0.382505397514137
20
-12.0100824394028
30
0
41
1
10
0.370426840784205
20
-11.9942400498638
30
0
41
1
10
0.353703980384694
20
-11.9736684794656
30
0
41
1
10
0.350024309849346
20
-11.9692150573354
30
0
41
1
10
0.346265877365283
20
-11.9647342870706
30
0
0
SPLINE
5
228
100
AcDbEntity
8
1
62
256
6
ByLayer
370
18
48
1
60
0
100
AcDbSpline
70
4
71
3
72
8
73
4
40
0
40
0
40
0
40
0
40
1
40
1
40
1
40
1
41
1
10
5.1189642853854
20
11.7792825757163
30
0
41
1
10
5.07551718936986
20
12.086114262879
30
0
41
1
10
5.06181457244077
20
12.2996179074674
30
0
41
1
10
5.05504419079296
20
12.4096736459909
30
0
0
SPLINE
5
229
100
AcDbEntity
8
1
62
256
6
ByLayer
370
18
48
1
60
0
100
AcDbSpline
70
4
71
3
72
16
73
12
40
0
40
0
40
0
40
0
40
0.158008490867524
40
0.158008490867524
40
0.314105303522069
40
0.314105303522069
40
0.548518081039924
40
0.548518081039924
40
0.787437111429338
40
0.787437111429338
40
1
40
1
40
1
40
1
41
1
10
6.21113496157955
20
8.46908035944008
30
0
41
1
10
6.10188933109811
20
8.46955845123443
30
0
41
1
10
5.99125399513474
20
8.48525544806606
30
0
41
1
10
5.78931200361956
20
8.53802827547534
30
0
41
1
10
5.69484019549725
20
8.57505240051836
30
0
41
1
10
5.48348660381487
20
8.67878243212206
30
0
41
1
10
5.3744209201418
20
8.7525219038254
30
0
41
1
10
5.19640348961235
20
8.89950509342239
30
0
41
1
10
5.12578742909483
20
8.97490864566512
30
0
41
1
10
5.03847517699495
20
9.10384106295928
30
0
41
1
10
5.01600646982865
20
9.16024476093247
30
0
41
1
10
5.01662110031879
20
9.20759502047019
30
0
0
SPLINE
5
22A
100
AcDbEntity
8
1
62
256
6
ByLayer
370
18
48
1
60
0
100
AcDbSpline
70
4
71
3
72
18
73
14
40
0
40
0
40
0
40
0
40
0.133194982026041
40
0.133194982026041
40
0.507574931343694
40
0.507574931343694
40
0.896546698328447
40
0.896546698328447
40
0.94247746112454
40
0.94247746112454
40
0.978083645879999
40
0.978083645879999
40
1
40
1
40
1
40
1
41
1
10
5.02966810993837
20
-8.03954989649361
30
0
41
1
10
5.04198766186528
20
-7.94820197961027
30
0
41
1
10
5.06250351860592
20
-7.85383690490576
30
0
41
1
10
5.16294769218689
20
-7.49122428393957
30
0
41
1
10
5.28411227505092
20
-7.20713150388016
30
0
41
1
10
5.57599462537598
20
-6.63494264729977
30
0
41
1
10
5.73643630530023
20
-6.32173714737371
30
0
41
1
10
6.00296765418477
20
-6.04534017178528
30
0
41
1
10
6.03363445111182
20
-6.01695607980068
30
0
41
1
10
6.09354877223478
20
-5.9744749916448
30
0
41
1
10
6.12210913177097
20
-5.95836139917529
30
0
41
1
10
6.17143907925532
20
-5.94236402746952
30
0
41
1
10
6.19132135360138
20
-5.9386497738933
30
0
41
1
10
6.21113496157955
20
-5.9380917461568
30
0
0
SPLINE
5
22B
100
AcDbEntity
8
1
62
256
6
ByLayer
370
18
48
1
60
0
100
AcDbSpline
70
4
71
3
72
10
73
6
40
0
40
0
40
0
40
0
40
0.819013875774399
40
0.819013875774399
40
1
40
1
40
1
40
1
41
1
10
5.01662110031879
20
11.5990310682868
30
0
41
1
10
5.01600086699432
20
11.6520043586203
30
0
41
1
10
5.03910974286907
20
11.703390594046
30
0
41
1
10
5.0951620049936
20
11.7595339150836
30
0
41
1
10
5.10651372137909
20
11.7695390488735
30
0
41
1
10
5.1189642853854
20
11.7792825757163
30
0
0
SPLINE
5
22C
100
AcDbEntity
8
1
62
256
6
ByLayer
370
18
48
1
60
0
100
AcDbSpline
70
4
71
3
72
8
73
4
40
0
40
0
40
0
40
0
40
1
40
1
40
1
40
1
41
1
10
0
20
8.60124135910399
30
0
41
1
10
0.112822336155318
20
8.82318279305082
30
0
41
1
10
0.228340842567093
20
9.04332109595023
30
0
41
1
10
0.346265877365283
20
9.26169711960412
30
0
0
SPLINE
5
22D
100
AcDbEntity
8
1
62
256
6
ByLayer
370
18
48
1
60
0
100
AcDbSpline
70
4
71
3
72
8
73
4
40
0
40
0
40
0
40
0
40
1
40
1
40
1
40
1
41
1
10
0.346265877365283
20
8.23677419397316
30
0
41
1
10
0.230775716236792
20
8.13796096661619
30
0
41
1
10
0.115351215931071
20
8.03904531451656
30
0
41
1
10
0
20
7.94001592678256
30
0
0
SPLINE
5
22E
100
AcDbEntity
8
1
62
256
6
ByLayer
370
18
48
1
60
0
100
AcDbSpline
70
4
71
3
72
22
73
18
40
0
40
0
40
0
40
0
40
0.211681005287411
40
0.211681005287411
40
0.358865067454461
40
0.358865067454461
40
0.47623511333246
40
0.47623511333246
40
0.594943769528849
40
0.594943769528849
40
0.695709219858455
40
0.695709219858455
40
0.796855446613136
40
0.796855446613136
40
0.951499789890484
40
0.951499789890484
40
1
40
1
40
1
40
1
41
1
10
0.346265877365283
20
-12.2346362764258
30
0
41
1
10
0.359897943066585
20
-12.2497256596616
30
0
41
1
10
0.372770597480098
20
-12.2644997576675
30
0
41
1
10
0.391049178604703
20
-12.2867182654336
30
0
41
1
10
0.397675231776532
20
-12.2952039928828
30
0
41
1
10
0.406445335378976
20
-12.3076317214513
30
0
41
1
10
0.409285349024458
20
-12.3122448613141
30
0
41
1
10
0.411787148559824
20
-12.3183716780987
30
0
41
1
10
0.411410134675123
20
-12.3199037798468
30
0
41
1
10
0.40747235660109
20
-12.3192754591657
30
0
41
1
10
0.404358615666467
20
-12.317637340799
30
0
41
1
10
0.396237688026133
20
-12.3121674865849
30
0
41
1
10
0.391147528307385
20
-12.3082841619878
30
0
41
1
10
0.37692356397838
20
-12.2966974376908
30
0
41
1
10
0.36685665552659
20
-12.2878975199698
30
0
41
1
10
0.353065493124234
20
-12.2753706822286
30
0
41
1
10
0.349685067617599
20
-12.2722660219198
30
0
41
1
10
0.346265877365283
20
-12.2690953042644
30
0
0
SPLINE
5
22F
100
AcDbEntity
8
1
62
256
6
ByLayer
370
18
48
1
60
0
100
AcDbSpline
70
4
71
3
72
8
73
4
40
0
40
0
40
0
40
0
40
1
40
1
40
1
40
1
41
1
10
-3.979E-13
20
-3.38841451383433
30
0
41
1
10
0.11157892342294
20
-3.56534997086925
30
0
41
1
10
0.227359890228342
20
-3.738812969881
30
0
41
1
10
0.346265877371934
20
-3.90926663647247
30
0
0
SPLINE
5
230
100
AcDbEntity
8
1
62
256
6
ByLayer
370
18
48
1
60
0
100
AcDbSpline
70
4
71
3
72
10
73
6
40
0
40
0
40
0
40
0
40
0.228400964991224
40
0.228400964991224
40
1
40
1
40
1
40
1
41
1
10
0
20
-11.9550307054211
30
0
41
1
10
0.0343491879104363
20
-11.9896492131781
30
0
41
1
10
0.06869954098363
20
-12.0242665648739
30
0
41
1
10
0.21909946534555
20
-12.1758255753985
30
0
41
1
10
0.33516085110017
20
-12.2927555113507
30
0
41
1
10
0.45123412263473
20
-12.4096736459909
30
0
0
SPLINE
5
231
100
AcDbEntity
8
1
62
256
6
ByLayer
370
18
48
1
60
0
100
AcDbSpline
70
4
71
3
72
8
73
4
40
0
40
0
40
0
40
0
40
1
40
1
40
1
40
1
41
1
10
0.346265877365283
20
3.90926663646292
30
0
41
1
10
0.227359890226353
20
3.73881296987787
30
0
41
1
10
0.111578923425384
20
3.56534997087275
30
0
41
1
10
6.1391E-12
20
3.38841451384468
30
0
0
SPLINE
5
232
100
AcDbEntity
8
1
62
256
6
ByLayer
370
18
48
1
60
0
100
AcDbSpline
70
4
71
2
72
6
73
3
40
0
40
0
40
0
40
1
40
1
40
1
41
0.499999997075667
10
10.7947346145303
20
-5.79038364749066
30
0
41
0.500000002924333
10
10.7940012064788
20
-5.79081859951679
30
0
41
0.499999997075667
10
10.793267819914
20
-5.79125354793509
30
0
0
SPLINE
5
233
100
AcDbEntity
8
1
62
256
6
ByLayer
370
18
48
1
60
0
100
AcDbSpline
70
4
71
3
72
8
73
4
40
0
40
0
40
0
40
0
40
1
40
1
40
1
40
1
41
1
10
0
20
6.23097929041342
30
0
41
1
10
0.11504583101447
20
6.34351153311647
30
0
41
1
10
0.230486373726592
20
6.45550739381841
30
0
41
1
10
0.346265877365283
20
6.56703185455439
30
0
0
SPLINE
5
234
100
AcDbEntity
8
1
62
256
6
ByLayer
370
18
48
1
60
0
100
AcDbSpline
70
4
71
3
72
8
73
4
40
0
40
0
40
0
40
0
40
1
40
1
40
1
40
1
41
1
10
0.346265877365283
20
-9.45716611180498
30
0
41
1
10
0.230836614090947
20
-9.36234098597944
30
0
41
1
10
0.115414428426277
20
-9.26750437160226
30
0
41
1
10
0
20
-9.17265517271642
30
0
0
SPLINE
5
235
100
AcDbEntity
8
1
62
256
6
ByLayer
370
18
48
1
60
0
100
AcDbSpline
70
4
71
3
72
8
73
4
40
0
40
0
40
0
40
0
40
1
40
1
40
1
40
1
41
1
10
0
20
11.5480021180099
30
0
41
1
10
0.114838291584874
20
11.6875563471868
30
0
41
1
10
0.230277541532871
20
11.826454009731
30
0
41
1
10
0.346265877365283
20
11.9647342870706
30
0
0
SPLINE
5
236
100
AcDbEntity
8
1
62
256
6
ByLayer
370
18
48
1
60
0
100
AcDbSpline
70
4
71
3
72
8
73
4
40
0
40
0
40
0
40
0
40
1
40
1
40
1
40
1
41
1
10
-1.137E-13
20
-10.1047688205899
30
0
41
1
10
0.11542076553053
20
-10.1991168007114
30
0
41
1
10
0.230842757174344
20
-10.293462780903
30
0
41
1
10
0.346265877365283
20
-10.3878069201368
30
0
0
SPLINE
5
237
100
AcDbEntity
8
1
62
256
6
ByLayer
370
18
48
1
60
0
100
AcDbSpline
70
4
71
3
72
8
73
4
40
0
40
0
40
0
40
0
40
1
40
1
40
1
40
1
41
1
10
0
20
-11.9470227637501
30
0
41
1
10
0.115281542761693
20
-12.0545812521827
30
0
41
1
10
0.230707112539164
20
-12.161934196277
30
0
41
1
10
0.346265877365283
20
-12.2690953042644
30
0
0
SPLINE
5
238
100
AcDbEntity
8
1
62
256
6
ByLayer
370
18
48
1
60
0
100
AcDbSpline
70
4
71
3
72
10
73
6
40
0
40
0
40
0
40
0
40
0.771599035008786
40
0.771599035008786
40
1
40
1
40
1
40
1
41
1
10
0.45123412263473
20
12.4096736459909
30
0
41
1
10
0.33516085110017
20
12.2927555113507
30
0
41
1
10
0.21909946534555
20
12.1758255753985
30
0
41
1
10
0.06869954098363
20
12.0242665648739
30
0
41
1
10
0.0343491879104363
20
11.9896492131781
30
0
41
1
10
0
20
11.9550307054211
30
0
0
SPLINE
5
239
100
AcDbEntity
8
1
62
256
6
ByLayer
370
18
48
1
60
0
100
AcDbSpline
70
4
71
3
72
22
73
18
40
0
40
0
40
0
40
0
40
0.207675188636617
40
0.207675188636617
40
0.370644281583627
40
0.370644281583627
40
0.494997184196364
40
0.494997184196364
40
0.596186530762269
40
0.596186530762269
40
0.697879528049506
40
0.697879528049506
40
0.792807826306802
40
0.792807826306802
40
0.925276789612654
40
0.925276789612654
40
1
40
1
40
1
40
1
41
1
10
0.346265877365283
20
11.9647342870706
30
0
41
1
10
0.359372209632909
20
11.9803595415229
30
0
41
1
10
0.371647363562147
20
11.995802080732
30
0
41
1
10
0.390236131413815
20
12.0211362171773
30
0
41
1
10
0.397417324135859
20
12.0317253186461
30
0
41
1
10
0.40660963514938
20
12.0475379397915
30
0
41
1
10
0.409501414892304
20
12.0535649594317
30
0
41
1
10
0.411627869726544
20
12.061536775635
30
0
41
1
10
0.411437888994158
20
12.0640888370587
30
0
41
1
10
0.408401322012992
20
12.0663483395009
30
0
41
1
10
0.405487448283225
20
12.0660570999757
30
0
41
1
10
0.397718253708149
20
12.0628501293161
30
0
41
1
10
0.39292802110748
20
12.0600898295608
30
0
41
1
10
0.38010492766972
20
12.0514703650392
30
0
41
1
10
0.371354499046845
20
12.044714471476
30
0
41
1
10
0.357058756644619
20
12.0328337851015
30
0
41
1
10
0.35169804073729
20
12.0282147155673
30
0
41
1
10
0.346265877365283
20
12.023400427556
30
0
0
SPLINE
5
23A
100
AcDbEntity
8
1
62
256
6
ByLayer
370
18
48
1
60
0
100
AcDbSpline
70
4
71
3
72
8
73
4
40
0
40
0
40
0
40
0
40
1
40
1
40
1
40
1
41
1
10
5.1189642853854
20
11.7792825757163
30
0
41
1
10
5.26720934339636
20
10.7323476724781
30
0
41
1
10
5.61363384826228
20
9.71255784762803
30
0
41
1
10
6.21113496157955
20
8.73347840117944
30
0
0
SPLINE
5
23B
100
AcDbEntity
8
1
62
256
6
ByLayer
370
18
48
1
60
0
100
AcDbSpline
70
4
71
3
72
8
73
4
40
0
40
0
40
0
40
0
40
1
40
1
40
1
40
1
41
1
10
0
20
9.17265517271639
30
0
41
1
10
0.115414428426277
20
9.26750437160226
30
0
41
1
10
0.230836614090947
20
9.36234098597942
30
0
41
1
10
0.346265877365283
20
9.45716611180498
30
0
0
SPLINE
5
23C
100
AcDbEntity
8
1
62
256
6
ByLayer
370
18
48
1
60
0
100
AcDbSpline
70
4
71
3
72
8
73
4
40
0
40
0
40
0
40
0
40
1
40
1
40
1
40
1
41
1
10
0.34626587736517
20
-6.19202043139583
30
0
41
1
10
0.221303491542983
20
-5.81676361351231
30
0
41
1
10
0.10545472559312
20
-5.43725176603041
30
0
41
1
10
0
20
-5.05409268984661
30
0
0
SPLINE
5
23D
100
AcDbEntity
8
1
62
256
6
ByLayer
370
18
48
1
60
0
100
AcDbSpline
70
4
71
3
72
8
73
4
40
0
40
0
40
0
40
0
40
1
40
1
40
1
40
1
41
1
10
6.86935853838946
20
-11.6794589634908
30
0
41
1
10
7.09267580356868
20
-11.7568132412393
30
0
41
1
10
7.32116629407886
20
-11.8359594588488
30
0
41
1
10
7.55743786651533
20
-11.9178009448784
30
0
0
SPLINE
5
23E
100
AcDbEntity
8
1
62
256
6
ByLayer
370
18
48
1
60
0
100
AcDbSpline
70
4
71
3
72
26
73
22
40
0
40
0
40
0
40
0
40
0.0234760969784364
40
0.0234760969784364
40
0.0379403017443503
40
0.0379403017443503
40
0.0496343598989342
40
0.0496343598989342
40
0.0613746244080722
40
0.0613746244080722
40
0.0759633127848566
40
0.0759633127848566
40
0.100897192300089
40
0.100897192300089
40
0.175550805278485
40
0.175550805278485
40
0.474994357819951
40
0.474994357819951
40
0.978449480167231
40
0.978449480167231
40
1
40
1
40
1
40
1
41
1
10
0.346265877365283
20
3.90926663646292
30
0
41
1
10
0.350044980273026
20
3.91468404194882
30
0
41
1
10
0.354145003400504
20
3.91982820960993
30
0
41
1
10
0.361354553333001
20
3.92661858176516
30
0
41
1
10
0.36429349673773
20
3.92887545085796
30
0
41
1
10
0.369724081272409
20
3.93166606170212
30
0
41
1
10
0.37224469105513
20
3.93245325859232
30
0
41
1
10
0.377073515010522
20
3.93276482232844
30
0
41
1
10
0.37943632959616
20
3.93228311844913
30
0
41
1
10
0.384187574617442
20
3.93002639738688
30
0
41
1
10
0.386527065070652
20
3.92796446499253
30
0
41
1
10
0.391958926544533
20
3.92132124998827
30
0
41
1
10
0.394583001608851
20
3.91592721724609
30
0
41
1
10
0.403093935091135
20
3.89331024655675
30
0
41
1
10
0.405949554049187
20
3.87324528234981
30
0
41
1
10
0.415844835011228
20
3.77346988155708
30
0
41
1
10
0.410147811892614
20
3.68731393541643
30
0
41
1
10
0.391926820896856
20
3.45946915233969
30
0
41
1
10
0.372416928601126
20
3.31471564910015
30
0
41
1
10
0.348276170534746
20
3.16430004271618
30
0
41
1
10
0.347275169430759
20
3.15811464784568
30
0
41
1
10
0.346265877365283
20
3.15192937208195
30
0
0
SPLINE
5
23F
100
AcDbEntity
8
1
62
256
6
ByLayer
370
18
48
1
60
0
100
AcDbSpline
70
4
71
3
72
16
73
12
40
0
40
0
40
0
40
0
40
0.0316443747361774
40
0.0316443747361774
40
0.0775706534461866
40
0.0775706534461866
40
0.226476764724235
40
0.226476764724235
40
0.699876795018539
40
0.699876795018539
40
1
40
1
40
1
40
1
41
1
10
6.21113496157955
20
-4.73140738188854
30
0
41
1
10
6.1845655076437
20
-4.73068018031415
30
0
41
1
10
6.15787389580629
20
-4.72432146912945
30
0
41
1
10
6.09774580450016
20
-4.6999582392038
30
0
41
1
10
6.06525112776291
20
-4.67821945569568
30
0
41
1
10
5.94029672675777
20
-4.5775406691763
30
0
41
1
10
5.86558490438807
20
-4.47918164805031
30
0
41
1
10
5.57426417960363
20
-4.07892907627129
30
0
41
1
10
5.39558536591016
20
-3.75696455167196
30
0
41
1
10
5.1662821443503
20
-3.27214633878333
30
0
41
1
10
5.09357231854256
20
-3.08842001698756
30
0
41
1
10
5.0525177317798
20
-2.92011636808013
30
0
0
SPLINE
5
240
100
AcDbEntity
8
1
62
256
6
ByLayer
370
18
48
1
60
0
100
AcDbSpline
70
4
71
3
72
8
73
4
40
0
40
0
40
0
40
0
40
1
40
1
40
1
40
1
41
1
10
0
20
5.05409268984661
30
0
41
1
10
0.10545472559312
20
5.43725176603041
30
0
41
1
10
0.221303491542983
20
5.81676361351231
30
0
41
1
10
0.34626587736517
20
6.19202043139583
30
0
0
SPLINE
5
241
100
AcDbEntity
8
1
62
256
6
ByLayer
370
18
48
1
60
0
100
AcDbSpline
70
4
71
3
72
8
73
4
40
0
40
0
40
0
40
0
40
1
40
1
40
1
40
1
41
1
10
0
20
-11.8485274577714
30
0
41
1
10
0.115001762472957
20
-11.9777309575305
30
0
41
1
10
0.230435625110601
20
-12.106423347816
30
0
41
1
10
0.346265877365283
20
-12.2346362764258
30
0
0
SPLINE
5
242
100
AcDbEntity
8
1
62
256
6
ByLayer
370
18
48
1
60
0
100
AcDbSpline
70
4
71
3
72
22
73
18
40
0
40
0
40
0
40
0
40
0.165560074114725
40
0.165560074114725
40
0.287334689196968
40
0.287334689196968
40
0.390247095847815
40
0.390247095847815
40
0.493512754322351
40
0.493512754322351
40
0.592108808155919
40
0.592108808155919
40
0.732314561320585
40
0.732314561320585
40
0.928845505575987
40
0.928845505575987
40
1
40
1
40
1
40
1
41
1
10
0.346265877365283
20
12.2690953042644
30
0
41
1
10
0.357799583619681
20
12.2797908559458
30
0
41
1
10
0.369040108069839
20
12.2898692880663
30
0
41
1
10
0.386152608347459
20
12.3043308346909
30
0
41
1
10
0.39280113962576
20
12.3096273696433
30
0
41
1
10
0.402542863488861
20
12.3165297273373
30
0
41
1
10
0.406110251470352
20
12.3186298789994
30
0
41
1
10
0.41059314984409
20
12.3200427247317
30
0
41
1
10
0.411549468561304
20
12.3193551528903
30
0
41
1
10
0.410844222274648
20
12.3155080909522
30
0
41
1
10
0.409308242994314
20
12.3124342069743
30
0
41
1
10
0.403413103679327
20
12.3030442816101
30
0
41
1
10
0.398079874829477
20
12.2957891019168
30
0
41
1
10
0.382856676349491
20
12.2764957997901
30
0
41
1
10
0.371760782843921
20
12.2633826977337
30
0
41
1
10
0.355420407242775
20
12.2448298676077
30
0
41
1
10
0.350896308718006
20
12.2397617177756
30
0
41
1
10
0.346265877365283
20
12.2346362764258
30
0
0
SPLINE
5
243
100
AcDbEntity
8
1
62
256
6
ByLayer
370
18
48
1
60
0
100
AcDbSpline
70
4
71
2
72
6
73
3
40
0
40
0
40
0
40
1
40
1
40
1
41
0.499999995079526
10
12.2580194820623
20
-4.93152356525628
30
0
41
0.500000004920474
10
12.2572843218824
20
-4.93195057432874
30
0
41
0.499999995079526
10
12.2565491437563
20
-4.93237760293851
30
0
0
SPLINE
5
244
100
AcDbEntity
8
1
62
256
6
ByLayer
370
18
48
1
60
0
100
AcDbSpline
70
4
71
3
72
16
73
12
40
0
40
0
40
0
40
0
40
0.138547995277062
40
0.138547995277062
40
0.40581577584134
40
0.40581577584134
40
0.701400486647507
40
0.701400486647507
40
0.876910824361699
40
0.876910824361699
40
1
40
1
40
1
40
1
41
1
10
5.03522676470266
20
2.49065434772226
30
0
41
1
10
5.04852572792902
20
2.53580381418953
30
0
41
1
10
5.06868803990983
20
2.58274718077558
30
0
41
1
10
5.14547023848172
20
2.72221877922448
30
0
41
1
10
5.21954817906959
20
2.81886155371799
30
0
41
1
10
5.41447746264396
20
3.01176043447572
30
0
41
1
10
5.54296004687285
20
3.11077178430077
30
0
41
1
10
5.78199058718218
20
3.23175751184556
30
0
41
1
10
5.8813582283604
20
3.26934880049535
30
0
41
1
10
6.0584396378855
20
3.30816545969819
30
0
41
1
10
6.13505857701028
20
3.31703074033177
30
0
41
1
10
6.21113496157955
20
3.31742408026406
30
0
0
SPLINE
5
245
100
AcDbEntity
8
1
62
256
6
ByLayer
370
18
48
1
60
0
100
AcDbSpline
70
4
71
3
72
8
73
4
40
0
40
0
40
0
40
0
40
1
40
1
40
1
40
1
41
1
10
24.8563243926894
20
1.9082473554258
30
0
41
1
10
24.7950949610056
20
2.04792899984861
30
0
41
1
10
24.7274219697301
20
2.18493528074012
30
0
41
1
10
24.6534196608014
20
2.31887613604798
30
0
0
SPLINE
5
246
100
AcDbEntity
8
1
62
256
6
ByLayer
370
18
48
1
60
0
100
AcDbSpline
70
4
71
3
72
8
73
4
40
0
40
0
40
0
40
0
40
1
40
1
40
1
40
1
41
1
10
0.346265877365283
20
-12.023400427556
30
0
41
1
10
0.230759121535527
20
-11.9210318587676
30
0
41
1
10
0.11533495691981
20
-11.8185388964186
30
0
41
1
10
0
20
-11.7159123809271
30
0
0
SPLINE
5
247
100
AcDbEntity
8
1
62
256
6
ByLayer
370
18
48
1
60
0
100
AcDbSpline
70
4
71
2
72
6
73
3
40
0
40
0
40
0
40
1
40
1
40
1
41
0.499997357734074
10
6.38017981028111
20
8.46834032724876
30
0
41
0.500002642265926
10
6.29567063131383
20
8.46871040587895
30
0
41
0.499997357734074
10
6.21113496158219
20
8.46908035944006
30
0
0
SPLINE
5
248
100
AcDbEntity
8
1
62
256
6
ByLayer
370
18
48
1
60
0
100
AcDbSpline
70
4
71
3
72
20
73
16
40
0
40
0
40
0
40
0
40
0.353208827241179
40
0.353208827241179
40
0.501260849719145
40
0.501260849719145
40
0.652000542139395
40
0.652000542139395
40
0.732433063749091
40
0.732433063749091
40
0.813569072455397
40
0.813569072455397
40
0.886953367887478
40
0.886953367887478
40
1
40
1
40
1
40
1
41
1
10
0.346265877365283
20
-10.2376995361025
30
0
41
1
10
0.367024394812972
20
-10.2710125101625
30
0
41
1
10
0.385125926464411
20
-10.3050003885362
30
0
41
1
10
0.402490572695456
20
-10.3489824587486
30
0
41
1
10
0.406644118009922
20
-10.3617025373474
30
0
41
1
10
0.411488599477934
20
-10.3847639906631
30
0
41
1
10
0.412177663029468
20
-10.3954310328707
30
0
41
1
10
0.408445488673806
20
-10.4069467225303
30
0
41
1
10
0.406175720657586
20
-10.4101051689533
30
0
41
1
10
0.399557977012137
20
-10.413679442094
30
0
41
1
10
0.395081463021882
20
-10.4140899161445
30
0
41
1
10
0.385114609086656
20
-10.4120793834186
30
0
41
1
10
0.379655484006946
20
-10.4099187424723
30
0
41
1
10
0.365215379560425
20
-10.40225185236
30
0
41
1
10
0.355659448274821
20
-10.3954850036987
30
0
41
1
10
0.346265877365283
20
-10.3878069201368
30
0
0
SPLINE
5
249
100
AcDbEntity
8
1
62
256
6
ByLayer
370
18
48
1
60
0
100
AcDbSpline
70
4
71
3
72
8
73
4
40
0
40
0
40
0
40
0
40
1
40
1
40
1
40
1
41
1
10
23.8374778141457
20
3.41126739734494
30
0
41
1
10
23.0004202901691
20
4.26027839084367
30
0
41
1
10
21.637138885768
20
4.90088705878529
30
0
41
1
10
20.2769680362271
20
4.90088705878529
30
0
0
SPLINE
5
24A
100
AcDbEntity
8
1
62
256
6
ByLayer
370
18
48
1
60
0
100
AcDbSpline
70
4
71
3
72
8
73
4
40
0
40
0
40
0
40
0
40
1
40
1
40
1
40
1
41
1
10
0.346265877365283
20
3.15192937208195
30
0
41
1
10
0.0033852009711381
20
1.05064312402732
30
0
41
1
10
0.0033852009711381
20
-1.05064312402732
30
0
41
1
10
0.346265877365283
20
-3.15192937208192
30
0
0
SPLINE
5
24B
100
AcDbEntity
8
1
62
256
6
ByLayer
370
18
48
1
60
0
100
AcDbSpline
70
4
71
3
72
8
73
4
40
0
40
0
40
0
40
0
40
1
40
1
40
1
40
1
41
1
10
0.346265877365283
20
12.2690953042644
30
0
41
1
10
0.230707112539164
20
12.161934196277
30
0
41
1
10
0.115281542761693
20
12.0545812521827
30
0
41
1
10
0
20
11.9470227637501
30
0
0
SPLINE
5
24C
100
AcDbEntity
8
1
62
256
6
ByLayer
370
18
48
1
60
0
100
AcDbSpline
70
4
71
3
72
8
73
4
40
0
40
0
40
0
40
0
40
1
40
1
40
1
40
1
41
1
10
0
20
-7.94001592678256
30
0
41
1
10
0.115351215931071
20
-8.03904531451656
30
0
41
1
10
0.230775716236792
20
-8.13796096661619
30
0
41
1
10
0.346265877365283
20
-8.23677419397316
30
0
0
SPLINE
5
24D
100
AcDbEntity
8
1
62
256
6
ByLayer
370
18
48
1
60
0
100
AcDbSpline
70
4
71
3
72
8
73
4
40
0
40
0
40
0
40
0
40
1
40
1
40
1
40
1
41
1
10
0.346265877365283
20
-11.1018050043141
30
0
41
1
10
0.230827288584976
20
-11.0060124131739
30
0
41
1
10
0.115404887590387
20
-10.9101938054917
30
0
41
1
10
0
20
-10.8143470869748
30
0
0
SPLINE
5
24E
100
AcDbEntity
8
1
62
256
6
ByLayer
370
18
48
1
60
0
100
AcDbSpline
70
4
71
3
72
8
73
4
40
0
40
0
40
0
40
0
40
1
40
1
40
1
40
1
41
1
10
0.346265877365283
20
10.2376995361025
30
0
41
1
10
0.229219722500602
20
10.0498655286572
30
0
41
1
10
0.113739105797208
20
9.8607150529516
30
0
41
1
10
0
20
9.67019146230109
30
0
0
SPLINE
5
24F
100
AcDbEntity
8
1
62
256
6
ByLayer
370
18
48
1
60
0
100
AcDbSpline
70
4
71
3
72
22
73
18
40
0
40
0
40
0
40
0
40
0.076003412125595
40
0.076003412125595
40
0.15387019842922
40
0.15387019842922
40
0.223455688856948
40
0.223455688856948
40
0.285796807149923
40
0.285796807149923
40
0.386327790897015
40
0.386327790897015
40
0.554663739773593
40
0.554663739773593
40
0.858182253120758
40
0.858182253120758
40
1
40
1
40
1
40
1
41
1
10
0.346265877365283
20
-9.45716611180498
30
0
41
1
10
0.353080398826194
20
-9.46276424036131
30
0
41
1
10
0.360026749084682
20
-9.46776433143455
30
0
41
1
10
0.373516527129425
20
-9.47547667452699
30
0
41
1
10
0.380224615466545
20
-9.47819364590518
30
0
41
1
10
0.39121288921217
20
-9.47991266801969
30
0
41
1
10
0.395808338589916
20
-9.47928157766455
30
0
41
1
10
0.402625282773784
20
-9.47560079623548
30
0
41
1
10
0.405139438569961
20
-9.47279367063126
30
0
41
1
10
0.409875329987244
20
-9.46369612926208
30
0
41
1
10
0.411120970949412
20
-9.45622582342216
30
0
41
1
10
0.411475421061709
20
-9.43435359058293
30
0
41
1
10
0.408718434364289
20
-9.41827884048826
30
0
41
1
10
0.396869003968788
20
-9.37199306815333
30
0
41
1
10
0.384269477335408
20
-9.33961147704818
30
0
41
1
10
0.362194018163166
20
-9.29222705574227
30
0
41
1
10
0.354496231725022
20
-9.27693826039686
30
0
41
1
10
0.346265877365283
20
-9.26169711960412
30
0
0
SPLINE
5
250
100
AcDbEntity
8
1
62
256
6
ByLayer
370
18
48
1
60
0
100
AcDbSpline
70
4
71
3
72
8
73
4
40
0
40
0
40
0
40
0
40
1
40
1
40
1
40
1
41
1
10
0.346265877365283
20
-9.26169711960412
30
0
41
1
10
0.228340842567093
20
-9.04332109595023
30
0
41
1
10
0.112822336155318
20
-8.82318279305082
30
0
41
1
10
0
20
-8.60124135910399
30
0
0
SPLINE
5
251
100
AcDbEntity
8
1
62
256
6
ByLayer
370
18
48
1
60
0
100
AcDbSpline
70
4
71
3
72
8
73
4
40
0
40
0
40
0
40
0
40
1
40
1
40
1
40
1
41
1
10
0.346265877365283
20
12.2346362764258
30
0
41
1
10
0.230435625110601
20
12.106423347816
30
0
41
1
10
0.115001762472957
20
11.9777309575305
30
0
41
1
10
0
20
11.8485274577714
30
0
0
SPLINE
5
252
100
AcDbEntity
8
1
62
256
6
ByLayer
370
18
48
1
60
0
100
AcDbSpline
70
4
71
3
72
8
73
4
40
0
40
0
40
0
40
0
40
1
40
1
40
1
40
1
41
1
10
0.346265877365283
20
11.6390985947187
30
0
41
1
10
0.230798820375014
20
11.5405459370123
30
0
41
1
10
0.115375688133611
20
11.4419246184803
30
0
41
1
10
0
20
11.3432293866236
30
0
0
SPLINE
5
253
100
AcDbEntity
8
1
62
256
6
ByLayer
370
18
48
1
60
0
100
AcDbSpline
70
4
71
3
72
14
73
10
40
0
40
0
40
0
40
0
40
0.151615188472206
40
0.151615188472206
40
0.455277407339171
40
0.455277407339171
40
0.764397208090908
40
0.764397208090908
40
1
40
1
40
1
40
1
41
1
10
5.64029424172332
20
-12.4096736459909
30
0
41
1
10
5.58221167914394
20
-12.4057737288757
30
0
41
1
10
5.52668027657
20
-12.4011444118107
30
0
41
1
10
5.3713504670522
20
-12.3850272175602
30
0
41
1
10
5.28078645989598
20
-12.371003837008
30
0
41
1
10
5.13783042979224
20
-12.3364201464134
30
0
41
1
10
5.08420885137241
20
-12.3152503376797
30
0
41
1
10
5.02818990622109
20
-12.2729814772276
30
0
41
1
10
5.01616851598215
20
-12.2527279532776
30
0
41
1
10
5.01662110031879
20
-12.2313449836881
30
0
0
SPLINE
5
254
100
AcDbEntity
8
1
62
256
6
ByLayer
370
18
48
1
60
0
100
AcDbSpline
70
4
71
3
72
18
73
14
40
0
40
0
40
0
40
0
40
0.181981531898594
40
0.181981531898594
40
0.364888414493352
40
0.364888414493352
40
0.537473810528473
40
0.537473810528473
40
0.711022277209188
40
0.711022277209188
40
0.902938137882215
40
0.902938137882215
40
1
40
1
40
1
40
1
41
1
10
7.63898200236792
20
-11.6194968939632
30
0
41
1
10
7.63559507488372
20
-11.6122782665098
30
0
41
1
10
7.63520466676567
20
-11.6047157554705
30
0
41
1
10
7.64128894038134
20
-11.5900395365141
30
0
41
1
10
7.64791592862423
20
-11.5827296366238
30
0
41
1
10
7.66686581171132
20
-11.5699650075041
30
0
41
1
10
7.67908639968022
20
-11.5642641645007
30
0
41
1
10
7.70737021114434
20
-11.5547062607271
30
0
41
1
10
7.72377748919666
20
-11.5507366490172
30
0
41
1
10
7.76023416586708
20
-11.5444615734168
30
0
41
1
10
7.78090176413315
20
-11.5422908167243
30
0
41
1
10
7.81230422193238
20
-11.5406569033701
30
0
41
1
10
7.8230230308107
20
-11.5403789805231
30
0
41
1
10
7.83372097534851
20
-11.5403593086464
30
0
0
SPLINE
5
255
100
AcDbEntity
8
1
62
256
6
ByLayer
370
18
48
1
60
0
100
AcDbSpline
70
4
71
3
72
22
73
18
40
0
40
0
40
0
40
0
40
0.0937899592824883
40
0.0937899592824883
40
0.189854034426562
40
0.189854034426562
40
0.272605725624804
40
0.272605725624804
40
0.346148559318351
40
0.346148559318351
40
0.459236172195494
40
0.459236172195494
40
0.637860101421922
40
0.637860101421922
40
0.93102931569287
40
0.93102931569287
40
1
40
1
40
1
40
1
41
1
10
0.346265877365283
20
10.3878069201368
30
0
41
1
10
0.354074084013234
20
10.3941891643003
30
0
41
1
10
0.361959053222563
20
10.3999207606531
30
0
41
1
10
0.376978434313287
20
10.4088208375763
30
0
41
1
10
0.38430014974017
20
10.4120085908662
30
0
41
1
10
0.395632421950836
20
10.4141125277954
30
0
41
1
10
0.400098122400777
20
10.4135650107224
30
0
41
1
10
0.406284689033498
20
10.4098610546666
30
0
41
1
10
0.408346128861012
20
10.4069832633312
30
0
41
1
10
0.411528330630574
20
10.3978083856368
30
0
41
1
10
0.411660331481983
20
10.390400372159
30
0
41
1
10
0.408950615759522
20
10.3693495326978
30
0
41
1
10
0.404396282509708
20
10.3542127341877
30
0
41
1
10
0.388508267453517
20
10.3129918015878
30
0
41
1
10
0.374404158784216
20
10.2851494179618
30
0
41
1
10
0.35436625391759
20
10.2508990114363
30
0
41
1
10
0.350378224558881
20
10.2442989724895
30
0
41
1
10
0.346265877365283
20
10.2376995361025
30
0
0
SPLINE
5
256
100
AcDbEntity
8
1
62
256
6
ByLayer
370
18
48
1
60
0
100
AcDbSpline
70
4
71
3
72
8
73
4
40
0
40
0
40
0
40
0
40
1
40
1
40
1
40
1
41
1
10
0.346265877365283
20
7.97637607432429
30
0
41
1
10
0.226551674694576
20
7.70813209030851
30
0
41
1
10
0.110951948162096
20
7.43737501593759
30
0
41
1
10
0
20
7.1641540266497
30
0
0
SPLINE
5
257
100
AcDbEntity
8
1
62
256
6
ByLayer
370
18
48
1
60
0
100
AcDbSpline
70
4
71
3
72
12
73
8
40
0
40
0
40
0
40
0
40
0.25
40
0.25
40
0.5
40
0.5
40
1
40
1
40
1
40
1
41
1
10
6.38017981028094
20
8.4683403272488
30
0
41
1
10
6.65451520386222
20
8.05615956729295
30
0
41
1
10
7.05014851313422
20
7.55773185447583
30
0
41
1
10
7.99665916587242
20
6.65650994007953
30
0
41
1
10
8.55129662016247
20
6.24431163866092
30
0
41
1
10
10.3243038709316
20
5.2551518881246
30
0
41
1
10
11.670805995144
20
4.90088705878529
30
0
41
1
10
13.0399492862271
20
4.90088705878529
30
0
0
SPLINE
5
258
100
AcDbEntity
8
1
62
256
6
ByLayer
370
18
48
1
60
0
100
AcDbSpline
70
4
71
3
72
26
73
22
40
0
40
0
40
0
40
0
40
0.0215505198331116
40
0.0215505198331116
40
0.525005642187974
40
0.525005642187974
40
0.824449194733949
40
0.824449194733949
40
0.89910280771347
40
0.89910280771347
40
0.924036687229077
40
0.924036687229077
40
0.938625375606082
40
0.938625375606082
40
0.950365640115396
40
0.950365640115396
40
0.962059698270156
40
0.962059698270156
40
0.976523903036288
40
0.976523903036288
40
1
40
1
40
1
40
1
41
1
10
0.346265877365283
20
-3.15192937208192
30
0
41
1
10
0.347275169430759
20
-3.15811464784565
30
0
41
1
10
0.348276170534746
20
-3.16430004271618
30
0
41
1
10
0.372416928601126
20
-3.31471564910015
30
0
41
1
10
0.391926820896856
20
-3.45946915233969
30
0
41
1
10
0.410147811892614
20
-3.68731393541643
30
0
41
1
10
0.415844835011228
20
-3.77346988155708
30
0
41
1
10
0.405949554049187
20
-3.87324528234981
30
0
41
1
10
0.403093935091135
20
-3.89331024655675
30
0
41
1
10
0.394583001608851
20
-3.91592721724609
30
0
41
1
10
0.391958926544533
20
-3.92132124998827
30
0
41
1
10
0.386527065070652
20
-3.92796446499253
30
0
41
1
10
0.384187574617442
20
-3.93002639738688
30
0
41
1
10
0.37943632959616
20
-3.93228311844913
30
0
41
1
10
0.377073515010522
20
-3.93276482232844
30
0
41
1
10
0.37224469105513
20
-3.93245325859232
30
0
41
1
10
0.369724081272409
20
-3.93166606170212
30
0
41
1
10
0.36429349673773
20
-3.92887545085796
30
0
41
1
10
0.361354553333001
20
-3.92661858176516
30
0
41
1
10
0.354145003402834
20
-3.91982820961209
30
0
41
1
10
0.350044980277289
20
-3.91468404195408
30
0
41
1
10
0.346265877371138
20
-3.90926663647136
30
0
0
SPLINE
5
259
100
AcDbEntity
8
1
62
256
6
ByLayer
370
18
48
1
60
0
100
AcDbSpline
70
4
71
3
72
8
73
4
40
0
40
0
40
0
40
0
40
1
40
1
40
1
40
1
41
1
10
0
20
11.7159123809271
30
0
41
1
10
0.11533495691981
20
11.8185388964186
30
0
41
1
10
0.230759121535527
20
11.9210318587676
30
0
41
1
10
0.346265877365283
20
12.023400427556
30
0
0
SPLINE
5
25A
100
AcDbEntity
8
1
62
256
6
ByLayer
370
18
48
1
60
0
100
AcDbSpline
70
4
71
3
72
22
73
18
40
0
40
0
40
0
40
0
40
0.111422414433504
40
0.111422414433504
40
0.205111172273924
40
0.205111172273924
40
0.299657140499009
40
0.299657140499009
40
0.382486320635791
40
0.382486320635791
40
0.495613585904334
40
0.495613585904334
40
0.662349487041781
40
0.662349487041781
40
0.921512922257098
40
0.921512922257098
40
1
40
1
40
1
40
1
41
1
10
0.346265877365283
20
-11.1018050043141
30
0
41
1
10
0.355023063017256
20
-11.1090718421502
30
0
41
1
10
0.363788987443456
20
-11.1156611768721
30
0
41
1
10
0.378747405177251
20
-11.1251291664588
30
0
41
1
10
0.385265192512691
20
-11.128498750246
30
0
41
1
10
0.396385436677235
20
-11.1322419855247
30
0
41
1
10
0.401108130389161
20
-11.1326092035909
30
0
41
1
10
0.407391363284773
20
-11.1302941327085
30
0
41
1
10
0.409359911166746
20
-11.1279738226419
30
0
41
1
10
0.411758588645455
20
-11.120376774234
30
0
41
1
10
0.411446700103113
20
-11.1142498565473
30
0
41
1
10
0.407766825470617
20
-11.0970475640183
30
0
41
1
10
0.403038219661426
20
-11.0847336117631
30
0
41
1
10
0.387560797644767
20
-11.0518258049637
30
0
41
1
10
0.374663188185195
20
-11.0297313270701
30
0
41
1
10
0.355680213817095
20
-11.0007934437107
30
0
41
1
10
0.351049668056817
20
-10.9939656548854
30
0
41
1
10
0.346265877365283
20
-10.987126560104
30
0
0
SPLINE
5
25B
100
AcDbEntity
8
1
62
256
6
ByLayer
370
18
48
1
60
0
100
AcDbSpline
70
4
71
3
72
8
73
4
40
0
40
0
40
0
40
0
40
1
40
1
40
1
40
1
41
1
10
0
20
10.8143470869748
30
0
41
1
10
0.115404887590387
20
10.9101938054917
30
0
41
1
10
0.230827288584976
20
11.0060124131739
30
0
41
1
10
0.346265877365283
20
11.1018050043141
30
0
0
SPLINE
5
25C
100
AcDbEntity
8
1
62
256
6
ByLayer
370
18
48
1
60
0
100
AcDbSpline
70
4
71
3
72
8
73
4
40
0
40
0
40
0
40
0
40
1
40
1
40
1
40
1
41
1
10
0
20
-7.1641540266497
30
0
41
1
10
0.110951948162096
20
-7.43737501593759
30
0
41
1
10
0.226551674694576
20
-7.70813209030851
30
0
41
1
10
0.346265877365283
20
-7.97637607432429
30
0
0
SPLINE
5
25D
100
AcDbEntity
8
1
62
256
6
ByLayer
370
18
48
1
60
0
100
AcDbSpline
70
4
71
3
72
8
73
4
40
0
40
0
40
0
40
0
40
1
40
1
40
1
40
1
41
1
10
0
20
-9.67019146230109
30
0
41
1
10
0.113739105797208
20
-9.8607150529516
30
0
41
1
10
0.229219722500602
20
-10.0498655286572
30
0
41
1
10
0.346265877365283
20
-10.2376995361025
30
0
0
SPLINE
5
25E
100
AcDbEntity
8
1
62
256
6
ByLayer
370
18
48
1
60
0
100
AcDbSpline
70
4
71
3
72
22
73
18
40
0
40
0
40
0
40
0
40
0.047912519068037
40
0.047912519068037
40
0.0820624641789727
40
0.0820624641789727
40
0.116468624686352
40
0.116468624686352
40
0.148035618421806
40
0.148035618421806
40
0.201848864027685
40
0.201848864027685
40
0.304248920768651
40
0.304248920768651
40
0.606177712089761
40
0.606177712089761
40
1
40
1
40
1
40
1
41
1
10
0.346265877365283
20
-6.56703185455439
30
0
41
1
10
0.351809765583312
20
-6.57237199788258
30
0
41
1
10
0.357684033582075
20
-6.57715094112274
30
0
41
1
10
0.367781181833095
20
-6.58298730596937
30
0
41
1
10
0.372080053091963
20
-6.58473778906733
30
0
41
1
10
0.380182470440388
20
-6.58619255022234
30
0
41
1
10
0.384078551334085
20
-6.58588028144888
30
0
41
1
10
0.390561356880767
20
-6.58341828742329
30
0
41
1
10
0.393310642457777
20
-6.58141760162408
30
0
41
1
10
0.399600857145344
20
-6.57461945814666
30
0
41
1
10
0.40250077969057
20
-6.56878804925816
30
0
41
1
10
0.408739250414726
20
-6.55029393553889
30
0
41
1
10
0.410422260473865
20
-6.53588369251832
30
0
41
1
10
0.412775529623787
20
-6.47787911164298
30
0
41
1
10
0.405949963550654
20
-6.42958064468257
30
0
41
1
10
0.384682204571789
20
-6.31927000907072
30
0
41
1
10
0.367332524316112
20
-6.25528269104478
30
0
41
1
10
0.346265877365283
20
-6.1920204313958
30
0
0
SPLINE
5
25F
100
AcDbEntity
8
1
62
256
6
ByLayer
370
18
48
1
60
0
100
AcDbSpline
70
4
71
3
72
22
73
18
40
0
40
0
40
0
40
0
40
0.278994554121862
40
0.278994554121862
40
0.431992036032686
40
0.431992036032686
40
0.552666573772419
40
0.552666573772419
40
0.648553314219654
40
0.648553314219654
40
0.744960055493873
40
0.744960055493873
40
0.834535819088658
40
0.834535819088658
40
0.961189644705772
40
0.961189644705772
40
1
40
1
40
1
40
1
41
1
10
0.346265877365283
20
-11.5541511286625
30
0
41
1
10
0.363411421661169
20
-11.57638920407
30
0
41
1
10
0.379066550646996
20
-11.5986681115014
30
0
41
1
10
0.397538236924731
20
-11.6295557843882
30
0
41
1
10
0.403071023539496
20
-11.6400215441734
30
0
41
1
10
0.409569583288032
20
-11.6560087830561
30
0
41
1
10
0.411286714963637
20
-11.6622372072947
30
0
41
1
10
0.411248946879653
20
-11.6703928249904
30
0
41
1
10
0.410105628114763
20
-11.6729948760845
30
0
41
1
10
0.405335505900212
20
-11.675354983723
30
0
41
1
10
0.401617619872525
20
-11.6751126740786
30
0
41
1
10
0.392577979999487
20
-11.6719915696825
30
0
41
1
10
0.387296366402552
20
-11.6692825034614
30
0
41
1
10
0.373500436120253
20
-11.660738655423
30
0
41
1
10
0.364347430904843
20
-11.6539747618803
30
0
41
1
10
0.352129910353142
20
-11.6440472880504
30
0
41
1
10
0.349206449933604
20
-11.6416084122315
30
0
41
1
10
0.346265877365283
20
-11.6390985947187
30
0
0
SPLINE
5
260
100
AcDbEntity
8
1
62
256
6
ByLayer
370
18
48
1
60
0
100
AcDbSpline
70
4
71
3
72
8
73
4
40
0
40
0
40
0
40
0
40
1
40
1
40
1
40
1
41
1
10
0
20
-11.0995541765226
30
0
41
1
10
0.114608295288519
20
-11.2519077114624
30
0
41
1
10
0.230055585113348
20
-11.4034243160505
30
0
41
1
10
0.346265877365283
20
-11.5541511286625
30
0
0
SPLINE
5
261
100
AcDbEntity
8
SK1
62
256
6
ByLayer
370
18
48
1
60
0
100
AcDbSpline
70
4
71
3
72
8
73
4
40
0
40
0
40
0
40
0
40
1
40
1
40
1
40
1
41
1
10
-0.238765877365267
20
-9.26365612288765
30
0
41
1
10
-0.160090205844085
20
-9.39987687468368
30
0
41
1
10
-0.080478593082205
20
-9.53538232680586
30
0
41
1
10
0
20
-9.67019146230109
30
0
0
SPLINE
5
262
100
AcDbEntity
8
SK1
62
256
6
ByLayer
370
18
48
1
60
0
100
AcDbSpline
70
4
71
3
72
16
73
12
40
0
40
0
40
0
40
0
40
0.193433579471105
40
0.193433579471105
40
0.391767673980788
40
0.391767673980788
40
0.569013280049542
40
0.569013280049542
40
0.72883115361672
40
0.72883115361672
40
1
40
1
40
1
40
1
41
1
10
-0.238765877365267
20
-8.97640635612146
30
0
41
1
10
-0.245038393437596
20
-8.97125004490377
30
0
41
1
10
-0.251435042692265
20
-8.96664634074145
30
0
41
1
10
-0.263867371760171
20
-8.95954936784651
30
0
41
1
10
-0.270054134436691
20
-8.95705473683878
30
0
41
1
10
-0.280192124794951
20
-8.95547795116542
30
0
41
1
10
-0.284433212958618
20
-8.95605705346574
30
0
41
1
10
-0.290753716088602
20
-8.95942545428665
30
0
41
1
10
-0.293092798719158
20
-8.96200588568567
30
0
41
1
10
-0.297634717199344
20
-8.97062575318353
30
0
41
1
10
-0.29876587736527
20
-8.97792240770085
30
0
41
1
10
-0.29876587736527
20
-8.98591212938507
30
0
0
SPLINE
5
263
100
AcDbEntity
8
SK1
62
256
6
ByLayer
370
18
48
1
60
0
100
AcDbSpline
70
4
71
3
72
12
73
8
40
0
40
0
40
0
40
0
40
0.297414859089309
40
0.297414859089309
40
0.799854936445216
40
0.799854936445216
40
1
40
1
40
1
40
1
41
1
10
-0.29876587736527
20
-9.10320707424387
30
0
41
1
10
-0.298765877362996
20
-9.11599358349343
30
0
41
1
10
-0.29578495149002
20
-9.13110530495646
30
0
41
1
10
-0.28374599238083
20
-9.17283777111277
30
0
41
1
10
-0.271680716458263
20
-9.20126910941363
30
0
41
1
10
-0.251545879823823
20
-9.24085646295393
30
0
41
1
10
-0.24534081883894
20
-9.25227212764182
30
0
41
1
10
-0.238765877365267
20
-9.26365612288765
30
0
0
SPLINE
5
264
100
AcDbEntity
8
SK1
62
256
6
ByLayer
370
18
48
1
60
0
100
AcDbSpline
70
4
71
3
72
8
73
4
40
0
40
0
40
0
40
0
40
1
40
1
40
1
40
1
41
1
10
0
20
-9.17265517271642
30
0
41
1
10
-0.0795923986217986
20
-9.10724502123347
30
0
41
1
10
-0.159181106889775
20
-9.0418288819516
30
0
41
1
10
-0.238765877365267
20
-8.97640635612146
30
0
0
LINE
5
7E
100
AcDbEntity
8
1
62
256
6
ByLayer
370
18
48
1
60
0
100
AcDbLine
10
19.95444
20
-10.875099
30
0
11
19.949178
21
-10.77469
31
0
39
0
210
0
220
0
230
1
0
LINE
5
7F
100
AcDbEntity
8
1
62
256
6
ByLayer
370
18
48
1
60
0
100
AcDbLine
10
22.491035
20
-10.509174
30
0
11
22.497038
21
-10.623719
31
0
39
0
210
0
220
0
230
1
0
LINE
5
80
100
AcDbEntity
8
1
62
256
6
ByLayer
370
18
48
1
60
0
100
AcDbLine
10
21.989468
20
-9.109308
30
0
11
21.995463
21
-9.223701
31
0
39
0
210
0
220
0
230
1
0
LINE
5
81
100
AcDbEntity
8
1
62
256
6
ByLayer
370
18
48
1
60
0
100
AcDbLine
10
20.033625
20
-10.917541
30
0
11
20.038887
21
-11.01795
31
0
39
0
210
0
220
0
230
1
0
LINE
5
82
100
AcDbEntity
8
1
62
256
6
ByLayer
370
18
48
1
60
0
100
AcDbLine
10
21.526914
20
-11.63369
30
0
11
21.532917
21
-11.748234
31
0
39
0
210
0
220
0
230
1
0
LINE
5
83
100
AcDbEntity
8
1
62
256
6
ByLayer
370
18
48
1
60
0
100
AcDbLine
10
23.650113
20
-10.102229
30
0
11
23.650109
21
-10.102135
31
0
39
0
210
0
220
0
230
1
0
LINE
5
84
100
AcDbEntity
8
1
62
256
6
ByLayer
370
18
48
1
60
0
100
AcDbLine
10
20.04454
20
-9.126089
30
0
11
20.050543
21
-9.240634
31
0
39
0
210
0
220
0
230
1
0
LINE
5
85
100
AcDbEntity
8
1
62
256
6
ByLayer
370
18
48
1
60
0
100
AcDbLine
10
20.558188
20
-11.643651
30
0
11
20.564191
21
-11.758195
31
0
39
0
210
0
220
0
230
1
0
LINE
5
86
100
AcDbEntity
8
1
62
256
6
ByLayer
370
18
48
1
60
0
100
AcDbLine
10
19.572621
20
-10.527866
30
0
11
19.578616
21
-10.642259
31
0
39
0
210
0
220
0
230
1
0
LINE
5
87
100
AcDbEntity
8
1
62
256
6
ByLayer
370
18
48
1
60
0
100
AcDbLine
10
24.926079
20
-6.07665
30
0
11
24.887409
21
-6.058829
31
0
39
0
210
0
220
0
230
1
0
LINE
5
88
100
AcDbEntity
8
1
62
256
6
ByLayer
370
18
48
1
60
0
100
AcDbLine
10
25.785098
20
-19.779676
30
0
11
16.217635
21
-13.82505
31
0
39
0
210
0
220
0
230
1
0
LINE
5
89
100
AcDbEntity
8
1
62
256
6
ByLayer
370
18
48
1
60
0
100
AcDbLine
10
25.786443
20
-6.857165
30
0
11
25.731593
21
-6.570139
31
0
39
0
210
0
220
0
230
1
0
LINE
5
8A
100
AcDbEntity
8
1
62
256
6
ByLayer
370
18
48
1
60
0
100
AcDbLine
10
26.410622
20
-7.842318
30
0
11
26.998895
21
-19.067243
31
0
39
0
210
0
220
0
230
1
0
LINE
5
8B
100
AcDbEntity
8
1
62
256
6
ByLayer
370
18
48
1
60
0
100
AcDbLine
10
16.28512
20
-0.943706
30
0
11
25.852582
21
-6.898332
31
0
39
0
210
0
220
0
230
1
0
LINE
5
8C
100
AcDbEntity
8
1
62
256
6
ByLayer
370
18
48
1
60
0
100
AcDbLine
10
22.852191
20
-4.838589
30
0
11
21.97679
21
-4.260513
31
0
39
0
210
0
220
0
230
1
0
LINE
5
8D
100
AcDbEntity
8
1
62
256
6
ByLayer
370
18
48
1
60
0
100
AcDbLine
10
24.770831
20
-5.995199
30
0
11
23.808137
21
-5.433553
31
0
39
0
210
0
220
0
230
1
0
LINE
5
8E
100
AcDbEntity
8
1
62
256
6
ByLayer
370
18
48
1
60
0
100
AcDbLine
10
15.659596
20
-12.881064
30
0
11
15.071322
21
-1.65614
31
0
39
0
210
0
220
0
230
1
0
LINE
5
8F
100
AcDbEntity
8
1
62
256
6
ByLayer
370
18
48
1
60
0
100
AcDbLine
10
25.103134
20
-6.178997
30
0
11
25.731593
21
-6.570139
31
0
39
0
210
0
220
0
230
1
0
LINE
5
90
100
AcDbEntity
8
SK1
62
256
6
ByLayer
370
18
48
1
60
0
100
AcDbLine
10
0
20
11.848403
30
0
11
0
21
11.947023
31
0
39
0
210
0
220
0
230
1
0
LINE
5
92
100
AcDbEntity
8
SK1
62
256
6
ByLayer
370
18
48
1
60
0
100
AcDbLine
10
0
20
11.947023
30
0
11
0
21
11.955031
31
0
39
0
210
0
220
0
230
1
0
LINE
5
93
100
AcDbEntity
8
SK1
62
256
6
ByLayer
370
18
48
1
60
0
100
AcDbLine
10
-0.108253
20
11.845921
30
0
11
-0.108253
21
11.726236
31
0
39
0
210
0
220
0
230
1
0
LINE
5
94
100
AcDbEntity
8
SK1
62
256
6
ByLayer
370
18
48
1
60
0
100
AcDbLine
10
-0.238766
20
-9.909591
30
0
11
-0.238766
21
-9.263641
31
0
39
0
210
0
220
0
230
1
0
LINE
5
95
100
AcDbEntity
8
SK1
62
256
6
ByLayer
370
18
48
1
60
0
100
AcDbLine
10
0
20
-10.104769
30
0
11
0
21
-9.670166
31
0
39
0
210
0
220
0
230
1
0
LINE
5
96
100
AcDbEntity
8
SK1
62
256
6
ByLayer
370
18
48
1
60
0
100
AcDbLine
10
-0.298766
20
-9.905096
30
0
11
-0.298766
21
-9.993951
31
0
39
0
210
0
220
0
230
1
0
LINE
5
97
100
AcDbEntity
8
SK1
62
256
6
ByLayer
370
18
48
1
60
0
100
AcDbLine
10
0
20
9.172655
30
0
11
0
21
9.670191
31
0
39
0
210
0
220
0
230
1
0
LINE
5
98
100
AcDbEntity
8
SK1
62
256
6
ByLayer
370
18
48
1
60
0
100
AcDbLine
10
0
20
9.172655
30
0
11
0
21
8.601222
31
0
39
0
210
0
220
0
230
1
0
LINE
5
99
100
AcDbEntity
8
SK1
62
256
6
ByLayer
370
18
48
1
60
0
100
AcDbLine
10
-0.298766
20
-9.905096
30
0
11
-0.298766
21
-9.125268
31
0
39
0
210
0
220
0
230
1
0
LINE
5
9A
100
AcDbEntity
8
SK1
62
256
6
ByLayer
370
18
48
1
60
0
100
AcDbLine
10
0
20
-7.164154
30
0
11
0
21
-6.230979
31
0
39
0
210
0
220
0
230
1
0
LINE
5
9B
100
AcDbEntity
8
SK1
62
256
6
ByLayer
370
18
48
1
60
0
100
AcDbLine
10
-0.298766
20
-6.053345
30
0
11
-0.298766
21
-3.617441
31
0
39
0
210
0
220
0
230
1
0
LINE
5
9C
100
AcDbEntity
8
SK1
62
256
6
ByLayer
370
18
48
1
60
0
100
AcDbLine
10
-0.298766
20
3.617441
30
0
11
-0.298766
21
6.053345
31
0
39
0
210
0
220
0
230
1
0
LINE
5
9D
100
AcDbEntity
8
SK1
62
256
6
ByLayer
370
18
48
1
60
0
100
AcDbLine
10
0
20
6.230979
30
0
11
0
21
7.164154
31
0
39
0
210
0
220
0
230
1
0
LINE
5
9E
100
AcDbEntity
8
SK1
62
256
6
ByLayer
370
18
48
1
60
0
100
AcDbLine
10
-0.238766
20
-5.996051
30
0
11
-0.238766
21
-4.100175
31
0
39
0
210
0
220
0
230
1
0
LINE
5
9F
100
AcDbEntity
8
SK1
62
256
6
ByLayer
370
18
48
1
60
0
100
AcDbLine
10
-0.238766
20
4.100175
30
0
11
-0.238766
21
5.996051
31
0
39
0
210
0
220
0
230
1
0
LINE
5
A0
100
AcDbEntity
8
SK1
62
256
6
ByLayer
370
18
48
1
60
0
100
AcDbLine
10
0
20
6.230979
30
0
11
0
21
5.053908
31
0
39
0
210
0
220
0
230
1
0
LINE
5
A1
100
AcDbEntity
8
SK1
62
256
6
ByLayer
370
18
48
1
60
0
100
AcDbLine
10
0
20
-5.053908
30
0
11
0
21
-6.230979
31
0
39
0
210
0
220
0
230
1
0
LINE
5
A2
100
AcDbEntity
8
SK1
62
256
6
ByLayer
370
18
48
1
60
0
100
AcDbLine
10
-0.298766
20
-6.053345
30
0
11
-0.298766
21
-6.282675
31
0
39
0
210
0
220
0
230
1
0
LINE
5
A3
100
AcDbEntity
8
SK1
62
256
6
ByLayer
370
18
48
1
60
0
100
AcDbLine
10
-0.298766
20
-3.147011
30
0
11
-0.298766
21
3.147011
31
0
39
0
210
0
220
0
230
1
0
LINE
5
A4
100
AcDbEntity
8
SK1
62
256
6
ByLayer
370
18
48
1
60
0
100
AcDbLine
10
-0.298766
20
3.617502
30
0
11
-0.298766
21
3.147011
31
0
39
0
210
0
220
0
230
1
0
LINE
5
A5
100
AcDbEntity
8
SK1
62
256
6
ByLayer
370
18
48
1
60
0
100
AcDbLine
10
0
20
-3.388415
30
0
11
0
21
3.388415
31
0
39
0
210
0
220
0
230
1
0
LINE
5
A6
100
AcDbEntity
8
SK1
62
256
6
ByLayer
370
18
48
1
60
0
100
AcDbLine
10
-0.238766
20
-2.992241
30
0
11
-0.238766
21
2.992241
31
0
39
0
210
0
220
0
230
1
0
LINE
5
A7
100
AcDbEntity
8
SK1
62
256
6
ByLayer
370
18
48
1
60
0
100
AcDbLine
10
0
20
-5.054093
30
0
11
0
21
-3.388415
31
0
39
0
210
0
220
0
230
1
0
LINE
5
A8
100
AcDbEntity
8
SK1
62
256
6
ByLayer
370
18
48
1
60
0
100
AcDbLine
10
0
20
3.388415
30
0
11
0
21
5.054093
31
0
39
0
210
0
220
0
230
1
0
LINE
5
A9
100
AcDbEntity
8
SK1
62
256
6
ByLayer
370
18
48
1
60
0
100
AcDbLine
10
-0.298766
20
-3.147011
30
0
11
-0.298766
21
-3.617502
31
0
39
0
210
0
220
0
230
1
0
LINE
5
AA
100
AcDbEntity
8
SK1
62
256
6
ByLayer
370
18
48
1
60
0
100
AcDbLine
10
0
20
-11.548002
30
0
11
0
21
-11.343229
31
0
39
0
210
0
220
0
230
1
0
LINE
5
AB
100
AcDbEntity
8
SK1
62
256
6
ByLayer
370
18
48
1
60
0
100
AcDbLine
10
-0.298766
20
-11.111461
30
0
11
-0.298766
21
-11.159097
31
0
39
0
210
0
220
0
230
1
0
LINE
5
AC
100
AcDbEntity
8
SK1
62
256
6
ByLayer
370
18
48
1
60
0
100
AcDbLine
10
0
20
-11.343229
30
0
11
0
21
-11.099518
31
0
39
0
210
0
220
0
230
1
0
LINE
5
AD
100
AcDbEntity
8
SK1
62
256
6
ByLayer
370
18
48
1
60
0
100
AcDbLine
10
-0.298766
20
-11.111461
30
0
11
-0.298766
21
-10.666044
31
0
39
0
210
0
220
0
230
1
0
LINE
5
AE
100
AcDbEntity
8
SK1
62
256
6
ByLayer
370
18
48
1
60
0
100
AcDbLine
10
-0.238766
20
-11.138817
30
0
11
-0.238766
21
-10.779197
31
0
39
0
210
0
220
0
230
1
0
LINE
5
AF
100
AcDbEntity
8
SK1
62
256
6
ByLayer
370
18
48
1
60
0
100
AcDbLine
10
0
20
-10.484219
30
0
11
0
21
-10.104769
31
0
39
0
210
0
220
0
230
1
0
LINE
5
B0
100
AcDbEntity
8
SK1
62
256
6
ByLayer
370
18
48
1
60
0
100
AcDbLine
10
-0.298766
20
7.96707
30
0
11
-0.298766
21
8.985912
31
0
39
0
210
0
220
0
230
1
0
LINE
5
B1
100
AcDbEntity
8
SK1
62
256
6
ByLayer
370
18
48
1
60
0
100
AcDbLine
10
-0.238766
20
8.120312
30
0
11
-0.238766
21
8.976406
31
0
39
0
210
0
220
0
230
1
0
LINE
5
B2
100
AcDbEntity
8
SK1
62
256
6
ByLayer
370
18
48
1
60
0
100
AcDbLine
10
-0.298766
20
10.666056
30
0
11
-0.298766
21
10.59954
31
0
39
0
210
0
220
0
230
1
0
LINE
5
B3
100
AcDbEntity
8
SK1
62
256
6
ByLayer
370
18
48
1
60
0
100
AcDbLine
10
0
20
10.814347
30
0
11
0
21
10.484191
31
0
39
0
210
0
220
0
230
1
0
LINE
5
B4
100
AcDbEntity
8
SK1
62
256
6
ByLayer
370
18
48
1
60
0
100
AcDbLine
10
-0.298766
20
9.993951
30
0
11
-0.298766
21
10.59954
31
0
39
0
210
0
220
0
230
1
0
LINE
5
B5
100
AcDbEntity
8
SK1
62
256
6
ByLayer
370
18
48
1
60
0
100
AcDbLine
10
0
20
10.814347
30
0
11
0
21
11.099554
31
0
39
0
210
0
220
0
230
1
0
LINE
5
B6
100
AcDbEntity
8
SK1
62
256
6
ByLayer
370
18
48
1
60
0
100
AcDbLine
10
-0.238766
20
10.127467
30
0
11
-0.238766
21
10.615984
31
0
39
0
210
0
220
0
230
1
0
LINE
5
B7
100
AcDbEntity
8
SK1
62
256
6
ByLayer
370
18
48
1
60
0
100
AcDbLine
10
-0.298766
20
11.159097
30
0
11
-0.298766
21
11.111461
31
0
39
0
210
0
220
0
230
1
0
LINE
5
B8
100
AcDbEntity
8
SK1
62
256
6
ByLayer
370
18
48
1
60
0
100
AcDbLine
10
-0.298766
20
10.666044
30
0
11
-0.298766
21
11.111461
31
0
39
0
210
0
220
0
230
1
0
LINE
5
B9
100
AcDbEntity
8
SK1
62
256
6
ByLayer
370
18
48
1
60
0
100
AcDbLine
10
-0.238766
20
10.779197
30
0
11
-0.238766
21
11.138817
31
0
39
0
210
0
220
0
230
1
0
LINE
5
BA
100
AcDbEntity
8
SK1
62
256
6
ByLayer
370
18
48
1
60
0
100
AcDbLine
10
0
20
11.343229
30
0
11
0
21
11.548002
31
0
39
0
210
0
220
0
230
1
0
LINE
5
BB
100
AcDbEntity
8
SK1
62
256
6
ByLayer
370
18
48
1
60
0
100
AcDbLine
10
0
20
11.099518
30
0
11
0
21
11.343229
31
0
39
0
210
0
220
0
230
1
0
LINE
5
BC
100
AcDbEntity
8
SK1
62
256
6
ByLayer
370
18
48
1
60
0
100
AcDbLine
10
0
20
-8.601241
30
0
11
0
21
-7.940016
31
0
39
0
210
0
220
0
230
1
0
LINE
5
BD
100
AcDbEntity
8
SK1
62
256
6
ByLayer
370
18
48
1
60
0
100
AcDbLine
10
0
20
-7.940016
30
0
11
0
21
-7.164127
31
0
39
0
210
0
220
0
230
1
0
LINE
5
BE
100
AcDbEntity
8
SK1
62
256
6
ByLayer
370
18
48
1
60
0
100
AcDbLine
10
0
20
7.164127
30
0
11
0
21
7.940016
31
0
39
0
210
0
220
0
230
1
0
LINE
5
BF
100
AcDbEntity
8
SK1
62
256
6
ByLayer
370
18
48
1
60
0
100
AcDbLine
10
-0.298766
20
-7.762558
30
0
11
-0.298766
21
-6.282578
31
0
39
0
210
0
220
0
230
1
0
LINE
5
C0
100
AcDbEntity
8
SK1
62
256
6
ByLayer
370
18
48
1
60
0
100
AcDbLine
10
-0.298766
20
6.282578
30
0
11
-0.298766
21
7.762558
31
0
39
0
210
0
220
0
230
1
0
LINE
5
C1
100
AcDbEntity
8
SK1
62
256
6
ByLayer
370
18
48
1
60
0
100
AcDbLine
10
-0.238766
20
-7.734775
30
0
11
-0.238766
21
-6.552563
31
0
39
0
210
0
220
0
230
1
0
LINE
5
C2
100
AcDbEntity
8
SK1
62
256
6
ByLayer
370
18
48
1
60
0
100
AcDbLine
10
-0.238766
20
6.552563
30
0
11
-0.238766
21
7.734775
31
0
39
0
210
0
220
0
230
1
0
LINE
5
C3
100
AcDbEntity
8
SK1
62
256
6
ByLayer
370
18
48
1
60
0
100
AcDbLine
10
-0.298766
20
-7.762558
30
0
11
-0.298766
21
-7.920397
31
0
39
0
210
0
220
0
230
1
0
LINE
5
C4
100
AcDbEntity
8
SK1
62
256
6
ByLayer
370
18
48
1
60
0
100
AcDbLine
10
0
20
7.940016
30
0
11
0
21
8.601241
31
0
39
0
210
0
220
0
230
1
0
LINE
5
C5
100
AcDbEntity
8
SK1
62
256
6
ByLayer
370
18
48
1
60
0
100
AcDbLine
10
-0.298766
20
6.282675
30
0
11
-0.298766
21
6.053345
31
0
39
0
210
0
220
0
230
1
0
LINE
5
C6
100
AcDbEntity
8
SK1
62
256
6
ByLayer
370
18
48
1
60
0
100
AcDbLine
10
-0.298766
20
7.920397
30
0
11
-0.298766
21
7.762558
31
0
39
0
210
0
220
0
230
1
0
LINE
5
C7
100
AcDbEntity
8
SK1
62
256
6
ByLayer
370
18
48
1
60
0
100
AcDbLine
10
-0.298766
20
9.103207
30
0
11
-0.298766
21
8.985912
31
0
39
0
210
0
220
0
230
1
0
LINE
5
C8
100
AcDbEntity
8
SK1
62
256
6
ByLayer
370
18
48
1
60
0
100
AcDbLine
10
0
20
10.104769
30
0
11
0
21
10.484219
31
0
39
0
210
0
220
0
230
1
0
LINE
5
C9
100
AcDbEntity
8
SK1
62
256
6
ByLayer
370
18
48
1
60
0
100
AcDbLine
10
-0.298766
20
9.993951
30
0
11
-0.298766
21
9.905096
31
0
39
0
210
0
220
0
230
1
0
LINE
5
CA
100
AcDbEntity
8
SK1
62
256
6
ByLayer
370
18
48
1
60
0
100
AcDbLine
10
0
20
9.670166
30
0
11
0
21
10.104769
31
0
39
0
210
0
220
0
230
1
0
LINE
5
CB
100
AcDbEntity
8
SK1
62
256
6
ByLayer
370
18
48
1
60
0
100
AcDbLine
10
-0.238766
20
9.263641
30
0
11
-0.238766
21
9.909591
31
0
39
0
210
0
220
0
230
1
0
LINE
5
CC
100
AcDbEntity
8
SK1
62
256
6
ByLayer
370
18
48
1
60
0
100
AcDbLine
10
-0.298766
20
9.103218
30
0
11
-0.298766
21
9.905096
31
0
39
0
210
0
220
0
230
1
0
LINE
5
CD
100
AcDbEntity
8
SK1
62
256
6
ByLayer
370
18
48
1
60
0
100
AcDbLine
10
-0.298766
20
-10.59954
30
0
11
-0.298766
21
-10.666056
31
0
39
0
210
0
220
0
230
1
0
LINE
5
CE
100
AcDbEntity
8
SK1
62
256
6
ByLayer
370
18
48
1
60
0
100
AcDbLine
10
-0.238766
20
-10.615984
30
0
11
-0.238766
21
-10.127467
31
0
39
0
210
0
220
0
230
1
0
LINE
5
CF
100
AcDbEntity
8
SK1
62
256
6
ByLayer
370
18
48
1
60
0
100
AcDbLine
10
0
20
-11.099554
30
0
11
0
21
-10.814347
31
0
39
0
210
0
220
0
230
1
0
LINE
5
D0
100
AcDbEntity
8
SK1
62
256
6
ByLayer
370
18
48
1
60
0
100
AcDbLine
10
-0.298766
20
-10.59954
30
0
11
-0.298766
21
-9.993951
31
0
39
0
210
0
220
0
230
1
0
LINE
5
D1
100
AcDbEntity
8
SK1
62
256
6
ByLayer
370
18
48
1
60
0
100
AcDbLine
10
0
20
-10.484191
30
0
11
0
21
-10.814347
31
0
39
0
210
0
220
0
230
1
0
LINE
5
D2
100
AcDbEntity
8
SK1
62
256
6
ByLayer
370
18
48
1
60
0
100
AcDbLine
10
0
20
11.715912
30
0
11
0
21
11.547995
31
0
39
0
210
0
220
0
230
1
0
LINE
5
D3
100
AcDbEntity
8
SK1
62
256
6
ByLayer
370
18
48
1
60
0
100
AcDbLine
10
-0.298766
20
11.496135
30
0
11
-0.298766
21
11.465333
31
0
39
0
210
0
220
0
230
1
0
LINE
5
D4
100
AcDbEntity
8
SK1
62
256
6
ByLayer
370
18
48
1
60
0
100
AcDbLine
10
-0.298766
20
11.159033
30
0
11
-0.298766
21
11.465333
31
0
39
0
210
0
220
0
230
1
0
LINE
5
D5
100
AcDbEntity
8
SK1
62
256
6
ByLayer
370
18
48
1
60
0
100
AcDbLine
10
0
20
11.715912
30
0
11
0
21
11.848527
31
0
39
0
210
0
220
0
230
1
0
LINE
5
D6
100
AcDbEntity
8
SK1
62
256
6
ByLayer
370
18
48
1
60
0
100
AcDbLine
10
-0.238766
20
11.255741
30
0
11
-0.238766
21
11.503145
31
0
39
0
210
0
220
0
230
1
0
LINE
5
D7
100
AcDbEntity
8
SK1
62
256
6
ByLayer
370
18
48
1
60
0
100
AcDbLine
10
0
20
-11.547995
30
0
11
0
21
-11.715912
31
0
39
0
210
0
220
0
230
1
0
LINE
5
D8
100
AcDbEntity
8
SK1
62
256
6
ByLayer
370
18
48
1
60
0
100
AcDbLine
10
-0.238766
20
-11.503145
30
0
11
-0.238766
21
-11.255741
31
0
39
0
210
0
220
0
230
1
0
LINE
5
D9
100
AcDbEntity
8
SK1
62
256
6
ByLayer
370
18
48
1
60
0
100
AcDbLine
10
0
20
-11.848527
30
0
11
0
21
-11.715912
31
0
39
0
210
0
220
0
230
1
0
LINE
5
DA
100
AcDbEntity
8
SK1
62
256
6
ByLayer
370
18
48
1
60
0
100
AcDbLine
10
-0.298766
20
-11.465333
30
0
11
-0.298766
21
-11.159033
31
0
39
0
210
0
220
0
230
1
0
LINE
5
DB
100
AcDbEntity
8
SK1
62
256
6
ByLayer
370
18
48
1
60
0
100
AcDbLine
10
-0.298766
20
-11.465333
30
0
11
-0.298766
21
-11.496135
31
0
39
0
210
0
220
0
230
1
0
LINE
5
DC
100
AcDbEntity
8
SK1
62
256
6
ByLayer
370
18
48
1
60
0
100
AcDbLine
10
0
20
-11.955031
30
0
11
0
21
-11.947023
31
0
39
0
210
0
220
0
230
1
0
LINE
5
DD
100
AcDbEntity
8
SK1
62
256
6
ByLayer
370
18
48
1
60
0
100
AcDbLine
10
0
20
-11.947023
30
0
11
0
21
-11.848403
31
0
39
0
210
0
220
0
230
1
0
LINE
5
DE
100
AcDbEntity
8
SK1
62
256
6
ByLayer
370
18
48
1
60
0
100
AcDbLine
10
-0.108253
20
-11.726236
30
0
11
-0.108253
21
-11.845921
31
0
39
0
210
0
220
0
230
1
0
LINE
5
DF
100
AcDbEntity
8
1
62
256
6
ByLayer
370
18
48
1
60
0
100
AcDbLine
10
5.640294
20
-12.409674
30
0
11
0.451234
21
-12.409674
31
0
39
0
210
0
220
0
230
1
0
LINE
5
E0
100
AcDbEntity
8
1
62
256
6
ByLayer
370
18
48
1
60
0
100
AcDbLine
10
7.697347
20
-11.966264
30
0
11
7.559569
21
-11.918539
31
0
39
0
210
0
220
0
230
1
0
LINE
5
E1
100
AcDbEntity
8
1
62
256
6
ByLayer
370
18
48
1
60
0
100
AcDbLine
10
0
20
10.814347
30
0
11
0
21
10.484191
31
0
39
0
210
0
220
0
230
1
0
LINE
5
E2
100
AcDbEntity
8
1
62
256
6
ByLayer
370
18
48
1
60
0
100
AcDbLine
10
25.346636
20
-4.522873
30
0
11
23.801584
21
-5.429735
31
0
39
0
210
0
220
0
230
1
0
LINE
5
E3
100
AcDbEntity
8
1
62
256
6
ByLayer
370
18
48
1
60
0
100
AcDbLine
10
15.523729
20
-10.288388
30
0
11
14.144262
21
-11.098061
31
0
39
0
210
0
220
0
230
1
0
LINE
5
E4
100
AcDbEntity
8
1
62
256
6
ByLayer
370
18
48
1
60
0
100
AcDbLine
10
0.346266
20
11.964676
30
0
11
0.346266
21
12.0234
31
0
39
0
210
0
220
0
230
1
0
LINE
5
E5
100
AcDbEntity
8
1
62
256
6
ByLayer
370
18
48
1
60
0
100
AcDbLine
10
24.839275
20
-3.664614
30
0
11
24.364979
21
-2.819701
31
0
39
0
210
0
220
0
230
1
0
LINE
5
E6
100
AcDbEntity
8
1
62
256
6
ByLayer
370
18
48
1
60
0
100
AcDbLine
10
24.417417
20
-2.483739
30
0
11
25.505242
21
-4.323915
31
0
39
0
210
0
220
0
230
1
0
LINE
5
E7
100
AcDbEntity
8
1
62
256
6
ByLayer
370
18
48
1
60
0
100
AcDbLine
10
0
20
-7.940016
30
0
11
0
21
-7.164127
31
0
39
0
210
0
220
0
230
1
0
LINE
5
E8
100
AcDbEntity
8
1
62
256
6
ByLayer
370
18
48
1
60
0
100
AcDbLine
10
0
20
7.164127
30
0
11
0
21
7.940016
31
0
39
0
210
0
220
0
230
1
0
LINE
5
E9
100
AcDbEntity
8
1
62
256
6
ByLayer
370
18
48
1
60
0
100
AcDbLine
10
0.451234
20
12.409674
30
0
11
5.055044
21
12.409674
31
0
39
0
210
0
220
0
230
1
0
LINE
5
EA
100
AcDbEntity
8
1
62
256
6
ByLayer
370
18
48
1
60
0
100
AcDbLine
10
24.417417
20
-2.483739
30
0
11
21.584778
21
-4.146344
31
0
39
0
210
0
220
0
230
1
0
LINE
5
EB
100
AcDbEntity
8
1
62
256
6
ByLayer
370
18
48
1
60
0
100
AcDbLine
10
15.392485
20
-7.780885
30
0
11
12.870354
21
-9.26124
31
0
39
0
210
0
220
0
230
1
0
LINE
5
EC
100
AcDbEntity
8
1
62
256
6
ByLayer
370
18
48
1
60
0
100
AcDbLine
10
25.53115
20
-4.818256
30
0
11
25.528737
21
-4.772219
31
0
39
0
210
0
220
0
230
1
0
LINE
5
ED
100
AcDbEntity
8
1
62
256
6
ByLayer
370
18
48
1
60
0
100
AcDbLine
10
0
20
-11.099554
30
0
11
0
21
-10.814347
31
0
39
0
210
0
220
0
230
1
0
LINE
5
EE
100
AcDbEntity
8
1
62
256
6
ByLayer
370
18
48
1
60
0
100
AcDbLine
10
0
20
10.104769
30
0
11
0
21
10.484219
31
0
39
0
210
0
220
0
230
1
0
LINE
5
EF
100
AcDbEntity
8
1
62
256
6
ByLayer
370
18
48
1
60
0
100
AcDbLine
10
0.346266
20
-12.0234
30
0
11
0.346266
21
-11.964676
31
0
39
0
210
0
220
0
230
1
0
LINE
5
F0
100
AcDbEntity
8
1
62
256
6
ByLayer
370
18
48
1
60
0
100
AcDbLine
10
13.039949
20
4.900887
30
0
11
20.276968
21
4.900887
31
0
39
0
210
0
220
0
230
1
0
LINE
5
F1
100
AcDbEntity
8
1
62
256
6
ByLayer
370
18
48
1
60
0
100
AcDbLine
10
24.549352
20
1.749664
30
0
11
18.353476
21
-1.886981
31
0
39
0
210
0
220
0
230
1
0
LINE
5
F2
100
AcDbEntity
8
1
62
256
6
ByLayer
370
18
48
1
60
0
100
AcDbLine
10
6.211135
20
8.46908
30
0
11
6.211135
21
8.733478
31
0
39
0
210
0
220
0
230
1
0
LINE
5
F3
100
AcDbEntity
8
1
62
256
6
ByLayer
370
18
48
1
60
0
100
AcDbLine
10
7.638982
20
-11.619497
30
0
11
7.534647
21
-11.443002
31
0
39
0
210
0
220
0
230
1
0
LINE
5
F4
100
AcDbEntity
8
1
62
256
6
ByLayer
370
18
48
1
60
0
100
AcDbLine
10
14.82039
20
-2.600259
30
0
11
14.313028
21
-1.742
31
0
39
0
210
0
220
0
230
1
0
LINE
5
F5
100
AcDbEntity
8
1
62
256
6
ByLayer
370
18
48
1
60
0
100
AcDbLine
10
15.587805
20
-11.510601
30
0
11
14.988405
21
-11.862417
31
0
39
0
210
0
220
0
230
1
0
LINE
5
F6
100
AcDbEntity
8
1
62
256
6
ByLayer
370
18
48
1
60
0
100
AcDbLine
10
0.346266
20
12.234513
30
0
11
0.346266
21
12.269095
31
0
39
0
210
0
220
0
230
1
0
LINE
5
F7
100
AcDbEntity
8
1
62
256
6
ByLayer
370
18
48
1
60
0
100
AcDbLine
10
0
20
11.848403
30
0
11
0
21
11.947023
31
0
39
0
210
0
220
0
230
1
0
LINE
5
F8
100
AcDbEntity
8
1
62
256
6
ByLayer
370
18
48
1
60
0
100
AcDbLine
10
14.999825
20
-11.879356
30
0
11
14.999962
21
-11.881967
31
0
39
0
210
0
220
0
230
1
0
LINE
5
F9
100
AcDbEntity
8
1
62
256
6
ByLayer
370
18
48
1
60
0
100
AcDbLine
10
0.346266
20
10.237659
30
0
11
0.346266
21
10.387807
31
0
39
0
210
0
220
0
230
1
0
LINE
5
FA
100
AcDbEntity
8
1
62
256
6
ByLayer
370
18
48
1
60
0
100
AcDbLine
10
14.847758
20
-3.122474
30
0
11
14.82039
21
-2.600259
31
0
39
0
210
0
220
0
230
1
0
LINE
5
FB
100
AcDbEntity
8
1
62
256
6
ByLayer
370
18
48
1
60
0
100
AcDbLine
10
0
20
9.670166
30
0
11
0
21
10.104769
31
0
39
0
210
0
220
0
230
1
0
LINE
5
FC
100
AcDbEntity
8
1
62
256
6
ByLayer
370
18
48
1
60
0
100
AcDbLine
10
0
20
-11.547995
30
0
11
0
21
-11.715912
31
0
39
0
210
0
220
0
230
1
0
LINE
5
FD
100
AcDbEntity
8
1
62
256
6
ByLayer
370
18
48
1
60
0
100
AcDbLine
10
0.346266
20
-6.567032
30
0
11
0.346266
21
-6.19189
31
0
39
0
210
0
220
0
230
1
0
LINE
5
FE
100
AcDbEntity
8
1
62
256
6
ByLayer
370
18
48
1
60
0
100
AcDbLine
10
0.346266
20
6.19189
30
0
11
0.346266
21
6.567032
31
0
39
0
210
0
220
0
230
1
0
LINE
5
FF
100
AcDbEntity
8
1
62
256
6
ByLayer
370
18
48
1
60
0
100
AcDbLine
10
8.442284
20
-7.171154
30
0
11
10.793268
21
-5.791254
31
0
39
0
210
0
220
0
230
1
0
LINE
5
100
100
AcDbEntity
8
1
62
256
6
ByLayer
370
18
48
1
60
0
100
AcDbLine
10
0
20
-11.343229
30
0
11
0
21
-11.099518
31
0
39
0
210
0
220
0
230
1
0
LINE
5
101
100
AcDbEntity
8
1
62
256
6
ByLayer
370
18
48
1
60
0
100
AcDbLine
10
24.364979
20
-2.819701
30
0
11
21.930213
21
-4.248777
31
0
39
0
210
0
220
0
230
1
0
LINE
5
102
100
AcDbEntity
8
1
62
256
6
ByLayer
370
18
48
1
60
0
100
AcDbLine
10
15.407981
20
-8.076975
30
0
11
13.162605
21
-9.394889
31
0
39
0
210
0
220
0
230
1
0
LINE
5
103
100
AcDbEntity
8
1
62
256
6
ByLayer
370
18
48
1
60
0
100
AcDbLine
10
14.144262
20
-11.098061
30
0
11
13.6369
21
-10.239802
31
0
39
0
210
0
220
0
230
1
0
LINE
5
104
100
AcDbEntity
8
1
62
256
6
ByLayer
370
18
48
1
60
0
100
AcDbLine
10
7.957605
20
-12.409674
30
0
11
7.697347
21
-11.966264
31
0
39
0
210
0
220
0
230
1
0
LINE
5
105
100
AcDbEntity
8
1
62
256
6
ByLayer
370
18
48
1
60
0
100
AcDbLine
10
0
20
9.172655
30
0
11
0
21
9.670191
31
0
39
0
210
0
220
0
230
1
0
LINE
5
106
100
AcDbEntity
8
1
62
256
6
ByLayer
370
18
48
1
60
0
100
AcDbLine
10
24.297952
20
2.135275
30
0
11
24.549352
21
1.749664
31
0
39
0
210
0
220
0
230
1
0
LINE
5
107
100
AcDbEntity
8
1
62
256
6
ByLayer
370
18
48
1
60
0
100
AcDbLine
10
0
20
-11.548002
30
0
11
0
21
-11.343229
31
0
39
0
210
0
220
0
230
1
0
LINE
5
108
100
AcDbEntity
8
1
62
256
6
ByLayer
370
18
48
1
60
0
100
AcDbLine
10
25.505242
20
-4.323915
30
0
11
25.528737
21
-4.772219
31
0
39
0
210
0
220
0
230
1
0
LINE
5
109
100
AcDbEntity
8
1
62
256
6
ByLayer
370
18
48
1
60
0
100
AcDbLine
10
0.346266
20
-12.269095
30
0
11
0.346266
21
-12.234513
31
0
39
0
210
0
220
0
230
1
0
LINE
5
10A
100
AcDbEntity
8
1
62
256
6
ByLayer
370
18
48
1
60
0
100
AcDbLine
10
0.346266
20
-11.639099
30
0
11
0.346266
21
-11.55409
31
0
39
0
210
0
220
0
230
1
0
LINE
5
10B
100
AcDbEntity
8
1
62
256
6
ByLayer
370
18
48
1
60
0
100
AcDbLine
10
0
20
6.230979
30
0
11
0
21
5.053908
31
0
39
0
210
0
220
0
230
1
0
LINE
5
10C
100
AcDbEntity
8
1
62
256
6
ByLayer
370
18
48
1
60
0
100
AcDbLine
10
0
20
-5.053908
30
0
11
0
21
-6.230979
31
0
39
0
210
0
220
0
230
1
0
LINE
5
10D
100
AcDbEntity
8
1
62
256
6
ByLayer
370
18
48
1
60
0
100
AcDbLine
10
24.839275
20
-3.664614
30
0
11
22.845952
21
-4.834587
31
0
39
0
210
0
220
0
230
1
0
LINE
5
10E
100
AcDbEntity
8
1
62
256
6
ByLayer
370
18
48
1
60
0
100
AcDbLine
10
15.464988
20
-9.166814
30
0
11
13.6369
21
-10.239802
31
0
39
0
210
0
220
0
230
1
0
LINE
5
10F
100
AcDbEntity
8
1
62
256
6
ByLayer
370
18
48
1
60
0
100
AcDbLine
10
15.016652
20
-2.523697
30
0
11
15.069615
21
-3.534284
31
0
39
0
210
0
220
0
230
1
0
LINE
5
110
100
AcDbEntity
8
1
62
256
6
ByLayer
370
18
48
1
60
0
100
AcDbLine
10
14.940904
20
-0.062067
30
0
11
14.907371
21
-0.081748
31
0
39
0
210
0
220
0
230
1
0
LINE
5
111
100
AcDbEntity
8
1
62
256
6
ByLayer
370
18
48
1
60
0
100
AcDbLine
10
0
20
11.947023
30
0
11
0
21
11.955031
31
0
39
0
210
0
220
0
230
1
0
LINE
5
112
100
AcDbEntity
8
1
62
256
6
ByLayer
370
18
48
1
60
0
100
AcDbLine
10
0
20
-11.955031
30
0
11
0
21
-11.947023
31
0
39
0
210
0
220
0
230
1
0
LINE
5
113
100
AcDbEntity
8
1
62
256
6
ByLayer
370
18
48
1
60
0
100
AcDbLine
10
7.706079
20
-11.324438
30
0
11
7.833721
21
-11.540359
31
0
39
0
210
0
220
0
230
1
0
LINE
5
114
100
AcDbEntity
8
1
62
256
6
ByLayer
370
18
48
1
60
0
100
AcDbLine
10
5.640248
20
-12.409674
30
0
11
7.957605
21
-12.409674
31
0
39
0
210
0
220
0
230
1
0
LINE
5
115
100
AcDbEntity
8
1
62
256
6
ByLayer
370
18
48
1
60
0
100
AcDbLine
10
0
20
9.172655
30
0
11
0
21
8.601222
31
0
39
0
210
0
220
0
230
1
0
LINE
5
116
100
AcDbEntity
8
1
62
256
6
ByLayer
370
18
48
1
60
0
100
AcDbLine
10
24.839275
20
-3.664614
30
0
11
25.346636
21
-4.522873
31
0
39
0
210
0
220
0
230
1
0
LINE
5
117
100
AcDbEntity
8
1
62
256
6
ByLayer
370
18
48
1
60
0
100
AcDbLine
10
0
20
-10.484191
30
0
11
0
21
-10.814347
31
0
39
0
210
0
220
0
230
1
0
LINE
5
118
100
AcDbEntity
8
1
62
256
6
ByLayer
370
18
48
1
60
0
100
AcDbLine
10
0
20
-11.947023
30
0
11
0
21
-11.848403
31
0
39
0
210
0
220
0
230
1
0
LINE
5
119
100
AcDbEntity
8
1
62
256
6
ByLayer
370
18
48
1
60
0
100
AcDbLine
10
0
20
-8.601241
30
0
11
0
21
-7.940016
31
0
39
0
210
0
220
0
230
1
0
LINE
5
11A
100
AcDbEntity
8
1
62
256
6
ByLayer
370
18
48
1
60
0
100
AcDbLine
10
12.258019
20
-4.931524
30
0
11
14.862453
21
-3.402862
31
0
39
0
210
0
220
0
230
1
0
LINE
5
11B
100
AcDbEntity
8
1
62
256
6
ByLayer
370
18
48
1
60
0
100
AcDbLine
10
0
20
3.388415
30
0
11
0
21
5.054093
31
0
39
0
210
0
220
0
230
1
0
LINE
5
11C
100
AcDbEntity
8
1
62
256
6
ByLayer
370
18
48
1
60
0
100
AcDbLine
10
7.559569
20
-11.918539
30
0
11
7.557438
21
-11.917801
31
0
39
0
210
0
220
0
230
1
0
LINE
5
11D
100
AcDbEntity
8
1
62
256
6
ByLayer
370
18
48
1
60
0
100
AcDbLine
10
0
20
-9.670191
30
0
11
0
21
-9.172655
31
0
39
0
210
0
220
0
230
1
0
LINE
5
11E
100
AcDbEntity
8
1
62
256
6
ByLayer
370
18
48
1
60
0
100
AcDbLine
10
25.562839
20
-5.422932
30
0
11
24.679018
21
-5.941687
31
0
39
0
210
0
220
0
230
1
0
LINE
5
11F
100
AcDbEntity
8
1
62
256
6
ByLayer
370
18
48
1
60
0
100
AcDbLine
10
0
20
7.940016
30
0
11
0
21
8.601241
31
0
39
0
210
0
220
0
230
1
0
LINE
5
120
100
AcDbEntity
8
1
62
256
6
ByLayer
370
18
48
1
60
0
100
AcDbLine
10
14.144262
20
-11.098061
30
0
11
14.584444
21
-11.802739
31
0
39
0
210
0
220
0
230
1
0
LINE
5
121
100
AcDbEntity
8
1
62
256
6
ByLayer
370
18
48
1
60
0
100
AcDbLine
10
14.971343
20
-11.872431
30
0
11
14.988405
21
-11.862417
31
0
39
0
210
0
220
0
230
1
0
LINE
5
122
100
AcDbEntity
8
1
62
256
6
ByLayer
370
18
48
1
60
0
100
AcDbLine
10
14.88956
20
-3.920112
30
0
11
8.693684
21
-7.556756
31
0
39
0
210
0
220
0
230
1
0
LINE
5
123
100
AcDbEntity
8
1
62
256
6
ByLayer
370
18
48
1
60
0
100
AcDbLine
10
0
20
-11.848527
30
0
11
0
21
-11.715912
31
0
39
0
210
0
220
0
230
1
0
LINE
5
124
100
AcDbEntity
8
1
62
256
6
ByLayer
370
18
48
1
60
0
100
AcDbLine
10
8.442284
20
-7.171145
30
0
11
8.693684
21
-7.556756
31
0
39
0
210
0
220
0
230
1
0
LINE
5
125
100
AcDbEntity
8
1
62
256
6
ByLayer
370
18
48
1
60
0
100
AcDbLine
10
17.877784
20
-1.633026
30
0
11
24.297953
21
2.135266
31
0
39
0
210
0
220
0
230
1
0
LINE
5
126
100
AcDbEntity
8
1
62
256
6
ByLayer
370
18
48
1
60
0
100
AcDbLine
10
0
20
-10.484219
30
0
11
0
21
-10.104769
31
0
39
0
210
0
220
0
230
1
0
LINE
5
127
100
AcDbEntity
8
1
62
256
6
ByLayer
370
18
48
1
60
0
100
AcDbLine
10
0
20
-8.601222
30
0
11
0
21
-9.172655
31
0
39
0
210
0
220
0
230
1
0
LINE
5
128
100
AcDbEntity
8
1
62
256
6
ByLayer
370
18
48
1
60
0
100
AcDbLine
10
25.562839
20
-5.422932
30
0
11
25.53115
21
-4.818256
31
0
39
0
210
0
220
0
230
1
0
LINE
5
129
100
AcDbEntity
8
1
62
256
6
ByLayer
370
18
48
1
60
0
100
AcDbLine
10
0.346266
20
11.55409
30
0
11
0.346266
21
11.639099
31
0
39
0
210
0
220
0
230
1
0
LINE
5
12A
100
AcDbEntity
8
1
62
256
6
ByLayer
370
18
48
1
60
0
100
AcDbLine
10
6.211135
20
-11.451459
30
0
11
6.869355
21
-11.679458
31
0
39
0
210
0
220
0
230
1
0
LINE
5
12B
100
AcDbEntity
8
1
62
256
6
ByLayer
370
18
48
1
60
0
100
AcDbLine
10
0.346266
20
-9.457166
30
0
11
0.346266
21
-9.261521
31
0
39
0
210
0
220
0
230
1
0
LINE
5
12C
100
AcDbEntity
8
1
62
256
6
ByLayer
370
18
48
1
60
0
100
AcDbLine
10
0.346266
20
9.261521
30
0
11
0.346266
21
9.457166
31
0
39
0
210
0
220
0
230
1
0
LINE
5
12D
100
AcDbEntity
8
1
62
256
6
ByLayer
370
18
48
1
60
0
100
AcDbLine
10
14.48446
20
-1.623436
30
0
11
15.016652
21
-2.523697
31
0
39
0
210
0
220
0
230
1
0
LINE
5
12E
100
AcDbEntity
8
1
62
256
6
ByLayer
370
18
48
1
60
0
100
AcDbLine
10
5.8622
20
-11.330592
30
0
11
6.211135
21
-11.451459
31
0
39
0
210
0
220
0
230
1
0
LINE
5
12F
100
AcDbEntity
8
1
62
256
6
ByLayer
370
18
48
1
60
0
100
AcDbLine
10
14.989449
20
-11.861804
30
0
11
14.999825
21
-11.879356
31
0
39
0
210
0
220
0
230
1
0
LINE
5
130
100
AcDbEntity
8
1
62
256
6
ByLayer
370
18
48
1
60
0
100
AcDbLine
10
0
20
-10.104769
30
0
11
0
21
-9.670166
31
0
39
0
210
0
220
0
230
1
0
LINE
5
131
100
AcDbEntity
8
1
62
256
6
ByLayer
370
18
48
1
60
0
100
AcDbLine
10
25.346636
20
-4.522873
30
0
11
25.53115
21
-4.818256
31
0
39
0
210
0
220
0
230
1
0
LINE
5
132
100
AcDbEntity
8
1
62
256
6
ByLayer
370
18
48
1
60
0
100
AcDbLine
10
14.320436
20
-11.714214
30
0
11
12.870354
21
-9.26124
31
0
39
0
210
0
220
0
230
1
0
LINE
5
133
100
AcDbEntity
8
1
62
256
6
ByLayer
370
18
48
1
60
0
100
AcDbLine
10
0
20
11.715912
30
0
11
0
21
11.547995
31
0
39
0
210
0
220
0
230
1
0
LINE
5
134
100
AcDbEntity
8
1
62
256
6
ByLayer
370
18
48
1
60
0
100
AcDbLine
10
15.575964
20
-11.284687
30
0
11
14.665566
21
-11.819042
31
0
39
0
210
0
220
0
230
1
0
LINE
5
135
100
AcDbEntity
8
1
62
256
6
ByLayer
370
18
48
1
60
0
100
AcDbLine
10
13.162605
20
-9.394889
30
0
11
13.102196
21
-9.276594
31
0
39
0
210
0
220
0
230
1
0
LINE
5
136
100
AcDbEntity
8
1
62
256
6
ByLayer
370
18
48
1
60
0
100
AcDbLine
10
15.069615
20
-3.534284
30
0
11
14.875285
21
-3.648345
31
0
39
0
210
0
220
0
230
1
0
LINE
5
137
100
AcDbEntity
8
1
62
256
6
ByLayer
370
18
48
1
60
0
100
AcDbLine
10
14.862452
20
-3.402854
30
0
11
14.88956
21
-3.920112
31
0
39
0
210
0
220
0
230
1
0
LINE
5
138
100
AcDbEntity
8
1
62
256
6
ByLayer
370
18
48
1
60
0
100
AcDbLine
10
6.211135
20
-11.451459
30
0
11
6.211135
21
-5.938092
31
0
39
0
210
0
220
0
230
1
0
LINE
5
139
100
AcDbEntity
8
1
62
256
6
ByLayer
370
18
48
1
60
0
100
AcDbLine
10
17.638798
20
-1.484285
30
0
11
17.877784
21
-1.633026
31
0
39
0
210
0
220
0
230
1
0
LINE
5
13A
100
AcDbEntity
8
1
62
256
6
ByLayer
370
18
48
1
60
0
100
AcDbLine
10
25.270116
20
0.162567
30
0
11
25.505242
21
-4.323915
31
0
39
0
210
0
220
0
230
1
0
LINE
5
13B
100
AcDbEntity
8
1
62
256
6
ByLayer
370
18
48
1
60
0
100
AcDbLine
10
7.534647
20
-11.443002
30
0
11
7.559569
21
-11.918539
31
0
39
0
210
0
220
0
230
1
0
LINE
5
13C
100
AcDbEntity
8
1
62
256
6
ByLayer
370
18
48
1
60
0
100
AcDbLine
10
0.451234
20
12.409674
30
0
11
0.451234
21
-12.409674
31
0
39
0
210
0
220
0
230
1
0
LINE
5
13D
100
AcDbEntity
8
1
62
256
6
ByLayer
370
18
48
1
60
0
100
AcDbLine
10
0
20
-7.164154
30
0
11
0
21
-6.230979
31
0
39
0
210
0
220
0
230
1
0
LINE
5
13E
100
AcDbEntity
8
1
62
256
6
ByLayer
370
18
48
1
60
0
100
AcDbLine
10
0.346266
20
-11.101805
30
0
11
0.346266
21
-10.987118
31
0
39
0
210
0
220
0
230
1
0
LINE
5
13F
100
AcDbEntity
8
1
62
256
6
ByLayer
370
18
48
1
60
0
100
AcDbLine
10
14.340396
20
-2.264216
30
0
11
14.847758
21
-3.122474
31
0
39
0
210
0
220
0
230
1
0
LINE
5
140
100
AcDbEntity
8
1
62
256
6
ByLayer
370
18
48
1
60
0
100
AcDbLine
10
14.999962
20
-11.881967
30
0
11
14.988405
21
-11.862417
31
0
39
0
210
0
220
0
230
1
0
LINE
5
141
100
AcDbEntity
8
1
62
256
6
ByLayer
370
18
48
1
60
0
100
AcDbLine
10
0
20
11.343229
30
0
11
0
21
11.548002
31
0
39
0
210
0
220
0
230
1
0
LINE
5
142
100
AcDbEntity
8
1
62
256
6
ByLayer
370
18
48
1
60
0
100
AcDbLine
10
25.574683
20
-5.648915
30
0
11
25.619303
21
-6.500315
31
0
39
0
210
0
220
0
230
1
0
LINE
5
143
100
AcDbEntity
8
1
62
256
6
ByLayer
370
18
48
1
60
0
100
AcDbLine
10
25.528737
20
-4.772219
30
0
11
24.30457
21
-2.701406
31
0
39
0
210
0
220
0
230
1
0
LINE
5
144
100
AcDbEntity
8
1
62
256
6
ByLayer
370
18
48
1
60
0
100
AcDbLine
10
0
20
6.230979
30
0
11
0
21
7.164154
31
0
39
0
210
0
220
0
230
1
0
LINE
5
145
100
AcDbEntity
8
1
62
256
6
ByLayer
370
18
48
1
60
0
100
AcDbLine
10
0
20
11.099518
30
0
11
0
21
11.343229
31
0
39
0
210
0
220
0
230
1
0
LINE
5
146
100
AcDbEntity
8
1
62
256
6
ByLayer
370
18
48
1
60
0
100
AcDbLine
10
24.364979
20
-2.819701
30
0
11
24.30457
21
-2.701406
31
0
39
0
210
0
220
0
230
1
0
LINE
5
147
100
AcDbEntity
8
1
62
256
6
ByLayer
370
18
48
1
60
0
100
AcDbLine
10
0.346266
20
10.987118
30
0
11
0.346266
21
11.101805
31
0
39
0
210
0
220
0
230
1
0
LINE
5
148
100
AcDbEntity
8
1
62
256
6
ByLayer
370
18
48
1
60
0
100
AcDbLine
10
0.346266
20
-8.236774
30
0
11
0.346266
21
-7.976286
31
0
39
0
210
0
220
0
230
1
0
LINE
5
149
100
AcDbEntity
8
1
62
256
6
ByLayer
370
18
48
1
60
0
100
AcDbLine
10
0.346266
20
7.976286
30
0
11
0.346266
21
8.236774
31
0
39
0
210
0
220
0
230
1
0
LINE
5
14A
100
AcDbEntity
8
1
62
256
6
ByLayer
370
18
48
1
60
0
100
AcDbLine
10
13.6369
20
-10.239802
30
0
11
13.162605
21
-9.394889
31
0
39
0
210
0
220
0
230
1
0
LINE
5
14B
100
AcDbEntity
8
1
62
256
6
ByLayer
370
18
48
1
60
0
100
AcDbLine
10
18.353476
20
-1.886981
30
0
11
17.877784
21
-1.633017
31
0
39
0
210
0
220
0
230
1
0
LINE
5
14C
100
AcDbEntity
8
1
62
256
6
ByLayer
370
18
48
1
60
0
100
AcDbLine
10
6.211135
20
-4.731407
30
0
11
6.211135
21
3.317424
31
0
39
0
210
0
220
0
230
1
0
LINE
5
14D
100
AcDbEntity
8
1
62
256
6
ByLayer
370
18
48
1
60
0
100
AcDbLine
10
0
20
-5.054093
30
0
11
0
21
-3.388415
31
0
39
0
210
0
220
0
230
1
0
LINE
5
14E
100
AcDbEntity
8
1
62
256
6
ByLayer
370
18
48
1
60
0
100
AcDbLine
10
17.131436
20
-0.626026
30
0
11
17.638798
21
-1.484285
31
0
39
0
210
0
220
0
230
1
0
LINE
5
14F
100
AcDbEntity
8
1
62
256
6
ByLayer
370
18
48
1
60
0
100
AcDbLine
10
0
20
10.814347
30
0
11
0
21
11.099554
31
0
39
0
210
0
220
0
230
1
0
LINE
5
150
100
AcDbEntity
8
1
62
256
6
ByLayer
370
18
48
1
60
0
100
AcDbLine
10
25.574679
20
-5.648846
30
0
11
24.881129
21
-6.055923
31
0
39
0
210
0
220
0
230
1
0
LINE
5
151
100
AcDbEntity
8
1
62
256
6
ByLayer
370
18
48
1
60
0
100
AcDbLine
10
0
20
11.715912
30
0
11
0
21
11.848527
31
0
39
0
210
0
220
0
230
1
0
LINE
5
152
100
AcDbEntity
8
1
62
256
6
ByLayer
370
18
48
1
60
0
100
AcDbLine
10
25.574679
20
-5.648846
30
0
11
25.562839
21
-5.422932
31
0
39
0
210
0
220
0
230
1
0
LINE
5
153
100
AcDbEntity
8
1
62
256
6
ByLayer
370
18
48
1
60
0
100
AcDbLine
10
14.340396
20
-2.264216
30
0
11
14.313028
21
-1.742
31
0
39
0
210
0
220
0
230
1
0
LINE
5
154
100
AcDbEntity
8
1
62
256
6
ByLayer
370
18
48
1
60
0
100
AcDbLine
10
0.346266
20
-10.387807
30
0
11
0.346266
21
-10.237659
31
0
39
0
210
0
220
0
230
1
0
LINE
5
155
100
AcDbEntity
8
1
62
256
6
ByLayer
370
18
48
1
60
0
100
AcDbLine
10
0
20
-3.388415
30
0
11
0
21
3.388415
31
0
39
0
210
0
220
0
230
1
0
LINE
5
156
100
AcDbEntity
8
1
62
256
6
ByLayer
370
18
48
1
60
0
100
AcDbLine
10
0.346266
20
-3.909267
30
0
11
0.346266
21
-3.151846
31
0
39
0
210
0
220
0
230
1
0
LINE
5
157
100
AcDbEntity
8
1
62
256
6
ByLayer
370
18
48
1
60
0
100
AcDbLine
10
0.346266
20
3.151846
30
0
11
0.346266
21
3.909267
31
0
39
0
210
0
220
0
230
1
0
LINE
5
158
100
AcDbEntity
8
1
62
256
6
ByLayer
370
18
48
1
60
0
100
AcDbLine
10
14.847758
20
-3.122474
30
0
11
14.862453
21
-3.402862
31
0
39
0
210
0
220
0
230
1
0
LINE
5
159
100
AcDbEntity
8
SK1
62
256
6
ByLayer
370
18
48
1
60
0
100
AcDbLine
10
-0.298766
20
-8.985912
30
0
11
-0.298766
21
-7.96707
31
0
39
0
210
0
220
0
230
1
0
LINE
5
15A
100
AcDbEntity
8
SK1
62
256
6
ByLayer
370
18
48
1
60
0
100
AcDbLine
10
-0.298766
20
-8.985912
30
0
11
-0.298766
21
-9.103207
31
0
39
0
210
0
220
0
230
1
0
LINE
5
15B
100
AcDbEntity
8
SK1
62
256
6
ByLayer
370
18
48
1
60
0
100
AcDbLine
10
-0.238766
20
-8.976406
30
0
11
-0.238766
21
-8.120312
31
0
39
0
210
0
220
0
230
1
0
LINE
5
15C
100
AcDbEntity
8
SK1
62
256
6
ByLayer
370
18
48
1
60
0
100
AcDbLine
10
0
20
-9.670191
30
0
11
0
21
-9.172655
31
0
39
0
210
0
220
0
230
1
0
LINE
5
15D
100
AcDbEntity
8
SK1
62
256
6
ByLayer
370
18
48
1
60
0
100
AcDbLine
10
0
20
-8.601222
30
0
11
0
21
-9.172655
31
0
39
0
210
0
220
0
230
1
0
LINE
5
15E
100
AcDbEntity
8
4
62
256
6
ByLayer
370
18
48
0.05
60
0
100
AcDbLine
10
0
20
0
30
0
11
32.061055
21
0
31
0
39
0
210
0
220
0
230
1
0
LINE
5
160
100
AcDbEntity
8
SK4
62
256
6
ByLayer
370
18
48
0.05
60
0
100
AcDbLine
10
27.061055
20
0
30
0
11
-10
21
0
31
0
39
0
210
0
220
0
230
1
0
LINE
5
162
100
AcDbEntity
8
1
62
256
6
ByLayer
370
18
48
1
60
0
100
AcDbLine
10
6.624593
20
-10.540344
30
0
11
6.624593
21
-10.540353
31
0
39
0
210
0
220
0
230
1
0
LINE
5
163
100
AcDbEntity
8
1
62
256
6
ByLayer
370
18
48
1
60
0
100
AcDbLine
10
26.184924
20
-7.207068
30
0
11
26.172721
21
-7.159281
31
0
39
0
210
0
220
0
230
1
0
LINE
5
164
100
AcDbEntity
8
1
62
256
6
ByLayer
370
18
48
1
60
0
100
AcDbLine
10
23.655238
20
-10.200012
30
0
11
23.650109
21
-10.102135
31
0
39
0
210
0
220
0
230
1
0
LINE
5
165
100
AcDbEntity
8
1
62
256
6
ByLayer
370
18
48
1
60
0
100
AcDbLine
10
18.407303
20
-10.376899
30
0
11
18.412433
21
-10.474776
31
0
39
0
210
0
220
0
230
1
0
LINE
5
166
100
AcDbEntity
8
1
62
256
6
ByLayer
370
18
48
1
60
0
100
AcDbLine
10
20.095256
20
-11.260885
30
0
11
20.089687
21
-11.154618
31
0
39
0
210
0
220
0
230
1
0
LINE
5
167
100
AcDbEntity
8
1
62
256
6
ByLayer
370
18
48
1
60
0
100
AcDbLine
10
21.989175
20
-11.20358
30
0
11
21.994871
21
-11.312249
31
0
39
0
210
0
220
0
230
1
0
LINE
5
168
100
AcDbEntity
8
1
62
256
6
ByLayer
370
18
48
1
60
0
100
AcDbLine
10
21.967497
20
-9.320064
30
0
11
21.973066
21
-9.426328
31
0
39
0
210
0
220
0
230
1
0
LINE
5
169
100
AcDbEntity
8
1
62
256
6
ByLayer
370
18
48
1
60
0
100
AcDbLine
10
20.073701
20
-9.379715
30
0
11
20.068008
21
-9.271102
31
0
39
0
210
0
220
0
230
1
0
LINE
5
16A
100
AcDbEntity
8
81
62
256
6
ByLayer
370
18
48
1
60
0
100
AcDbLine
10
27
20
-19.9
30
0
11
37
21
-19.9
31
0
39
0
210
0
220
0
230
1
0
LINE
5
16B
100
AcDbEntity
8
80
62
256
6
ByLayer
370
18
48
1
60
0
100
AcDbLine
10
0
20
0
30
0
11
-10
21
0
31
0
39
0
210
0
220
0
230
1
0
LINE
5
16C
100
AcDbEntity
8
2
62
256
6
ByLayer
370
13
48
1
60
0
100
AcDbLine
10
29
20
0
30
0
11
47.498716
21
0
31
0
39
0
210
0
220
0
230
1
0
LINE
5
16D
100
AcDbEntity
8
2
62
256
6
ByLayer
370
13
48
1
60
0
100
AcDbLine
10
26.319633
20
-6.917816
30
0
11
24.829683
21
21.512108
31
0
39
0
210
0
220
0
230
1
0
LINE
5
16E
100
AcDbEntity
8
1
62
256
6
ByLayer
370
13
48
1
60
0
100
AcDbLine
10
45.498716
20
0
30
0
11
44.952417
21
3.155455
31
0
39
0
210
0
220
0
230
1
0
LINE
5
16F
100
AcDbEntity
8
1
62
256
6
ByLayer
370
13
48
1
60
0
100
AcDbLine
10
45.498716
20
0
30
0
11
45.787723
21
3.189331
31
0
39
0
210
0
220
0
230
1
0
LINE
5
170
100
AcDbEntity
8
1
62
256
6
ByLayer
370
13
48
1
60
0
100
AcDbLine
10
44.952417
20
3.155455
30
0
11
45.787723
21
3.189331
31
0
39
0
210
0
220
0
230
1
0
LINE
5
171
100
AcDbEntity
8
1
62
256
6
ByLayer
370
13
48
1
60
0
100
AcDbLine
10
24.934355
20
19.514849
30
0
11
28.104187
21
19.970378
31
0
39
0
210
0
220
0
230
1
0
LINE
5
172
100
AcDbEntity
8
1
62
256
6
ByLayer
370
13
48
1
60
0
100
AcDbLine
10
24.934355
20
19.514849
30
0
11
28.11408
21
19.134443
31
0
39
0
210
0
220
0
230
1
0
LINE
5
173
100
AcDbEntity
8
1
62
256
6
ByLayer
370
13
48
1
60
0
100
AcDbLine
10
28.104187
20
19.970378
30
0
11
28.11408
21
19.134443
31
0
39
0
210
0
220
0
230
1
0
MTEXT
5
265
100
AcDbEntity
8
2
62
256
6
ByLayer
370
18
48
1
60
0
100
AcDbMText
10
35.694857
20
19.67925
30
0
210
0
220
0
230
1
1
\W0.7588;93%%d0'
40
4.5
41
0
44
1.084337
50
316.5
71
7
72
5
7
iso_b_vert
0
MTEXT
5
268
100
AcDbEntity
8
SK6
62
256
6
ByLayer
370
18
48
1
60
0
100
AcDbMText
10
-18.3145
20
25.482634
30
0
210
0
220
0
230
1
1
\W0.7568;TR-SL-D13UCL-25
40
3.5
41
0
44
1.084337
50
0
71
7
72
5
7
iso_b_vert
0
DIMENSION
5
26B
100
AcDbEntity
8
SK2
62
256
6
ByLayer
370
18
48
1
60
0
100
AcDbDimension
2
_U0
10
-7.75
20
-12.5
30
0
11
-7.75
21
0
31
0
70
32
71
1
72
1
41
1
210
0
220
0
230
1
3
Standard
100
AcDbAlignedDimension
13
0
23
12.5
33
0
14
0
24
-12.5
34
0
50
90
100
AcDbRotatedDimension
1001
ACAD
1000
DSTYLE
1002
{
1070
   371
1070
    13
1070
   372
1070
    13
1070
     3
1000

1070
   170
1070
     0
1070
   144
1040
1.0
1070
   277
1070
     2
1070
   284
1070
     8
1070
   278
1070
    46
1070
   146
1040
0.777778
1070
   345
1005
16
1070
   347
1005
16
1070
   346
1005
16
1070
   344
1005
26C
1070
   343
1005
26C
1070
   172
1070
     1
1070
    76
1070
     0
1070
    75
1070
     0
1070
   282
1070
     0
1070
   281
1070
     0
1070
    71
1070
     0
1070
   272
1070
     4
1070
   271
1070
     4
1070
    74
1070
     0
1070
   279
1070
     0
1070
   173
1070
     1
1070
   340
1005
266
1070
    77
1070
     1
1070
    73
1070
     0
1070
   171
1070
     4
1070
   274
1070
     4
1070
   177
1070
     2
1070
   176
1070
     2
1070
   178
1070
     7
1070
    78
1070
     8
1070
    41
1040
3.175
1070
   147
1040
2.25
1070
    42
1040
2.0
1070
    44
1040
2.0
1070
   140
1040
4.5
1002
}
1001
ACAD_DSTYLE_DIM_LINETYPE
1070
   380
1005
16
1001
ACAD_DSTYLE_DIM_EXT1_LINETYPE
1070
   381
1005
16
1001
ACAD_DSTYLE_DIM_EXT2_LINETYPE
1070
   382
1005
16
0
DIMENSION
5
290
100
AcDbEntity
8
2
62
256
6
ByLayer
370
18
48
1
60
0
100
AcDbDimension
2
_U1
10
44.311055
20
-19.9
30
0
11
44.311055
21
-9.95
31
0
70
32
71
1
72
1
41
1
210
0
220
0
230
1
3
Standard
100
AcDbAlignedDimension
13
27
23
0
33
0
14
27
24
-19.9
34
0
50
90
100
AcDbRotatedDimension
1001
ACAD
1000
DSTYLE
1002
{
1070
   371
1070
    13
1070
   372
1070
    13
1070
     3
1000

1070
   170
1070
     0
1070
   144
1040
1.0
1070
   277
1070
     2
1070
   284
1070
     8
1070
   278
1070
    46
1070
   146
1040
0.777778
1070
   345
1005
16
1070
   347
1005
16
1070
   346
1005
16
1070
   344
1005
26C
1070
   343
1005
26C
1070
   172
1070
     1
1070
    76
1070
     0
1070
    75
1070
     0
1070
   282
1070
     0
1070
   281
1070
     0
1070
    71
1070
     0
1070
   272
1070
     4
1070
   271
1070
     4
1070
    74
1070
     0
1070
   279
1070
     0
1070
   173
1070
     1
1070
   340
1005
266
1070
    77
1070
     1
1070
    73
1070
     0
1070
   171
1070
     4
1070
   274
1070
     4
1070
   177
1070
     2
1070
   176
1070
     2
1070
   178
1070
     7
1070
    78
1070
     8
1070
    41
1040
3.175
1070
   147
1040
2.25
1070
    42
1040
2.0
1070
    44
1040
2.0
1070
   140
1040
4.5
1002
}
1001
ACAD_DSTYLE_DIM_LINETYPE
1070
   380
1005
16
1001
ACAD_DSTYLE_DIM_EXT1_LINETYPE
1070
   381
1005
16
1001
ACAD_DSTYLE_DIM_EXT2_LINETYPE
1070
   382
1005
16
0
DIMENSION
5
2AD
100
AcDbEntity
8
2
62
256
6
ByLayer
370
18
48
1
60
0
100
AcDbDimension
2
_U2
10
27
20
-37.15
30
0
11
13.5
21
-37.15
31
0
70
32
71
1
72
1
41
1
210
0
220
0
230
1
3
Standard
100
AcDbAlignedDimension
13
0
23
-12.5
33
0
14
27
24
-19.9
34
0
50
0
100
AcDbRotatedDimension
1001
ACAD
1000
DSTYLE
1002
{
1070
   371
1070
    13
1070
   372
1070
    13
1070
     3
1000

1070
   170
1070
     0
1070
   144
1040
1.0
1070
   277
1070
     2
1070
   284
1070
     8
1070
   278
1070
    46
1070
   146
1040
0.777778
1070
   345
1005
16
1070
   347
1005
16
1070
   346
1005
16
1070
   344
1005
26C
1070
   343
1005
26C
1070
   172
1070
     1
1070
    76
1070
     0
1070
    75
1070
     0
1070
   282
1070
     0
1070
   281
1070
     0
1070
    71
1070
     0
1070
   272
1070
     4
1070
   271
1070
     4
1070
    74
1070
     0
1070
   279
1070
     0
1070
   173
1070
     1
1070
   340
1005
266
1070
    77
1070
     1
1070
    73
1070
     1
1070
   171
1070
     4
1070
   274
1070
     4
1070
   177
1070
     2
1070
   176
1070
     2
1070
   178
1070
     7
1070
    78
1070
     8
1070
    41
1040
3.175
1070
   147
1040
2.25
1070
    42
1040
2.0
1070
    44
1040
2.0
1070
   140
1040
4.5
1002
}
1001
ACAD_DSTYLE_DIM_LINETYPE
1070
   380
1005
16
1001
ACAD_DSTYLE_DIM_EXT1_LINETYPE
1070
   381
1005
16
1001
ACAD_DSTYLE_DIM_EXT2_LINETYPE
1070
   382
1005
16
0
ENDSEC
0
SECTION
2
OBJECTS
0
DICTIONARY
5
339
330
0
100
AcDbDictionary
280
0
281
1
3
ACAD_GROUP
350
33a
3
ACAD_MLINESTYLE
350
33b
0
DICTIONARY
5
33a
330
0
100
AcDbDictionary
280
0
281
1
0
DICTIONARY
5
33b
330
0
100
AcDbDictionary
280
0
281
1
3
Standard
350
18
0
MLINESTYLE
5
18
330
33b
100
AcDbMlineStyle
2
Standard
70
0
3

62
256
51
90
52
90
71
2
49
-0.5
62
256
6
ByLayer
49
0.5
62
256
6
ByLayer
0
RASTERVARIABLES
5
327
330

100
AcDbRasterVariables
90
0
70
1
71
1
72
1
0
ENDSEC
0
EOF
