0
SECTION
2
HEADER
9
$ACADVER
1
AC1015
9
$DWGCODEPAGE
3
ANSI_1252
9
$HANDSEED
5
1c9
9
$ANGBASE
50
0
9
$ANGDIR
70
0
9
$ATTMODE
70
1
9
$AUNITS
70
0
9
$AUPREC
70
0
9
$CECOLOR
62
256
9
$CELTSCALE
40
1
9
$CELTYPE
6
ByLayer
9
$CELWEIGHT
370
18
9
$CLAYER
8
0
9
$CMLJUST
70
0
9
$CMLSCALE
40
1
9
$CMLSTYLE
2
Standard
9
$DIMSTYLE
2
Standard
9
$TEXTSIZE
40
0.2
9
$TEXTSTYLE
7
Standard
9
$LUNITS
70
2
9
$LUPREC
70
4
9
$EXTNAMES
290
1
9
$INSUNITS
70
4
9
$LTSCALE
40
1
9
$LWDISPLAY
290
1
9
$PDMODE
70
0
9
$PDSIZE
40
0
9
$PLINEGEN
70
0
0
ENDSEC
0
SECTION
2
CLASSES
0
CLASS
1
RASTERVARIABLES
2
AcDbRasterVariables
3
ISM
90
0
280
0
281
0
0
ENDSEC
0
SECTION
2
TABLES
0
TABLE
2
VPORT
5
1bf
100
AcDbSymbolTable
0
VPORT
5
1
100
AcDbSymbolTableRecord
100
AcDbViewportTableRecord
2
*Active
70
0
10
0
20
0
11
1
21
1
12
-1
22
1
13
0
23
0
14
0.5
24
0.5
15
10
25
10
16
0
26
0
36
1
17
0
27
0
37
0
0
ENDTAB
0
TABLE
2
LTYPE
5
1c0
100
AcDbSymbolTable
0
LTYPE
5
14
100
AcDbSymbolTableRecord
100
AcDbLinetypeTableRecord
70
0
2
ByBlock
3

72
65
73
0
40
0
0
LTYPE
5
15
100
AcDbSymbolTableRecord
100
AcDbLinetypeTableRecord
70
0
2
ByLayer
3

72
65
73
0
40
0
0
LTYPE
5
16
100
AcDbSymbolTableRecord
100
AcDbLinetypeTableRecord
70
0
2
CONTINUOUS
3
Solid line
72
65
73
0
40
0
0
LTYPE
5
6A
100
AcDbSymbolTableRecord
100
AcDbLinetypeTableRecord
70
0
2
CENTER
3
____ _ ____ _ ____ _ ____
72
65
73
4
40
47.5
49
22
74
0
49
-8.5
74
0
49
8.5
74
0
49
-8.5
74
0
0
LTYPE
5
6B
100
AcDbSymbolTableRecord
100
AcDbLinetypeTableRecord
70
0
2
DASHED
3
__ __ __ __ __ __ __ __ __
72
65
73
2
40
25.72
49
12.86
74
0
49
-12.86
74
0
0
ENDTAB
0
TABLE
2
LAYER
5
1c1
100
AcDbSymbolTable
0
LAYER
5
10
100
AcDbSymbolTableRecord
100
AcDbLayerTableRecord
2
0
70
0
62
7
6
CONTINUOUS
290
1
370
-3
390
0
0
LAYER
5
6D
100
AcDbSymbolTableRecord
100
AcDbLayerTableRecord
2
80
70
0
62
-6
6
CONTINUOUS
290
1
370
-3
390
0
0
LAYER
5
6F
100
AcDbSymbolTableRecord
100
AcDbLayerTableRecord
2
81
70
0
62
-3
6
CONTINUOUS
290
1
370
-3
390
0
0
LAYER
5
71
100
AcDbSymbolTableRecord
100
AcDbLayerTableRecord
2
1
70
0
62
4
6
CONTINUOUS
290
1
370
-3
390
0
0
LAYER
5
116
100
AcDbSymbolTableRecord
100
AcDbLayerTableRecord
2
2
70
0
62
7
6
CONTINUOUS
290
1
370
-3
390
0
0
LAYER
5
1ac
100
AcDbSymbolTableRecord
100
AcDbLayerTableRecord
2
SK1
70
0
62
4
6
CONTINUOUS
290
1
370
-3
390
0
0
LAYER
5
1ad
100
AcDbSymbolTableRecord
100
AcDbLayerTableRecord
2
SK6
70
0
62
5
6
CONTINUOUS
290
1
370
-3
390
0
0
LAYER
5
1ae
100
AcDbSymbolTableRecord
100
AcDbLayerTableRecord
2
SK2
70
0
62
7
6
CONTINUOUS
290
1
370
-3
390
0
0
ENDTAB
0
TABLE
2
STYLE
5
1c2
100
AcDbSymbolTable
0
STYLE
5
11
100
AcDbSymbolTableRecord
100
AcDbTextStyleTableRecord
2
Standard
3
txt
70
0
71
0
40
0
41
1
42
0
50
0
0
STYLE
5
10F
100
AcDbSymbolTableRecord
100
AcDbTextStyleTableRecord
2
iso_b_vert
3
simplex.shx
70
0
71
0
40
0
41
1
42
0
50
0
0
STYLE
5
110
100
AcDbSymbolTableRecord
100
AcDbTextStyleTableRecord
2
DWGDirectTextStyle
3
simplex
70
0
71
0
40
0
41
1
42
0
50
0
0
ENDTAB
0
TABLE
2
DIMSTYLE
5
1c3
100
AcDbSymbolTable
100
AcDbDimStyleTable
0
DIMSTYLE
105
27
100
AcDbSymbolTableRecord
100
AcDbDimStyleTableRecord
2
Standard
70
0
3
<>
41
0.18
42
0.0625
44
0.18
140
0.18
147
0.09
73
0
74
0
77
1
271
2
275
0
278
52
280
0
340
11
0
ENDTAB
0
TABLE
2
VIEW
5
1c4
100
AcDbSymbolTable
0
ENDTAB
0
TABLE
2
UCS
5
1c5
100
AcDbSymbolTable
0
ENDTAB
0
TABLE
2
APPID
5
1c6
100
AcDbSymbolTable
0
APPID
5
12
100
AcDbSymbolTableRecord
100
AcDbRegAppTableRecord
2
ACAD
70
0
0
ENDTAB
0
TABLE
2
BLOCK_RECORD
5
1c7
100
AcDbSymbolTable
0
BLOCK_RECORD
5
1F
100
AcDbSymbolTableRecord
100
AcDbBlockTableRecord
2
*Model_Space
340
0
70
0
0
BLOCK_RECORD
5
1B
100
AcDbSymbolTableRecord
100
AcDbBlockTableRecord
2
*Paper_Space
340
0
70
0
0
BLOCK_RECORD
5
23
100
AcDbSymbolTableRecord
100
AcDbBlockTableRecord
2
*Paper_Space0
340
0
70
0
0
BLOCK_RECORD
5
112
100
AcDbSymbolTableRecord
100
AcDbBlockTableRecord
2
DimnDraft3D11
340
0
70
0
0
BLOCK_RECORD
5
121
100
AcDbSymbolTableRecord
100
AcDbBlockTableRecord
2
DimnDraft3D2
340
0
70
0
0
BLOCK_RECORD
5
130
100
AcDbSymbolTableRecord
100
AcDbBlockTableRecord
2
_CLOSED
340
0
70
0
0
BLOCK_RECORD
5
137
100
AcDbSymbolTableRecord
100
AcDbBlockTableRecord
2
DimnDraft3D3
340
0
70
0
0
BLOCK_RECORD
5
145
100
AcDbSymbolTableRecord
100
AcDbBlockTableRecord
2
DimnDraft3D4
340
0
70
0
0
ENDTAB
0
ENDSEC
0
SECTION
2
BLOCKS
0
BLOCK
5
20
100
AcDbEntity
8
0
100
AcDbBlockBegin
2
*Model_Space
70
0
10
0
20
0
30
0
3
*Model_Space
0
ENDBLK
5
21
100
AcDbEntity
8
0
100
AcDbBlockEnd
0
BLOCK
5
1C
100
AcDbEntity
8
0
100
AcDbBlockBegin
2
*Paper_Space
70
0
10
0
20
0
30
0
3
*Paper_Space
0
ENDBLK
5
1D
100
AcDbEntity
8
0
100
AcDbBlockEnd
0
BLOCK
5
24
100
AcDbEntity
8
0
100
AcDbBlockBegin
2
*Paper_Space0
70
0
10
0
20
0
30
0
3
*Paper_Space0
0
ENDBLK
5
25
100
AcDbEntity
8
0
100
AcDbBlockEnd
0
BLOCK
5
113
100
AcDbEntity
8
0
100
AcDbBlockBegin
2
DimnDraft3D11
70
0
10
0
20
0
30
0
3
DimnDraft3D11
0
LINE
5
115
100
AcDbEntity
8
2
62
256
6
ByLayer
370
25
48
1
60
0
100
AcDbLine
10
51.5875
20
0
30
0
11
91.775
21
0
31
0
39
0
210
0
220
0
230
1
0
LINE
5
117
100
AcDbEntity
8
2
62
256
6
ByLayer
370
25
48
1
60
0
100
AcDbLine
10
66.5875
20
0.4817
30
0
11
91.775
21
0.4817
31
0
39
0
210
0
220
0
230
1
0
LINE
5
118
100
AcDbEntity
8
2
62
256
6
ByLayer
370
25
48
1
60
0
100
AcDbLine
10
88.6
20
11.7317
30
0
11
88.6
21
-18.3125
31
0
39
0
210
0
220
0
230
1
0
LINE
5
119
100
AcDbEntity
8
2
62
256
6
ByLayer
370
25
48
1
60
0
100
AcDbLine
10
88.6
20
0
30
0
11
89.450739
21
-3.174997
31
0
39
0
210
0
220
0
230
1
0
LINE
5
11A
100
AcDbEntity
8
2
62
256
6
ByLayer
370
25
48
1
60
0
100
AcDbLine
10
88.6
20
0
30
0
11
87.749261
21
-3.175003
31
0
39
0
210
0
220
0
230
1
0
LINE
5
11B
100
AcDbEntity
8
2
62
256
6
ByLayer
370
25
48
1
60
0
100
AcDbLine
10
89.450739
20
-3.174997
30
0
11
87.749261
21
-3.175003
31
0
39
0
210
0
220
0
230
1
0
LINE
5
11C
100
AcDbEntity
8
2
62
256
6
ByLayer
370
25
48
1
60
0
100
AcDbLine
10
88.6
20
0.4817
30
0
11
87.749261
21
3.656697
31
0
39
0
210
0
220
0
230
1
0
LINE
5
11D
100
AcDbEntity
8
2
62
256
6
ByLayer
370
25
48
1
60
0
100
AcDbLine
10
88.6
20
0.4817
30
0
11
89.450739
21
3.656703
31
0
39
0
210
0
220
0
230
1
0
LINE
5
11E
100
AcDbEntity
8
2
62
256
6
ByLayer
370
25
48
1
60
0
100
AcDbLine
10
87.749261
20
3.656697
30
0
11
89.450739
21
3.656703
31
0
39
0
210
0
220
0
230
1
0
MTEXT
5
11F
100
AcDbEntity
8
2
62
256
6
ByLayer
370
13
48
1
60
0
100
AcDbMText
10
87.475
20
-17.1875
30
0
210
0
220
0
230
1
1
\W0.7121;0.5
40
4.5
41
0
44
1.084337
50
90
71
7
72
5
7
iso_b_vert
0
ENDBLK
5
114
100
AcDbEntity
8
0
100
AcDbBlockEnd
0
BLOCK
5
12D
100
AcDbEntity
8
0
100
AcDbBlockBegin
2
DimnDraft3D2
70
0
10
0
20
0
30
0
3
DimnDraft3D2
0
MTEXT
5
122
100
AcDbEntity
8
SK2
62
256
6
ByLayer
370
13
48
1
60
0
100
AcDbMText
10
-48.225
20
-4.156579
30
0
210
0
220
0
230
1
1
\W0.7346;63.0
40
4.5
41
0
44
1.084337
50
90
71
7
72
5
7
iso_b_vert
0
LINE
5
124
100
AcDbEntity
8
SK2
62
256
6
ByLayer
370
13
48
1
60
0
100
AcDbLine
10
-1.5875
20
31.5
30
0
11
-50.275
21
31.5
31
0
39
0
210
0
220
0
230
1
0
LINE
5
125
100
AcDbEntity
8
SK2
62
256
6
ByLayer
370
13
48
1
60
0
100
AcDbLine
10
-1.5875
20
-31.5
30
0
11
-50.275
21
-31.5
31
0
39
0
210
0
220
0
230
1
0
LINE
5
126
100
AcDbEntity
8
SK2
62
256
6
ByLayer
370
13
48
1
60
0
100
AcDbLine
10
-47.1
20
31.5
30
0
11
-47.1
21
-31.5
31
0
39
0
210
0
220
0
230
1
0
LINE
5
127
100
AcDbEntity
8
SK2
62
256
6
ByLayer
370
13
48
1
60
0
100
AcDbLine
10
-47.1
20
31.5
30
0
11
-46.249261
21
28.325003
31
0
39
0
210
0
220
0
230
1
0
LINE
5
128
100
AcDbEntity
8
SK2
62
256
6
ByLayer
370
13
48
1
60
0
100
AcDbLine
10
-47.1
20
31.5
30
0
11
-47.950739
21
28.324997
31
0
39
0
210
0
220
0
230
1
0
LINE
5
129
100
AcDbEntity
8
SK2
62
256
6
ByLayer
370
13
48
1
60
0
100
AcDbLine
10
-46.249261
20
28.325003
30
0
11
-47.950739
21
28.324997
31
0
39
0
210
0
220
0
230
1
0
LINE
5
12A
100
AcDbEntity
8
SK2
62
256
6
ByLayer
370
13
48
1
60
0
100
AcDbLine
10
-47.1
20
-31.5
30
0
11
-47.950739
21
-28.325003
31
0
39
0
210
0
220
0
230
1
0
LINE
5
12B
100
AcDbEntity
8
SK2
62
256
6
ByLayer
370
13
48
1
60
0
100
AcDbLine
10
-47.1
20
-31.5
30
0
11
-46.249261
21
-28.324997
31
0
39
0
210
0
220
0
230
1
0
LINE
5
12C
100
AcDbEntity
8
SK2
62
256
6
ByLayer
370
13
48
1
60
0
100
AcDbLine
10
-47.950739
20
-28.325003
30
0
11
-46.249261
21
-28.324997
31
0
39
0
210
0
220
0
230
1
0
ENDBLK
5
12E
100
AcDbEntity
8
0
100
AcDbBlockEnd
0
BLOCK
5
131
100
AcDbEntity
8
0
100
AcDbBlockBegin
2
_CLOSED
70
0
10
0
20
0
30
0
3
_CLOSED
0
LINE
5
133
100
AcDbEntity
8
0
62
256
6
ByLayer
370
-2
48
1
60
0
100
AcDbLine
10
-1
20
0.166667
30
0
11
0
21
0
31
0
39
0
210
0
220
0
230
1
0
LINE
5
134
100
AcDbEntity
8
0
62
256
6
ByLayer
370
-2
48
1
60
0
100
AcDbLine
10
0
20
0
30
0
11
-1
21
-0.166667
31
0
39
0
210
0
220
0
230
1
0
LINE
5
135
100
AcDbEntity
8
0
62
256
6
ByLayer
370
-2
48
1
60
0
100
AcDbLine
10
-1
20
0.166667
30
0
11
-1
21
-0.166667
31
0
39
0
210
0
220
0
230
1
0
LINE
5
136
100
AcDbEntity
8
0
62
256
6
ByLayer
370
-2
48
1
60
0
100
AcDbLine
10
0
20
0
30
0
11
-1
21
0
31
0
39
0
210
0
220
0
230
1
0
ENDBLK
5
132
100
AcDbEntity
8
0
100
AcDbBlockEnd
0
BLOCK
5
142
100
AcDbEntity
8
0
100
AcDbBlockBegin
2
DimnDraft3D3
70
0
10
0
20
0
30
0
3
DimnDraft3D3
0
MTEXT
5
138
100
AcDbEntity
8
2
62
256
6
ByLayer
370
13
48
1
60
0
100
AcDbMText
10
28.343421
20
19.1067
30
0
210
0
220
0
230
1
1
\W0.7346;65.0
40
4.5
41
0
44
1.084337
50
0
71
7
72
5
7
iso_b_vert
0
LINE
5
139
100
AcDbEntity
8
2
62
256
6
ByLayer
370
13
48
1
60
0
100
AcDbLine
10
65
20
2.0692
30
0
11
65
21
21.1567
31
0
39
0
210
0
220
0
230
1
0
LINE
5
13A
100
AcDbEntity
8
2
62
256
6
ByLayer
370
13
48
1
60
0
100
AcDbLine
10
0
20
29.9125
30
0
11
0
21
14.8067
31
0
39
0
210
0
220
0
230
1
0
LINE
5
13B
100
AcDbEntity
8
2
62
256
6
ByLayer
370
13
48
1
60
0
100
AcDbLine
10
65
20
17.9817
30
0
11
0
21
17.9817
31
0
39
0
210
0
220
0
230
1
0
LINE
5
13C
100
AcDbEntity
8
2
62
256
6
ByLayer
370
13
48
1
60
0
100
AcDbLine
10
65
20
17.9817
30
0
11
61.825003
21
17.130961
31
0
39
0
210
0
220
0
230
1
0
LINE
5
13D
100
AcDbEntity
8
2
62
256
6
ByLayer
370
13
48
1
60
0
100
AcDbLine
10
65
20
17.9817
30
0
11
61.824997
21
18.832439
31
0
39
0
210
0
220
0
230
1
0
LINE
5
13E
100
AcDbEntity
8
2
62
256
6
ByLayer
370
13
48
1
60
0
100
AcDbLine
10
61.825003
20
17.130961
30
0
11
61.824997
21
18.832439
31
0
39
0
210
0
220
0
230
1
0
LINE
5
13F
100
AcDbEntity
8
2
62
256
6
ByLayer
370
13
48
1
60
0
100
AcDbLine
10
0
20
17.9817
30
0
11
3.174997
21
18.832439
31
0
39
0
210
0
220
0
230
1
0
LINE
5
140
100
AcDbEntity
8
2
62
256
6
ByLayer
370
13
48
1
60
0
100
AcDbLine
10
0
20
17.9817
30
0
11
3.175003
21
17.130961
31
0
39
0
210
0
220
0
230
1
0
LINE
5
141
100
AcDbEntity
8
2
62
256
6
ByLayer
370
13
48
1
60
0
100
AcDbLine
10
3.174997
20
18.832439
30
0
11
3.175003
21
17.130961
31
0
39
0
210
0
220
0
230
1
0
ENDBLK
5
143
100
AcDbEntity
8
0
100
AcDbBlockEnd
0
BLOCK
5
150
100
AcDbEntity
8
0
100
AcDbBlockBegin
2
DimnDraft3D4
70
0
10
0
20
0
30
0
3
DimnDraft3D4
0
MTEXT
5
146
100
AcDbEntity
8
2
62
256
6
ByLayer
370
13
48
1
60
0
100
AcDbMText
10
54.278251
20
9.826162
30
0
210
0
220
0
230
1
1
\W0.7346;62.5
40
4.5
41
0
44
1.084337
50
31.25
71
7
72
5
7
iso_b_vert
0
LINE
5
147
100
AcDbEntity
8
2
62
256
6
ByLayer
370
13
48
1
60
0
100
AcDbLine
10
65
20
2.0692
30
0
11
65
21
16.037264
31
0
39
0
210
0
220
0
230
1
0
LINE
5
148
100
AcDbEntity
8
2
62
256
6
ByLayer
370
13
48
1
60
0
100
AcDbLine
10
51.633466
20
7.127767
30
0
11
50.925201
21
7.496466
31
0
39
0
210
0
220
0
230
1
0
ARC
5
149
100
AcDbEntity
8
2
62
256
6
ByLayer
370
13
48
1
60
0
100
AcDbCircle
39
0
10
65
20
0.16959
30
0
40
12.692674629293
210
0
220
0
230
1
100
AcDbArc
50
48.448209
51
194.051791
0
LINE
5
14A
100
AcDbEntity
8
2
62
256
6
ByLayer
370
13
48
1
60
0
100
AcDbLine
10
65
20
12.862264
30
0
11
68.221747
21
13.513958
31
0
39
0
210
0
220
0
230
1
0
LINE
5
14B
100
AcDbEntity
8
2
62
256
6
ByLayer
370
13
48
1
60
0
100
AcDbLine
10
65
20
12.862264
30
0
11
68.115968
21
11.815772
31
0
39
0
210
0
220
0
230
1
0
LINE
5
14C
100
AcDbEntity
8
2
62
256
6
ByLayer
370
13
48
1
60
0
100
AcDbLine
10
68.221747
20
13.513958
30
0
11
68.115968
21
11.815772
31
0
39
0
210
0
220
0
230
1
0
LINE
5
14D
100
AcDbEntity
8
2
62
256
6
ByLayer
370
13
48
1
60
0
100
AcDbLine
10
53.74146
20
6.030415
30
0
11
53.230918
21
2.783307
31
0
39
0
210
0
220
0
230
1
0
LINE
5
14E
100
AcDbEntity
8
2
62
256
6
ByLayer
370
13
48
1
60
0
100
AcDbLine
10
53.74146
20
6.030415
30
0
11
51.67576
21
3.473603
31
0
39
0
210
0
220
0
230
1
0
LINE
5
14F
100
AcDbEntity
8
2
62
256
6
ByLayer
370
13
48
1
60
0
100
AcDbLine
10
53.230918
20
2.783307
30
0
11
51.67576
21
3.473603
31
0
39
0
210
0
220
0
230
1
0
ENDBLK
5
151
100
AcDbEntity
8
0
100
AcDbBlockEnd
0
ENDSEC
0
SECTION
2
ENTITIES
0
ARC
5
D5
100
AcDbEntity
8
1
62
256
6
ByLayer
370
13
48
1
60
0
100
AcDbCircle
39
0
10
-43.410946
20
1E-05
30
0
40
1.59999999999999
210
0
220
0
230
-1
100
AcDbArc
50
3.583322
51
90
0
ARC
5
D6
100
AcDbEntity
8
1
62
256
6
ByLayer
370
13
48
1
60
0
100
AcDbCircle
39
0
10
-43.410946
20
1E-05
30
0
40
1.6
210
0
220
0
230
-1
100
AcDbArc
50
270
51
356.416678
0
ARC
5
D7
100
AcDbEntity
8
1
62
256
6
ByLayer
370
13
48
1
60
0
100
AcDbCircle
39
0
10
-43.410946
20
1E-05
30
0
40
1.5
210
0
220
0
230
-1
100
AcDbArc
50
270
51
356.299121
0
ARC
5
D9
100
AcDbEntity
8
1
62
256
6
ByLayer
370
13
48
1
60
0
100
AcDbCircle
39
0
10
-50.124131
20
-19.815053
30
0
40
11
210
0
220
0
230
-1
100
AcDbArc
50
47.221095
51
61.135987
0
ARC
5
DA
100
AcDbEntity
8
1
62
256
6
ByLayer
370
13
48
1
60
0
100
AcDbCircle
39
0
10
-43.410946
20
1E-05
30
0
40
1.5
210
0
220
0
230
-1
100
AcDbArc
50
3.700879
51
90
0
ARC
5
DB
100
AcDbEntity
8
1
62
256
6
ByLayer
370
13
48
1
60
0
100
AcDbCircle
39
0
10
-50.124131
20
19.815074
30
0
40
11
210
0
220
0
230
-1
100
AcDbArc
50
298.864013
51
312.778875
0
ARC
5
DC
100
AcDbEntity
8
1
62
256
6
ByLayer
370
18
48
1
60
0
100
AcDbCircle
39
0
10
-43.821948
20
1E-05
30
0
40
0.793800000000763
210
0
220
0
230
-1
100
AcDbArc
50
297.5
51
62.5
0
ARC
5
E1
100
AcDbEntity
8
1
62
256
6
ByLayer
370
18
48
1
60
0
100
AcDbCircle
39
0
10
64.2062
20
1E-05
30
0
40
0.793800000000763
210
0
220
0
230
1
100
AcDbArc
50
297.5
51
62.5
0
CIRCLE
5
D8
100
AcDbEntity
8
1
62
256
6
ByLayer
370
13
48
1
60
0
100
AcDbCircle
10
-54.014074
20
1E-05
30
0
40
1.45000000000001
39
0
210
0
220
0
230
-1
0
CIRCLE
5
DD
100
AcDbEntity
8
1
62
256
6
ByLayer
370
18
48
1
60
0
100
AcDbCircle
10
54.014074
20
1E-05
30
0
40
1.84999999999997
39
0
210
0
220
0
230
1
0
CIRCLE
5
DE
100
AcDbEntity
8
1
62
256
6
ByLayer
370
18
48
1
60
0
100
AcDbCircle
10
54.014074
20
1E-05
30
0
40
3.07
39
0
210
0
220
0
230
1
0
CIRCLE
5
DF
100
AcDbEntity
8
1
62
256
6
ByLayer
370
18
48
1
60
0
100
AcDbCircle
10
54.014074
20
1E-05
30
0
40
2.88321791935967
39
0
210
0
220
0
230
1
0
CIRCLE
5
E0
100
AcDbEntity
8
1
62
256
6
ByLayer
370
18
48
1
60
0
100
AcDbCircle
10
54.014074
20
1E-05
30
0
40
3.0111521844133
39
0
210
0
220
0
230
1
0
ELLIPSE
5
E2
100
AcDbEntity
8
1
62
256
6
ByLayer
370
13
48
1
60
0
100
AcDbEllipse
10
26.347154
20
0
30
0
11
14.7536831606543
21
31.0932549155802
31
0
210
0
220
0
230
-1
40
0.341999
41
-2.98378646694433
42
-2.05035306783694
0
ELLIPSE
5
E3
100
AcDbEntity
8
1
62
256
6
ByLayer
370
13
48
1
60
0
100
AcDbEllipse
10
-2.347154
20
0
30
0
11
14.753683160657
21
31.0932549155806
31
0
210
0
220
0
230
-1
40
0.341999
41
0.157806186645442
42
1.09123958575279
0
ELLIPSE
5
E4
100
AcDbEntity
8
1
62
256
6
ByLayer
370
13
48
1
60
0
100
AcDbEllipse
10
21.227036
20
0
30
0
11
-3.36766747301154E-16
21
5.5
31
0
210
0
220
0
230
-1
40
0.091641
41
0
42
6.28318530717959
0
ELLIPSE
5
E5
100
AcDbEntity
8
1
62
256
6
ByLayer
370
13
48
1
60
0
100
AcDbEllipse
10
22.555893
20
0
30
0
11
-1.92875500727024E-15
21
31.5
31
0
210
0
220
0
230
-1
40
0.087489
41
-2.93846015002311
42
-0.20313242702861
0
ELLIPSE
5
E6
100
AcDbEntity
8
1
62
256
6
ByLayer
370
13
48
1
60
0
100
AcDbEllipse
10
26.347154
20
0
30
0
11
14.7536831606545
21
-31.0932549155805
31
0
210
0
220
0
230
-1
40
0.341999
41
2.05035306783694
42
2.98378646694433
0
ELLIPSE
5
E7
100
AcDbEntity
8
1
62
256
6
ByLayer
370
13
48
1
60
0
100
AcDbEllipse
10
50.124131
20
19.815074
30
0
11
9.64276533882031
21
-5.29311562516293
31
0
210
0
220
0
230
-1
40
1
41
1.54874750532635
42
1.57255402799627
0
ELLIPSE
5
E8
100
AcDbEntity
8
1
62
256
6
ByLayer
370
13
48
1
60
0
100
AcDbEllipse
10
-2.347154
20
0
30
0
11
14.7536831606569
21
-31.0932549155805
31
0
210
0
220
0
230
-1
40
0.341999
41
-1.0912395857528
42
-0.157806186645442
0
ELLIPSE
5
E9
100
AcDbEntity
8
1
62
256
6
ByLayer
370
13
48
1
60
0
100
AcDbEllipse
10
50.12413
20
-19.815052
30
0
11
9.69022687430941
21
5.20571638927018
31
0
210
0
220
0
230
-1
40
1
41
-1.5815953902621
42
-1.55778886597882
0
ELLIPSE
5
EA
100
AcDbEntity
8
1
62
256
6
ByLayer
370
18
48
1
60
0
100
AcDbEllipse
10
54.014074
20
-4.847795
30
0
11
-2.20862017631019E-16
21
-1.20235653381807
31
0
210
0
220
0
230
1
40
0.990555
41
-0.476089217726881
42
0.47608921772688
0
ELLIPSE
5
EB
100
AcDbEntity
8
1
62
256
6
ByLayer
370
18
48
1
60
0
100
AcDbEllipse
10
54.014074
20
4.847816
30
0
11
7.36206725436729E-17
21
1.20235653381807
31
0
210
0
220
0
230
1
40
0.990555
41
-0.476089217726881
42
0.47608921772688
0
POINT
5
6C
100
AcDbEntity
8
80
62
256
6
ByLayer
370
18
48
1
60
0
100
AcDbPoint
10
0
20
0
30
0
39
0
210
0
220
0
230
1
50
360
0
POINT
5
6E
100
AcDbEntity
8
81
62
256
6
ByLayer
370
18
48
1
60
0
100
AcDbPoint
10
65
20
0.4817
30
0
39
0
210
0
220
0
230
1
50
360
0
SPLINE
5
EC
100
AcDbEntity
8
SK1
62
256
6
ByLayer
370
13
48
1
60
0
100
AcDbSpline
70
4
71
2
72
6
73
3
40
0
40
0
40
0
40
1
40
1
40
1
41
1
10
-0.194976888875288
20
21.8639496970129
30
0
41
1
10
-0.995008433397771
20
21.8438664509462
30
0
41
1
10
-1.7950399779393
20
21.8237832115739
30
0
0
SPLINE
5
ED
100
AcDbEntity
8
SK1
62
256
6
ByLayer
370
13
48
1
60
0
100
AcDbSpline
70
4
71
2
72
6
73
3
40
0
40
0
40
0
40
1
40
1
40
1
41
1
10
-1.7950399779393
20
-21.8237832285765
30
0
41
1
10
-0.995008433397771
20
-21.8438664676547
30
0
41
1
10
-0.194976888875288
20
-21.8639497134274
30
0
0
SPLINE
5
EE
100
AcDbEntity
8
SK1
62
256
6
ByLayer
370
13
48
1
60
0
100
AcDbSpline
70
4
71
2
72
6
73
3
40
0
40
0
40
0
40
1
40
1
40
1
41
1
10
-36.5
20
-21.1524613224033
30
0
41
1
10
-19.2499999976426
20
-21.5855495141177
30
0
41
1
10
-2
20
-22.0186362439356
30
0
0
SPLINE
5
EF
100
AcDbEntity
8
SK1
62
256
6
ByLayer
370
13
48
1
60
0
100
AcDbSpline
70
4
71
2
72
6
73
3
40
0
40
0
40
0
40
1
40
1
40
1
41
1
10
-2
20
22.018635875508
30
0
41
1
10
-19.2499999976431
20
21.5855491455244
30
0
41
1
10
-36.5
20
21.1524609537578
30
0
0
SPLINE
5
F0
100
AcDbEntity
8
SK1
62
256
6
ByLayer
370
13
48
1
60
0
100
AcDbSpline
70
4
71
3
72
13
73
9
40
0
40
0
40
0
40
0
40
0.239406675533134
40
0.368294170919284
40
0.49992791261145
40
0.631573622065792
40
0.760494133568951
40
1
40
1
40
1
40
1
41
1
10
-2
20
-22.0251209952818
30
0
41
1
10
-1.99909122094999
20
-21.9990737575566
30
0
41
1
10
-1.99103207881225
20
-21.9617163884142
30
0
41
1
10
-1.96563491014865
20
-21.9155180963752
30
0
41
1
10
-1.93886244237069
20
-21.8842503451972
30
0
41
1
10
-1.90627568046548
20
-21.8590943224455
30
0
41
1
10
-1.85883864366616
20
-21.8360608861174
30
0
41
1
10
-1.82110926269925
20
-21.8298912593851
30
0
41
1
10
-1.7950399779393
20
-21.8302933674113
30
0
0
SPLINE
5
F1
100
AcDbEntity
8
SK1
62
256
6
ByLayer
370
13
48
1
60
0
100
AcDbSpline
70
4
71
3
72
13
73
9
40
0
40
0
40
0
40
0
40
0.239505865890109
40
0.368426377204699
40
0.500072086585799
40
0.63170582834002
40
0.760593323909319
40
1
40
1
40
1
40
1
41
1
10
-1.7950399779393
20
21.8302932076066
30
0
41
1
10
-1.82110926271048
20
21.8298910995853
30
0
41
1
10
-1.85883864368745
20
21.8360607263469
30
0
41
1
10
-1.90627568048194
20
21.8590941627914
30
0
41
1
10
-1.93886244238612
20
21.8842501856704
30
0
41
1
10
-1.96563491016022
20
21.9155179370029
30
0
41
1
10
-1.99103207882064
20
21.9617162292747
30
0
41
1
10
-1.99909122095849
20
21.9990735985876
30
0
41
1
10
-2
20
22.0251208364275
30
0
0
SPLINE
5
F2
100
AcDbEntity
8
SK1
62
256
6
ByLayer
370
13
48
1
60
0
100
AcDbSpline
70
4
71
2
72
6
73
3
40
0
40
0
40
0
40
1
40
1
40
1
41
1
10
-38
20
-20.2898800072422
30
0
41
1
10
-37.2499998580851
20
-20.7226367943926
30
0
41
1
10
-36.5
20
-21.15539096789
30
0
0
SPLINE
5
F3
100
AcDbEntity
8
SK1
62
256
6
ByLayer
370
13
48
1
60
0
100
AcDbSpline
70
4
71
2
72
6
73
3
40
0
40
0
40
0
40
1
40
1
40
1
41
1
10
-36.5
20
21.155390865424
30
0
41
1
10
-37.2499998580829
20
20.722636690256
30
0
41
1
10
-38
20
20.2898799013383
30
0
0
SPLINE
5
F4
100
AcDbEntity
8
SK1
62
256
6
ByLayer
370
13
48
1
60
0
100
AcDbSpline
70
4
71
2
72
6
73
3
40
0
40
0
40
0
40
1
40
1
40
1
41
1
10
-0.194976888875288
20
-21.8704747460203
30
0
41
1
10
-0.0503946942877462
20
-21.8819452285151
30
0
41
1
10
-0.0284431992268139
20
-21.9541255320955
30
0
0
SPLINE
5
F5
100
AcDbEntity
8
SK1
62
256
6
ByLayer
370
13
48
1
60
0
100
AcDbSpline
70
4
71
2
72
6
73
3
40
0
40
0
40
0
40
1
40
1
40
1
41
1
10
-0.0279011361397181
20
21.9549104253991
30
0
41
1
10
-0.0497321260498325
20
21.8821482185099
30
0
41
1
10
-0.194976888875288
20
21.8704745864116
30
0
0
SPLINE
5
F6
100
AcDbEntity
8
SK1
62
256
6
ByLayer
370
13
48
1
60
0
100
AcDbSpline
70
4
71
3
72
23
73
19
40
0
40
0
40
0
40
0
40
0.0423096479350465
40
0.0994314529110061
40
0.156553257886966
40
0.213675062862925
40
0.327918672814844
40
0.442162282766764
40
0.499284087742723
40
0.556405892718683
40
0.670649502670602
40
0.727771307646562
40
0.784893112622522
40
0.842014917598481
40
0.899136722574441
40
0.9562585275504
40
0.98481943003838
40
1
40
1
40
1
40
1
41
1
10
-1.79503997793927
20
21.8302779652002
30
0
41
1
10
-1.79503997793924
20
21.8309033792026
30
0
41
1
10
-1.79503997793927
20
21.787119271435
30
0
41
1
10
-1.7950399779393
20
21.5671864477184
30
0
41
1
10
-1.7950399779393
20
21.1565876158885
30
0
41
1
10
-1.7950399779393
20
20.4022762052016
30
0
41
1
10
-1.7950399779393
20
19.101073730141
30
0
41
1
10
-1.7950399779393
20
17.3747488027599
30
0
41
1
10
-1.7950399779393
20
15.7565286767833
30
0
41
1
10
-1.7950399779393
20
13.9857840798917
30
0
41
1
10
-1.7950399779393
20
11.9936135169182
30
0
41
1
10
-1.7950399779393
20
9.78370710557337
30
0
41
1
10
-1.7950399779393
20
8.02089380010176
30
0
41
1
10
-1.7950399779393
20
6.15385433510392
30
0
41
1
10
-1.7950399779393
20
4.18621524287374
30
0
41
1
10
-1.7950399779393
20
2.47030995483456
30
0
41
1
10
-1.7950399779393
20
1.22796960685096
30
0
41
1
10
-1.7950399779393
20
0.68615237839083
30
0
41
1
10
-1.7950399779393
20
0.497941450133993
30
0
0
SPLINE
5
F7
100
AcDbEntity
8
SK1
62
256
6
ByLayer
370
13
48
1
60
0
100
AcDbSpline
70
4
71
3
72
20
73
16
40
0
40
0
40
0
40
0
40
0.0579409447634782
40
0.124923477522795
40
0.191906010282112
40
0.258888543041429
40
0.392853608560064
40
0.526818674078698
40
0.593801206838015
40
0.660783739597332
40
0.794748805115966
40
0.861731337875283
40
0.9287138706346
40
0.995696403393917
40
1
40
1
40
1
40
1
41
1
10
-0.19497688887526
20
21.8685013861238
30
0
41
1
10
-0.19497688887526
20
21.8768655437473
30
0
41
1
10
-0.194976888875288
20
21.8372244532595
30
0
41
1
10
-0.194976888875288
20
21.6069519109193
30
0
41
1
10
-0.194976888875288
20
21.1957614261541
30
0
41
1
10
-0.194976888875288
20
20.4405035302762
30
0
41
1
10
-0.194976888875288
20
19.1375809778665
30
0
41
1
10
-0.194976888875288
20
17.4090434636518
30
0
41
1
10
-0.194976888875288
20
15.7889648215842
30
0
41
1
10
-0.194976888875288
20
14.0161341102769
30
0
41
1
10
-0.194976888875288
20
12.0209591616842
30
0
41
1
10
-0.194976888875288
20
9.80801707431957
30
0
41
1
10
-0.194976888875288
20
8.04231555647985
30
0
41
1
10
-0.194976888875288
20
6.75522752997537
30
0
41
1
10
-0.194976888875288
20
6.07248683105718
30
0
41
1
10
-0.194976888875288
20
6.03119978687545
30
0
0
SPLINE
5
F8
100
AcDbEntity
8
SK1
62
256
6
ByLayer
370
13
48
1
60
0
100
AcDbSpline
70
4
71
3
72
23
73
19
40
0
40
0
40
0
40
0
40
0.0151805133845703
40
0.0437410009261906
40
0.100861976009431
40
0.157982951092672
40
0.215103926175913
40
0.272224901259153
40
0.329345876342394
40
0.443587826508875
40
0.500708801592116
40
0.557829776675356
40
0.672071726841837
40
0.786313677008319
40
0.843434652091559
40
0.9005556271748
40
0.95767660225804
40
1
40
1
40
1
40
1
41
1
10
-1.7950399779393
20
-0.497935257507464
30
0
41
1
10
-1.7950399779393
20
-0.686148227370921
30
0
41
1
10
-1.7950399779393
20
-1.22796752001375
30
0
41
1
10
-1.7950399779393
20
-2.47030998023922
30
0
41
1
10
-1.7950399779393
20
-4.18621515342139
30
0
41
1
10
-1.7950399779393
20
-6.15385395841673
30
0
41
1
10
-1.7950399779393
20
-8.02089392647389
30
0
41
1
10
-1.7950399779393
20
-9.78370691003113
30
0
41
1
10
-1.7950399779393
20
-11.9936132714088
30
0
41
1
10
-1.7950399779393
20
-13.9857840732081
30
0
41
1
10
-1.7950399779393
20
-15.7565284847275
30
0
41
1
10
-1.7950399779393
20
-17.3747492708666
30
0
41
1
10
-1.7950399779393
20
-19.1010732050206
30
0
41
1
10
-1.7950399779393
20
-20.4022771684283
30
0
41
1
10
-1.7950399779393
20
-21.1565874478056
30
0
41
1
10
-1.7950399779393
20
-21.567186866652
30
0
41
1
10
-1.7950399779393
20
-21.7871401600546
30
0
41
1
10
-1.7950399779393
20
-21.8309162567324
30
0
41
1
10
-1.79503997793932
20
-21.8302774776157
30
0
0
SPLINE
5
F9
100
AcDbEntity
8
SK1
62
256
6
ByLayer
370
13
48
1
60
0
100
AcDbSpline
70
4
71
3
72
20
73
16
40
0
40
0
40
0
40
0
40
0.0043037080536923
40
0.0712861922390621
40
0.138268676424432
40
0.205251160609802
40
0.339216128980541
40
0.406198613165911
40
0.473181097351281
40
0.60714606572202
40
0.74111103409276
40
0.808093518278129
40
0.875076002463499
40
0.942058486648869
40
1
40
1
40
1
40
1
41
1
10
-0.194976888875288
20
-6.03119623886749
30
0
41
1
10
-0.194976888875288
20
-6.07248438694882
30
0
41
1
10
-0.194976888875288
20
-6.7552262401928
30
0
41
1
10
-0.194976888875288
20
-8.04231567916281
30
0
41
1
10
-0.194976888875288
20
-9.80801688319883
30
0
41
1
10
-0.194976888875288
20
-12.0209589146812
30
0
41
1
10
-0.194976888875288
20
-14.0161341032345
30
0
41
1
10
-0.194976888875288
20
-15.788964627033
30
0
41
1
10
-0.194976888875288
20
-17.4090439325775
30
0
41
1
10
-0.194976888875288
20
-19.1375804507264
30
0
41
1
10
-0.194976888875288
20
-20.4405044941378
30
0
41
1
10
-0.194976888875288
20
-21.1957612581816
30
0
41
1
10
-0.194976888875288
20
-21.6069523286528
30
0
41
1
10
-0.194976888875317
20
-21.8372259083755
30
0
41
1
10
-0.19497688887526
20
-21.8768660879881
30
0
41
1
10
-0.19497688887526
20
-21.8685012532466
30
0
0
SPLINE
5
FA
100
AcDbEntity
8
SK1
62
256
6
ByLayer
370
13
48
1
60
0
100
AcDbSpline
70
4
71
3
72
39
73
35
40
0
40
0
40
0
40
0
40
0.0136745864459191
40
0.0422819843287908
40
0.0708893822116625
40
0.0994967800945343
40
0.156711575860278
40
0.213926371626021
40
0.242533769508893
40
0.271141167391765
40
0.328355963157508
40
0.35696336104038
40
0.385570758923252
40
0.414178156806124
40
0.442785554688995
40
0.471392952571867
40
0.485696651513303
40
0.500000350454739
40
0.514304049396175
40
0.52860774833761
40
0.557215146220482
40
0.585822544103354
40
0.614429941986226
40
0.643037339869097
40
0.671644737751969
40
0.728859533517713
40
0.757466931400584
40
0.786074329283456
40
0.8432891250492
40
0.900503920814943
40
0.929111318697815
40
0.957718716580687
40
0.986326114463558
40
1
40
1
40
1
40
1
41
1
10
-2
20
22.0185530034843
30
0
41
1
10
-2
20
22.0102354315392
30
0
41
1
10
-2
20
21.9603732611245
30
0
41
1
10
-2
20
21.7599974084889
30
0
41
1
10
-2
20
21.3465298267009
30
0
41
1
10
-2
20
20.5876291894755
30
0
41
1
10
-2
20
19.2780865684795
30
0
41
1
10
-2
20
17.5410334624521
30
0
41
1
10
-2
20
15.9138019420577
30
0
41
1
10
-2
20
14.1329423938392
30
0
41
1
10
-2
20
12.1262044542746
30
0
41
1
10
-2
20
9.90157894844808
30
0
41
1
10
-2
20
8.12476155609352
30
0
41
1
10
-2
20
6.24074256492972
30
0
41
1
10
-2
20
4.25159967761499
30
0
41
1
10
-2
20
2.5111868964961
30
0
41
1
10
-2
20
1.08235400424977
30
0
41
1
10
-2
20
2.27208261E-08
30
0
41
1
10
-2
20
-1.08235390921519
30
0
41
1
10
-2
20
-2.51118690843629
30
0
41
1
10
-2
20
-4.25159964823044
30
0
41
1
10
-2
20
-6.24074217144337
30
0
41
1
10
-2
20
-8.12476166457805
30
0
41
1
10
-2
20
-9.90157877434436
30
0
41
1
10
-2
20
-12.1262042015232
30
0
41
1
10
-2
20
-14.1329423854158
30
0
41
1
10
-2
20
-15.9138017379025
30
0
41
1
10
-2
20
-17.5410339345301
30
0
41
1
10
-2
20
-19.2780860335662
30
0
41
1
10
-2
20
-20.5876301557807
30
0
41
1
10
-2
20
-21.346529659153
30
0
41
1
10
-2
20
-21.7599978216034
30
0
41
1
10
-2
20
-21.9603719635134
30
0
41
1
10
-1.99999999999997
20
-22.0102341375574
30
0
41
1
10
-1.99999999999997
20
-22.0185519962482
30
0
0
SPLINE
5
FB
100
AcDbEntity
8
SK1
62
256
6
ByLayer
370
13
48
1
60
0
100
AcDbSpline
70
4
71
3
72
39
73
35
40
0
40
0
40
0
40
0
40
0.0160529928781538
40
0.0445204464706574
40
0.0729879000631609
40
0.101455353655665
40
0.158390260840672
40
0.215325168025679
40
0.243792621618182
40
0.272260075210686
40
0.329194982395693
40
0.357662435988197
40
0.3861298895807
40
0.414597343173204
40
0.443064796765707
40
0.471532250358211
40
0.485765977154463
40
0.499999703950715
40
0.514233430746966
40
0.528467157543218
40
0.556934611135722
40
0.585402064728225
40
0.613869518320729
40
0.642336971913232
40
0.670804425505736
40
0.727739332690743
40
0.756206786283247
40
0.78467423987575
40
0.841609147060757
40
0.898544054245764
40
0.927011507838268
40
0.955478961430771
40
0.983946415023275
40
1
40
1
40
1
40
1
41
1
10
-36.5
20
21.1559485374008
30
0
41
1
10
-36.5
20
21.1496524687671
30
0
41
1
10
-36.5
20
21.1029045909476
30
0
41
1
10
-36.5
20
20.9025884164263
30
0
41
1
10
-36.5
20
20.5018778480376
30
0
41
1
10
-36.5
20
19.763384993051
30
0
41
1
10
-36.5
20
18.4909300775028
30
0
41
1
10
-36.5
20
16.801583993955
30
0
41
1
10
-36.5
20
15.2144251466802
30
0
41
1
10
-36.5
20
13.4785456669563
30
0
41
1
10
-36.5
20
11.5365872380067
30
0
41
1
10
-36.5
20
9.37741591545509
30
0
41
1
10
-36.5
20
7.66287314675827
30
0
41
1
10
-36.5
20
5.85436022826511
30
0
41
1
10
-36.5
20
3.9608423365176
30
0
41
1
10
-36.5
20
2.32941166334251
30
0
41
1
10
-36.5
20
0.997014065912424
30
0
41
1
10
-36.5
20
1.676932584E-07
30
0
41
1
10
-36.5
20
-0.997014040356845
30
0
41
1
10
-36.5
20
-2.32941173515778
30
0
41
1
10
-36.5
20
-3.96084204001809
30
0
41
1
10
-36.5
20
-5.85435990948278
30
0
41
1
10
-36.5
20
-7.66287333478689
30
0
41
1
10
-36.5
20
-9.37741564601666
30
0
41
1
10
-36.5
20
-11.53658701746
30
0
41
1
10
-36.5
20
-13.4785456662698
30
0
41
1
10
-36.5
20
-15.2144249963299
30
0
41
1
10
-36.5
20
-16.8015844483731
30
0
41
1
10
-36.5
20
-18.4909295861375
30
0
41
1
10
-36.5
20
-19.7633859456667
30
0
41
1
10
-36.5
20
-20.5018776781105
30
0
41
1
10
-36.5
20
-20.9025888554179
30
0
41
1
10
-36.5
20
-21.1029068946682
30
0
41
1
10
-36.5
20
-21.1496540301624
30
0
41
1
10
-36.5
20
-21.1559494627227
30
0
0
SPLINE
5
FC
100
AcDbEntity
8
SK1
62
256
6
ByLayer
370
13
48
1
60
0
100
AcDbSpline
70
4
71
3
72
39
73
35
40
0
40
0
40
0
40
0
40
0.0209207350034087
40
0.0491019265356692
40
0.0772831180679296
40
0.10546430960019
40
0.161826692664711
40
0.218189075729232
40
0.246370267261493
40
0.274551458793753
40
0.330913841858274
40
0.359095033390535
40
0.387276224922795
40
0.415457416455056
40
0.443638607987316
40
0.471819799519576
40
0.485910395285707
40
0.500000991051837
40
0.514091586817967
40
0.528182182584097
40
0.556363374116358
40
0.584544565648618
40
0.612725757180879
40
0.640906948713139
40
0.6690881402454
40
0.725450523309921
40
0.753631714842181
40
0.781812906374442
40
0.838175289438963
40
0.894537672503484
40
0.922718864035744
40
0.950900055568005
40
0.979081247100265
40
1
40
1
40
1
40
1
41
1
10
-38
20
20.2930935614935
30
0
41
1
10
-38
20
20.2935686073992
30
0
41
1
10
-38
20
20.2526783649367
30
0
41
1
10
-38
20
20.0459061788578
30
0
41
1
10
-38
20
19.657941810806
30
0
41
1
10
-38
20
18.9398394400736
30
0
41
1
10
-38
20
17.7044407938012
30
0
41
1
10
-38
20
16.0627612954467
30
0
41
1
10
-38
20
14.5156411550098
30
0
41
1
10
-38
20
12.8247036179069
30
0
41
1
10
-38
20
10.9474697913536
30
0
41
1
10
-38
20
8.8536971719941
30
0
41
1
10
-38
20
7.20137624192125
30
0
41
1
10
-38
20
5.46830539586296
30
0
41
1
10
-38
20
3.67033144630452
30
0
41
1
10
-38
20
2.14779050597869
30
0
41
1
10
-38
20
0.911746463163183
30
0
41
1
10
-38
20
3.12542852E-07
30
0
41
1
10
-38
20
-0.911746507027743
30
0
41
1
10
-38
20
-2.14779063761824
30
0
41
1
10
-38
20
-3.67033088291646
30
0
41
1
10
-38
20
-5.46830515172132
30
0
41
1
10
-38
20
-7.20137650942658
30
0
41
1
10
-38
20
-8.85369680730176
30
0
41
1
10
-38
20
-10.9474696029843
30
0
41
1
10
-38
20
-12.8247036249507
30
0
41
1
10
-38
20
-14.5156410584188
30
0
41
1
10
-38
20
-16.0627617322199
30
0
41
1
10
-38
20
-17.704440345947
30
0
41
1
10
-38
20
-18.9398403790116
30
0
41
1
10
-38
20
-19.6579416385018
30
0
41
1
10
-38
20
-20.0459066437044
30
0
41
1
10
-38
20
-20.2526737401242
30
0
41
1
10
-38
20
-20.2935655365718
30
0
41
1
10
-38
20
-20.2930938606927
30
0
0
SPLINE
5
FD
100
AcDbEntity
8
SK1
62
256
6
ByLayer
370
13
48
1
60
0
100
AcDbSpline
70
4
71
3
72
12
73
8
40
0
40
0
40
0
40
0
40
0.5
40
0.5
40
0.75
40
0.75
40
1
40
1
40
1
40
1
41
1
10
-1.31543506509499
20
-4.80312334332308
30
0
41
1
10
-1.43626038012124
20
-4.11866935787489
30
0
41
1
10
-1.54570721487309
20
-3.42035587539115
30
0
41
1
10
-1.67354352823307
20
-2.34403380820945
30
0
41
1
10
-1.71004428429421
20
-1.97975878102099
30
0
41
1
10
-1.76632771414097
20
-1.24234487929357
30
0
41
1
10
-1.78580966896862
20
-0.871393560732287
30
0
41
1
10
-1.7950399779393
20
-0.497935257502576
30
0
0
SPLINE
5
FE
100
AcDbEntity
8
SK1
62
256
6
ByLayer
370
13
48
1
60
0
100
AcDbSpline
70
4
71
3
72
34
73
30
40
0
40
0
40
0
40
0
40
0.25
40
0.25
40
0.374999999999999
40
0.374999999999999
40
0.499999999999998
40
0.499999999999998
40
0.562499999999997
40
0.562499999999997
40
0.624999999999997
40
0.624999999999997
40
0.687499999999996
40
0.687499999999996
40
0.718749999999997
40
0.718749999999997
40
0.749999999999997
40
0.749999999999997
40
0.781249999999998
40
0.781249999999998
40
0.812499999999998
40
0.812499999999998
40
0.843749999999998
40
0.843749999999998
40
0.874999999999999
40
0.874999999999999
40
0.937499999999999
40
0.937499999999999
40
1
40
1
40
1
40
1
41
1
10
-1.31543506509499
20
4.80312611568496
30
0
41
1
10
-1.28076938263689
20
4.99950134763085
30
0
41
1
10
-1.24073424809558
20
5.19296621604755
30
0
41
1
10
-1.16716345288555
20
5.47772249512806
30
0
41
1
10
-1.14035871890096
20
5.5717277579399
30
0
41
1
10
-1.08003870986326
20
5.75744069734628
30
0
41
1
10
-1.0466417475028
20
5.84917628269082
30
0
41
1
10
-0.98787095200197
20
5.98422522484148
30
0
41
1
10
-0.966814762414941
20
6.02881109619292
30
0
41
1
10
-0.920216840242489
20
6.11675996236784
30
0
41
1
10
-0.894592617883319
20
6.16031587632338
30
0
41
1
10
-0.836953448701905
20
6.24322425173733
30
0
41
1
10
-0.804677180595803
20
6.28326755262006
30
0
41
1
10
-0.747674065319899
20
6.33559137660484
30
0
41
1
10
-0.72705910135511
20
6.35184391326266
30
0
41
1
10
-0.681738910285105
20
6.37945377207504
30
0
41
1
10
-0.657061875915446
20
6.39070752888705
30
0
41
1
10
-0.604455725267144
20
6.40405906682957
30
0
41
1
10
-0.576546648803713
20
6.40583378366253
30
0
41
1
10
-0.522989873971284
20
6.39866789693866
30
0
41
1
10
-0.497049674240088
20
6.38984384835305
30
0
41
1
10
-0.450155916699345
20
6.36622057634358
30
0
41
1
10
-0.428474458443333
20
6.35122677304881
30
0
41
1
10
-0.389101872855861
20
6.31856901057452
30
0
41
1
10
-0.371152434600191
20
6.30076511496756
30
0
41
1
10
-0.320681081891877
20
6.24445660967771
30
0
41
1
10
-0.291787721448316
20
6.20344902962282
30
0
41
1
10
-0.239753745739222
20
6.11925961210233
30
0
41
1
10
-0.216500232484975
20
6.07570695265287
30
0
41
1
10
-0.194976888875288
20
6.03119978687542
30
0
0
SPLINE
5
FF
100
AcDbEntity
8
SK1
62
256
6
ByLayer
370
13
48
1
60
0
100
AcDbSpline
70
4
71
3
72
8
73
4
40
0
40
0
40
0
40
0
40
1
40
1
40
1
40
1
41
1
10
-1.7950399779393
20
-0.497935257502604
30
0
41
1
10
-1.80323928503955
20
-0.166191290205632
30
0
41
1
10
-1.80323916446787
20
0.166203092031168
30
0
41
1
10
-1.7950399779393
20
0.497941450131577
30
0
0
SPLINE
5
100
100
AcDbEntity
8
SK1
62
256
6
ByLayer
370
13
48
1
60
0
100
AcDbSpline
70
4
71
3
72
24
73
20
40
0
40
0
40
0
40
0
40
0.249999999999999
40
0.249999999999999
40
0.499999999999998
40
0.499999999999998
40
0.624999999999998
40
0.624999999999998
40
0.687499999999999
40
0.687499999999999
40
0.75
40
0.75
40
0.78125
40
0.78125
40
0.8125
40
0.8125
40
0.875000000000001
40
0.875000000000001
40
1
40
1
40
1
40
1
41
1
10
0
20
-6.51832721803825
30
0
41
1
10
0
20
-6.45521726569339
30
0
41
1
10
-0.0010439765855779
20
-6.39189461883097
30
0
41
1
10
-0.0066331530334196
20
-6.26465120291144
30
0
41
1
10
-0.0109424851580116
20
-6.20075349479788
30
0
41
1
10
-0.0237439417306291
20
-6.1040606827417
30
0
41
1
10
-0.0290317032600171
20
-6.07172258256588
30
0
41
1
10
-0.0407287462311672
20
-6.02386683286153
30
0
41
1
10
-0.0452407179008389
20
-6.00804175292333
30
0
41
1
10
-0.0569503819506849
20
-5.97703230690635
30
0
41
1
10
-0.0639847329876488
20
-5.96167149255632
30
0
41
1
10
-0.0794665436231696
20
-5.94297667581378
30
0
41
1
10
-0.0856933621546148
20
-5.93751024445527
30
0
41
1
10
-0.0994753515920763
20
-5.93143467594496
30
0
41
1
10
-0.106898867018032
20
-5.93099690243085
30
0
41
1
10
-0.127526182101434
20
-5.93600678346371
30
0
41
1
10
-0.138514071389892
20
-5.94580218732199
30
0
41
1
10
-0.167434781694766
20
-5.97774492562661
30
0
41
1
10
-0.181895439459055
20
-6.00414567932467
30
0
41
1
10
-0.194976888875288
20
-6.03119623886741
30
0
0
SPLINE
5
101
100
AcDbEntity
8
SK1
62
256
6
ByLayer
370
13
48
1
60
0
100
AcDbSpline
70
4
71
3
72
12
73
8
40
0
40
0
40
0
40
0
40
0.5
40
0.5
40
0.75
40
0.75
40
1
40
1
40
1
40
1
41
1
10
-1.7950399779393
20
0.497941450131549
30
0
41
1
10
-1.77653911995267
20
1.24648451968332
30
0
41
1
10
-1.71691558807234
20
1.97709250533785
30
0
41
1
10
-1.58941504529798
20
3.05322425212358
30
0
41
1
10
-1.5404899234419
20
3.4089616956505
30
0
41
1
10
-1.43359349354216
20
4.11326628111749
30
0
41
1
10
-1.37594187827943
20
4.46036524583113
30
0
41
1
10
-1.31543506509496
20
4.80312611568496
30
0
0
SPLINE
5
102
100
AcDbEntity
8
SK1
62
256
6
ByLayer
370
13
48
1
60
0
100
AcDbSpline
70
4
71
3
72
24
73
20
40
0
40
0
40
0
40
0
40
0.124999999999995
40
0.124999999999995
40
0.187499999999996
40
0.187499999999996
40
0.218749999999997
40
0.218749999999997
40
0.249999999999999
40
0.249999999999999
40
0.312499999999998
40
0.312499999999998
40
0.374999999999998
40
0.374999999999998
40
0.499999999999999
40
0.499999999999999
40
0.749999999999999
40
0.749999999999999
40
1
40
1
40
1
40
1
41
1
10
-0.194976888875288
20
6.03119978687536
30
0
41
1
10
-0.181826601052364
20
6.00400689107025
30
0
41
1
10
-0.167547853045193
20
5.97777938884394
30
0
41
1
10
-0.138133845529751
20
5.94543358563715
30
0
41
1
10
-0.126980857487126
20
5.93562617457019
30
0
41
1
10
-0.106202380896065
20
5.93096620796081
30
0
41
1
10
-0.0986246656831895
20
5.93160838656962
30
0
41
1
10
-0.0848219900974243
20
5.93813005665652
30
0
41
1
10
-0.0786743531298555
20
5.94375731446291
30
0
41
1
10
-0.0632480439709582
20
5.96296745832603
30
0
41
1
10
-0.0563081800737564
20
5.97850106964674
30
0
41
1
10
-0.04482486119079
20
6.0094047866759
30
0
41
1
10
-0.0403569856851504
20
6.02522873434137
30
0
41
1
10
-0.0287512143408435
20
6.07322146495508
30
0
41
1
10
-0.023539396518828
20
6.10541609960532
30
0
41
1
10
-0.0109168840251357
20
6.20134675222823
30
0
41
1
10
-0.0066122065278762
20
6.26502203387074
30
0
41
1
10
-0.0010425489437296
20
6.39204044257289
30
0
41
1
10
-2.84E-14
20
6.45536729044548
30
0
41
1
10
-2.84E-14
20
6.51833045883683
30
0
0
SPLINE
5
103
100
AcDbEntity
8
SK1
62
256
6
ByLayer
370
13
48
1
60
0
100
AcDbSpline
70
4
71
3
72
32
73
28
40
0
40
0
40
0
40
0
40
0.0625000000000017
40
0.0625000000000017
40
0.125000000000003
40
0.125000000000003
40
0.156250000000004
40
0.156250000000004
40
0.187500000000004
40
0.187500000000004
40
0.218750000000005
40
0.218750000000005
40
0.250000000000005
40
0.250000000000005
40
0.281250000000006
40
0.281250000000006
40
0.312500000000006
40
0.312500000000006
40
0.375000000000006
40
0.375000000000006
40
0.500000000000005
40
0.500000000000005
40
0.625000000000004
40
0.625000000000004
40
0.750000000000003
40
0.750000000000003
40
1
40
1
40
1
40
1
41
1
10
-0.194976888875288
20
-6.03119623886744
30
0
41
1
10
-0.216476397702166
20
-6.075654136856
30
0
41
1
10
-0.239719906249405
20
-6.11920120285222
30
0
41
1
10
-0.291819587963403
20
-6.20349730033152
30
0
41
1
10
-0.32071178410618
20
-6.24444755452771
30
0
41
1
10
-0.370805626911078
20
-6.30039460043281
30
0
41
1
10
-0.388669874004279
20
-6.31816612880365
30
0
41
1
10
-0.428100448786694
20
-6.35095364496377
30
0
41
1
10
-0.449595363724427
20
-6.36587761222927
30
0
41
1
10
-0.496632229497095
20
-6.38968642649166
30
0
41
1
10
-0.522118500213935
20
-6.39842910180337
30
0
41
1
10
-0.575596634572378
20
-6.40581842460642
30
0
41
1
10
-0.603233784185562
20
-6.40421915223939
30
0
41
1
10
-0.656008890476727
20
-6.3911121519798
30
0
41
1
10
-0.680495240425699
20
-6.3800702756829
30
0
41
1
10
-0.725877051355496
20
-6.35269147338835
30
0
41
1
10
-0.746448178782032
20
-6.33658984105304
30
0
41
1
10
-0.803382284250034
20
-6.28468795825665
30
0
41
1
10
-0.835688145965605
20
-6.24480222126087
30
0
41
1
10
-0.921506082848794
20
-6.12205920658053
30
0
41
1
10
-0.965943458408788
20
-6.03408763197248
30
0
41
1
10
-1.04518913801428
20
-5.85300733327867
30
0
41
1
10
-1.0789513815605
20
-5.76055794093682
30
0
41
1
10
-1.13972960357563
20
-5.57388163689993
30
0
41
1
10
-1.16668399631223
20
-5.47947446809698
30
0
41
1
10
-1.24059701289747
20
-5.19369243133596
30
0
41
1
10
-1.28071949576554
20
-4.99978088797323
30
0
41
1
10
-1.31543506509499
20
-4.80312334332308
30
0
0
SPLINE
5
104
100
AcDbEntity
8
1
62
256
6
ByLayer
370
13
48
1
60
0
100
AcDbSpline
70
4
71
3
72
16
73
12
40
0
40
0
40
0
40
0
40
0.249999999999999
40
0.249999999999999
40
0.499999999999998
40
0.499999999999998
40
0.749999999999997
40
0.749999999999997
40
0.874999999999998
40
0.874999999999998
40
1
40
1
40
1
40
1
41
1
10
13.8943375672975
20
9.86941261896695
30
0
41
1
10
13.8787501654514
20
9.81243201498881
30
0
41
1
10
13.8600981524866
20
9.75655023083047
30
0
41
1
10
13.8145135903112
20
9.6478084197347
30
0
41
1
10
13.7875017792167
20
9.59456078532688
30
0
41
1
10
13.7208200031231
20
9.49465699870706
30
0
41
1
10
13.681061856087
20
9.44778039735286
30
0
41
1
10
13.608408157626
20
9.39323398486533
30
0
41
1
10
13.5814155034805
20
9.37745951316418
30
0
41
1
10
13.5238105256954
20
9.35548920253927
30
0
41
1
10
13.492758797411
20
9.34922131452581
30
0
41
1
10
13.4613248654053
20
9.34922131452581
30
0
0
SPLINE
5
105
100
AcDbEntity
8
1
62
256
6
ByLayer
370
13
48
1
60
0
100
AcDbSpline
70
4
71
3
72
16
73
12
40
0
40
0
40
0
40
0
40
0.125
40
0.125
40
0.25
40
0.25
40
0.5
40
0.5
40
0.75
40
0.75
40
1
40
1
40
1
40
1
41
1
10
10.538675134595
20
-30.0805927603168
30
0
41
1
10
10.507195972683
20
-30.0805927603168
30
0
41
1
10
10.47656957336
20
-30.0786859906589
30
0
41
1
10
10.418473693
20
-30.07179594856
30
0
41
1
10
10.3920418953326
20
-30.0669872793661
30
0
41
1
10
10.3182367311262
20
-30.0496472407049
30
0
41
1
10
10.2791703657595
20
-30.0350452819074
30
0
41
1
10
10.2125137122671
20
-30.0032932993814
30
0
41
1
10
10.1857347330746
20
-29.9863830332715
30
0
41
1
10
10.1400559187763
20
-29.9511519005794
30
0
41
1
10
10.1212556944728
20
-29.9327613369586
30
0
41
1
10
10.1056624327028
20
-29.913954846469
30
0
0
SPLINE
5
106
100
AcDbEntity
8
1
62
256
6
ByLayer
370
13
48
1
60
0
100
AcDbSpline
70
4
71
3
72
16
73
12
40
0
40
0
40
0
40
0
40
0.250000000000002
40
0.250000000000002
40
0.500000000000004
40
0.500000000000004
40
0.750000000000005
40
0.750000000000005
40
0.875000000000003
40
0.875000000000003
40
1
40
1
40
1
40
1
41
1
10
13.8943375672975
20
-29.9139548464688
30
0
41
1
10
13.8787501654514
20
-29.9327542695082
30
0
41
1
10
13.8600981524866
20
-29.9510098933133
30
0
41
1
10
13.8145135903112
20
-29.9862144781926
30
0
41
1
10
13.7875017792167
20
-30.0032856662982
30
0
41
1
10
13.7208200031231
20
-30.0350501233764
30
0
41
1
10
13.681061856087
20
-30.0498069467435
30
0
41
1
10
13.608408157626
20
-30.066884080311
30
0
41
1
10
13.5814155034805
20
-30.0718038277877
30
0
41
1
10
13.5238105256954
20
-30.0786461490399
30
0
41
1
10
13.492758797411
20
-30.0805927603167
30
0
41
1
10
13.4613248654053
20
-30.0805927603167
30
0
0
SPLINE
5
107
100
AcDbEntity
8
1
62
256
6
ByLayer
370
13
48
1
60
0
100
AcDbSpline
70
4
71
3
72
16
73
12
40
0
40
0
40
0
40
0
40
0.125
40
0.125
40
0.249999999999999
40
0.249999999999999
40
0.499999999999999
40
0.499999999999999
40
0.75
40
0.75
40
1
40
1
40
1
40
1
41
1
10
13.4613248654053
20
30.0805927603167
30
0
41
1
10
13.4928040273174
20
30.0805927603167
30
0
41
1
10
13.5234304266404
20
30.0786859906588
30
0
41
1
10
13.5815263070003
20
30.0717959485599
30
0
41
1
10
13.6079581046677
20
30.0669872793659
30
0
41
1
10
13.6817632688742
20
30.0496472407047
30
0
41
1
10
13.7208296342408
20
30.0350452819073
30
0
41
1
10
13.7874862877333
20
30.0032932993812
30
0
41
1
10
13.8142652669258
20
29.9863830332713
30
0
41
1
10
13.859944081224
20
29.9511519005793
30
0
41
1
10
13.8787443055275
20
29.9327613369585
30
0
41
1
10
13.8943375672975
20
29.9139548464688
30
0
0
SPLINE
5
108
100
AcDbEntity
8
1
62
256
6
ByLayer
370
13
48
1
60
0
100
AcDbSpline
70
4
71
3
72
16
73
12
40
0
40
0
40
0
40
0
40
0.125
40
0.125
40
0.25
40
0.25
40
0.5
40
0.5
40
0.75
40
0.75
40
1
40
1
40
1
40
1
41
1
10
10.538675134595
20
9.34922131452535
30
0
41
1
10
10.507195972683
20
9.34922131452535
30
0
41
1
10
10.47656957336
20
9.35536120669482
30
0
41
1
10
10.418473693
20
9.37748487924992
30
0
41
1
10
10.3920418953326
20
9.39290424748336
30
0
41
1
10
10.3182367311262
20
9.44829073160878
30
0
41
1
10
10.2791703657595
20
9.49467220053438
30
0
41
1
10
10.2125137122671
20
9.59453680346928
30
0
41
1
10
10.1857347330746
20
9.64728479257963
30
0
41
1
10
10.1400559187763
20
9.75611455014905
30
0
41
1
10
10.1212556944728
20
9.81241059371456
30
0
41
1
10
10.1056624327028
20
9.86941261896646
30
0
0
SPLINE
5
109
100
AcDbEntity
8
1
62
256
6
ByLayer
370
13
48
1
60
0
100
AcDbSpline
70
4
71
3
72
8
73
4
40
0
40
0
40
0
40
0
40
1
40
1
40
1
40
1
41
1
10
41.9140741005255
20
-0.0968110902850583
30
0
41
1
10
41.8807410457205
20
-0.0978879977897975
30
0
41
1
10
41.8474076992197
20
-0.0989469704825297
30
0
41
1
10
41.8140741005255
20
-0.0999896646940783
30
0
0
SPLINE
5
10A
100
AcDbEntity
8
1
62
256
6
ByLayer
370
13
48
1
60
0
100
AcDbSpline
70
4
71
3
72
8
73
4
40
0
40
0
40
0
40
0
40
1
40
1
40
1
40
1
41
1
10
41.9140741005255
20
0.0968317608965208
30
0
41
1
10
41.8807410457206
20
0.0979086684012316
30
0
41
1
10
41.8474076992197
20
0.0989676410940206
30
0
41
1
10
41.8140741005255
20
0.100010335305569
30
0
0
SPLINE
5
10B
100
AcDbEntity
8
1
62
256
6
ByLayer
370
13
48
1
60
0
100
AcDbSpline
70
4
71
3
72
16
73
12
40
0
40
0
40
0
40
0
40
0.125000000000001
40
0.125000000000001
40
0.250000000000001
40
0.250000000000001
40
0.500000000000001
40
0.500000000000001
40
0.75
40
0.75
40
1
40
1
40
1
40
1
41
1
10
13.4613248654053
20
-9.34922131452586
30
0
41
1
10
13.4928040273174
20
-9.34922131452586
30
0
41
1
10
13.5234304266404
20
-9.35536120669531
30
0
41
1
10
13.5815263070003
20
-9.3774848792504
30
0
41
1
10
13.6079581046677
20
-9.39290424748384
30
0
41
1
10
13.6817632688742
20
-9.44829073160923
30
0
41
1
10
13.7208296342408
20
-9.49467220053486
30
0
41
1
10
13.7874862877333
20
-9.59453680346977
30
0
41
1
10
13.8142652669258
20
-9.64728479258011
30
0
41
1
10
13.859944081224
20
-9.75611455014953
30
0
41
1
10
13.8787443055275
20
-9.81241059371504
30
0
41
1
10
13.8943375672975
20
-9.86941261896695
30
0
0
SPLINE
5
10C
100
AcDbEntity
8
1
62
256
6
ByLayer
370
13
48
1
60
0
100
AcDbSpline
70
4
71
3
72
16
73
12
40
0
40
0
40
0
40
0
40
0.250000000000002
40
0.250000000000002
40
0.500000000000004
40
0.500000000000004
40
0.750000000000006
40
0.750000000000006
40
0.875000000000003
40
0.875000000000003
40
1
40
1
40
1
40
1
41
1
10
10.1056624327028
20
29.913954846469
30
0
41
1
10
10.121249834549
20
29.9327542695083
30
0
41
1
10
10.1399018475138
20
29.9510098933135
30
0
41
1
10
10.1854864096892
20
29.9862144781927
30
0
41
1
10
10.2124982207837
20
30.0032856662984
30
0
41
1
10
10.2791799968773
20
30.0350501233766
30
0
41
1
10
10.3189381439133
20
30.0498069467437
30
0
41
1
10
10.3915918423743
20
30.0668840803112
30
0
41
1
10
10.4185844965199
20
30.0718038277878
30
0
41
1
10
10.4761894743049
20
30.07864614904
30
0
41
1
10
10.5072412025893
20
30.0805927603169
30
0
41
1
10
10.538675134595
20
30.0805927603169
30
0
0
SPLINE
5
10D
100
AcDbEntity
8
1
62
256
6
ByLayer
370
13
48
1
60
0
100
AcDbSpline
70
4
71
3
72
16
73
12
40
0
40
0
40
0
40
0
40
0.249999999999999
40
0.249999999999999
40
0.499999999999998
40
0.499999999999998
40
0.749999999999997
40
0.749999999999997
40
0.874999999999998
40
0.874999999999998
40
1
40
1
40
1
40
1
41
1
10
10.1056624327028
20
-9.86941261896649
30
0
41
1
10
10.121249834549
20
-9.81243201498833
30
0
41
1
10
10.1399018475138
20
-9.75655023082999
30
0
41
1
10
10.1854864096892
20
-9.64780841973422
30
0
41
1
10
10.2124982207837
20
-9.59456078532639
30
0
41
1
10
10.2791799968773
20
-9.49465699870655
30
0
41
1
10
10.3189381439133
20
-9.44778039735237
30
0
41
1
10
10.3915918423743
20
-9.39323398486485
30
0
41
1
10
10.4185844965199
20
-9.3774595131637
30
0
41
1
10
10.4761894743049
20
-9.35548920253876
30
0
41
1
10
10.5072412025893
20
-9.34922131452529
30
0
41
1
10
10.538675134595
20
-9.34922131452529
30
0
0
INSERT
5
120
100
AcDbEntity
8
2
62
256
6
ByLayer
370
25
48
1
60
0
100
AcDbBlockReference
2
DimnDraft3D11
10
0
20
0
30
0
41
1
42
1
43
1
50
0
210
0
220
0
230
1
0
LINE
5
70
100
AcDbEntity
8
1
62
256
6
ByLayer
370
13
48
1
60
0
100
AcDbLine
10
0.3
20
-31.5
30
0
11
21.3
21
-31.5
31
0
39
0
210
0
220
0
230
1
0
LINE
5
72
100
AcDbEntity
8
1
62
256
6
ByLayer
370
13
48
1
60
0
100
AcDbLine
10
21.3
20
31.5
30
0
11
0.3
21
31.5
31
0
39
0
210
0
220
0
230
1
0
LINE
5
73
100
AcDbEntity
8
1
62
256
6
ByLayer
370
13
48
1
60
0
100
AcDbLine
10
0.3
20
31.5
30
0
11
0
21
31.2
31
0
39
0
210
0
220
0
230
1
0
LINE
5
74
100
AcDbEntity
8
1
62
256
6
ByLayer
370
13
48
1
60
0
100
AcDbLine
10
0
20
-31.2
30
0
11
0.3
21
-31.5
31
0
39
0
210
0
220
0
230
1
0
LINE
5
75
100
AcDbEntity
8
80
62
256
6
ByLayer
370
18
48
1
60
0
100
AcDbLine
10
0
20
0
30
0
11
-10
21
0
31
0
39
0
210
0
220
0
230
1
0
LINE
5
76
100
AcDbEntity
8
81
62
256
6
ByLayer
370
18
48
1
60
0
100
AcDbLine
10
65
20
0.4817
30
0
11
75
21
0.4817
31
0
39
0
210
0
220
0
230
1
0
LINE
5
77
100
AcDbEntity
8
1
62
256
6
ByLayer
370
13
48
1
60
0
100
AcDbLine
10
0.3
20
-31.5
30
0
11
0.3
21
31.5
31
0
39
0
210
0
220
0
230
1
0
LINE
5
78
100
AcDbEntity
8
1
62
256
6
ByLayer
370
13
48
1
60
0
100
AcDbLine
10
21.999924
20
30.852343
30
0
11
21.3
21
31.5
31
0
39
0
210
0
220
0
230
1
0
LINE
5
79
100
AcDbEntity
8
1
62
256
6
ByLayer
370
13
48
1
60
0
100
AcDbLine
10
21.3
20
-31.5
30
0
11
21.999923
21
-30.852342
31
0
39
0
210
0
220
0
230
1
0
LINE
5
7A
100
AcDbEntity
8
1
62
256
6
ByLayer
370
13
48
1
60
0
100
AcDbLine
10
0
20
-31.2
30
0
11
0
21
31.2
31
0
39
0
210
0
220
0
230
1
0
LINE
5
7B
100
AcDbEntity
8
1
62
256
6
ByLayer
370
13
48
1
60
0
100
AcDbLine
10
51.514074
20
5.279566
30
0
11
51.514074
21
4.899108
31
0
39
0
210
0
220
0
230
1
0
LINE
5
7C
100
AcDbEntity
8
1
62
256
6
ByLayer
370
13
48
1
60
0
100
AcDbLine
10
51.514074
20
-4.899087
30
0
11
51.514074
21
-5.279545
31
0
39
0
210
0
220
0
230
1
0
LINE
5
7D
100
AcDbEntity
8
1
62
256
6
ByLayer
370
13
48
1
60
0
100
AcDbLine
10
52.444074
20
6.206186
30
0
11
52.444074
21
5.383264
31
0
39
0
210
0
220
0
230
1
0
LINE
5
7E
100
AcDbEntity
8
1
62
256
6
ByLayer
370
13
48
1
60
0
100
AcDbLine
10
52.444074
20
-5.383243
30
0
11
52.444074
21
-6.206166
31
0
39
0
210
0
220
0
230
1
0
LINE
5
7F
100
AcDbEntity
8
1
62
256
6
ByLayer
370
13
48
1
60
0
100
AcDbLine
10
50.514074
20
5.279566
30
0
11
50.514074
21
4.378577
31
0
39
0
210
0
220
0
230
1
0
LINE
5
80
100
AcDbEntity
8
1
62
256
6
ByLayer
370
13
48
1
60
0
100
AcDbLine
10
50.514074
20
-4.378556
30
0
11
50.514074
21
-5.279545
31
0
39
0
210
0
220
0
230
1
0
LINE
5
81
100
AcDbEntity
8
1
62
256
6
ByLayer
370
13
48
1
60
0
100
AcDbLine
10
49.584074
20
6.209566
30
0
11
49.584074
21
3.894372
31
0
39
0
210
0
220
0
230
1
0
LINE
5
82
100
AcDbEntity
8
1
62
256
6
ByLayer
370
13
48
1
60
0
100
AcDbLine
10
49.584074
20
-3.894351
30
0
11
49.584074
21
-6.209545
31
0
39
0
210
0
220
0
230
1
0
LINE
5
83
100
AcDbEntity
8
1
62
256
6
ByLayer
370
13
48
1
60
0
100
AcDbLine
10
52.694104
20
6.076029
30
0
11
52.694104
21
5.513422
31
0
39
0
210
0
220
0
230
1
0
LINE
5
84
100
AcDbEntity
8
1
62
256
6
ByLayer
370
13
48
1
60
0
100
AcDbLine
10
52.694104
20
-5.513401
30
0
11
52.694104
21
-6.076008
31
0
39
0
210
0
220
0
230
1
0
LINE
5
85
100
AcDbEntity
8
1
62
256
6
ByLayer
370
13
48
1
60
0
100
AcDbLine
10
49.351365
20
6.442275
30
0
11
49.351365
21
3.773164
31
0
39
0
210
0
220
0
230
1
0
LINE
5
86
100
AcDbEntity
8
1
62
256
6
ByLayer
370
13
48
1
60
0
100
AcDbLine
10
49.351365
20
-3.773144
30
0
11
49.351365
21
-6.442255
31
0
39
0
210
0
220
0
230
1
0
LINE
5
87
100
AcDbEntity
8
1
62
256
6
ByLayer
370
13
48
1
60
0
100
AcDbLine
10
53.234437
20
-5.794729
30
0
11
52.694104
21
-6.076008
31
0
39
0
210
0
220
0
230
1
0
LINE
5
88
100
AcDbEntity
8
1
62
256
6
ByLayer
370
13
48
1
60
0
100
AcDbLine
10
52.694104
20
6.076029
30
0
11
53.234437
21
5.79475
31
0
39
0
210
0
220
0
230
1
0
LINE
5
89
100
AcDbEntity
8
SK1
62
256
6
ByLayer
370
13
48
1
60
0
100
AcDbLine
10
-1.315435
20
-4.803123
30
0
11
-1.315435
21
4.803126
31
0
39
0
210
0
220
0
230
1
0
LINE
5
8B
100
AcDbEntity
8
1
62
256
6
ByLayer
370
13
48
1
60
0
100
AcDbLine
10
45.414074
20
-9.865752
30
0
11
45.414074
21
-2.009447
31
0
39
0
210
0
220
0
230
1
0
LINE
5
8C
100
AcDbEntity
8
1
62
256
6
ByLayer
370
13
48
1
60
0
100
AcDbLine
10
13.461325
20
-30.080593
30
0
11
13.461325
21
-9.349221
31
0
39
0
210
0
220
0
230
1
0
LINE
5
8D
100
AcDbEntity
8
1
62
256
6
ByLayer
370
13
48
1
60
0
100
AcDbLine
10
52.441851
20
6.207343
30
0
11
51.514074
21
5.279566
31
0
39
0
210
0
220
0
230
1
0
LINE
5
8E
100
AcDbEntity
8
1
62
256
6
ByLayer
370
13
48
1
60
0
100
AcDbLine
10
45.314074
20
-2.070128
30
0
11
44.814074
21
-1.809845
31
0
39
0
210
0
220
0
230
1
0
LINE
5
8F
100
AcDbEntity
8
1
62
256
6
ByLayer
370
13
48
1
60
0
100
AcDbLine
10
49.351365
20
-6.442255
30
0
11
49.584074
21
-6.209545
31
0
39
0
210
0
220
0
230
1
0
LINE
5
90
100
AcDbEntity
8
1
62
256
6
ByLayer
370
13
48
1
60
0
100
AcDbLine
10
13.894338
20
9.869413
30
0
11
13.894338
21
29.913955
31
0
39
0
210
0
220
0
230
1
0
LINE
5
91
100
AcDbEntity
8
1
62
256
6
ByLayer
370
13
48
1
60
0
100
AcDbLine
10
51.990551
20
-6.442255
30
0
11
52.437582
21
-6.209545
31
0
39
0
210
0
220
0
230
1
0
LINE
5
92
100
AcDbEntity
8
1
62
256
6
ByLayer
370
13
48
1
60
0
100
AcDbLine
10
10.538675
20
30.080593
30
0
11
13.461325
21
30.080593
31
0
39
0
210
0
220
0
230
1
0
LINE
5
93
100
AcDbEntity
8
1
62
256
6
ByLayer
370
13
48
1
60
0
100
AcDbLine
10
13.461325
20
9.349221
30
0
11
13.461325
21
30.080593
31
0
39
0
210
0
220
0
230
1
0
LINE
5
94
100
AcDbEntity
8
1
62
256
6
ByLayer
370
13
48
1
60
0
100
AcDbLine
10
44.814074
20
-1.809845
30
0
11
44.410946
21
-1.59999
31
0
39
0
210
0
220
0
230
1
0
LINE
5
95
100
AcDbEntity
8
1
62
256
6
ByLayer
370
13
48
1
60
0
100
AcDbLine
10
45.414074
20
9.865773
30
0
11
51.990551
21
6.442275
31
0
39
0
210
0
220
0
230
1
0
LINE
5
96
100
AcDbEntity
8
1
62
256
6
ByLayer
370
13
48
1
60
0
100
AcDbLine
10
22.183946
20
-30.682062
30
0
11
26.168724
21
-26.99484
31
0
39
0
210
0
220
0
230
1
0
LINE
5
97
100
AcDbEntity
8
1
62
256
6
ByLayer
370
13
48
1
60
0
100
AcDbLine
10
52.444074
20
-6.206166
30
0
11
52.694104
21
-6.076008
31
0
39
0
210
0
220
0
230
1
0
LINE
5
98
100
AcDbEntity
8
1
62
256
6
ByLayer
370
13
48
1
60
0
100
AcDbLine
10
26.168724
20
-26.99484
30
0
11
42.653248
21
-11.741273
31
0
39
0
210
0
220
0
230
1
0
LINE
5
99
100
AcDbEntity
8
1
62
256
6
ByLayer
370
13
48
1
60
0
100
AcDbLine
10
10.105662
20
9.869413
30
0
11
10.105662
21
29.913955
31
0
39
0
210
0
220
0
230
1
0
LINE
5
9A
100
AcDbEntity
8
1
62
256
6
ByLayer
370
13
48
1
60
0
100
AcDbLine
10
44.435416
20
1.50001
30
0
11
44.410946
21
1.60001
31
0
39
0
210
0
220
0
230
1
0
LINE
5
9B
100
AcDbEntity
8
1
62
256
6
ByLayer
370
13
48
1
60
0
100
AcDbLine
10
41.914074
20
-0.096811
30
0
11
41.914074
21
0.096832
31
0
39
0
210
0
220
0
230
1
0
LINE
5
9C
100
AcDbEntity
8
1
62
256
6
ByLayer
370
13
48
1
60
0
100
AcDbLine
10
52.437582
20
-6.209545
30
0
11
49.584074
21
-6.209545
31
0
39
0
210
0
220
0
230
1
0
LINE
5
9D
100
AcDbEntity
8
1
62
256
6
ByLayer
370
13
48
1
60
0
100
AcDbLine
10
45.414074
20
-2.009447
30
0
11
45.314074
21
-2.070128
31
0
39
0
210
0
220
0
230
1
0
LINE
5
9E
100
AcDbEntity
8
1
62
256
6
ByLayer
370
13
48
1
60
0
100
AcDbLine
10
22.183946
20
30.682063
30
0
11
22.183946
21
-30.682062
31
0
39
0
210
0
220
0
230
1
0
LINE
5
9F
100
AcDbEntity
8
1
62
256
6
ByLayer
370
13
48
1
60
0
100
AcDbLine
10
52.437582
20
6.209566
30
0
11
51.990551
21
6.442275
31
0
39
0
210
0
220
0
230
1
0
LINE
5
A0
100
AcDbEntity
8
1
62
256
6
ByLayer
370
13
48
1
60
0
100
AcDbLine
10
43.410946
20
-1.49999
30
0
11
43.410946
21
-1.59999
31
0
39
0
210
0
220
0
230
1
0
LINE
5
A1
100
AcDbEntity
8
1
62
256
6
ByLayer
370
13
48
1
60
0
100
AcDbLine
10
49.584074
20
-6.209545
30
0
11
50.514074
21
-5.279545
31
0
39
0
210
0
220
0
230
1
0
LINE
5
A2
100
AcDbEntity
8
1
62
256
6
ByLayer
370
13
48
1
60
0
100
AcDbLine
10
43.410946
20
1.50001
30
0
11
43.410946
21
1.60001
31
0
39
0
210
0
220
0
230
1
0
LINE
5
A3
100
AcDbEntity
8
1
62
256
6
ByLayer
370
13
48
1
60
0
100
AcDbLine
10
10.538675
20
9.349221
30
0
11
10.538675
21
30.080593
31
0
39
0
210
0
220
0
230
1
0
LINE
5
A4
100
AcDbEntity
8
1
62
256
6
ByLayer
370
13
48
1
60
0
100
AcDbLine
10
22.183946
20
30.682063
30
0
11
21.999924
21
30.852343
31
0
39
0
210
0
220
0
230
1
0
LINE
5
A5
100
AcDbEntity
8
1
62
256
6
ByLayer
370
13
48
1
60
0
100
AcDbLine
10
49.351365
20
-6.442255
30
0
11
51.990551
21
-6.442255
31
0
39
0
210
0
220
0
230
1
0
LINE
5
A6
100
AcDbEntity
8
1
62
256
6
ByLayer
370
13
48
1
60
0
100
AcDbLine
10
43.410946
20
1.60001
30
0
11
44.410946
21
1.60001
31
0
39
0
210
0
220
0
230
1
0
LINE
5
A7
100
AcDbEntity
8
1
62
256
6
ByLayer
370
13
48
1
60
0
100
AcDbLine
10
45.414074
20
2.009468
30
0
11
45.314074
21
2.070149
31
0
39
0
210
0
220
0
230
1
0
LINE
5
A8
100
AcDbEntity
8
1
62
256
6
ByLayer
370
13
48
1
60
0
100
AcDbLine
10
51.990551
20
6.442275
30
0
11
49.351365
21
6.442275
31
0
39
0
210
0
220
0
230
1
0
LINE
5
A9
100
AcDbEntity
8
1
62
256
6
ByLayer
370
13
48
1
60
0
100
AcDbLine
10
52.437582
20
-6.209545
30
0
11
52.441851
21
-6.207323
31
0
39
0
210
0
220
0
230
1
0
LINE
5
AA
100
AcDbEntity
8
1
62
256
6
ByLayer
370
13
48
1
60
0
100
AcDbLine
10
44.814074
20
1.809866
30
0
11
45.314074
21
2.070149
31
0
39
0
210
0
220
0
230
1
0
LINE
5
AB
100
AcDbEntity
8
1
62
256
6
ByLayer
370
13
48
1
60
0
100
AcDbLine
10
51.514074
20
-5.279545
30
0
11
50.514074
21
-5.279545
31
0
39
0
210
0
220
0
230
1
0
LINE
5
AC
100
AcDbEntity
8
1
62
256
6
ByLayer
370
13
48
1
60
0
100
AcDbLine
10
45.414074
20
-2.009447
30
0
11
44.435416
21
-1.49999
31
0
39
0
210
0
220
0
230
1
0
LINE
5
AD
100
AcDbEntity
8
1
62
256
6
ByLayer
370
13
48
1
60
0
100
AcDbLine
10
44.435416
20
-1.49999
30
0
11
43.410946
21
-1.49999
31
0
39
0
210
0
220
0
230
1
0
LINE
5
AE
100
AcDbEntity
8
1
62
256
6
ByLayer
370
13
48
1
60
0
100
AcDbLine
10
42.653253
20
11.74129
30
0
11
26.168724
21
26.994845
31
0
39
0
210
0
220
0
230
1
0
LINE
5
AF
100
AcDbEntity
8
1
62
256
6
ByLayer
370
13
48
1
60
0
100
AcDbLine
10
45.414074
20
9.865773
30
0
11
45.314074
21
9.917829
31
0
39
0
210
0
220
0
230
1
0
LINE
5
B0
100
AcDbEntity
8
1
62
256
6
ByLayer
370
13
48
1
60
0
100
AcDbLine
10
45.314074
20
-9.917809
30
0
11
45.044896
21
-10.057934
31
0
39
0
210
0
220
0
230
1
0
LINE
5
B1
100
AcDbEntity
8
1
62
256
6
ByLayer
370
13
48
1
60
0
100
AcDbLine
10
45.414074
20
2.009468
30
0
11
45.414074
21
9.865773
31
0
39
0
210
0
220
0
230
1
0
LINE
5
B2
100
AcDbEntity
8
1
62
256
6
ByLayer
370
13
48
1
60
0
100
AcDbLine
10
10.538675
20
-9.349221
30
0
11
13.461325
21
-9.349221
31
0
39
0
210
0
220
0
230
1
0
LINE
5
B3
100
AcDbEntity
8
1
62
256
6
ByLayer
370
13
48
1
60
0
100
AcDbLine
10
13.461325
20
-30.080593
30
0
11
10.538675
21
-30.080593
31
0
39
0
210
0
220
0
230
1
0
LINE
5
B4
100
AcDbEntity
8
1
62
256
6
ByLayer
370
13
48
1
60
0
100
AcDbLine
10
13.461325
20
9.349221
30
0
11
10.538675
21
9.349221
31
0
39
0
210
0
220
0
230
1
0
LINE
5
B5
100
AcDbEntity
8
1
62
256
6
ByLayer
370
13
48
1
60
0
100
AcDbLine
10
44.814074
20
1.809866
30
0
11
44.814074
21
10.181627
31
0
39
0
210
0
220
0
230
1
0
LINE
5
B6
100
AcDbEntity
8
1
62
256
6
ByLayer
370
13
48
1
60
0
100
AcDbLine
10
51.514074
20
-5.279545
30
0
11
52.441851
21
-6.207323
31
0
39
0
210
0
220
0
230
1
0
LINE
5
B7
100
AcDbEntity
8
1
62
256
6
ByLayer
370
13
48
1
60
0
100
AcDbLine
10
52.441851
20
6.207343
30
0
11
52.437582
21
6.209566
31
0
39
0
210
0
220
0
230
1
0
LINE
5
B8
100
AcDbEntity
8
1
62
256
6
ByLayer
370
13
48
1
60
0
100
AcDbLine
10
45.314074
20
2.070149
30
0
11
45.314074
21
9.917829
31
0
39
0
210
0
220
0
230
1
0
LINE
5
B9
100
AcDbEntity
8
1
62
256
6
ByLayer
370
13
48
1
60
0
100
AcDbLine
10
44.435416
20
-1.49999
30
0
11
44.410946
21
-1.59999
31
0
39
0
210
0
220
0
230
1
0
LINE
5
BA
100
AcDbEntity
8
1
62
256
6
ByLayer
370
13
48
1
60
0
100
AcDbLine
10
13.894338
20
-29.913955
30
0
11
13.894338
21
-9.869413
31
0
39
0
210
0
220
0
230
1
0
LINE
5
BB
100
AcDbEntity
8
1
62
256
6
ByLayer
370
13
48
1
60
0
100
AcDbLine
10
44.410946
20
1.60001
30
0
11
44.814074
21
1.809866
31
0
39
0
210
0
220
0
230
1
0
LINE
5
BC
100
AcDbEntity
8
1
62
256
6
ByLayer
370
13
48
1
60
0
100
AcDbLine
10
52.444074
20
6.206186
30
0
11
52.441851
21
6.207343
31
0
39
0
210
0
220
0
230
1
0
LINE
5
BD
100
AcDbEntity
8
1
62
256
6
ByLayer
370
13
48
1
60
0
100
AcDbLine
10
51.990551
20
-6.442255
30
0
11
45.414074
21
-9.865752
31
0
39
0
210
0
220
0
230
1
0
LINE
5
BE
100
AcDbEntity
8
1
62
256
6
ByLayer
370
13
48
1
60
0
100
AcDbLine
10
44.814074
20
-10.181606
30
0
11
44.814074
21
-1.809845
31
0
39
0
210
0
220
0
230
1
0
LINE
5
BF
100
AcDbEntity
8
1
62
256
6
ByLayer
370
13
48
1
60
0
100
AcDbLine
10
52.437582
20
6.209566
30
0
11
49.584074
21
6.209566
31
0
39
0
210
0
220
0
230
1
0
LINE
5
C0
100
AcDbEntity
8
1
62
256
6
ByLayer
370
13
48
1
60
0
100
AcDbLine
10
26.168724
20
-26.99484
30
0
11
26.168724
21
26.994845
31
0
39
0
210
0
220
0
230
1
0
LINE
5
C1
100
AcDbEntity
8
1
62
256
6
ByLayer
370
13
48
1
60
0
100
AcDbLine
10
44.435416
20
1.50001
30
0
11
45.414074
21
2.009468
31
0
39
0
210
0
220
0
230
1
0
LINE
5
C2
100
AcDbEntity
8
1
62
256
6
ByLayer
370
13
48
1
60
0
100
AcDbLine
10
10.105662
20
-29.913955
30
0
11
10.105662
21
-9.869413
31
0
39
0
210
0
220
0
230
1
0
LINE
5
C3
100
AcDbEntity
8
1
62
256
6
ByLayer
370
13
48
1
60
0
100
AcDbLine
10
49.584074
20
6.209566
30
0
11
49.351365
21
6.442275
31
0
39
0
210
0
220
0
230
1
0
LINE
5
C4
100
AcDbEntity
8
1
62
256
6
ByLayer
370
13
48
1
60
0
100
AcDbLine
10
45.314074
20
-9.917809
30
0
11
45.414074
21
-9.865752
31
0
39
0
210
0
220
0
230
1
0
LINE
5
C5
100
AcDbEntity
8
1
62
256
6
ByLayer
370
13
48
1
60
0
100
AcDbLine
10
52.441851
20
-6.207323
30
0
11
52.444074
21
-6.206166
31
0
39
0
210
0
220
0
230
1
0
LINE
5
C6
100
AcDbEntity
8
1
62
256
6
ByLayer
370
13
48
1
60
0
100
AcDbLine
10
50.514074
20
5.279566
30
0
11
49.584074
21
6.209566
31
0
39
0
210
0
220
0
230
1
0
LINE
5
C7
100
AcDbEntity
8
1
62
256
6
ByLayer
370
13
48
1
60
0
100
AcDbLine
10
45.044896
20
10.057955
30
0
11
45.314074
21
9.917829
31
0
39
0
210
0
220
0
230
1
0
LINE
5
C8
100
AcDbEntity
8
1
62
256
6
ByLayer
370
13
48
1
60
0
100
AcDbLine
10
21.999923
20
-30.852342
30
0
11
22.183946
21
-30.682062
31
0
39
0
210
0
220
0
230
1
0
LINE
5
C9
100
AcDbEntity
8
1
62
256
6
ByLayer
370
13
48
1
60
0
100
AcDbLine
10
41.814074
20
-0.09999
30
0
11
41.814074
21
0.10001
31
0
39
0
210
0
220
0
230
1
0
LINE
5
CA
100
AcDbEntity
8
1
62
256
6
ByLayer
370
13
48
1
60
0
100
AcDbLine
10
52.694104
20
6.076029
30
0
11
52.444074
21
6.206186
31
0
39
0
210
0
220
0
230
1
0
LINE
5
CB
100
AcDbEntity
8
1
62
256
6
ByLayer
370
13
48
1
60
0
100
AcDbLine
10
45.314074
20
-9.917809
30
0
11
45.314074
21
-2.070128
31
0
39
0
210
0
220
0
230
1
0
LINE
5
CC
100
AcDbEntity
8
1
62
256
6
ByLayer
370
13
48
1
60
0
100
AcDbLine
10
10.538675
20
-30.080593
30
0
11
10.538675
21
-9.349221
31
0
39
0
210
0
220
0
230
1
0
LINE
5
CD
100
AcDbEntity
8
1
62
256
6
ByLayer
370
13
48
1
60
0
100
AcDbLine
10
43.410946
20
1.50001
30
0
11
44.435416
21
1.50001
31
0
39
0
210
0
220
0
230
1
0
LINE
5
CE
100
AcDbEntity
8
1
62
256
6
ByLayer
370
13
48
1
60
0
100
AcDbLine
10
51.514074
20
5.279566
30
0
11
50.514074
21
5.279566
31
0
39
0
210
0
220
0
230
1
0
LINE
5
CF
100
AcDbEntity
8
1
62
256
6
ByLayer
370
13
48
1
60
0
100
AcDbLine
10
44.410946
20
-1.59999
30
0
11
43.410946
21
-1.59999
31
0
39
0
210
0
220
0
230
1
0
LINE
5
D0
100
AcDbEntity
8
1
62
256
6
ByLayer
370
13
48
1
60
0
100
AcDbLine
10
26.168724
20
26.994845
30
0
11
22.183946
21
30.682063
31
0
39
0
210
0
220
0
230
1
0
LINE
5
D1
100
AcDbEntity
8
1
62
256
6
ByLayer
370
18
48
1
60
0
100
AcDbLine
10
43.455412
20
-0.704099
30
0
11
53.468231
21
-5.916442
31
0
39
0
210
0
220
0
230
1
0
LINE
5
D2
100
AcDbEntity
8
1
62
256
6
ByLayer
370
18
48
1
60
0
100
AcDbLine
10
53.468231
20
5.916463
30
0
11
43.455412
21
0.70412
31
0
39
0
210
0
220
0
230
1
0
LINE
5
D3
100
AcDbEntity
8
1
62
256
6
ByLayer
370
18
48
1
60
0
100
AcDbLine
10
64.572736
20
0.70412
30
0
11
54.559918
21
5.916463
31
0
39
0
210
0
220
0
230
1
0
LINE
5
D4
100
AcDbEntity
8
1
62
256
6
ByLayer
370
18
48
1
60
0
100
AcDbLine
10
54.559918
20
-5.916442
30
0
11
64.572736
21
-0.704099
31
0
39
0
210
0
220
0
230
1
0
MTEXT
5
10E
100
AcDbEntity
8
SK6
62
256
6
ByLayer
370
13
48
1
60
0
100
AcDbMText
10
1.042524
20
-46.33489
30
0
210
0
220
0
230
1
1
\W0.7437;TR-C6-D13NCN-00065
40
3.5
41
0
44
1.084337
50
0
71
7
72
5
7
iso_b_vert
0
DIMENSION
5
12F
100
AcDbEntity
8
SK2
62
256
6
ByLayer
370
13
48
1
60
0
100
AcDbDimension
2
DimnDraft3D2
10
-47.1
20
-31.5
30
0
11
-47.1
21
0
31
0
70
32
71
5
72
1
41
1
210
0
220
0
230
1
3
Standard
100
AcDbAlignedDimension
13
-1.5875
23
31.5
33
0
14
-1.5875
24
-31.5
34
0
50
90
100
AcDbRotatedDimension
1001
ACAD
1000
DSTYLE
1002
{
1070
    74
1070
     0
1070
   279
1070
     0
1070
   172
1070
     1
1070
   173
1070
     1
1070
   340
1005
10F
1070
   271
1070
     1
1070
   272
1070
     2
1070
    77
1070
     1
1070
    73
1070
     0
1070
   171
1070
     3
1070
   274
1070
     4
1070
   177
1070
   150
1070
   176
1070
     9
1070
   178
1070
    43
1070
    78
1070
     8
1070
    48
1040
-0.005
1070
    41
1041
3.175
1070
   147
1041
2.25
1070
    42
1041
1.5875
1070
    44
1041
3.175
1070
   140
1041
4.5
1070
   343
1005
130
1070
   344
1005
130
1002
}
0
DIMENSION
5
144
100
AcDbEntity
8
2
62
256
6
ByLayer
370
13
48
1
60
0
100
AcDbDimension
2
DimnDraft3D3
10
0
20
17.9817
30
0
11
32.5
21
17.9817
31
0
70
32
71
5
72
1
41
1
210
0
220
0
230
1
3
Standard
100
AcDbAlignedDimension
13
65
23
2.0692
33
0
14
0
24
29.9125
34
0
50
0
100
AcDbRotatedDimension
1001
ACAD
1000
DSTYLE
1002
{
1070
   279
1070
     0
1070
   172
1070
     1
1070
   173
1070
     1
1070
   340
1005
10F
1070
   271
1070
     1
1070
   272
1070
     2
1070
    77
1070
     1
1070
    73
1070
     0
1070
   171
1070
     3
1070
   274
1070
     4
1070
   177
1070
   150
1070
   176
1070
     9
1070
   178
1070
    43
1070
    78
1070
     8
1070
    48
1040
-0.005
1070
    41
1041
3.175
1070
   147
1041
2.25
1070
    42
1041
1.5875
1070
    44
1041
3.175
1070
   140
1041
4.5
1070
   343
1005
130
1070
   344
1005
130
1002
}
0
DIMENSION
5
152
100
AcDbEntity
8
2
62
256
6
ByLayer
370
13
48
1
60
0
100
AcDbDimension
2
DimnDraft3D4
10
53.041595
20
6.394741
30
0
11
56.0809
21
14.867811
31
0
70
34
71
5
72
1
41
1
210
0
220
0
230
1
3
Standard
100
AcDb2LineAngularDimension
13
65
23
0.4817
33
0
14
65
24
-1.1059
34
0
15
64.572736
25
0.392009
35
0
16
58.41538
26
11.020708
36
0
40
0
0
ENDSEC
0
SECTION
2
OBJECTS
0
DICTIONARY
5
1bc
330
0
100
AcDbDictionary
280
0
281
1
3
ACAD_GROUP
350
1bd
3
ACAD_MLINESTYLE
350
1be
0
DICTIONARY
5
1bd
330
0
100
AcDbDictionary
280
0
281
1
0
DICTIONARY
5
1be
330
0
100
AcDbDictionary
280
0
281
1
3
Standard
350
18
0
MLINESTYLE
5
18
330
1be
100
AcDbMlineStyle
2
Standard
70
0
3

62
256
51
90
52
90
71
2
49
-0.5
62
256
6
ByLayer
49
0.5
62
256
6
ByLayer
0
RASTERVARIABLES
5
1ab
330

100
AcDbRasterVariables
90
0
70
1
71
1
72
1
0
ENDSEC
0
EOF
