0
SECTION
2
HEADER
9
$ACADVER
1
AC1015
9
$DWGCODEPAGE
3
ANSI_1252
9
$HANDSEED
5
1c6
9
$ANGBASE
50
0
9
$ANGDIR
70
0
9
$ATTMODE
70
1
9
$AUNITS
70
0
9
$AUPREC
70
0
9
$CECOLOR
62
256
9
$CELTSCALE
40
1
9
$CELTYPE
6
ByLayer
9
$CELWEIGHT
370
18
9
$CLAYER
8
0
9
$CMLJUST
70
0
9
$CMLSCALE
40
1
9
$CMLSTYLE
2
Standard
9
$DIMSTYLE
2
Standard
9
$TEXTSIZE
40
0.2
9
$TEXTSTYLE
7
Standard
9
$LUNITS
70
2
9
$LUPREC
70
4
9
$EXTNAMES
290
1
9
$INSUNITS
70
4
9
$LTSCALE
40
1
9
$LWDISPLAY
290
1
9
$PDMODE
70
0
9
$PDSIZE
40
0
9
$PLINEGEN
70
0
0
ENDSEC
0
SECTION
2
CLASSES
0
CLASS
1
RASTERVARIABLES
2
AcDbRasterVariables
3
ISM
90
0
280
0
281
0
0
ENDSEC
0
SECTION
2
TABLES
0
TABLE
2
VPORT
5
1bc
100
AcDbSymbolTable
0
VPORT
5
1
100
AcDbSymbolTableRecord
100
AcDbViewportTableRecord
2
*Active
70
0
10
0
20
0
11
1
21
1
12
-1
22
1
13
0
23
0
14
0.5
24
0.5
15
10
25
10
16
0
26
0
36
1
17
0
27
0
37
0
0
ENDTAB
0
TABLE
2
LTYPE
5
1bd
100
AcDbSymbolTable
0
LTYPE
5
14
100
AcDbSymbolTableRecord
100
AcDbLinetypeTableRecord
70
0
2
ByBlock
3

72
65
73
0
40
0
0
LTYPE
5
15
100
AcDbSymbolTableRecord
100
AcDbLinetypeTableRecord
70
0
2
ByLayer
3

72
65
73
0
40
0
0
LTYPE
5
16
100
AcDbSymbolTableRecord
100
AcDbLinetypeTableRecord
70
0
2
CONTINUOUS
3
Solid line
72
65
73
0
40
0
0
LTYPE
5
6A
100
AcDbSymbolTableRecord
100
AcDbLinetypeTableRecord
70
0
2
CENTER
3
____ _ ____ _ ____ _ ____
72
65
73
4
40
47.5
49
22
74
0
49
-8.5
74
0
49
8.5
74
0
49
-8.5
74
0
0
LTYPE
5
6B
100
AcDbSymbolTableRecord
100
AcDbLinetypeTableRecord
70
0
2
DASHED
3
__ __ __ __ __ __ __ __ __
72
65
73
2
40
25.72
49
12.86
74
0
49
-12.86
74
0
0
ENDTAB
0
TABLE
2
LAYER
5
1be
100
AcDbSymbolTable
0
LAYER
5
10
100
AcDbSymbolTableRecord
100
AcDbLayerTableRecord
2
0
70
0
62
7
6
CONTINUOUS
290
1
370
-3
390
0
0
LAYER
5
6D
100
AcDbSymbolTableRecord
100
AcDbLayerTableRecord
2
80
70
0
62
-6
6
CONTINUOUS
290
1
370
-3
390
0
0
LAYER
5
6F
100
AcDbSymbolTableRecord
100
AcDbLayerTableRecord
2
81
70
0
62
-3
6
CONTINUOUS
290
1
370
-3
390
0
0
LAYER
5
71
100
AcDbSymbolTableRecord
100
AcDbLayerTableRecord
2
1
70
0
62
4
6
CONTINUOUS
290
1
370
-3
390
0
0
LAYER
5
113
100
AcDbSymbolTableRecord
100
AcDbLayerTableRecord
2
2
70
0
62
7
6
CONTINUOUS
290
1
370
-3
390
0
0
LAYER
5
1a9
100
AcDbSymbolTableRecord
100
AcDbLayerTableRecord
2
SK1
70
0
62
4
6
CONTINUOUS
290
1
370
-3
390
0
0
LAYER
5
1aa
100
AcDbSymbolTableRecord
100
AcDbLayerTableRecord
2
SK6
70
0
62
5
6
CONTINUOUS
290
1
370
-3
390
0
0
LAYER
5
1ab
100
AcDbSymbolTableRecord
100
AcDbLayerTableRecord
2
SK2
70
0
62
7
6
CONTINUOUS
290
1
370
-3
390
0
0
ENDTAB
0
TABLE
2
STYLE
5
1bf
100
AcDbSymbolTable
0
STYLE
5
11
100
AcDbSymbolTableRecord
100
AcDbTextStyleTableRecord
2
Standard
3
txt
70
0
71
0
40
0
41
1
42
0
50
0
0
STYLE
5
10C
100
AcDbSymbolTableRecord
100
AcDbTextStyleTableRecord
2
iso_b_vert
3
simplex.shx
70
0
71
0
40
0
41
1
42
0
50
0
0
STYLE
5
10D
100
AcDbSymbolTableRecord
100
AcDbTextStyleTableRecord
2
DWGDirectTextStyle
3
simplex
70
0
71
0
40
0
41
1
42
0
50
0
0
ENDTAB
0
TABLE
2
DIMSTYLE
5
1c0
100
AcDbSymbolTable
100
AcDbDimStyleTable
0
DIMSTYLE
105
27
100
AcDbSymbolTableRecord
100
AcDbDimStyleTableRecord
2
Standard
70
0
3
<>
41
0.18
42
0.0625
44
0.18
140
0.18
147
0.09
73
0
74
0
77
1
271
2
275
0
278
52
280
0
340
11
0
ENDTAB
0
TABLE
2
VIEW
5
1c1
100
AcDbSymbolTable
0
ENDTAB
0
TABLE
2
UCS
5
1c2
100
AcDbSymbolTable
0
ENDTAB
0
TABLE
2
APPID
5
1c3
100
AcDbSymbolTable
0
APPID
5
12
100
AcDbSymbolTableRecord
100
AcDbRegAppTableRecord
2
ACAD
70
0
0
ENDTAB
0
TABLE
2
BLOCK_RECORD
5
1c4
100
AcDbSymbolTable
0
BLOCK_RECORD
5
1F
100
AcDbSymbolTableRecord
100
AcDbBlockTableRecord
2
*Model_Space
340
0
70
0
0
BLOCK_RECORD
5
1B
100
AcDbSymbolTableRecord
100
AcDbBlockTableRecord
2
*Paper_Space
340
0
70
0
0
BLOCK_RECORD
5
23
100
AcDbSymbolTableRecord
100
AcDbBlockTableRecord
2
*Paper_Space0
340
0
70
0
0
BLOCK_RECORD
5
10F
100
AcDbSymbolTableRecord
100
AcDbBlockTableRecord
2
DimnDraft3D11
340
0
70
0
0
BLOCK_RECORD
5
11E
100
AcDbSymbolTableRecord
100
AcDbBlockTableRecord
2
DimnDraft3D2
340
0
70
0
0
BLOCK_RECORD
5
12D
100
AcDbSymbolTableRecord
100
AcDbBlockTableRecord
2
_CLOSED
340
0
70
0
0
BLOCK_RECORD
5
134
100
AcDbSymbolTableRecord
100
AcDbBlockTableRecord
2
DimnDraft3D3
340
0
70
0
0
BLOCK_RECORD
5
142
100
AcDbSymbolTableRecord
100
AcDbBlockTableRecord
2
DimnDraft3D4
340
0
70
0
0
ENDTAB
0
ENDSEC
0
SECTION
2
BLOCKS
0
BLOCK
5
20
100
AcDbEntity
8
0
100
AcDbBlockBegin
2
*Model_Space
70
0
10
0
20
0
30
0
3
*Model_Space
0
ENDBLK
5
21
100
AcDbEntity
8
0
100
AcDbBlockEnd
0
BLOCK
5
1C
100
AcDbEntity
8
0
100
AcDbBlockBegin
2
*Paper_Space
70
0
10
0
20
0
30
0
3
*Paper_Space
0
ENDBLK
5
1D
100
AcDbEntity
8
0
100
AcDbBlockEnd
0
BLOCK
5
24
100
AcDbEntity
8
0
100
AcDbBlockBegin
2
*Paper_Space0
70
0
10
0
20
0
30
0
3
*Paper_Space0
0
ENDBLK
5
25
100
AcDbEntity
8
0
100
AcDbBlockEnd
0
BLOCK
5
110
100
AcDbEntity
8
0
100
AcDbBlockBegin
2
DimnDraft3D11
70
0
10
0
20
0
30
0
3
DimnDraft3D11
0
LINE
5
112
100
AcDbEntity
8
2
62
256
6
ByLayer
370
25
48
1
60
0
100
AcDbLine
10
51.5875
20
0
30
0
11
76.775
21
0
31
0
39
0
210
0
220
0
230
1
0
LINE
5
114
100
AcDbEntity
8
2
62
256
6
ByLayer
370
25
48
1
60
0
100
AcDbLine
10
51.5875
20
0.582
30
0
11
76.775
21
0.582
31
0
39
0
210
0
220
0
230
1
0
LINE
5
115
100
AcDbEntity
8
2
62
256
6
ByLayer
370
25
48
1
60
0
100
AcDbLine
10
73.6
20
11.832
30
0
11
73.6
21
-18.3125
31
0
39
0
210
0
220
0
230
1
0
LINE
5
116
100
AcDbEntity
8
2
62
256
6
ByLayer
370
25
48
1
60
0
100
AcDbLine
10
73.6
20
0
30
0
11
74.450739
21
-3.174997
31
0
39
0
210
0
220
0
230
1
0
LINE
5
117
100
AcDbEntity
8
2
62
256
6
ByLayer
370
25
48
1
60
0
100
AcDbLine
10
73.6
20
0
30
0
11
72.749261
21
-3.175003
31
0
39
0
210
0
220
0
230
1
0
LINE
5
118
100
AcDbEntity
8
2
62
256
6
ByLayer
370
25
48
1
60
0
100
AcDbLine
10
74.450739
20
-3.174997
30
0
11
72.749261
21
-3.175003
31
0
39
0
210
0
220
0
230
1
0
LINE
5
119
100
AcDbEntity
8
2
62
256
6
ByLayer
370
25
48
1
60
0
100
AcDbLine
10
73.6
20
0.582
30
0
11
72.749261
21
3.756997
31
0
39
0
210
0
220
0
230
1
0
LINE
5
11A
100
AcDbEntity
8
2
62
256
6
ByLayer
370
25
48
1
60
0
100
AcDbLine
10
73.6
20
0.582
30
0
11
74.450739
21
3.757003
31
0
39
0
210
0
220
0
230
1
0
LINE
5
11B
100
AcDbEntity
8
2
62
256
6
ByLayer
370
25
48
1
60
0
100
AcDbLine
10
72.749261
20
3.756997
30
0
11
74.450739
21
3.757003
31
0
39
0
210
0
220
0
230
1
0
MTEXT
5
11C
100
AcDbEntity
8
2
62
256
6
ByLayer
370
13
48
1
60
0
100
AcDbMText
10
72.475
20
-17.1875
30
0
210
0
220
0
230
1
1
\W0.7121;0.6
40
4.5
41
0
44
1.084337
50
90
71
7
72
5
7
iso_b_vert
0
ENDBLK
5
111
100
AcDbEntity
8
0
100
AcDbBlockEnd
0
BLOCK
5
12A
100
AcDbEntity
8
0
100
AcDbBlockBegin
2
DimnDraft3D2
70
0
10
0
20
0
30
0
3
DimnDraft3D2
0
MTEXT
5
11F
100
AcDbEntity
8
SK2
62
256
6
ByLayer
370
13
48
1
60
0
100
AcDbMText
10
-34.225
20
-4.393421
30
0
210
0
220
0
230
1
1
\W0.7640;40.0
40
4.5
41
0
44
1.084337
50
90
71
7
72
5
7
iso_b_vert
0
LINE
5
121
100
AcDbEntity
8
SK2
62
256
6
ByLayer
370
13
48
1
60
0
100
AcDbLine
10
-1.5875
20
20
30
0
11
-36.275
21
20
31
0
39
0
210
0
220
0
230
1
0
LINE
5
122
100
AcDbEntity
8
SK2
62
256
6
ByLayer
370
13
48
1
60
0
100
AcDbLine
10
-1.5875
20
-20
30
0
11
-36.275
21
-20
31
0
39
0
210
0
220
0
230
1
0
LINE
5
123
100
AcDbEntity
8
SK2
62
256
6
ByLayer
370
13
48
1
60
0
100
AcDbLine
10
-33.1
20
20
30
0
11
-33.1
21
-20
31
0
39
0
210
0
220
0
230
1
0
LINE
5
124
100
AcDbEntity
8
SK2
62
256
6
ByLayer
370
13
48
1
60
0
100
AcDbLine
10
-33.1
20
20
30
0
11
-32.249261
21
16.825003
31
0
39
0
210
0
220
0
230
1
0
LINE
5
125
100
AcDbEntity
8
SK2
62
256
6
ByLayer
370
13
48
1
60
0
100
AcDbLine
10
-33.1
20
20
30
0
11
-33.950739
21
16.824997
31
0
39
0
210
0
220
0
230
1
0
LINE
5
126
100
AcDbEntity
8
SK2
62
256
6
ByLayer
370
13
48
1
60
0
100
AcDbLine
10
-32.249261
20
16.825003
30
0
11
-33.950739
21
16.824997
31
0
39
0
210
0
220
0
230
1
0
LINE
5
127
100
AcDbEntity
8
SK2
62
256
6
ByLayer
370
13
48
1
60
0
100
AcDbLine
10
-33.1
20
-20
30
0
11
-33.950739
21
-16.825003
31
0
39
0
210
0
220
0
230
1
0
LINE
5
128
100
AcDbEntity
8
SK2
62
256
6
ByLayer
370
13
48
1
60
0
100
AcDbLine
10
-33.1
20
-20
30
0
11
-32.249261
21
-16.824997
31
0
39
0
210
0
220
0
230
1
0
LINE
5
129
100
AcDbEntity
8
SK2
62
256
6
ByLayer
370
13
48
1
60
0
100
AcDbLine
10
-33.950739
20
-16.825003
30
0
11
-32.249261
21
-16.824997
31
0
39
0
210
0
220
0
230
1
0
ENDBLK
5
12B
100
AcDbEntity
8
0
100
AcDbBlockEnd
0
BLOCK
5
12E
100
AcDbEntity
8
0
100
AcDbBlockBegin
2
_CLOSED
70
0
10
0
20
0
30
0
3
_CLOSED
0
LINE
5
130
100
AcDbEntity
8
0
62
256
6
ByLayer
370
-2
48
1
60
0
100
AcDbLine
10
-1
20
0.166667
30
0
11
0
21
0
31
0
39
0
210
0
220
0
230
1
0
LINE
5
131
100
AcDbEntity
8
0
62
256
6
ByLayer
370
-2
48
1
60
0
100
AcDbLine
10
0
20
0
30
0
11
-1
21
-0.166667
31
0
39
0
210
0
220
0
230
1
0
LINE
5
132
100
AcDbEntity
8
0
62
256
6
ByLayer
370
-2
48
1
60
0
100
AcDbLine
10
-1
20
0.166667
30
0
11
-1
21
-0.166667
31
0
39
0
210
0
220
0
230
1
0
LINE
5
133
100
AcDbEntity
8
0
62
256
6
ByLayer
370
-2
48
1
60
0
100
AcDbLine
10
0
20
0
30
0
11
-1
21
0
31
0
39
0
210
0
220
0
230
1
0
ENDBLK
5
12F
100
AcDbEntity
8
0
100
AcDbBlockEnd
0
BLOCK
5
13F
100
AcDbEntity
8
0
100
AcDbBlockBegin
2
DimnDraft3D3
70
0
10
0
20
0
30
0
3
DimnDraft3D3
0
MTEXT
5
135
100
AcDbEntity
8
2
62
256
6
ByLayer
370
13
48
1
60
0
100
AcDbMText
10
20.843421
20
19.207
30
0
210
0
220
0
230
1
1
\W0.7346;50.0
40
4.5
41
0
44
1.084337
50
0
71
7
72
5
7
iso_b_vert
0
LINE
5
136
100
AcDbEntity
8
2
62
256
6
ByLayer
370
13
48
1
60
0
100
AcDbLine
10
50
20
2.1695
30
0
11
50
21
21.257
31
0
39
0
210
0
220
0
230
1
0
LINE
5
137
100
AcDbEntity
8
2
62
256
6
ByLayer
370
13
48
1
60
0
100
AcDbLine
10
0
20
18.4125
30
0
11
0
21
14.907
31
0
39
0
210
0
220
0
230
1
0
LINE
5
138
100
AcDbEntity
8
2
62
256
6
ByLayer
370
13
48
1
60
0
100
AcDbLine
10
50
20
18.082
30
0
11
0
21
18.082
31
0
39
0
210
0
220
0
230
1
0
LINE
5
139
100
AcDbEntity
8
2
62
256
6
ByLayer
370
13
48
1
60
0
100
AcDbLine
10
50
20
18.082
30
0
11
46.825003
21
17.231261
31
0
39
0
210
0
220
0
230
1
0
LINE
5
13A
100
AcDbEntity
8
2
62
256
6
ByLayer
370
13
48
1
60
0
100
AcDbLine
10
50
20
18.082
30
0
11
46.824997
21
18.932739
31
0
39
0
210
0
220
0
230
1
0
LINE
5
13B
100
AcDbEntity
8
2
62
256
6
ByLayer
370
13
48
1
60
0
100
AcDbLine
10
46.825003
20
17.231261
30
0
11
46.824997
21
18.932739
31
0
39
0
210
0
220
0
230
1
0
LINE
5
13C
100
AcDbEntity
8
2
62
256
6
ByLayer
370
13
48
1
60
0
100
AcDbLine
10
0
20
18.082
30
0
11
3.174997
21
18.932739
31
0
39
0
210
0
220
0
230
1
0
LINE
5
13D
100
AcDbEntity
8
2
62
256
6
ByLayer
370
13
48
1
60
0
100
AcDbLine
10
0
20
18.082
30
0
11
3.175003
21
17.231261
31
0
39
0
210
0
220
0
230
1
0
LINE
5
13E
100
AcDbEntity
8
2
62
256
6
ByLayer
370
13
48
1
60
0
100
AcDbLine
10
3.174997
20
18.932739
30
0
11
3.175003
21
17.231261
31
0
39
0
210
0
220
0
230
1
0
ENDBLK
5
140
100
AcDbEntity
8
0
100
AcDbBlockEnd
0
BLOCK
5
14D
100
AcDbEntity
8
0
100
AcDbBlockBegin
2
DimnDraft3D4
70
0
10
0
20
0
30
0
3
DimnDraft3D4
0
MTEXT
5
143
100
AcDbEntity
8
2
62
256
6
ByLayer
370
13
48
1
60
0
100
AcDbMText
10
38.519833
20
8.997765
30
0
210
0
220
0
230
1
1
\W0.7346;72.5
40
4.5
41
0
44
1.084337
50
36.25
71
7
72
5
7
iso_b_vert
0
LINE
5
144
100
AcDbEntity
8
2
62
256
6
ByLayer
370
13
48
1
60
0
100
AcDbLine
10
50
20
2.1695
30
0
11
50
21
16.166194
31
0
39
0
210
0
220
0
230
1
0
LINE
5
145
100
AcDbEntity
8
2
62
256
6
ByLayer
370
13
48
1
60
0
100
AcDbLine
10
35.532554
20
4.931806
30
0
11
34.935129
21
5.120174
31
0
39
0
210
0
220
0
230
1
0
ARC
5
146
100
AcDbEntity
8
2
62
256
6
ByLayer
370
13
48
1
60
0
100
AcDbCircle
39
0
10
50
20
0.370238
30
0
40
12.6209557344331
210
0
220
0
230
1
100
AcDbArc
50
90
51
162.5
0
LINE
5
147
100
AcDbEntity
8
2
62
256
6
ByLayer
370
13
48
1
60
0
100
AcDbLine
10
50
20
12.991194
30
0
11
46.884405
21
11.943612
31
0
39
0
210
0
220
0
230
1
0
LINE
5
148
100
AcDbEntity
8
2
62
256
6
ByLayer
370
13
48
1
60
0
100
AcDbLine
10
50
20
12.991194
30
0
11
46.778019
21
13.641761
31
0
39
0
210
0
220
0
230
1
0
LINE
5
149
100
AcDbEntity
8
2
62
256
6
ByLayer
370
13
48
1
60
0
100
AcDbLine
10
46.884405
20
11.943612
30
0
11
46.778019
21
13.641761
31
0
39
0
210
0
220
0
230
1
0
LINE
5
14A
100
AcDbEntity
8
2
62
256
6
ByLayer
370
13
48
1
60
0
100
AcDbLine
10
37.963181
20
4.165433
30
0
11
38.311591
21
7.433914
31
0
39
0
210
0
220
0
230
1
0
LINE
5
14B
100
AcDbEntity
8
2
62
256
6
ByLayer
370
13
48
1
60
0
100
AcDbLine
10
37.963181
20
4.165433
30
0
11
39.899157
21
6.821821
31
0
39
0
210
0
220
0
230
1
0
LINE
5
14C
100
AcDbEntity
8
2
62
256
6
ByLayer
370
13
48
1
60
0
100
AcDbLine
10
38.311591
20
7.433914
30
0
11
39.899157
21
6.821821
31
0
39
0
210
0
220
0
230
1
0
ENDBLK
5
14E
100
AcDbEntity
8
0
100
AcDbBlockEnd
0
ENDSEC
0
SECTION
2
ENTITIES
0
ARC
5
CD
100
AcDbEntity
8
1
62
256
6
ByLayer
370
13
48
1
60
0
100
AcDbCircle
39
0
10
-30.84826
20
-17.493844
30
0
40
11
210
0
220
0
230
-1
100
AcDbArc
50
30.240047
51
72.5
0
ARC
5
CE
100
AcDbEntity
8
1
62
256
6
ByLayer
370
13
48
1
60
0
100
AcDbCircle
39
0
10
-26.440823
20
-3.8E-05
30
0
40
1.5
210
0
220
0
230
-1
100
AcDbArc
50
270
51
356.299121
0
ARC
5
CF
100
AcDbEntity
8
1
62
256
6
ByLayer
370
13
48
1
60
0
100
AcDbCircle
39
0
10
-30.84826
20
17.493767
30
0
40
11
210
0
220
0
230
-1
100
AcDbArc
50
287.5
51
329.759953
0
ARC
5
D0
100
AcDbEntity
8
1
62
256
6
ByLayer
370
13
48
1
60
0
100
AcDbCircle
39
0
10
-26.440823
20
-3.8E-05
30
0
40
1.6
210
0
220
0
230
-1
100
AcDbArc
50
3.583322
51
90
0
ARC
5
D2
100
AcDbEntity
8
1
62
256
6
ByLayer
370
13
48
1
60
0
100
AcDbCircle
39
0
10
-26.440823
20
-3.8E-05
30
0
40
1.59999999999999
210
0
220
0
230
-1
100
AcDbArc
50
270
51
356.416678
0
ARC
5
D3
100
AcDbEntity
8
1
62
256
6
ByLayer
370
13
48
1
60
0
100
AcDbCircle
39
0
10
-26.440823
20
-3.8E-05
30
0
40
1.5
210
0
220
0
230
-1
100
AcDbArc
50
3.700879
51
90
0
ARC
5
D4
100
AcDbEntity
8
1
62
256
6
ByLayer
370
18
48
1
60
0
100
AcDbCircle
39
0
10
-27.881703
20
-3.8E-05
30
0
40
0.793800000000036
210
0
220
0
230
-1
100
AcDbArc
50
297.5
51
62.5
0
ARC
5
D6
100
AcDbEntity
8
1
62
256
6
ByLayer
370
18
48
1
60
0
100
AcDbCircle
39
0
10
49.2062
20
-3.8E-05
30
0
40
0.793800000000036
210
0
220
0
230
1
100
AcDbArc
50
297.5
51
62.5
0
CIRCLE
5
D1
100
AcDbEntity
8
1
62
256
6
ByLayer
370
13
48
1
60
0
100
AcDbCircle
10
-38.543951
20
-3.8E-05
30
0
40
1.25
39
0
210
0
220
0
230
-1
0
CIRCLE
5
D5
100
AcDbEntity
8
1
62
256
6
ByLayer
370
18
48
1
60
0
100
AcDbCircle
10
38.543951
20
-3.8E-05
30
0
40
2.28743682147946
39
0
210
0
220
0
230
1
0
CIRCLE
5
D7
100
AcDbEntity
8
1
62
256
6
ByLayer
370
18
48
1
60
0
100
AcDbCircle
10
38.543951
20
-3.8E-05
30
0
40
2.32
39
0
210
0
220
0
230
1
0
CIRCLE
5
D8
100
AcDbEntity
8
1
62
256
6
ByLayer
370
18
48
1
60
0
100
AcDbCircle
10
38.543951
20
-3.8E-05
30
0
40
2.20386856458361
39
0
210
0
220
0
230
1
0
CIRCLE
5
D9
100
AcDbEntity
8
1
62
256
6
ByLayer
370
18
48
1
60
0
100
AcDbCircle
10
38.543951
20
-3.8E-05
30
0
40
1.69999999999997
39
0
210
0
220
0
230
1
0
ELLIPSE
5
DA
100
AcDbEntity
8
1
62
256
6
ByLayer
370
13
48
1
60
0
100
AcDbEllipse
10
-0.948929
20
0
30
0
11
9.36741787978193
21
-19.7417491527496
31
0
210
0
220
0
230
-1
40
0.341999
41
-1.09631952749989
42
-0.152726244898359
0
ELLIPSE
5
DB
100
AcDbEntity
8
1
62
256
6
ByLayer
370
13
48
1
60
0
100
AcDbEllipse
10
-0.948929
20
0
30
0
11
9.3674178797824
21
19.7417491527502
31
0
210
0
220
0
230
-1
40
0.341999
41
0.152726244898355
42
1.09631952749987
0
ELLIPSE
5
DC
100
AcDbEntity
8
1
62
256
6
ByLayer
370
13
48
1
60
0
100
AcDbEllipse
10
16.948929
20
0
30
0
11
9.36741787978
21
19.7417491527485
31
0
210
0
220
0
230
-1
40
0.341999
41
-2.98886640869142
42
-2.04527312608982
0
ELLIPSE
5
DD
100
AcDbEntity
8
1
62
256
6
ByLayer
370
13
48
1
60
0
100
AcDbEllipse
10
17.749773
20
0
30
0
11
-1.22460635382238E-15
21
20
31
0
210
0
220
0
230
-1
40
0.087489
41
-2.91714402827587
42
-0.224448625313926
0
ELLIPSE
5
DE
100
AcDbEntity
8
1
62
256
6
ByLayer
370
13
48
1
60
0
100
AcDbEllipse
10
16.948929
20
0
30
0
11
9.36741787978013
21
-19.7417491527487
31
0
210
0
220
0
230
-1
40
0.341999
41
2.04527312608983
42
2.98886640869142
0
ELLIPSE
5
DF
100
AcDbEntity
8
1
62
256
6
ByLayer
370
13
48
1
60
0
100
AcDbEllipse
10
16.687009
20
0
30
0
11
-2.75536429610035E-16
21
4.50000000000001
31
0
210
0
220
0
230
-1
40
0.091138
41
0
42
6.28318530717959
0
ELLIPSE
5
E0
100
AcDbEntity
8
1
62
256
6
ByLayer
370
18
48
1
60
0
100
AcDbEllipse
10
38.543951
20
-2.940586
30
0
11
-2.19694518457337E-16
21
-1.19600075442802
31
0
210
0
220
0
230
1
40
0.995819
41
-0.304233038584735
42
0.304233038584734
0
ELLIPSE
5
E1
100
AcDbEntity
8
1
62
256
6
ByLayer
370
18
48
1
60
0
100
AcDbEllipse
10
38.543951
20
2.94051
30
0
11
7.32315061524455E-17
21
1.19600075442802
31
0
210
0
220
0
230
1
40
0.995819
41
-0.304233038584733
42
0.304233038584728
0
POINT
5
6C
100
AcDbEntity
8
80
62
256
6
ByLayer
370
18
48
1
60
0
100
AcDbPoint
10
0
20
0
30
0
39
0
210
0
220
0
230
1
50
360
0
POINT
5
6E
100
AcDbEntity
8
81
62
256
6
ByLayer
370
18
48
1
60
0
100
AcDbPoint
10
50
20
0.582
30
0
39
0
210
0
220
0
230
1
50
360
0
SPLINE
5
E2
100
AcDbEntity
8
SK1
62
256
6
ByLayer
370
13
48
1
60
0
100
AcDbSpline
70
4
71
2
72
6
73
3
40
0
40
0
40
0
40
1
40
1
40
1
41
1
10
-22.5
20
-13.493617102966
30
0
41
1
10
-11.9999999937702
20
-13.7572106057466
30
0
41
1
10
-1.5
20
-14.0208013164368
30
0
0
SPLINE
5
E3
100
AcDbEntity
8
SK1
62
256
6
ByLayer
370
13
48
1
60
0
100
AcDbSpline
70
4
71
2
72
6
73
3
40
0
40
0
40
0
40
1
40
1
40
1
41
1
10
-1.5
20
14.0208011084547
30
0
41
1
10
-11.9999999937704
20
13.757210398744
30
0
41
1
10
-22.5
20
13.4936168969067
30
0
0
SPLINE
5
E4
100
AcDbEntity
8
SK1
62
256
6
ByLayer
370
13
48
1
60
0
100
AcDbSpline
70
4
71
2
72
6
73
3
40
0
40
0
40
0
40
1
40
1
40
1
41
1
10
-24
20
-12.6317666961722
30
0
41
1
10
-23.2499989213513
20
-13.0645642295315
30
0
41
1
10
-22.5
20
-13.4973544658104
30
0
0
SPLINE
5
E5
100
AcDbEntity
8
SK1
62
256
6
ByLayer
370
13
48
1
60
0
100
AcDbSpline
70
4
71
2
72
6
73
3
40
0
40
0
40
0
40
1
40
1
40
1
41
1
10
-22.5
20
13.4973543128463
30
0
41
1
10
-23.2499989214096
20
13.0645640769691
30
0
41
1
10
-24
20
12.6317665440291
30
0
0
SPLINE
5
E6
100
AcDbEntity
8
SK1
62
256
6
ByLayer
370
13
48
1
60
0
100
AcDbSpline
70
4
71
3
72
13
73
9
40
0
40
0
40
0
40
0
40
0.239503433743733
40
0.368423147407422
40
0.500068568291209
40
0.631702599546712
40
0.760590896708274
40
1
40
1
40
1
40
1
41
1
10
-1.2950399779393
20
13.8302939701714
30
0
41
1
10
-1.32110931868493
20
13.8298918808819
30
0
41
1
10
-1.35883875168665
20
13.8360616243459
30
0
41
1
10
-1.40627575244349
20
13.8590955459825
30
0
41
1
10
-1.43886250823778
20
13.8842521059516
30
0
41
1
10
-1.46563495916621
20
13.9155205133761
30
0
41
1
10
-1.49103211526619
20
13.9617198002386
30
0
41
1
10
-1.49909125765836
20
13.9990778949977
30
0
41
1
10
-1.5
20
14.0251256210924
30
0
0
SPLINE
5
E7
100
AcDbEntity
8
SK1
62
256
6
ByLayer
370
13
48
1
60
0
100
AcDbSpline
70
4
71
3
72
13
73
9
40
0
40
0
40
0
40
0
40
0.239409102954471
40
0.368297400007645
40
0.499931431229628
40
0.631576852162337
40
0.76049656594316
40
1
40
1
40
1
40
1
41
1
10
-1.5
20
-14.0251257319826
30
0
41
1
10
-1.49909125765302
20
-13.9990780059591
30
0
41
1
10
-1.49103211526085
20
-13.9617199113056
30
0
41
1
10
-1.46563495915865
20
-13.9155206245876
30
0
41
1
10
-1.43886250822771
20
-13.8842522172588
30
0
41
1
10
-1.40627575243269
20
-13.859095657368
30
0
41
1
10
-1.35883875167477
20
-13.8360617358029
30
0
41
1
10
-1.32110931867848
20
-13.8298919923551
30
0
41
1
10
-1.2950399779393
20
-13.8302940816453
30
0
0
SPLINE
5
E8
100
AcDbEntity
8
SK1
62
256
6
ByLayer
370
13
48
1
60
0
100
AcDbSpline
70
4
71
2
72
6
73
3
40
0
40
0
40
0
40
1
40
1
40
1
41
1
10
-0.194976888875288
20
13.70719404012
30
0
41
1
10
-0.745008433404564
20
13.6935133023981
30
0
41
1
10
-1.2950399779393
20
13.6798325485488
30
0
0
SPLINE
5
E9
100
AcDbEntity
8
SK1
62
256
6
ByLayer
370
13
48
1
60
0
100
AcDbSpline
70
4
71
2
72
6
73
3
40
0
40
0
40
0
40
1
40
1
40
1
41
1
10
-1.2950399779393
20
-13.6798328570319
30
0
41
1
10
-0.745008433404564
20
-13.6935136106345
30
0
41
1
10
-0.194976888875288
20
-13.7071943481094
30
0
0
SPLINE
5
EA
100
AcDbEntity
8
SK1
62
256
6
ByLayer
370
13
48
1
60
0
100
AcDbSpline
70
4
71
2
72
6
73
3
40
0
40
0
40
0
40
1
40
1
40
1
41
1
10
-0.194976888875288
20
-13.8101782617655
30
0
41
1
10
-0.12013928304745
20
-13.855188244108
30
0
41
1
10
-0.0625565596670299
20
-13.914649154482
30
0
0
SPLINE
5
EB
100
AcDbEntity
8
SK1
62
256
6
ByLayer
370
13
48
1
60
0
100
AcDbSpline
70
4
71
2
72
6
73
3
40
0
40
0
40
0
40
1
40
1
40
1
41
1
10
-0.0625342436547953
20
13.9146715009651
30
0
41
1
10
-0.120123408897314
20
13.8551971845182
30
0
41
1
10
-0.194976888875288
20
13.8101828913628
30
0
0
SPLINE
5
EC
100
AcDbEntity
8
SK1
62
256
6
ByLayer
370
13
48
1
60
0
100
AcDbSpline
70
4
71
3
72
19
73
15
40
0
40
0
40
0
40
0
40
0.0657488406031013
40
0.131639645535787
40
0.197530450468472
40
0.263421255401158
40
0.395202865266529
40
0.5269844751319
40
0.658766084997271
40
0.790547694862642
40
0.856438499795327
40
0.922329304728013
40
0.988220109660698
40
1
40
1
40
1
40
1
41
1
10
-1.50000000000003
20
14.0207795517059
30
0
41
1
10
-1.5
20
14.0323120730182
30
0
41
1
10
-1.5
20
14.0089351370502
30
0
41
1
10
-1.5
20
13.8526757395093
30
0
41
1
10
-1.5
20
13.5878913365204
30
0
41
1
10
-1.5
20
13.1031838925468
30
0
41
1
10
-1.5
20
12.2683613692996
30
0
41
1
10
-1.5
20
10.9411047485551
30
0
41
1
10
-1.5
20
9.31264880772019
30
0
41
1
10
-1.5
20
7.71718805595961
30
0
41
1
10
-1.5
20
6.3022710896997
30
0
41
1
10
-1.5
20
5.17209546861977
30
0
41
1
10
-1.5
20
4.30166905260074
30
0
41
1
10
-1.5
20
3.81517906515165
30
0
41
1
10
-1.5
20
3.74104084360118
30
0
0
SPLINE
5
ED
100
AcDbEntity
8
SK1
62
256
6
ByLayer
370
13
48
1
60
0
100
AcDbSpline
70
4
71
3
72
19
73
15
40
0
40
0
40
0
40
0
40
0.0117800159492763
40
0.0776708759363674
40
0.143561735923459
40
0.20945259591055
40
0.341234315884732
40
0.473016035858914
40
0.604797755833096
40
0.736579475807278
40
0.80247033579437
40
0.868361195781461
40
0.934252055768552
40
1
40
1
40
1
40
1
41
1
10
-1.5
20
-3.74103849234592
30
0
41
1
10
-1.5
20
-3.815177446398
30
0
41
1
10
-1.5
20
-4.30166817802072
30
0
41
1
10
-1.5
20
-5.17209555078495
30
0
41
1
10
-1.5
20
-6.30227096604656
30
0
41
1
10
-1.5
20
-7.71718790760852
30
0
41
1
10
-1.5
20
-9.31264866297752
30
0
41
1
10
-1.5
20
-10.9411050943729
30
0
41
1
10
-1.5
20
-12.268361040649
30
0
41
1
10
-1.5
20
-13.1031845097078
30
0
41
1
10
-1.5
20
-13.5878912371465
30
0
41
1
10
-1.5
20
-13.8526759849258
30
0
41
1
10
-1.5
20
-14.0089348831673
30
0
41
1
10
-1.49999999999997
20
-14.0323118145558
30
0
41
1
10
-1.5
20
-14.0207801247098
30
0
0
SPLINE
5
EE
100
AcDbEntity
8
SK1
62
256
6
ByLayer
370
13
48
1
60
0
100
AcDbSpline
70
4
71
3
72
37
73
33
40
0
40
0
40
0
40
0
40
0.016393262951024
40
0.0448407635048208
40
0.0732882640586177
40
0.101735764612414
40
0.158630765720008
40
0.215525766827602
40
0.272420767935196
40
0.329315769042789
40
0.357763269596586
40
0.386210770150383
40
0.41465827070418
40
0.443105771257977
40
0.471553271811773
40
0.485777022088672
40
0.50000077236557
40
0.514224522642469
40
0.528448272919367
40
0.556895773473164
40
0.585343274026961
40
0.613790774580758
40
0.642238275134555
40
0.670685775688351
40
0.727580776795945
40
0.784475777903539
40
0.841370779011133
40
0.898265780118726
40
0.926713280672523
40
0.95516078122632
40
0.983608281780117
40
1
40
1
40
1
40
1
41
1
10
-22.5000000000001
20
13.4958670151209
30
0
41
1
10
-22.5
20
13.4916426691491
30
0
41
1
10
-22.5
20
13.4608404234255
30
0
41
1
10
-22.5
20
13.3308793310681
30
0
41
1
10
-22.5
20
13.0738790940805
30
0
41
1
10
-22.5
20
12.6015902509941
30
0
41
1
10
-22.5
20
11.7893001827952
30
0
41
1
10
-22.5
20
10.4950928592068
30
0
41
1
10
-22.5
20
8.90791053296303
30
0
41
1
10
-22.5
20
7.35788839712225
30
0
41
1
10
-22.5
20
5.9826473836882
30
0
41
1
10
-22.5
20
4.89022224945151
30
0
41
1
10
-22.5
20
3.73751327283387
30
0
41
1
10
-22.5
20
2.52988151772914
30
0
41
1
10
-22.5
20
1.48826017841196
30
0
41
1
10
-22.5
20
0.637225663005381
30
0
41
1
10
-22.5
20
1.01300202E-07
30
0
41
1
10
-22.5
20
-0.637225639727433
30
0
41
1
10
-22.5
20
-1.48826022368627
30
0
41
1
10
-22.5
20
-2.52988134516511
30
0
41
1
10
-22.5
20
-3.73751305004356
30
0
41
1
10
-22.5
20
-4.89022238185547
30
0
41
1
10
-22.5
20
-5.98264719956151
30
0
41
1
10
-22.5
20
-7.35788825135677
30
0
41
1
10
-22.5
20
-8.90791043028716
30
0
41
1
10
-22.5
20
-10.4950931885591
30
0
41
1
10
-22.5
20
-11.7892998835215
30
0
41
1
10
-22.5
20
-12.6015908597962
30
0
41
1
10
-22.5
20
-13.0738789920944
30
0
41
1
10
-22.5
20
-13.3308795934982
30
0
41
1
10
-22.5
20
-13.46083813889
30
0
41
1
10
-22.5
20
-13.4916407756103
30
0
41
1
10
-22.5
20
-13.4958659846353
30
0
0
SPLINE
5
EF
100
AcDbEntity
8
SK1
62
256
6
ByLayer
370
13
48
1
60
0
100
AcDbSpline
70
4
71
3
72
37
73
33
40
0
40
0
40
0
40
0
40
0.0168237903827196
40
0.0452459054982556
40
0.0736680206137915
40
0.102090135729328
40
0.1589343659604
40
0.215778596191471
40
0.272622826422543
40
0.329467056653615
40
0.357889171769151
40
0.386311286884687
40
0.414733402000223
40
0.443155517115759
40
0.471577632231295
40
0.485788689789063
40
0.499999747346831
40
0.514210804904599
40
0.528421862462367
40
0.556843977577903
40
0.585266092693439
40
0.613688207808975
40
0.642110322924511
40
0.670532438040047
40
0.727376668271119
40
0.784220898502191
40
0.841065128733263
40
0.897909358964335
40
0.926331474079871
40
0.954753589195407
40
0.983175704310943
40
1
40
1
40
1
40
1
41
1
10
-24
20
12.6305822507352
30
0
41
1
10
-24
20
12.6268224481059
30
0
41
1
10
-24
20
12.5979796214136
30
0
41
1
10
-24
20
12.4743689830171
30
0
41
1
10
-24
20
12.2301461791879
30
0
41
1
10
-24
20
11.7782420302007
30
0
41
1
10
-24
20
11.0029381899705
30
0
41
1
10
-24
20
9.76298011868084
30
0
41
1
10
-24
20
8.24354697090368
30
0
41
1
10
-24
20
6.76811071589074
30
0
41
1
10
-24
20
5.4579963756465
30
0
41
1
10
-24
20
4.42753733029454
30
0
41
1
10
-24
20
3.35000222974921
30
0
41
1
10
-24
20
2.23771741989395
30
0
41
1
10
-24
20
1.30515932004786
30
0
41
1
10
-24
20
0.551100854738877
30
0
41
1
10
-24
20
2.454147534E-07
30
0
41
1
10
-24
20
-0.551100895559614
30
0
41
1
10
-24
20
-1.30515943417129
30
0
41
1
10
-24
20
-2.23771697460674
30
0
41
1
10
-24
20
-3.35000208235886
30
0
41
1
10
-24
20
-4.4275375451636
30
0
41
1
10
-24
20
-5.45799609225458
30
0
41
1
10
-24
20
-6.76811057436947
30
0
41
1
10
-24
20
-8.24354693727892
30
0
41
1
10
-24
20
-9.76298042100555
30
0
41
1
10
-24
20
-11.0029379389178
30
0
41
1
10
-24
20
-11.778242625282
30
0
41
1
10
-24
20
-12.2301460729139
30
0
41
1
10
-24
20
-12.4743692733745
30
0
41
1
10
-24
20
-12.5979809112509
30
0
41
1
10
-24
20
-12.6268233144145
30
0
41
1
10
-24
20
-12.6305827492047
30
0
0
SPLINE
5
F0
100
AcDbEntity
8
SK1
62
256
6
ByLayer
370
13
48
1
60
0
100
AcDbSpline
70
4
71
3
72
19
73
15
40
0
40
0
40
0
40
0
40
0.0503159835190289
40
0.117536901718744
40
0.184757819918459
40
0.251978738118173
40
0.386420574517603
40
0.520862410917033
40
0.655304247316462
40
0.789746083715892
40
0.856967001915607
40
0.924187920115322
40
0.991408838315036
40
1
40
1
40
1
40
1
41
1
10
-1.29503997793927
20
13.8302937156756
30
0
41
1
10
-1.2950399779393
20
13.8303672293304
30
0
41
1
10
-1.2950399779393
20
13.8014626832787
30
0
41
1
10
-1.2950399779393
20
13.6599034654089
30
0
41
1
10
-1.2950399779393
20
13.3979948418576
30
0
41
1
10
-1.2950399779393
20
12.9178753212493
30
0
41
1
10
-1.2950399779393
20
12.0913771799457
30
0
41
1
10
-1.2950399779393
20
10.776330279443
30
0
41
1
10
-1.2950399779393
20
9.16312244767201
30
0
41
1
10
-1.2950399779393
20
7.58444852154136
30
0
41
1
10
-1.2950399779393
20
6.18418942476774
30
0
41
1
10
-1.2950399779393
20
5.06796032972639
30
0
41
1
10
-1.2950399779393
20
4.22989838674081
30
0
41
1
10
-1.2950399779393
20
3.77241274608164
30
0
41
1
10
-1.2950399779393
20
3.72040136699602
30
0
0
SPLINE
5
F1
100
AcDbEntity
8
SK1
62
256
6
ByLayer
370
13
48
1
60
0
100
AcDbSpline
70
4
71
3
72
19
73
15
40
0
40
0
40
0
40
0
40
0.0085932823277341
40
0.0758298668145222
40
0.14306645130131
40
0.210303035788098
40
0.344776204761674
40
0.479249373735251
40
0.613722542708827
40
0.748195711682403
40
0.815432296169191
40
0.882668880655979
40
0.949905465142767
40
1
40
1
40
1
40
1
41
1
10
-1.2950399779393
20
-3.72039904787672
30
0
41
1
10
-1.2950399779393
20
-3.77241114920631
30
0
41
1
10
-1.2950399779393
20
-4.22989754380635
30
0
41
1
10
-1.2950399779393
20
-5.06796043045176
30
0
41
1
10
-1.2950399779393
20
-6.18418927877329
30
0
41
1
10
-1.2950399779393
20
-7.5844483741455
30
0
41
1
10
-1.2950399779393
20
-9.16312231847047
30
0
41
1
10
-1.2950399779393
20
-10.7763306191778
30
0
41
1
10
-1.2950399779393
20
-12.0913768621482
30
0
41
1
10
-1.2950399779393
20
-12.9178759353221
30
0
41
1
10
-1.2950399779393
20
-13.3979947415187
30
0
41
1
10
-1.2950399779393
20
-13.6599037171108
30
0
41
1
10
-1.29503997793927
20
-13.8012845425374
30
0
41
1
10
-1.2950399779393
20
-13.8302525073514
30
0
41
1
10
-1.2950399779393
20
-13.8302940477931
30
0
0
SPLINE
5
F2
100
AcDbEntity
8
SK1
62
256
6
ByLayer
370
13
48
1
60
0
100
AcDbSpline
70
4
71
3
72
17
73
13
40
0
40
0
40
0
40
0
40
0.0155039352744272
40
0.0955856090784876
40
0.175667282882548
40
0.335830630490669
40
0.495993978098789
40
0.65615732570691
40
0.816320673315031
40
0.896402347119091
40
0.976484020923151
40
1
40
1
40
1
40
1
41
1
10
-0.194976888875288
20
13.7076577943257
30
0
41
1
10
-0.194976888875288
20
13.6955584473851
30
0
41
1
10
-0.194976888875288
20
13.6167267150271
30
0
41
1
10
-0.194976888875288
20
13.4249208368688
30
0
41
1
10
-0.194976888875288
20
12.9441507808103
30
0
41
1
10
-0.194976888875288
20
12.1164723003589
30
0
41
1
10
-0.194976888875288
20
10.7996941469075
30
0
41
1
10
-0.194976888875288
20
9.18432423990018
30
0
41
1
10
-0.194976888875288
20
7.60327005928423
30
0
41
1
10
-0.194976888875288
20
6.20093257911884
30
0
41
1
10
-0.194976888875288
20
5.34600773233777
30
0
41
1
10
-0.194976888875288
20
4.84547122059854
30
0
41
1
10
-0.194976888875288
20
4.7309177943597
30
0
0
SPLINE
5
F3
100
AcDbEntity
8
SK1
62
256
6
ByLayer
370
13
48
1
60
0
100
AcDbSpline
70
4
71
3
72
17
73
13
40
0
40
0
40
0
40
0
40
0.0235160389349584
40
0.103597714569225
40
0.183679390203493
40
0.343842741472027
40
0.504006092740561
40
0.664169444009096
40
0.82433279527763
40
0.904414470911897
40
0.984496146546164
40
1
40
1
40
1
40
1
41
1
10
-0.194976888875288
20
-4.73091688957581
30
0
41
1
10
-0.194976888875288
20
-4.84547062718619
30
0
41
1
10
-0.194976888875288
20
-5.34600749760219
30
0
41
1
10
-0.194976888875288
20
-6.20093243629222
30
0
41
1
10
-0.194976888875288
20
-7.60326991175293
30
0
41
1
10
-0.194976888875288
20
-9.18432410849502
30
0
41
1
10
-0.194976888875288
20
-10.7996944875049
30
0
41
1
10
-0.194976888875288
20
-12.1164719810225
30
0
41
1
10
-0.194976888875288
20
-12.944151395321
30
0
41
1
10
-0.194976888875288
20
-13.4249207366667
30
0
41
1
10
-0.194976888875288
20
-13.6167267817613
30
0
41
1
10
-0.194976888875288
20
-13.695558582564
30
0
41
1
10
-0.194976888875288
20
-13.7076578896051
30
0
0
SPLINE
5
F4
100
AcDbEntity
8
SK1
62
256
6
ByLayer
370
13
48
1
60
0
100
AcDbSpline
70
4
71
3
72
24
73
20
40
0
40
0
40
0
40
0
40
0.124999999999998
40
0.124999999999998
40
0.187499999999998
40
0.187499999999998
40
0.218749999999998
40
0.218749999999998
40
0.249999999999998
40
0.249999999999998
40
0.312499999999998
40
0.312499999999998
40
0.374999999999999
40
0.374999999999999
40
0.499999999999999
40
0.499999999999999
40
0.749999999999999
40
0.749999999999999
40
1
40
1
40
1
40
1
41
1
10
-0.194976888875288
20
4.73091779437263
30
0
41
1
10
-0.181724802536451
20
4.70597502862509
30
0
41
1
10
-0.167309853843932
20
4.68209621322674
30
0
41
1
10
-0.137956404031826
20
4.65363874219943
30
0
41
1
10
-0.126718386968889
20
4.64521283595539
30
0
41
1
10
-0.106496325218984
20
4.64201052202745
30
0
41
1
10
-0.0992037219266706
20
4.64289220420864
30
0
41
1
10
-0.0857681371182082
20
4.64919107473918
30
0
41
1
10
-0.0796782376257283
20
4.65443343636542
30
0
41
1
10
-0.0640862050484827
20
4.67272837367165
30
0
41
1
10
-0.0569788741544528
20
4.68758735525734
30
0
41
1
10
-0.0452441619208059
20
4.71723533437273
30
0
41
1
10
-0.0407066717524458
20
4.73234677078864
30
0
41
1
10
-0.0289368824631993
20
4.77806566230669
30
0
41
1
10
-0.023620074126967
20
4.8089433925399
30
0
41
1
10
-0.0108643267249136
20
4.90029254217703
30
0
41
1
10
-0.0065757548343299
20
4.96054151539835
30
0
41
1
10
-0.0010271982272627
20
5.08034000512379
30
0
41
1
10
0
20
5.13991849012564
30
0
41
1
10
0
20
5.19904292539422
30
0
0
SPLINE
5
F5
100
AcDbEntity
8
SK1
62
256
6
ByLayer
370
13
48
1
60
0
100
AcDbSpline
70
4
71
3
72
8
73
4
40
0
40
0
40
0
40
0
40
1
40
1
40
1
40
1
41
1
10
-1.2950399779393
20
-3.72039904785845
30
0
41
1
10
-1.30170669741997
20
-3.68878214845077
30
0
41
1
10
-1.30850489094854
20
-3.65726394513939
30
0
41
1
10
-1.31543506509499
20
-3.62586695867557
30
0
0
SPLINE
5
F6
100
AcDbEntity
8
SK1
62
256
6
ByLayer
370
13
48
1
60
0
100
AcDbSpline
70
4
71
3
72
26
73
22
40
0
40
0
40
0
40
0
40
0.249999999999999
40
0.249999999999999
40
0.374999999999998
40
0.374999999999998
40
0.437499999999997
40
0.437499999999997
40
0.468749999999996
40
0.468749999999996
40
0.499999999999995
40
0.499999999999995
40
0.531249999999995
40
0.531249999999995
40
0.562499999999994
40
0.562499999999994
40
0.624999999999996
40
0.624999999999996
40
0.749999999999998
40
0.749999999999998
40
1
40
1
40
1
40
1
41
1
10
-1.5
20
3.74104084360693
30
0
41
1
10
-1.49965682502594
20
3.66997660564783
30
0
41
1
10
-1.49809116297263
20
3.59862258306296
30
0
41
1
10
-1.49110958441472
20
3.49074976384841
30
0
41
1
10
-1.48806463950555
20
3.45465981264292
30
0
41
1
10
-1.48054425092309
20
3.40005252225217
30
0
41
1
10
-1.4775754819531
20
3.38191226747182
30
0
41
1
10
-1.47146220125049
20
3.3550323332968
30
0
41
1
10
-1.46915042188741
20
3.34612395963748
30
0
41
1
10
-1.46335637122496
20
3.32852809768727
30
0
41
1
10
-1.45990212264559
20
3.31976878151713
30
0
41
1
10
-1.45059809117671
20
3.30503654769581
30
0
41
1
10
-1.44395880371954
20
3.2992613945504
30
0
41
1
10
-1.43086071406117
20
3.29917526394934
30
0
41
1
10
-1.42526366666669
20
3.30340913004261
30
0
41
1
10
-1.41072509289327
20
3.31859282247427
30
0
41
1
10
-1.40364345300901
20
3.33208096015875
30
0
41
1
10
-1.38383796450424
20
3.37406912554661
30
0
41
1
10
-1.37364429786291
20
3.40440514829811
30
0
41
1
10
-1.34516646834925
20
3.49689268113482
30
0
41
1
10
-1.32971761826357
20
3.56116249813169
30
0
41
1
10
-1.31543506509203
20
3.62586927327678
30
0
0
SPLINE
5
F7
100
AcDbEntity
8
SK1
62
256
6
ByLayer
370
13
48
1
60
0
100
AcDbSpline
70
4
71
3
72
26
73
22
40
0
40
0
40
0
40
0
40
0.125
40
0.125
40
0.25
40
0.25
40
0.375
40
0.375
40
0.4375
40
0.4375
40
0.5
40
0.5
40
0.625
40
0.625
40
0.6875
40
0.6875
40
0.75
40
0.75
40
0.875
40
0.875
40
1
40
1
40
1
40
1
41
1
10
-1.5
20
-3.74103849235169
30
0
41
1
10
-1.5570566512213
20
-3.44902737793708
30
0
41
1
10
-1.61183227397027
20
-3.15316802788348
30
0
41
1
10
-1.71334364539356
20
-2.5523992706477
30
0
41
1
10
-1.76021803723418
20
-2.24754964501912
30
0
41
1
10
-1.84079971603685
20
-1.6265730995307
30
0
41
1
10
-1.87452156029124
20
-1.31045683466419
30
0
41
1
10
-1.91012238514048
20
-0.825401710215061
30
0
41
1
10
-1.91946990972042
20
-0.661044623343713
30
0
41
1
10
-1.93196301225206
20
-0.333578349339604
30
0
41
1
10
-1.93519459436698
20
-0.170339620394543
30
0
41
1
10
-1.93548821772262
20
0.317869702203296
30
0
41
1
10
-1.92308572509452
20
0.641328989531104
30
0
41
1
10
-1.88846455145884
20
1.1238091518118
30
0
41
1
10
-1.8743132004237
20
1.28418991116823
30
0
41
1
10
-1.84152563733511
20
1.60413216506728
30
0
41
1
10
-1.82284954358479
20
1.763879754566
30
0
41
1
10
-1.76189713752146
20
2.23650557622497
30
0
41
1
10
-1.71458359922826
20
2.54473243081711
30
0
41
1
10
-1.61233074922367
20
3.15054348245249
30
0
41
1
10
-1.55724747857244
20
3.44805305826642
30
0
41
1
10
-1.5
20
3.74104084360693
30
0
0
SPLINE
5
F8
100
AcDbEntity
8
SK1
62
256
6
ByLayer
370
13
48
1
60
0
100
AcDbSpline
70
4
71
3
72
34
73
30
40
0
40
0
40
0
40
0
40
0.249999999999999
40
0.249999999999999
40
0.375
40
0.375
40
0.5
40
0.5
40
0.5625
40
0.5625
40
0.625
40
0.625
40
0.6875
40
0.6875
40
0.71875
40
0.71875
40
0.75
40
0.75
40
0.78125
40
0.78125
40
0.8125
40
0.8125
40
0.84375
40
0.84375
40
0.875
40
0.875
40
0.9375
40
0.9375
40
1
40
1
40
1
40
1
41
1
10
-1.29503997793938
20
3.72040136697606
30
0
41
1
10
-1.25851769783327
20
3.89360816386795
30
0
41
1
10
-1.2166042096205
20
4.06324182424027
30
0
41
1
10
-1.14019760930614
20
4.31131135425227
30
0
41
1
10
-1.1124431897812
20
4.39292915745042
30
0
41
1
10
-1.05011157661753
20
4.55351168985715
30
0
41
1
10
-1.01567625050734
20
4.63251185882845
30
0
41
1
10
-0.954906322750276
20
4.74806453945641
30
0
41
1
10
-0.933110143877201
20
4.78608587328679
30
0
41
1
10
-0.884608877904157
20
4.86068549225382
30
0
41
1
10
-0.858124251569421
20
4.89699298983041
30
0
41
1
10
-0.798207796671022
20
4.96492418558606
30
0
41
1
10
-0.764549925786667
20
4.99705560543683
30
0
41
1
10
-0.705160744607781
20
5.03592142593286
30
0
41
1
10
-0.683666530941764
20
5.04731829496345
30
0
41
1
10
-0.638001912927763
20
5.06414753606995
30
0
41
1
10
-0.613311005030369
20
5.06961717079
30
0
41
1
10
-0.563783087391784
20
5.07211685870107
30
0
41
1
10
-0.538678293431559
20
5.06914385739793
30
0
41
1
10
-0.491556126376764
20
5.05624009074737
30
0
41
1
10
-0.469423091437221
20
5.04645139121635
30
0
41
1
10
-0.428720600842382
20
5.02318308218304
30
0
41
1
10
-0.409727348488133
20
5.00947594842572
30
0
41
1
10
-0.374783528820586
20
4.98024543974125
30
0
41
1
10
-0.358663217229378
20
4.96462449834061
30
0
41
1
10
-0.313058877107949
20
4.91567679507742
30
0
41
1
10
-0.286230000377429
20
4.88019396412119
30
0
41
1
10
-0.23748024882812
20
4.80719997428417
30
0
41
1
10
-0.215465258733531
20
4.76948052303857
30
0
41
1
10
-0.19497688887634
20
4.73091779436086
30
0
0
SPLINE
5
F9
100
AcDbEntity
8
SK1
62
256
6
ByLayer
370
13
48
1
60
0
100
AcDbSpline
70
4
71
3
72
8
73
4
40
0
40
0
40
0
40
0
40
1
40
1
40
1
40
1
41
1
10
-1.31543506509499
20
3.6258692732772
30
0
41
1
10
-1.30850489189845
20
3.65726626185145
30
0
41
1
10
-1.30170669836545
20
3.68878446662453
30
0
41
1
10
-1.2950399779393
20
3.72040136697774
30
0
0
SPLINE
5
FA
100
AcDbEntity
8
SK1
62
256
6
ByLayer
370
13
48
1
60
0
100
AcDbSpline
70
4
71
3
72
30
73
26
40
0
40
0
40
0
40
0
40
0.0625000000000001
40
0.0625000000000001
40
0.125
40
0.125
40
0.1875
40
0.1875
40
0.250000000000001
40
0.250000000000001
40
0.281250000000001
40
0.281250000000001
40
0.312500000000001
40
0.312500000000001
40
0.375000000000001
40
0.375000000000001
40
0.437500000000001
40
0.437500000000001
40
0.500000000000001
40
0.500000000000001
40
0.625000000000001
40
0.625000000000001
40
0.750000000000001
40
0.750000000000001
40
1
40
1
40
1
40
1
41
1
10
-0.194976888875288
20
-4.73091688957581
30
0
41
1
10
-0.215341623339697
20
-4.76924698113567
30
0
41
1
10
-0.237218316180844
20
-4.80674995850598
30
0
41
1
10
-0.285637627819995
20
-4.87936236943105
30
0
41
1
10
-0.312256841613362
20
-4.91463801970468
30
0
41
1
10
-0.372334215715199
20
-4.97946777869984
30
0
41
1
10
-0.40597790697683
20
-5.00970322416063
30
0
41
1
10
-0.487179612985727
20
-5.05705136216957
30
0
41
1
10
-0.535047102647781
20
-5.07274355506235
30
0
41
1
10
-0.609861903369278
20
-5.07015909481089
30
0
41
1
10
-0.634220334798044
20
-5.06515182624321
30
0
41
1
10
-0.680359739746308
20
-5.04886992829574
30
0
41
1
10
-0.701564618709256
20
-5.03794098162766
30
0
41
1
10
-0.761508610710735
20
-4.99963345824094
30
0
41
1
10
-0.79488051234955
20
-4.96821348228079
30
0
41
1
10
-0.855122712172857
20
-4.90082973693563
30
0
41
1
10
-0.881609705490405
20
-4.86487580516945
30
0
41
1
10
-0.92982112745301
20
-4.7915142316408
30
0
41
1
10
-0.951663085997524
20
-4.7538367489631
30
0
41
1
10
-1.01277889125277
20
-4.63872353663004
30
0
41
1
10
-1.04776623358578
20
-4.55912497275998
30
0
41
1
10
-1.1110803699595
20
-4.39684201238143
30
0
41
1
10
-1.13915549199015
20
-4.31450710122527
30
0
41
1
10
-1.21629932824632
20
-4.06459314915719
30
0
41
1
10
-1.25840637569814
20
-3.89413380906421
30
0
41
1
10
-1.2950399779393
20
-3.72039904785848
30
0
0
SPLINE
5
FB
100
AcDbEntity
8
SK1
62
256
6
ByLayer
370
13
48
1
60
0
100
AcDbSpline
70
4
71
3
72
24
73
20
40
0
40
0
40
0
40
0
40
0.250000000000004
40
0.250000000000004
40
0.500000000000008
40
0.500000000000008
40
0.625000000000009
40
0.625000000000009
40
0.687500000000009
40
0.687500000000009
40
0.750000000000008
40
0.750000000000008
40
0.781250000000008
40
0.781250000000008
40
0.812500000000007
40
0.812500000000007
40
0.875000000000004
40
0.875000000000004
40
1
40
1
40
1
40
1
41
1
10
0
20
-5.19904247847472
30
0
41
1
10
0
20
-5.13982987323877
30
0
41
1
10
-0.0010266938672885
20
-5.08029027990244
30
0
41
1
10
-0.0065891270069471
20
-4.96031235327982
30
0
41
1
10
-0.010881779635298
20
-4.89990724368695
30
0
41
1
10
-0.0237620514060097
20
-4.80805784488911
30
0
41
1
10
-0.0290907213673677
20
-4.77727429401685
30
0
41
1
10
-0.0409398492329842
20
-4.73154031330481
30
0
41
1
10
-0.0455700272008244
20
-4.71625292098056
30
0
41
1
10
-0.0573888657134489
20
-4.68671875023321
30
0
41
1
10
-0.0645682567896699
20
-4.67192967971681
30
0
41
1
10
-0.0801994904742571
20
-4.65394546278478
30
0
41
1
10
-0.0862619725799618
20
-4.64884979459717
30
0
41
1
10
-0.0996962255721314
20
-4.64277718642515
30
0
41
1
10
-0.106908299943171
20
-4.64200850997946
30
0
41
1
10
-0.127026736048833
20
-4.64539867620886
30
0
41
1
10
-0.138071998098326
20
-4.65374684656715
30
0
41
1
10
-0.167121759072046
20
-4.68191869379942
30
0
41
1
10
-0.181759028495122
20
-4.70603849995317
30
0
41
1
10
-0.194976888875288
20
-4.73091688957581
30
0
0
SPLINE
5
FC
100
AcDbEntity
8
SK1
62
256
6
ByLayer
370
13
48
1
60
0
100
AcDbSpline
70
4
71
3
72
26
73
22
40
0
40
0
40
0
40
0
40
0.249999999999999
40
0.249999999999999
40
0.374999999999999
40
0.374999999999999
40
0.437499999999999
40
0.437499999999999
40
0.468749999999999
40
0.468749999999999
40
0.499999999999999
40
0.499999999999999
40
0.531249999999999
40
0.531249999999999
40
0.562499999999999
40
0.562499999999999
40
0.624999999999999
40
0.624999999999999
40
0.750000000000001
40
0.750000000000001
40
1
40
1
40
1
40
1
41
1
10
-1.31543506509499
20
-3.62586695867557
30
0
41
1
10
-1.32983845533417
20
-3.56061274733597
30
0
41
1
10
-1.34539769876557
20
-3.49584375125789
30
0
41
1
10
-1.37430681502789
20
-3.40240519123702
30
0
41
1
10
-1.38470426220437
20
-3.37167323341771
30
0
41
1
10
-1.40482944341929
20
-3.32987804436834
30
0
41
1
10
-1.41218098919293
20
-3.31622911662095
30
0
41
1
10
-1.42709086562516
20
-3.30203700524723
30
0
41
1
10
-1.43303261010058
20
-3.29830471378162
30
0
41
1
10
-1.44617281701466
20
-3.30050716205116
30
0
41
1
10
-1.45232532436808
20
-3.30716944555996
30
0
41
1
10
-1.46109088365176
20
-3.32248631353963
30
0
41
1
10
-1.46434665647178
20
-3.33121736968366
30
0
41
1
10
-1.46983176423532
20
-3.34861987333647
30
0
41
1
10
-1.47206917708957
20
-3.35748802859209
30
0
41
1
10
-1.47801081226811
20
-3.38434778204933
30
0
41
1
10
-1.48091665333698
20
-3.40246996731702
30
0
41
1
10
-1.48821399872426
20
-3.45636655777426
30
0
41
1
10
-1.49121809397039
20
-3.49215025079818
30
0
41
1
10
-1.4980983220818
20
-3.59929217377751
30
0
41
1
10
-1.49965908970862
20
-3.67044323146339
30
0
41
1
10
-1.5
20
-3.74103849235183
30
0
0
SPLINE
5
FD
100
AcDbEntity
8
1
62
256
6
ByLayer
370
13
48
1
60
0
100
AcDbSpline
70
4
71
3
72
14
73
10
40
0
40
0
40
0
40
0
40
0.25
40
0.25
40
0.5
40
0.5
40
0.75
40
0.75
40
1
40
1
40
1
40
1
41
1
10
9.33660254037849
20
6.16973001948608
30
0
41
1
10
9.32721186043486
20
6.13568757087504
30
0
41
1
10
9.31597445228968
20
6.10231901184986
30
0
41
1
10
9.28852371889988
20
6.0374267260747
30
0
41
1
10
9.2722622465561
20
6.00567161829645
30
0
41
1
10
9.23214899512476
20
5.94614793734979
30
0
41
1
10
9.20824291947477
20
5.91826181931637
30
0
41
1
10
9.15016936613483
20
5.87512340989366
30
0
41
1
10
9.11431735240407
20
5.85988980456975
30
0
41
1
10
9.07679491924316
20
5.85988980456975
30
0
0
SPLINE
5
FE
100
AcDbEntity
8
1
62
256
6
ByLayer
370
13
48
1
60
0
100
AcDbSpline
70
4
71
3
72
12
73
8
40
0
40
0
40
0
40
0
40
0.500000000000001
40
0.500000000000001
40
0.750000000000001
40
0.750000000000001
40
1
40
1
40
1
40
1
41
1
10
19.9893620917058
20
-15.7376168350877
30
0
41
1
10
20.0981442206887
20
-15.0650078813915
30
0
41
1
10
20.2667599147284
20
-14.4149150822371
30
0
41
1
10
20.6052708772558
20
-13.4697715068956
30
0
41
1
10
20.732484564292
20
-13.1597556067007
30
0
41
1
10
21.0163248000021
20
-12.5495255144395
30
0
41
1
10
21.1729439506078
20
-12.2493117608531
30
0
41
1
10
21.3451070357674
20
-11.953980960534
30
0
0
SPLINE
5
FF
100
AcDbEntity
8
1
62
256
6
ByLayer
370
13
48
1
60
0
100
AcDbSpline
70
4
71
3
72
8
73
4
40
0
40
0
40
0
40
0
40
1
40
1
40
1
40
1
41
1
10
24.9439513660011
20
-0.0968596665155701
30
0
41
1
10
24.9106183111962
20
-0.0979365740203377
30
0
41
1
10
24.8772849646953
20
-0.0989955467131836
30
0
41
1
10
24.8439513660011
20
-0.100038240924761
30
0
0
SPLINE
5
100
100
AcDbEntity
8
1
62
256
6
ByLayer
370
13
48
1
60
0
100
AcDbSpline
70
4
71
3
72
14
73
10
40
0
40
0
40
0
40
0
40
0.25
40
0.25
40
0.5
40
0.5
40
0.75
40
0.75
40
1
40
1
40
1
40
1
41
1
10
9.07679491924316
20
19.1222825906924
30
0
41
1
10
9.11436698667112
20
19.1222825906924
30
0
41
1
10
9.14968727595809
20
19.1177281115532
30
0
41
1
10
9.20863486580117
20
19.1042242696214
30
0
41
1
10
9.23213528231523
20
19.0956673725614
30
0
41
1
10
9.27225845989858
20
19.0770274497582
30
0
41
1
10
9.2883804503779
20
19.0670986798899
30
0
41
1
10
9.31588453947566
20
19.0464153092312
30
0
41
1
10
9.3272084215682
20
19.0356185274183
30
0
41
1
10
9.33660254037849
20
19.0245744101321
30
0
0
SPLINE
5
101
100
AcDbEntity
8
1
62
256
6
ByLayer
370
13
48
1
60
0
100
AcDbSpline
70
4
71
3
72
14
73
10
40
0
40
0
40
0
40
0
40
0.25
40
0.25
40
0.5
40
0.5
40
0.75
40
0.75
40
1
40
1
40
1
40
1
41
1
10
6.66339745962168
20
-6.16973001948585
30
0
41
1
10
6.67278813956531
20
-6.13568757087481
30
0
41
1
10
6.68402554771046
20
-6.10231901184963
30
0
41
1
10
6.71147628110029
20
-6.03742672607447
30
0
41
1
10
6.72773775344405
20
-6.00567161829622
30
0
41
1
10
6.76785100487538
20
-5.94614793734956
30
0
41
1
10
6.79175708052537
20
-5.91826181931614
30
0
41
1
10
6.84983063386534
20
-5.87512340989343
30
0
41
1
10
6.8856826475961
20
-5.85988980456949
30
0
41
1
10
6.92320508075701
20
-5.85988980456949
30
0
0
SPLINE
5
102
100
AcDbEntity
8
1
62
256
6
ByLayer
370
13
48
1
60
0
100
AcDbSpline
70
4
71
3
72
8
73
4
40
0
40
0
40
0
40
0
40
1
40
1
40
1
40
1
41
1
10
24.9439513660011
20
0.0967831846665206
30
0
41
1
10
24.9106183111962
20
0.0978600921712882
30
0
41
1
10
24.8772849646953
20
0.098919064864134
30
0
41
1
10
24.8439513660011
20
0.0999617590757111
30
0
0
SPLINE
5
103
100
AcDbEntity
8
1
62
256
6
ByLayer
370
13
48
1
60
0
100
AcDbSpline
70
4
71
3
72
20
73
16
40
0
40
0
40
0
40
0
40
0.125
40
0.125
40
0.249999999999999
40
0.249999999999999
40
0.374999999999999
40
0.374999999999999
40
0.499999999999998
40
0.499999999999998
40
0.749999999999999
40
0.749999999999999
40
0.874999999999999
40
0.874999999999999
40
1
40
1
40
1
40
1
41
1
10
19.3074639368149
20
19.9538490296112
30
0
41
1
10
19.1704555831956
20
19.9483295835041
30
0
41
1
10
19.0367029558276
20
19.9416741888845
30
0
41
1
10
18.7836341572879
20
19.9258305526917
30
0
41
1
10
18.6638537357202
20
19.9166427477311
30
0
41
1
10
18.437504727089
20
19.895126543174
30
0
41
1
10
18.3309364373664
20
19.8827997184015
30
0
41
1
10
18.1312683820001
20
19.8542622038378
30
0
41
1
10
18.0380592234104
20
19.8379738590648
30
0
41
1
10
17.7862261161577
20
19.7835796582112
30
0
41
1
10
17.6521884792366
20
19.7396567840095
30
0
41
1
10
17.5017950904156
20
19.6590721048113
30
0
41
1
10
17.460549069434
20
19.629863714299
30
0
41
1
10
17.3967721222963
20
19.5673900680398
30
0
41
1
10
17.3739950355817
20
19.5340019633858
30
0
41
1
10
17.3603282434005
20
19.498339481751
30
0
0
SPLINE
5
104
100
AcDbEntity
8
1
62
256
6
ByLayer
370
13
48
1
60
0
100
AcDbSpline
70
4
71
3
72
14
73
10
40
0
40
0
40
0
40
0
40
0.25
40
0.25
40
0.5
40
0.5
40
0.75
40
0.75
40
1
40
1
40
1
40
1
41
1
10
21.3451070357675
20
11.9539044786847
30
0
41
1
10
21.1737077433261
20
12.2479250590194
30
0
41
1
10
21.0174820497706
20
12.5471884165627
30
0
41
1
10
20.7339644182932
20
13.1562723188267
30
0
41
1
10
20.6066783779289
20
13.4660922717509
30
0
41
1
10
20.3806201923722
20
14.0966100765419
30
0
41
1
10
20.2818485545612
20
14.4173070906177
30
0
41
1
10
20.1132781058463
20
15.0701703668496
30
0
41
1
10
20.0435141038483
20
15.4027079487148
30
0
41
1
10
19.9893571251218
20
15.7375710623159
30
0
0
SPLINE
5
105
100
AcDbEntity
8
1
62
256
6
ByLayer
370
13
48
1
60
0
100
AcDbSpline
70
4
71
3
72
14
73
10
40
0
40
0
40
0
40
0
40
0.25
40
0.25
40
0.5
40
0.5
40
0.75
40
0.75
40
1
40
1
40
1
40
1
41
1
10
6.92320508075701
20
-19.1222825906925
30
0
41
1
10
6.88563301332906
20
-19.1222825906925
30
0
41
1
10
6.85031272404203
20
-19.1177281115533
30
0
41
1
10
6.79136513419897
20
-19.1042242696215
30
0
41
1
10
6.76786471768492
20
-19.0956673725615
30
0
41
1
10
6.72774154010156
20
-19.0770274497583
30
0
41
1
10
6.71161954962224
20
-19.06709867989
30
0
41
1
10
6.68411546052451
20
-19.0464153092312
30
0
41
1
10
6.67279157843197
20
-19.0356185274184
30
0
41
1
10
6.66339745962165
20
-19.0245744101322
30
0
0
SPLINE
5
106
100
AcDbEntity
8
1
62
256
6
ByLayer
370
13
48
1
60
0
100
AcDbSpline
70
4
71
3
72
22
73
18
40
0
40
0
40
0
40
0
40
0.249999999999999
40
0.249999999999999
40
0.312499999999999
40
0.312499999999999
40
0.375
40
0.375
40
0.499999999999999
40
0.499999999999999
40
0.624999999999998
40
0.624999999999998
40
0.687499999999998
40
0.687499999999998
40
0.749999999999998
40
0.749999999999998
40
1
40
1
40
1
40
1
41
1
10
17.3603282434005
20
-19.498339481751
30
0
41
1
10
17.3877115606155
20
-19.5697942192151
30
0
41
1
10
17.4511117744221
20
-19.6316292032115
30
0
41
1
10
17.5752335464669
20
-19.6984910010513
30
0
41
1
10
17.6023291139388
20
-19.7113398465951
30
0
41
1
10
17.6611730830366
20
-19.7360239192268
30
0
41
1
10
17.6930447495293
20
-19.7478968183925
30
0
41
1
10
17.7947437382892
20
-19.7816842711018
30
0
41
1
10
17.8706068377991
20
-19.8018121104781
30
0
41
1
10
18.038077918853
20
-19.8379710757761
30
0
41
1
10
18.1296862531552
20
-19.8540006418329
30
0
41
1
10
18.2791027096263
20
-19.8754086350665
30
0
41
1
10
18.3309137890147
20
-19.8821045080513
30
0
41
1
10
18.4386432080148
20
-19.8946816070416
30
0
41
1
10
18.4945357949881
20
-19.9005545202658
30
0
41
1
10
18.7804365351275
20
-19.9276975747624
30
0
41
1
10
19.0323791137712
20
-19.9427671094715
30
0
41
1
10
19.3074640698772
20
-19.9538490349717
30
0
0
SPLINE
5
107
100
AcDbEntity
8
1
62
256
6
ByLayer
370
13
48
1
60
0
100
AcDbSpline
70
4
71
3
72
14
73
10
40
0
40
0
40
0
40
0
40
0.25
40
0.25
40
0.5
40
0.5
40
0.75
40
0.75
40
1
40
1
40
1
40
1
41
1
10
9.07679491924316
20
-5.85988980456978
30
0
41
1
10
9.11436698667112
20
-5.85988980456978
30
0
41
1
10
9.14968727595809
20
-5.87477627667477
30
0
41
1
10
9.20863486580117
20
-5.91854200832103
30
0
41
1
10
9.23213528231523
20
-5.94612987812212
30
0
41
1
10
9.27225845989858
20
-6.00566371121243
30
0
41
1
10
9.2883804503779
20
-6.03712755983065
30
0
41
1
10
9.31588453947566
20
-6.10206728171775
30
0
41
1
10
9.3272084215682
20
-6.13567510453152
30
0
41
1
10
9.33660254037849
20
-6.16973001948608
30
0
0
SPLINE
5
108
100
AcDbEntity
8
1
62
256
6
ByLayer
370
13
48
1
60
0
100
AcDbSpline
70
4
71
3
72
14
73
10
40
0
40
0
40
0
40
0
40
0.25
40
0.25
40
0.5
40
0.5
40
0.75
40
0.75
40
1
40
1
40
1
40
1
41
1
10
6.66339745962168
20
19.0245744101322
30
0
41
1
10
6.67278813956531
20
19.0356144845435
30
0
41
1
10
6.68402554771046
20
19.0463346141652
30
0
41
1
10
6.71147628110026
20
19.0670039094875
30
0
41
1
10
6.72773775344405
20
19.0770249518318
30
0
41
1
10
6.76785100487538
20
19.0956617404785
30
0
41
1
10
6.79175708052537
20
19.1043106800553
30
0
41
1
10
6.84983063386534
20
19.1176210455321
30
0
41
1
10
6.8856826475961
20
19.1222825906925
30
0
41
1
10
6.92320508075701
20
19.1222825906925
30
0
0
SPLINE
5
109
100
AcDbEntity
8
1
62
256
6
ByLayer
370
13
48
1
60
0
100
AcDbSpline
70
4
71
3
72
14
73
10
40
0
40
0
40
0
40
0
40
0.25
40
0.25
40
0.5
40
0.5
40
0.75
40
0.75
40
1
40
1
40
1
40
1
41
1
10
9.33660254037849
20
-19.0245744101321
30
0
41
1
10
9.32721186043486
20
-19.0356144845435
30
0
41
1
10
9.31597445228968
20
-19.0463346141652
30
0
41
1
10
9.28852371889988
20
-19.0670039094874
30
0
41
1
10
9.27226224655612
20
-19.0770249518317
30
0
41
1
10
9.23214899512476
20
-19.0956617404785
30
0
41
1
10
9.20824291947477
20
-19.1043106800552
30
0
41
1
10
9.15016936613483
20
-19.117621045532
30
0
41
1
10
9.11431735240407
20
-19.1222825906925
30
0
41
1
10
9.07679491924316
20
-19.1222825906925
30
0
0
SPLINE
5
10A
100
AcDbEntity
8
1
62
256
6
ByLayer
370
13
48
1
60
0
100
AcDbSpline
70
4
71
3
72
14
73
10
40
0
40
0
40
0
40
0
40
0.25
40
0.25
40
0.5
40
0.5
40
0.75
40
0.75
40
1
40
1
40
1
40
1
41
1
10
6.92320508075701
20
5.85988980456952
30
0
41
1
10
6.88563301332906
20
5.85988980456952
30
0
41
1
10
6.85031272404203
20
5.87477627667454
30
0
41
1
10
6.79136513419897
20
5.9185420083208
30
0
41
1
10
6.76786471768492
20
5.94612987812192
30
0
41
1
10
6.72774154010159
20
6.00566371121221
30
0
41
1
10
6.71161954962227
20
6.03712755983042
30
0
41
1
10
6.68411546052451
20
6.10206728171752
30
0
41
1
10
6.67279157843194
20
6.13567510453132
30
0
41
1
10
6.66339745962165
20
6.16973001948585
30
0
0
INSERT
5
11D
100
AcDbEntity
8
2
62
256
6
ByLayer
370
25
48
1
60
0
100
AcDbBlockReference
2
DimnDraft3D11
10
0
20
0
30
0
41
1
42
1
43
1
50
0
210
0
220
0
230
1
0
LINE
5
70
100
AcDbEntity
8
1
62
256
6
ByLayer
370
13
48
1
60
0
100
AcDbLine
10
0.3
20
20
30
0
11
0
21
19.7
31
0
39
0
210
0
220
0
230
1
0
LINE
5
72
100
AcDbEntity
8
1
62
256
6
ByLayer
370
13
48
1
60
0
100
AcDbLine
10
0
20
-19.7
30
0
11
0.3
21
-20
31
0
39
0
210
0
220
0
230
1
0
LINE
5
73
100
AcDbEntity
8
1
62
256
6
ByLayer
370
13
48
1
60
0
100
AcDbLine
10
0.3
20
-20
30
0
11
19.3
21
-20
31
0
39
0
210
0
220
0
230
1
0
LINE
5
74
100
AcDbEntity
8
1
62
256
6
ByLayer
370
13
48
1
60
0
100
AcDbLine
10
19.3
20
20
30
0
11
0.3
21
20
31
0
39
0
210
0
220
0
230
1
0
LINE
5
75
100
AcDbEntity
8
80
62
256
6
ByLayer
370
18
48
1
60
0
100
AcDbLine
10
0
20
0
30
0
11
-10
21
0
31
0
39
0
210
0
220
0
230
1
0
LINE
5
76
100
AcDbEntity
8
81
62
256
6
ByLayer
370
18
48
1
60
0
100
AcDbLine
10
50
20
0.582
30
0
11
60
21
0.582
31
0
39
0
210
0
220
0
230
1
0
LINE
5
77
100
AcDbEntity
8
1
62
256
6
ByLayer
370
13
48
1
60
0
100
AcDbLine
10
0
20
-19.7
30
0
11
0
21
19.7
31
0
39
0
210
0
220
0
230
1
0
LINE
5
78
100
AcDbEntity
8
1
62
256
6
ByLayer
370
13
48
1
60
0
100
AcDbLine
10
0.3
20
-20
30
0
11
0.3
21
20
31
0
39
0
210
0
220
0
230
1
0
LINE
5
79
100
AcDbEntity
8
1
62
256
6
ByLayer
370
13
48
1
60
0
100
AcDbLine
10
19.307464
20
19.953849
30
0
11
19.3
21
20
31
0
39
0
210
0
220
0
230
1
0
LINE
5
7A
100
AcDbEntity
8
1
62
256
6
ByLayer
370
13
48
1
60
0
100
AcDbLine
10
19.3
20
-20
30
0
11
19.307464
21
-19.953849
31
0
39
0
210
0
220
0
230
1
0
LINE
5
7B
100
AcDbEntity
8
1
62
256
6
ByLayer
370
13
48
1
60
0
100
AcDbLine
10
36.043951
20
4.321752
30
0
11
36.043951
21
3.405802
31
0
39
0
210
0
220
0
230
1
0
LINE
5
7C
100
AcDbEntity
8
1
62
256
6
ByLayer
370
13
48
1
60
0
100
AcDbLine
10
36.043951
20
-3.405879
30
0
11
36.043951
21
-4.321828
31
0
39
0
210
0
220
0
230
1
0
LINE
5
7D
100
AcDbEntity
8
1
62
256
6
ByLayer
370
13
48
1
60
0
100
AcDbLine
10
35.043951
20
4.637051
30
0
11
35.043951
21
3.090437
31
0
39
0
210
0
220
0
230
1
0
LINE
5
7E
100
AcDbEntity
8
1
62
256
6
ByLayer
370
13
48
1
60
0
100
AcDbLine
10
35.043951
20
-3.090513
30
0
11
35.043951
21
-4.637127
31
0
39
0
210
0
220
0
230
1
0
LINE
5
7F
100
AcDbEntity
8
1
62
256
6
ByLayer
370
13
48
1
60
0
100
AcDbLine
10
34.113951
20
4.930279
30
0
11
34.113951
21
2.7973
31
0
39
0
210
0
220
0
230
1
0
LINE
5
80
100
AcDbEntity
8
1
62
256
6
ByLayer
370
13
48
1
60
0
100
AcDbLine
10
34.113951
20
-2.797377
30
0
11
34.113951
21
-4.930355
31
0
39
0
210
0
220
0
230
1
0
LINE
5
81
100
AcDbEntity
8
1
62
256
6
ByLayer
370
13
48
1
60
0
100
AcDbLine
10
36.973951
20
4.028524
30
0
11
36.973951
21
3.699056
31
0
39
0
210
0
220
0
230
1
0
LINE
5
82
100
AcDbEntity
8
1
62
256
6
ByLayer
370
13
48
1
60
0
100
AcDbLine
10
36.973951
20
-3.699132
30
0
11
36.973951
21
-4.0286
31
0
39
0
210
0
220
0
230
1
0
LINE
5
83
100
AcDbEntity
8
1
62
256
6
ByLayer
370
13
48
1
60
0
100
AcDbLine
10
37.223981
20
3.94969
30
0
11
37.223981
21
3.777882
31
0
39
0
210
0
220
0
230
1
0
LINE
5
84
100
AcDbEntity
8
1
62
256
6
ByLayer
370
13
48
1
60
0
100
AcDbLine
10
37.223981
20
-3.777959
30
0
11
37.223981
21
-3.949766
31
0
39
0
210
0
220
0
230
1
0
LINE
5
85
100
AcDbEntity
8
1
62
256
6
ByLayer
370
13
48
1
60
0
100
AcDbLine
10
33.881242
20
5.003651
30
0
11
33.881242
21
2.723845
31
0
39
0
210
0
220
0
230
1
0
LINE
5
86
100
AcDbEntity
8
1
62
256
6
ByLayer
370
13
48
1
60
0
100
AcDbLine
10
33.881242
20
-2.723922
30
0
11
33.881242
21
-5.003728
31
0
39
0
210
0
220
0
230
1
0
LINE
5
87
100
AcDbEntity
8
1
62
256
6
ByLayer
370
13
48
1
60
0
100
AcDbLine
10
37.496441
20
-3.86386
30
0
11
37.223981
21
-3.949766
31
0
39
0
210
0
220
0
230
1
0
LINE
5
88
100
AcDbEntity
8
1
62
256
6
ByLayer
370
13
48
1
60
0
100
AcDbLine
10
37.223981
20
3.94969
30
0
11
37.496441
21
3.863784
31
0
39
0
210
0
220
0
230
1
0
LINE
5
89
100
AcDbEntity
8
SK1
62
256
6
ByLayer
370
13
48
1
60
0
100
AcDbLine
10
-1.315435
20
-3.625867
30
0
11
-1.315435
21
3.625869
31
0
39
0
210
0
220
0
230
1
0
LINE
5
8B
100
AcDbEntity
8
1
62
256
6
ByLayer
370
13
48
1
60
0
100
AcDbLine
10
9.336603
20
-19.024574
30
0
11
9.336603
21
-6.16973
31
0
39
0
210
0
220
0
230
1
0
LINE
5
8C
100
AcDbEntity
8
1
62
256
6
ByLayer
370
13
48
1
60
0
100
AcDbLine
10
19.989357
20
15.737571
30
0
11
19.307464
21
19.953849
31
0
39
0
210
0
220
0
230
1
0
LINE
5
8D
100
AcDbEntity
8
1
62
256
6
ByLayer
370
13
48
1
60
0
100
AcDbLine
10
29.843951
20
-6.276681
30
0
11
29.843951
21
-1.790204
31
0
39
0
210
0
220
0
230
1
0
LINE
5
8E
100
AcDbEntity
8
1
62
256
6
ByLayer
370
13
48
1
60
0
100
AcDbLine
10
29.943951
20
-1.716881
30
0
11
29.843951
21
-1.790204
31
0
39
0
210
0
220
0
230
1
0
LINE
5
8F
100
AcDbEntity
8
1
62
256
6
ByLayer
370
13
48
1
60
0
100
AcDbLine
10
33.881242
20
-5.003728
30
0
11
34.113951
21
-4.930355
31
0
39
0
210
0
220
0
230
1
0
LINE
5
90
100
AcDbEntity
8
1
62
256
6
ByLayer
370
13
48
1
60
0
100
AcDbLine
10
26.440823
20
1.499962
30
0
11
26.440823
21
1.599962
31
0
39
0
210
0
220
0
230
1
0
LINE
5
91
100
AcDbEntity
8
1
62
256
6
ByLayer
370
13
48
1
60
0
100
AcDbLine
10
29.256215
20
1.499962
30
0
11
29.943951
21
1.716804
31
0
39
0
210
0
220
0
230
1
0
LINE
5
92
100
AcDbEntity
8
1
62
256
6
ByLayer
370
13
48
1
60
0
100
AcDbLine
10
29.843951
20
-6.276681
30
0
11
29.343951
21
-6.43433
31
0
39
0
210
0
220
0
230
1
0
LINE
5
93
100
AcDbEntity
8
1
62
256
6
ByLayer
370
13
48
1
60
0
100
AcDbLine
10
9.076795
20
5.85989
30
0
11
9.076795
21
19.122283
31
0
39
0
210
0
220
0
230
1
0
LINE
5
94
100
AcDbEntity
8
1
62
256
6
ByLayer
370
13
48
1
60
0
100
AcDbLine
10
29.256215
20
-1.500038
30
0
11
29.240823
21
-1.600038
31
0
39
0
210
0
220
0
230
1
0
LINE
5
95
100
AcDbEntity
8
1
62
256
6
ByLayer
370
13
48
1
60
0
100
AcDbLine
10
29.343951
20
1.632478
30
0
11
29.843951
21
1.790127
31
0
39
0
210
0
220
0
230
1
0
LINE
5
96
100
AcDbEntity
8
1
62
256
6
ByLayer
370
13
48
1
60
0
100
AcDbLine
10
6.923205
20
-19.122283
30
0
11
6.923205
21
-5.85989
31
0
39
0
210
0
220
0
230
1
0
LINE
5
97
100
AcDbEntity
8
1
62
256
6
ByLayer
370
13
48
1
60
0
100
AcDbLine
10
29.343951
20
1.632478
30
0
11
29.343951
21
6.434254
31
0
39
0
210
0
220
0
230
1
0
LINE
5
98
100
AcDbEntity
8
1
62
256
6
ByLayer
370
13
48
1
60
0
100
AcDbLine
10
29.943951
20
6.245074
30
0
11
33.881242
21
5.003651
31
0
39
0
210
0
220
0
230
1
0
LINE
5
99
100
AcDbEntity
8
1
62
256
6
ByLayer
370
13
48
1
60
0
100
AcDbLine
10
29.943951
20
1.716804
30
0
11
29.943951
21
6.245074
31
0
39
0
210
0
220
0
230
1
0
LINE
5
9A
100
AcDbEntity
8
1
62
256
6
ByLayer
370
13
48
1
60
0
100
AcDbLine
10
29.843951
20
-6.276681
30
0
11
29.943951
21
-6.245151
31
0
39
0
210
0
220
0
230
1
0
LINE
5
9B
100
AcDbEntity
8
1
62
256
6
ByLayer
370
13
48
1
60
0
100
AcDbLine
10
37.223981
20
3.94969
30
0
11
36.973951
21
4.028524
31
0
39
0
210
0
220
0
230
1
0
LINE
5
9C
100
AcDbEntity
8
1
62
256
6
ByLayer
370
13
48
1
60
0
100
AcDbLine
10
29.240823
20
1.599962
30
0
11
29.343951
21
1.632478
31
0
39
0
210
0
220
0
230
1
0
LINE
5
9D
100
AcDbEntity
8
1
62
256
6
ByLayer
370
13
48
1
60
0
100
AcDbLine
10
9.336603
20
6.16973
30
0
11
9.336603
21
19.024574
31
0
39
0
210
0
220
0
230
1
0
LINE
5
9E
100
AcDbEntity
8
1
62
256
6
ByLayer
370
13
48
1
60
0
100
AcDbLine
10
29.343951
20
-1.632554
30
0
11
29.240823
21
-1.600038
31
0
39
0
210
0
220
0
230
1
0
LINE
5
9F
100
AcDbEntity
8
1
62
256
6
ByLayer
370
13
48
1
60
0
100
AcDbLine
10
9.076795
20
-19.122283
30
0
11
9.076795
21
-5.85989
31
0
39
0
210
0
220
0
230
1
0
LINE
5
A0
100
AcDbEntity
8
1
62
256
6
ByLayer
370
13
48
1
60
0
100
AcDbLine
10
9.076795
20
5.85989
30
0
11
6.923205
21
5.85989
31
0
39
0
210
0
220
0
230
1
0
LINE
5
A1
100
AcDbEntity
8
1
62
256
6
ByLayer
370
13
48
1
60
0
100
AcDbLine
10
26.440823
20
-1.500038
30
0
11
26.440823
21
-1.600038
31
0
39
0
210
0
220
0
230
1
0
LINE
5
A2
100
AcDbEntity
8
1
62
256
6
ByLayer
370
13
48
1
60
0
100
AcDbLine
10
29.943951
20
-6.245151
30
0
11
29.943951
21
-1.716881
31
0
39
0
210
0
220
0
230
1
0
LINE
5
A3
100
AcDbEntity
8
1
62
256
6
ByLayer
370
13
48
1
60
0
100
AcDbLine
10
29.943951
20
1.716804
30
0
11
29.843951
21
1.790127
31
0
39
0
210
0
220
0
230
1
0
LINE
5
A4
100
AcDbEntity
8
1
62
256
6
ByLayer
370
13
48
1
60
0
100
AcDbLine
10
24.943951
20
-0.09686
30
0
11
24.943951
21
0.096783
31
0
39
0
210
0
220
0
230
1
0
LINE
5
A5
100
AcDbEntity
8
1
62
256
6
ByLayer
370
13
48
1
60
0
100
AcDbLine
10
6.923205
20
19.122283
30
0
11
9.076795
21
19.122283
31
0
39
0
210
0
220
0
230
1
0
LINE
5
A6
100
AcDbEntity
8
1
62
256
6
ByLayer
370
13
48
1
60
0
100
AcDbLine
10
21.345107
20
-11.953981
30
0
11
21.345107
21
11.953904
31
0
39
0
210
0
220
0
230
1
0
LINE
5
A7
100
AcDbEntity
8
1
62
256
6
ByLayer
370
13
48
1
60
0
100
AcDbLine
10
29.843951
20
-1.790204
30
0
11
29.343951
21
-1.632554
31
0
39
0
210
0
220
0
230
1
0
LINE
5
A8
100
AcDbEntity
8
1
62
256
6
ByLayer
370
13
48
1
60
0
100
AcDbLine
10
29.240823
20
-1.600038
30
0
11
26.440823
21
-1.600038
31
0
39
0
210
0
220
0
230
1
0
LINE
5
A9
100
AcDbEntity
8
1
62
256
6
ByLayer
370
13
48
1
60
0
100
AcDbLine
10
26.440823
20
1.599962
30
0
11
29.240823
21
1.599962
31
0
39
0
210
0
220
0
230
1
0
LINE
5
AA
100
AcDbEntity
8
1
62
256
6
ByLayer
370
13
48
1
60
0
100
AcDbLine
10
36.043951
20
-4.321828
30
0
11
36.973951
21
-4.0286
31
0
39
0
210
0
220
0
230
1
0
LINE
5
AB
100
AcDbEntity
8
1
62
256
6
ByLayer
370
13
48
1
60
0
100
AcDbLine
10
6.923205
20
-5.85989
30
0
11
9.076795
21
-5.85989
31
0
39
0
210
0
220
0
230
1
0
LINE
5
AC
100
AcDbEntity
8
1
62
256
6
ByLayer
370
13
48
1
60
0
100
AcDbLine
10
34.113951
20
4.930279
30
0
11
33.881242
21
5.003651
31
0
39
0
210
0
220
0
230
1
0
LINE
5
AD
100
AcDbEntity
8
1
62
256
6
ByLayer
370
13
48
1
60
0
100
AcDbLine
10
33.881242
20
-5.003728
30
0
11
29.943951
21
-6.245151
31
0
39
0
210
0
220
0
230
1
0
LINE
5
AE
100
AcDbEntity
8
1
62
256
6
ByLayer
370
13
48
1
60
0
100
AcDbLine
10
26.440823
20
1.499962
30
0
11
29.256215
21
1.499962
31
0
39
0
210
0
220
0
230
1
0
LINE
5
AF
100
AcDbEntity
8
1
62
256
6
ByLayer
370
13
48
1
60
0
100
AcDbLine
10
29.943951
20
-1.716881
30
0
11
29.256215
21
-1.500038
31
0
39
0
210
0
220
0
230
1
0
LINE
5
B0
100
AcDbEntity
8
1
62
256
6
ByLayer
370
13
48
1
60
0
100
AcDbLine
10
29.843951
20
1.790127
30
0
11
29.843951
21
6.276604
31
0
39
0
210
0
220
0
230
1
0
LINE
5
B1
100
AcDbEntity
8
1
62
256
6
ByLayer
370
13
48
1
60
0
100
AcDbLine
10
6.923205
20
5.85989
30
0
11
6.923205
21
19.122283
31
0
39
0
210
0
220
0
230
1
0
LINE
5
B2
100
AcDbEntity
8
1
62
256
6
ByLayer
370
13
48
1
60
0
100
AcDbLine
10
36.973951
20
-4.0286
30
0
11
37.223981
21
-3.949766
31
0
39
0
210
0
220
0
230
1
0
LINE
5
B3
100
AcDbEntity
8
1
62
256
6
ByLayer
370
13
48
1
60
0
100
AcDbLine
10
9.076795
20
-19.122283
30
0
11
6.923205
21
-19.122283
31
0
39
0
210
0
220
0
230
1
0
LINE
5
B4
100
AcDbEntity
8
1
62
256
6
ByLayer
370
13
48
1
60
0
100
AcDbLine
10
6.663397
20
-19.024574
30
0
11
6.663397
21
-6.16973
31
0
39
0
210
0
220
0
230
1
0
LINE
5
B5
100
AcDbEntity
8
1
62
256
6
ByLayer
370
13
48
1
60
0
100
AcDbLine
10
29.256215
20
1.499962
30
0
11
29.240823
21
1.599962
31
0
39
0
210
0
220
0
230
1
0
LINE
5
B6
100
AcDbEntity
8
1
62
256
6
ByLayer
370
13
48
1
60
0
100
AcDbLine
10
34.113951
20
-4.930355
30
0
11
35.043951
21
-4.637127
31
0
39
0
210
0
220
0
230
1
0
LINE
5
B7
100
AcDbEntity
8
1
62
256
6
ByLayer
370
13
48
1
60
0
100
AcDbLine
10
24.843951
20
-0.100038
30
0
11
24.843951
21
0.099962
31
0
39
0
210
0
220
0
230
1
0
LINE
5
B8
100
AcDbEntity
8
1
62
256
6
ByLayer
370
13
48
1
60
0
100
AcDbLine
10
29.256215
20
-1.500038
30
0
11
26.440823
21
-1.500038
31
0
39
0
210
0
220
0
230
1
0
LINE
5
B9
100
AcDbEntity
8
1
62
256
6
ByLayer
370
13
48
1
60
0
100
AcDbLine
10
36.043951
20
4.321752
30
0
11
35.043951
21
4.637051
31
0
39
0
210
0
220
0
230
1
0
LINE
5
BA
100
AcDbEntity
8
1
62
256
6
ByLayer
370
13
48
1
60
0
100
AcDbLine
10
35.043951
20
-4.637127
30
0
11
36.043951
21
-4.321828
31
0
39
0
210
0
220
0
230
1
0
LINE
5
BB
100
AcDbEntity
8
1
62
256
6
ByLayer
370
13
48
1
60
0
100
AcDbLine
10
19.307464
20
-19.953849
30
0
11
19.989362
21
-15.737617
31
0
39
0
210
0
220
0
230
1
0
LINE
5
BC
100
AcDbEntity
8
1
62
256
6
ByLayer
370
13
48
1
60
0
100
AcDbLine
10
27.540496
20
-7.002957
30
0
11
29.343951
21
-6.43433
31
0
39
0
210
0
220
0
230
1
0
LINE
5
BD
100
AcDbEntity
8
1
62
256
6
ByLayer
370
13
48
1
60
0
100
AcDbLine
10
36.973951
20
4.028524
30
0
11
36.043951
21
4.321752
31
0
39
0
210
0
220
0
230
1
0
LINE
5
BE
100
AcDbEntity
8
1
62
256
6
ByLayer
370
13
48
1
60
0
100
AcDbLine
10
17.360328
20
19.498339
30
0
11
17.360328
21
-19.498339
31
0
39
0
210
0
220
0
230
1
0
LINE
5
BF
100
AcDbEntity
8
1
62
256
6
ByLayer
370
13
48
1
60
0
100
AcDbLine
10
29.343951
20
-6.43433
30
0
11
29.343951
21
-1.632554
31
0
39
0
210
0
220
0
230
1
0
LINE
5
C0
100
AcDbEntity
8
1
62
256
6
ByLayer
370
13
48
1
60
0
100
AcDbLine
10
35.043951
20
4.637051
30
0
11
34.113951
21
4.930279
31
0
39
0
210
0
220
0
230
1
0
LINE
5
C1
100
AcDbEntity
8
1
62
256
6
ByLayer
370
13
48
1
60
0
100
AcDbLine
10
29.343951
20
6.434254
30
0
11
27.540496
21
7.002881
31
0
39
0
210
0
220
0
230
1
0
LINE
5
C2
100
AcDbEntity
8
1
62
256
6
ByLayer
370
13
48
1
60
0
100
AcDbLine
10
6.663397
20
6.16973
30
0
11
6.663397
21
19.024574
31
0
39
0
210
0
220
0
230
1
0
LINE
5
C3
100
AcDbEntity
8
1
62
256
6
ByLayer
370
13
48
1
60
0
100
AcDbLine
10
29.943951
20
6.245074
30
0
11
29.843951
21
6.276604
31
0
39
0
210
0
220
0
230
1
0
LINE
5
C4
100
AcDbEntity
8
1
62
256
6
ByLayer
370
13
48
1
60
0
100
AcDbLine
10
29.343951
20
6.434254
30
0
11
29.843951
21
6.276604
31
0
39
0
210
0
220
0
230
1
0
LINE
5
C5
100
AcDbEntity
8
1
62
256
6
ByLayer
370
18
48
1
60
0
100
AcDbLine
10
38.187174
20
4.081587
30
0
11
27.509512
21
0.714933
31
0
39
0
210
0
220
0
230
1
0
LINE
5
C6
100
AcDbEntity
8
1
62
256
6
ByLayer
370
18
48
1
60
0
100
AcDbLine
10
38.900729
20
-4.081663
30
0
11
49.57839
21
-0.715009
31
0
39
0
210
0
220
0
230
1
0
LINE
5
C7
100
AcDbEntity
8
1
62
256
6
ByLayer
370
18
48
1
60
0
100
AcDbLine
10
27.509512
20
-0.715009
30
0
11
38.187174
21
-4.081663
31
0
39
0
210
0
220
0
230
1
0
LINE
5
C8
100
AcDbEntity
8
1
62
256
6
ByLayer
370
18
48
1
60
0
100
AcDbLine
10
27.515167
20
0.704071
30
0
11
27.509512
21
0.714933
31
0
39
0
210
0
220
0
230
1
0
LINE
5
C9
100
AcDbEntity
8
1
62
256
6
ByLayer
370
18
48
1
60
0
100
AcDbLine
10
49.57839
20
0.714933
30
0
11
38.900729
21
4.081587
31
0
39
0
210
0
220
0
230
1
0
LINE
5
CA
100
AcDbEntity
8
1
62
256
6
ByLayer
370
18
48
1
60
0
100
AcDbLine
10
49.572736
20
0.704071
30
0
11
49.57839
21
0.714933
31
0
39
0
210
0
220
0
230
1
0
LINE
5
CB
100
AcDbEntity
8
1
62
256
6
ByLayer
370
18
48
1
60
0
100
AcDbLine
10
27.515167
20
-0.704147
30
0
11
27.509512
21
-0.715009
31
0
39
0
210
0
220
0
230
1
0
LINE
5
CC
100
AcDbEntity
8
1
62
256
6
ByLayer
370
18
48
1
60
0
100
AcDbLine
10
49.572736
20
-0.704147
30
0
11
49.57839
21
-0.715009
31
0
39
0
210
0
220
0
230
1
0
MTEXT
5
10B
100
AcDbEntity
8
SK6
62
256
6
ByLayer
370
13
48
1
60
0
100
AcDbMText
10
1.042524
20
-34.83489
30
0
210
0
220
0
230
1
1
\W0.7833;TR-C4-V13VBN-00050
40
3.5
41
0
44
1.084337
50
0
71
7
72
5
7
iso_b_vert
0
DIMENSION
5
12C
100
AcDbEntity
8
SK2
62
256
6
ByLayer
370
13
48
1
60
0
100
AcDbDimension
2
DimnDraft3D2
10
-33.1
20
-20
30
0
11
-33.1
21
0
31
0
70
32
71
5
72
1
41
1
210
0
220
0
230
1
3
Standard
100
AcDbAlignedDimension
13
-1.5875
23
20
33
0
14
-1.5875
24
-20
34
0
50
90
100
AcDbRotatedDimension
1001
ACAD
1000
DSTYLE
1002
{
1070
    74
1070
     0
1070
   279
1070
     0
1070
   172
1070
     1
1070
   173
1070
     1
1070
   340
1005
10C
1070
   271
1070
     1
1070
   272
1070
     2
1070
    77
1070
     1
1070
    73
1070
     0
1070
   171
1070
     3
1070
   274
1070
     4
1070
   177
1070
   150
1070
   176
1070
     9
1070
   178
1070
    43
1070
    78
1070
     8
1070
    48
1040
-0.005
1070
    41
1041
3.175
1070
   147
1041
2.25
1070
    42
1041
1.5875
1070
    44
1041
3.175
1070
   140
1041
4.5
1070
   343
1005
12D
1070
   344
1005
12D
1002
}
0
DIMENSION
5
141
100
AcDbEntity
8
2
62
256
6
ByLayer
370
13
48
1
60
0
100
AcDbDimension
2
DimnDraft3D3
10
0
20
18.082
30
0
11
25
21
18.082
31
0
70
32
71
5
72
1
41
1
210
0
220
0
230
1
3
Standard
100
AcDbAlignedDimension
13
50
23
2.1695
33
0
14
0
24
18.4125
34
0
50
0
100
AcDbRotatedDimension
1001
ACAD
1000
DSTYLE
1002
{
1070
   279
1070
     0
1070
   172
1070
     1
1070
   173
1070
     1
1070
   340
1005
10C
1070
   271
1070
     1
1070
   272
1070
     2
1070
    77
1070
     1
1070
    73
1070
     0
1070
   171
1070
     3
1070
   274
1070
     4
1070
   177
1070
   150
1070
   176
1070
     9
1070
   178
1070
    43
1070
    78
1070
     8
1070
    48
1040
-0.005
1070
    41
1041
3.175
1070
   147
1041
2.25
1070
    42
1041
1.5875
1070
    44
1041
3.175
1070
   140
1041
4.5
1070
   343
1005
12D
1070
   344
1005
12D
1002
}
0
DIMENSION
5
14F
100
AcDbEntity
8
2
62
256
6
ByLayer
370
13
48
1
60
0
100
AcDbDimension
2
DimnDraft3D4
10
37.04658
20
4.454436
30
0
11
39.876214
21
14.177341
31
0
70
34
71
5
72
1
41
1
210
0
220
0
230
1
3
Standard
100
AcDb2LineAngularDimension
13
50
23
0.582
33
0
14
50
24
-1.0056
34
0
15
49.4449
25
0.545261
35
0
16
42.537107
26
10.54834
36
0
40
0
0
ENDSEC
0
SECTION
2
OBJECTS
0
DICTIONARY
5
1b9
330
0
100
AcDbDictionary
280
0
281
1
3
ACAD_GROUP
350
1ba
3
ACAD_MLINESTYLE
350
1bb
0
DICTIONARY
5
1ba
330
0
100
AcDbDictionary
280
0
281
1
0
DICTIONARY
5
1bb
330
0
100
AcDbDictionary
280
0
281
1
3
Standard
350
18
0
MLINESTYLE
5
18
330
1bb
100
AcDbMlineStyle
2
Standard
70
0
3

62
256
51
90
52
90
71
2
49
-0.5
62
256
6
ByLayer
49
0.5
62
256
6
ByLayer
0
RASTERVARIABLES
5
1a8
330

100
AcDbRasterVariables
90
0
70
1
71
1
72
1
0
ENDSEC
0
EOF
