0
SECTION
2
HEADER
9
$ACADVER
1
AC1015
9
$DWGCODEPAGE
3
ANSI_1252
9
$HANDSEED
5
339
9
$ANGBASE
50
0
9
$ANGDIR
70
0
9
$ATTMODE
70
1
9
$AUNITS
70
0
9
$AUPREC
70
0
9
$CECOLOR
62
256
9
$CELTSCALE
40
1
9
$CELTYPE
6
ByLayer
9
$CELWEIGHT
370
18
9
$CLAYER
8
0
9
$CMLJUST
70
0
9
$CMLSCALE
40
1
9
$CMLSTYLE
2
Standard
9
$DIMSTYLE
2
Standard
9
$TEXTSIZE
40
0.2
9
$TEXTSTYLE
7
Standard
9
$LUNITS
70
2
9
$LUPREC
70
4
9
$EXTNAMES
290
1
9
$INSUNITS
70
4
9
$LTSCALE
40
1
9
$LWDISPLAY
290
1
9
$PDMODE
70
0
9
$PDSIZE
40
0
9
$PLINEGEN
70
0
0
ENDSEC
0
SECTION
2
CLASSES
0
CLASS
1
RASTERVARIABLES
2
AcDbRasterVariables
3
ISM
90
0
280
0
281
0
0
ENDSEC
0
SECTION
2
TABLES
0
TABLE
2
VPORT
5
32f
100
AcDbSymbolTable
0
VPORT
5
1
100
AcDbSymbolTableRecord
100
AcDbViewportTableRecord
2
*Active
70
0
10
0
20
0
11
1
21
1
12
-1
22
1
13
0
23
0
14
0.5
24
0.5
15
10
25
10
16
0
26
0
36
1
17
0
27
0
37
0
0
ENDTAB
0
TABLE
2
LTYPE
5
330
100
AcDbSymbolTable
0
LTYPE
5
14
100
AcDbSymbolTableRecord
100
AcDbLinetypeTableRecord
70
0
2
ByBlock
3

72
65
73
0
40
0
0
LTYPE
5
15
100
AcDbSymbolTableRecord
100
AcDbLinetypeTableRecord
70
0
2
ByLayer
3

72
65
73
0
40
0
0
LTYPE
5
16
100
AcDbSymbolTableRecord
100
AcDbLinetypeTableRecord
70
0
2
Continuous
3
Solid line
72
65
73
0
40
0
0
LTYPE
5
6E
100
AcDbSymbolTableRecord
100
AcDbLinetypeTableRecord
70
0
2
CENTER
3
____ _ ____ _ ____ _ ____
72
65
73
4
40
47.5
49
22
74
0
49
-8.5
74
0
49
8.5
74
0
49
-8.5
74
0
0
LTYPE
5
6F
100
AcDbSymbolTableRecord
100
AcDbLinetypeTableRecord
70
0
2
DASHED
3
__ __ __ __ __ __ __ __ __
72
65
73
2
40
25.72
49
12.86
74
0
49
-12.86
74
0
0
ENDTAB
0
TABLE
2
LAYER
5
331
100
AcDbSymbolTable
0
LAYER
5
10
100
AcDbSymbolTableRecord
100
AcDbLayerTableRecord
2
0
70
0
62
7
6
Continuous
290
1
370
-3
390
0
0
LAYER
5
71
100
AcDbSymbolTableRecord
100
AcDbLayerTableRecord
2
81
70
0
62
-3
6
Continuous
290
1
370
-3
390
0
0
LAYER
5
73
100
AcDbSymbolTableRecord
100
AcDbLayerTableRecord
2
80
70
0
62
-6
6
Continuous
290
1
370
-3
390
0
0
LAYER
5
75
100
AcDbSymbolTableRecord
100
AcDbLayerTableRecord
2
1
70
0
62
4
6
Continuous
290
1
370
-3
390
0
0
LAYER
5
82
100
AcDbSymbolTableRecord
100
AcDbLayerTableRecord
2
4
70
0
62
-2
6
CENTER
290
1
370
-3
390
0
0
LAYER
5
D0
100
AcDbSymbolTableRecord
100
AcDbLayerTableRecord
2
2
70
0
62
7
6
Continuous
290
1
370
-3
390
0
0
LAYER
5
23E
100
AcDbSymbolTableRecord
100
AcDbLayerTableRecord
2
Defpoints
70
0
62
7
6
Continuous
290
0
370
-3
390
0
0
LAYER
5
31b
100
AcDbSymbolTableRecord
100
AcDbLayerTableRecord
2
SK4
70
0
62
2
6
CENTER
290
1
370
-3
390
0
0
LAYER
5
31c
100
AcDbSymbolTableRecord
100
AcDbLayerTableRecord
2
SK1
70
0
62
4
6
Continuous
290
1
370
-3
390
0
0
LAYER
5
31d
100
AcDbSymbolTableRecord
100
AcDbLayerTableRecord
2
SK2
70
0
62
7
6
Continuous
290
1
370
-3
390
0
0
LAYER
5
31e
100
AcDbSymbolTableRecord
100
AcDbLayerTableRecord
2
SK6
70
0
62
5
6
Continuous
290
1
370
-3
390
0
0
ENDTAB
0
TABLE
2
STYLE
5
332
100
AcDbSymbolTable
0
STYLE
5
11
100
AcDbSymbolTableRecord
100
AcDbTextStyleTableRecord
2
Standard
3
txt
70
0
71
0
40
0
41
1
42
0
50
0
0
STYLE
5
224
100
AcDbSymbolTableRecord
100
AcDbTextStyleTableRecord
2
iso_b_vert
3
simplex.shx
70
0
71
0
40
0
41
1
42
0
50
0
0
STYLE
5
225
100
AcDbSymbolTableRecord
100
AcDbTextStyleTableRecord
2
DWGDirectTextStyle
3
simplex
70
0
71
0
40
0
41
1
42
0
50
0
0
ENDTAB
0
TABLE
2
DIMSTYLE
5
333
100
AcDbSymbolTable
100
AcDbDimStyleTable
0
DIMSTYLE
105
27
100
AcDbSymbolTableRecord
100
AcDbDimStyleTableRecord
2
Standard
70
0
3
<>
41
0.18
42
0.0625
44
0.18
140
0.18
147
0.09
73
0
74
0
77
1
271
2
275
0
278
52
280
0
340
11
0
ENDTAB
0
TABLE
2
VIEW
5
334
100
AcDbSymbolTable
0
ENDTAB
0
TABLE
2
UCS
5
335
100
AcDbSymbolTable
0
ENDTAB
0
TABLE
2
APPID
5
336
100
AcDbSymbolTable
0
APPID
5
12
100
AcDbSymbolTableRecord
100
AcDbRegAppTableRecord
2
ACAD
70
0
0
APPID
5
23A
100
AcDbSymbolTableRecord
100
AcDbRegAppTableRecord
2
ACAD_DSTYLE_DIMBREAK
70
0
0
APPID
5
2DA
100
AcDbSymbolTableRecord
100
AcDbRegAppTableRecord
2
ACAD_DSTYLE_DIM_LINETYPE
70
0
0
APPID
5
2DB
100
AcDbSymbolTableRecord
100
AcDbRegAppTableRecord
2
ACAD_DSTYLE_DIM_EXT1_LINETYPE
70
0
0
APPID
5
2DC
100
AcDbSymbolTableRecord
100
AcDbRegAppTableRecord
2
ACAD_DSTYLE_DIM_EXT2_LINETYPE
70
0
0
APPID
5
317
100
AcDbSymbolTableRecord
100
AcDbRegAppTableRecord
2
ACAD_MLEADERVER
70
0
0
ENDTAB
0
TABLE
2
BLOCK_RECORD
5
337
100
AcDbSymbolTable
0
BLOCK_RECORD
5
1F
100
AcDbSymbolTableRecord
100
AcDbBlockTableRecord
2
*Model_Space
340
0
70
0
0
BLOCK_RECORD
5
1B
100
AcDbSymbolTableRecord
100
AcDbBlockTableRecord
2
*Paper_Space
340
0
70
0
0
BLOCK_RECORD
5
23
100
AcDbSymbolTableRecord
100
AcDbBlockTableRecord
2
*Paper_Space0
340
0
70
0
0
BLOCK_RECORD
5
23F
100
AcDbSymbolTableRecord
100
AcDbBlockTableRecord
2
*D1
340
0
70
0
0
BLOCK_RECORD
5
24D
100
AcDbSymbolTableRecord
100
AcDbBlockTableRecord
2
_U0
340
0
70
0
0
BLOCK_RECORD
5
259
100
AcDbSymbolTableRecord
100
AcDbBlockTableRecord
2
*D3
340
0
70
0
0
BLOCK_RECORD
5
266
100
AcDbSymbolTableRecord
100
AcDbBlockTableRecord
2
_U1
340
0
70
0
0
BLOCK_RECORD
5
273
100
AcDbSymbolTableRecord
100
AcDbBlockTableRecord
2
*D5
340
0
70
0
0
BLOCK_RECORD
5
281
100
AcDbSymbolTableRecord
100
AcDbBlockTableRecord
2
_U2
340
0
70
0
0
BLOCK_RECORD
5
28E
100
AcDbSymbolTableRecord
100
AcDbBlockTableRecord
2
*D7
340
0
70
0
0
BLOCK_RECORD
5
29A
100
AcDbSymbolTableRecord
100
AcDbBlockTableRecord
2
_U3
340
0
70
0
0
BLOCK_RECORD
5
2A6
100
AcDbSymbolTableRecord
100
AcDbBlockTableRecord
2
*D9
340
0
70
0
0
BLOCK_RECORD
5
2B3
100
AcDbSymbolTableRecord
100
AcDbBlockTableRecord
2
_U4
340
0
70
0
0
ENDTAB
0
ENDSEC
0
SECTION
2
BLOCKS
0
BLOCK
5
20
100
AcDbEntity
8
0
100
AcDbBlockBegin
2
*Model_Space
70
0
10
0
20
0
30
0
3
*Model_Space
0
ENDBLK
5
21
100
AcDbEntity
8
0
100
AcDbBlockEnd
0
BLOCK
5
1C
100
AcDbEntity
8
0
100
AcDbBlockBegin
2
*Paper_Space
70
0
10
0
20
0
30
0
3
*Paper_Space
0
ENDBLK
5
1D
100
AcDbEntity
8
0
100
AcDbBlockEnd
0
BLOCK
5
24
100
AcDbEntity
8
0
100
AcDbBlockBegin
2
*Paper_Space0
70
0
10
0
20
0
30
0
3
*Paper_Space0
0
ENDBLK
5
25
100
AcDbEntity
8
0
100
AcDbBlockEnd
0
BLOCK
5
240
100
AcDbEntity
8
0
100
AcDbBlockBegin
2
*D1
70
1
10
0
20
0
30
0
3
*D1
0
LINE
5
242
100
AcDbEntity
8
0
62
256
6
ByLayer
370
-2
48
1
60
0
100
AcDbLine
10
36.5875
20
1.540348
30
0
11
55.844652
21
1.540348
31
0
39
0
210
0
220
0
230
1
0
LINE
5
243
100
AcDbEntity
8
0
62
256
6
ByLayer
370
-2
48
1
60
0
100
AcDbLine
10
36.5875
20
-1.540348
30
0
11
55.844652
21
-1.540348
31
0
39
0
210
0
220
0
230
1
0
LINE
5
244
100
AcDbEntity
8
0
62
256
6
ByLayer
370
-2
48
1
60
0
100
AcDbLine
10
53.844652
20
1.540348
30
0
11
53.844652
21
28.683205
31
0
39
0
210
0
220
0
230
1
0
LINE
5
245
100
AcDbEntity
8
0
62
256
6
ByLayer
370
-2
48
1
60
0
100
AcDbLine
10
53.844652
20
5.040348
30
0
11
53.844652
21
8.540348
31
0
39
0
210
0
220
0
230
1
0
LINE
5
246
100
AcDbEntity
8
0
62
256
6
ByLayer
370
-2
48
1
60
0
100
AcDbLine
10
53.844652
20
-5.040348
30
0
11
53.844652
21
-8.540348
31
0
39
0
210
0
220
0
230
1
0
SOLID
5
247
100
AcDbEntity
8
0
62
256
6
ByLayer
370
-1
48
1
60
0
100
AcDbTrace
10
53.261319
20
5.040348
30
0
11
54.427986
21
5.040348
31
0
12
53.844652
22
1.540348
32
0
13
53.844652
23
1.540348
33
0
39
0
210
0
220
0
230
1
0
SOLID
5
248
100
AcDbEntity
8
0
62
256
6
ByLayer
370
-1
48
1
60
0
100
AcDbTrace
10
54.427986
20
-5.040348
30
0
11
53.261319
21
-5.040348
31
0
12
53.844652
22
-1.540348
32
0
13
53.844652
23
-1.540348
33
0
39
0
210
0
220
0
230
1
0
MTEXT
5
249
100
AcDbEntity
8
0
62
256
6
ByLayer
370
18
48
1
60
0
100
AcDbMText
10
47.844652
20
18.611776
30
0
210
0
220
0
230
1
1
\A1;3.081
40
3
41
0
44
1
50
90
71
5
72
5
7
iso_b_vert
0
POINT
5
24A
100
AcDbEntity
8
Defpoints
62
0
6
ByLayer
370
-1
48
1
60
0
100
AcDbPoint
10
35
20
1.540348
30
0
39
0
210
0
220
0
230
1
50
360
0
POINT
5
24B
100
AcDbEntity
8
Defpoints
62
0
6
ByLayer
370
-1
48
1
60
0
100
AcDbPoint
10
35
20
-1.540348
30
0
39
0
210
0
220
0
230
1
50
360
0
POINT
5
24C
100
AcDbEntity
8
Defpoints
62
0
6
ByLayer
370
-1
48
1
60
0
100
AcDbPoint
10
53.844652
20
-1.540348
30
0
39
0
210
0
220
0
230
1
50
360
0
ENDBLK
5
241
100
AcDbEntity
8
0
100
AcDbBlockEnd
0
BLOCK
5
254
100
AcDbEntity
8
0
100
AcDbBlockBegin
2
_U0
70
0
10
0
20
0
30
0
3
_U0
0
MTEXT
5
24E
100
AcDbEntity
8
2
62
256
6
ByLayer
370
18
48
1
60
0
100
AcDbMText
10
53.253538
20
11.675348
30
0
210
0
220
0
230
1
1
\W0.7203;M3
40
3
41
0
44
1.084337
50
90
71
7
72
5
7
iso_b_vert
0
LINE
5
24F
100
AcDbEntity
8
2
62
256
6
ByLayer
370
13
48
1
60
0
100
AcDbLine
10
36.5875
20
1.540348
30
0
11
55.844652
21
1.540348
31
0
39
0
210
0
220
0
230
1
0
LINE
5
250
100
AcDbEntity
8
2
62
256
6
ByLayer
370
13
48
1
60
0
100
AcDbLine
10
36.5875
20
-1.540348
30
0
11
55.844652
21
-1.540348
31
0
39
0
210
0
220
0
230
1
0
LINE
5
251
100
AcDbEntity
8
2
62
256
6
ByLayer
370
13
48
1
60
0
100
AcDbLine
10
53.844652
20
-9.040348
30
0
11
53.844652
21
15.795147
31
0
39
0
210
0
220
0
230
1
0
SOLID
5
252
100
AcDbEntity
8
2
62
256
6
ByLayer
370
18
48
1
60
0
100
AcDbTrace
10
53.844652
20
1.540348
30
0
11
53.383869
21
5.040346
31
0
12
54.305436
22
5.040349
32
0
13
54.305436
23
5.040349
33
0
39
0
210
0
220
0
230
1
0
SOLID
5
253
100
AcDbEntity
8
2
62
256
6
ByLayer
370
18
48
1
60
0
100
AcDbTrace
10
53.844652
20
-1.540348
30
0
11
54.305436
21
-5.040346
31
0
12
53.383869
22
-5.040349
32
0
13
53.383869
23
-5.040349
33
0
39
0
210
0
220
0
230
1
0
ENDBLK
5
255
100
AcDbEntity
8
0
100
AcDbBlockEnd
0
BLOCK
5
25A
100
AcDbEntity
8
0
100
AcDbBlockBegin
2
*D3
70
1
10
0
20
0
30
0
3
*D3
0
LINE
5
25C
100
AcDbEntity
8
0
62
256
6
ByLayer
370
-2
48
1
60
0
100
AcDbLine
10
35
20
3.127848
30
0
11
35
21
12.6
31
0
39
0
210
0
220
0
230
1
0
LINE
5
25D
100
AcDbEntity
8
0
62
256
6
ByLayer
370
-2
48
1
60
0
100
AcDbLine
10
34.12
20
1.5875
30
0
11
34.12
21
12.6
31
0
39
0
210
0
220
0
230
1
0
LINE
5
25E
100
AcDbEntity
8
0
62
256
6
ByLayer
370
-2
48
1
60
0
100
AcDbLine
10
38.5
20
10.6
30
0
11
42
21
10.6
31
0
39
0
210
0
220
0
230
1
0
LINE
5
25F
100
AcDbEntity
8
0
62
256
6
ByLayer
370
-2
48
1
60
0
100
AcDbLine
10
30.62
20
10.6
30
0
11
27.12
21
10.6
31
0
39
0
210
0
220
0
230
1
0
SOLID
5
260
100
AcDbEntity
8
0
62
256
6
ByLayer
370
-1
48
1
60
0
100
AcDbTrace
10
38.5
20
11.183333
30
0
11
38.5
21
10.016667
31
0
12
35
22
10.6
32
0
13
35
23
10.6
33
0
39
0
210
0
220
0
230
1
0
SOLID
5
261
100
AcDbEntity
8
0
62
256
6
ByLayer
370
-1
48
1
60
0
100
AcDbTrace
10
30.62
20
10.016667
30
0
11
30.62
21
11.183333
31
0
12
34.12
22
10.6
32
0
13
34.12
23
10.6
33
0
39
0
210
0
220
0
230
1
0
MTEXT
5
262
100
AcDbEntity
8
0
62
256
6
ByLayer
370
18
48
1
60
0
100
AcDbMText
10
34.56
20
16.6
30
0
210
0
220
0
230
1
1
\A1;0.88
40
3
41
0
44
1
50
0
71
5
72
5
7
iso_b_vert
0
POINT
5
263
100
AcDbEntity
8
Defpoints
62
0
6
ByLayer
370
-1
48
1
60
0
100
AcDbPoint
10
35
20
1.540348
30
0
39
0
210
0
220
0
230
1
50
360
0
POINT
5
264
100
AcDbEntity
8
Defpoints
62
0
6
ByLayer
370
-1
48
1
60
0
100
AcDbPoint
10
34.12
20
0
30
0
39
0
210
0
220
0
230
1
50
360
0
POINT
5
265
100
AcDbEntity
8
Defpoints
62
0
6
ByLayer
370
-1
48
1
60
0
100
AcDbPoint
10
34.12
20
10.6
30
0
39
0
210
0
220
0
230
1
50
360
0
ENDBLK
5
25B
100
AcDbEntity
8
0
100
AcDbBlockEnd
0
BLOCK
5
26E
100
AcDbEntity
8
0
100
AcDbBlockBegin
2
_U1
70
0
10
0
20
0
30
0
3
_U1
0
MTEXT
5
267
100
AcDbEntity
8
SK2
62
256
6
ByLayer
370
18
48
1
60
0
100
AcDbMText
10
31.225044
20
11.382634
30
0
210
0
220
0
230
1
1
\W0.6844;'E'
40
3.5
41
0
44
1.084337
50
0
71
7
72
5
7
iso_b_vert
0
MTEXT
5
268
100
AcDbEntity
8
SK2
62
256
6
ByLayer
370
18
48
1
60
0
100
AcDbMText
10
31.198544
20
18.485114
30
0
210
0
220
0
230
1
1
\W0.7346;0.88
40
3
41
0
44
1.084337
50
0
71
7
72
5
7
iso_b_vert
0
LINE
5
269
100
AcDbEntity
8
SK2
62
256
6
ByLayer
370
13
48
1
60
0
100
AcDbLine
10
35
20
3.127848
30
0
11
35
21
12.6
31
0
39
0
210
0
220
0
230
1
0
LINE
5
26A
100
AcDbEntity
8
SK2
62
256
6
ByLayer
370
13
48
1
60
0
100
AcDbLine
10
34.12
20
1.5875
30
0
11
34.12
21
12.6
31
0
39
0
210
0
220
0
230
1
0
LINE
5
26B
100
AcDbEntity
8
SK2
62
256
6
ByLayer
370
13
48
1
60
0
100
AcDbLine
10
42.5
20
10.6
30
0
11
26.62
21
10.6
31
0
39
0
210
0
220
0
230
1
0
SOLID
5
26C
100
AcDbEntity
8
SK2
62
256
6
ByLayer
370
18
48
1
60
0
100
AcDbTrace
10
35
20
10.6
30
0
11
38.499998
21
11.060784
31
0
12
38.500002
22
10.139216
32
0
13
38.500002
23
10.139216
33
0
39
0
210
0
220
0
230
1
0
SOLID
5
26D
100
AcDbEntity
8
SK2
62
256
6
ByLayer
370
18
48
1
60
0
100
AcDbTrace
10
34.12
20
10.6
30
0
11
30.620002
21
10.139216
31
0
12
30.619998
22
11.060784
32
0
13
30.619998
23
11.060784
33
0
39
0
210
0
220
0
230
1
0
ENDBLK
5
26F
100
AcDbEntity
8
0
100
AcDbBlockEnd
0
BLOCK
5
274
100
AcDbEntity
8
0
100
AcDbBlockBegin
2
*D5
70
1
10
0
20
0
30
0
3
*D5
0
LINE
5
276
100
AcDbEntity
8
0
62
256
6
ByLayer
370
-2
48
1
60
0
100
AcDbLine
10
35
20
-3.127848
30
0
11
35
21
-10.540348
31
0
39
0
210
0
220
0
230
1
0
LINE
5
277
100
AcDbEntity
8
0
62
256
6
ByLayer
370
-2
48
1
60
0
100
AcDbLine
10
29
20
-3.127848
30
0
11
29
21
-10.540348
31
0
39
0
210
0
220
0
230
1
0
LINE
5
278
100
AcDbEntity
8
0
62
256
6
ByLayer
370
-2
48
1
60
0
100
AcDbLine
10
35
20
-8.540348
30
0
11
52.857143
21
-8.540348
31
0
39
0
210
0
220
0
230
1
0
LINE
5
279
100
AcDbEntity
8
0
62
256
6
ByLayer
370
-2
48
1
60
0
100
AcDbLine
10
38.5
20
-8.540348
30
0
11
42
21
-8.540348
31
0
39
0
210
0
220
0
230
1
0
LINE
5
27A
100
AcDbEntity
8
0
62
256
6
ByLayer
370
-2
48
1
60
0
100
AcDbLine
10
25.5
20
-8.540348
30
0
11
22
21
-8.540348
31
0
39
0
210
0
220
0
230
1
0
SOLID
5
27B
100
AcDbEntity
8
0
62
256
6
ByLayer
370
-1
48
1
60
0
100
AcDbTrace
10
38.5
20
-7.957014
30
0
11
38.5
21
-9.123681
31
0
12
35
22
-8.540348
32
0
13
35
23
-8.540348
33
0
39
0
210
0
220
0
230
1
0
SOLID
5
27C
100
AcDbEntity
8
0
62
256
6
ByLayer
370
-1
48
1
60
0
100
AcDbTrace
10
25.5
20
-9.123681
30
0
11
25.5
21
-7.957014
31
0
12
29
22
-8.540348
32
0
13
29
23
-8.540348
33
0
39
0
210
0
220
0
230
1
0
MTEXT
5
27D
100
AcDbEntity
8
0
62
256
6
ByLayer
370
18
48
1
60
0
100
AcDbMText
10
47.428571
20
-2.540348
30
0
210
0
220
0
230
1
1
\A1;6
40
3
41
0
44
1
50
0
71
5
72
5
7
iso_b_vert
0
POINT
5
27E
100
AcDbEntity
8
Defpoints
62
0
6
ByLayer
370
-1
48
1
60
0
100
AcDbPoint
10
35
20
-1.540348
30
0
39
0
210
0
220
0
230
1
50
360
0
POINT
5
27F
100
AcDbEntity
8
Defpoints
62
0
6
ByLayer
370
-1
48
1
60
0
100
AcDbPoint
10
29
20
-1.540348
30
0
39
0
210
0
220
0
230
1
50
360
0
POINT
5
280
100
AcDbEntity
8
Defpoints
62
0
6
ByLayer
370
-1
48
1
60
0
100
AcDbPoint
10
29
20
-8.540348
30
0
39
0
210
0
220
0
230
1
50
360
0
ENDBLK
5
275
100
AcDbEntity
8
0
100
AcDbBlockEnd
0
BLOCK
5
289
100
AcDbEntity
8
0
100
AcDbBlockBegin
2
_U2
70
0
10
0
20
0
30
0
3
_U2
0
MTEXT
5
282
100
AcDbEntity
8
SK2
62
256
6
ByLayer
370
18
48
1
60
0
100
AcDbMText
10
41.159
20
-7.655233
30
0
210
0
220
0
230
1
1
\W0.5404;6
40
3
41
0
44
1.084337
50
0
71
7
72
5
7
iso_b_vert
0
MTEXT
5
283
100
AcDbEntity
8
SK2
62
256
6
ByLayer
370
18
48
1
60
0
100
AcDbMText
10
44.974328
20
-7.302752
30
0
210
0
220
0
230
1
1
\W0.8315;\W0.4158;%%p\W0.8315;0.5
40
2.5
41
0
44
1.084337
50
0
71
7
72
5
7
iso_b_vert
0
LINE
5
284
100
AcDbEntity
8
SK2
62
256
6
ByLayer
370
13
48
1
60
0
100
AcDbLine
10
35
20
-3.127848
30
0
11
35
21
-10.540348
31
0
39
0
210
0
220
0
230
1
0
LINE
5
285
100
AcDbEntity
8
SK2
62
256
6
ByLayer
370
13
48
1
60
0
100
AcDbLine
10
29
20
-3.127848
30
0
11
29
21
-10.540348
31
0
39
0
210
0
220
0
230
1
0
LINE
5
286
100
AcDbEntity
8
SK2
62
256
6
ByLayer
370
13
48
1
60
0
100
AcDbLine
10
21.5
20
-8.540348
30
0
11
52.091065
21
-8.540348
31
0
39
0
210
0
220
0
230
1
0
SOLID
5
287
100
AcDbEntity
8
SK2
62
256
6
ByLayer
370
18
48
1
60
0
100
AcDbTrace
10
35
20
-8.540348
30
0
11
38.499998
21
-8.079564
31
0
12
38.500002
22
-9.001131
32
0
13
38.500002
23
-9.001131
33
0
39
0
210
0
220
0
230
1
0
SOLID
5
288
100
AcDbEntity
8
SK2
62
256
6
ByLayer
370
18
48
1
60
0
100
AcDbTrace
10
29
20
-8.540348
30
0
11
25.500002
21
-9.001131
31
0
12
25.499998
22
-8.079564
32
0
13
25.499998
23
-8.079564
33
0
39
0
210
0
220
0
230
1
0
ENDBLK
5
28A
100
AcDbEntity
8
0
100
AcDbBlockEnd
0
BLOCK
5
28F
100
AcDbEntity
8
0
100
AcDbBlockBegin
2
*D7
70
1
10
0
20
0
30
0
3
*D7
0
LINE
5
291
100
AcDbEntity
8
0
62
256
6
ByLayer
370
-2
48
1
60
0
100
AcDbLine
10
35
20
-3.127848
30
0
11
35
21
-33.040348
31
0
39
0
210
0
220
0
230
1
0
LINE
5
292
100
AcDbEntity
8
0
62
256
6
ByLayer
370
-2
48
1
60
0
100
AcDbLine
10
17
20
-2.7225
30
0
11
17
21
-33.040348
31
0
39
0
210
0
220
0
230
1
0
LINE
5
293
100
AcDbEntity
8
0
62
256
6
ByLayer
370
-2
48
1
60
0
100
AcDbLine
10
31.5
20
-31.040348
30
0
11
20.5
21
-31.040348
31
0
39
0
210
0
220
0
230
1
0
SOLID
5
294
100
AcDbEntity
8
0
62
256
6
ByLayer
370
-1
48
1
60
0
100
AcDbTrace
10
31.5
20
-31.623681
30
0
11
31.5
21
-30.457014
31
0
12
35
22
-31.040348
32
0
13
35
23
-31.040348
33
0
39
0
210
0
220
0
230
1
0
SOLID
5
295
100
AcDbEntity
8
0
62
256
6
ByLayer
370
-1
48
1
60
0
100
AcDbTrace
10
20.5
20
-30.457014
30
0
11
20.5
21
-31.623681
31
0
12
17
22
-31.040348
32
0
13
17
23
-31.040348
33
0
39
0
210
0
220
0
230
1
0
MTEXT
5
296
100
AcDbEntity
8
0
62
256
6
ByLayer
370
18
48
1
60
0
100
AcDbMText
10
26
20
-25.040348
30
0
210
0
220
0
230
1
1
\A1;18
40
3
41
0
44
1
50
0
71
5
72
5
7
iso_b_vert
0
POINT
5
297
100
AcDbEntity
8
Defpoints
62
0
6
ByLayer
370
-1
48
1
60
0
100
AcDbPoint
10
35
20
-1.540348
30
0
39
0
210
0
220
0
230
1
50
360
0
POINT
5
298
100
AcDbEntity
8
Defpoints
62
0
6
ByLayer
370
-1
48
1
60
0
100
AcDbPoint
10
17
20
-1.135
30
0
39
0
210
0
220
0
230
1
50
360
0
POINT
5
299
100
AcDbEntity
8
Defpoints
62
0
6
ByLayer
370
-1
48
1
60
0
100
AcDbPoint
10
17
20
-31.040348
30
0
39
0
210
0
220
0
230
1
50
360
0
ENDBLK
5
290
100
AcDbEntity
8
0
100
AcDbBlockEnd
0
BLOCK
5
2A1
100
AcDbEntity
8
0
100
AcDbBlockBegin
2
_U3
70
0
10
0
20
0
30
0
3
_U3
0
MTEXT
5
29B
100
AcDbEntity
8
SK2
62
256
6
ByLayer
370
18
48
1
60
0
100
AcDbMText
10
24.742115
20
-30.155233
30
0
210
0
220
0
230
1
1
\W0.5321;18
40
3
41
0
44
1.084337
50
0
71
7
72
5
7
iso_b_vert
0
LINE
5
29C
100
AcDbEntity
8
SK2
62
256
6
ByLayer
370
13
48
1
60
0
100
AcDbLine
10
35
20
-3.127848
30
0
11
35
21
-33.040348
31
0
39
0
210
0
220
0
230
1
0
LINE
5
29D
100
AcDbEntity
8
SK2
62
256
6
ByLayer
370
13
48
1
60
0
100
AcDbLine
10
17
20
-2.7225
30
0
11
17
21
-33.040348
31
0
39
0
210
0
220
0
230
1
0
LINE
5
29E
100
AcDbEntity
8
SK2
62
256
6
ByLayer
370
13
48
1
60
0
100
AcDbLine
10
35
20
-31.040348
30
0
11
17
21
-31.040348
31
0
39
0
210
0
220
0
230
1
0
SOLID
5
29F
100
AcDbEntity
8
SK2
62
256
6
ByLayer
370
18
48
1
60
0
100
AcDbTrace
10
35
20
-31.040348
30
0
11
31.500002
21
-31.501131
31
0
12
31.499998
22
-30.579564
32
0
13
31.499998
23
-30.579564
33
0
39
0
210
0
220
0
230
1
0
SOLID
5
2A0
100
AcDbEntity
8
SK2
62
256
6
ByLayer
370
18
48
1
60
0
100
AcDbTrace
10
17
20
-31.040348
30
0
11
20.499998
21
-30.579564
31
0
12
20.500002
22
-31.501131
32
0
13
20.500002
23
-31.501131
33
0
39
0
210
0
220
0
230
1
0
ENDBLK
5
2A2
100
AcDbEntity
8
0
100
AcDbBlockEnd
0
BLOCK
5
2A7
100
AcDbEntity
8
0
100
AcDbBlockBegin
2
*D9
70
1
10
0
20
0
30
0
3
*D9
0
LINE
5
2A9
100
AcDbEntity
8
0
62
256
6
ByLayer
370
-2
48
1
60
0
100
AcDbLine
10
35
20
-3.127848
30
0
11
35
21
-22.040348
31
0
39
0
210
0
220
0
230
1
0
LINE
5
2AA
100
AcDbEntity
8
0
62
256
6
ByLayer
370
-2
48
1
60
0
100
AcDbLine
10
19.7
20
-1.5875
30
0
11
19.7
21
-22.040348
31
0
39
0
210
0
220
0
230
1
0
LINE
5
2AB
100
AcDbEntity
8
0
62
256
6
ByLayer
370
-2
48
1
60
0
100
AcDbLine
10
38.5
20
-20.040348
30
0
11
42
21
-20.040348
31
0
39
0
210
0
220
0
230
1
0
LINE
5
2AC
100
AcDbEntity
8
0
62
256
6
ByLayer
370
-2
48
1
60
0
100
AcDbLine
10
16.2
20
-20.040348
30
0
11
12.7
21
-20.040348
31
0
39
0
210
0
220
0
230
1
0
SOLID
5
2AD
100
AcDbEntity
8
0
62
256
6
ByLayer
370
-1
48
1
60
0
100
AcDbTrace
10
38.5
20
-19.457014
30
0
11
38.5
21
-20.623681
31
0
12
35
22
-20.040348
32
0
13
35
23
-20.040348
33
0
39
0
210
0
220
0
230
1
0
SOLID
5
2AE
100
AcDbEntity
8
0
62
256
6
ByLayer
370
-1
48
1
60
0
100
AcDbTrace
10
16.2
20
-20.623681
30
0
11
16.2
21
-19.457014
31
0
12
19.7
22
-20.040348
32
0
13
19.7
23
-20.040348
33
0
39
0
210
0
220
0
230
1
0
MTEXT
5
2AF
100
AcDbEntity
8
0
62
256
6
ByLayer
370
18
48
1
60
0
100
AcDbMText
10
27.35
20
-14.040348
30
0
210
0
220
0
230
1
1
\A1;15.3
40
3
41
0
44
1
50
0
71
5
72
5
7
iso_b_vert
0
POINT
5
2B0
100
AcDbEntity
8
Defpoints
62
0
6
ByLayer
370
-1
48
1
60
0
100
AcDbPoint
10
35
20
-1.540348
30
0
39
0
210
0
220
0
230
1
50
360
0
POINT
5
2B1
100
AcDbEntity
8
Defpoints
62
0
6
ByLayer
370
-1
48
1
60
0
100
AcDbPoint
10
19.7
20
0
30
0
39
0
210
0
220
0
230
1
50
360
0
POINT
5
2B2
100
AcDbEntity
8
Defpoints
62
0
6
ByLayer
370
-1
48
1
60
0
100
AcDbPoint
10
19.7
20
-20.040348
30
0
39
0
210
0
220
0
230
1
50
360
0
ENDBLK
5
2A8
100
AcDbEntity
8
0
100
AcDbBlockEnd
0
BLOCK
5
2BA
100
AcDbEntity
8
0
100
AcDbBlockBegin
2
_U4
70
0
10
0
20
0
30
0
3
_U4
0
MTEXT
5
2B4
100
AcDbEntity
8
2
62
256
6
ByLayer
370
18
48
1
60
0
100
AcDbMText
10
24.363486
20
-19.155233
30
0
210
0
220
0
230
1
1
\W0.6563;15.3
40
3
41
0
44
1.084337
50
0
71
7
72
5
7
iso_b_vert
0
LINE
5
2B5
100
AcDbEntity
8
2
62
256
6
ByLayer
370
13
48
1
60
0
100
AcDbLine
10
35
20
-3.127848
30
0
11
35
21
-22.040348
31
0
39
0
210
0
220
0
230
1
0
LINE
5
2B6
100
AcDbEntity
8
2
62
256
6
ByLayer
370
13
48
1
60
0
100
AcDbLine
10
19.7
20
-1.5875
30
0
11
19.7
21
-22.040348
31
0
39
0
210
0
220
0
230
1
0
LINE
5
2B7
100
AcDbEntity
8
2
62
256
6
ByLayer
370
13
48
1
60
0
100
AcDbLine
10
35
20
-20.040348
30
0
11
19.7
21
-20.040348
31
0
39
0
210
0
220
0
230
1
0
SOLID
5
2B8
100
AcDbEntity
8
2
62
256
6
ByLayer
370
18
48
1
60
0
100
AcDbTrace
10
35
20
-20.040348
30
0
11
31.500002
21
-20.501131
31
0
12
31.499998
22
-19.579564
32
0
13
31.499998
23
-19.579564
33
0
39
0
210
0
220
0
230
1
0
SOLID
5
2B9
100
AcDbEntity
8
2
62
256
6
ByLayer
370
18
48
1
60
0
100
AcDbTrace
10
19.7
20
-20.040348
30
0
11
23.199998
21
-19.579564
31
0
12
23.200002
22
-20.501131
32
0
13
23.200002
23
-20.501131
33
0
39
0
210
0
220
0
230
1
0
ENDBLK
5
2BB
100
AcDbEntity
8
0
100
AcDbBlockEnd
0
ENDSEC
0
SECTION
2
ENTITIES
0
ARC
5
D9
100
AcDbEntity
8
SK1
62
256
6
ByLayer
370
18
48
1
60
0
100
AcDbCircle
39
0
10
-16.35
20
0
30
0
40
1.67999999999998
210
0
220
0
230
1
100
AcDbArc
50
323.472515
51
36.527485
0
ARC
5
DA
100
AcDbEntity
8
1
62
256
6
ByLayer
370
18
48
1
60
0
100
AcDbCircle
39
0
10
17.043744
20
-1.635
30
0
40
0.5
210
0
220
0
230
1
100
AcDbArc
50
90
51
100
0
ARC
5
DB
100
AcDbEntity
8
1
62
256
6
ByLayer
370
18
48
1
60
0
100
AcDbCircle
39
0
10
17.043744
20
1.635
30
0
40
0.5
210
0
220
0
230
1
100
AcDbArc
50
260
51
270
0
POINT
5
70
100
AcDbEntity
8
81
62
256
6
ByLayer
370
18
48
1
60
0
100
AcDbPoint
10
35.1
20
0
30
0
39
0
210
0
220
0
230
1
50
360
0
POINT
5
72
100
AcDbEntity
8
80
62
256
6
ByLayer
370
18
48
1
60
0
100
AcDbPoint
10
0
20
0
30
0
39
0
210
0
220
0
230
1
50
360
0
POINT
5
74
100
AcDbEntity
8
1
62
256
6
ByLayer
370
18
48
1
60
1
100
AcDbPoint
10
35
20
1.540348
30
0
39
0
210
0
220
0
230
1
50
360
0
POINT
5
76
100
AcDbEntity
8
1
62
256
6
ByLayer
370
18
48
1
60
1
100
AcDbPoint
10
35
20
-1.540348
30
0
39
0
210
0
220
0
230
1
50
360
0
POINT
5
77
100
AcDbEntity
8
1
62
256
6
ByLayer
370
18
48
1
60
1
100
AcDbPoint
10
35
20
1.540348
30
0
39
0
210
0
220
0
230
1
50
360
0
POINT
5
78
100
AcDbEntity
8
1
62
256
6
ByLayer
370
18
48
1
60
1
100
AcDbPoint
10
34.12
20
0
30
0
39
0
210
0
220
0
230
1
50
360
0
POINT
5
79
100
AcDbEntity
8
1
62
256
6
ByLayer
370
18
48
1
60
1
100
AcDbPoint
10
35
20
-1.540348
30
0
39
0
210
0
220
0
230
1
50
360
0
POINT
5
7A
100
AcDbEntity
8
1
62
256
6
ByLayer
370
18
48
1
60
1
100
AcDbPoint
10
29
20
-1.540348
30
0
39
0
210
0
220
0
230
1
50
360
0
POINT
5
7B
100
AcDbEntity
8
1
62
256
6
ByLayer
370
18
48
1
60
1
100
AcDbPoint
10
35
20
-1.540348
30
0
39
0
210
0
220
0
230
1
50
360
0
POINT
5
7C
100
AcDbEntity
8
1
62
256
6
ByLayer
370
18
48
1
60
1
100
AcDbPoint
10
17
20
-1.135
30
0
39
0
210
0
220
0
230
1
50
360
0
POINT
5
7D
100
AcDbEntity
8
1
62
256
6
ByLayer
370
18
48
1
60
1
100
AcDbPoint
10
35
20
-1.540348
30
0
39
0
210
0
220
0
230
1
50
360
0
POINT
5
7E
100
AcDbEntity
8
1
62
256
6
ByLayer
370
18
48
1
60
1
100
AcDbPoint
10
19.7
20
0
30
0
39
0
210
0
220
0
230
1
50
360
0
SPLINE
5
DC
100
AcDbEntity
8
1
62
256
6
ByLayer
370
18
48
1
60
0
100
AcDbSpline
70
4
71
3
72
14
73
10
40
0
40
0
40
0
40
0
40
0.167870832329928
40
0.167870832329928
40
0.375903124247446
40
0.375903124247446
40
0.583935416164964
40
0.583935416164964
40
1
40
1
40
1
40
1
41
1
10
34.2493656376315
20
-1.44535123419917
30
0
41
1
10
34.2486895498544
20
-1.44632731156472
30
0
41
1
10
34.2480206499033
20
-1.44692492135636
30
0
41
1
10
34.2465387494653
20
-1.44740646232657
30
0
41
1
10
34.2457330856866
20
-1.4470758855839
30
0
41
1
10
34.2441603901963
20
-1.44522892992555
30
0
41
1
10
34.243391668552
20
-1.4437134156077
30
0
41
1
10
34.2411322424261
20
-1.43739991600017
30
0
41
1
10
34.2396894744822
20
-1.43083868406455
30
0
41
1
10
34.2383132685892
20
-1.42189076454528
30
0
0
SPLINE
5
DD
100
AcDbEntity
8
1
62
256
6
ByLayer
370
13
48
1
60
0
100
AcDbSpline
70
4
71
3
72
8
73
4
40
0
40
0
40
0
40
0
40
1
40
1
40
1
40
1
41
1
10
29.1158594530241
20
1.24476214277882
30
0
41
1
10
29.1192126023595
20
1.2401597262016
30
0
41
1
10
29.1225657162354
20
1.2322394932047
30
0
41
1
10
29.1259188218115
20
1.22106116420648
30
0
0
SPLINE
5
DE
100
AcDbEntity
8
1
62
256
6
ByLayer
370
18
48
1
60
0
100
AcDbSpline
70
4
71
3
72
8
73
4
40
0
40
0
40
0
40
0
40
1
40
1
40
1
40
1
41
1
10
34.1004580882321
20
-1.43991421931449
30
0
41
1
10
34.1057349949834
20
-1.46046285731137
30
0
41
1
10
34.1109201669961
20
-1.47530963842002
30
0
41
1
10
34.1160081354628
20
-1.48438315389612
30
0
0
SPLINE
5
DF
100
AcDbEntity
8
1
62
256
6
ByLayer
370
13
48
1
60
0
100
AcDbSpline
70
4
71
3
72
8
73
4
40
0
40
0
40
0
40
0
40
1
40
1
40
1
40
1
41
1
10
30.9643132255865
20
-1.21100776920324
30
0
41
1
10
30.967740762485
20
-1.22429160160519
30
0
41
1
10
30.971168299772
20
-1.23420184289984
30
0
41
1
10
30.974595837296
20
-1.24059367470338
30
0
0
SPLINE
5
E0
100
AcDbEntity
8
1
62
256
6
ByLayer
370
13
48
1
60
0
100
AcDbSpline
70
4
71
3
72
9
73
5
40
0
40
0
40
0
40
0
40
0.193890039842539
40
1
40
1
40
1
40
1
41
1
10
33.9591849822368
20
-1.18860084394333
30
0
41
1
10
33.960290413788
20
-1.19398487275916
30
0
41
1
10
33.9659917460555
20
-1.21996132359303
30
0
41
1
10
33.9716930781726
20
-1.23648779318782
30
0
41
1
10
33.9762889791024
20
-1.24358489635972
30
0
0
SPLINE
5
E1
100
AcDbEntity
8
1
62
256
6
ByLayer
370
13
48
1
60
0
100
AcDbSpline
70
4
71
3
72
10
73
6
40
0
40
0
40
0
40
0
40
0.0474587070897994
40
0.831183421967615
40
1
40
1
40
1
40
1
41
1
10
32.2256000209854
20
1.24246158814518
30
0
41
1
10
32.2260434724793
20
1.24320590535876
30
0
41
1
10
32.2338100037197
20
1.25522500643004
30
0
41
1
10
32.2431539482008
20
1.24819827397164
30
0
41
1
10
32.252054445221
20
1.21831659712865
30
0
41
1
10
32.2536318587772
20
1.21230676721112
30
0
0
SPLINE
5
E2
100
AcDbEntity
8
1
62
256
6
ByLayer
370
13
48
1
60
0
100
AcDbSpline
70
4
71
3
72
9
73
5
40
0
40
0
40
0
40
0
40
0.432939815882517
40
1
40
1
40
1
40
1
41
1
10
29.2243960379693
20
1.24019536851858
30
0
41
1
10
29.2293014017267
20
1.24960168617218
30
0
41
1
10
29.2406317620781
20
1.25505260798869
30
0
41
1
10
29.2519621259362
20
1.22247204181812
30
0
41
1
10
29.2583871224058
20
1.19217782287427
30
0
0
SPLINE
5
E3
100
AcDbEntity
8
1
62
256
6
ByLayer
370
13
48
1
60
0
100
AcDbSpline
70
4
71
3
72
8
73
4
40
0
40
0
40
0
40
0
40
1
40
1
40
1
40
1
41
1
10
32.6164550925231
20
1.24375157023761
30
0
41
1
10
32.6275368171242
20
1.22686781118361
30
0
41
1
10
32.6386185772759
20
1.17388817755901
30
0
41
1
10
32.6497004299382
20
1.08859511536281
30
0
0
SPLINE
5
E4
100
AcDbEntity
8
1
62
256
6
ByLayer
370
13
48
1
60
0
100
AcDbSpline
70
4
71
3
72
9
73
5
40
0
40
0
40
0
40
0
40
0.493245969112701
40
1
40
1
40
1
40
1
41
1
10
30.8318580718102
20
-1.17829608563235
30
0
41
1
10
30.8378607837043
20
-1.20970514349932
30
0
41
1
10
30.8500305830843
20
-1.25303005516506
30
0
41
1
10
30.8622004522467
20
-1.25188330237219
30
0
41
1
10
30.868367610436
20
-1.24028486828453
30
0
0
SPLINE
5
E5
100
AcDbEntity
8
1
62
256
6
ByLayer
370
13
48
1
60
0
100
AcDbSpline
70
4
71
3
72
10
73
6
40
0
40
0
40
0
40
0
40
0.0773701746557217
40
0.658020761899639
40
1
40
1
40
1
40
1
41
1
10
29.6166611242387
20
1.24355403803827
30
0
41
1
10
29.6176369084235
20
1.24207952426582
30
0
41
1
10
29.6259357910002
20
1.2271256987419
30
0
41
1
10
29.6385476183442
20
1.17305211625009
30
0
41
1
10
29.6501837061206
20
1.08635492798095
30
0
41
1
10
29.6544967140225
20
1.04961900208687
30
0
0
SPLINE
5
E6
100
AcDbEntity
8
1
62
256
6
ByLayer
370
13
48
1
60
0
100
AcDbSpline
70
4
71
3
72
10
73
6
40
0
40
0
40
0
40
0
40
0.207616559007234
40
0.993029476890287
40
1
40
1
40
1
40
1
41
1
10
30.4358062639013
20
-1.02587669106728
30
0
41
1
10
30.4396778422444
20
-1.0606508408176
30
0
41
1
10
30.4581955890142
20
-1.20957863836455
30
0
41
1
10
30.4768433023048
20
-1.2654704896857
30
0
41
1
10
30.4916194479767
20
-1.24413847776194
30
0
41
1
10
30.4917494323504
20
-1.24394575105106
30
0
0
SPLINE
5
E7
100
AcDbEntity
8
1
62
256
6
ByLayer
370
13
48
1
60
0
100
AcDbSpline
70
4
71
3
72
10
73
6
40
0
40
0
40
0
40
0
40
0.27216060418226
40
0.820507352433082
40
1
40
1
40
1
40
1
41
1
10
33.8267808115489
20
-1.14916897063688
30
0
41
1
10
33.8304154835198
20
-1.17165024334116
30
0
41
1
10
33.8413732615861
20
-1.22865507306639
30
0
41
1
10
33.8547280788881
20
-1.25552499759039
30
0
41
1
10
33.8644482548823
20
-1.24702991516435
30
0
41
1
10
33.8668453521676
20
-1.24324978031794
30
0
0
SPLINE
5
E8
100
AcDbEntity
8
1
62
256
6
ByLayer
370
13
48
1
60
0
100
AcDbSpline
70
4
71
3
72
10
73
6
40
0
40
0
40
0
40
0
40
0.104281785565251
40
0.606539856486472
40
1
40
1
40
1
40
1
41
1
10
33.430677832534
20
-0.977942821352883
30
0
41
1
10
33.4321982947203
20
-0.992806053141862
30
0
41
1
10
33.4410418426747
20
-1.07613985707078
30
0
41
1
10
33.4556221725662
20
-1.18214296579987
30
0
41
1
10
33.4686820400544
20
-1.22938900310192
30
0
41
1
10
33.4744188179841
20
-1.24036626007364
30
0
0
SPLINE
5
E9
100
AcDbEntity
8
1
62
256
6
ByLayer
370
13
48
1
60
0
100
AcDbSpline
70
4
71
3
72
10
73
6
40
0
40
0
40
0
40
0
40
0.054891468841417
40
0.885944494852277
40
1
40
1
40
1
40
1
41
1
10
32.7293210106405
20
1.24734269001226
30
0
41
1
10
32.7302883979256
20
1.24825793466491
30
0
41
1
10
32.7459019615907
20
1.25850907410069
30
0
41
1
10
32.763525597982
20
1.18705165786997
30
0
41
1
10
32.7801818328542
20
1.04660552284653
30
0
41
1
10
32.7821919037278
20
1.02866140946836
30
0
0
SPLINE
5
EA
100
AcDbEntity
8
1
62
256
6
ByLayer
370
13
48
1
60
0
100
AcDbSpline
70
4
71
3
72
10
73
6
40
0
40
0
40
0
40
0
40
0.2233213273696
40
0.614006296483757
40
1
40
1
40
1
40
1
41
1
10
33.1221106593119
20
1.23200863451262
30
0
41
1
10
33.1262966783643
20
1.2212121220534
30
0
41
1
10
33.1378058392026
20
1.17759381992269
30
0
41
1
10
33.1565501211517
20
1.04475650113835
30
0
41
1
10
33.1711079259444
20
0.889833810630165
30
0
41
1
10
33.1783429451382
20
0.802726907090545
30
0
0
SPLINE
5
EB
100
AcDbEntity
8
1
62
256
6
ByLayer
370
18
48
1
60
0
100
AcDbSpline
70
4
71
3
72
21
73
17
40
0
40
0
40
0
40
0
40
0.230673383552302
40
0.230673383552302
40
0.294783934922944
40
0.294783934922944
40
0.358894486293585
40
0.358894486293585
40
0.487115589034868
40
0.61533669177615
40
0.61533669177615
40
0.679447243146792
40
0.679447243146792
40
0.743557794517434
40
0.743557794517434
40
1
40
1
40
1
40
1
41
1
10
32.9021813376576
20
1.54035014505081
30
0
41
1
10
32.9070259288903
20
1.54038329265899
30
0
41
1
10
32.911881820908
20
1.53220231065859
30
0
41
1
10
32.9180389523453
20
1.51106930694965
30
0
41
1
10
32.9193799052377
20
1.50580510355707
30
0
41
1
10
32.922042521205
20
1.49402847970438
30
0
41
1
10
32.9233622089939
20
1.48752917229956
30
0
41
1
10
32.9272945925733
20
1.4662341693726
30
0
41
1
10
32.9324650385654
20
1.43305739422797
30
0
41
1
10
32.9376167043591
20
1.39047369757992
30
0
41
1
10
32.9415412508184
20
1.35496367986801
30
0
41
1
10
32.9428599317504
20
1.34253055981128
30
0
41
1
10
32.9455313810541
20
1.31645036828823
30
0
41
1
10
32.9468860659381
20
1.30277023767525
30
0
41
1
10
32.9536498970039
20
1.23204111070371
30
0
41
1
10
32.9590556817251
20
1.16767016704591
30
0
41
1
10
32.9643796677034
20
1.09571122495936
30
0
0
SPLINE
5
EC
100
AcDbEntity
8
1
62
256
6
ByLayer
370
13
48
1
60
0
100
AcDbSpline
70
4
71
3
72
10
73
6
40
0
40
0
40
0
40
0
40
0.238467294738706
40
0.632104493387151
40
1
40
1
40
1
40
1
41
1
10
29.7310958575052
20
1.2483415096282
30
0
41
1
10
29.7355322148858
20
1.25112316313744
30
0
41
1
10
29.7472916515039
20
1.24323460942901
30
0
41
1
10
29.7658952731342
20
1.16519322059398
30
0
41
1
10
29.7800625518398
20
1.05100114741697
30
0
41
1
10
29.7869067473931
20
0.984873071718539
30
0
0
SPLINE
5
ED
100
AcDbEntity
8
1
62
256
6
ByLayer
370
13
48
1
60
0
100
AcDbSpline
70
4
71
3
72
9
73
5
40
0
40
0
40
0
40
0
40
0.34454176349477
40
1
40
1
40
1
40
1
41
1
10
30.3033484130199
20
-0.957465630377897
30
0
41
1
10
30.309766915947
20
-1.0222560498276
30
0
41
1
10
30.3283961589665
20
-1.18348280611596
30
0
41
1
10
30.3470257635692
20
-1.24992098144423
30
0
41
1
10
30.3592364438361
20
-1.24936788396349
30
0
0
SPLINE
5
EE
100
AcDbEntity
8
1
62
256
6
ByLayer
370
18
48
1
60
0
100
AcDbSpline
70
4
71
3
72
22
73
18
40
0
40
0
40
0
40
0
40
0.250000000000001
40
0.250000000000001
40
0.312500000000001
40
0.312500000000001
40
0.375000000000001
40
0.375000000000001
40
0.5
40
0.5
40
0.625
40
0.625
40
0.6875
40
0.6875
40
0.75
40
0.75
40
1
40
1
40
1
40
1
41
1
10
30.009575759132
20
0.995700842479351
30
0
41
1
10
30.0042089177285
20
1.07371902602739
30
0
41
1
10
29.9989578330811
20
1.14478287592601
30
0
41
1
10
29.992408855704
20
1.22469030156495
30
0
41
1
10
29.9910954386216
20
1.24025610784707
30
0
41
1
10
29.9884866026942
20
1.27016021019597
30
0
41
1
10
29.9871888120836
20
1.28452968621181
30
0
41
1
10
29.983300660268
20
1.3259214345247
30
0
41
1
10
29.9807146162114
20
1.35123114428552
30
0
41
1
10
29.9754720785859
20
1.39734147057393
30
0
41
1
10
29.9728240237794
20
1.41814238672271
30
0
41
1
10
29.9688269431658
20
1.44590830413463
30
0
41
1
10
29.9674901547004
20
1.45458997284172
30
0
41
1
10
29.9648069416449
20
1.47078355109639
30
0
41
1
10
29.9634612670449
20
1.47828646103795
30
0
41
1
10
29.9567776720046
20
1.51245529624134
30
0
41
1
10
29.9514969651552
20
1.52956276971139
30
0
41
1
10
29.946212147412
20
1.53664869071059
30
0
0
SPLINE
5
EF
100
AcDbEntity
8
1
62
256
6
ByLayer
370
13
48
1
60
0
100
AcDbSpline
70
4
71
3
72
9
73
5
40
0
40
0
40
0
40
0
40
0.352067900051335
40
1
40
1
40
1
40
1
41
1
10
30.127176181329
20
1.21665172111832
30
0
41
1
10
30.1337343148639
20
1.19321015666395
30
0
41
1
10
30.1523615131595
20
1.09142075395241
30
0
41
1
10
30.1709892918021
20
0.896514246374039
30
0
41
1
10
30.1830587722555
20
0.744555123334465
30
0
0
SPLINE
5
F0
100
AcDbEntity
8
1
62
256
6
ByLayer
370
13
48
1
60
0
100
AcDbSpline
70
4
71
3
72
10
73
6
40
0
40
0
40
0
40
0
40
0.230054625100894
40
0.622959888466123
40
1
40
1
40
1
40
1
41
1
10
29.9072954523322
20
-0.710803417146792
30
0
41
1
10
29.9115832760152
20
-0.766169939552412
30
0
41
1
10
29.9231941811665
20
-0.907730698296945
30
0
41
1
10
29.9418324792086
20
-1.09027129363341
30
0
41
1
10
29.9561829524125
20
-1.17787806360218
30
0
41
1
10
29.9632103403493
20
-1.20659019028514
30
0
0
SPLINE
5
F1
100
AcDbEntity
8
1
62
256
6
ByLayer
370
18
48
1
60
0
100
AcDbSpline
70
4
71
3
72
25
73
21
40
0
40
0
40
0
40
0
40
0.0625
40
0.0625
40
0.125
40
0.125
40
0.25
40
0.25
40
0.499999999999999
40
0.499999999999999
40
0.5625
40
0.5625
40
0.625
40
0.625
40
0.75
40
0.875
40
0.875
40
0.9375
40
0.9375
40
1
40
1
40
1
40
1
41
1
10
30.1856834410327
20
-1.5375267064
30
0
41
1
10
30.1843437688578
20
-1.53597859922314
30
0
41
1
10
30.1830051058872
20
-1.53379067538916
30
0
41
1
10
30.1803290385856
20
-1.52811201329752
30
0
41
1
10
30.1789888756507
20
-1.52460982638303
30
0
41
1
10
30.1750088681682
20
-1.5122486331276
30
0
41
1
10
30.1723984303962
20
-1.50152540843928
30
0
41
1
10
30.1646246172682
20
-1.46211435154848
30
0
41
1
10
30.1595309274421
20
-1.42625603875158
30
0
41
1
10
30.1528434620035
20
-1.36905596819923
30
0
41
1
10
30.1514924358486
20
-1.35700103186869
30
0
41
1
10
30.1487971023079
20
-1.33191408922579
30
0
41
1
10
30.1474491165881
20
-1.31885123966623
30
0
41
1
10
30.1434112704248
20
-1.27812928388292
30
0
41
1
10
30.1380456677599
20
-1.21975165349536
30
0
41
1
10
30.1327455916865
20
-1.15328838423719
30
0
41
1
10
30.1287828649082
20
-1.10034799746364
30
0
41
1
10
30.1274637605283
20
-1.08218476364468
30
0
41
1
10
30.1248239807148
20
-1.04480322459841
30
0
41
1
10
30.1235126256773
20
-1.02571649714722
30
0
41
1
10
30.1222089372357
20
-1.0062830686845
30
0
0
SPLINE
5
F2
100
AcDbEntity
8
1
62
256
6
ByLayer
370
18
48
1
60
0
100
AcDbSpline
70
4
71
3
72
22
73
18
40
0
40
0
40
0
40
0
40
0.125
40
0.125
40
0.1875
40
0.1875
40
0.25
40
0.25
40
0.499999999999999
40
0.499999999999999
40
0.624999999999999
40
0.624999999999999
40
0.687499999999999
40
0.687499999999999
40
0.749999999999999
40
0.749999999999999
40
1
40
1
40
1
40
1
41
1
10
30.0815054970324
20
-0.973814665489556
30
0
41
1
10
30.0841384509439
20
-1.01338064070978
30
0
41
1
10
30.08676499412
20
-1.05130451268945
30
0
41
1
10
30.0907355681111
20
-1.1057043208387
30
0
41
1
10
30.0920630225075
20
-1.12342255064075
30
0
41
1
10
30.0947257975841
20
-1.15801591728862
30
0
41
1
10
30.0960643240487
20
-1.17493014294908
30
0
41
1
10
30.1027421515842
20
-1.25686865552294
30
0
41
1
10
30.1079731096855
20
-1.31340375051067
30
0
41
1
10
30.1158833240222
20
-1.38514695753145
30
0
41
1
10
30.1185255763183
20
-1.406868509926
30
0
41
1
10
30.1225235847966
20
-1.43607037696148
30
0
41
1
10
30.1238657973827
20
-1.44525996831595
30
0
41
1
10
30.1265432848579
20
-1.46231664971788
30
0
41
1
10
30.1278805754888
20
-1.47020175919826
30
0
41
1
10
30.1345836019548
20
-1.50646945584117
30
0
41
1
10
30.1400498344364
20
-1.52547142261483
30
0
41
1
10
30.1454789531696
20
-1.53444687165921
30
0
0
SPLINE
5
F3
100
AcDbEntity
8
1
62
256
6
ByLayer
370
13
48
1
60
0
100
AcDbSpline
70
4
71
3
72
11
73
7
40
0
40
0
40
0
40
0
40
0.215745731512536
40
0.605932663521721
40
0.996119595530906
40
1
40
1
40
1
40
1
41
1
10
33.298275285971
20
-0.904556950042064
30
0
41
1
10
33.3023244220628
20
-0.948419600841447
30
0
41
1
10
33.3136966858958
20
-1.06176200289869
30
0
41
1
10
33.3323925128984
20
-1.19604741440548
30
0
41
1
10
33.3471111169422
20
-1.24146892975429
30
0
41
1
10
33.3545069281453
20
-1.24776599936052
30
0
41
1
10
33.3545797551468
20
-1.24782640548111
30
0
0
SPLINE
5
F4
100
AcDbEntity
8
1
62
256
6
ByLayer
370
13
48
1
60
0
100
AcDbSpline
70
4
71
3
72
10
73
6
40
0
40
0
40
0
40
0
40
0.103667770049322
40
0.886649519362164
40
1
40
1
40
1
40
1
41
1
10
32.902159683543
20
-0.642963516944917
30
0
41
1
10
32.9040988553625
20
-0.669078771656615
30
0
41
1
10
32.9206841995996
20
-0.88747158935783
30
0
41
1
10
32.9393898234403
20
-1.07946402132126
30
0
41
1
10
32.956156272175
20
-1.17359208941636
30
0
41
1
10
32.9582765630535
20
-1.18422632224656
30
0
0
SPLINE
5
F5
100
AcDbEntity
8
1
62
256
6
ByLayer
370
18
48
1
60
0
100
AcDbSpline
70
4
71
3
72
22
73
18
40
0
40
0
40
0
40
0
40
0.25
40
0.25
40
0.3125
40
0.3125
40
0.375
40
0.375
40
0.500000000000001
40
0.500000000000001
40
0.625000000000001
40
0.625000000000001
40
0.687500000000001
40
0.687500000000001
40
0.750000000000001
40
0.750000000000001
40
1
40
1
40
1
40
1
41
1
10
33.1813272638386
20
-1.52945679220142
30
0
41
1
10
33.1760271527018
20
-1.51729181803822
30
0
41
1
10
33.1707267509692
20
-1.49513262118376
30
0
41
1
10
33.1640164135565
20
-1.45455029996538
30
0
41
1
10
33.162667930983
20
-1.44577683793105
30
0
41
1
10
33.1599891123649
20
-1.42712718206468
30
0
41
1
10
33.1586549835923
20
-1.41722894678352
30
0
41
1
10
33.1546657472638
20
-1.38584256091801
30
0
41
1
10
33.1520245975746
20
-1.36266683226785
30
0
41
1
10
33.1467451332971
20
-1.31186121446493
30
0
41
1
10
33.1441057785834
20
-1.28423143101548
30
0
41
1
10
33.1401072413147
20
-1.23938293496912
30
0
41
1
10
33.1387689000959
20
-1.22386505796652
30
0
41
1
10
33.1360818401503
20
-1.19166831728236
30
0
41
1
10
33.134740666968
20
-1.17507835176292
30
0
41
1
10
33.1280724337216
20
-1.09007030798753
30
0
41
1
10
33.1228370706984
20
-1.01518693855334
30
0
41
1
10
33.1175450297931
20
-0.933527979219065
30
0
0
SPLINE
5
F6
100
AcDbEntity
8
1
62
256
6
ByLayer
370
18
48
1
60
0
100
AcDbSpline
70
4
71
3
72
25
73
21
40
0
40
0
40
0
40
0
40
0.0624999999999997
40
0.0624999999999997
40
0.124999999999999
40
0.124999999999999
40
0.25
40
0.375000000000001
40
0.375000000000001
40
0.437500000000001
40
0.437500000000001
40
0.500000000000001
40
0.500000000000001
40
0.75
40
0.75
40
0.874999999999999
40
0.874999999999999
40
0.9375
40
0.9375
40
1
40
1
40
1
40
1
41
1
10
33.07676339788
20
-0.8990223899022
30
0
41
1
10
33.0780957076077
20
-0.919911821081541
30
0
41
1
10
33.0794413927561
20
-0.940491031891582
30
0
41
1
10
33.082152037454
20
-0.980993789260793
30
0
41
1
10
33.0835058297452
20
-1.00075102168637
30
0
41
1
10
33.0875557209152
20
-1.05857241611219
30
0
41
1
10
33.0929230309923
20
-1.1318074849938
30
0
41
1
10
33.09819945928
20
-1.19747822246393
30
0
41
1
10
33.1021364867365
20
-1.24386699912017
30
0
41
1
10
33.1034456912176
20
-1.2588516636572
30
0
41
1
10
33.1060632025937
20
-1.28784883841163
30
0
41
1
10
33.1073750256901
20
-1.30189708994573
30
0
41
1
10
33.1139049552008
20
-1.36918104108244
30
0
41
1
10
33.1190250911899
20
-1.41335762366555
30
0
41
1
10
33.1269252894763
20
-1.46562188858795
30
0
41
1
10
33.1295787544726
20
-1.48069272269837
30
0
41
1
10
33.1335908372592
20
-1.49967290949439
30
0
41
1
10
33.134936703888
20
-1.50540262756834
30
0
41
1
10
33.1376141139349
20
-1.51552169126805
30
0
41
1
10
33.1389484785843
20
-1.51992713573176
30
0
41
1
10
33.1402809418158
20
-1.52369009576751
30
0
0
SPLINE
5
F7
100
AcDbEntity
8
1
62
256
6
ByLayer
370
13
48
1
60
0
100
AcDbSpline
70
4
71
3
72
11
73
7
40
0
40
0
40
0
40
0
40
0.0877933041117609
40
0.478000566261808
40
0.868207828411855
40
1
40
1
40
1
40
1
41
1
10
33.2545423171716
20
1.20870035402919
30
0
41
1
10
33.2561899475987
20
1.20218676243894
30
0
41
1
10
33.2651606579412
20
1.16246964895507
30
0
41
1
10
33.2814544521667
20
1.04842307203785
30
0
41
1
10
33.2985739917262
20
0.867089327910179
30
0
41
1
10
33.3083704463486
20
0.744682802456566
30
0
41
1
10
33.3108438131125
20
0.712744126040974
30
0
0
SPLINE
5
F8
100
AcDbEntity
8
1
62
256
6
ByLayer
370
13
48
1
60
0
100
AcDbSpline
70
4
71
3
72
10
73
6
40
0
40
0
40
0
40
0
40
0.201542421838612
40
0.983646687575304
40
1
40
1
40
1
40
1
41
1
10
33.6506075733264
20
1.08133453523629
30
0
41
1
10
33.6543818199562
20
1.05175056501369
30
0
41
1
10
33.6728024571865
20
0.889659280532641
30
0
41
1
10
33.6915296342564
20
0.642437574996251
30
0
41
1
10
33.7064820156785
20
0.4216098834398
30
0
41
1
10
33.7067882571392
20
0.417077580122935
30
0
0
SPLINE
5
F9
100
AcDbEntity
8
1
62
256
6
ByLayer
370
13
48
1
60
0
100
AcDbSpline
70
4
71
3
72
9
73
5
40
0
40
0
40
0
40
0
40
0.216029328198278
40
1
40
1
40
1
40
1
41
1
10
30.2595944821928
20
1.18632802917494
30
0
41
1
10
30.2636186464596
20
1.1664852461044
30
0
41
1
10
30.2822465068618
20
1.05355479040654
30
0
41
1
10
30.3008743608553
20
0.8473040822781
30
0
41
1
10
30.3154780421338
20
0.651840055782571
30
0
0
SPLINE
5
FA
100
AcDbEntity
8
1
62
256
6
ByLayer
370
13
48
1
60
0
100
AcDbSpline
70
4
71
3
72
10
73
6
40
0
40
0
40
0
40
0
40
0.367087345873691
40
0.760657807349249
40
1
40
1
40
1
40
1
41
1
10
29.7748516500006
20
-0.615584154821249
30
0
41
1
10
29.7816819987481
20
-0.708903337003278
30
0
41
1
10
29.7958355104552
20
-0.888063011961776
30
0
41
1
10
29.8144421399884
20
-1.06897111462317
30
0
41
1
10
29.8262186170688
20
-1.14763332207315
30
0
41
1
10
29.8306720099915
20
-1.17191181973948
30
0
0
SPLINE
5
FB
100
AcDbEntity
8
1
62
256
6
ByLayer
370
13
48
1
60
0
100
AcDbSpline
70
4
71
3
72
10
73
6
40
0
40
0
40
0
40
0
40
0.329082236998674
40
0.721508841410147
40
1
40
1
40
1
40
1
41
1
10
30.6556895831487
20
1.03936891503665
30
0
41
1
10
30.6618306050703
20
0.985810426286861
30
0
41
1
10
30.6752947593569
20
0.848079348587021
30
0
41
1
10
30.6939558177368
20
0.606091776923705
30
0
41
1
10
30.706475519557
20
0.422382128373783
30
0
41
1
10
30.7116723295428
20
0.343926747411331
30
0
0
SPLINE
5
FC
100
AcDbEntity
8
1
62
256
6
ByLayer
370
13
48
1
60
0
100
AcDbSpline
70
4
71
3
72
9
73
5
40
0
40
0
40
0
40
0
40
0.252501715103987
40
1
40
1
40
1
40
1
41
1
10
29.3787907014083
20
-0.305286323016645
30
0
41
1
10
29.3834927668609
20
-0.376889879560025
30
0
41
1
10
29.4021146821986
20
-0.65413289184221
30
0
41
1
10
29.4207365980347
20
-0.888246039034215
30
0
41
1
10
29.4346564388859
20
-1.01562134880788
30
0
0
SPLINE
5
FD
100
AcDbEntity
8
1
62
256
6
ByLayer
370
13
48
1
60
0
100
AcDbSpline
70
4
71
3
72
10
73
6
40
0
40
0
40
0
40
0
40
0.520946774465137
40
0.798316805601114
40
1
40
1
40
1
40
1
41
1
10
34.3679518659317
20
-0.13797654592662
30
0
41
1
10
34.3581612236952
20
0.0148082421400773
30
0
41
1
10
34.3431577262628
20
0.253824446414285
30
0
41
1
10
34.3243638033456
20
0.531569256855278
30
0
41
1
10
34.3153605164795
20
0.654203516632549
30
0
41
1
10
34.3115700988764
20
0.703421816455574
30
0
0
SPLINE
5
FE
100
AcDbEntity
8
1
62
256
6
ByLayer
370
13
48
1
60
0
100
AcDbSpline
70
4
71
3
72
9
73
5
40
0
40
0
40
0
40
0
40
0.238714989878999
40
1
40
1
40
1
40
1
41
1
10
32.7697522291518
20
-0.544634996628389
30
0
41
1
10
32.7742215700103
20
-0.607812462104278
30
0
41
1
10
32.7929441489329
20
-0.861673700245291
30
0
41
1
10
32.8116669498945
20
-1.05368969383127
30
0
41
1
10
32.8259199659582
20
-1.14398136640753
30
0
0
SPLINE
5
FF
100
AcDbEntity
8
1
62
256
6
ByLayer
370
13
48
1
60
0
100
AcDbSpline
70
4
71
3
72
11
73
7
40
0
40
0
40
0
40
0
40
0.126104300390637
40
0.517871839870131
40
0.909639379349625
40
1
40
1
40
1
40
1
41
1
10
32.3736435584672
20
-0.226372320851795
30
0
41
1
10
32.3760007517136
20
-0.262786011885851
30
0
41
1
10
32.3856810243369
20
-0.411094383354111
30
0
41
1
10
32.4026843781917
20
-0.658345165218407
30
0
41
1
10
32.4190196112709
20
-0.858865011575716
30
0
41
1
10
32.428031757991
20
-0.951742383400671
30
0
41
1
10
32.4297208175615
20
-0.968496067846331
30
0
0
SPLINE
5
100
100
AcDbEntity
8
1
62
256
6
ByLayer
370
18
48
1
60
0
100
AcDbSpline
70
4
71
3
72
20
73
16
40
0
40
0
40
0
40
0
40
0.0624999999999998
40
0.0624999999999998
40
0.125
40
0.125
40
0.25
40
0.25
40
0.5
40
0.5
40
0.625
40
0.625
40
0.75
40
0.75
40
1
40
1
40
1
40
1
41
1
10
28.6706392943936
20
-0.634429716283819
30
0
41
1
10
28.6697307731757
20
-0.614549545858637
30
0
41
1
10
28.668820680336
20
-0.594411716650256
30
0
41
1
10
28.6669942837317
20
-0.553611503778711
30
0
41
1
10
28.6660755117761
20
-0.5328927268977
30
0
41
1
10
28.6633258326847
20
-0.470435452161325
30
0
41
1
10
28.6615019382094
20
-0.428403000488316
30
0
41
1
10
28.6560425068622
20
-0.301157071682724
30
0
41
1
10
28.6524278915276
20
-0.2148054135981
30
0
41
1
10
28.6468317101437
20
-0.0829406824555008
30
0
41
1
10
28.6449279814172
20
-0.0384213206253889
30
0
41
1
10
28.6411555597544
20
0.0496151927585515
30
0
41
1
10
28.6392789484295
20
0.093321131955463
30
0
41
1
10
28.6336857753407
20
0.223522480359918
30
0
41
1
10
28.6300142414747
20
0.309110763573955
30
0
41
1
10
28.6263266777774
20
0.393430223382978
30
0
0
SPLINE
5
101
100
AcDbEntity
8
1
62
256
6
ByLayer
370
13
48
1
60
0
100
AcDbSpline
70
4
71
3
72
10
73
6
40
0
40
0
40
0
40
0
40
0.412047579684134
40
0.806059659986685
40
1
40
1
40
1
40
1
41
1
10
28.717843373714
20
0.249782984130178
30
0
41
1
10
28.7255017046306
20
0.131944107725843
30
0
41
1
10
28.7404832349007
20
-0.105260604711987
30
0
41
1
10
28.7590691452889
20
-0.392539494746842
30
0
41
1
10
28.7699968281757
20
-0.548725450894835
30
0
41
1
10
28.7736014047936
20
-0.598404135367019
30
0
0
SPLINE
5
102
100
AcDbEntity
8
1
62
256
6
ByLayer
370
13
48
1
60
0
100
AcDbSpline
70
4
71
3
72
9
73
5
40
0
40
0
40
0
40
0
40
0.389458248268715
40
1
40
1
40
1
40
1
41
1
10
29.2463446657704
20
-0.195148190707187
30
0
41
1
10
29.253589942018
20
-0.30753131385984
30
0
41
1
10
29.2721932170306
20
-0.58994259248604
30
0
41
1
10
29.2907966020894
20
-0.82863120857121
30
0
41
1
10
29.3021548191323
20
-0.945402107025075
30
0
0
SPLINE
5
103
100
AcDbEntity
8
1
62
256
6
ByLayer
370
13
48
1
60
0
100
AcDbSpline
70
4
71
3
72
10
73
6
40
0
40
0
40
0
40
0
40
0.275356721426638
40
0.669047899230146
40
1
40
1
40
1
40
1
41
1
10
28.8502690602062
20
0.139062993607297
30
0
41
1
10
28.8553909935242
20
0.0591363883423242
30
0
41
1
10
28.8678360069483
20
-0.137121503607403
30
0
41
1
10
28.8864370775716
20
-0.424974013242945
30
0
41
1
10
28.8999162280072
20
-0.614562563039698
30
0
41
1
10
28.9060722965862
20
-0.694894405652178
30
0
0
SPLINE
5
104
100
AcDbEntity
8
1
62
256
6
ByLayer
370
13
48
1
60
0
100
AcDbSpline
70
4
71
3
72
10
73
6
40
0
40
0
40
0
40
0
40
0.0659456780356394
40
0.847620135565848
40
1
40
1
40
1
40
1
41
1
10
33.7830404179698
20
1.02101803938325
30
0
41
1
10
33.7842760367948
20
1.00985877939152
30
0
41
1
10
33.8001578257309
20
0.861612805353133
30
0
41
1
10
33.818894728861
20
0.61523756734033
30
0
41
1
10
33.8363960142343
20
0.352659728852757
30
0
41
1
10
33.8392511412042
20
0.309220505658544
30
0
0
SPLINE
5
105
100
AcDbEntity
8
1
62
256
6
ByLayer
370
13
48
1
60
0
100
AcDbSpline
70
4
71
3
72
10
73
6
40
0
40
0
40
0
40
0
40
0.261170446738735
40
0.65273549517242
40
1
40
1
40
1
40
1
41
1
10
32.2412452238189
20
-0.115690880842806
30
0
41
1
10
32.2461297074962
20
-0.192081258735215
30
0
41
1
10
32.2583373368989
20
-0.381384615871298
30
0
41
1
10
32.2770394102329
20
-0.652688639929636
30
0
41
1
10
32.290856985043
20
-0.82329424640804
30
0
41
1
10
32.2973516223459
20
-0.894497007294859
30
0
0
SPLINE
5
106
100
AcDbEntity
8
1
62
256
6
ByLayer
370
13
48
1
60
0
100
AcDbSpline
70
4
71
3
72
11
73
7
40
0
40
0
40
0
40
0
40
0.19355568092306
40
0.586375765286081
40
0.979195849649103
40
1
40
1
40
1
40
1
41
1
10
30.78810400975
20
0.973167992447372
30
0
41
1
10
30.7917123385081
20
0.937622044062039
30
0
41
1
10
30.8026437499982
20
0.820892995541783
30
0
41
1
10
30.8208982538492
20
0.585183507486192
30
0
41
1
10
30.8359322660494
20
0.360760512988634
30
0
41
1
10
30.8436431918634
20
0.242018603495211
30
0
41
1
10
30.8440310300196
20
0.236037674228129
30
0
0
SPLINE
5
107
100
AcDbEntity
8
1
62
256
6
ByLayer
370
18
48
1
60
0
100
AcDbSpline
70
4
71
3
72
14
73
10
40
0
40
0
40
0
40
0
40
0.500000000000003
40
0.500000000000003
40
0.625000000000001
40
0.625000000000001
40
0.749999999999999
40
0.749999999999999
40
1
40
1
40
1
40
1
41
1
10
34.0343136389982
20
0.593021919469123
30
0
41
1
10
34.0247347919458
20
0.678315080063982
30
0
41
1
10
34.0145655990758
20
0.760352544415582
30
0
41
1
10
34.0005249406805
20
0.858602570953536
30
0
41
1
10
33.9976516963012
20
0.878021438995802
30
0
41
1
10
33.9918124933258
20
0.916072783817526
30
0
41
1
10
33.9888402809415
20
0.934749694224706
30
0
41
1
10
33.9797544902509
20
0.989742172719019
30
0
41
1
10
33.9734408666819
20
1.02501865168611
30
0
41
1
10
33.966976775729
20
1.05891943451019
30
0
0
SPLINE
5
108
100
AcDbEntity
8
1
62
256
6
ByLayer
370
18
48
1
60
0
100
AcDbSpline
70
4
71
3
72
20
73
16
40
0
40
0
40
0
40
0
40
0.0624999999999998
40
0.0624999999999998
40
0.125
40
0.25
40
0.25
40
0.500000000000001
40
0.500000000000001
40
0.562500000000001
40
0.562500000000001
40
0.625000000000002
40
0.750000000000001
40
0.750000000000001
40
1
40
1
40
1
40
1
41
1
10
33.966976775729
20
1.05891943451019
30
0
41
1
10
33.9681369945508
20
1.04284649773905
30
0
41
1
10
33.9692985603417
20
1.02639981951626
30
0
41
1
10
33.9716026921025
20
0.993060796409367
30
0
41
1
10
33.9750390622524
20
0.942267790684411
30
0
41
1
10
33.9784166901142
20
0.889161270337212
30
0
41
1
10
33.9851185180946
20
0.779906028867771
30
0
41
1
10
33.9895063254195
20
0.703035302943647
30
0
41
1
10
33.9951001714236
20
0.601714650588832
30
0
41
1
10
33.9962222022567
20
0.581239325728717
30
0
41
1
10
33.9984654669883
20
0.540142940687304
30
0
41
1
10
34.0018386639049
20
0.478159438185997
30
0
41
1
10
34.0052284833525
20
0.415175561326009
30
0
41
1
10
34.0120200986221
20
0.287890167806069
30
0
41
1
10
34.0165563100048
20
0.201285985526283
30
0
41
1
10
34.0211679373228
20
0.112864845738585
30
0
0
SPLINE
5
109
100
AcDbEntity
8
1
62
256
6
ByLayer
370
18
48
1
60
0
100
AcDbSpline
70
4
71
3
72
16
73
12
40
0
40
0
40
0
40
0
40
0.249999999999999
40
0.249999999999999
40
0.499999999999998
40
0.499999999999998
40
0.624999999999998
40
0.624999999999998
40
0.749999999999998
40
0.749999999999998
40
1
40
1
40
1
40
1
41
1
10
34.0343136389978
20
0.593021919469862
30
0
41
1
10
34.0323243399332
20
0.643899591169998
30
0
41
1
10
34.0304119707565
20
0.693150993662755
30
0
41
1
10
34.0267413696272
20
0.788425053071961
30
0
41
1
10
34.0249869330937
20
0.834447043621878
30
0
41
1
10
34.0224653117276
20
0.90098811871519
30
0
41
1
10
34.0216415236806
20
0.922752528324196
30
0
41
1
10
34.0200304827803
20
0.9654251987576
30
0
41
1
10
34.019250104426
20
0.986199651441211
30
0
41
1
10
34.0169925869725
20
1.0467052301193
30
0
41
1
10
34.0155832927838
20
1.0847081965145
30
0
41
1
10
34.0141683341237
20
1.12047860455436
30
0
0
SPLINE
5
10A
100
AcDbEntity
8
1
62
256
6
ByLayer
370
18
48
1
60
0
100
AcDbSpline
70
4
71
3
72
12
73
8
40
0
40
0
40
0
40
0
40
0.500000000000001
40
0.500000000000001
40
0.750000000000001
40
0.750000000000001
40
1
40
1
40
1
40
1
41
1
10
34.0620220830014
20
0.0703342259889439
30
0
41
1
10
34.0573827902775
20
0.159961277927948
30
0
41
1
10
34.0528269988272
20
0.248487424493987
30
0
41
1
10
34.0459304981362
20
0.379623417867435
30
0
41
1
10
34.0436150516271
20
0.423058054237515
30
0
41
1
10
34.0389456037918
20
0.509354307319569
30
0
41
1
10
34.0366234539096
20
0.551662789180853
30
0
41
1
10
34.0343136389978
20
0.593021919469834
30
0
0
SPLINE
5
10B
100
AcDbEntity
8
1
62
256
6
ByLayer
370
13
48
1
60
0
100
AcDbSpline
70
4
71
3
72
11
73
7
40
0
40
0
40
0
40
0
40
0.384418035227119
40
0.662308344965928
40
0.940198654704737
40
1
40
1
40
1
40
1
41
1
10
34.2353973366506
20
-0.0240758175790177
30
0
41
1
10
34.2281861170415
20
0.089141019265611
30
0
41
1
10
34.2157620495129
20
0.284725288766708
30
0
41
1
10
34.1981255584916
20
0.54600882930157
30
0
41
1
10
34.1865777635899
20
0.701682632350156
30
0
41
1
10
34.1802430355224
20
0.779829962730162
30
0
41
1
10
34.1791212294376
20
0.79343115699146
30
0
0
SPLINE
5
10C
100
AcDbEntity
8
1
62
256
6
ByLayer
370
18
48
1
60
0
100
AcDbSpline
70
4
71
3
72
10
73
6
40
0
40
0
40
0
40
0
40
0.5
40
0.5
40
1
40
1
40
1
40
1
41
1
10
34.3191420629993
20
1.3340860468135
30
0
41
1
10
34.2981272250486
20
1.29167093655926
30
0
41
1
10
34.276986303137
20
1.24881098112206
30
0
41
1
10
34.2344864571853
20
1.16245810766952
30
0
41
1
10
34.213126058053
20
1.11896725719558
30
0
41
1
10
34.1916103566012
20
1.07523564505891
30
0
0
SPLINE
5
10D
100
AcDbEntity
8
1
62
256
6
ByLayer
370
18
48
1
60
0
100
AcDbSpline
70
4
71
3
72
28
73
24
40
0
40
0
40
0
40
0
40
0.125
40
0.125
40
0.250000000000001
40
0.250000000000001
40
0.375000000000001
40
0.375000000000001
40
0.500000000000001
40
0.500000000000001
40
0.625000000000002
40
0.625000000000002
40
0.687500000000001
40
0.687500000000001
40
0.750000000000001
40
0.750000000000001
40
0.812500000000001
40
0.812500000000001
40
0.875000000000001
40
0.875000000000001
40
0.9375
40
0.9375
40
1
40
1
40
1
40
1
41
1
10
34.1916103566012
20
1.07523564505891
30
0
41
1
10
34.1880416942726
20
1.06798218148248
30
0
41
1
10
34.1839087225899
20
1.06127147893446
30
0
41
1
10
34.1747668509477
20
1.04868216557995
30
0
41
1
10
34.1697115245914
20
1.04277703675939
30
0
41
1
10
34.1591352294516
20
1.03210212205283
30
0
41
1
10
34.1535834322569
20
1.02728221226229
30
0
41
1
10
34.1419806407162
20
1.01864162501366
30
0
41
1
10
34.1358708209743
20
1.01479718616625
30
0
41
1
10
34.1235561384678
20
1.00843977748963
30
0
41
1
10
34.117325850358
20
1.0058929481651
30
0
41
1
10
34.1078840362097
20
1.003137627206
30
0
41
1
10
34.1047206132203
20
1.002398267221
30
0
41
1
10
34.0983603292892
20
1.00132967148082
30
0
41
1
10
34.0951701427764
20
1.00100502179924
30
0
41
1
10
34.0889301508645
20
1.00083987412401
30
0
41
1
10
34.0858601476973
20
1.0009948384913
30
0
41
1
10
34.0798388831288
20
1.00185172315989
30
0
41
1
10
34.0768652160241
20
1.00256338300335
30
0
41
1
10
34.0712320339117
20
1.00459471143023
30
0
41
1
10
34.0685607556532
20
1.00591033757229
30
0
41
1
10
34.0635570842157
20
1.00923996461182
30
0
41
1
10
34.0612210857097
20
1.01126675842053
30
0
41
1
10
34.0591634328308
20
1.01364382895429
30
0
0
SPLINE
5
10E
100
AcDbEntity
8
1
62
256
6
ByLayer
370
18
48
1
60
0
100
AcDbSpline
70
4
71
3
72
8
73
4
40
0
40
0
40
0
40
0
40
1
40
1
40
1
40
1
41
1
10
33.9250648651191
20
1.15412802312122
30
0
41
1
10
33.9119681165846
20
1.16637559453011
30
0
41
1
10
33.8989237496135
20
1.17813003245223
30
0
41
1
10
33.885933000273
20
1.18939205031941
30
0
0
SPLINE
5
10F
100
AcDbEntity
8
1
62
256
6
ByLayer
370
18
48
1
60
0
100
AcDbSpline
70
4
71
3
72
8
73
4
40
0
40
0
40
0
40
0
40
1
40
1
40
1
40
1
41
1
10
33.8453671428164
20
1.16196882688087
30
0
41
1
10
33.8589011152715
20
1.1712680072103
30
0
41
1
10
33.8724215908528
20
1.18040966205206
30
0
41
1
10
33.885933000273
20
1.18939205031938
30
0
0
SPLINE
5
110
100
AcDbEntity
8
1
62
256
6
ByLayer
370
18
48
1
60
0
100
AcDbSpline
70
4
71
3
72
8
73
4
40
0
40
0
40
0
40
0
40
1
40
1
40
1
40
1
41
1
10
33.8453671428164
20
1.16196882688087
30
0
41
1
10
33.8233709743817
20
1.11494518193976
30
0
41
1
10
33.8012456440489
20
1.06801642090221
30
0
41
1
10
33.7789773981466
20
1.0212654524928
30
0
0
SPLINE
5
111
100
AcDbEntity
8
1
62
256
6
ByLayer
370
18
48
1
60
0
100
AcDbSpline
70
4
71
3
72
20
73
16
40
0
40
0
40
0
40
0
40
0.146327220109567
40
0.146327220109567
40
0.288606016757973
40
0.288606016757973
40
0.430884813406378
40
0.430884813406378
40
0.573163610054783
40
0.573163610054783
40
0.715442406703189
40
0.715442406703189
40
0.857721203351595
40
0.857721203351595
40
1
40
1
40
1
40
1
41
1
10
30.4207521265027
20
-1.21260269203495
30
0
41
1
10
30.417558443625
20
-1.21285579852687
30
0
41
1
10
30.4143463451766
20
-1.21329119642371
30
0
41
1
10
30.407975793103
20
-1.21453509848013
30
0
41
1
10
30.4048181775981
20
-1.21533475435459
30
0
41
1
10
30.3984678482437
20
-1.21736470391323
30
0
41
1
10
30.3952808780971
20
-1.21859669876224
30
0
41
1
10
30.3890442119277
20
-1.22148802812365
30
0
41
1
10
30.38597448197
20
-1.22315253541535
30
0
41
1
10
30.3799513761834
20
-1.22698882703216
30
0
41
1
10
30.3769755902908
20
-1.22918161421211
30
0
41
1
10
30.3713350380677
20
-1.23404702189444
30
0
41
1
10
30.368658785543
20
-1.23672104483566
30
0
41
1
10
30.3636433510883
20
-1.24263290933251
30
0
41
1
10
30.3613005819681
20
-1.2458858605807
30
0
41
1
10
30.3592364438373
20
-1.24936788396121
30
0
0
SPLINE
5
112
100
AcDbEntity
8
1
62
256
6
ByLayer
370
18
48
1
60
0
100
AcDbSpline
70
4
71
3
72
10
73
6
40
0
40
0
40
0
40
0
40
0.5
40
0.5
40
1
40
1
40
1
40
1
41
1
10
30.3592364438361
20
-1.24936788396349
30
0
41
1
10
30.3298976942864
20
-1.29885982947553
30
0
41
1
10
30.3007280821262
20
-1.34777473062394
30
0
41
1
10
30.2428657335789
20
-1.44392636313557
30
0
41
1
10
30.2141532803112
20
-1.49121127652734
30
0
41
1
10
30.1856834410327
20
-1.5375267064
30
0
0
SPLINE
5
113
100
AcDbEntity
8
1
62
256
6
ByLayer
370
18
48
1
60
0
100
AcDbSpline
70
4
71
3
72
10
73
6
40
0
40
0
40
0
40
0
40
0.5
40
0.5
40
1
40
1
40
1
40
1
41
1
10
30.1454789531701
20
-1.53444687165995
30
0
41
1
10
30.1155362368858
20
-1.48304383440484
30
0
41
1
10
30.0853674710052
20
-1.42989822132901
30
0
41
1
10
30.0245850093641
20
-1.32044346611264
30
0
41
1
10
29.9940033807374
20
-1.26418506145168
30
0
41
1
10
29.9632103403493
20
-1.20659019028514
30
0
0
SPLINE
5
114
100
AcDbEntity
8
1
62
256
6
ByLayer
370
18
48
1
60
0
100
AcDbSpline
70
4
71
3
72
26
73
22
40
0
40
0
40
0
40
0
40
0.125
40
0.125
40
0.25
40
0.25
40
0.375
40
0.375
40
0.5
40
0.5
40
0.624999999999999
40
0.624999999999999
40
0.749999999999999
40
0.749999999999999
40
0.812499999999999
40
0.812499999999999
40
0.875
40
0.875
40
0.9375
40
0.9375
40
1
40
1
40
1
40
1
41
1
10
29.9632103403457
20
-1.20659019027909
30
0
41
1
10
29.9596166714448
20
-1.19986864233613
30
0
41
1
10
29.955450055464
20
-1.19383506723068
30
0
41
1
10
29.9462367004341
20
-1.18281515203566
30
0
41
1
10
29.9411439714873
20
-1.17781304198652
30
0
41
1
10
29.9305115828925
20
-1.16907878640885
30
0
41
1
10
29.9249392536559
20
-1.16529939905888
30
0
41
1
10
29.9133182026412
20
-1.15886719588715
30
0
41
1
10
29.9072139496923
20
-1.15620340214807
30
0
41
1
10
29.8949276726923
20
-1.15226115117852
30
0
41
1
10
29.8887167371956
20
-1.15095276663556
30
0
41
1
10
29.8761676283014
20
-1.1498412346597
30
0
41
1
10
29.8697450162497
20
-1.15005241493225
30
0
41
1
10
29.8604182414925
20
-1.15182586600892
30
0
41
1
10
29.857357322281
20
-1.15265628121222
30
0
41
1
10
29.8513499385712
20
-1.15487122594629
30
0
41
1
10
29.8483818943973
20
-1.15627062250078
30
0
41
1
10
29.8427556901017
20
-1.15964884450952
30
0
41
1
10
29.8400846186728
20
-1.16162663792187
30
0
41
1
10
29.8350757883921
20
-1.1662588327714
30
0
41
1
10
29.8327352971902
20
-1.16892682187222
30
0
41
1
10
29.8306720099928
20
-1.17191181973644
30
0
0
SPLINE
5
115
100
AcDbEntity
8
1
62
256
6
ByLayer
370
18
48
1
60
0
100
AcDbSpline
70
4
71
3
72
10
73
6
40
0
40
0
40
0
40
0
40
0.5
40
0.5
40
1
40
1
40
1
40
1
41
1
10
29.8306720099916
20
-1.17191181973968
30
0
41
1
10
29.8013735494673
20
-1.21429847449696
30
0
41
1
10
29.7722386154858
20
-1.2552137452652
30
0
41
1
10
29.7144178985762
20
-1.33369258763267
30
0
41
1
10
29.6857370630208
20
-1.37120078651782
30
0
41
1
10
29.6573158855274
20
-1.40684541267848
30
0
0
SPLINE
5
116
100
AcDbEntity
8
1
62
256
6
ByLayer
370
18
48
1
60
0
100
AcDbSpline
70
4
71
3
72
10
73
6
40
0
40
0
40
0
40
0
40
0.5
40
0.5
40
1
40
1
40
1
40
1
41
1
10
29.6166693715164
20
-1.38910413486408
30
0
41
1
10
29.586826352107
20
-1.32790916723619
30
0
41
1
10
29.556725476373
20
-1.26603722133964
30
0
41
1
10
29.496011389439
20
-1.14132068683838
30
0
41
1
10
29.4654440232664
20
-1.07854208312833
30
0
41
1
10
29.434656438886
20
-1.01562134880788
30
0
0
SPLINE
5
117
100
AcDbEntity
8
1
62
256
6
ByLayer
370
18
48
1
60
0
100
AcDbSpline
70
4
71
3
72
26
73
22
40
0
40
0
40
0
40
0
40
0.125000000000021
40
0.125000000000021
40
0.250000000000042
40
0.250000000000042
40
0.375000000000062
40
0.375000000000062
40
0.500000000000083
40
0.500000000000083
40
0.625000000000104
40
0.625000000000104
40
0.750000000000125
40
0.750000000000125
40
0.812500000000093
40
0.812500000000093
40
0.875000000000062
40
0.875000000000062
40
0.937500000000031
40
0.937500000000031
40
1
40
1
40
1
40
1
41
1
10
29.4346564388823
20
-1.01562134880282
30
0
41
1
10
29.4310663365109
20
-1.00828423931654
30
0
41
1
10
29.4269028013634
20
-1.00144263793868
30
0
41
1
10
29.4176927370912
20
-0.988518917156853
30
0
41
1
10
29.4125995954268
20
-0.982408514399793
30
0
41
1
10
29.4019630081663
20
-0.971273082885773
30
0
41
1
10
29.3963873192806
20
-0.966194712718874
30
0
41
1
10
29.3847566147505
20
-0.956970548956662
30
0
41
1
10
29.378646119008
20
-0.952799648455652
30
0
41
1
10
29.3663496117289
20
-0.945729414695933
30
0
41
1
10
29.3601335893542
20
-0.942793429990928
30
0
41
1
10
29.3475773634646
20
-0.938266998309956
30
0
41
1
10
29.3411539128584
20
-0.93666696279891
30
0
41
1
10
29.331838389918
20
-0.935667347186211
30
0
41
1
10
29.3287818499646
20
-0.935563138786762
30
0
41
1
10
29.3227843982149
20
-0.935883048983044
30
0
41
1
10
29.3198224044032
20
-0.936314473044462
30
0
41
1
10
29.3142096521487
20
-0.937779882767444
30
0
41
1
10
29.3115452568376
20
-0.938809516354098
30
0
41
1
10
29.3065488526023
20
-0.94156531075626
30
0
41
1
10
29.3042139717505
20
-0.94330287050596
30
0
41
1
10
29.3021548191337
20
-0.945402107021465
30
0
0
SPLINE
5
118
100
AcDbEntity
8
1
62
256
6
ByLayer
370
18
48
1
60
0
100
AcDbSpline
70
4
71
3
72
12
73
8
40
0
40
0
40
0
40
0
40
0.500000000000015
40
0.500000000000015
40
0.750000000000007
40
0.750000000000007
40
1
40
1
40
1
40
1
41
1
10
29.3021548191323
20
-0.945402107025075
30
0
41
1
10
29.2728027743521
20
-0.97532552489713
30
0
41
1
10
29.2436336970542
20
-1.00280500990186
30
0
41
1
10
29.2002244946771
20
-1.04047890606648
30
0
41
1
10
29.1858000084434
20
-1.05245940405311
30
0
41
1
10
29.1570833565099
20
-1.07527605718718
30
0
41
1
10
29.1427858107771
20
-1.08612000391747
30
0
41
1
10
29.1285452993023
20
-1.09635446903926
30
0
0
SPLINE
5
119
100
AcDbEntity
8
1
62
256
6
ByLayer
370
18
48
1
60
0
100
AcDbSpline
70
4
71
3
72
10
73
6
40
0
40
0
40
0
40
0
40
0.5
40
0.5
40
1
40
1
40
1
40
1
41
1
10
29.08788805909
20
-1.06621694717404
30
0
41
1
10
29.0581057754612
20
-1.00301168482571
30
0
41
1
10
29.028079401082
20
-0.940294417551712
30
0
41
1
10
28.9674422402696
20
-0.816285804162931
30
0
41
1
10
28.936876080818
20
-0.755054986767078
30
0
41
1
10
28.9060722965863
20
-0.694894405653343
30
0
0
SPLINE
5
11A
100
AcDbEntity
8
1
62
256
6
ByLayer
370
18
48
1
60
0
100
AcDbSpline
70
4
71
3
72
26
73
22
40
0
40
0
40
0
40
0
40
0.12500000000002
40
0.12500000000002
40
0.25000000000004
40
0.25000000000004
40
0.37500000000006
40
0.37500000000006
40
0.50000000000008
40
0.50000000000008
40
0.6250000000001
40
0.6250000000001
40
0.75000000000012
40
0.75000000000012
40
0.81250000000009
40
0.81250000000009
40
0.87500000000006
40
0.87500000000006
40
0.93750000000003
40
0.93750000000003
40
1
40
1
40
1
40
1
41
1
10
28.9060722965864
20
-0.694894405654367
30
0
41
1
10
28.9024835266744
20
-0.687885445920557
30
0
41
1
10
28.8983206507459
20
-0.681119026205067
30
0
41
1
10
28.8891094758871
20
-0.66796339311955
30
0
41
1
10
28.8840140061565
20
-0.661537074854408
30
0
41
1
10
28.873371273413
20
-0.649446985810357
30
0
41
1
10
28.8677920215918
20
-0.643730658636855
30
0
41
1
10
28.8561535594074
20
-0.632916378635116
30
0
41
1
10
28.850039366511
20
-0.627782705302366
30
0
41
1
10
28.8377391205964
20
-0.618508524186552
30
0
41
1
10
28.8315217214029
20
-0.614328849025043
30
0
41
1
10
28.8189639921102
20
-0.60698160806075
30
0
41
1
10
28.8125418154622
20
-0.603782331806258
30
0
41
1
10
28.8032366681201
20
-0.600155449817123
30
0
41
1
10
28.8001836535089
20
-0.599136386061076
30
0
41
1
10
28.7941933041822
20
-0.597535060836123
30
0
41
1
10
28.7912356536011
20
-0.596952075619498
30
0
41
1
10
28.7856334634433
20
-0.5963377405686
30
0
41
1
10
28.7829740318359
20
-0.596298699106427
30
0
41
1
10
28.777986733331
20
-0.596849646473999
30
0
41
1
10
28.7756566752066
20
-0.597447266380385
30
0
41
1
10
28.773601404795
20
-0.598404135363353
30
0
0
SPLINE
5
11B
100
AcDbEntity
8
1
62
256
6
ByLayer
370
18
48
1
60
0
100
AcDbSpline
70
4
71
3
72
10
73
6
40
0
40
0
40
0
40
0
40
0.5
40
0.5
40
1
40
1
40
1
40
1
41
1
10
28.7736014047934
20
-0.598404135366593
30
0
41
1
10
28.7562951348603
20
-0.606461387989242
30
0
41
1
10
28.7390562161726
20
-0.613476510856344
30
0
41
1
10
28.7047278519835
20
-0.625396095167559
30
0
41
1
10
28.6876562826985
20
-0.630308551486308
30
0
41
1
10
28.6706392943934
20
-0.634429716283989
30
0
0
SPLINE
5
11C
100
AcDbEntity
8
1
62
256
6
ByLayer
370
18
48
1
60
0
100
AcDbSpline
70
4
71
3
72
18
73
14
40
0
40
0
40
0
40
0
40
0.125
40
0.125
40
0.25
40
0.25
40
0.5
40
0.5
40
0.75
40
0.75
40
0.875
40
0.875
40
1
40
1
40
1
40
1
41
1
10
28.2635598831346
20
-1.17743576891834
30
0
41
1
10
28.284954687021
20
-1.18989559794429
30
0
41
1
10
28.3063644701799
20
-1.20208712817546
30
0
41
1
10
28.3489292497684
20
-1.225743289642
30
0
41
1
10
28.3700500238443
20
-1.23718169278618
30
0
41
1
10
28.4328984589519
20
-1.27024029307807
30
0
41
1
10
28.4741868086203
20
-1.29065877760613
30
0
41
1
10
28.5557716125412
20
-1.32807366693342
30
0
41
1
10
28.5960545132625
20
-1.3450592495881
30
0
41
1
10
28.6558634304268
20
-1.36776807657117
30
0
41
1
10
28.6756929089689
20
-1.37487013884078
30
0
41
1
10
28.7152507346709
20
-1.3882059936729
30
0
41
1
10
28.7349779240644
20
-1.39443984005874
30
0
41
1
10
28.7546599334022
20
-1.4002228113024
30
0
0
SPLINE
5
11D
100
AcDbEntity
8
1
62
256
6
ByLayer
370
18
48
1
60
0
100
AcDbSpline
70
4
71
3
72
10
73
6
40
0
40
0
40
0
40
0
40
0.5
40
0.5
40
1
40
1
40
1
40
1
41
1
10
28.7546599334021
20
-1.40022281130283
30
0
41
1
10
28.7775018865951
20
-1.35608894511418
30
0
41
1
10
28.800550758046
20
-1.31132438629729
30
0
41
1
10
28.8469986261015
20
-1.22092782316608
30
0
41
1
10
28.8704161854138
20
-1.17527861199252
30
0
41
1
10
28.8940118312493
20
-1.12932372739829
30
0
0
SPLINE
5
11E
100
AcDbEntity
8
1
62
256
6
ByLayer
370
18
48
1
60
0
100
AcDbSpline
70
4
71
3
72
26
73
22
40
0
40
0
40
0
40
0
40
0.12500000000002
40
0.12500000000002
40
0.250000000000041
40
0.250000000000041
40
0.375000000000061
40
0.375000000000061
40
0.500000000000081
40
0.500000000000081
40
0.625000000000102
40
0.625000000000102
40
0.750000000000122
40
0.750000000000122
40
0.812500000000092
40
0.812500000000092
40
0.875000000000061
40
0.875000000000061
40
0.937500000000031
40
0.937500000000031
40
1
40
1
40
1
40
1
41
1
10
28.8940118312493
20
-1.12932372739829
30
0
41
1
10
28.8976722559011
20
-1.12219468360726
30
0
41
1
10
28.901925696703
20
-1.115701470179
30
0
41
1
10
28.9113278228855
20
-1.10366656291606
30
0
41
1
10
28.9165301164691
20
-1.09809896691462
30
0
41
1
10
28.9273596755066
20
-1.08820458402752
30
0
41
1
10
28.9330210961663
20
-1.08382501143677
30
0
41
1
10
28.9447935533661
20
-1.07613392493653
30
0
41
1
10
28.9509481682347
20
-1.07281347365947
30
0
41
1
10
28.9632661711412
20
-1.06751706742978
30
0
41
1
10
28.9694734468217
20
-1.06550225711985
30
0
41
1
10
28.9819692835767
20
-1.06288294787564
30
0
41
1
10
28.9883078043283
20
-1.06228972229613
30
0
41
1
10
28.9974305847049
20
-1.06275943575298
30
0
41
1
10
29.0004218355379
20
-1.06313919500249
30
0
41
1
10
29.0062865220014
20
-1.06441113727971
30
0
41
1
10
29.0091748247368
20
-1.06531255908266
30
0
41
1
10
29.0146400517597
20
-1.06765989718932
30
0
41
1
10
29.0172352877986
20
-1.06910612638581
30
0
41
1
10
29.0221059036534
20
-1.07263249015767
30
0
41
1
10
29.0243892731132
20
-1.07472717050612
30
0
41
1
10
29.0264153717155
20
-1.07714388558713
30
0
0
SPLINE
5
11F
100
AcDbEntity
8
1
62
256
6
ByLayer
370
18
48
1
60
0
100
AcDbSpline
70
4
71
3
72
12
73
8
40
0
40
0
40
0
40
0
40
0.25
40
0.25
40
0.499999999999999
40
0.499999999999999
40
1
40
1
40
1
40
1
41
1
10
29.0264153717194
20
-1.07714388559233
30
0
41
1
10
29.0412060182182
20
-1.09478605681897
30
0
41
1
10
29.0559221616853
20
-1.11186327137719
30
0
41
1
10
29.0852430618909
20
-1.14500820225288
30
0
41
1
10
29.0998444075266
20
-1.16105195486213
30
0
41
1
10
29.143496523206
20
-1.20753253176426
30
0
41
1
10
29.1722536191609
20
-1.23616787818659
30
0
41
1
10
29.2007628128146
20
-1.26246153106925
30
0
0
SPLINE
5
120
100
AcDbEntity
8
1
62
256
6
ByLayer
370
18
48
1
60
0
100
AcDbSpline
70
4
71
3
72
8
73
4
40
0
40
0
40
0
40
0
40
1
40
1
40
1
40
1
41
1
10
29.2413437970098
20
-1.23747253908587
30
0
41
1
10
29.227811060142
20
-1.24595863120953
30
0
41
1
10
29.2142926711813
20
-1.25429322404514
30
0
41
1
10
29.2007628128148
20
-1.26246153106874
30
0
0
SPLINE
5
121
100
AcDbEntity
8
1
62
256
6
ByLayer
370
18
48
1
60
0
100
AcDbSpline
70
4
71
3
72
12
73
8
40
0
40
0
40
0
40
0
40
0.649812583833479
40
0.649812583833479
40
0.97471887575022
40
0.97471887575022
40
1
40
1
40
1
40
1
41
1
10
29.2413437970087
20
-1.23747253907408
30
0
41
1
10
29.2709017553958
20
-1.17579042368718
30
0
41
1
10
29.300752978563
20
-1.1141835802764
30
0
41
1
10
29.3460576414782
20
-1.02218330350664
30
0
41
1
10
29.3612358322044
20
-0.991604278673805
30
0
41
1
10
29.3776856107084
20
-0.958784052722478
30
0
41
1
10
29.3788736506734
20
-0.956415617299172
30
0
41
1
10
29.3800621699849
20
-0.954048137364822
30
0
0
SPLINE
5
122
100
AcDbEntity
8
1
62
256
6
ByLayer
370
18
48
1
60
0
100
AcDbSpline
70
4
71
3
72
12
73
8
40
0
40
0
40
0
40
0
40
0.249999999999993
40
0.249999999999993
40
0.499999999999986
40
0.499999999999986
40
1
40
1
40
1
40
1
41
1
10
32.7260271331139
20
1.24314722067425
30
0
41
1
10
32.7408294683271
20
1.2685606798305
30
0
41
1
10
32.7555548919692
20
1.29381657239463
30
0
41
1
10
32.7848958935124
20
1.34404295376092
30
0
41
1
10
32.7995076745121
20
1.36900673174841
30
0
41
1
10
32.8431956060011
20
1.44342212260707
30
0
41
1
10
32.8719917675658
20
1.4921717807193
30
0
41
1
10
32.9005582425847
20
1.54003171132598
30
0
0
SPLINE
5
123
100
AcDbEntity
8
1
62
256
6
ByLayer
370
18
48
1
60
0
100
AcDbSpline
70
4
71
3
72
8
73
4
40
0
40
0
40
0
40
0
40
1
40
1
40
1
40
1
41
1
10
33.1108977708538
20
1.2517942248459
30
0
41
1
10
33.1146306620706
20
1.24521982959257
30
0
41
1
10
33.1183682996731
20
1.23862447536925
30
0
41
1
10
33.1221106593119
20
1.23200863451262
30
0
0
SPLINE
5
124
100
AcDbEntity
8
1
62
256
6
ByLayer
370
18
48
1
60
0
100
AcDbSpline
70
4
71
3
72
26
73
22
40
0
40
0
40
0
40
0
40
0.125
40
0.125
40
0.25
40
0.25
40
0.375
40
0.375
40
0.5
40
0.5
40
0.625
40
0.625
40
0.749999999999999
40
0.749999999999999
40
0.8125
40
0.8125
40
0.875
40
0.875
40
0.9375
40
0.9375
40
1
40
1
40
1
40
1
41
1
10
33.1221106593119
20
1.23200863451262
30
0
41
1
10
33.1257936766806
20
1.22549770046712
30
0
41
1
10
33.1300745194518
20
1.2197835702172
30
0
41
1
10
33.1395321339245
20
1.20953266651853
30
0
41
1
10
33.1447639122315
20
1.20498166490336
30
0
41
1
10
33.1556443036902
20
1.19724820428729
30
0
41
1
10
33.1613276979424
20
1.19401859848009
30
0
41
1
10
33.1731347783752
20
1.18875888923469
30
0
41
1
10
33.1792988138649
20
1.18673088593087
30
0
41
1
10
33.1916213961227
20
1.18406699874114
30
0
41
1
10
33.1978258399785
20
1.18340085148301
30
0
41
1
10
33.2103035995
20
1.18355432832416
30
0
41
1
10
33.2166179703412
20
1.18439628988372
30
0
41
1
10
33.2256980639517
20
1.18698535712844
30
0
41
1
10
33.2286746543958
20
1.18806954964879
30
0
41
1
10
33.2345094314795
20
1.19074641060522
30
0
41
1
10
33.2373822485192
20
1.19235217718801
30
0
41
1
10
33.2428189616818
20
1.19606345879504
30
0
41
1
10
33.2454007393358
20
1.19817317498209
30
0
41
1
10
33.2502467754373
20
1.2029823360505
30
0
41
1
10
33.2525208247135
20
1.20570034574064
30
0
41
1
10
33.254542317168
20
1.20870035402359
30
0
0
SPLINE
5
125
100
AcDbEntity
8
1
62
256
6
ByLayer
370
18
48
1
60
0
100
AcDbSpline
70
4
71
3
72
12
73
8
40
0
40
0
40
0
40
0
40
0.249999999999993
40
0.249999999999993
40
0.499999999999986
40
0.499999999999986
40
1
40
1
40
1
40
1
41
1
10
33.2545423171721
20
1.20870035403055
30
0
41
1
10
33.2693402590472
20
1.23066133049176
30
0
41
1
10
33.2840586046351
20
1.25220180477396
30
0
41
1
10
33.3133834704892
20
1.29455686354567
30
0
41
1
10
33.3279859729307
20
1.31535255066243
30
0
41
1
10
33.3716435382368
20
1.37655918020587
30
0
41
1
10
33.4004206689655
20
1.41561718085106
30
0
41
1
10
33.4289668120765
20
1.45293679270299
30
0
0
SPLINE
5
126
100
AcDbEntity
8
1
62
256
6
ByLayer
370
18
48
1
60
0
100
AcDbSpline
70
4
71
3
72
12
73
8
40
0
40
0
40
0
40
0
40
0.5
40
0.5
40
0.75
40
0.75
40
1
40
1
40
1
40
1
41
1
10
33.4695867660438
20
1.43833940936184
30
0
41
1
10
33.4991924834235
20
1.38001911422535
30
0
41
1
10
33.5290597939118
20
1.32097776908097
30
0
41
1
10
33.5743096474929
20
1.23156721011549
30
0
41
1
10
33.5894547479608
20
1.20164105129624
30
0
41
1
10
33.6199080122424
20
1.141594847531
30
0
41
1
10
33.6352157511674
20
1.11149760500561
30
0
41
1
10
33.6506075733264
20
1.08133453523629
30
0
0
SPLINE
5
127
100
AcDbEntity
8
1
62
256
6
ByLayer
370
18
48
1
60
0
100
AcDbSpline
70
4
71
3
72
26
73
22
40
0
40
0
40
0
40
0
40
0.12499999999998
40
0.12499999999998
40
0.249999999999959
40
0.249999999999959
40
0.374999999999939
40
0.374999999999939
40
0.499999999999919
40
0.499999999999919
40
0.624999999999898
40
0.624999999999898
40
0.749999999999878
40
0.749999999999878
40
0.812499999999909
40
0.812499999999909
40
0.874999999999939
40
0.874999999999939
40
0.937499999999969
40
0.937499999999969
40
1
40
1
40
1
40
1
41
1
10
33.6506075733264
20
1.08133453523629
30
0
41
1
10
33.6542925515741
20
1.07411315138466
30
0
41
1
10
33.6585764227937
20
1.06748423045164
30
0
41
1
10
33.668041812301
20
1.05510717947581
30
0
41
1
10
33.6732785896942
20
1.04932978513486
30
0
41
1
10
33.6841680378035
20
1.03897231276446
30
0
41
1
10
33.6898555671044
20
1.03433738218436
30
0
41
1
10
33.7016697171745
20
1.02608293114991
30
0
41
1
10
33.7078362128047
20
1.02245429588211
30
0
41
1
10
33.720161406582
20
1.0164977336843
30
0
41
1
10
33.7263663491241
20
1.01412846261579
30
0
41
1
10
33.7388428528049
20
1.01073582135439
30
0
41
1
10
33.7451536807742
20
1.00972184634131
30
0
41
1
10
33.7542263540593
20
1.00951453517399
30
0
41
1
10
33.7572002414933
20
1.0096602568988
30
0
41
1
10
33.7630290915075
20
1.01044382428861
30
0
41
1
10
33.765898580967
20
1.01108933829141
30
0
41
1
10
33.7713289107977
20
1.01291496593822
30
0
41
1
10
33.7739076707286
20
1.014094035282
30
0
41
1
10
33.7787483015784
20
1.01707033485354
30
0
41
1
10
33.7810201980756
20
1.01888160631162
30
0
41
1
10
33.7830404179662
20
1.02101803937904
30
0
0
SPLINE
5
128
100
AcDbEntity
8
1
62
256
6
ByLayer
370
18
48
1
60
0
100
AcDbSpline
70
4
71
3
72
12
73
8
40
0
40
0
40
0
40
0
40
0.249999999999993
40
0.249999999999993
40
0.499999999999986
40
0.499999999999986
40
1
40
1
40
1
40
1
41
1
10
33.7830404179699
20
1.02101803938325
30
0
41
1
10
33.7975863056719
20
1.03640067947919
30
0
41
1
10
33.812054392826
20
1.05116975036506
30
0
41
1
10
33.8408820819889
20
1.07965986063638
30
0
41
1
10
33.8552379285343
20
1.09335462643631
30
0
41
1
10
33.8981628348897
20
1.13276663772987
30
0
41
1
10
33.9264750680545
20
1.15671828193976
30
0
41
1
10
33.9545589967766
20
1.17836762475366
30
0
0
SPLINE
5
129
100
AcDbEntity
8
1
62
256
6
ByLayer
370
18
48
1
60
0
100
AcDbSpline
70
4
71
3
72
8
73
4
40
0
40
0
40
0
40
0
40
1
40
1
40
1
40
1
41
1
10
33.9545589967766
20
1.17836762475363
30
0
41
1
10
33.9743705591829
20
1.1592974764969
30
0
41
1
10
33.9942399297715
20
1.14000035120145
30
0
41
1
10
34.0141683341237
20
1.12047860455436
30
0
0
SPLINE
5
12A
100
AcDbEntity
8
1
62
256
6
ByLayer
370
18
48
1
60
0
100
AcDbSpline
70
4
71
3
72
12
73
8
40
0
40
0
40
0
40
0
40
0.499999999999987
40
0.499999999999987
40
0.749999999999994
40
0.749999999999994
40
1
40
1
40
1
40
1
41
1
10
34.0141683341237
20
1.12047860455436
30
0
41
1
10
34.0411835452681
20
1.06506296930974
30
0
41
1
10
34.0684344450603
20
1.00994369100348
30
0
41
1
10
34.1096656164045
20
0.928032968764683
30
0
41
1
10
34.1234702169701
20
0.900856016301901
30
0
41
1
10
34.1512021102534
20
0.846859935664952
30
0
41
1
10
34.1651316321751
20
0.820056042505882
30
0
41
1
10
34.1791212294376
20
0.793431156991488
30
0
0
SPLINE
5
12B
100
AcDbEntity
8
1
62
256
6
ByLayer
370
18
48
1
60
0
100
AcDbSpline
70
4
71
3
72
26
73
22
40
0
40
0
40
0
40
0
40
0.125
40
0.125
40
0.25
40
0.25
40
0.375
40
0.375
40
0.5
40
0.5
40
0.625
40
0.625
40
0.75
40
0.75
40
0.8125
40
0.8125
40
0.875
40
0.875
40
0.9375
40
0.9375
40
1
40
1
40
1
40
1
41
1
10
34.1791212294376
20
0.79343115699146
30
0
41
1
10
34.1828109241602
20
0.786408960588716
30
0
41
1
10
34.1870998830861
20
0.779698855317747
30
0
41
1
10
34.196572956147
20
0.766747859030971
30
0
41
1
10
34.2018128501288
20
0.760465953789094
30
0
41
1
10
34.2127062169536
20
0.748772219235121
30
0
41
1
10
34.2183940677893
20
0.743305230385687
30
0
41
1
10
34.2302052916065
20
0.733070555330215
30
0
41
1
10
34.2363694859064
20
0.728282456105291
30
0
41
1
10
34.2486901755528
20
0.719747839302812
30
0
41
1
10
34.2548920039595
20
0.715954715625799
30
0
41
1
10
34.26736129958
20
0.709403888213274
30
0
41
1
10
34.2736707291045
20
0.706640034164423
30
0
41
1
10
34.282743586417
20
0.703634079768619
30
0
41
1
10
34.2857175899917
20
0.702814195618402
30
0
41
1
10
34.2915468388701
20
0.701590337456878
30
0
41
1
10
34.2944174708355
20
0.701187578119345
30
0
41
1
10
34.2998512625703
20
0.700887515521259
30
0
41
1
10
34.3024315741731
20
0.700983561781726
30
0
41
1
10
34.307274799843
20
0.701746077227966
30
0
41
1
10
34.3095482156996
20
0.70242013876333
30
0
41
1
10
34.3115700988764
20
0.70342181645529
30
0
0
SPLINE
5
12C
100
AcDbEntity
8
1
62
256
6
ByLayer
370
18
48
1
60
0
100
AcDbSpline
70
4
71
3
72
18
73
14
40
0
40
0
40
0
40
0
40
0.210810412666539
40
0.210810412666539
40
0.473873608444476
40
0.473873608444476
40
0.605405206333357
40
0.605405206333357
40
0.736936804222238
40
0.736936804222238
40
0.868468402111119
40
0.868468402111119
40
1
40
1
40
1
40
1
41
1
10
33.4211678875658
20
-1.21330229285684
30
0
41
1
10
33.4162148093309
20
-1.21316926600753
30
0
41
1
10
33.4112179303838
20
-1.21347083557617
30
0
41
1
10
33.3998933390586
20
-1.21523539156902
30
0
41
1
10
33.3934607339071
20
-1.21700379862247
30
0
41
1
10
33.3841523994112
20
-1.22100222739442
30
0
41
1
10
33.3810989577595
20
-1.22255795129826
30
0
41
1
10
33.3751093545417
20
-1.22618553326768
30
0
41
1
10
33.3721543123982
20
-1.22827588215409
30
0
41
1
10
33.3665645936256
20
-1.23293992175161
30
0
41
1
10
33.3639126640484
20
-1.2355191678254
30
0
41
1
10
33.3589423205111
20
-1.2412547520635
30
0
41
1
10
33.3566238976447
20
-1.24442160637233
30
0
41
1
10
33.3545797551483
20
-1.24782640547784
30
0
0
SPLINE
5
12D
100
AcDbEntity
8
1
62
256
6
ByLayer
370
18
48
1
60
0
100
AcDbSpline
70
4
71
3
72
10
73
6
40
0
40
0
40
0
40
0
40
0.5
40
0.5
40
1
40
1
40
1
40
1
41
1
10
33.3545797551467
20
-1.24782640548111
30
0
41
1
10
33.3252662550531
20
-1.2966520519764
30
0
41
1
10
33.2961255776202
20
-1.34470840037292
30
0
41
1
10
33.2383475771513
20
-1.4387268547757
30
0
41
1
10
33.2097021317163
20
-1.48470005409678
30
0
41
1
10
33.1813272638386
20
-1.52945679220142
30
0
0
SPLINE
5
12E
100
AcDbEntity
8
1
62
256
6
ByLayer
370
18
48
1
60
0
100
AcDbSpline
70
4
71
3
72
12
73
8
40
0
40
0
40
0
40
0
40
0.500000000000001
40
0.500000000000001
40
0.75
40
0.75
40
1
40
1
40
1
40
1
41
1
10
33.1402809418108
20
-1.52369009575898
30
0
41
1
10
33.1104782741736
20
-1.47016008102006
30
0
41
1
10
33.0804711372396
20
-1.41503583453033
30
0
41
1
10
33.035010496637
20
-1.33007695282362
30
0
41
1
10
33.0197772648565
20
-1.30137694765102
30
0
41
1
10
32.9891315192616
20
-1.24327200295701
30
0
41
1
10
32.9737388574651
20
-1.21389915102816
30
0
41
1
10
32.9582765630535
20
-1.18422632224653
30
0
0
SPLINE
5
12F
100
AcDbEntity
8
1
62
256
6
ByLayer
370
18
48
1
60
0
100
AcDbSpline
70
4
71
3
72
26
73
22
40
0
40
0
40
0
40
0
40
0.125
40
0.125
40
0.25
40
0.25
40
0.374999999999999
40
0.374999999999999
40
0.499999999999999
40
0.499999999999999
40
0.624999999999999
40
0.624999999999999
40
0.749999999999999
40
0.749999999999999
40
0.812499999999999
40
0.812499999999999
40
0.874999999999999
40
0.874999999999999
40
0.937499999999999
40
0.937499999999999
40
1
40
1
40
1
40
1
41
1
10
32.9582765630535
20
-1.18422632224656
30
0
41
1
10
32.9547133308025
20
-1.17738832151534
30
0
41
1
10
32.9505841293853
20
-1.17119772362941
30
0
41
1
10
32.9414458724794
20
-1.15980815186157
30
0
41
1
10
32.9363896987712
20
-1.1545888507259
30
0
41
1
10
32.9258101571811
20
-1.1453879582736
30
0
41
1
10
32.9202560467
20
-1.14135971446942
30
0
41
1
10
32.9086458546403
20
-1.13441223653919
30
0
41
1
10
32.9025321142972
20
-1.13147916170519
30
0
41
1
10
32.890213931645
20
-1.12701316385059
30
0
41
1
10
32.8839807269335
20
-1.12544837399281
30
0
41
1
10
32.8713837193948
20
-1.12383255394516
30
0
41
1
10
32.8649341592813
20
-1.12379332381448
30
0
41
1
10
32.8555902806484
20
-1.12520324932566
30
0
41
1
10
32.8525259727963
20
-1.12591419792241
30
0
41
1
10
32.8465167611265
20
-1.12789144911824
30
0
41
1
10
32.8435509893487
20
-1.1291716973947
30
0
41
1
10
32.8379391605475
20
-1.13231291652281
30
0
41
1
10
32.8352782476506
20
-1.13417329886761
30
0
41
1
10
32.8302939097304
20
-1.13856879983203
30
0
41
1
10
32.8279686954911
20
-1.14111627660853
30
0
41
1
10
32.8259199659595
20
-1.14398136640429
30
0
0
SPLINE
5
130
100
AcDbEntity
8
1
62
256
6
ByLayer
370
18
48
1
60
0
100
AcDbSpline
70
4
71
3
72
10
73
6
40
0
40
0
40
0
40
0
40
0.5
40
0.5
40
1
40
1
40
1
40
1
41
1
10
32.8259199659582
20
-1.14398136640753
30
0
41
1
10
32.7965836600444
20
-1.18500735321194
30
0
41
1
10
32.7674155628098
20
-1.2242436650499
30
0
41
1
10
32.7095824753587
20
-1.29869539621402
30
0
41
1
10
32.6809126352953
20
-1.33390560001771
30
0
41
1
10
32.6525206728398
20
-1.36702639824179
30
0
0
SPLINE
5
131
100
AcDbEntity
8
1
62
256
6
ByLayer
370
18
48
1
60
0
100
AcDbSpline
70
4
71
3
72
12
73
8
40
0
40
0
40
0
40
0
40
0.25
40
0.25
40
0.499999999999999
40
0.499999999999999
40
1
40
1
40
1
40
1
41
1
10
32.6116989844536
20
-1.34655395820909
30
0
41
1
10
32.5968284570128
20
-1.31540038802669
30
0
41
1
10
32.5819003682749
20
-1.28412920955503
30
0
41
1
10
32.5518698610421
20
-1.22136086066547
30
0
41
1
10
32.5367616066039
20
-1.18984600700722
30
0
41
1
10
32.4912320794663
20
-1.09514109454395
30
0
41
1
10
32.4606220704775
20
-1.03177203363211
30
0
41
1
10
32.4297208175615
20
-0.968496067846161
30
0
0
SPLINE
5
132
100
AcDbEntity
8
1
62
256
6
ByLayer
370
18
48
1
60
0
100
AcDbSpline
70
4
71
3
72
26
73
22
40
0
40
0
40
0
40
0
40
0.125
40
0.125
40
0.25
40
0.25
40
0.375
40
0.375
40
0.5
40
0.5
40
0.625
40
0.625
40
0.75
40
0.75
40
0.8125
40
0.8125
40
0.875
40
0.875
40
0.9375
40
0.9375
40
1
40
1
40
1
40
1
41
1
10
32.4297208175615
20
-0.968496067846331
30
0
41
1
10
32.4261537163104
20
-0.961191775774552
30
0
41
1
10
32.4220184579966
20
-0.9543380947934
30
0
41
1
10
32.4128649079786
20
-0.941327473398104
30
0
41
1
10
32.4077991211351
20
-0.93513895176801
30
0
41
1
10
32.3972042768572
20
-0.923797979961932
30
0
41
1
10
32.3916449491818
20
-0.918593807673716
30
0
41
1
10
32.3800328081534
20
-0.909079687536433
30
0
41
1
10
32.3739226858138
20
-0.904741968682174
30
0
41
1
10
32.3616155662048
20
-0.897318337502128
30
0
41
1
10
32.355389043832
20
-0.894195059545467
30
0
41
1
10
32.3428020178079
20
-0.889270875167597
30
0
41
1
10
32.3363559261976
20
-0.887457705955143
30
0
41
1
10
32.3270168159679
20
-0.886129948339715
30
0
41
1
10
32.3239534792871
20
-0.885914477471118
30
0
41
1
10
32.3179452213896
20
-0.886005486388456
30
0
41
1
10
32.3149799760789
20
-0.886318511481591
30
0
41
1
10
32.3093698971381
20
-0.887541410386547
30
0
41
1
10
32.3067093557651
20
-0.888446822726706
30
0
41
1
10
32.3017250271732
20
-0.890942196793276
30
0
41
1
10
32.2994001901301
20
-0.892542057072518
30
0
41
1
10
32.2973516223469
20
-0.894497007291363
30
0
0
SPLINE
5
133
100
AcDbEntity
8
1
62
256
6
ByLayer
370
18
48
1
60
0
100
AcDbSpline
70
4
71
3
72
10
73
6
40
0
40
0
40
0
40
0
40
0.5
40
0.5
40
1
40
1
40
1
40
1
41
1
10
32.2973516223459
20
-0.894497007294859
30
0
41
1
10
32.2680400698158
20
-0.922469050255586
30
0
41
1
10
32.2388982097916
20
-0.947880374741402
30
0
41
1
10
32.1811089306119
20
-0.993405998951886
30
0
41
1
10
32.1524524080676
20
-1.01354339538506
30
0
41
1
10
32.1240655482337
20
-1.0310815585093
30
0
0
SPLINE
5
134
100
AcDbEntity
8
1
62
256
6
ByLayer
370
18
48
1
60
0
100
AcDbSpline
70
4
71
3
72
26
73
22
40
0
40
0
40
0
40
0
40
0.125
40
0.125
40
0.25
40
0.25
40
0.375
40
0.375
40
0.500000000000001
40
0.500000000000001
40
0.625000000000001
40
0.625000000000001
40
0.750000000000001
40
0.750000000000001
40
0.812500000000001
40
0.812500000000001
40
0.875
40
0.875
40
0.9375
40
0.9375
40
1
40
1
40
1
40
1
41
1
10
30.8440310300196
20
0.236037674228157
30
0
41
1
10
30.8404642162467
20
0.239496253904946
30
0
41
1
10
30.8363294628915
20
0.243308980259712
30
0
41
1
10
30.8271765088617
20
0.251459888210235
30
0
41
1
10
30.8221106421269
20
0.255836354216996
30
0
41
1
10
30.8115139148181
20
0.264778337855802
30
0
41
1
10
30.8059529812197
20
0.269371930891339
30
0
41
1
10
30.7943363993688
20
0.278812732679825
30
0
41
1
10
30.7882233649242
20
0.283704401245927
30
0
41
1
10
30.775911323247
20
0.293454207232173
30
0
41
1
10
30.7696826990824
20
0.298337347857426
30
0
41
1
10
30.757093383553
20
0.308164888769397
30
0
41
1
10
30.7506472411866
20
0.313175433790036
30
0
41
1
10
30.7413116693047
20
0.320449518009497
30
0
41
1
10
30.7382499399067
20
0.322838277921392
30
0
41
1
10
30.7322457724793
20
0.327537657222422
30
0
41
1
10
30.7292829415716
20
0.329864488264775
30
0
41
1
10
30.7236778651297
20
0.334289702743234
30
0
41
1
10
30.7210201040955
20
0.336400133698874
30
0
41
1
10
30.7160415311503
20
0.340383256522472
30
0
41
1
10
30.7137190691901
20
0.342257699409629
30
0
41
1
10
30.711672329544
20
0.343926747413065
30
0
0
SPLINE
5
135
100
AcDbEntity
8
1
62
256
6
ByLayer
370
18
48
1
60
0
100
AcDbSpline
70
4
71
3
72
10
73
6
40
0
40
0
40
0
40
0
40
0.5
40
0.5
40
1
40
1
40
1
40
1
41
1
10
30.7116723295428
20
0.343926747411331
30
0
41
1
10
30.6823555323975
20
0.367833618925999
30
0
41
1
10
30.6532115805239
20
0.394551323851914
30
0
41
1
10
30.5954256553388
20
0.453123206737729
30
0
41
1
10
30.566773776721
20
0.48496015087585
30
0
41
1
10
30.5383932504954
20
0.519036966968002
30
0
0
SPLINE
5
136
100
AcDbEntity
8
1
62
256
6
ByLayer
370
18
48
1
60
0
100
AcDbSpline
70
4
71
3
72
10
73
6
40
0
40
0
40
0
40
0
40
0.5
40
0.5
40
1
40
1
40
1
40
1
41
1
10
30.4973888622238
20
0.559454387868044
30
0
41
1
10
30.467573714348
20
0.581321388989466
30
0
41
1
10
30.4375533234656
20
0.600173283129976
30
0
41
1
10
30.3769165359398
20
0.631162112721
30
0
41
1
10
30.3463321370219
20
0.643279003226922
30
0
41
1
10
30.3154780421337
20
0.651840055782912
30
0
0
SPLINE
5
137
100
AcDbEntity
8
1
62
256
6
ByLayer
370
18
48
1
60
0
100
AcDbSpline
70
4
71
3
72
26
73
22
40
0
40
0
40
0
40
0
40
0.125
40
0.125
40
0.25
40
0.25
40
0.375
40
0.375
40
0.5
40
0.5
40
0.625
40
0.625
40
0.75
40
0.75
40
0.8125
40
0.8125
40
0.875
40
0.875
40
0.9375
40
0.9375
40
1
40
1
40
1
40
1
41
1
10
30.3154780421338
20
0.651840055782571
30
0
41
1
10
30.3119057143886
20
0.652831265723563
30
0
41
1
10
30.3077652543329
20
0.654407062715023
30
0
41
1
10
30.2986057291639
20
0.658440113619037
30
0
41
1
10
30.2935400706285
20
0.660927594401329
30
0
41
1
10
30.2829514258486
20
0.666534954245236
30
0
41
1
10
30.2773974674899
20
0.669666469076418
30
0
41
1
10
30.2658000521074
20
0.676574889341197
30
0
41
1
10
30.2596990202881
20
0.680391166220375
30
0
41
1
10
30.2474047235156
20
0.688485208869054
30
0
41
1
10
30.2411839337525
20
0.692775298690407
30
0
41
1
10
30.2286053272462
20
0.701947022836634
30
0
41
1
10
30.2221602042591
20
0.706899590737493
30
0
41
1
10
30.2128063796148
20
0.714616128987188
30
0
41
1
10
30.2097376168775
20
0.717237433258362
30
0
41
1
10
30.2037175552946
20
0.722598114747569
30
0
41
1
10
30.2007448002755
20
0.725359296756636
30
0
41
1
10
30.1951168221934
20
0.73086255695074
30
0
41
1
10
30.1924476054909
20
0.733615008900017
30
0
41
1
10
30.1874471695375
20
0.73912290943619
30
0
41
1
10
30.1851140220029
20
0.741884751085422
30
0
41
1
10
30.1830587722568
20
0.744555123334976
30
0
0
SPLINE
5
138
100
AcDbEntity
8
1
62
256
6
ByLayer
370
18
48
1
60
0
100
AcDbSpline
70
4
71
3
72
10
73
6
40
0
40
0
40
0
40
0
40
0.5
40
0.5
40
1
40
1
40
1
40
1
41
1
10
30.1830587722555
20
0.744555123334465
30
0
41
1
10
30.1537225164298
20
0.782671524329828
30
0
41
1
10
30.124542164872
20
0.822754667375534
30
0
41
1
10
30.0666818887639
20
0.906646657779532
30
0
41
1
10
30.0379922137448
20
0.950425060651384
30
0
41
1
10
30.009575759132
20
0.995700842479351
30
0
0
SPLINE
5
139
100
AcDbEntity
8
1
62
256
6
ByLayer
370
18
48
1
60
0
100
AcDbSpline
70
4
71
3
72
8
73
4
40
0
40
0
40
0
40
0
40
1
40
1
40
1
40
1
41
1
10
29.9689236985985
20
1.02781845096729
30
0
41
1
10
29.9824591790384
20
1.01723399544682
30
0
41
1
10
29.9960089649517
20
1.00652727665468
30
0
41
1
10
30.009575759132
20
0.995700842479351
30
0
0
SPLINE
5
13A
100
AcDbEntity
8
1
62
256
6
ByLayer
370
18
48
1
60
0
100
AcDbSpline
70
4
71
3
72
10
73
6
40
0
40
0
40
0
40
0
40
0.5
40
0.5
40
1
40
1
40
1
40
1
41
1
10
29.9689236986003
20
1.02781845095822
30
0
41
1
10
29.9390607297756
20
1.02711599933005
30
0
41
1
10
29.9089954433659
20
1.02330697308608
30
0
41
1
10
29.8483497596286
20
1.00919584700472
30
0
41
1
10
29.8177944402751
20
0.998869623631208
30
0
41
1
10
29.7869067473931
20
0.984873071718539
30
0
0
SPLINE
5
13B
100
AcDbEntity
8
1
62
256
6
ByLayer
370
18
48
1
60
0
100
AcDbSpline
70
4
71
3
72
26
73
22
40
0
40
0
40
0
40
0
40
0.124999999999979
40
0.124999999999979
40
0.249999999999959
40
0.249999999999959
40
0.374999999999938
40
0.374999999999938
40
0.499999999999917
40
0.499999999999917
40
0.624999999999896
40
0.624999999999896
40
0.749999999999875
40
0.749999999999875
40
0.812499999999907
40
0.812499999999907
40
0.874999999999938
40
0.874999999999938
40
0.937499999999969
40
0.937499999999969
40
1
40
1
40
1
40
1
41
1
10
29.7869067473931
20
0.984873071718539
30
0
41
1
10
29.7833358221139
20
0.983254930757397
30
0
41
1
10
29.779196762388
20
0.982369681194058
30
0
41
1
10
29.7700359742755
20
0.981706521110453
30
0
41
1
10
29.7649672180536
20
0.981947477068786
30
0
41
1
10
29.7543657375563
20
0.983414198750211
30
0
41
1
10
29.7488022664478
20
0.984632974878679
30
0
41
1
10
29.7371819654805
20
0.988023617513164
30
0
41
1
10
29.7310681286546
20
0.990224031890506
30
0
41
1
10
29.7187565904482
20
0.995526756827758
30
0
41
1
10
29.7125294819077
20
0.998629074823072
30
0
41
1
10
29.6999469884414
20
1.00589128292327
30
0
41
1
10
29.693506196445
20
1.01011488967055
30
0
41
1
10
29.6841720951871
20
1.01722231345815
30
0
41
1
10
29.6811102376743
20
1.01972101806126
30
0
41
1
10
29.6751042350108
20
1.02502091508123
30
0
41
1
10
29.6721394066957
20
1.02784522887475
30
0
41
1
10
29.6665273959695
20
1.03368676956293
30
0
41
1
10
29.6638652594623
20
1.03671350965968
30
0
41
1
10
29.6588767272277
20
1.04301431239412
30
0
41
1
10
29.6565485957221
20
1.04629807231083
30
0
41
1
10
29.6544967140238
20
1.04961900208613
30
0
0
SPLINE
5
13C
100
AcDbEntity
8
1
62
256
6
ByLayer
370
18
48
1
60
0
100
AcDbSpline
70
4
71
3
72
10
73
6
40
0
40
0
40
0
40
0
40
0.5
40
0.5
40
1
40
1
40
1
40
1
41
1
10
29.6544967140225
20
1.04961900208687
30
0
41
1
10
29.6251971345006
20
1.0970397896146
30
0
41
1
10
29.5960624082679
20
1.14555175977955
30
0
41
1
10
29.538267732083
20
1.24420920548405
30
0
41
1
10
29.5096036675292
20
1.29436744086306
30
0
41
1
10
29.4812113360498
20
1.34507505469682
30
0
0
SPLINE
5
13D
100
AcDbEntity
8
1
62
256
6
ByLayer
370
18
48
1
60
0
100
AcDbSpline
70
4
71
3
72
10
73
6
40
0
40
0
40
0
40
0
40
0.5
40
0.5
40
1
40
1
40
1
40
1
41
1
10
29.4406549548286
20
1.36518880043559
30
0
41
1
10
29.4107234321928
20
1.34208669822846
30
0
41
1
10
29.3805764261029
20
1.31611503002637
30
0
41
1
10
29.3197991391661
20
1.25842615938547
30
0
41
1
10
29.289219002574
20
1.2267764102273
30
0
41
1
10
29.2583871224058
20
1.19217782287427
30
0
0
SPLINE
5
13E
100
AcDbEntity
8
1
62
256
6
ByLayer
370
18
48
1
60
0
100
AcDbSpline
70
4
71
3
72
28
73
24
40
0
40
0
40
0
40
0
40
0.125000000000032
40
0.125000000000032
40
0.250000000000064
40
0.250000000000064
40
0.375000000000097
40
0.375000000000097
40
0.500000000000129
40
0.500000000000129
40
0.625000000000161
40
0.625000000000161
40
0.687500000000134
40
0.687500000000134
40
0.750000000000107
40
0.750000000000107
40
0.812500000000081
40
0.812500000000081
40
0.875000000000054
40
0.875000000000054
40
0.937500000000027
40
0.937500000000027
40
1
40
1
40
1
40
1
41
1
10
29.2583871224058
20
1.19217782287427
30
0
41
1
10
29.2548089348783
20
1.18816249091725
30
0
41
1
10
29.2506635196492
20
1.18494544861002
30
0
41
1
10
29.2414977436746
20
1.17971783121774
30
0
41
1
10
29.2364314527878
20
1.17771307154112
30
0
41
1
10
29.2258451049877
20
1.17491871350933
30
0
41
1
10
29.2202935416041
20
1.17410432273346
30
0
41
1
10
29.2087026960027
20
1.17360476247401
30
0
41
1
10
29.2026055705026
20
1.17393369285216
30
0
41
1
10
29.1903159559716
20
1.17580258741742
30
0
41
1
10
29.1840973077517
20
1.17732887160358
30
0
41
1
10
29.1746648112647
20
1.18064622590836
30
0
41
1
10
29.1715031000285
20
1.18192502009205
30
0
41
1
10
29.1651435592205
20
1.18488383207546
30
0
41
1
10
29.1619517853694
20
1.1865643577157
30
0
41
1
10
29.1557078236133
20
1.19029455354223
30
0
41
1
10
29.1526353039647
20
1.1923525551264
30
0
41
1
10
29.1466090295054
20
1.19691603360599
30
0
41
1
10
29.1436328315363
20
1.19944478668259
30
0
41
1
10
29.1379951681888
20
1.2048902216842
30
0
41
1
10
29.1353220324972
20
1.20781029712683
30
0
41
1
10
29.1303154575663
20
1.21410990657461
30
0
41
1
10
29.127977966103
20
1.2175045415247
30
0
41
1
10
29.1259188218126
20
1.221061164205
30
0
0
SPLINE
5
13F
100
AcDbEntity
8
1
62
256
6
ByLayer
370
18
48
1
60
0
100
AcDbSpline
70
4
71
3
72
10
73
6
40
0
40
0
40
0
40
0
40
0.5
40
0.5
40
1
40
1
40
1
40
1
41
1
10
29.1259188218115
20
1.22106116420648
30
0
41
1
10
29.0966228974362
20
1.27166206165771
30
0
41
1
10
29.0674990080456
20
1.32231847614165
30
0
41
1
10
29.0097256248412
20
1.42317138315587
30
0
41
1
10
28.9810645069351
20
1.47338258863016
30
0
41
1
10
28.9526655065022
20
1.52312918976608
30
0
0
SPLINE
5
140
100
AcDbEntity
8
1
62
256
6
ByLayer
370
18
48
1
60
0
100
AcDbSpline
70
4
71
3
72
10
73
6
40
0
40
0
40
0
40
0
40
0.5
40
0.5
40
1
40
1
40
1
40
1
41
1
10
28.9116638549331
20
1.52890457354081
30
0
41
1
10
28.8817955462468
20
1.48632901487235
30
0
41
1
10
28.851715485987
20
1.44153009519977
30
0
41
1
10
28.7910778701241
20
1.3476709172933
30
0
41
1
10
28.7605597446687
20
1.29866101659084
30
0
41
1
10
28.7298220380712
20
1.24770821585233
30
0
0
SPLINE
5
141
100
AcDbEntity
8
1
62
256
6
ByLayer
370
18
48
1
60
0
100
AcDbSpline
70
4
71
3
72
28
73
24
40
0
40
0
40
0
40
0
40
0.125
40
0.125
40
0.25
40
0.25
40
0.375
40
0.375
40
0.5
40
0.5
40
0.625
40
0.625
40
0.6875
40
0.6875
40
0.75
40
0.75
40
0.8125
40
0.8125
40
0.875
40
0.875
40
0.9375
40
0.9375
40
1
40
1
40
1
40
1
41
1
10
28.7298220380714
20
1.24770821585241
30
0
41
1
10
28.7262460807997
20
1.24178047892991
30
0
41
1
10
28.7221047968623
20
1.23660643601579
30
0
41
1
10
28.7129537675994
20
1.22740078848119
30
0
41
1
10
28.7078987337242
20
1.22336072797137
30
0
41
1
10
28.6973374035632
20
1.21656544903516
30
0
41
1
10
28.6917995820986
20
1.21377039519047
30
0
41
1
10
28.6802302543115
20
1.20934272113612
30
0
41
1
10
28.6741386488677
20
1.20770683490011
30
0
41
1
10
28.6618415053553
20
1.20581487085028
30
0
41
1
10
28.6556132808549
20
1.20553522781282
30
0
41
1
10
28.6461657746863
20
1.20626313826165
30
0
41
1
10
28.6429989790975
20
1.20669878016142
30
0
41
1
10
28.6366307586906
20
1.20801428746677
30
0
41
1
10
28.6334306148
20
1.20889786504
30
0
41
1
10
28.6271742722278
20
1.21112441224733
30
0
41
1
10
28.6240971238968
20
1.21247020696353
30
0
41
1
10
28.6180643501123
20
1.21569721717398
30
0
41
1
10
28.615085258531
20
1.2175978045872
30
0
41
1
10
28.6094382899837
20
1.22193107210123
30
0
41
1
10
28.606761756101
20
1.2243618119779
30
0
41
1
10
28.6017503198078
20
1.22983707833652
30
0
41
1
10
28.5994095313554
20
1.23289926872738
30
0
41
1
10
28.5973476875492
20
1.23622860602722
30
0
0
SPLINE
5
142
100
AcDbEntity
8
1
62
256
6
ByLayer
370
18
48
1
60
0
100
AcDbSpline
70
4
71
3
72
8
73
4
40
0
40
0
40
0
40
0
40
1
40
1
40
1
40
1
41
1
10
28.5973476875484
20
1.2362286060289
30
0
41
1
10
28.5784311457294
20
1.26677386269475
30
0
41
1
10
28.5595806108126
20
1.29692097910967
30
0
41
1
10
28.5408160771888
20
1.32659349391119
30
0
0
SPLINE
5
143
100
AcDbEntity
8
1
62
256
6
ByLayer
370
18
48
1
60
0
100
AcDbSpline
70
4
71
3
72
14
73
10
40
0
40
0
40
0
40
0
40
0.499999999999985
40
0.499999999999985
40
0.749999999999993
40
0.749999999999993
40
0.874999999999996
40
0.874999999999996
40
1
40
1
40
1
40
1
41
1
10
28.5408160771891
20
1.32659349391079
30
0
41
1
10
28.4956828853851
20
1.29208624404049
30
0
41
1
10
28.44998551569
20
1.25503629848532
30
0
41
1
10
28.3803859523541
20
1.19565965027908
30
0
41
1
10
28.3571150763969
20
1.17532476164735
30
0
41
1
10
28.3221280092728
20
1.14405826240721
30
0
41
1
10
28.3104516385482
20
1.13350715175815
30
0
41
1
10
28.2870594800568
20
1.11214822858068
30
0
41
1
10
28.2753509548249
20
1.10134055550978
30
0
41
1
10
28.2635598831349
20
1.09040187565202
30
0
0
SPLINE
5
144
100
AcDbEntity
8
1
62
256
6
ByLayer
370
18
48
1
60
0
100
AcDbSpline
70
4
71
3
72
10
73
6
40
0
40
0
40
0
40
0
40
0.5
40
0.5
40
1
40
1
40
1
40
1
41
1
10
28.2635598831346
20
1.09040187565139
30
0
41
1
10
28.2404358186956
20
1.06894947975735
30
0
41
1
10
28.2157334848493
20
1.05024204926636
30
0
41
1
10
28.1639866267162
20
1.01822256221578
30
0
41
1
10
28.1369699335704
20
1.00488908443066
30
0
41
1
10
28.1090484606624
20
0.99448707253876
30
0
0
SPLINE
5
145
100
AcDbEntity
8
1
62
256
6
ByLayer
370
18
48
1
60
0
100
AcDbSpline
70
4
71
3
72
12
73
8
40
0
40
0
40
0
40
0
40
0.25
40
0.25
40
0.5
40
0.5
40
1
40
1
40
1
40
1
41
1
10
28.2635598831347
20
0.561673691564096
30
0
41
1
10
28.2947942385823
20
0.55170125046638
30
0
41
1
10
28.3260623639234
20
0.541234691662538
30
0
41
1
10
28.3877599478392
20
0.517804031964602
30
0
41
1
10
28.4182356788341
20
0.504902922677957
30
0
41
1
10
28.5088131259238
20
0.462903482274129
30
0
41
1
10
28.5680190389862
20
0.430441486703103
30
0
41
1
10
28.6263266777774
20
0.393430223382865
30
0
0
SPLINE
5
146
100
AcDbEntity
8
1
62
256
6
ByLayer
370
18
48
1
60
0
100
AcDbSpline
70
4
71
3
72
10
73
6
40
0
40
0
40
0
40
0
40
0.5
40
0.5
40
1
40
1
40
1
40
1
41
1
10
28.6263266777773
20
0.393430223382978
30
0
41
1
10
28.6414260310361
20
0.36841197587546
30
0
41
1
10
28.6565963610138
20
0.343879155992283
30
0
41
1
10
28.6870953059364
20
0.29593869815838
30
0
41
1
10
28.7024251759582
20
0.272570044182231
30
0
41
1
10
28.717843373714
20
0.249782984130178
30
0
0
SPLINE
5
147
100
AcDbEntity
8
1
62
256
6
ByLayer
370
18
48
1
60
0
100
AcDbSpline
70
4
71
3
72
26
73
22
40
0
40
0
40
0
40
0
40
0.125
40
0.125
40
0.25
40
0.25
40
0.375
40
0.375
40
0.5
40
0.5
40
0.625
40
0.625
40
0.75
40
0.75
40
0.8125
40
0.8125
40
0.875
40
0.875
40
0.9375
40
0.9375
40
1
40
1
40
1
40
1
41
1
10
28.717843373714
20
0.249782984130178
30
0
41
1
10
28.7215026009303
20
0.244374892234987
30
0
41
1
10
28.7257533313929
20
0.238857549791618
30
0
41
1
10
28.7351481150746
20
0.22767342675229
30
0
41
1
10
28.7403452279681
20
0.221960759829386
30
0
41
1
10
28.751164171204
20
0.210807107153642
30
0
41
1
10
28.7568205301232
20
0.205322042701624
30
0
41
1
10
28.7685852058815
20
0.19450802891987
30
0
41
1
10
28.7747380566425
20
0.189145746102128
30
0
41
1
10
28.7870569344138
20
0.178931950413301
30
0
41
1
10
28.7932659965458
20
0.174036861930205
30
0
41
1
10
28.8057670987794
20
0.164688777985617
30
0
41
1
10
28.8121123905335
20
0.160203960145765
30
0
41
1
10
28.8212466526217
20
0.154180704265542
30
0
41
1
10
28.8242415185636
20
0.152279600617362
30
0
41
1
10
28.830112831606
20
0.148718388993302
30
0
41
1
10
28.8330050946657
20
0.147050302215717
30
0
41
1
10
28.8384786241435
20
0.144089404690249
30
0
41
1
10
28.8410774587975
20
0.142784873679716
30
0
41
1
10
28.8459541102907
20
0.140584295517755
30
0
41
1
10
28.8482404664006
20
0.139686988806062
30
0
41
1
10
28.8502690602063
20
0.139062993606615
30
0
0
SPLINE
5
148
100
AcDbEntity
8
1
62
256
6
ByLayer
370
18
48
1
60
0
100
AcDbSpline
70
4
71
3
72
12
73
8
40
0
40
0
40
0
40
0
40
0.249999999999993
40
0.249999999999993
40
0.499999999999986
40
0.499999999999986
40
1
40
1
40
1
40
1
41
1
10
28.8502690602062
20
0.139062993607297
30
0
41
1
10
28.8650531251123
20
0.134515417101937
30
0
41
1
10
28.8797625502886
20
0.129209154698515
30
0
41
1
10
28.9090709960586
20
0.117268250036545
30
0
41
1
10
28.9236667446331
20
0.110602450586214
30
0
41
1
10
28.9673067787518
20
0.0884909228025492
30
0
41
1
10
28.9960745367089
20
0.0710229451330804
30
0
41
1
10
29.0246176621263
20
0.0509737609594367
30
0
0
SPLINE
5
149
100
AcDbEntity
8
1
62
256
6
ByLayer
370
18
48
1
60
0
100
AcDbSpline
70
4
71
3
72
10
73
6
40
0
40
0
40
0
40
0
40
0.5
40
0.5
40
1
40
1
40
1
40
1
41
1
10
29.0652447716853
20
0.0086378832118328
30
0
41
1
10
29.0948678239574
20
-0.0306611914195685
30
0
41
1
10
29.1247523263635
20
-0.0673986729887019
30
0
41
1
10
29.1851297998531
20
-0.135528117171589
30
0
41
1
10
29.2155706746302
20
-0.166917401053354
30
0
41
1
10
29.2463446657704
20
-0.195148190707187
30
0
0
SPLINE
5
14A
100
AcDbEntity
8
1
62
256
6
ByLayer
370
18
48
1
60
0
100
AcDbSpline
70
4
71
3
72
26
73
22
40
0
40
0
40
0
40
0
40
0.12499999999998
40
0.12499999999998
40
0.249999999999959
40
0.249999999999959
40
0.374999999999939
40
0.374999999999939
40
0.499999999999919
40
0.499999999999919
40
0.624999999999898
40
0.624999999999898
40
0.749999999999878
40
0.749999999999878
40
0.812499999999908
40
0.812499999999908
40
0.874999999999939
40
0.874999999999939
40
0.937499999999969
40
0.937499999999969
40
1
40
1
40
1
40
1
41
1
10
29.2463446657704
20
-0.195148190707158
30
0
41
1
10
29.2500085375298
20
-0.19850927547796
30
0
41
1
10
29.2542646172592
20
-0.202283373707047
30
0
41
1
10
29.2636696267791
20
-0.210430771247587
30
0
41
1
10
29.2688715916418
20
-0.214847945852369
30
0
41
1
10
29.279698028272
20
-0.223899781746155
30
0
41
1
10
29.2853573531559
20
-0.228564511509944
30
0
41
1
10
29.2971260030965
20
-0.23817527898234
30
0
41
1
10
29.3032795735428
20
-0.243156941347195
30
0
41
1
10
29.3155984127059
20
-0.253098464455121
30
0
41
1
10
29.3218067492797
20
-0.258093743531276
30
0
41
1
10
29.334304346825
20
-0.268174829385799
30
0
41
1
10
29.3406466290124
20
-0.273303512326635
30
0
41
1
10
29.3497766973505
20
-0.280751670058407
30
0
41
1
10
29.3527701404117
20
-0.283204826146488
30
0
41
1
10
29.3586385488379
20
-0.288047669755883
30
0
41
1
10
29.3615295908101
20
-0.290451335179739
30
0
41
1
10
29.3670016002329
20
-0.29504904689756
30
0
41
1
10
29.3695997938482
20
-0.297256900421928
30
0
41
1
10
29.3744753719992
20
-0.301461552778107
30
0
41
1
10
29.3767616990269
20
-0.303466814814101
30
0
41
1
10
29.3787907014084
20
-0.305286323017214
30
0
0
SPLINE
5
14B
100
AcDbEntity
8
1
62
256
6
ByLayer
370
18
48
1
60
0
100
AcDbSpline
70
4
71
3
72
12
73
8
40
0
40
0
40
0
40
0
40
0.249999999999993
40
0.249999999999993
40
0.499999999999986
40
0.499999999999986
40
1
40
1
40
1
40
1
41
1
10
29.3787907014083
20
-0.305286323016645
30
0
41
1
10
29.3935526467569
20
-0.318524099818148
30
0
41
1
10
29.4082416711817
20
-0.332418616833223
30
0
41
1
10
29.4375136507292
20
-0.361348297489229
30
0
41
1
10
29.4520933492332
20
-0.376410367273223
30
0
41
1
10
29.4956924652964
20
-0.423401061285944
30
0
41
1
10
29.5244460820379
20
-0.456972459080532
30
0
41
1
10
29.5529798606951
20
-0.492691157379454
30
0
0
SPLINE
5
14C
100
AcDbEntity
8
1
62
256
6
ByLayer
370
18
48
1
60
0
100
AcDbSpline
70
4
71
3
72
10
73
6
40
0
40
0
40
0
40
0
40
0.5
40
0.5
40
1
40
1
40
1
40
1
41
1
10
29.593894865366
20
-0.532827320548478
30
0
41
1
10
29.6235117187285
20
-0.552772771055032
30
0
41
1
10
29.6533715590783
20
-0.569741474898876
30
0
41
1
10
29.7136874214228
20
-0.597508720400185
30
0
41
1
10
29.744104244695
20
-0.608285086304988
30
0
41
1
10
29.7748516500006
20
-0.615584154821249
30
0
0
SPLINE
5
14D
100
AcDbEntity
8
1
62
256
6
ByLayer
370
18
48
1
60
0
100
AcDbSpline
70
4
71
3
72
26
73
22
40
0
40
0
40
0
40
0
40
0.12499999999998
40
0.12499999999998
40
0.24999999999996
40
0.24999999999996
40
0.37499999999994
40
0.37499999999994
40
0.49999999999992
40
0.49999999999992
40
0.6249999999999
40
0.6249999999999
40
0.749999999999879
40
0.749999999999879
40
0.81249999999991
40
0.81249999999991
40
0.87499999999994
40
0.87499999999994
40
0.93749999999997
40
0.93749999999997
40
1
40
1
40
1
40
1
41
1
10
29.7748516500006
20
-0.615584154821249
30
0
41
1
10
29.7785164484941
20
-0.616454134419087
30
0
41
1
10
29.7827744314661
20
-0.617987360805557
30
0
41
1
10
29.7921852970062
20
-0.622025542792045
30
0
41
1
10
29.7973914730186
20
-0.624566994011872
30
0
41
1
10
29.8082265872359
20
-0.630331937471112
30
0
41
1
10
29.8138903895833
20
-0.63356724313735
30
0
41
1
10
29.8256661084034
20
-0.640724845913724
30
0
41
1
10
29.8318213141431
20
-0.644680474816369
30
0
41
1
10
29.8441401664076
20
-0.653063574572741
30
0
41
1
10
29.8503475251005
20
-0.657514029671518
30
0
41
1
10
29.8628421786751
20
-0.667026927394204
30
0
41
1
10
29.8691804222029
20
-0.672136190531745
30
0
41
1
10
29.8783033453962
20
-0.680043706287478
30
0
41
1
10
29.8812944950891
20
-0.682730817966956
30
0
41
1
10
29.8871585397849
20
-0.688227149849155
30
0
41
1
10
29.8900470643044
20
-0.691053942636614
30
0
41
1
10
29.8955141195244
20
-0.696689674146512
30
0
41
1
10
29.8981101987782
20
-0.699513254437136
30
0
41
1
10
29.9029823451041
20
-0.705174177186649
30
0
41
1
10
29.9052672684309
20
-0.708025781548827
30
0
41
1
10
29.9072954523323
20
-0.710803417147304
30
0
0
SPLINE
5
14E
100
AcDbEntity
8
1
62
256
6
ByLayer
370
18
48
1
60
0
100
AcDbSpline
70
4
71
3
72
12
73
8
40
0
40
0
40
0
40
0
40
0.250000000000007
40
0.250000000000007
40
0.500000000000013
40
0.500000000000013
40
1
40
1
40
1
40
1
41
1
10
29.9072954523322
20
-0.710803417146792
30
0
41
1
10
29.9220646678366
20
-0.731030132643127
30
0
41
1
10
29.9367597896663
20
-0.751732757927869
30
0
41
1
10
29.966041394771
20
-0.793961001343007
30
0
41
1
10
29.9806245978623
20
-0.815506154522495
30
0
41
1
10
30.0242297734574
20
-0.881438607058698
30
0
41
1
10
30.0529806047844
20
-0.926913856402052
30
0
41
1
10
30.0815054970324
20
-0.973814665489556
30
0
0
SPLINE
5
14F
100
AcDbEntity
8
1
62
256
6
ByLayer
370
18
48
1
60
0
100
AcDbSpline
70
4
71
3
72
8
73
4
40
0
40
0
40
0
40
0
40
1
40
1
40
1
40
1
41
1
10
30.1222089372442
20
-1.00628306868398
30
0
41
1
10
30.1086348857433
20
-0.995575291882147
30
0
41
1
10
30.0950669532169
20
-0.984752375125368
30
0
41
1
10
30.0815054970323
20
-0.973814665489556
30
0
0
SPLINE
5
150
100
AcDbEntity
8
1
62
256
6
ByLayer
370
18
48
1
60
0
100
AcDbSpline
70
4
71
3
72
10
73
6
40
0
40
0
40
0
40
0
40
0.5
40
0.5
40
1
40
1
40
1
40
1
41
1
10
30.1222089372438
20
-1.0062830686762
30
0
41
1
10
30.1518226323946
20
-1.00441544377671
30
0
41
1
10
30.1816919434742
20
-0.999461089827435
30
0
41
1
10
30.2420954372815
20
-0.983168545009136
30
0
41
1
10
30.2725839041218
20
-0.971863427826946
30
0
41
1
10
30.3033484130217
20
-0.957465630373747
30
0
0
SPLINE
5
151
100
AcDbEntity
8
1
62
256
6
ByLayer
370
18
48
1
60
0
100
AcDbSpline
70
4
71
3
72
26
73
22
40
0
40
0
40
0
40
0
40
0.124999999999999
40
0.124999999999999
40
0.249999999999999
40
0.249999999999999
40
0.374999999999998
40
0.374999999999998
40
0.499999999999998
40
0.499999999999998
40
0.624999999999997
40
0.624999999999997
40
0.749999999999996
40
0.749999999999996
40
0.812499999999997
40
0.812499999999997
40
0.874999999999998
40
0.874999999999998
40
0.937499999999999
40
0.937499999999999
40
1
40
1
40
1
40
1
41
1
10
30.3033484130199
20
-0.957465630378209
30
0
41
1
10
30.3070172687466
20
-0.955748605028987
30
0
41
1
10
30.3112784424473
20
-0.954866381652437
30
0
41
1
10
30.320693385793
20
-0.954324216646768
30
0
41
1
10
30.3259006181159
20
-0.9546886340149
30
0
41
1
10
30.3367375801922
20
-0.95647260872417
30
0
41
1
10
30.3424021353144
20
-0.95788461174314
30
0
41
1
10
30.3541802843371
20
-0.961707040109019
30
0
41
1
10
30.3603375626418
20
-0.964144569877163
30
0
41
1
10
30.3726607346833
20
-0.969920173012071
30
0
41
1
10
30.3788702025082
20
-0.973265642975747
30
0
41
1
10
30.3913669473839
20
-0.981008576455906
30
0
41
1
10
30.397705487689
20
-0.98545277478749
30
0
41
1
10
30.4068266225681
20
-0.992817713082019
30
0
41
1
10
30.4098167391007
20
-0.995397579213318
30
0
41
1
10
30.4156777711544
20
-1.00084761720345
30
0
41
1
10
30.4185649210334
20
-1.00373760653019
30
0
41
1
10
30.4240299264321
20
-1.00969379446261
30
0
41
1
10
30.4266246764117
20
-1.01277261292603
30
0
41
1
10
30.4314938729734
20
-1.0191644917756
30
0
41
1
10
30.433777992033
20
-1.02249685204853
30
0
41
1
10
30.4358062639013
20
-1.02587669106757
30
0
0
SPLINE
5
152
100
AcDbEntity
8
1
62
256
6
ByLayer
370
18
48
1
60
0
100
AcDbSpline
70
4
71
3
72
12
73
8
40
0
40
0
40
0
40
0
40
0.25
40
0.25
40
0.5
40
0.5
40
1
40
1
40
1
40
1
41
1
10
30.4358062639013
20
-1.02587669106728
30
0
41
1
10
30.4505961391779
20
-1.05052200530085
30
0
41
1
10
30.465309401363
20
-1.07540486139823
30
0
41
1
10
30.4946251839891
20
-1.12556998398307
30
0
41
1
10
30.5092243193286
20
-1.15086204139925
30
0
41
1
10
30.5528760260022
20
-1.22735433682496
30
0
41
1
10
30.581655887331
20
-1.27893757627518
30
0
41
1
10
30.6102133951138
20
-1.33103410973621
30
0
0
SPLINE
5
153
100
AcDbEntity
8
1
62
256
6
ByLayer
370
18
48
1
60
0
100
AcDbSpline
70
4
71
3
72
10
73
6
40
0
40
0
40
0
40
0
40
0.5
40
0.5
40
1
40
1
40
1
40
1
41
1
10
30.6509373580075
20
-1.35186539166224
30
0
41
1
10
30.6805256933895
20
-1.32847462356358
30
0
41
1
10
30.7103759161681
20
-1.30227152259602
30
0
41
1
10
30.770700514972
20
-1.24434150779794
30
0
41
1
10
30.8011376180347
20
-1.21263525357631
30
0
41
1
10
30.8318580718125
20
-1.17829608562909
30
0
0
SPLINE
5
154
100
AcDbEntity
8
1
62
256
6
ByLayer
370
18
48
1
60
0
100
AcDbSpline
70
4
71
3
72
26
73
22
40
0
40
0
40
0
40
0
40
0.12499999999998
40
0.12499999999998
40
0.249999999999959
40
0.249999999999959
40
0.374999999999939
40
0.374999999999939
40
0.499999999999919
40
0.499999999999919
40
0.624999999999898
40
0.624999999999898
40
0.749999999999878
40
0.749999999999878
40
0.812499999999909
40
0.812499999999909
40
0.874999999999939
40
0.874999999999939
40
0.937499999999969
40
0.937499999999969
40
1
40
1
40
1
40
1
41
1
10
30.8318580718105
20
-1.17829608563386
30
0
41
1
10
30.8355301641838
20
-1.17419143934066
30
0
41
1
10
30.8397965133905
20
-1.1709845247052
30
0
41
1
10
30.8492219771072
20
-1.16589390761055
30
0
41
1
10
30.8544345830422
20
-1.16401955605883
30
0
41
1
10
30.8652795641156
20
-1.16157274279865
30
0
41
1
10
30.8709469898222
20
-1.1609737305341
30
0
41
1
10
30.8827282680202
20
-1.16096388194183
30
0
41
1
10
30.8888851043063
20
-1.1615705372464
30
0
41
1
10
30.9012051647812
20
-1.16400032580378
30
0
41
1
10
30.9074123806807
20
-1.16581439745917
30
0
41
1
10
30.9199040908904
20
-1.17080062022635
30
0
41
1
10
30.9262381480134
20
-1.17401241334753
30
0
41
1
10
30.9353526652546
20
-1.17989292714989
30
0
41
1
10
30.938340770522
20
-1.18203560819936
30
0
41
1
10
30.9441981598814
20
-1.18674253194405
30
0
41
1
10
30.947083274267
20
-1.18932542467127
30
0
41
1
10
30.9525441325765
20
-1.19483683617665
30
0
41
1
10
30.9551370984818
20
-1.19777537865787
30
0
41
1
10
30.9600032442347
20
-1.20407746951869
30
0
41
1
10
30.9622859723868
20
-1.20746179162973
30
0
41
1
10
30.9643132255809
20
-1.21100776919346
30
0
0
SPLINE
5
155
100
AcDbEntity
8
1
62
256
6
ByLayer
370
18
48
1
60
0
100
AcDbSpline
70
4
71
3
72
12
73
8
40
0
40
0
40
0
40
0
40
0.249999999999993
40
0.249999999999993
40
0.499999999999985
40
0.499999999999985
40
1
40
1
40
1
40
1
41
1
10
30.9643132255866
20
-1.21100776920324
30
0
41
1
10
30.9790960308752
20
-1.23686516878843
30
0
41
1
10
30.9938032478486
20
-1.26268314111155
30
0
41
1
10
31.0231067437862
20
-1.31423692812405
30
0
41
1
10
31.0376997204639
20
-1.3399713320766
30
0
41
1
10
31.0813351120271
20
-1.41702868390715
30
0
41
1
10
31.1101069455215
20
-1.4679771993022
30
0
41
1
10
31.1386615284351
20
-1.51846749783732
30
0
0
SPLINE
5
156
100
AcDbEntity
8
1
62
256
6
ByLayer
370
18
48
1
60
0
100
AcDbSpline
70
4
71
3
72
12
73
8
40
0
40
0
40
0
40
0
40
0.500000000000001
40
0.500000000000001
40
0.75
40
0.75
40
1
40
1
40
1
40
1
41
1
10
31.1793088886864
20
-1.52500208953009
30
0
41
1
10
31.2089047067801
20
-1.4830846995186
30
0
41
1
10
31.2387633623284
20
-1.43904291955627
30
0
41
1
10
31.2840358997469
20
-1.36993558270706
30
0
41
1
10
31.29919747096
20
-1.34640754291954
30
0
41
1
10
31.3296778900335
20
-1.29838691305579
30
0
41
1
10
31.3449911248466
20
-1.27390117905719
30
0
41
1
10
31.3603721062454
20
-1.24898524537312
30
0
0
SPLINE
5
157
100
AcDbEntity
8
1
62
256
6
ByLayer
370
18
48
1
60
0
100
AcDbSpline
70
4
71
3
72
26
73
22
40
0
40
0
40
0
40
0
40
0.125
40
0.125
40
0.250000000000001
40
0.250000000000001
40
0.375000000000001
40
0.375000000000001
40
0.500000000000001
40
0.500000000000001
40
0.625000000000001
40
0.625000000000001
40
0.750000000000002
40
0.750000000000002
40
0.812500000000001
40
0.812500000000001
40
0.875000000000001
40
0.875000000000001
40
0.9375
40
0.9375
40
1
40
1
40
1
40
1
41
1
10
31.3603721062435
20
-1.24898524537682
30
0
41
1
10
31.3640504528357
20
-1.24302662431202
30
0
41
1
10
31.368324626712
20
-1.2379156112641
30
0
41
1
10
31.3777659427463
20
-1.22894611307854
30
0
41
1
10
31.3829868587785
20
-1.22508059722145
30
0
41
1
10
31.3938455071657
20
-1.21873210999615
30
0
41
1
10
31.3995185294446
20
-1.21620675080669
30
0
41
1
10
31.4113103016959
20
-1.21238224261381
30
0
41
1
10
31.4174708587126
20
-1.21108960728631
30
0
41
1
10
31.4297936305259
20
-1.20988209628544
30
0
41
1
10
31.4360004942901
20
-1.20994270298252
30
0
41
1
10
31.4484862696266
20
-1.21155303832089
30
0
41
1
10
31.4548117994474
20
-1.2131306707974
30
0
41
1
10
31.4639115636415
20
-1.21678321658629
30
0
41
1
10
31.4668946791766
20
-1.21821671039356
30
0
41
1
10
31.4727423332601
20
-1.22158073051227
30
0
41
1
10
31.4756225863722
20
-1.22352664934579
30
0
41
1
10
31.4810749955596
20
-1.22788817005227
30
0
41
1
10
31.4836643231582
20
-1.23030956871682
30
0
41
1
10
31.4885245075562
20
-1.23571178115094
30
0
41
1
10
31.4908052316633
20
-1.2387126119205
30
0
41
1
10
31.4928316965391
20
-1.24196869784981
30
0
0
SPLINE
5
158
100
AcDbEntity
8
1
62
256
6
ByLayer
370
18
48
1
60
0
100
AcDbSpline
70
4
71
3
72
12
73
8
40
0
40
0
40
0
40
0
40
0.250000000000007
40
0.250000000000007
40
0.500000000000014
40
0.500000000000014
40
1
40
1
40
1
40
1
41
1
10
31.4928316965411
20
-1.24196869785308
30
0
41
1
10
31.5076225094366
20
-1.26573429987883
30
0
41
1
10
31.5223359869648
20
-1.28919061174764
30
0
41
1
10
31.551651265532
20
-1.3355558474835
30
0
41
1
10
31.5662495318845
20
-1.35845206563391
30
0
41
1
10
31.6098965152513
20
-1.42625630077538
30
0
41
1
10
31.6386715034631
20
-1.47008926207593
30
0
41
1
10
31.6672232574316
20
-1.51255906571029
30
0
0
SPLINE
5
159
100
AcDbEntity
8
1
62
256
6
ByLayer
370
18
48
1
60
0
100
AcDbSpline
70
4
71
3
72
8
73
4
40
0
40
0
40
0
40
0
40
1
40
1
40
1
40
1
41
1
10
31.7080559295121
20
-1.50394296297617
30
0
41
1
10
31.6944326742951
20
-1.50700819763441
30
0
41
1
10
31.6808220567081
20
-1.50988007759156
30
0
41
1
10
31.6672232574315
20
-1.51255906571043
30
0
0
SPLINE
5
15A
100
AcDbEntity
8
1
62
256
6
ByLayer
370
18
48
1
60
0
100
AcDbSpline
70
4
71
3
72
12
73
8
40
0
40
0
40
0
40
0
40
0.499999999999989
40
0.499999999999989
40
0.749999999999994
40
0.749999999999994
40
1
40
1
40
1
40
1
41
1
10
31.7080559295121
20
-1.50394296297623
30
0
41
1
10
31.7376202026871
20
-1.44904805244826
30
0
41
1
10
31.76745038185
20
-1.3929633474846
30
0
41
1
10
31.8126673928704
20
-1.30727297269254
30
0
41
1
10
31.8278076689683
20
-1.27846798805166
30
0
41
1
10
31.8582396255783
20
-1.22042519640374
30
0
41
1
10
31.8735272431184
20
-1.19120412628263
30
0
41
1
10
31.8888836390723
20
-1.16180219177116
30
0
0
SPLINE
5
15B
100
AcDbEntity
8
1
62
256
6
ByLayer
370
18
48
1
60
0
100
AcDbSpline
70
4
71
3
72
26
73
22
40
0
40
0
40
0
40
0
40
0.125
40
0.125
40
0.250000000000001
40
0.250000000000001
40
0.375000000000001
40
0.375000000000001
40
0.500000000000001
40
0.500000000000001
40
0.625
40
0.625
40
0.75
40
0.75
40
0.8125
40
0.8125
40
0.875
40
0.875
40
0.9375
40
0.9375
40
1
40
1
40
1
40
1
41
1
10
31.8888836390703
20
-1.16180219177349
30
0
41
1
10
31.8925654689019
20
-1.15475282160119
30
0
41
1
10
31.89684505628
20
-1.14838862883826
30
0
41
1
10
31.9062995389899
20
-1.13667733027825
30
0
41
1
10
31.9115286935187
20
-1.13130736918259
30
0
41
1
10
31.9224020237257
20
-1.12185251236954
30
0
41
1
10
31.9280813240411
20
-1.11771480157017
30
0
41
1
10
31.9398785089957
20
-1.11054417179454
30
0
41
1
10
31.9460373371427
20
-1.10750582716614
30
0
41
1
10
31.9583522573986
20
-1.10278601147965
30
0
41
1
10
31.9645535057766
20
-1.10106741536245
30
0
41
1
10
31.9770282088774
20
-1.09905649815832
30
0
41
1
10
31.983346161659
20
-1.09877831976377
30
0
41
1
10
31.9924373777532
20
-1.09970990873592
30
0
41
1
10
31.9954182360716
20
-1.10024274276157
30
0
41
1
10
32.0012624760868
20
-1.10181902858264
30
0
41
1
10
32.0041408942187
20
-1.10287258691909
30
0
41
1
10
32.0095896863346
20
-1.10551428458885
30
0
41
1
10
32.0121777832976
20
-1.10710347327449
30
0
41
1
10
32.0170364580916
20
-1.11090594116894
30
0
41
1
10
32.019316539529
20
-1.11313528815262
30
0
41
1
10
32.0213425063711
20
-1.1156803848483
30
0
0
SPLINE
5
15C
100
AcDbEntity
8
1
62
256
6
ByLayer
370
18
48
1
60
0
100
AcDbSpline
70
4
71
3
72
12
73
8
40
0
40
0
40
0
40
0
40
0.250000000000007
40
0.250000000000007
40
0.500000000000014
40
0.500000000000014
40
1
40
1
40
1
40
1
41
1
10
32.0213425063742
20
-1.11568038485262
30
0
41
1
10
32.0361303650356
20
-1.13425745602842
30
0
41
1
10
32.0508416911277
20
-1.15229266107858
30
0
41
1
10
32.0801553952448
20
-1.18741905094674
30
0
41
1
10
32.0947540997237
20
-1.2044871203357
30
0
41
1
10
32.1384060572744
20
-1.25417491666173
30
0
41
1
10
32.1671888751944
20
-1.28514800309259
30
0
41
1
10
32.1957531974322
20
-1.31401676358644
30
0
0
SPLINE
5
15D
100
AcDbEntity
8
1
62
256
6
ByLayer
370
18
48
1
60
0
100
AcDbSpline
70
4
71
3
72
8
73
4
40
0
40
0
40
0
40
0
40
1
40
1
40
1
40
1
41
1
10
32.2366238952379
20
-1.29131643127428
30
0
41
1
10
32.2229885372424
20
-1.29905322178268
30
0
41
1
10
32.209365104831
20
-1.30661986927774
30
0
41
1
10
32.1957531974321
20
-1.31401676358644
30
0
0
SPLINE
5
15E
100
AcDbEntity
8
1
62
256
6
ByLayer
370
18
48
1
60
0
100
AcDbSpline
70
4
71
3
72
12
73
8
40
0
40
0
40
0
40
0
40
0.5
40
0.5
40
0.75
40
0.75
40
1
40
1
40
1
40
1
41
1
10
32.2366238952379
20
-1.29131643127434
30
0
41
1
10
32.26617667882
20
-1.23042345062828
30
0
41
1
10
32.2959902173756
20
-1.16943836199397
30
0
41
1
10
32.3411796404187
20
-1.07808335115911
30
0
41
1
10
32.3563111318086
20
-1.04767179835179
30
0
41
1
10
32.3867322751222
20
-0.987004835293476
30
0
41
1
10
32.4020197964688
20
-0.956780011202426
30
0
41
1
10
32.4173762785166
20
-0.926651901705924
30
0
0
SPLINE
5
15F
100
AcDbEntity
8
1
62
256
6
ByLayer
370
18
48
1
60
0
100
AcDbSpline
70
4
71
3
72
28
73
24
40
0
40
0
40
0
40
0
40
0.125
40
0.125
40
0.25
40
0.25
40
0.375
40
0.375
40
0.5
40
0.5
40
0.625
40
0.625
40
0.6875
40
0.6875
40
0.75
40
0.75
40
0.8125
40
0.8125
40
0.875
40
0.875
40
0.9375
40
0.9375
40
1
40
1
40
1
40
1
41
1
10
34.3679518659316
20
-0.13797654592662
30
0
41
1
10
34.3643620941573
20
-0.1326883153788
30
0
41
1
10
34.3602018968462
20
-0.127261218100585
30
0
41
1
10
34.3510043751504
20
-0.116206774372728
30
0
41
1
10
34.3459210729714
20
-0.110539462990744
30
0
41
1
10
34.3353047283088
20
-0.0993930867274457
30
0
41
1
10
34.3297398360912
20
-0.0938720009178553
30
0
41
1
10
34.3181287447666
20
-0.0829163102230268
30
0
41
1
10
34.3120255658139
20
-0.0774353848004239
30
0
41
1
10
34.2997340358512
20
-0.0669021103141176
30
0
41
1
10
34.2935196767973
20
-0.0618197538466063
30
0
41
1
10
34.2841023643023
20
-0.0544854949647515
30
0
41
1
10
34.2809471165009
20
-0.0520894563846639
30
0
41
1
10
34.2746031898897
20
-0.0474050509945414
30
0
41
1
10
34.2714199440425
20
-0.0451218366986552
30
0
41
1
10
34.2651904697148
20
-0.040795982089918
30
0
41
1
10
34.2621244344438
20
-0.0387382545887647
30
0
41
1
10
34.2561084550484
20
-0.0348620452896853
30
0
41
1
10
34.2531359693097
20
-0.0330308172874538
30
0
41
1
10
34.2474986366187
20
-0.029754224674349
30
0
41
1
10
34.2448231876043
20
-0.0283002963831791
30
0
41
1
10
34.2398077305327
20
-0.0258240094346149
30
0
41
1
10
34.2374634518423
20
-0.0248024751756475
30
0
41
1
10
34.2353973366517
20
-0.0240758175768576
30
0
0
SPLINE
5
160
100
AcDbEntity
8
1
62
256
6
ByLayer
370
18
48
1
60
0
100
AcDbSpline
70
4
71
3
72
10
73
6
40
0
40
0
40
0
40
0
40
0.5
40
0.5
40
1
40
1
40
1
40
1
41
1
10
34.2353973366506
20
-0.0240758175790177
30
0
41
1
10
34.2060847636227
20
-0.0137665163238694
30
0
41
1
10
34.1770023907084
20
-0.0005658810374314
30
0
41
1
10
34.1191191112102
20
0.0308917364427543
30
0
41
1
10
34.0904666587516
20
0.0493047784182465
30
0
41
1
10
34.0620220830009
20
0.0703342259888586
30
0
0
SPLINE
5
161
100
AcDbEntity
8
1
62
256
6
ByLayer
370
18
48
1
60
0
100
AcDbSpline
70
4
71
3
72
10
73
6
40
0
40
0
40
0
40
0
40
0.5
40
0.5
40
1
40
1
40
1
40
1
41
1
10
34.0211679373152
20
0.11286484573489
30
0
41
1
10
33.9913328570262
20
0.151230023700435
30
0
41
1
10
33.9612610602226
20
0.18686719452981
30
0
41
1
10
33.900612333643
20
0.252516197029223
30
0
41
1
10
33.8700599849513
20
0.282465044055243
30
0
41
1
10
33.8392511412042
20
0.309220505658402
30
0
0
SPLINE
5
162
100
AcDbEntity
8
1
62
256
6
ByLayer
370
18
48
1
60
0
100
AcDbSpline
70
4
71
3
72
26
73
22
40
0
40
0
40
0
40
0
40
0.125
40
0.125
40
0.25
40
0.25
40
0.375
40
0.375
40
0.5
40
0.5
40
0.624999999999999
40
0.624999999999999
40
0.749999999999999
40
0.749999999999999
40
0.812499999999999
40
0.812499999999999
40
0.875
40
0.875
40
0.9375
40
0.9375
40
1
40
1
40
1
40
1
41
1
10
33.8392511412042
20
0.309220505658544
30
0
41
1
10
33.8356732186677
20
0.312327696886797
30
0
41
1
10
33.8315261489217
20
0.31583739775968
30
0
41
1
10
33.8223521746952
20
0.323458334079732
30
0
41
1
10
33.8172790335968
20
0.327606232807568
30
0
41
1
10
33.8066770332466
20
0.336174286770671
30
0
41
1
10
33.8011166574869
20
0.340621307938335
30
0
41
1
10
33.7895092749442
20
0.349845381418533
30
0
41
1
10
33.7834050555248
20
0.35466661275737
30
0
41
1
10
33.7711099459566
20
0.364366871122087
30
0
41
1
10
33.7648912617365
20
0.369268320305736
30
0
41
1
10
33.752321592946
20
0.379225253030029
30
0
41
1
10
33.7458841216023
20
0.384349294113122
30
0
41
1
10
33.7365393911989
20
0.391887647226469
30
0
41
1
10
33.7334733153418
20
0.394378142958686
30
0
41
1
10
33.7274576265082
20
0.39931200351262
30
0
41
1
10
33.7244864548506
20
0.401773679304256
30
0
41
1
10
33.7188583567139
20
0.406500426171675
30
0
41
1
10
33.7161879801032
20
0.408776100821086
30
0
41
1
10
33.7111832933498
20
0.413122896471123
30
0
41
1
10
33.7088468575791
20
0.415196928940873
30
0
41
1
10
33.7067882571405
20
0.417077580124555
30
0
0
SPLINE
5
163
100
AcDbEntity
8
1
62
256
6
ByLayer
370
18
48
1
60
0
100
AcDbSpline
70
4
71
3
72
10
73
6
40
0
40
0
40
0
40
0
40
0.5
40
0.5
40
1
40
1
40
1
40
1
41
1
10
33.7067882571392
20
0.417077580122935
30
0
41
1
10
33.6775022903796
20
0.443832013386441
30
0
41
1
10
33.6483876790764
20
0.473221667042054
30
0
41
1
10
33.5906019888866
20
0.536498496114973
30
0
41
1
10
33.5619164455749
20
0.57033200548301
30
0
41
1
10
33.5334716117025
20
0.606180823788662
30
0
0
SPLINE
5
164
100
AcDbEntity
8
1
62
256
6
ByLayer
370
18
48
1
60
0
100
AcDbSpline
70
4
71
3
72
10
73
6
40
0
40
0
40
0
40
0
40
0.5
40
0.5
40
1
40
1
40
1
40
1
41
1
10
33.4931217332734
20
0.644290438339141
30
0
41
1
10
33.463247223607
20
0.662108369858572
30
0
41
1
10
33.4331222487294
20
0.676762346896226
30
0
41
1
10
33.3723340938624
20
0.699660580212935
30
0
41
1
10
33.341702421789
20
0.707881140111283
30
0
41
1
10
33.3108438131125
20
0.712744126040405
30
0
0
SPLINE
5
165
100
AcDbEntity
8
1
62
256
6
ByLayer
370
18
48
1
60
0
100
AcDbSpline
70
4
71
3
72
26
73
22
40
0
40
0
40
0
40
0
40
0.125000000000002
40
0.125000000000002
40
0.250000000000004
40
0.250000000000004
40
0.375000000000004
40
0.375000000000004
40
0.500000000000004
40
0.500000000000004
40
0.625000000000003
40
0.625000000000003
40
0.750000000000003
40
0.750000000000003
40
0.812500000000002
40
0.812500000000002
40
0.875000000000002
40
0.875000000000002
40
0.937500000000001
40
0.937500000000001
40
1
40
1
40
1
40
1
41
1
10
33.3108438131122
20
0.712744126040917
30
0
41
1
10
33.3072519073284
20
0.713310171887912
30
0
41
1
10
33.3030864896891
20
0.714500420633669
30
0
41
1
10
33.2938727403778
20
0.717823129506058
30
0
41
1
10
33.2887775928809
20
0.719984763233782
30
0
41
1
10
33.2781378094073
20
0.725016600451511
30
0
41
1
10
33.2725609621268
20
0.727895943944134
30
0
41
1
10
33.2609293187844
20
0.734369118102279
30
0
41
1
10
33.2548190053798
20
0.738000009921649
30
0
41
1
10
33.2425237282543
20
0.745807239964535
30
0
41
1
10
33.2363087847442
20
0.749995456866884
30
0
41
1
10
33.2237544128248
20
0.759051061637507
30
0
41
1
10
33.2173317934925
20
0.763987044909754
30
0
41
1
10
33.2080178054213
20
0.771759513872837
30
0
41
1
10
33.2049616816083
20
0.774414030830371
30
0
41
1
10
33.1989649454903
20
0.77987410160523
30
0
41
1
10
33.1960034002099
20
0.782701755991638
30
0
41
1
10
33.1903922432643
20
0.788374271262256
30
0
41
1
10
33.1877286788995
20
0.791229478110012
30
0
41
1
10
33.1827342045355
20
0.796984148466123
30
0
41
1
10
33.1804006865713
20
0.799891463718154
30
0
41
1
10
33.1783429451395
20
0.802726907090886
30
0
0
SPLINE
5
166
100
AcDbEntity
8
1
62
256
6
ByLayer
370
18
48
1
60
0
100
AcDbSpline
70
4
71
3
72
10
73
6
40
0
40
0
40
0
40
0
40
0.5
40
0.5
40
1
40
1
40
1
40
1
41
1
10
33.1783429451382
20
0.802726907090545
30
0
41
1
10
33.1490171406528
20
0.843136093929473
30
0
41
1
10
33.1198726086857
20
0.885465810585487
30
0
41
1
10
33.062071735489
20
0.973303750930938
30
0
41
1
10
33.0334096259344
20
1.01883632490831
30
0
41
1
10
33.0049623299787
20
1.06546154520166
30
0
0
SPLINE
5
167
100
AcDbEntity
8
1
62
256
6
ByLayer
370
18
48
1
60
0
100
AcDbSpline
70
4
71
3
72
8
73
4
40
0
40
0
40
0
40
0
40
1
40
1
40
1
40
1
41
1
10
32.9643796676958
20
1.09571122495754
30
0
41
1
10
32.9779173483372
20
1.08576622732923
30
0
41
1
10
32.9914545626212
20
1.07568967650172
30
0
41
1
10
33.0049623299789
20
1.06546154520154
30
0
0
SPLINE
5
168
100
AcDbEntity
8
1
62
256
6
ByLayer
370
18
48
1
60
0
100
AcDbSpline
70
4
71
3
72
12
73
8
40
0
40
0
40
0
40
0
40
0.249999999999994
40
0.249999999999994
40
0.499999999999989
40
0.499999999999989
40
1
40
1
40
1
40
1
41
1
10
32.9643796676968
20
1.09571122495038
30
0
41
1
10
32.9494823267609
20
1.09346006515801
30
0
41
1
10
32.9345278718619
20
1.09039679705614
30
0
41
1
10
32.904437984877
20
1.08250175675369
30
0
41
1
10
32.8892959965362
20
1.07767545373682
30
0
41
1
10
32.8436923761054
20
1.06078933102728
30
0
41
1
10
32.8130536846448
20
1.04633313249937
30
0
41
1
10
32.7821919037279
20
1.02866140946779
30
0
0
SPLINE
5
169
100
AcDbEntity
8
1
62
256
6
ByLayer
370
18
48
1
60
0
100
AcDbSpline
70
4
71
3
72
26
73
22
40
0
40
0
40
0
40
0
40
0.12499999999998
40
0.12499999999998
40
0.249999999999959
40
0.249999999999959
40
0.374999999999938
40
0.374999999999938
40
0.499999999999918
40
0.499999999999918
40
0.624999999999898
40
0.624999999999898
40
0.749999999999877
40
0.749999999999877
40
0.812499999999908
40
0.812499999999908
40
0.874999999999938
40
0.874999999999938
40
0.937499999999969
40
0.937499999999969
40
1
40
1
40
1
40
1
41
1
10
32.7821919037275
20
1.02866140946827
30
0
41
1
10
32.7786016003693
20
1.02660557067156
30
0
41
1
10
32.7744373979499
20
1.02531011840887
30
0
41
1
10
32.7652246109525
20
1.02387300493098
30
0
41
1
10
32.7601291356258
20
1.02374866974699
30
0
41
1
10
32.7494872637204
20
1.02455056666918
30
0
41
1
10
32.7439087419108
20
1.02546652857995
30
0
41
1
10
32.7322727332735
20
1.02830118568102
30
0
41
1
10
32.7261600002374
20
1.03024612347039
30
0
41
1
10
32.713861259643
20
1.03509977794977
30
0
41
1
10
32.7076447993329
20
1.03800672638616
30
0
41
1
10
32.6950897070271
20
1.04493724302219
30
0
41
1
10
32.688668590023
20
1.04902185462973
30
0
41
1
10
32.6793597907115
20
1.05598990038962
30
0
41
1
10
32.6763055648337
20
1.05845359669527
30
0
41
1
10
32.6703126832494
20
1.06371000352067
30
0
41
1
10
32.6673532129137
20
1.06652596409975
30
0
41
1
10
32.6617456696641
20
1.07238647722724
30
0
41
1
10
32.6590834631239
20
1.0754394662892
30
0
41
1
10
32.6540906671603
20
1.08183294227555
30
0
41
1
10
32.6517577927283
20
1.08518436520782
30
0
41
1
10
32.6497004299396
20
1.08859511536178
30
0
0
SPLINE
5
16A
100
AcDbEntity
8
1
62
256
6
ByLayer
370
18
48
1
60
0
100
AcDbSpline
70
4
71
3
72
10
73
6
40
0
40
0
40
0
40
0
40
0.5
40
0.5
40
1
40
1
40
1
40
1
41
1
10
32.6497004299382
20
1.08859511536281
30
0
41
1
10
32.6203997890634
20
1.13717048861773
30
0
41
1
10
32.5912769132067
20
1.18666248119069
30
0
41
1
10
32.5334437294969
20
1.28675159342623
30
0
41
1
10
32.5047387341499
20
1.33739261269975
30
0
41
1
10
32.4762986214753
20
1.388419398575
30
0
0
SPLINE
5
16B
100
AcDbEntity
8
1
62
256
6
ByLayer
370
18
48
1
60
0
100
AcDbSpline
70
4
71
3
72
10
73
6
40
0
40
0
40
0
40
0
40
0.5
40
0.5
40
1
40
1
40
1
40
1
41
1
10
32.4354607768379
20
1.40637117422625
30
0
41
1
10
32.405711356552
20
1.37980624287186
30
0
41
1
10
32.3756917748336
20
1.35025811211901
30
0
41
1
10
32.3150405563738
20
1.2854095766848
30
0
41
1
10
32.2844544404463
20
1.25017621826137
30
0
41
1
10
32.2536318587773
20
1.21230676721095
30
0
0
SPLINE
5
16C
100
AcDbEntity
8
1
62
256
6
ByLayer
370
18
48
1
60
0
100
AcDbSpline
70
4
71
3
72
26
73
22
40
0
40
0
40
0
40
0
40
0.124999999999979
40
0.124999999999979
40
0.249999999999958
40
0.249999999999958
40
0.374999999999937
40
0.374999999999937
40
0.499999999999916
40
0.499999999999916
40
0.624999999999895
40
0.624999999999895
40
0.749999999999874
40
0.749999999999874
40
0.812499999999905
40
0.812499999999905
40
0.874999999999937
40
0.874999999999937
40
0.937499999999968
40
0.937499999999968
40
1
40
1
40
1
40
1
41
1
10
32.253631858777
20
1.21230676721106
30
0
41
1
10
32.2500498311176
20
1.20790579189477
30
0
41
1
10
32.2458954209437
20
1.20430163161961
30
0
41
1
10
32.2367022222463
20
1.19830731870351
30
0
41
1
10
32.2316161547955
20
1.19592005176264
30
0
41
1
10
32.2209894491578
20
1.1923999519874
30
0
41
1
10
32.2154173368252
20
1.19123901522732
30
0
41
1
10
32.2037898559853
20
1.19007741089627
30
0
41
1
10
32.1976788227227
20
1.19008870363768
30
0
41
1
10
32.1853799107341
20
1.19136882291943
30
0
41
1
10
32.1791614000167
20
1.19262224934761
30
0
41
1
10
32.1665970013468
20
1.19653994548867
30
0
41
1
10
32.1601678978284
20
1.199250875991
30
0
41
1
10
32.1508506370662
20
1.20452307572347
30
0
41
1
10
32.1477936587738
20
1.20648059950813
30
0
41
1
10
32.1417957483773
20
1.21086035369572
30
0
41
1
10
32.1388345501051
20
1.21330390162456
30
0
41
1
10
32.1332276750165
20
1.21859839907395
30
0
41
1
10
32.1305666853719
20
1.22145561212116
30
0
41
1
10
32.1255779118025
20
1.22766130713336
30
0
41
1
10
32.1232487672908
20
1.23102154174504
30
0
41
1
10
32.1211952278243
20
1.23456276083266
30
0
0
SPLINE
5
16D
100
AcDbEntity
8
1
62
256
6
ByLayer
370
18
48
1
60
0
100
AcDbSpline
70
4
71
3
72
10
73
6
40
0
40
0
40
0
40
0
40
0.5
40
0.5
40
1
40
1
40
1
40
1
41
1
10
32.1211952278229
20
1.23456276083505
30
0
41
1
10
32.0918825948674
20
1.28511083017347
30
0
41
1
10
32.0627499627569
20
1.33551695876272
30
0
41
1
10
32.0049573082247
20
1.43551277286301
30
0
41
1
10
31.9762793211635
20
1.48512890637349
30
0
41
1
10
31.9478401383203
20
1.5341582766784
30
0
0
SPLINE
5
16E
100
AcDbEntity
8
1
62
256
6
ByLayer
370
18
48
1
60
0
100
AcDbSpline
70
4
71
3
72
10
73
6
40
0
40
0
40
0
40
0
40
0.5
40
0.5
40
1
40
1
40
1
40
1
41
1
10
31.9073719436162
20
1.53735145072693
30
0
41
1
10
31.8775235834267
20
1.4921322888348
30
0
41
1
10
31.847415158013
20
1.44476197602194
30
0
41
1
10
31.7866458621395
20
1.34601230735808
30
0
41
1
10
31.7560208400826
20
1.29468879321533
30
0
41
1
10
31.7251656023518
20
1.24159054362124
30
0
0
SPLINE
5
16F
100
AcDbEntity
8
1
62
256
6
ByLayer
370
18
48
1
60
0
100
AcDbSpline
70
4
71
3
72
26
73
22
40
0
40
0
40
0
40
0
40
0.12499999999998
40
0.12499999999998
40
0.24999999999996
40
0.24999999999996
40
0.374999999999939
40
0.374999999999939
40
0.499999999999919
40
0.499999999999919
40
0.624999999999899
40
0.624999999999899
40
0.749999999999879
40
0.749999999999879
40
0.812499999999909
40
0.812499999999909
40
0.874999999999939
40
0.874999999999939
40
0.93749999999997
40
0.93749999999997
40
1
40
1
40
1
40
1
41
1
10
31.7251656023515
20
1.2415905436211
30
0
41
1
10
31.7215727563467
20
1.23540767653131
30
0
41
1
10
31.7174057755658
20
1.22996788711458
30
0
41
1
10
31.7081882096567
20
1.22021975348605
30
0
41
1
10
31.7030906444043
20
1.2159005871705
30
0
41
1
10
31.6924463205343
20
1.2085663513175
30
0
41
1
10
31.6868673736219
20
1.20550878551512
30
0
41
1
10
31.6752321035449
20
1.20056477520421
30
0
41
1
10
31.6691205585315
20
1.19867458766419
30
0
41
1
10
31.6568242791254
20
1.19627995264003
30
0
41
1
10
31.6506091759804
20
1.19574897332609
30
0
41
1
10
31.6380562420243
20
1.1962035346792
30
0
41
1
10
31.6316357134469
20
1.19721439088292
30
0
41
1
10
31.6223270835111
20
1.20014244231004
30
0
41
1
10
31.6192728738378
20
1.20135103731914
30
0
41
1
10
31.613280161959
20
1.20430683012813
30
0
41
1
10
31.6103207843693
20
1.20607126094205
30
0
41
1
10
31.6047137063254
20
1.21013816330981
30
0
41
1
10
31.6020520622004
20
1.2124419508128
30
0
41
1
10
31.5970609891256
20
1.2176830087829
30
0
41
1
10
31.5947287024477
20
1.22063423421977
30
0
41
1
10
31.5926716707471
20
1.22386792016343
30
0
0
SPLINE
5
170
100
AcDbEntity
8
1
62
256
6
ByLayer
370
18
48
1
60
0
100
AcDbSpline
70
4
71
3
72
12
73
8
40
0
40
0
40
0
40
0
40
0.499999999999985
40
0.499999999999985
40
0.749999999999993
40
0.749999999999993
40
1
40
1
40
1
40
1
41
1
10
31.5926716707458
20
1.22386792016638
30
0
41
1
10
31.5633353816999
20
1.26998502449189
30
0
41
1
10
31.5341821885955
20
1.31487461673541
30
0
41
1
10
31.4908306607953
20
1.38002665910122
30
0
41
1
10
31.4764320530603
20
1.40139085961323
30
0
41
1
10
31.4477673487806
20
1.44341340733394
30
0
41
1
10
31.4334907920052
20
1.46410251841192
30
0
41
1
10
31.4192615856961
20
1.48446658484687
30
0
0
SPLINE
5
171
100
AcDbEntity
8
1
62
256
6
ByLayer
370
18
48
1
60
0
100
AcDbSpline
70
4
71
3
72
8
73
4
40
0
40
0
40
0
40
0
40
1
40
1
40
1
40
1
41
1
10
31.3782580007248
20
1.47245968375867
30
0
41
1
10
31.3919371849739
20
1.47665172455987
30
0
41
1
10
31.4056160460457
20
1.4806513148007
30
0
41
1
10
31.4192615856967
20
1.4844665848463
30
0
0
SPLINE
5
172
100
AcDbEntity
8
1
62
256
6
ByLayer
370
18
48
1
60
0
100
AcDbSpline
70
4
71
3
72
10
73
6
40
0
40
0
40
0
40
0
40
0.5
40
0.5
40
1
40
1
40
1
40
1
41
1
10
31.3782580007254
20
1.47245968375242
30
0
41
1
10
31.348472830762
20
1.41442189561556
30
0
41
1
10
31.3184451419422
20
1.35522607752614
30
0
41
1
10
31.2578178033942
20
1.23486660846498
30
0
41
1
10
31.2272537645445
20
1.17377096094799
30
0
41
1
10
31.1964454992673
20
1.11203404931871
30
0
0
SPLINE
5
173
100
AcDbEntity
8
1
62
256
6
ByLayer
370
18
48
1
60
0
100
AcDbSpline
70
4
71
3
72
26
73
22
40
0
40
0
40
0
40
0
40
0.124999999999979
40
0.124999999999979
40
0.249999999999959
40
0.249999999999959
40
0.374999999999938
40
0.374999999999938
40
0.499999999999918
40
0.499999999999918
40
0.624999999999897
40
0.624999999999897
40
0.749999999999876
40
0.749999999999876
40
0.812499999999907
40
0.812499999999907
40
0.874999999999938
40
0.874999999999938
40
0.937499999999969
40
0.937499999999969
40
1
40
1
40
1
40
1
41
1
10
31.1964454992671
20
1.11203404931842
30
0
41
1
10
31.1928652099364
20
1.10485948093458
30
0
41
1
10
31.1887137434108
20
1.09826456747712
30
0
41
1
10
31.1795286559482
20
1.08596308642748
30
0
41
1
10
31.1744482095816
20
1.08023215980845
30
0
41
1
10
31.1638329031734
20
1.06994712045665
30
0
41
1
10
31.1582665662669
20
1.06534216670192
30
0
41
1
10
31.1466499639985
20
1.05716248002631
30
0
41
1
10
31.140543327494
20
1.05356786809125
30
0
41
1
10
31.1282482561641
20
1.04772413703321
30
0
41
1
10
31.1220306644082
20
1.0454406588691
30
0
41
1
10
31.1094654625998
20
1.0423169465106
30
0
41
1
10
31.1030329248306
20
1.04147755586681
30
0
41
1
10
31.0937023569544
20
1.0416726377851
30
0
41
1
10
31.0906409313769
20
1.04197590684817
30
0
41
1
10
31.0846342738464
20
1.04313232660573
30
0
41
1
10
31.0816680718301
20
1.04399624110326
30
0
41
1
10
31.0760505488354
20
1.04632537485088
30
0
41
1
10
31.0733848595222
20
1.04778801731615
30
0
41
1
10
31.068388128409
20
1.05141017212546
30
0
41
1
10
31.0660553373905
20
1.0535813965968
30
0
41
1
10
31.0639992592506
20
1.05609729601565
30
0
0
SPLINE
5
174
100
AcDbEntity
8
1
62
256
6
ByLayer
370
18
48
1
60
0
100
AcDbSpline
70
4
71
3
72
10
73
6
40
0
40
0
40
0
40
0
40
0.5
40
0.5
40
1
40
1
40
1
40
1
41
1
10
31.0639992592492
20
1.05609729601946
30
0
41
1
10
31.0346532113958
20
1.09200629350269
30
0
41
1
10
31.005475482296
20
1.12583773649004
30
0
41
1
10
30.9476060839995
20
1.18898124762325
30
0
41
1
10
30.9189058739122
20
1.21831854689506
30
0
41
1
10
30.8904683440085
20
1.24538759661749
30
0
0
SPLINE
5
175
100
AcDbEntity
8
1
62
256
6
ByLayer
370
18
48
1
60
0
100
AcDbSpline
70
4
71
3
72
8
73
4
40
0
40
0
40
0
40
0
40
1
40
1
40
1
40
1
41
1
10
30.8497856438305
20
1.21978387104397
30
0
41
1
10
30.8633685594131
20
1.22846812611283
30
0
41
1
10
30.8769211727219
20
1.23700767199884
30
0
41
1
10
30.8904683440085
20
1.2453875966176
30
0
0
SPLINE
5
176
100
AcDbEntity
8
1
62
256
6
ByLayer
370
18
48
1
60
0
100
AcDbSpline
70
4
71
3
72
10
73
6
40
0
40
0
40
0
40
0
40
0.763758986137298
40
0.763758986137298
40
1
40
1
40
1
40
1
41
1
10
30.8497856438305
20
1.21978387104403
30
0
41
1
10
30.8200671143891
20
1.15640075430423
30
0
41
1
10
30.7900499280252
20
1.09303718865584
30
0
41
1
10
30.7503336143886
20
1.0103754141798
30
0
41
1
10
30.7409256620693
20
0.990875804591752
30
0
41
1
10
30.731493493255
20
0.971412926970743
30
0
0
SPLINE
5
177
100
AcDbEntity
8
1
62
256
6
ByLayer
370
18
48
1
60
0
100
AcDbSpline
70
4
71
3
72
12
73
8
40
0
40
0
40
0
40
0
40
0.25
40
0.25
40
0.500000000000001
40
0.500000000000001
40
1
40
1
40
1
40
1
41
1
10
29.7310958575052
20
1.2483415096282
30
0
41
1
10
29.745889086093
20
1.27337792434153
30
0
41
1
10
29.7606031561496
20
1.2982102796785
30
0
41
1
10
29.7899234099244
20
1.34752832261074
30
0
41
1
10
29.8045258493564
20
1.37200556560131
30
0
41
1
10
29.8481825310102
20
1.4448509582956
30
0
41
1
10
29.8769578368751
20
1.49241911007829
30
0
41
1
10
29.9055131464442
20
1.53900717080373
30
0
0
SPLINE
5
178
100
AcDbEntity
8
1
62
256
6
ByLayer
370
18
48
1
60
0
100
AcDbSpline
70
4
71
3
72
12
73
8
40
0
40
0
40
0
40
0
40
0.409331712252494
40
0.409331712252494
40
0.704665856126247
40
0.704665856126247
40
1
40
1
40
1
40
1
41
1
10
29.9735205035101
20
1.48988807837912
30
0
41
1
10
29.9941293562255
20
1.45435890737903
30
0
41
1
10
30.0148786887046
20
1.41805812260884
30
0
41
1
10
30.0508703373464
20
1.35431789423387
30
0
41
1
10
30.0660261926255
20
1.32724477015606
30
0
41
1
10
30.096492865311
20
1.27242294359689
30
0
41
1
10
30.111798880547
20
1.2446862222688
30
0
41
1
10
30.1271761813289
20
1.2166517211185
30
0
0
SPLINE
5
179
100
AcDbEntity
8
1
62
256
6
ByLayer
370
18
48
1
60
0
100
AcDbSpline
70
4
71
3
72
26
73
22
40
0
40
0
40
0
40
0
40
0.125
40
0.125
40
0.25
40
0.25
40
0.375
40
0.375
40
0.5
40
0.5
40
0.625
40
0.625
40
0.75
40
0.75
40
0.8125
40
0.8125
40
0.875
40
0.875
40
0.9375
40
0.9375
40
1
40
1
40
1
40
1
41
1
10
30.1271761813289
20
1.2166517211185
30
0
41
1
10
30.1308443469743
20
1.20996425395745
30
0
41
1
10
30.1351073882492
20
1.20403252932843
30
0
41
1
10
30.1445289663551
20
1.19329380358332
30
0
41
1
10
30.1497414772474
20
1.18846963249027
30
0
41
1
10
30.1605881046829
20
1.1801626123096
30
0
41
1
10
30.166256624507
20
1.17663115556633
30
0
41
1
10
30.1780398608319
20
1.17074127029633
30
0
41
1
10
30.1841972078475
20
1.16838163958335
30
0
41
1
10
30.1965167689759
20
1.16505341181974
30
0
41
1
10
30.2027234455006
20
1.16405228626905
30
0
41
1
10
30.2152153153148
20
1.16353285302091
30
0
41
1
10
30.2215485578526
20
1.16403539660712
30
0
41
1
10
30.2306599027926
20
1.16614150113099
30
0
41
1
10
30.2336468927945
20
1.16706792250162
30
0
41
1
10
30.2395017421979
20
1.16943568639502
30
0
41
1
10
30.24238470383
20
1.17088942668048
30
0
41
1
10
30.2478398384281
20
1.17431279202358
30
0
41
1
10
30.2504298867412
20
1.17628572653536
30
0
41
1
10
30.2552904649822
20
1.18083873165207
30
0
41
1
10
30.2575701064967
20
1.1834363726463
30
0
41
1
10
30.2595944821929
20
1.18632802917477
30
0
0
SPLINE
5
17A
100
AcDbEntity
8
1
62
256
6
ByLayer
370
18
48
1
60
0
100
AcDbSpline
70
4
71
3
72
12
73
8
40
0
40
0
40
0
40
0
40
0.25
40
0.25
40
0.5
40
0.5
40
1
40
1
40
1
40
1
41
1
10
30.2595944821928
20
1.18632802917494
30
0
41
1
10
30.2743841576576
20
1.20745388130405
30
0
41
1
10
30.2890870769256
20
1.22807103247052
30
0
41
1
10
30.3183814852829
20
1.26849331963715
30
0
41
1
10
30.3329717801578
20
1.28829358931364
30
0
41
1
10
30.3766054749788
20
1.34645862371977
30
0
41
1
10
30.4053828579206
20
1.38340782837497
30
0
41
1
10
30.4339384774383
20
1.41852113713128
30
0
0
SPLINE
5
17B
100
AcDbEntity
8
1
62
256
6
ByLayer
370
18
48
1
60
0
100
AcDbSpline
70
4
71
3
72
12
73
8
40
0
40
0
40
0
40
0
40
0.5
40
0.5
40
0.75
40
0.75
40
1
40
1
40
1
40
1
41
1
10
30.4748411509141
20
1.40130802780479
30
0
41
1
10
30.5043860250698
20
1.34185072705782
30
0
41
1
10
30.5342028136574
20
1.2818129186756
30
0
41
1
10
30.5794242170918
20
1.19114710459922
30
0
41
1
10
30.5945698305986
20
1.16084365970266
30
0
41
1
10
30.6250186665394
20
1.100140004053
30
0
41
1
10
30.6403174201718
20
1.06976418710241
30
0
41
1
10
30.6556895831488
20
1.03936891503562
30
0
0
SPLINE
5
17C
100
AcDbEntity
8
1
62
256
6
ByLayer
370
18
48
1
60
0
100
AcDbSpline
70
4
71
3
72
26
73
22
40
0
40
0
40
0
40
0
40
0.12499999999998
40
0.12499999999998
40
0.24999999999996
40
0.24999999999996
40
0.37499999999994
40
0.37499999999994
40
0.49999999999992
40
0.49999999999992
40
0.6249999999999
40
0.6249999999999
40
0.749999999999879
40
0.749999999999879
40
0.81249999999991
40
0.81249999999991
40
0.87499999999994
40
0.87499999999994
40
0.93749999999997
40
0.93749999999997
40
1
40
1
40
1
40
1
41
1
10
30.6556895831488
20
1.03936891503562
30
0
41
1
10
30.6593587069664
20
1.03211398176117
30
0
41
1
10
30.6636237044308
20
1.02540070369284
30
0
41
1
10
30.673051078326
20
1.01278511222659
30
0
41
1
10
30.6782677867573
20
1.00685130800335
30
0
41
1
10
30.6891240857471
20
0.996128570720686
30
0
41
1
10
30.6947979559697
20
0.99128468599568
30
0
41
1
10
30.7065916907343
20
0.982564991317616
30
0
41
1
10
30.7127533910036
20
0.978676707555195
30
0
41
1
10
30.7250775562998
20
0.972172265297161
30
0
41
1
10
30.7312851749829
20
0.969513423003463
30
0
41
1
10
30.7437745566729
20
0.965508018266632
30
0
41
1
10
30.7501009449504
20
0.964167228853199
30
0
41
1
10
30.7592005150299
20
0.963466249252036
30
0
41
1
10
30.7621836739433
20
0.963446016838162
30
0
41
1
10
30.7680316251828
20
0.963894654053007
30
0
41
1
10
30.7709109299404
20
0.964370188880451
30
0
41
1
10
30.776359244889
20
0.965862387062458
30
0
41
1
10
30.7789465446095
20
0.96687715211317
30
0
41
1
10
30.7838029324415
20
0.969531575538923
30
0
41
1
10
30.786080845541
20
0.971184000206165
30
0
41
1
10
30.78810400975
20
0.973167992447003
30
0
0
SPLINE
5
17D
100
AcDbEntity
8
1
62
256
6
ByLayer
370
18
48
1
60
0
100
AcDbSpline
70
4
71
3
72
12
73
8
40
0
40
0
40
0
40
0
40
0.249999999999993
40
0.249999999999993
40
0.499999999999986
40
0.499999999999986
40
1
40
1
40
1
40
1
41
1
10
30.78810400975
20
0.973167992447372
30
0
41
1
10
30.8028984346519
20
0.987675971622508
30
0
41
1
10
30.8176108887017
20
1.00150171364768
30
0
41
1
10
30.8469183974964
20
1.02797576972466
30
0
41
1
10
30.8615108433834
20
1.04060421493486
30
0
41
1
10
30.9051433059185
20
1.07670854219757
30
0
41
1
10
30.9339090942014
20
1.09830102789906
30
0
41
1
10
30.9624528860921
20
1.11751057867596
30
0
0
SPLINE
5
17E
100
AcDbEntity
8
1
62
256
6
ByLayer
370
18
48
1
60
0
100
AcDbSpline
70
4
71
3
72
26
73
22
40
0
40
0
40
0
40
0
40
0.125
40
0.125
40
0.25
40
0.25
40
0.375
40
0.375
40
0.5
40
0.5
40
0.625
40
0.625
40
0.75
40
0.75
40
0.8125
40
0.8125
40
0.875
40
0.875
40
0.9375
40
0.9375
40
1
40
1
40
1
40
1
41
1
10
32.2412452238189
20
-0.115690880842806
30
0
41
1
10
32.2449229399417
20
-0.119367557660837
30
0
41
1
10
32.2491987400934
20
-0.123418111640831
30
0
41
1
10
32.2586486160375
20
-0.13206064403883
30
0
41
1
10
32.2638781015994
20
-0.136698369453626
30
0
41
1
10
32.2747565158648
20
-0.146115203562147
30
0
41
1
10
32.280439683373
20
-0.15092777619958
30
0
41
1
10
32.2922468892258
20
-0.160772134660476
30
0
41
1
10
32.2984109978137
20
-0.165836058663302
30
0
41
1
10
32.310732925722
20
-0.175866563045133
30
0
41
1
10
32.3169370162781
20
-0.180872312992648
30
0
41
1
10
32.3294153885702
20
-0.190894989744777
30
0
41
1
10
32.3357290456894
20
-0.195942538603987
30
0
41
1
10
32.3448079896721
20
-0.203194372907035
30
0
41
1
10
32.3477843953191
20
-0.205570692802979
30
0
41
1
10
32.3536192375629
20
-0.210232952363384
30
0
41
1
10
32.3564913221708
20
-0.212529846807882
30
0
41
1
10
32.3619255288904
20
-0.216888210110369
30
0
41
1
10
32.364506352777
20
-0.218964560152813
30
0
41
1
10
32.3693510616277
20
-0.222878637254979
30
0
41
1
10
32.3716238822933
20
-0.224723841185863
30
0
41
1
10
32.3736435584673
20
-0.226372320852334
30
0
0
SPLINE
5
17F
100
AcDbEntity
8
1
62
256
6
ByLayer
370
18
48
1
60
0
100
AcDbSpline
70
4
71
3
72
12
73
8
40
0
40
0
40
0
40
0
40
0.250000000000007
40
0.250000000000007
40
0.500000000000014
40
0.500000000000014
40
1
40
1
40
1
40
1
41
1
10
32.3736435584672
20
-0.226372320851795
30
0
41
1
10
32.3884577384823
20
-0.238463801082247
30
0
41
1
10
32.4031929452706
20
-0.251247314314611
30
0
41
1
10
32.4325421155733
20
-0.27807175371646
30
0
41
1
10
32.4471504664721
20
-0.292159015257567
30
0
41
1
10
32.490810723493
20
-0.336461279442375
30
0
41
1
10
32.519560316135
20
-0.368505308073395
30
0
41
1
10
32.5481018185985
20
-0.402665571153705
30
0
0
SPLINE
5
180
100
AcDbEntity
8
1
62
256
6
ByLayer
370
18
48
1
60
0
100
AcDbSpline
70
4
71
3
72
12
73
8
40
0
40
0
40
0
40
0
40
0.5
40
0.5
40
0.75
40
0.75
40
1
40
1
40
1
40
1
41
1
10
32.5887124667026
20
-0.443624183076963
30
0
41
1
10
32.6182634381258
20
-0.466695764970325
30
0
41
1
10
32.6480898241287
20
-0.486774878727544
30
0
41
1
10
32.6933568168303
20
-0.51214405549095
30
0
41
1
10
32.708522536185
20
-0.519804817404236
30
0
41
1
10
32.7390212979939
20
-0.533472906703508
30
0
41
1
10
32.754349602953
20
-0.539445109218718
30
0
41
1
10
32.7697522291518
20
-0.544634996628389
30
0
0
SPLINE
5
181
100
AcDbEntity
8
1
62
256
6
ByLayer
370
18
48
1
60
0
100
AcDbSpline
70
4
71
3
72
26
73
22
40
0
40
0
40
0
40
0
40
0.125
40
0.125
40
0.25
40
0.25
40
0.375
40
0.375
40
0.5
40
0.5
40
0.625
40
0.625
40
0.75
40
0.75
40
0.8125
40
0.8125
40
0.875
40
0.875
40
0.9375
40
0.9375
40
1
40
1
40
1
40
1
41
1
10
32.7697522291518
20
-0.544634996628389
30
0
41
1
10
32.7734328282089
20
-0.545875167912158
30
0
41
1
10
32.7777121379532
20
-0.547756186174894
30
0
41
1
10
32.7871693131096
20
-0.552454843380758
30
0
41
1
10
32.7924027921653
20
-0.555311350487528
30
0
41
1
10
32.8032885562631
20
-0.56164333921393
30
0
41
1
10
32.8089751070551
20
-0.565134495350634
30
0
41
1
10
32.8207882991605
20
-0.572751260336418
30
0
41
1
10
32.8269548422264
20
-0.57690838715385
30
0
41
1
10
32.8392797947781
20
-0.585621128916529
30
0
41
1
10
32.8454845936386
20
-0.590203794154803
30
0
41
1
10
32.8579616028683
20
-0.599906060335485
30
0
41
1
10
32.8642723381004
20
-0.60506242721479
30
0
41
1
10
32.8733453072467
20
-0.61295944327361
30
0
41
1
10
32.8763194785859
20
-0.615630782965354
30
0
41
1
10
32.8821494305005
20
-0.621066713028853
30
0
41
1
10
32.8850190791459
20
-0.623846542989753
30
0
41
1
10
32.8904490855934
20
-0.629356678635048
30
0
41
1
10
32.8930278875081
20
-0.632102831146227
30
0
41
1
10
32.8978689433307
20
-0.637574385231176
30
0
41
1
10
32.9001405190487
20
-0.64031371765131
30
0
41
1
10
32.9021596835431
20
-0.642963516945343
30
0
0
SPLINE
5
182
100
AcDbEntity
8
1
62
256
6
ByLayer
370
18
48
1
60
0
100
AcDbSpline
70
4
71
3
72
12
73
8
40
0
40
0
40
0
40
0
40
0.249999999999993
40
0.249999999999993
40
0.499999999999986
40
0.499999999999986
40
1
40
1
40
1
40
1
41
1
10
32.902159683543
20
-0.642963516944917
30
0
41
1
10
32.9169821723588
20
-0.66241543406727
30
0
41
1
10
32.9317246423635
20
-0.682394662226585
30
0
41
1
10
32.9610975226457
20
-0.72323892275395
30
0
41
1
10
32.9757231225101
20
-0.744132494037643
30
0
41
1
10
33.0194397068902
20
-0.808299614237797
30
0
41
1
10
33.0482150037756
20
-0.852879990591219
30
0
41
1
10
33.07676339788
20
-0.899022389902257
30
0
0
SPLINE
5
183
100
AcDbEntity
8
1
62
256
6
ByLayer
370
18
48
1
60
0
100
AcDbSpline
70
4
71
3
72
8
73
4
40
0
40
0
40
0
40
0
40
1
40
1
40
1
40
1
41
1
10
33.1175450297931
20
-0.933527979219093
30
0
41
1
10
33.103937309745
20
-0.922149211394327
30
0
41
1
10
33.0903445168875
20
-0.91064659527126
30
0
41
1
10
33.0767633978799
20
-0.8990223899022
30
0
0
SPLINE
5
184
100
AcDbEntity
8
1
62
256
6
ByLayer
370
18
48
1
60
0
100
AcDbSpline
70
4
71
3
72
12
73
8
40
0
40
0
40
0
40
0
40
0.5
40
0.5
40
0.75
40
0.75
40
1
40
1
40
1
40
1
41
1
10
33.1175450297931
20
-0.933527979219122
30
0
41
1
10
33.1470492230214
20
-0.935180575586372
30
0
41
1
10
33.1768341999692
20
-0.933621855702739
30
0
41
1
10
33.2220251976472
20
-0.926406678736612
30
0
41
1
10
33.2371632551678
20
-0.923193915605651
30
0
41
1
10
33.2676043454508
20
-0.915113991629909
30
0
41
1
10
33.2829030207254
20
-0.910220333485256
30
0
41
1
10
33.298275285971
20
-0.904556950042064
30
0
0
SPLINE
5
185
100
AcDbEntity
8
1
62
256
6
ByLayer
370
18
48
1
60
0
100
AcDbSpline
70
4
71
3
72
26
73
22
40
0
40
0
40
0
40
0
40
0.125
40
0.125
40
0.25
40
0.25
40
0.375
40
0.375
40
0.5
40
0.5
40
0.625000000000001
40
0.625000000000001
40
0.750000000000001
40
0.750000000000001
40
0.8125
40
0.8125
40
0.875
40
0.875
40
0.9375
40
0.9375
40
1
40
1
40
1
40
1
41
1
10
33.298275285971
20
-0.904556950042064
30
0
41
1
10
33.3019547015586
20
-0.903201395672824
30
0
41
1
10
33.3062327826361
20
-0.902672446509001
30
0
41
1
10
33.3156875188587
20
-0.902827845293757
30
0
41
1
10
33.3209200989182
20
-0.903538620358006
30
0
41
1
10
33.3318050463121
20
-0.905978259092421
30
0
41
1
10
33.3374915504282
20
-0.907703164613793
30
0
41
1
10
33.3493053165224
20
-0.912122887801871
30
0
41
1
10
33.3554721936575
20
-0.914844722855065
30
0
41
1
10
33.3677976549421
20
-0.921131479547626
30
0
41
1
10
33.374002886368
20
-0.924707911749579
30
0
41
1
10
33.3864814584168
20
-0.932853399292242
30
0
41
1
10
33.3927923216847
20
-0.937460570656611
30
0
41
1
10
33.4018654677815
20
-0.944991204181179
30
0
41
1
10
33.4048398056241
20
-0.947614853072139
30
0
41
1
10
33.4106703786792
20
-0.953125974437029
30
0
41
1
10
33.4135400749515
20
-0.956030401038021
30
0
41
1
10
33.4189696482026
20
-0.961979653693504
30
0
41
1
10
33.4215481635618
20
-0.965039896175199
30
0
41
1
10
33.4263884372133
20
-0.971359503238261
30
0
41
1
10
33.4286593268239
20
-0.974636857610989
30
0
41
1
10
33.430677832534
20
-0.977942821353196
30
0
0
SPLINE
5
186
100
AcDbEntity
8
1
62
256
6
ByLayer
370
18
48
1
60
0
100
AcDbSpline
70
4
71
3
72
12
73
8
40
0
40
0
40
0
40
0
40
0.250000000000007
40
0.250000000000007
40
0.500000000000015
40
0.500000000000015
40
1
40
1
40
1
40
1
41
1
10
33.430677832534
20
-0.977942821352883
30
0
41
1
10
33.4454966813021
20
-1.00221353630965
30
0
41
1
10
33.460234136493
20
-1.02677205343878
30
0
41
1
10
33.4895937586584
20
-1.07636836356761
30
0
41
1
10
33.5042116467173
20
-1.10141997556965
30
0
41
1
10
33.5479063287746
20
-1.17734493981041
30
0
41
1
10
33.5766758482951
20
-1.228743750988
30
0
41
1
10
33.6052042637718
20
-1.28081464556001
30
0
0
SPLINE
5
187
100
AcDbEntity
8
1
62
256
6
ByLayer
370
18
48
1
60
0
100
AcDbSpline
70
4
71
3
72
12
73
8
40
0
40
0
40
0
40
0
40
0.5
40
0.5
40
0.75
40
0.75
40
1
40
1
40
1
40
1
41
1
10
33.6457716632885
20
-1.30403583451164
30
0
41
1
10
33.6753064407868
20
-1.28404477665032
30
0
41
1
10
33.7051406293013
20
-1.26108527575298
30
0
41
1
10
33.7504109730535
20
-1.22230938533809
30
0
41
1
10
33.7655755538394
20
-1.20867392830522
30
0
41
1
10
33.796065127116
20
-1.17998046715442
30
0
41
1
10
33.8113860002068
20
-1.16490791652237
30
0
41
1
10
33.826780811551
20
-1.14916897063182
30
0
0
SPLINE
5
188
100
AcDbEntity
8
1
62
256
6
ByLayer
370
18
48
1
60
0
100
AcDbSpline
70
4
71
3
72
26
73
22
40
0
40
0
40
0
40
0
40
0.125
40
0.125
40
0.25
40
0.25
40
0.375
40
0.375
40
0.5
40
0.5
40
0.625
40
0.625
40
0.75
40
0.75
40
0.8125
40
0.8125
40
0.875
40
0.875
40
0.9375
40
0.9375
40
1
40
1
40
1
40
1
41
1
10
33.8267808115489
20
-1.14916897063688
30
0
41
1
10
33.8304659237384
20
-1.1454014817048
30
0
41
1
10
33.8347504903066
20
-1.14254456141623
30
0
41
1
10
33.8442174728374
20
-1.13816912908183
30
0
41
1
10
33.8494557648448
20
-1.13666255261458
30
0
41
1
10
33.8603485304541
20
-1.13493869723277
30
0
41
1
10
33.8660375242364
20
-1.13469795419181
30
0
41
1
10
33.8778543762262
20
-1.13539654802625
30
0
41
1
10
33.8840214858853
20
-1.13635526198024
30
0
41
1
10
33.8963460131687
20
-1.13944990725741
30
0
41
1
10
33.9025501884613
20
-1.14158043603925
30
0
41
1
10
33.9150248285547
20
-1.14716015317495
30
0
41
1
10
33.9213320241483
20
-1.15064441667101
30
0
41
1
10
33.9303983477513
20
-1.15686606677909
30
0
41
1
10
33.9333701985277
20
-1.1591128262481
30
0
41
1
10
33.939195256678
20
-1.16400569785992
30
0
41
1
10
33.9420621993866
20
-1.16666897563226
30
0
41
1
10
33.947486725894
20
-1.17230758527117
30
0
41
1
10
33.9500627302712
20
-1.17529511477386
30
0
41
1
10
33.9548982053324
20
-1.18166076103506
30
0
41
1
10
33.9571673168999
20
-1.1850594731402
30
0
41
1
10
33.9591849822368
20
-1.18860084394345
30
0
0
SPLINE
5
189
100
AcDbEntity
8
1
62
256
6
ByLayer
370
18
48
1
60
0
100
AcDbSpline
70
4
71
3
72
10
73
6
40
0
40
0
40
0
40
0
40
0.5
40
0.5
40
1
40
1
40
1
40
1
41
1
10
33.9591849822368
20
-1.18860084394333
30
0
41
1
10
33.9830857473781
20
-1.23055104762716
30
0
41
1
10
34.006782008839
20
-1.27251149513745
30
0
41
1
10
34.0538949655125
20
-1.3563956608194
30
0
41
1
10
34.0772837311471
20
-1.39828534877665
30
0
41
1
10
34.1004580882321
20
-1.43991421931449
30
0
0
SPLINE
5
18A
100
AcDbEntity
8
1
62
256
6
ByLayer
370
18
48
1
60
0
100
AcDbSpline
70
4
71
3
72
8
73
4
40
0
40
0
40
0
40
0
40
1
40
1
40
1
40
1
41
1
10
34.1004580882318
20
-1.43991421931494
30
0
41
1
10
34.1459386831724
20
-1.43664752756166
30
0
41
1
10
34.1917599600351
20
-1.43072814390629
30
0
41
1
10
34.2383132685892
20
-1.42189076454528
30
0
0
SPLINE
5
18B
100
AcDbEntity
8
1
62
256
6
ByLayer
370
18
48
1
60
0
100
AcDbSpline
70
4
71
3
72
10
73
6
40
0
40
0
40
0
40
0
40
0.5
40
0.5
40
1
40
1
40
1
40
1
41
1
10
34.2383132685892
20
-1.42189076454528
30
0
41
1
10
34.2575510281274
20
-1.39475228730546
30
0
41
1
10
34.2769231517963
20
-1.36668453638634
30
0
41
1
10
34.3159221842015
20
-1.30880649194154
30
0
41
1
10
34.3355548086614
20
-1.27897780979353
30
0
41
1
10
34.3553087321608
20
-1.24835923557586
30
0
0
SPLINE
5
18C
100
AcDbEntity
8
1
62
256
6
ByLayer
370
18
48
1
60
0
100
AcDbSpline
70
4
71
3
72
8
73
4
40
0
40
0
40
0
40
0
40
1
40
1
40
1
40
1
41
1
10
29.6166693715164
20
-1.38910413486411
30
0
41
1
10
29.6302431661336
20
-1.39519787829172
30
0
41
1
10
29.6437901345059
20
-1.4011121032932
30
0
41
1
10
29.6573158855274
20
-1.40684541267845
30
0
0
SPLINE
5
18D
100
AcDbEntity
8
1
62
256
6
ByLayer
370
13
48
1
60
0
100
AcDbSpline
70
4
71
3
72
8
73
4
40
0
40
0
40
0
40
0
40
1
40
1
40
1
40
1
41
1
10
34.366526669124
20
-1.24378301211431
30
0
41
1
10
34.3627873681222
20
-1.24945055989508
30
0
41
1
10
34.3590480754518
20
-1.25098058578831
30
0
41
1
10
34.3553087321609
20
-1.24835923557586
30
0
0
SPLINE
5
18E
100
AcDbEntity
8
1
62
256
6
ByLayer
370
18
48
1
60
0
100
AcDbSpline
70
4
71
3
72
8
73
4
40
0
40
0
40
0
40
0
40
1
40
1
40
1
40
1
41
1
10
28.902022135638
20
1.54034873260917
30
0
41
1
10
28.9051959273776
20
1.54032768308571
30
0
41
1
10
28.9084128811337
20
1.53654645219589
30
0
41
1
10
28.9116638549331
20
1.52890457354081
30
0
0
SPLINE
5
18F
100
AcDbEntity
8
1
62
256
6
ByLayer
370
18
48
1
60
0
100
AcDbSpline
70
4
71
3
72
8
73
4
40
0
40
0
40
0
40
0
40
1
40
1
40
1
40
1
41
1
10
31.1904744459213
20
-1.54036053756121
30
0
41
1
10
31.186717936698
20
-1.54037588356499
30
0
41
1
10
31.18301199939
20
-1.53526259433673
30
0
41
1
10
31.179308888678
20
-1.52500208954507
30
0
0
SPLINE
5
190
100
AcDbEntity
8
1
62
256
6
ByLayer
370
18
48
1
60
0
100
AcDbSpline
70
4
71
3
72
10
73
6
40
0
40
0
40
0
40
0
40
0.671332262062751
40
0.671332262062751
40
1
40
1
40
1
40
1
41
1
10
28.9526655065022
20
1.52312918976608
30
0
41
1
10
28.9500194506803
20
1.53073707142994
30
0
41
1
10
28.9473686262959
20
1.53586418388642
30
0
41
1
10
28.9433859821898
20
1.53969112138384
30
0
41
1
10
28.9420721897389
20
1.54032996167499
30
0
41
1
10
28.9407674102592
20
1.54034731038769
30
0
0
SPLINE
5
191
100
AcDbEntity
8
1
62
256
6
ByLayer
370
18
48
1
60
0
100
AcDbSpline
70
4
71
3
72
12
73
8
40
0
40
0
40
0
40
0
40
0.298320961071952
40
0.298320961071952
40
0.596641922143903
40
0.596641922143903
40
1
40
1
40
1
40
1
41
1
10
31.1386615284352
20
-1.51846749783741
30
0
41
1
10
31.1399968610265
20
-1.52276678294183
30
0
41
1
10
31.1413384288816
20
-1.52644685328963
30
0
41
1
10
31.1440432680525
20
-1.53254732204809
30
0
41
1
10
31.1454096737758
20
-1.53497098505005
30
0
41
1
10
31.1486113995384
20
-1.53912178423931
30
0
41
1
10
31.1504441436998
20
-1.54031802690724
30
0
41
1
10
31.1522663709078
20
-1.54034803079043
30
0
0
SPLINE
5
192
100
AcDbEntity
8
1
62
256
6
ByLayer
370
18
48
1
60
0
100
AcDbSpline
70
4
71
3
72
16
73
12
40
0
40
0
40
0
40
0
40
0.0462680468715799
40
0.0462680468715799
40
0.165484541012632
40
0.165484541012632
40
0.284701035153685
40
0.284701035153685
40
0.52313402343579
40
0.52313402343579
40
1
40
1
40
1
40
1
41
1
10
32.4021155996522
20
1.54034936482375
30
0
41
1
10
32.4026309884055
20
1.54033889712213
30
0
41
1
10
32.4031466325533
20
1.54023258046263
30
0
41
1
10
32.4049919981956
20
1.5395093422745
30
0
41
1
10
32.4063229963772
20
1.53834575292387
30
0
41
1
10
32.4089919270363
20
1.53470739415653
30
0
41
1
10
32.4103267698113
20
1.53223305360632
30
0
41
1
10
32.4143063789695
20
1.52293266435407
30
0
41
1
10
32.416942801079
20
1.51421769881978
30
0
41
1
10
32.4248618011679
20
1.48070731125151
30
0
41
1
10
32.4301175685268
20
1.44860776476497
30
0
41
1
10
32.4354607768378
20
1.40637117422619
30
0
0
SPLINE
5
193
100
AcDbEntity
8
1
62
256
6
ByLayer
370
18
48
1
60
0
100
AcDbSpline
70
4
71
3
72
16
73
12
40
0
40
0
40
0
40
0
40
0.222726211145022
40
0.222726211145022
40
0.334089316717532
40
0.334089316717532
40
0.445452422290041
40
0.445452422290041
40
0.890904844580082
40
0.890904844580082
40
1
40
1
40
1
40
1
41
1
10
32.4762986214753
20
1.38841939857505
30
0
41
1
10
32.4736145189183
20
1.41053931701606
30
0
41
1
10
32.4709205201257
20
1.43040335025154
30
0
41
1
10
32.4668792593266
20
1.45673798995716
30
0
41
1
10
32.4655293054249
20
1.46495262325584
30
0
41
1
10
32.4628400230456
20
1.4801335147944
30
0
41
1
10
32.4615063252772
20
1.48707043382629
30
0
41
1
10
32.4548849137362
20
1.51855388522625
30
0
41
1
10
32.4497559038862
20
1.53359085095622
30
0
41
1
10
32.4432836077919
20
1.53976071203078
30
0
41
1
10
32.4420050655136
20
1.54036424582441
30
0
41
1
10
32.4407156131315
20
1.54034732971022
30
0
0
SPLINE
5
194
100
AcDbEntity
8
1
62
256
6
ByLayer
370
18
48
1
60
0
100
AcDbSpline
70
4
71
3
72
12
73
8
40
0
40
0
40
0
40
0
40
0.172516863573076
40
0.172516863573076
40
0.586258431786538
40
0.586258431786538
40
1
40
1
40
1
40
1
41
1
10
29.4019774955444
20
1.54034745361022
30
0
41
1
10
29.4041776783752
20
1.54038624304971
30
0
41
1
10
29.4063656696432
20
1.53863763616471
30
0
41
1
10
29.4138119261361
20
1.5267439160572
30
0
41
1
10
29.419051175235
20
1.50835319380585
30
0
41
1
10
29.4298251568082
20
1.45074543173666
30
0
41
1
10
29.4352592810306
20
1.412488947187
30
0
41
1
10
29.4406549548355
20
1.36518880044656
30
0
0
SPLINE
5
195
100
AcDbEntity
8
1
62
256
6
ByLayer
370
18
48
1
60
0
100
AcDbSpline
70
4
71
3
72
17
73
13
40
0
40
0
40
0
40
0
40
0.196061078244122
40
0.196061078244122
40
0.392122156488245
40
0.588183234732367
40
0.588183234732367
40
0.686213773854428
40
0.686213773854428
40
0.784244312976488
40
0.784244312976488
40
1
40
1
40
1
40
1
41
1
10
29.4812113360498
20
1.34507505469682
30
0
41
1
10
29.478547612555
20
1.37027036852777
30
0
41
1
10
29.4759088648501
20
1.39302355987849
30
0
41
1
10
29.4706460861491
20
1.43367925911488
30
0
41
1
10
29.465398233113
20
1.46953090170552
30
0
41
1
10
29.460141495043
20
1.49583666036858
30
0
41
1
10
29.4561560436393
20
1.51190225414203
30
0
41
1
10
29.4548171855295
20
1.5166543431761
30
0
41
1
10
29.4521283639387
20
1.52486547345245
30
0
41
1
10
29.450781727954
20
1.5283135215048
30
0
41
1
10
29.4464659871048
20
1.53728841705498
30
0
41
1
10
29.4434994176951
20
1.54036782492889
30
0
41
1
10
29.4405439146602
20
1.54036625905604
30
0
0
SPLINE
5
196
100
AcDbEntity
8
1
62
256
6
ByLayer
370
18
48
1
60
0
100
AcDbSpline
70
4
71
3
72
20
73
16
40
0
40
0
40
0
40
0
40
0.0046634012162678
40
0.0046634012162678
40
0.17055283434689
40
0.17055283434689
40
0.336442267477512
40
0.336442267477512
40
0.668221133738756
40
0.668221133738756
40
0.751165850304067
40
0.751165850304067
40
0.834110566869379
40
0.834110566869379
40
1
40
1
40
1
40
1
41
1
10
30.6986364468711
20
-1.53225049586916
30
0
41
1
10
30.698562877892
20
-1.53239772977076
30
0
41
1
10
30.6984893218242
20
-1.53254299192707
30
0
41
1
10
30.69579964975
20
-1.53778351706032
30
0
41
1
10
30.693195556295
20
-1.54036801957508
30
0
41
1
10
30.6879518900023
20
-1.54032708837482
30
0
41
1
10
30.6853558140166
20
-1.53770272911575
30
0
41
1
10
30.6775106020867
20
-1.52229270835872
30
0
41
1
10
30.6722075828531
20
-1.50204364876498
30
0
41
1
10
30.6655360561192
20
-1.46402771409075
30
0
41
1
10
30.6641948495727
20
-1.455759143553
30
0
41
1
10
30.6615202299006
20
-1.43803337410773
30
0
41
1
10
30.6601888661178
20
-1.42859528456793
30
0
41
1
10
30.656206307946
20
-1.39858941727641
30
0
41
1
10
30.6535692600661
20
-1.37633411511305
30
0
41
1
10
30.6509373580034
20
-1.35186539166858
30
0
0
SPLINE
5
197
100
AcDbEntity
8
1
62
256
6
ByLayer
370
18
48
1
60
0
100
AcDbSpline
70
4
71
3
72
16
73
12
40
0
40
0
40
0
40
0
40
0.377980311548058
40
0.377980311548058
40
0.566970467322087
40
0.566970467322087
40
0.661465545209103
40
0.661465545209103
40
0.755960623096118
40
0.755960623096118
40
1
40
1
40
1
40
1
41
1
10
30.6102133951138
20
-1.33103410973621
30
0
41
1
10
30.615451344087
20
-1.38289212237717
30
0
41
1
10
30.6207819527504
20
-1.42520335436129
30
0
41
1
10
30.6288352364607
20
-1.47465552791843
30
0
41
1
10
30.6315215000319
20
-1.48878670057476
30
0
41
1
10
30.6355488458858
20
-1.50633027175647
30
0
41
1
10
30.6368835563549
20
-1.51153297287502
30
0
41
1
10
30.6395290505986
20
-1.52062749033885
30
0
41
1
10
30.6408416325542
20
-1.52452718324525
30
0
41
1
10
30.6455160609029
20
-1.53621183549984
30
0
41
1
10
30.6488259533939
20
-1.54041782482992
30
0
41
1
10
30.6521556960754
20
-1.54036316079072
30
0
0
SPLINE
5
198
100
AcDbEntity
8
1
62
256
6
ByLayer
370
18
48
1
60
0
100
AcDbSpline
70
4
71
3
72
19
73
15
40
0
40
0
40
0
40
0
40
0.288219812078527
40
0.288219812078527
40
0.377192335568711
40
0.377192335568711
40
0.466164859058895
40
0.466164859058895
40
0.644109906039264
40
0.822054953019632
40
0.822054953019632
40
0.911027476509816
40
0.911027476509816
40
1
40
1
40
1
40
1
41
1
10
33.6907752436029
20
-1.5403547424155
30
0
41
1
10
33.6865167060678
20
-1.54040647476123
30
0
41
1
10
33.6822662669215
20
-1.53379146070168
30
0
41
1
10
33.6766361818845
20
-1.51628593719613
30
0
41
1
10
33.6752987947667
20
-1.51149276938594
30
0
41
1
10
33.672618865692
20
-1.5006414723361
30
0
41
1
10
33.6712798521638
20
-1.49460129063854
30
0
41
1
10
33.6672504790301
20
-1.47467429125555
30
0
41
1
10
33.6618497522821
20
-1.44329672545854
30
0
41
1
10
33.6564686373102
20
-1.40246870470995
30
0
41
1
10
33.652447490484
20
-1.36825963475749
30
0
41
1
10
33.6511093340382
20
-1.35625750845313
30
0
41
1
10
33.6484358804014
20
-1.33103392189318
30
0
41
1
10
33.6470972189152
20
-1.31777547150202
30
0
41
1
10
33.6457716632846
20
-1.30403583451692
30
0
0
SPLINE
5
199
100
AcDbEntity
8
1
62
256
6
ByLayer
370
18
48
1
60
0
100
AcDbSpline
70
4
71
3
72
18
73
14
40
0
40
0
40
0
40
0
40
0.170130860217248
40
0.170130860217248
40
0.255196290325872
40
0.255196290325872
40
0.340261720434496
40
0.340261720434496
40
0.680523440868991
40
0.680523440868991
40
0.850654301086238
40
0.850654301086238
40
1
40
1
40
1
40
1
41
1
10
33.6052042637718
20
-1.28081464555998
30
0
41
1
10
33.6078506871733
20
-1.30921638054718
30
0
41
1
10
33.61049768397
20
-1.33551328507448
30
0
41
1
10
33.6144743640605
20
-1.37174929942114
30
0
41
1
10
33.6158012140321
20
-1.38329208768303
30
0
41
1
10
33.6184616754843
20
-1.40528459902106
30
0
41
1
10
33.6197940856185
20
-1.41572022408965
30
0
41
1
10
33.6264135013749
20
-1.46458132432286
30
0
41
1
10
33.6316508843274
20
-1.49365609627785
30
0
41
1
10
33.6395928631631
20
-1.52254010681082
30
0
41
1
10
33.6422553358381
20
-1.52969536796635
30
0
41
1
10
33.6473449979283
20
-1.53832167882052
30
0
41
1
10
33.6497352321344
20
-1.54032172894122
30
0
41
1
10
33.6521217404853
20
-1.54034753828566
30
0
0
SPLINE
5
19A
100
AcDbEntity
8
1
62
256
6
ByLayer
370
18
48
1
60
0
100
AcDbSpline
70
4
71
3
72
25
73
21
40
0
40
0
40
0
40
0
40
0.0624999999999997
40
0.0624999999999997
40
0.125
40
0.125
40
0.25
40
0.375
40
0.375
40
0.4375
40
0.4375
40
0.5
40
0.5
40
0.75
40
0.75
40
0.875
40
0.875
40
0.9375
40
0.9375
40
1
40
1
40
1
40
1
41
1
10
33.0049623299786
20
1.06546154520154
30
0
41
1
10
33.0036283813184
20
1.08407962178069
30
0
41
1
10
33.0022840222121
20
1.102361241739
30
0
41
1
10
32.9996089405338
20
1.1377926305274
30
0
41
1
10
32.9982763436607
20
1.15497118891614
30
0
41
1
10
32.9942914306701
20
1.20492480595357
30
0
41
1
10
32.9890142423544
20
1.26731852802769
30
0
41
1
10
32.9837436365491
20
1.32140634827161
30
0
41
1
10
32.9797772365174
20
1.35880812233614
30
0
41
1
10
32.9784526116034
20
1.37074705825694
30
0
41
1
10
32.9757925222461
20
1.39354770215823
30
0
41
1
10
32.9744570234864
20
1.40440503834716
30
0
41
1
10
32.9678087475242
20
1.45538277995612
30
0
41
1
10
32.9624577215125
20
1.48620925490582
30
0
41
1
10
32.9543829119498
20
1.51783367789955
30
0
41
1
10
32.9516923061796
20
1.52592142328513
30
0
41
1
10
32.9476582390785
20
1.53424352015907
30
0
41
1
10
32.9463210322869
20
1.53636413984674
30
0
41
1
10
32.943670092022
20
1.53930250843709
30
0
41
1
10
32.9423544567069
20
1.54012424606702
30
0
41
1
10
32.9410460283562
20
1.54030799050523
30
0
0
SPLINE
5
19B
100
AcDbEntity
8
1
62
256
6
ByLayer
370
18
48
1
60
0
100
AcDbSpline
70
4
71
3
72
42
73
38
40
0
40
0
40
0
40
0
40
0.0433547042956245
40
0.0433547042956245
40
0.189452086344842
40
0.189452086344842
40
0.225976431857139
40
0.225976431857139
40
0.262500777369437
40
0.262500777369437
40
0.335549468394046
40
0.335549468394046
40
0.408598159418655
40
0.408598159418655
40
0.44512250493096
40
0.44512250493096
40
0.481646850443264
40
0.481646850443264
40
0.518171195955569
40
0.518171195955569
40
0.554695541467873
40
0.554695541467873
40
0.591219886980178
40
0.591219886980178
40
0.627744232492482
40
0.627744232492482
40
0.700792923517091
40
0.700792923517091
40
0.7738416145417
40
0.7738416145417
40
0.846890305566309
40
0.846890305566309
40
0.919938996590918
40
0.919938996590918
40
0.992987687615527
40
0.992987687615527
40
1
40
1
40
1
40
1
41
1
10
21.1199924292718
20
-1.13499725317064
30
0
41
1
10
21.1026595879211
20
-1.13497907235919
30
0
41
1
10
21.0851653620896
20
-1.13480884999331
30
0
41
1
10
21.0079647257722
20
-1.13349354389408
30
0
41
1
10
20.9464806911747
20
-1.13099024860085
30
0
41
1
10
20.8664442784857
20
-1.12717179814857
30
0
41
1
10
20.8502446779
20
-1.12637280601194
30
0
41
1
10
20.8176735991051
20
-1.12474871784161
30
0
41
1
10
20.8013144970404
20
-1.12392459211677
30
0
41
1
10
20.752013403605
20
-1.12146172706062
30
0
41
1
10
20.7188454414181
20
-1.11983413466243
30
0
41
1
10
20.6518231639191
20
-1.11687648972131
30
0
41
1
10
20.617969378086
20
-1.11554661722101
30
0
41
1
10
20.5665888654036
20
-1.11397081958396
30
0
41
1
10
20.5493620349621
20
-1.11351509718344
30
0
41
1
10
20.514685477941
20
-1.11277749785842
30
0
41
1
10
20.4971892161647
20
-1.11249524584548
30
0
41
1
10
20.4621615256727
20
-1.11214006063628
30
0
41
1
10
20.4447154320019
20
-1.11206414667066
30
0
41
1
10
20.4099959043015
20
-1.11217495180941
30
0
41
1
10
20.3927164711727
20
-1.11235242335556
30
0
41
1
10
20.3582779103519
20
-1.11288364830128
30
0
41
1
10
20.3411181238796
20
-1.11323616745796
30
0
41
1
10
20.3068774482901
20
-1.1140453181774
30
0
41
1
10
20.2897994852374
20
-1.11450648160923
30
0
41
1
10
20.2386987614207
20
-1.11604977590432
30
0
41
1
10
20.2048084635895
20
-1.11729360747367
30
0
41
1
10
20.1374272915139
20
-1.12011881270797
30
0
41
1
10
20.1038045678888
20
-1.12170867676167
30
0
41
1
10
20.0382120184753
20
-1.12499812862595
30
0
41
1
10
20.0061362714682
20
-1.12670246313687
30
0
41
1
10
19.9436559482999
20
-1.12993832037597
30
0
41
1
10
19.9132364785297
20
-1.13147402988281
30
0
41
1
10
19.8545974021239
20
-1.13391820497802
30
0
41
1
10
19.8269006669327
20
-1.13480612588543
30
0
41
1
10
19.7989721397935
20
-1.13498855944712
30
0
41
1
10
19.7965400302276
20
-1.13499771955475
30
0
41
1
10
19.7941252466886
20
-1.13499966443385
30
0
0
SPLINE
5
19C
100
AcDbEntity
8
1
62
256
6
ByLayer
370
18
48
1
60
0
100
AcDbSpline
70
4
71
3
72
8
73
4
40
0
40
0
40
0
40
0
40
1
40
1
40
1
40
1
41
1
10
20.4944640770321
20
1.13500075908712
30
0
41
1
10
20.5027228356865
20
1.13500014118992
30
0
41
1
10
20.5109792157465
20
1.1349126144797
30
0
41
1
10
20.5192332206281
20
1.13473773196535
30
0
0
SPLINE
5
19D
100
AcDbEntity
8
1
62
256
6
ByLayer
370
18
48
1
60
0
100
AcDbSpline
70
4
71
3
72
25
73
21
40
0
40
0
40
0
40
0
40
0.0624999999999999
40
0.0624999999999999
40
0.125
40
0.125
40
0.249999999999999
40
0.374999999999998
40
0.374999999999998
40
0.437499999999998
40
0.437499999999998
40
0.499999999999998
40
0.499999999999998
40
0.749999999999999
40
0.749999999999999
40
0.874999999999999
40
0.874999999999999
40
0.9375
40
0.9375
40
1
40
1
40
1
40
1
41
1
10
29.905513146444
20
1.53900717080353
30
0
41
1
10
29.906807113086
20
1.53793495827503
30
0
41
1
10
29.9081092651229
20
1.53620998053003
30
0
41
1
10
29.9107177977246
20
1.53147103019316
30
0
41
1
10
29.9120223200608
20
1.52846568957421
30
0
41
1
10
29.9159482710909
20
1.51757991288824
30
0
41
1
10
29.921203834552
20
1.49808870249851
30
0
41
1
10
29.9264769476871
20
1.46881283827059
30
0
41
1
10
29.9304521715724
20
1.44314064937592
30
0
41
1
10
29.9317808841831
20
1.43396291224764
30
0
41
1
10
29.9344509128429
20
1.41434490434992
30
0
41
1
10
29.9357960338614
20
1.40387555261498
30
0
41
1
10
29.9424855773843
20
1.34888332174626
30
0
41
1
10
29.9477394815113
20
1.2962735488959
30
0
41
1
10
29.9556408545545
20
1.20479103964513
30
0
41
1
10
29.9582876269612
20
1.17218702648842
30
0
41
1
10
29.9622888896324
20
1.12001709250205
30
0
41
1
10
29.9636267417597
20
1.10208478447811
30
0
41
1
10
29.9662830852953
20
1.06553529070084
30
0
41
1
10
29.9676053847971
20
1.04686928353635
30
0
41
1
10
29.9689236986092
20
1.02781845096783
30
0
0
SPLINE
5
19E
100
AcDbEntity
8
1
62
256
6
ByLayer
370
13
48
1
60
0
100
AcDbSpline
70
4
71
3
72
9
73
5
40
0
40
0
40
0
40
0
40
0.154784279915371
40
1
40
1
40
1
40
1
41
1
10
34.7154053613478
20
0.287159457446904
30
0
41
1
10
34.7150033310264
20
0.293299726338006
30
0
41
1
10
34.7124059723047
20
0.332898446702671
30
0
41
1
10
34.7098086142052
20
0.372008239926885
30
0
41
1
10
34.7076132882804
20
0.404607010760884
30
0
0
SPLINE
5
19F
100
AcDbEntity
8
1
62
256
6
ByLayer
370
18
48
1
60
0
100
AcDbSpline
70
4
71
3
72
32
73
28
40
0
40
0
40
0
40
0
40
0.124999999999837
40
0.124999999999837
40
0.187499999999755
40
0.187499999999755
40
0.249999999999674
40
0.249999999999674
40
0.28124999999965
40
0.28124999999965
40
0.296874999999663
40
0.296874999999663
40
0.312499999999675
40
0.312499999999675
40
0.328124999999688
40
0.328124999999688
40
0.343749999999701
40
0.343749999999701
40
0.374999999999726
40
0.374999999999726
40
0.437499999999753
40
0.437499999999753
40
0.49999999999978
40
0.624999999999835
40
0.624999999999835
40
0.74999999999989
40
1
40
1
40
1
40
1
41
1
10
34.7154053613478
20
0.28715945744699
30
0
41
1
10
34.7166131653114
20
0.279132139076296
30
0
41
1
10
34.717914265545
20
0.271115389268118
30
0
41
1
10
34.7202002435863
20
0.25913415871463
30
0
41
1
10
34.7210183891794
20
0.255144955936174
30
0
41
1
10
34.72287923658
20
0.24720917217428
30
0
41
1
10
34.7238904299184
20
0.243281514949729
30
0
41
1
10
34.7258827515034
20
0.237615045458256
30
0
41
1
10
34.7266157719277
20
0.235728709820933
30
0
41
1
10
34.7281418942064
20
0.233195649645296
30
0
41
1
10
34.728723763624
20
0.232408324391798
30
0
41
1
10
34.7301141116512
20
0.231447934277469
30
0
41
1
10
34.7309260437443
20
0.231419214572043
30
0
41
1
10
34.7322126525172
20
0.232200203988327
30
0
41
1
10
34.73272605267
20
0.232883568035334
30
0
41
1
10
34.733605690867
20
0.234365315909798
30
0
41
1
10
34.7339789466837
20
0.235190765087253
30
0
41
1
10
34.7349792017001
20
0.237722753493841
30
0
41
1
10
34.7355041730603
20
0.239518056302188
30
0
41
1
10
34.7369180975052
20
0.245020926711391
30
0
41
1
10
34.7376304238031
20
0.248836880629426
30
0
41
1
10
34.7388883103057
20
0.256495044503396
30
0
41
1
10
34.7404950630158
20
0.268091575112294
30
0
41
1
10
34.7416529561764
20
0.279838324389488
30
0
41
1
10
34.7430154413272
20
0.295519489174609
30
0
41
1
10
34.7447656715957
20
0.319068927865828
30
0
41
1
10
34.7459927619751
20
0.342561605742276
30
0
41
1
10
34.7466908555904
20
0.358154232139839
30
0
0
SPLINE
5
1A0
100
AcDbEntity
8
1
62
256
6
ByLayer
370
18
48
1
60
0
100
AcDbSpline
70
4
71
3
72
8
73
4
40
0
40
0
40
0
40
0
40
1
40
1
40
1
40
1
41
1
10
34.6945313389645
20
0.425694575032168
30
0
41
1
10
34.7014216002798
20
0.380020151010911
30
0
41
1
10
34.7083810069257
20
0.33384478966758
30
0
41
1
10
34.7154053613478
20
0.287159457446904
30
0
0
SPLINE
5
1A1
100
AcDbEntity
8
1
62
256
6
ByLayer
370
18
48
1
60
0
100
AcDbSpline
70
4
71
3
72
26
73
22
40
0
40
0
40
0
40
0
40
0.0624999999999996
40
0.0624999999999996
40
0.124999999999999
40
0.124999999999999
40
0.25
40
0.25
40
0.375
40
0.375
40
0.4375
40
0.4375
40
0.5
40
0.5
40
0.750000000000001
40
0.750000000000001
40
0.812500000000001
40
0.812500000000001
40
0.875000000000001
40
0.875000000000001
40
1
40
1
40
1
40
1
41
1
10
33.4289668120765
20
1.45293679270299
30
0
41
1
10
33.4302913278605
20
1.44434445761377
30
0
41
1
10
33.4316244953425
20
1.43510967425075
30
0
41
1
10
33.4342791296378
20
1.41555368762513
30
0
41
1
10
33.4356042656634
20
1.40520941351821
30
0
41
1
10
33.4395731766898
20
1.37250495164136
30
0
41
1
10
33.4422095080302
20
1.34847716964396
30
0
41
1
10
33.4474861780092
20
1.2960152810486
30
0
41
1
10
33.4501296204425
20
1.26758136852894
30
0
41
1
10
33.4541244656172
20
1.22155933296898
30
0
41
1
10
33.455460446502
20
1.20565573785214
30
0
41
1
10
33.4581445029237
20
1.17269823871743
30
0
41
1
10
33.4594821766112
20
1.15577184502129
30
0
41
1
10
33.4661535604038
20
1.06905018186296
30
0
41
1
10
33.4714746219631
20
0.992943148566695
30
0
41
1
10
33.4782656956883
20
0.889505431412431
30
0
41
1
10
33.4796270469992
20
0.868398653362419
30
0
41
1
10
33.4823528979565
20
0.825333166654787
30
0
41
1
10
33.4837208605333
20
0.803317242317888
30
0
41
1
10
33.4878017640136
20
0.736390144681394
30
0
41
1
10
33.4904788217514
20
0.690807221348592
30
0
41
1
10
33.4931217332842
20
0.644290438346417
30
0
0
SPLINE
5
1A2
100
AcDbEntity
8
1
62
256
6
ByLayer
370
18
48
1
60
0
100
AcDbSpline
70
4
71
3
72
21
73
17
40
0
40
0
40
0
40
0
40
0.249999999999999
40
0.249999999999999
40
0.312499999999999
40
0.312499999999999
40
0.374999999999999
40
0.374999999999999
40
0.499999999999999
40
0.624999999999999
40
0.624999999999999
40
0.6875
40
0.6875
40
0.75
40
0.75
40
1
40
1
40
1
40
1
41
1
10
33.5334716117025
20
0.606180823788492
30
0
41
1
10
33.5280728012328
20
0.700562127160822
30
0
41
1
10
33.5227100278977
20
0.790161094360627
30
0
41
1
10
33.5160676398594
20
0.896124143938579
30
0
41
1
10
33.5147410138386
20
0.917012097453664
30
0
41
1
10
33.5120868237972
20
0.958165289883084
30
0
41
1
10
33.5107682230537
20
0.978290636568829
30
0
41
1
10
33.5068380406611
20
1.03717758393083
30
0
41
1
10
33.5016586902994
20
1.1118740449603
30
0
41
1
10
33.4964500184403
20
1.17908696437462
30
0
41
1
10
33.4924604192945
20
1.22666438154565
30
0
41
1
10
33.491117845607
20
1.24205066236982
30
0
41
1
10
33.4884136328112
20
1.27186299206755
30
0
41
1
10
33.4870487579189
20
1.28632169194469
30
0
41
1
10
33.4802274350141
20
1.35576403821409
30
0
41
1
10
33.4748627251429
20
1.40169578248916
30
0
41
1
10
33.4695867660363
20
1.43833940937378
30
0
0
SPLINE
5
1A3
100
AcDbEntity
8
1
62
256
6
ByLayer
370
18
48
1
60
0
100
AcDbSpline
70
4
71
3
72
22
73
18
40
0
40
0
40
0
40
0
40
0.125
40
0.125
40
0.187499999999999
40
0.187499999999999
40
0.249999999999999
40
0.249999999999999
40
0.499999999999999
40
0.499999999999999
40
0.562499999999999
40
0.562499999999999
40
0.624999999999999
40
0.624999999999999
40
0.749999999999999
40
0.749999999999999
40
1
40
1
40
1
40
1
41
1
10
30.4339384774383
20
1.41852113713128
30
0
41
1
10
30.4365950653153
20
1.39862956894746
30
0
41
1
10
30.4392699453827
20
1.37639297728359
30
0
41
1
10
30.4433394627329
20
1.33945189766146
30
0
41
1
10
30.4447033231872
20
1.32653935770591
30
0
41
1
10
30.4474412794191
20
1.2994907417874
30
0
41
1
10
30.4488064436354
20
1.28544159360266
30
0
41
1
10
30.455586038867
20
1.21283102211331
30
0
41
1
10
30.460864699961
20
1.14703475894544
30
0
41
1
10
30.4673679401787
20
1.05528218748873
30
0
41
1
10
30.4686649985448
20
1.0364519247803
30
0
41
1
10
30.4712588974915
20
0.997817277307774
30
0
41
1
10
30.4725585578968
20
0.977968611366435
30
0
41
1
10
30.4764509900933
20
0.917239093550023
30
0
41
1
10
30.4790187974693
20
0.875466679577045
30
0
41
1
10
30.4867769567509
20
0.746422992564902
30
0
41
1
10
30.4920482917525
20
0.655463072169141
30
0
41
1
10
30.4973888622286
20
0.559454387872393
30
0
0
SPLINE
5
1A4
100
AcDbEntity
8
1
62
256
6
ByLayer
370
18
48
1
60
0
100
AcDbSpline
70
4
71
3
72
26
73
22
40
0
40
0
40
0
40
0
40
0.125000000000001
40
0.125000000000001
40
0.187500000000001
40
0.187500000000001
40
0.250000000000002
40
0.250000000000002
40
0.500000000000003
40
0.500000000000003
40
0.562500000000003
40
0.562500000000003
40
0.625000000000003
40
0.625000000000003
40
0.750000000000002
40
0.750000000000002
40
0.875000000000001
40
0.875000000000001
40
0.937500000000001
40
0.937500000000001
40
1
40
1
40
1
40
1
41
1
10
30.5383932504954
20
0.519036966968002
30
0
41
1
10
30.5357424858204
20
0.56714357613987
30
0
41
1
10
30.5330861883655
20
0.614530590167078
30
0
41
1
10
30.5290714699757
20
0.684495564207054
30
0
41
1
10
30.5277296269185
20
0.707590055593613
30
0
41
1
10
30.5250615102077
20
0.752894073131046
30
0
41
1
10
30.5237321257686
20
0.775166182214406
30
0
41
1
10
30.5171061002193
20
0.884657116608111
30
0
41
1
10
30.5118896709
20
0.966322848284193
30
0
41
1
10
30.5052613328694
20
1.06090506714386
30
0
41
1
10
30.5039290445507
20
1.07944300724668
30
0
41
1
10
30.5012524103199
20
1.1157453913863
30
0
41
1
10
30.4999188638385
20
1.13336321322802
30
0
41
1
10
30.4959345794557
20
1.18461100869507
30
0
41
1
10
30.4932997235018
20
1.21665720902311
30
0
41
1
10
30.4880465904925
20
1.27659793438909
30
0
41
1
10
30.4854271363229
20
1.30449228689423
30
0
41
1
10
30.4814742488976
20
1.343190968839
30
0
41
1
10
30.480153497815
20
1.35556579375444
30
0
41
1
10
30.4775037587382
20
1.37924932451398
30
0
41
1
10
30.4761714317227
20
1.39058454362171
30
0
41
1
10
30.4748411509142
20
1.4013080278047
30
0
0
SPLINE
5
1A5
100
AcDbEntity
8
1
62
256
6
ByLayer
370
18
48
1
60
0
100
AcDbSpline
70
4
71
3
72
22
73
18
40
0
40
0
40
0
40
0
40
0.125000000000001
40
0.125000000000001
40
0.187500000000001
40
0.187500000000001
40
0.250000000000002
40
0.250000000000002
40
0.500000000000001
40
0.500000000000001
40
0.625
40
0.625
40
0.687500000000001
40
0.687500000000001
40
0.750000000000001
40
0.750000000000001
40
1
40
1
40
1
40
1
41
1
10
29.6573158855274
20
-1.40684541267845
30
0
41
1
10
29.6546830448754
20
-1.38606850346329
30
0
41
1
10
29.6520589068616
20
-1.36300265641853
30
0
41
1
10
29.6480930217755
20
-1.32494122320128
30
0
41
1
10
29.646766263906
20
-1.31167592122554
30
0
41
1
10
29.6441039979251
20
-1.28397077518395
30
0
41
1
10
29.6427652079648
20
-1.26949366610623
30
0
41
1
10
29.6360867852235
20
-1.19455943161759
30
0
41
1
10
29.6308597021988
20
-1.12718219753617
30
0
41
1
10
29.6229403813167
20
-1.01536532939579
30
0
41
1
10
29.6202925036509
20
-0.976287562184524
30
0
41
1
10
29.6163038103338
20
-0.91488806887358
30
0
41
1
10
29.6149677869999
20
-0.893900936976394
30
0
41
1
10
29.6123128084178
20
-0.851410031735014
30
0
41
1
10
29.6109917802498
20
-0.82987663256975
30
0
41
1
10
29.6044051496627
20
-0.720796608273531
30
0
41
1
10
29.5991794618807
20
-0.62905304382727
30
0
41
1
10
29.5938948653626
20
-0.532827320551263
30
0
0
SPLINE
5
1A6
100
AcDbEntity
8
1
62
256
6
ByLayer
370
18
48
1
60
0
100
AcDbSpline
70
4
71
3
72
26
73
22
40
0
40
0
40
0
40
0
40
0.0625
40
0.0625
40
0.125
40
0.125
40
0.25
40
0.25
40
0.499999999999999
40
0.499999999999999
40
0.562499999999999
40
0.562499999999999
40
0.624999999999999
40
0.624999999999999
40
0.75
40
0.75
40
0.875000000000001
40
0.875000000000001
40
0.9375
40
0.9375
40
1
40
1
40
1
40
1
41
1
10
29.5529798606952
20
-0.49269115737934
30
0
41
1
10
29.554308650539
20
-0.516938097944973
30
0
41
1
10
29.5556420261562
20
-0.541037605948304
30
0
41
1
10
29.5583253062995
20
-0.588936112622548
30
0
41
1
10
29.5596783179398
20
-0.612785542248901
30
0
41
1
10
29.5637321769823
20
-0.683124273991496
30
0
41
1
10
29.5664349064282
20
-0.728612953232442
30
0
41
1
10
29.5744943373206
20
-0.86098713874901
30
0
41
1
10
29.5797864443268
20
-0.943822055566102
30
0
41
1
10
29.5863682935144
20
-1.04036526961207
30
0
41
1
10
29.5876829672409
20
-1.05929875595831
30
0
41
1
10
29.590288883475
20
-1.09603478270867
30
0
41
1
10
29.5915838078733
20
-1.11389175678312
30
0
41
1
10
29.5954577494818
20
-1.16595365397106
30
0
41
1
10
29.5980252112359
20
-1.19865319498356
30
0
41
1
10
29.6032178963102
20
-1.26007237011268
30
0
41
1
10
29.6058543543504
20
-1.2887917972634
30
0
41
1
10
29.6098837489293
20
-1.3288263983502
30
0
41
1
10
29.6112369560895
20
-1.34166297816455
30
0
41
1
10
29.6139583639551
20
-1.36629787608567
30
0
41
1
10
29.6153174018604
20
-1.37801237522751
30
0
41
1
10
29.6166693715164
20
-1.38910413486408
30
0
0
SPLINE
5
1A7
100
AcDbEntity
8
1
62
256
6
ByLayer
370
18
48
1
60
0
100
AcDbSpline
70
4
71
3
72
19
73
15
40
0
40
0
40
0
40
0
40
0.125000000000001
40
0.125000000000001
40
0.250000000000003
40
0.250000000000003
40
0.500000000000004
40
0.500000000000004
40
0.562500000000004
40
0.562500000000004
40
0.625000000000003
40
0.750000000000002
40
0.750000000000002
40
1
40
1
40
1
40
1
41
1
10
34.684437231188
20
0.439060932257576
30
0
41
1
10
34.6813758044374
20
0.406434351861321
30
0
41
1
10
34.6784027200234
20
0.372774389790891
30
0
41
1
10
34.6727184724597
20
0.304912304064402
30
0
41
1
10
34.6699971319779
20
0.270617690591053
30
0
41
1
10
34.6621483145407
20
0.166674890769116
30
0
41
1
10
34.657325080901
20
0.0959786679005106
30
0
41
1
10
34.651842066642
20
0.0057924767420161
30
0
41
1
10
34.6507718557906
20
-0.0123703141618705
30
0
41
1
10
34.6487114584895
20
-0.0485333906201504
30
0
41
1
10
34.6457341548538
20
-0.102641017758032
30
0
41
1
10
34.6431057542029
20
-0.156344026025749
30
0
41
1
10
34.6383517492003
20
-0.263214697763772
30
0
41
1
10
34.6358585290407
20
-0.333751954643219
30
0
41
1
10
34.6341121526416
20
-0.40354213542193
30
0
0
SPLINE
5
1A8
100
AcDbEntity
8
1
62
256
6
ByLayer
370
18
48
1
60
0
100
AcDbSpline
70
4
71
3
72
19
73
15
40
0
40
0
40
0
40
0
40
0.250000000000001
40
0.250000000000001
40
0.375000000000002
40
0.375000000000002
40
0.500000000000002
40
0.500000000000002
40
0.75
40
0.75
40
0.8125
40
0.8125
40
0.875000000000001
40
1
40
1
40
1
40
1
41
1
10
34.3920946237732
20
0.736607571569778
30
0
41
1
10
34.3985160503831
20
0.662473774426502
30
0
41
1
10
34.4046787452121
20
0.584372998711103
30
0
41
1
10
34.413755856821
20
0.4614159734071
30
0
41
1
10
34.4167578505529
20
0.419402413810104
30
0
41
1
10
34.422748709618
20
0.333587519684159
30
0
41
1
10
34.4256988663733
20
0.290394217240447
30
0
41
1
10
34.4344157323719
20
0.159987681181008
30
0
41
1
10
34.4400424834475
20
0.0719566391118462
30
0
41
1
10
34.4468771335463
20
-0.0394884224720329
30
0
41
1
10
34.4482371138971
20
-0.0618928431219956
30
0
41
1
10
34.4509265993291
20
-0.106619030774283
30
0
41
1
10
34.4549084295235
20
-0.173496783325646
30
0
41
1
10
34.4587622647947
20
-0.239739833346448
30
0
41
1
10
34.4612723303252
20
-0.283615542419881
30
0
0
SPLINE
5
1A9
100
AcDbEntity
8
1
62
256
6
ByLayer
370
18
48
1
60
0
100
AcDbSpline
70
4
71
3
72
22
73
18
40
0
40
0
40
0
40
0
40
0.250000000000001
40
0.250000000000001
40
0.375000000000003
40
0.375000000000003
40
0.437500000000003
40
0.437500000000003
40
0.500000000000003
40
0.500000000000003
40
0.750000000000002
40
0.750000000000002
40
0.812500000000002
40
0.812500000000002
40
0.875000000000001
40
0.875000000000001
40
1
40
1
40
1
40
1
41
1
10
32.6525206728398
20
-1.36702639824179
30
0
41
1
10
32.647074272304
20
-1.31933036489866
30
0
41
1
10
32.6417372678057
20
-1.26324490195273
30
0
41
1
10
32.6338589700153
20
-1.16699068699364
30
0
41
1
10
32.6312504215161
20
-1.13286966851356
30
0
41
1
10
32.6273247044642
20
-1.07855329731785
30
0
41
1
10
32.6260100439243
20
-1.05986972376718
30
0
41
1
10
32.6233906818463
20
-1.02179107817042
30
0
41
1
10
32.6220849601464
20
-1.00238514507407
30
0
41
1
10
32.6155483719221
20
-0.903557719422196
30
0
41
1
10
32.6102100271456
20
-0.818799506186707
30
0
41
1
10
32.6034478245657
20
-0.705731127841858
30
0
41
1
10
32.6020928732293
20
-0.682758010828934
30
0
41
1
10
32.5993798740336
20
-0.63607912792105
30
0
41
1
10
32.5980208689782
20
-0.612354053203347
30
0
41
1
10
32.593985100333
20
-0.540879684207681
30
0
41
1
10
32.5913351524281
20
-0.492572125954581
30
0
41
1
10
32.5887124666933
20
-0.443624183081482
30
0
0
SPLINE
5
1AA
100
AcDbEntity
8
1
62
256
6
ByLayer
370
18
48
1
60
0
100
AcDbSpline
70
4
71
3
72
22
73
18
40
0
40
0
40
0
40
0
40
0.250000000000002
40
0.250000000000002
40
0.312500000000002
40
0.312500000000002
40
0.375000000000002
40
0.375000000000002
40
0.500000000000002
40
0.500000000000002
40
0.750000000000002
40
0.750000000000002
40
0.812500000000001
40
0.812500000000001
40
0.875000000000001
40
0.875000000000001
40
1
40
1
40
1
40
1
41
1
10
32.5481018185985
20
-0.402665571153676
30
0
41
1
10
32.5533369320753
20
-0.501814740533831
30
0
41
1
10
32.5586078281121
20
-0.597275988191058
30
0
41
1
10
32.565241936715
20
-0.71200558497577
30
0
41
1
10
32.5665722386555
20
-0.734719458834093
30
0
41
1
10
32.5692448252841
20
-0.779674413366223
30
0
41
1
10
32.5705900900193
20
-0.801954734214576
30
0
41
1
10
32.5746065451857
20
-0.867356757455525
30
0
41
1
10
32.5772679604618
20
-0.909262955590293
30
0
41
1
10
32.5852166436375
20
-1.03003440583492
30
0
41
1
10
32.5904677326385
20
-1.10400178489547
30
0
41
1
10
32.5971638027115
20
-1.18798246895864
30
0
41
1
10
32.5985051190949
20
-1.20431285428143
30
0
41
1
10
32.6011683057617
20
-1.23576043245902
30
0
41
1
10
32.6024936411325
20
-1.25092145595156
30
0
41
1
10
32.6064550820306
20
-1.29474252138826
30
0
41
1
10
32.6090756303521
20
-1.32174461123631
30
0
41
1
10
32.6116989844577
20
-1.34655395821523
30
0
0
SPLINE
5
1AB
100
AcDbEntity
8
1
62
256
6
ByLayer
370
18
48
1
60
0
100
AcDbSpline
70
4
71
3
72
80
73
76
40
0
40
0
40
0
40
0
40
0.0312500000000084
40
0.0312500000000084
40
0.0625000000000169
40
0.0625000000000169
40
0.125000000000029
40
0.125000000000029
40
0.18750000000004
40
0.18750000000004
40
0.203125000000042
40
0.203125000000042
40
0.218750000000043
40
0.218750000000043
40
0.250000000000041
40
0.250000000000041
40
0.281250000000038
40
0.281250000000038
40
0.296875000000039
40
0.296875000000039
40
0.312500000000041
40
0.312500000000041
40
0.328125000000043
40
0.328125000000043
40
0.343750000000044
40
0.343750000000044
40
0.359375000000046
40
0.359375000000046
40
0.375000000000048
40
0.375000000000048
40
0.406250000000045
40
0.406250000000045
40
0.437500000000042
40
0.437500000000042
40
0.468750000000039
40
0.468750000000039
40
0.500000000000036
40
0.500000000000036
40
0.531250000000033
40
0.531250000000033
40
0.546875000000032
40
0.546875000000032
40
0.56250000000003
40
0.56250000000003
40
0.57031250000003
40
0.57031250000003
40
0.578125000000029
40
0.578125000000029
40
0.585937500000028
40
0.585937500000028
40
0.593750000000028
40
0.593750000000028
40
0.609375000000027
40
0.609375000000027
40
0.625000000000026
40
0.625000000000026
40
0.640625000000025
40
0.640625000000025
40
0.656250000000024
40
0.656250000000024
40
0.68750000000002
40
0.68750000000002
40
0.718750000000015
40
0.718750000000015
40
0.750000000000011
40
0.750000000000011
40
0.812500000000006
40
0.812500000000006
40
0.875000000000001
40
0.875000000000001
40
0.906250000000001
40
0.906250000000001
40
0.9375
40
0.9375
40
1
40
1
40
1
40
1
41
1
10
21.4044808585015
20
0.380591883814276
30
0
41
1
10
21.3777296829866
20
0.401610023966924
30
0
41
1
10
21.3508246588844
20
0.422073482513241
30
0
41
1
10
21.2963142925806
20
0.461378338711938
30
0
41
1
10
21.2686704457512
20
0.480165496949183
30
0
41
1
10
21.1846066440648
20
0.53413439143057
30
0
41
1
10
21.127032412765
20
0.566885051295088
30
0
41
1
10
21.0079647257723
20
0.625508909356597
30
0
41
1
10
20.9464806911748
20
0.651393373516385
30
0
41
1
10
20.8664442784858
20
0.678984343480693
30
0
41
1
10
20.8502446779002
20
0.684272464528249
30
0
41
1
10
20.8176735991052
20
0.694298007947793
30
0
41
1
10
20.8013144970404
20
0.699032072024067
30
0
41
1
10
20.7520134036051
20
0.712416084568929
30
0
41
1
10
20.7188454414181
20
0.720240859453128
30
0
41
1
10
20.6518231639191
20
0.73355325054996
30
0
41
1
10
20.6179693780861
20
0.739042932529543
30
0
41
1
10
20.5665888654037
20
0.745336914495937
30
0
41
1
10
20.5493620349621
20
0.747111222094389
30
0
41
1
10
20.5146854779411
20
0.749950379818472
30
0
41
1
10
20.4971892161648
20
0.751016957702916
30
0
41
1
10
20.4621615256728
20
0.752354802876397
30
0
41
1
10
20.4447154320021
20
0.752637790309109
30
0
41
1
10
20.4099959043016
20
0.752222544429742
30
0
41
1
10
20.3927164711728
20
0.751558323601387
30
0
41
1
10
20.3582779103521
20
0.749541782659662
30
0
41
1
10
20.3411181238798
20
0.748193054035681
30
0
41
1
10
20.3068774482902
20
0.745036792694776
30
0
41
1
10
20.2897994852375
20
0.743212684386918
30
0
41
1
10
20.2386987614208
20
0.736955529696047
30
0
41
1
10
20.2048084635896
20
0.731743590969927
30
0
41
1
10
20.137427291514
20
0.718872616729698
30
0
41
1
10
20.1038045678889
20
0.711171842161093
30
0
41
1
10
20.0382120184754
20
0.693084387093137
30
0
41
1
10
20.0061362714682
20
0.682691968444686
30
0
41
1
10
19.9436559482999
20
0.658593868019921
30
0
41
1
10
19.9132364785298
20
0.64491928962272
30
0
41
1
10
19.8545974021239
20
0.612970744088983
30
0
41
1
10
19.8269006669328
20
0.594973700785232
30
0
41
1
10
19.7886771449391
20
0.563991102172309
30
0
41
1
10
19.7763176720589
20
0.553092838028334
30
0
41
1
10
19.7532824464905
20
0.530071209013983
30
0
41
1
10
19.7425990308036
20
0.5178949972954
30
0
41
1
10
19.7286205871807
20
0.498025910919893
30
0
41
1
10
19.7242800494549
20
0.491083035229678
30
0
41
1
10
19.7166076653239
20
0.476782500260924
30
0
41
1
10
19.7132818191381
20
0.469449465492175
30
0
41
1
10
19.7077576436088
20
0.454377489474013
30
0
41
1
10
19.7055823565387
20
0.446631633851894
30
0
41
1
10
19.7022863234408
20
0.430745739754258
30
0
41
1
10
19.7011720763397
20
0.422583715398645
30
0
41
1
10
19.6993675294569
20
0.398159732142631
30
0
41
1
10
19.7001437529319
20
0.381749656023601
30
0
41
1
10
19.7047655060079
20
0.348669483798489
30
0
41
1
10
19.7085550730739
20
0.332388964427395
30
0
41
1
10
19.7182092080236
20
0.300306282305826
30
0
41
1
10
19.7240869633748
20
0.284476705396855
30
0
41
1
10
19.7374453987571
20
0.253112303883853
30
0
41
1
10
19.7449432867603
20
0.237566413657305
30
0
41
1
10
19.768917711461
20
0.192030778735301
30
0
41
1
10
19.7869681852286
20
0.162807442104452
30
0
41
1
10
19.8256375939492
20
0.10570725967537
30
0
41
1
10
19.8462818369704
20
0.0778454050870607
30
0
41
1
10
19.8894046240904
20
0.023036103554972
30
0
41
1
10
19.9116630601731
20
-0.0036121290084168
30
0
41
1
10
19.9797412539731
20
-0.081886911220181
30
0
41
1
10
20.0268655993987
20
-0.131938220349355
30
0
41
1
10
20.1229344371517
20
-0.229489271192676
30
0
41
1
10
20.171902334732
20
-0.276964012261743
30
0
41
1
10
20.2461700048099
20
-0.346798399530996
30
0
41
1
10
20.2710728563648
20
-0.369846341245221
30
0
41
1
10
20.3207902248104
20
-0.4152321383051
30
0
41
1
10
20.3456445088018
20
-0.437607529725028
30
0
41
1
10
20.4201501275079
20
-0.503828305888902
30
0
41
1
10
20.4697343837941
20
-0.546781054886821
30
0
41
1
10
20.5192332206282
20
-0.588498459936091
30
0
0
SPLINE
5
1AC
100
AcDbEntity
8
1
62
256
6
ByLayer
370
13
48
1
60
0
100
AcDbSpline
70
4
71
3
72
11
73
7
40
0
40
0
40
0
40
0
40
0.171079372738837
40
0.563635530149799
40
0.95619168756076
40
1
40
1
40
1
40
1
41
1
10
31.3166166759593
20
0.63636696149851
30
0
41
1
10
31.3198081391258
20
0.593296215693925
30
0
41
1
10
31.3303226846327
20
0.446364165033373
30
0
41
1
10
31.3481603060848
20
0.174107426326884
30
0
41
1
10
31.3636237024804
20
-0.0710119189735394
30
0
41
1
10
31.3717640229652
20
-0.197318407791414
30
0
41
1
10
31.3725812611712
20
-0.209965481265556
30
0
0
SPLINE
5
1AD
100
AcDbEntity
8
1
62
256
6
ByLayer
370
18
48
1
60
0
100
AcDbSpline
70
4
71
3
72
8
73
4
40
0
40
0
40
0
40
0
40
1
40
1
40
1
40
1
41
1
10
33.9545589967766
20
1.17836762475361
30
0
41
1
10
33.9586783756197
20
1.14122226046834
30
0
41
1
10
33.9628419421393
20
1.10143450947913
30
0
41
1
10
33.9669767757291
20
1.05891943451019
30
0
0
SPLINE
5
1AE
100
AcDbEntity
8
1
62
256
6
ByLayer
370
18
48
1
60
0
100
AcDbSpline
70
4
71
3
72
22
73
18
40
0
40
0
40
0
40
0
40
0.25
40
0.25
40
0.374999999999999
40
0.374999999999999
40
0.437499999999999
40
0.437499999999999
40
0.499999999999998
40
0.499999999999998
40
0.75
40
0.75
40
0.8125
40
0.8125
40
0.875
40
0.875
40
1
40
1
40
1
40
1
41
1
10
29.1285452993024
20
-1.09635446903923
30
0
41
1
10
29.1231661763158
20
-1.02411958977754
30
0
41
1
10
29.1179433049974
20
-0.945587439359741
30
0
41
1
10
29.1101633025672
20
-0.81854124302896
30
0
41
1
10
29.1075754559219
20
-0.774640062131454
30
0
41
1
10
29.1036448928498
20
-0.706380311428319
30
0
41
1
10
29.1023340701411
20
-0.6833598394349
30
0
41
1
10
29.0997092797624
20
-0.636967725059293
30
0
41
1
10
29.0983929596926
20
-0.613568467885131
30
0
41
1
10
29.0918003564944
20
-0.495570638777167
30
0
41
1
10
29.0865131482267
20
-0.397995984375484
30
0
41
1
10
29.0798506400415
20
-0.271995790723736
30
0
41
1
10
29.0785112974917
20
-0.246542829302342
30
0
41
1
10
29.0758315587865
20
-0.195446434884047
30
0
41
1
10
29.0744972704941
20
-0.169909566369313
30
0
41
1
10
29.0705099484113
20
-0.0933322987579004
30
0
41
1
10
29.0678732934531
20
-0.0423251110056526
30
0
41
1
10
29.0652447716817
20
0.0086378832117475
30
0
0
SPLINE
5
1AF
100
AcDbEntity
8
1
62
256
6
ByLayer
370
18
48
1
60
0
100
AcDbSpline
70
4
71
3
72
20
73
16
40
0
40
0
40
0
40
0
40
0.250000000000001
40
0.250000000000001
40
0.375000000000001
40
0.375000000000001
40
0.500000000000001
40
0.500000000000001
40
0.750000000000001
40
0.750000000000001
40
0.812500000000001
40
0.812500000000001
40
0.875
40
0.875
40
1
40
1
40
1
40
1
41
1
10
29.0246176621263
20
0.0509737609594367
30
0
41
1
10
29.0297896129927
20
-0.05176519167523
30
0
41
1
10
29.034919275767
20
-0.153514585221103
30
0
41
1
10
29.0428178496332
20
-0.304667610328465
30
0
41
1
10
29.0454696693851
20
-0.354810181170763
30
0
41
1
10
29.0508204966279
20
-0.454566942664314
30
0
41
1
10
29.0534749539532
20
-0.503338163906136
30
0
41
1
10
29.0614310280132
20
-0.64644424319971
30
0
41
1
10
29.0666954535663
20
-0.737603929474574
30
0
41
1
10
29.0733223389963
20
-0.846144679261016
30
0
41
1
10
29.0746547416512
20
-0.867634055488111
30
0
41
1
10
29.0773169538135
20
-0.909778718603377
30
0
41
1
10
29.0786448251831
20
-0.930393566796027
30
0
41
1
10
29.0826201548058
20
-0.990892722050489
30
0
41
1
10
29.0852573220065
20
-1.02943500012779
30
0
41
1
10
29.08788805909
20
-1.06621694717404
30
0
0
SPLINE
5
1B0
100
AcDbEntity
8
1
62
256
6
ByLayer
370
18
48
1
60
0
100
AcDbSpline
70
4
71
3
72
25
73
21
40
0
40
0
40
0
40
0
40
0.125
40
0.125
40
0.1875
40
0.1875
40
0.249999999999999
40
0.249999999999999
40
0.499999999999999
40
0.499999999999999
40
0.5625
40
0.5625
40
0.625
40
0.625
40
0.75
40
0.875
40
0.875
40
0.9375
40
0.9375
40
1
40
1
40
1
40
1
41
1
10
32.1240655482337
20
-1.0310815585093
30
0
41
1
10
32.1214167443994
20
-0.993070455930109
30
0
41
1
10
32.1187663392984
20
-0.953241660572331
30
0
41
1
10
32.1147676678847
20
-0.890679717350821
30
0
41
1
10
32.1134360289604
20
-0.869437388539808
30
0
41
1
10
32.1107861522174
20
-0.826461849250364
30
0
41
1
10
32.1094647307264
20
-0.804687272477821
30
0
41
1
10
32.1028662037064
20
-0.694402361280169
30
0
41
1
10
32.0976425873502
20
-0.60169636388261
30
0
41
1
10
32.0909798362324
20
-0.480146773289164
30
0
41
1
10
32.08963752568
20
-0.455517710532149
30
0
41
1
10
32.0869343023517
20
-0.405818540463201
30
0
41
1
10
32.0855811609769
20
-0.380890588639602
30
0
41
1
10
32.0815255197855
20
-0.305876123810719
30
0
41
1
10
32.0761299527529
20
-0.205242917802735
30
0
41
1
10
32.0708018756788
20
-0.103402940030122
30
0
41
1
10
32.0668248041278
20
-0.026565882339753
30
0
41
1
10
32.0655020369132
20
-0.0008772261466845
30
0
41
1
10
32.062858282593
20
0.0506550327774562
30
0
41
1
10
32.061533534209
20
0.0765725115637395
30
0
41
1
10
32.0602177663909
20
0.102349328042521
30
0
0
SPLINE
5
1B1
100
AcDbEntity
8
1
62
256
6
ByLayer
370
18
48
1
60
0
100
AcDbSpline
70
4
71
3
72
22
73
18
40
0
40
0
40
0
40
0
40
0.249999999999999
40
0.249999999999999
40
0.312499999999999
40
0.312499999999999
40
0.374999999999999
40
0.374999999999999
40
0.499999999999999
40
0.499999999999999
40
0.749999999999999
40
0.749999999999999
40
0.812499999999999
40
0.812499999999999
40
0.874999999999999
40
0.874999999999999
40
1
40
1
40
1
40
1
41
1
10
30.9624528860921
20
1.11751057867596
30
0
41
1
10
30.9677432355208
20
1.04689550262901
30
0
41
1
10
30.9730057905075
20
0.969606534885713
30
0
41
1
10
30.9796186146286
20
0.864650881323257
30
0
41
1
10
30.9809430541957
20
0.843238659936929
30
0
41
1
10
30.9836005298437
20
0.799556130126263
30
0
41
1
10
30.9849342110315
20
0.777272680991018
30
0
41
1
10
30.9889128856146
20
0.709888943714731
30
0
41
1
10
30.9915545211499
20
0.664011532454481
30
0
41
1
10
30.9994750920393
20
0.523589570966351
30
0
41
1
10
31.0047275432597
20
0.42628210655414
30
0
41
1
10
31.0115129001988
20
0.299867768085022
30
0
41
1
10
31.0128762912735
20
0.274461707466884
30
0
41
1
10
31.0155946340541
20
0.223688933542746
30
0
41
1
10
31.0169519248449
20
0.198278130056792
30
0
41
1
10
31.0210122454325
20
0.121973247445766
30
0
41
1
10
31.0237027553155
20
0.0710068205456196
30
0
41
1
10
31.0263728968346
20
0.019944386382889
30
0
0
SPLINE
5
1B2
100
AcDbEntity
8
1
62
256
6
ByLayer
370
13
48
1
60
0
100
AcDbSpline
70
4
71
3
72
10
73
6
40
0
40
0
40
0
40
0
40
0.148165528885073
40
0.931048390993093
40
1
40
1
40
1
40
1
41
1
10
31.8451374515868
20
0.218924908989777
30
0
41
1
10
31.8479093326411
20
0.176076220604301
30
0
41
1
10
31.8653273892043
20
-0.0956634054375058
30
0
41
1
10
31.8840353963605
20
-0.394484987260824
30
0
41
1
10
31.899971509081
20
-0.61331400130203
30
0
41
1
10
31.9012614551779
20
-0.630775713462157
30
0
0
SPLINE
5
1B3
100
AcDbEntity
8
1
62
256
6
ByLayer
370
18
48
1
60
0
100
AcDbSpline
70
4
71
3
72
22
73
18
40
0
40
0
40
0
40
0
40
0.124999999999999
40
0.124999999999999
40
0.187499999999999
40
0.187499999999999
40
0.249999999999999
40
0.249999999999999
40
0.499999999999998
40
0.499999999999998
40
0.562499999999998
40
0.562499999999998
40
0.624999999999998
40
0.624999999999998
40
0.749999999999999
40
0.749999999999999
40
1
40
1
40
1
40
1
41
1
10
32.0196414564147
20
0.144762432624248
30
0
41
1
10
32.0223159993683
20
0.0938848486623556
30
0
41
1
10
32.0250170660044
20
0.0427438814059542
30
0
41
1
10
32.0290866971736
20
-0.0343709895212214
30
0
41
1
10
32.0304460478637
20
-0.0601433186034228
30
0
41
1
10
32.0331681682113
20
-0.111825632735986
30
0
41
1
10
32.0345261032494
20
-0.137644130525644
30
0
41
1
10
32.0412515101079
20
-0.265707166401086
30
0
41
1
10
32.0464548784821
20
-0.365781564886561
30
0
41
1
10
32.052933345489
20
-0.487942369089723
30
0
41
1
10
32.0542289144319
20
-0.512226492824936
30
0
41
1
10
32.0568295022119
20
-0.560493827544519
30
0
41
1
10
32.0581360149658
20
-0.584504180258733
30
0
41
1
10
32.0620779224757
20
-0.655899743029352
30
0
41
1
10
32.0647086464359
20
-0.702068080488687
30
0
41
1
10
32.0727106142995
20
-0.836429129724195
30
0
41
1
10
32.078122994993
20
-0.920521741257204
30
0
41
1
10
32.0835050953193
20
-0.999022063878982
30
0
0
SPLINE
5
1B4
100
AcDbEntity
8
1
62
256
6
ByLayer
370
13
48
1
60
0
100
AcDbSpline
70
4
71
3
72
9
73
5
40
0
40
0
40
0
40
0
40
0.283225611195983
40
1
40
1
40
1
40
1
41
1
10
31.7127301097542
20
0.327956798700882
30
0
41
1
10
31.7180322084451
20
0.247606992438819
30
0
41
1
10
31.7367525796348
20
-0.0437363033496183
30
0
41
1
10
31.7554730596555
20
-0.3419103604746
30
0
41
1
10
31.7688915837329
20
-0.532468114504923
30
0
0
SPLINE
5
1B5
100
AcDbEntity
8
1
62
256
6
ByLayer
370
18
48
1
60
0
100
AcDbSpline
70
4
71
3
72
22
73
18
40
0
40
0
40
0
40
0
40
0.249999999999998
40
0.249999999999998
40
0.312499999999998
40
0.312499999999998
40
0.374999999999997
40
0.374999999999997
40
0.499999999999997
40
0.499999999999997
40
0.624999999999998
40
0.624999999999998
40
0.687499999999998
40
0.687499999999998
40
0.749999999999999
40
0.749999999999999
40
1
40
1
40
1
40
1
41
1
10
31.595428253148
20
-0.563645707321882
30
0
41
1
10
31.5900412766684
20
-0.468372383928625
30
0
41
1
10
31.5847032036662
20
-0.369900325890029
30
0
41
1
10
31.5780708375843
20
-0.242698748007228
30
0
41
1
10
31.5767430133985
20
-0.21700921484242
30
0
41
1
10
31.5741123616268
20
-0.165779798989576
30
0
41
1
10
31.5728061266169
20
-0.140175361596647
30
0
41
1
10
31.5689028755007
20
-0.0633929128118211
30
0
41
1
10
31.5663220564577
20
-0.0122456500862427
30
0
41
1
10
31.5611221355339
20
0.0899636676776936
30
0
41
1
10
31.5584928933347
20
0.14102520403847
30
0
41
1
10
31.5545022647048
20
0.217551581317423
30
0
41
1
10
31.5531653414848
20
0.24304942175587
30
0
41
1
10
31.5504792875562
20
0.294022828293635
30
0
41
1
10
31.5491338527985
20
0.319427622567247
30
0
41
1
10
31.5424480919372
20
0.445015473499836
30
0
41
1
10
31.537179915994
20
0.541906771096365
30
0
41
1
10
31.5318897018213
20
0.635275320036641
30
0
0
SPLINE
5
1B6
100
AcDbEntity
8
1
62
256
6
ByLayer
370
18
48
1
60
0
100
AcDbSpline
70
4
71
3
72
25
73
21
40
0
40
0
40
0
40
0
40
0.0624999999999993
40
0.0624999999999993
40
0.124999999999999
40
0.124999999999999
40
0.249999999999997
40
0.374999999999996
40
0.374999999999996
40
0.437499999999996
40
0.437499999999996
40
0.499999999999996
40
0.499999999999996
40
0.749999999999998
40
0.749999999999998
40
0.874999999999999
40
0.874999999999999
40
0.937499999999999
40
0.937499999999999
40
1
40
1
40
1
40
1
41
1
10
31.4910514458689
20
0.67402818633181
30
0
41
1
10
31.492373711307
20
0.650906148836327
30
0
41
1
10
31.4937126553796
20
0.627389775163067
30
0
41
1
10
31.4964178999978
20
0.579815880029031
30
0
41
1
10
31.4977758190733
20
0.555872549680714
30
0
41
1
10
31.5018516867197
20
0.483582446627395
30
0
41
1
10
31.5072896186572
20
0.385970867173398
30
0
41
1
10
31.5126423074826
20
0.285950429626013
30
0
41
1
10
31.5166175549708
20
0.210021289204263
30
0
41
1
10
31.517936138271
20
0.184558996959765
30
0
41
1
10
31.5205660261669
20
0.13332437470703
30
0
41
1
10
31.521881109306
20
0.107478404350445
30
0
41
1
10
31.5284003174152
20
-0.0213854611986335
30
0
41
1
10
31.5334386300058
20
-0.123469685140293
30
0
41
1
10
31.5412517374547
20
-0.275105346516028
30
0
41
1
10
31.5438915624412
20
-0.32540066654218
30
0
41
1
10
31.547890337127
20
-0.400458395483241
30
0
41
1
10
31.5492316022054
20
-0.425441001014292
30
0
41
1
10
31.551898486133
20
-0.474719043803191
30
0
41
1
10
31.5532277297111
20
-0.499082987519245
30
0
41
1
10
31.5545542951509
20
-0.523176465046788
30
0
0
SPLINE
5
1B7
100
AcDbEntity
8
1
62
256
6
ByLayer
370
18
48
1
60
0
100
AcDbSpline
70
4
71
3
72
22
73
18
40
0
40
0
40
0
40
0
40
0.250000000000002
40
0.250000000000002
40
0.375000000000002
40
0.375000000000002
40
0.437500000000002
40
0.437500000000002
40
0.500000000000002
40
0.500000000000002
40
0.750000000000001
40
0.750000000000001
40
0.812500000000001
40
0.812500000000001
40
0.875000000000001
40
0.875000000000001
40
1
40
1
40
1
40
1
41
1
10
31.0669673492454
20
-0.0225668968857349
30
0
41
1
10
31.0616830977292
20
0.0808839194818916
30
0
41
1
10
31.0565033185027
20
0.182758137542066
30
0
41
1
10
31.0485903074704
20
0.33328232397713
30
0
41
1
10
31.0459390069804
20
0.383073502436048
30
0
41
1
10
31.0419247063385
20
0.457169683111545
30
0
41
1
10
31.0405763560555
20
0.481837649777333
30
0
41
1
10
31.0378811941506
20
0.53060013762709
30
0
41
1
10
31.0365356687929
20
0.554672820941647
30
0
41
1
10
31.0297995348745
20
0.673522457430494
30
0
41
1
10
31.024367505262
20
0.763802011164273
30
0
41
1
10
31.0176409238821
20
0.870674980377942
30
0
41
1
10
31.0162978884476
20
0.891747922663313
30
0
41
1
10
31.0136151242047
20
0.933279460810752
30
0
41
1
10
31.012272733562
20
0.953776770559443
30
0
41
1
10
31.008288828549
20
1.01368177168996
30
0
41
1
10
31.0056790291352
20
1.05170109237207
30
0
41
1
10
31.0030904269731
20
1.08785474176233
30
0
0
SPLINE
5
1B8
100
AcDbEntity
8
1
62
256
6
ByLayer
370
13
48
1
60
0
100
AcDbSpline
70
4
71
3
72
10
73
6
40
0
40
0
40
0
40
0
40
0.306625914727076
40
0.699117878807262
40
1
40
1
40
1
40
1
41
1
10
31.1842115951565
20
0.72981834020041
30
0
41
1
10
31.1899327580475
20
0.656981060515648
30
0
41
1
10
31.2029772799965
20
0.478223715765097
30
0
41
1
10
31.2216356793425
20
0.19317448495147
30
0
41
1
10
31.2345720515448
20
-0.0112011855970024
30
0
41
1
10
31.240185699819
20
-0.0991205476753976
30
0
0
SPLINE
5
1B9
100
AcDbEntity
8
1
62
256
6
ByLayer
370
18
48
1
60
0
100
AcDbSpline
70
4
71
3
72
35
73
31
40
0
40
0
40
0
40
0
40
0.0625000000000004
40
0.0625000000000004
40
0.125000000000001
40
0.125000000000001
40
0.156250000000001
40
0.156250000000001
40
0.187500000000001
40
0.187500000000001
40
0.250000000000001
40
0.250000000000001
40
0.281250000000001
40
0.281250000000001
40
0.312500000000002
40
0.312500000000002
40
0.375000000000002
40
0.375000000000002
40
0.500000000000002
40
0.500000000000002
40
0.750000000000002
40
0.750000000000002
40
0.781250000000002
40
0.781250000000002
40
0.812500000000002
40
0.812500000000002
40
0.843750000000002
40
0.843750000000002
40
0.875000000000001
40
1
40
1
40
1
40
1
41
1
10
35.1
20
0.862170764770156
30
0
41
1
10
35.1
20
0.838844829185803
30
0
41
1
10
35.1
20
0.81605137810368
30
0
41
1
10
35.1
20
0.771808173195495
30
0
41
1
10
35.1
20
0.750310144856769
30
0
41
1
10
35.1
20
0.718991975256358
30
0
41
1
10
35.1
20
0.708708008676382
30
0
41
1
10
35.1
20
0.688460117428264
30
0
41
1
10
35.1
20
0.678470105356979
30
0
41
1
10
35.1
20
0.649429910166504
30
0
41
1
10
35.1
20
0.6312187019428
30
0
41
1
10
35.1
20
0.605359481412762
30
0
41
1
10
35.1
20
0.596843761353171
30
0
41
1
10
35.1
20
0.579774692404754
30
0
41
1
10
35.1
20
0.571274705611557
30
0
41
1
10
35.1
20
0.54587507501094
30
0
41
1
10
35.1
20
0.52906508795698
30
0
41
1
10
35.1
20
0.478990312071488
30
0
41
1
10
35.1
20
0.446093450643161
30
0
41
1
10
35.1
20
0.348877302180853
30
0
41
1
10
35.1
20
0.286053101244136
30
0
41
1
10
35.1
20
0.217523161763268
30
0
41
1
10
35.1
20
0.209931250546902
30
0
41
1
10
35.1
20
0.1948463454886
30
0
41
1
10
35.1
20
0.187338512141793
30
0
41
1
10
35.1
20
0.172912147228402
30
0
41
1
10
35.1
20
0.165955957043849
30
0
41
1
10
35.1
20
0.152693083495706
30
0
41
1
10
35.1
20
0.121043527834132
30
0
41
1
10
35.1
20
0.0967030481658924
30
0
41
1
10
35.1
20
0.0820550431442371
30
0
0
SPLINE
5
1BA
100
AcDbEntity
8
1
62
256
6
ByLayer
370
18
48
1
60
0
100
AcDbSpline
70
4
71
3
72
18
73
14
40
0
40
0
40
0
40
0
40
0.0625000000000102
40
0.0625000000000102
40
0.125000000000021
40
0.125000000000021
40
0.250000000000017
40
0.250000000000017
40
0.500000000000012
40
0.500000000000012
40
0.750000000000006
40
0.750000000000006
40
1
40
1
40
1
40
1
41
1
10
34.7182952568742
20
1.22721889723647
30
0
41
1
10
34.726557845969
20
1.2198903320226
30
0
41
1
10
34.7348469124977
20
1.21248999154622
30
0
41
1
10
34.751483528944
20
1.19754363642832
30
0
41
1
10
34.7598311322622
20
1.18999848469798
30
0
41
1
10
34.7847523422872
20
1.16744977893458
30
0
41
1
10
34.8012211921429
20
1.15250420965381
30
0
41
1
10
34.8502972880975
20
1.10767662691737
30
0
41
1
10
34.8825852400127
20
1.07779206970341
30
0
41
1
10
34.946338025424
20
1.01748851551272
30
0
41
1
10
34.9778031104716
20
0.987074492274303
30
0
41
1
10
35.0397688894951
20
0.925333551929782
30
0
41
1
10
35.0703018276527
20
0.893983393598944
30
0
41
1
10
35.1000000000002
20
0.86217076477007
30
0
0
SPLINE
5
1BB
100
AcDbEntity
8
1
62
256
6
ByLayer
370
18
48
1
60
0
100
AcDbSpline
70
4
71
3
72
26
73
22
40
0
40
0
40
0
40
0
40
0.125
40
0.125
40
0.25
40
0.25
40
0.375
40
0.375
40
0.5
40
0.5
40
0.625
40
0.625
40
0.75
40
0.75
40
0.8125
40
0.8125
40
0.875
40
0.875
40
0.9375
40
0.9375
40
1
40
1
40
1
40
1
41
1
10
34.7182952568742
20
1.22721889723644
30
0
41
1
10
34.714616109548
20
1.22122401764173
30
0
41
1
10
34.7104241794484
20
1.21586470760781
30
0
41
1
10
34.7012067656243
20
1.20616545003929
30
0
41
1
10
34.6961611768045
20
1.20183413439065
30
0
41
1
10
34.685660165987
20
1.19439772992058
30
0
41
1
10
34.680161836785
20
1.19124494332911
30
0
41
1
10
34.6686891849284
20
1.18605741276892
30
0
41
1
10
34.662675503859
20
1.18402402891533
30
0
41
1
10
34.6506068310974
20
1.18131463454995
30
0
41
1
10
34.6445062537574
20
1.1806074215263
30
0
41
1
10
34.6321804817322
20
1.18068296910786
30
0
41
1
10
34.6258790399316
20
1.18149049556004
30
0
41
1
10
34.6167748550209
20
1.18409256052342
30
0
41
1
10
34.6137883772233
20
1.18518956958968
30
0
41
1
10
34.6079303778922
20
1.18791472402009
30
0
41
1
10
34.605043102968
20
1.18955722178126
30
0
41
1
10
34.5995847025407
20
1.19336497625125
30
0
41
1
10
34.5969944382583
20
1.1955348652622
30
0
41
1
10
34.5921373412912
20
1.20049375193091
30
0
41
1
10
34.5898710555638
20
1.2032923234209
30
0
41
1
10
34.5878688955178
20
1.20636632274085
30
0
0
SPLINE
5
1BC
100
AcDbEntity
8
1
62
256
6
ByLayer
370
18
48
1
60
0
100
AcDbSpline
70
4
71
3
72
8
73
4
40
0
40
0
40
0
40
0
40
1
40
1
40
1
40
1
41
1
10
34.5878688955164
20
1.20636632274423
30
0
41
1
10
34.5620822810001
20
1.245957581021
30
0
41
1
10
34.5364776351545
20
1.2844090517512
30
0
41
1
10
34.5110022979718
20
1.32174279773588
30
0
0
SPLINE
5
1BD
100
AcDbEntity
8
1
62
256
6
ByLayer
370
18
48
1
60
0
100
AcDbSpline
70
4
71
3
72
10
73
6
40
0
40
0
40
0
40
0
40
0.5
40
0.5
40
1
40
1
40
1
40
1
41
1
10
34.5110022979715
20
1.32174279773568
30
0
41
1
10
34.4787137646081
20
1.32609335957096
30
0
41
1
10
34.4465999826946
20
1.32933211856593
30
0
41
1
10
34.3826322386603
20
1.33347297921512
30
0
41
1
10
34.3506848029283
20
1.33437409258482
30
0
41
1
10
34.3191420629993
20
1.33408604681347
30
0
0
SPLINE
5
1BE
100
AcDbEntity
8
1
62
256
6
ByLayer
370
18
48
1
60
0
100
AcDbSpline
70
4
71
3
72
8
73
4
40
0
40
0
40
0
40
0
40
1
40
1
40
1
40
1
41
1
10
30.1454789531707
20
-1.53444687165919
30
0
41
1
10
30.158868955941
20
-1.53565852256344
30
0
41
1
10
30.1722738247427
20
-1.53668554404709
30
0
41
1
10
30.1856834410327
20
-1.5375267064
30
0
0
SPLINE
5
1BF
100
AcDbEntity
8
1
62
256
6
ByLayer
370
18
48
1
60
0
100
AcDbSpline
70
4
71
3
72
8
73
4
40
0
40
0
40
0
40
0
40
1
40
1
40
1
40
1
41
1
10
29.08788805909
20
-1.06621694717404
30
0
41
1
10
29.1014482154713
20
-1.07640329226271
30
0
41
1
10
29.1150002145955
20
-1.08644928692999
30
0
41
1
10
29.1285452993024
20
-1.09635446903926
30
0
0
SPLINE
5
1C0
100
AcDbEntity
8
1
62
256
6
ByLayer
370
18
48
1
60
0
100
AcDbSpline
70
4
71
3
72
20
73
16
40
0
40
0
40
0
40
0
40
0.125
40
0.125
40
0.25
40
0.25
40
0.5
40
0.5
40
0.625
40
0.625
40
0.75
40
0.75
40
0.875
40
0.875
40
1
40
1
40
1
40
1
41
1
10
28.6706392943936
20
-0.634429716283904
30
0
41
1
10
28.6543404104151
20
-0.613750432472955
30
0
41
1
10
28.637923845639
20
-0.593199405637705
30
0
41
1
10
28.6049598280067
20
-0.552260669951806
30
0
41
1
10
28.5884080263009
20
-0.531876849063252
30
0
41
1
10
28.5384453465464
20
-0.471065088659913
30
0
41
1
10
28.5047700346177
20
-0.430939214952929
30
0
41
1
10
28.4537781660494
20
-0.371306856155542
30
0
41
1
10
28.4366939257895
20
-0.351528377028018
30
0
41
1
10
28.40233453907
20
-0.312183708664236
30
0
41
1
10
28.3850566308724
20
-0.292615385260944
30
0
41
1
10
28.3504784929943
20
-0.253912517750564
30
0
41
1
10
28.3331569499218
20
-0.234749747656451
30
0
41
1
10
28.2984452360284
20
-0.196800935629995
30
0
41
1
10
28.2810834404788
20
-0.177981749017562
30
0
41
1
10
28.2635598831349
20
-0.159499702414991
30
0
0
SPLINE
5
1C1
100
AcDbEntity
8
1
62
256
6
ByLayer
370
18
48
1
60
0
100
AcDbSpline
70
4
71
3
72
10
73
6
40
0
40
0
40
0
40
0
40
0.5
40
0.5
40
1
40
1
40
1
40
1
41
1
10
28.2635598831346
20
-0.159499702414564
30
0
41
1
10
28.2404358186956
20
-0.135110816743918
30
0
41
1
10
28.2157334848493
20
-0.111928928591738
30
0
41
1
10
28.1639866267162
20
-0.0669370515015828
30
0
41
1
10
28.1369699335704
20
-0.0450972183344902
30
0
41
1
10
28.1090484606624
20
-0.0235185665762003
30
0
0
SPLINE
5
1C2
100
AcDbEntity
8
1
62
256
6
ByLayer
370
18
48
1
60
0
100
AcDbSpline
70
4
71
3
72
77
73
73
40
0
40
0
40
0
40
0
40
0.0304971020505434
40
0.0304971020505434
40
0.0609942041010867
40
0.0609942041010867
40
0.0914913061516301
40
0.0914913061516301
40
0.121988408202174
40
0.121988408202174
40
0.152485510252717
40
0.152485510252717
40
0.18298261230326
40
0.18298261230326
40
0.213479714353804
40
0.213479714353804
40
0.228728265379073
40
0.228728265379073
40
0.243976816404343
40
0.243976816404343
40
0.274473918454883
40
0.274473918454883
40
0.304971020505422
40
0.304971020505422
40
0.335468122555962
40
0.335468122555962
40
0.365965224606501
40
0.365965224606501
40
0.396462326657041
40
0.396462326657041
40
0.426959428707581
40
0.426959428707581
40
0.45745653075812
40
0.45745653075812
40
0.48795363280866
40
0.48795363280866
40
0.518450734859199
40
0.518450734859199
40
0.548947836909739
40
0.548947836909739
40
0.579444938960278
40
0.579444938960278
40
0.609942041010818
40
0.625190592036088
40
0.625190592036088
40
0.640439143061358
40
0.640439143061358
40
0.655687694086628
40
0.655687694086628
40
0.670936245111897
40
0.670936245111897
40
0.686184796137167
40
0.686184796137167
40
0.701433347162437
40
0.701433347162437
40
0.731930449212977
40
0.731930449212977
40
0.792924653314056
40
0.792924653314056
40
0.823421755364595
40
0.823421755364595
40
0.853918857415135
40
0.853918857415135
40
0.91491306151621
40
0.91491306151621
40
0.945410163566746
40
0.945410163566746
40
0.960658714592016
40
0.960658714592016
40
0.975907265617285
40
0.975907265617285
40
1
40
1
40
1
40
1
41
1
10
28.1090484606617
20
-0.0235185665759445
30
0
41
1
10
28.0738373706438
20
0.0036937460420461
30
0
41
1
10
28.0385732976327
20
0.030577224517657
30
0
41
1
10
27.9680887490053
20
0.0839179766246332
30
0
41
1
10
27.9329133708489
20
0.110436226957603
30
0
41
1
10
27.8629655938242
20
0.163525096823832
30
0
41
1
10
27.8281586643388
20
0.190048727035446
30
0
41
1
10
27.7587961849311
20
0.242935705817615
30
0
41
1
10
27.7242664649466
20
0.269331770378415
30
0
41
1
10
27.6552324457612
20
0.321663739698607
30
0
41
1
10
27.6206500689248
20
0.347500481017107
30
0
41
1
10
27.5511198155437
20
0.398232803011837
30
0
41
1
10
27.5162368012532
20
0.423209940127009
30
0
41
1
10
27.4461503495801
20
0.472289662831884
30
0
41
1
10
27.4109866781413
20
0.496441890218421
30
0
41
1
10
27.3581694049762
20
0.532215536391419
30
0
41
1
10
27.3405475846619
20
0.544059186606574
30
0
41
1
10
27.3052781704199
20
0.567590135342613
30
0
41
1
10
27.2876096534627
20
0.579288783119836
30
0
41
1
10
27.2347770485291
20
0.613978745667794
30
0
41
1
10
27.1997426546735
20
0.636594623877869
30
0
41
1
10
27.1299744433916
20
0.680720758222975
30
0
41
1
10
27.0952781768058
20
0.702266114839347
30
0
41
1
10
27.0256890658826
20
0.743748049361187
30
0
41
1
10
26.9907161758698
20
0.763613823099519
30
0
41
1
10
26.9207748777207
20
0.802010836283387
30
0
41
1
10
26.8858425297386
20
0.820572461621197
30
0
41
1
10
26.8160766476811
20
0.856428978728616
30
0
41
1
10
26.7812407546914
20
0.873721815523567
30
0
41
1
10
26.7116834766243
20
0.907016791986365
30
0
41
1
10
26.6769631517294
20
0.923017940446726
30
0
41
1
10
26.6074901555098
20
0.953563955627317
30
0
41
1
10
26.5727384777969
20
0.96810935524303
30
0
41
1
10
26.5030377335283
20
0.995587191696814
30
0
41
1
10
26.4679960199613
20
1.00853840352892
30
0
41
1
10
26.3978550874787
20
1.032359887788
30
0
41
1
10
26.3626529876833
20
1.04321458597411
30
0
41
1
10
26.2925316246739
20
1.06319648938367
30
0
41
1
10
26.2575667087899
20
1.07228981339713
30
0
41
1
10
26.1876876496069
20
1.08864039303998
30
0
41
1
10
26.1528023533485
20
1.09591305721273
30
0
41
1
10
26.0832439806958
20
1.10867440624744
30
0
41
1
10
26.0312111631787
20
1.11689644365606
30
0
41
1
10
25.9793142109804
20
1.12303013345934
30
0
41
1
10
25.94473805555
20
1.12664704593306
30
0
41
1
10
25.9274691056304
20
1.12821952294266
30
0
41
1
10
25.8927864379752
20
1.13086737998213
30
0
41
1
10
25.8753618144684
20
1.13194373718034
30
0
41
1
10
25.8404714302003
20
1.13362288054927
30
0
41
1
10
25.8230067717581
20
1.13422354708211
30
0
41
1
10
25.7878806959915
20
1.13494614729004
30
0
41
1
10
25.7702288573182
20
1.13507096469917
30
0
41
1
10
25.734913134856
20
1.13485336375783
30
0
41
1
10
25.7172409653606
20
1.13450972586787
30
0
41
1
10
25.6641777755484
20
1.13276319365269
30
0
41
1
10
25.6287108719377
20
1.13063836022954
30
0
41
1
10
25.5231530498591
20
1.12139822431649
30
0
41
1
10
25.4536899097167
20
1.11136582624405
30
0
41
1
10
25.3497624037196
20
1.09072661702356
30
0
41
1
10
25.3151661100367
20
1.0829171139134
30
0
41
1
10
25.245729979438
20
1.06560781498965
30
0
41
1
10
25.2108385589963
20
1.05614005870351
30
0
41
1
10
25.1062030333558
20
1.0250919812278
30
0
41
1
10
25.0366364157055
20
1.00077920953885
30
0
41
1
10
24.9322993612965
20
0.958692358859366
30
0
41
1
10
24.8975207649364
20
0.943718225375363
30
0
41
1
10
24.8449219561065
20
0.920144925315157
30
0
41
1
10
24.8273108680975
20
0.912095275310008
30
0
41
1
10
24.7921363192979
20
0.895697971967763
30
0
41
1
10
24.7745533488998
20
0.887341038260189
30
0
41
1
10
24.7292312077757
20
0.865353734790745
30
0
41
1
10
24.7015397525152
20
0.851454454039526
30
0
41
1
10
24.6738451347848
20
0.837189034386029
30
0
0
SPLINE
5
1C3
100
AcDbEntity
8
1
62
256
6
ByLayer
370
18
48
1
60
0
100
AcDbSpline
70
4
71
3
72
84
73
80
40
0
40
0
40
0
40
0
40
0.0046101746608592
40
0.0046101746608592
40
0.0177074092047978
40
0.0177074092047978
40
0.0308046437487365
40
0.0308046437487365
40
0.0569991128366137
40
0.0569991128366137
40
0.109388051012368
40
0.109388051012368
40
0.135582520100247
40
0.135582520100247
40
0.161776989188125
40
0.161776989188125
40
0.187971458276004
40
0.187971458276004
40
0.201068692819943
40
0.201068692819943
40
0.214165927363883
40
0.214165927363883
40
0.266554865539637
40
0.266554865539637
40
0.292749334627514
40
0.292749334627514
40
0.318943803715391
40
0.318943803715391
40
0.371332741891146
40
0.371332741891146
40
0.384429976435084
40
0.384429976435084
40
0.397527210979023
40
0.397527210979023
40
0.423721680066897
40
0.423721680066897
40
0.476110618242643
40
0.476110618242643
40
0.502305087330516
40
0.502305087330516
40
0.515402321874452
40
0.515402321874452
40
0.528499556418389
40
0.528499556418389
40
0.554694025506259
40
0.554694025506259
40
0.567791260050192
40
0.567791260050192
40
0.580888494594126
40
0.580888494594126
40
0.607082963681993
40
0.607082963681993
40
0.63327743276986
40
0.63327743276986
40
0.685666370945597
40
0.685666370945597
40
0.738055309121335
40
0.738055309121335
40
0.764249778209203
40
0.764249778209203
40
0.790444247297072
40
0.790444247297072
40
0.842833185472809
40
0.842833185472809
40
0.855930420016743
40
0.855930420016743
40
0.869027654560676
40
0.869027654560676
40
0.88212488910461
40
0.88212488910461
40
0.895222123648543
40
0.895222123648543
40
0.921416592736408
40
0.921416592736408
40
0.947611061824272
40
0.947611061824272
40
0.973805530912136
40
0.973805530912136
40
1
40
1
40
1
40
1
41
1
10
23.5797949544242
20
1.13500023691029
30
0
41
1
10
23.5867731247744
20
1.13499960551843
30
0
41
1
10
23.5937539926228
20
1.134961147659
30
0
41
1
10
23.6205764110668
20
1.13466783007669
30
0
41
1
10
23.6404318521468
20
1.1341444457839
30
0
41
1
10
23.6801323587339
20
1.13246705344969
30
0
41
1
10
23.7000138614768
20
1.13130978666746
30
0
41
1
10
23.7596432771211
20
1.1269149719667
30
0
41
1
10
23.7993129745104
20
1.12276257452382
30
0
41
1
10
23.9181078165082
20
1.10676946761663
30
0
41
1
10
23.997036626894
20
1.09141476970618
30
0
41
1
10
24.1151494918437
20
1.06152707816784
30
0
41
1
10
24.154478420495
20
1.05041932251495
30
0
41
1
10
24.23307819786
20
1.0258969451674
30
0
41
1
10
24.2723293285321
20
1.01246524812413
30
0
41
1
10
24.3511573509584
20
0.983489205583595
30
0
41
1
10
24.3907244443266
20
0.967945985804192
30
0
41
1
10
24.4502934693712
20
0.943034883471455
30
0
41
1
10
24.4701878404786
20
0.934465875416493
30
0
41
1
10
24.5100579938481
20
0.916796574367737
30
0
41
1
10
24.5300578443642
20
0.907684621866224
30
0
41
1
10
24.6297722969289
20
0.861018138410316
30
0
41
1
10
24.7088302823032
20
0.819995413417558
30
0
41
1
10
24.8267797753185
20
0.753373207458054
30
0
41
1
10
24.8660547254638
20
0.730377855008442
30
0
41
1
10
24.9447004586395
20
0.683012151724114
30
0
41
1
10
24.9840597912904
20
0.658631444529277
30
0
41
1
10
25.1023080094297
20
0.583475969134923
30
0
41
1
10
25.1813738098592
20
0.530710904533493
30
0
41
1
10
25.2805288744867
20
0.461328373666788
30
0
41
1
10
25.3003731186362
20
0.447275663100839
30
0
41
1
10
25.3401224192726
20
0.418853394360468
30
0
41
1
10
25.3600377222796
20
0.404479604762969
30
0
41
1
10
25.4196303913348
20
0.361229647414632
30
0
41
1
10
25.4592714512127
20
0.332159488842024
30
0
41
1
10
25.5780081640178
20
0.244347573916087
30
0
41
1
10
25.6568308430488
20
0.184893699570353
30
0
41
1
10
25.774945982885
20
0.0948550030342119
30
0
41
1
10
25.8143447366285
20
0.0647609831968907
30
0
41
1
10
25.8732039103916
20
0.0191265991118144
30
0
41
1
10
25.8927976202631
20
0.0038508239491932
30
0
41
1
10
25.9320706546991
20
-0.0266477142115207
30
0
41
1
10
25.9517715018249
20
-0.0418418048936928
30
0
41
1
10
26.0110036136003
20
-0.0873415938240498
30
0
41
1
10
26.0506333103727
20
-0.117606223684106
30
0
41
1
10
26.110289905631
20
-0.162902363449433
30
0
41
1
10
26.1302104452418
20
-0.177984757020539
30
0
41
1
10
26.1701176049481
20
-0.208122964582799
30
0
41
1
10
26.1900834706363
20
-0.223169370246552
30
0
41
1
10
26.2497805810522
20
-0.267993454938619
30
0
41
1
10
26.2894458558839
20
-0.297489372846513
30
0
41
1
10
26.368601336134
20
-0.355613312602315
30
0
41
1
10
26.4080370687715
20
-0.384312169696471
30
0
41
1
10
26.5258274597445
20
-0.469416143985598
30
0
41
1
10
26.6044374746119
20
-0.523880103652544
30
0
41
1
10
26.7621892525158
20
-0.627941697730847
30
0
41
1
10
26.8412871481002
20
-0.677593052516585
30
0
41
1
10
26.960396082649
20
-0.748230016446769
30
0
41
1
10
27.0002453875034
20
-0.771208155362842
30
0
41
1
10
27.0795577280848
20
-0.815133833723905
30
0
41
1
10
27.1191509879793
20
-0.83606934759959
30
0
41
1
10
27.2378152926883
20
-0.895840809127549
30
0
41
1
10
27.3166871218224
20
-0.931736402630719
30
0
41
1
10
27.4149944947379
20
-0.971696651052895
30
0
41
1
10
27.4346544031305
20
-0.979432598066438
30
0
41
1
10
27.4740255833786
20
-0.994357619224303
30
0
41
1
10
27.4937334392939
20
-1.00155053710273
30
0
41
1
10
27.5330318408743
20
-1.01549031585512
30
0
41
1
10
27.5526428944773
20
-1.02222236324866
30
0
41
1
10
27.5919436469334
20
-1.03511421990942
30
0
41
1
10
27.6116453343148
20
-1.04126834745742
30
0
41
1
10
27.6709297489579
20
-1.05885120076607
30
0
41
1
10
27.7105686577701
20
-1.06946426412497
30
0
41
1
10
27.7901695257399
20
-1.08840400933687
30
0
41
1
10
27.8301873553921
20
-1.09673338324922
30
0
41
1
10
27.9100084031318
20
-1.1109522812412
30
0
41
1
10
27.9498733777181
20
-1.11686089281281
30
0
41
1
10
28.0295028741454
20
-1.12626019748183
30
0
41
1
10
28.0692338000832
20
-1.12975168715167
30
0
41
1
10
28.1090484606617
20
-1.13199162218979
30
0
0
SPLINE
5
1C4
100
AcDbEntity
8
1
62
256
6
ByLayer
370
18
48
1
60
0
100
AcDbSpline
70
4
71
3
72
12
73
8
40
0
40
0
40
0
40
0
40
0.5
40
0.5
40
0.75
40
0.75
40
1
40
1
40
1
40
1
41
1
10
28.1090484606617
20
-1.13199162218979
30
0
41
1
10
28.1353493233063
20
-1.13347128377458
30
0
41
1
10
28.1615311325006
20
-1.13777199958659
30
0
41
1
10
28.2003320579336
20
-1.14886305626675
30
0
41
1
10
28.2131874008069
20
-1.15334028929578
30
0
41
1
10
28.2387098836674
20
-1.1640698830098
30
0
41
1
10
28.2512714427693
20
-1.17027927116487
30
0
41
1
10
28.2635598831346
20
-1.17743576891834
30
0
0
SPLINE
5
1C5
100
AcDbEntity
8
1
62
256
6
ByLayer
370
18
48
1
60
0
100
AcDbSpline
70
4
71
3
72
8
73
4
40
0
40
0
40
0
40
0
40
1
40
1
40
1
40
1
41
1
10
33.4695867660445
20
1.43833940937461
30
0
41
1
10
33.4560469946895
20
1.44338987882676
30
0
41
1
10
33.4425070868714
20
1.44825548999245
30
0
41
1
10
33.4289668120765
20
1.45293679270299
30
0
0
SPLINE
5
1C6
100
AcDbEntity
8
1
62
256
6
ByLayer
370
18
48
1
60
0
100
AcDbSpline
70
4
71
3
72
10
73
6
40
0
40
0
40
0
40
0
40
0.5
40
0.5
40
1
40
1
40
1
40
1
41
1
10
34.3115700988764
20
0.703421816455574
30
0
41
1
10
34.3251024370399
20
0.710125982855573
30
0
41
1
10
34.3385675715087
20
0.716192876586831
30
0
41
1
10
34.3654034035724
20
0.727253462659803
30
0
41
1
10
34.3787707202446
20
0.732218813241417
30
0
41
1
10
34.3920946237732
20
0.736607571569806
30
0
0
SPLINE
5
1C7
100
AcDbEntity
8
1
62
256
6
ByLayer
370
18
48
1
60
0
100
AcDbSpline
70
4
71
3
72
10
73
6
40
0
40
0
40
0
40
0
40
0.5
40
0.5
40
1
40
1
40
1
40
1
41
1
10
34.3920946237731
20
0.736607571569863
30
0
41
1
10
34.4403157648929
20
0.687009918229649
30
0
41
1
10
34.4887154858019
20
0.637337721234644
30
0
41
1
10
34.5860933917435
20
0.538082643968579
30
0
41
1
10
34.6350641555808
20
0.488492850219245
30
0
41
1
10
34.6844372311943
20
0.439060932255643
30
0
0
SPLINE
5
1C8
100
AcDbEntity
8
1
62
256
6
ByLayer
370
18
48
1
60
0
100
AcDbSpline
70
4
71
3
72
8
73
4
40
0
40
0
40
0
40
0
40
1
40
1
40
1
40
1
41
1
10
34.694531338965
20
0.425694575032139
30
0
41
1
10
34.6911631767404
20
0.430138251976018
30
0
41
1
10
34.6877984537105
20
0.434593656157801
30
0
41
1
10
34.6844372311929
20
0.439060932255614
30
0
0
SPLINE
5
1C9
100
AcDbEntity
8
1
62
256
6
ByLayer
370
18
48
1
60
0
100
AcDbSpline
70
4
71
3
72
8
73
4
40
0
40
0
40
0
40
0
40
1
40
1
40
1
40
1
41
1
10
34.6945313389649
20
0.425694575032139
30
0
41
1
10
34.6988863150805
20
0.418627766453767
30
0
41
1
10
34.7032472818867
20
0.411599668722516
30
0
41
1
10
34.7076132882825
20
0.404607010763044
30
0
0
SPLINE
5
1CA
100
AcDbEntity
8
1
62
256
6
ByLayer
370
18
48
1
60
0
100
AcDbSpline
70
4
71
3
72
12
73
8
40
0
40
0
40
0
40
0
40
0.500000000000001
40
0.500000000000001
40
0.75
40
0.75
40
1
40
1
40
1
40
1
41
1
10
34.7076132882803
20
0.404607010760884
30
0
41
1
10
34.7125048977511
20
0.396772539438785
30
0
41
1
10
34.7184329248127
20
0.388918637904027
30
0
41
1
10
34.7284334204734
20
0.377135451678754
30
0
41
1
10
34.7319563022587
20
0.373214600676448
30
0
41
1
10
34.7391681352459
20
0.365576886986986
30
0
41
1
10
34.7428805596629
20
0.361831988473028
30
0
41
1
10
34.7466908555888
20
0.358154232140038
30
0
0
SPLINE
5
1CB
100
AcDbEntity
8
1
62
256
6
ByLayer
370
18
48
1
60
0
100
AcDbSpline
70
4
71
3
72
18
73
14
40
0
40
0
40
0
40
0
40
0.249999999999994
40
0.249999999999994
40
0.374999999999992
40
0.374999999999992
40
0.499999999999989
40
0.499999999999989
40
0.749999999999983
40
0.749999999999983
40
0.874999999999991
40
0.874999999999991
40
1
40
1
40
1
40
1
41
1
10
35.1000000000042
20
0.0820550431398033
30
0
41
1
10
35.0676168543896
20
0.0901294770683876
30
0
41
1
10
35.0359867623771
20
0.103239581396593
30
0
41
1
10
34.9891694120495
20
0.128936770267416
30
0
41
1
10
34.973621158542
20
0.138576695179808
30
0
41
1
10
34.9432228519647
20
0.159433898868059
30
0
41
1
10
34.9283075785277
20
0.170677750792152
30
0
41
1
10
34.8842505393253
20
0.20662403237813
30
0
41
1
10
34.8557949991301
20
0.233535565240203
30
0
41
1
10
34.8140041222661
20
0.27778777078936
30
0
41
1
10
34.8001734026876
20
0.293255656184328
30
0
41
1
10
34.7730811261131
20
0.325103355418065
30
0
41
1
10
34.7598283271449
20
0.341500946043538
30
0
41
1
10
34.7466908555887
20
0.358154232140009
30
0
0
SPLINE
5
1CC
100
AcDbEntity
8
1
62
256
6
ByLayer
370
18
48
1
60
0
100
AcDbSpline
70
4
71
3
72
8
73
4
40
0
40
0
40
0
40
0
40
1
40
1
40
1
40
1
41
1
10
33.1402809418099
20
-1.52369009576756
30
0
41
1
10
33.1539528424223
20
-1.52581565052694
30
0
41
1
10
33.1676327936844
20
-1.52773798038885
30
0
41
1
10
33.1813272638387
20
-1.52945679220142
30
0
0
SPLINE
5
1CD
100
AcDbEntity
8
1
62
256
6
ByLayer
370
18
48
1
60
0
100
AcDbSpline
70
4
71
3
72
8
73
4
40
0
40
0
40
0
40
0
40
1
40
1
40
1
40
1
41
1
10
32.6116989844527
20
-1.34655395821577
30
0
41
1
10
32.6253087627381
20
-1.35355317610998
30
0
41
1
10
32.638907457289
20
-1.36038126100266
30
0
41
1
10
32.6525206728398
20
-1.36702639824179
30
0
0
SPLINE
5
1CE
100
AcDbEntity
8
1
62
256
6
ByLayer
370
18
48
1
60
0
100
AcDbSpline
70
4
71
3
72
8
73
4
40
0
40
0
40
0
40
0
40
1
40
1
40
1
40
1
41
1
10
32.0835050953084
20
-0.999022063882251
30
0
41
1
10
32.0970138758123
20
-1.00984320468589
30
0
41
1
10
32.110532923248
20
-1.02053037339962
30
0
41
1
10
32.1240655482337
20
-1.0310815585093
30
0
0
SPLINE
5
1CF
100
AcDbEntity
8
1
62
256
6
ByLayer
370
18
48
1
60
0
100
AcDbSpline
70
4
71
3
72
10
73
6
40
0
40
0
40
0
40
0
40
0.5
40
0.5
40
1
40
1
40
1
40
1
41
1
10
32.0835050953102
20
-0.999022063870683
30
0
41
1
10
32.0536884894108
20
-0.935916991597395
30
0
41
1
10
32.0236567734173
20
-0.873430172373645
30
0
41
1
10
31.9629182755474
20
-0.750365018992028
30
0
41
1
10
31.9322307500211
20
-0.689888282806464
30
0
41
1
10
31.9012614551779
20
-0.630775713462043
30
0
0
SPLINE
5
1D0
100
AcDbEntity
8
1
62
256
6
ByLayer
370
18
48
1
60
0
100
AcDbSpline
70
4
71
3
72
26
73
22
40
0
40
0
40
0
40
0
40
0.125
40
0.125
40
0.250000000000001
40
0.250000000000001
40
0.375000000000001
40
0.375000000000001
40
0.500000000000002
40
0.500000000000002
40
0.625000000000002
40
0.625000000000002
40
0.750000000000003
40
0.750000000000003
40
0.812500000000002
40
0.812500000000002
40
0.875000000000001
40
0.875000000000001
40
0.937500000000001
40
0.937500000000001
40
1
40
1
40
1
40
1
41
1
10
31.9012614551779
20
-0.630775713462157
30
0
41
1
10
31.8976863940334
20
-0.623951823837416
30
0
41
1
10
31.8935393607163
20
-0.61732520666169
30
0
41
1
10
31.8843584535978
20
-0.604382864713926
30
0
41
1
10
31.8792764916906
20
-0.598027794315669
30
0
41
1
10
31.8686531623838
20
-0.586015985470993
30
0
41
1
10
31.8630812513071
20
-0.580309170454001
30
0
41
1
10
31.8514505954429
20
-0.569458533372796
30
0
41
1
10
31.8453359473525
20
-0.564277378966779
30
0
41
1
10
31.8330301785119
20
-0.554856502055571
30
0
41
1
10
31.8268077890154
20
-0.550577914999508
30
0
41
1
10
31.8142353688858
20
-0.542974465573792
30
0
41
1
10
31.8078026128766
20
-0.539615468680779
30
0
41
1
10
31.7984896776638
20
-0.53570556983496
30
0
41
1
10
31.7954347012575
20
-0.534584471376633
30
0
41
1
10
31.7894420370355
20
-0.532760233806783
30
0
41
1
10
31.786484860936
20
-0.53205568031791
30
0
41
1
10
31.7808896129113
20
-0.531181478989737
30
0
41
1
10
31.7782350372358
20
-0.531003486455205
30
0
41
1
10
31.7732597180582
20
-0.531252556938227
30
0
41
1
10
31.7709383001084
20
-0.531686414345842
30
0
41
1
10
31.7688915837344
20
-0.532468114501029
30
0
0
SPLINE
5
1D1
100
AcDbEntity
8
1
62
256
6
ByLayer
370
18
48
1
60
0
100
AcDbSpline
70
4
71
3
72
10
73
6
40
0
40
0
40
0
40
0
40
0.5
40
0.5
40
1
40
1
40
1
40
1
41
1
10
31.7688915837329
20
-0.532468114504923
30
0
41
1
10
31.7395445683892
20
-0.543676588111168
30
0
41
1
10
31.7103691808628
20
-0.551871389359519
30
0
41
1
10
31.6525205379223
20
-0.562195633750918
30
0
41
1
10
31.6238384940542
20
-0.564346868393045
30
0
41
1
10
31.595428253148
20
-0.563645707321882
30
0
0
SPLINE
5
1D2
100
AcDbEntity
8
1
62
256
6
ByLayer
370
18
48
1
60
0
100
AcDbSpline
70
4
71
3
72
8
73
4
40
0
40
0
40
0
40
0
40
1
40
1
40
1
40
1
41
1
10
31.5545542951444
20
-0.523176465047158
30
0
41
1
10
31.5681656015894
20
-0.536745422294729
30
0
41
1
10
31.581788868406
20
-0.550236324897384
30
0
41
1
10
31.5954282531481
20
-0.563645707321882
30
0
0
SPLINE
5
1D3
100
AcDbEntity
8
1
62
256
6
ByLayer
370
18
48
1
60
0
100
AcDbSpline
70
4
71
3
72
14
73
10
40
0
40
0
40
0
40
0
40
0.25
40
0.25
40
0.5
40
0.5
40
0.75
40
0.75
40
1
40
1
40
1
40
1
41
1
10
31.5545542951455
20
-0.523176465043093
30
0
41
1
10
31.5396518335479
20
-0.495136231516227
30
0
41
1
10
31.5247041546488
20
-0.467521894798779
30
0
41
1
10
31.4946883565021
20
-0.41317049497971
30
0
41
1
10
31.4796169654184
20
-0.386406627677246
30
0
41
1
10
31.4493334982695
20
-0.333954766723707
30
0
41
1
10
31.4341053590887
20
-0.308288613651399
30
0
41
1
10
31.4034566070363
20
-0.258214326336457
30
0
41
1
10
31.3880575266486
20
-0.233797104246008
30
0
41
1
10
31.3725812611712
20
-0.209965481265527
30
0
0
SPLINE
5
1D4
100
AcDbEntity
8
1
62
256
6
ByLayer
370
18
48
1
60
0
100
AcDbSpline
70
4
71
3
72
26
73
22
40
0
40
0
40
0
40
0
40
0.125
40
0.125
40
0.25
40
0.25
40
0.375
40
0.375
40
0.5
40
0.5
40
0.625
40
0.625
40
0.75
40
0.75
40
0.8125
40
0.8125
40
0.875
40
0.875
40
0.9375
40
0.9375
40
1
40
1
40
1
40
1
41
1
10
31.3725812611712
20
-0.209965481265527
30
0
41
1
10
31.3690069891923
20
-0.204461524103095
30
0
41
1
10
31.3648621342224
20
-0.198870867030536
30
0
41
1
10
31.3556877346583
20
-0.187567747119829
30
0
41
1
10
31.3506107540589
20
-0.18181427242709
30
0
41
1
10
31.3399982753971
20
-0.170572839443508
30
0
41
1
10
31.3344319957749
20
-0.165042350546543
30
0
41
1
10
31.3228119195443
20
-0.154139627272514
30
0
41
1
10
31.3167019356652
20
-0.148723683661387
30
0
41
1
10
31.3044013990271
20
-0.13840981488994
30
0
41
1
10
31.2981801894824
20
-0.133477479713463
30
0
41
1
10
31.2856055988551
20
-0.124089790598703
30
0
41
1
10
31.2791682410253
20
-0.119580485433346
30
0
41
1
10
31.2698419790926
20
-0.113551470141545
30
0
41
1
10
31.266782296733
20
-0.111658786443286
30
0
41
1
10
31.260779834863
20
-0.108139557091306
30
0
41
1
10
31.2578170474566
20
-0.106503575436676
30
0
41
1
10
31.2522098340577
20
-0.103641934973098
30
0
41
1
10
31.2495494774885
20
-0.102405154778495
30
0
41
1
10
31.2445633443036
20
-0.100384436135187
30
0
41
1
10
31.2422366517532
20
-0.0996035427120034
30
0
41
1
10
31.2401856998203
20
-0.0991205476721859
30
0
0
SPLINE
5
1D5
100
AcDbEntity
8
1
62
256
6
ByLayer
370
18
48
1
60
0
100
AcDbSpline
70
4
71
3
72
10
73
6
40
0
40
0
40
0
40
0
40
0.5
40
0.5
40
1
40
1
40
1
40
1
41
1
10
31.240185699819
20
-0.0991205476753976
30
0
41
1
10
31.2108903433123
20
-0.0922215503598807
30
0
41
1
10
31.1817650131256
20
-0.0823028721553385
30
0
41
1
10
31.1240027669527
20
-0.0566311192368971
30
0
41
1
10
31.0953550916935
20
-0.0409171975726963
30
0
41
1
10
31.0669673492454
20
-0.0225668968857349
30
0
0
SPLINE
5
1D6
100
AcDbEntity
8
1
62
256
6
ByLayer
370
18
48
1
60
0
100
AcDbSpline
70
4
71
3
72
8
73
4
40
0
40
0
40
0
40
0
40
1
40
1
40
1
40
1
41
1
10
31.0263728968242
20
0.0199443863805016
30
0
41
1
10
31.0398991964051
20
0.0057731050893324
30
0
41
1
10
31.0534302749511
20
-0.0083977124964463
30
0
41
1
10
31.0669673492454
20
-0.0225668968857349
30
0
0
SPLINE
5
1D7
100
AcDbEntity
8
1
62
256
6
ByLayer
370
18
48
1
60
0
100
AcDbSpline
70
4
71
3
72
10
73
6
40
0
40
0
40
0
40
0
40
0.5
40
0.5
40
1
40
1
40
1
40
1
41
1
10
31.0263728968259
20
0.0199443863818942
30
0
41
1
10
30.9964857885905
20
0.0614202928672114
30
0
41
1
10
30.9663697517836
20
0.10035210500871
30
0
41
1
10
30.9055868367632
20
0.172656163023191
30
0
41
1
10
30.8749689025516
20
0.206038603907672
30
0
41
1
10
30.8440310300196
20
0.236037674228101
30
0
0
SPLINE
5
1D8
100
AcDbEntity
8
1
62
256
6
ByLayer
370
18
48
1
60
0
100
AcDbSpline
70
4
71
3
72
8
73
4
40
0
40
0
40
0
40
0
40
1
40
1
40
1
40
1
41
1
10
30.4973888622228
20
0.559454387870261
30
0
41
1
10
30.51104374764
20
0.546044819831565
30
0
41
1
10
30.5247106189107
20
0.532571125799933
30
0
41
1
10
30.5383932504954
20
0.519036966968002
30
0
0
SPLINE
5
1D9
100
AcDbEntity
8
1
62
256
6
ByLayer
370
18
48
1
60
0
100
AcDbSpline
70
4
71
3
72
8
73
4
40
0
40
0
40
0
40
0
40
1
40
1
40
1
40
1
41
1
10
29.4406549548272
20
1.36518880044568
30
0
41
1
10
29.4541612335726
20
1.35865121592951
30
0
41
1
10
29.4676792656282
20
1.35194609153575
30
0
41
1
10
29.4812113360498
20
1.34507505469682
30
0
0
SPLINE
5
1DA
100
AcDbEntity
8
1
62
256
6
ByLayer
370
18
48
1
60
0
100
AcDbSpline
70
4
71
3
72
8
73
4
40
0
40
0
40
0
40
0
40
1
40
1
40
1
40
1
41
1
10
28.9116638549331
20
1.52890457354081
30
0
41
1
10
28.9253263162902
20
1.52717288701314
30
0
41
1
10
28.9389947608612
20
1.52524757005679
30
0
41
1
10
28.9526655065023
20
1.52312918976608
30
0
0
SPLINE
5
1DB
100
AcDbEntity
8
1
62
256
6
ByLayer
370
18
48
1
60
0
100
AcDbSpline
70
4
71
3
72
14
73
10
40
0
40
0
40
0
40
0
40
0.301658833144216
40
0.301658833144216
40
0.603317666288433
40
0.603317666288433
40
0.90497649943265
40
0.90497649943265
40
1
40
1
40
1
40
1
41
1
10
28.1090484606617
20
0.994487072540807
30
0
41
1
10
28.0738373706438
20
0.981369348475965
30
0
41
1
10
28.0385732976327
20
0.967565582106658
30
0
41
1
10
27.9680887490053
20
0.938562261980451
30
0
41
1
10
27.9329133708489
20
0.923330759144733
30
0
41
1
10
27.8629655938242
20
0.891196686763323
30
0
41
1
10
27.8281586643388
20
0.87431773584953
30
0
41
1
10
27.7825527228242
20
0.851079557514964
30
0
41
1
10
27.771643055864
20
0.845431872388872
30
0
41
1
10
27.7607440850147
20
0.839706621201486
30
0
0
SPLINE
5
1DC
100
AcDbEntity
8
1
62
256
6
ByLayer
370
18
48
1
60
0
100
AcDbSpline
70
4
71
3
72
62
73
58
40
0
40
0
40
0
40
0
40
0.0329539240490849
40
0.0329539240490849
40
0.0701480038933467
40
0.0701480038933467
40
0.107342083737609
40
0.107342083737609
40
0.14453616358187
40
0.14453616358187
40
0.181730243426132
40
0.181730243426132
40
0.218924323270394
40
0.218924323270394
40
0.256118403114656
40
0.256118403114656
40
0.330506562803184
40
0.330506562803184
40
0.349103602725315
40
0.349103602725315
40
0.367700642647446
40
0.367700642647446
40
0.404894722491711
40
0.404894722491711
40
0.442088802335978
40
0.442088802335978
40
0.479282882180244
40
0.479282882180244
40
0.51647696202451
40
0.51647696202451
40
0.553671041868777
40
0.553671041868777
40
0.590865121713043
40
0.590865121713043
40
0.628059201557309
40
0.628059201557309
40
0.646656241479442
40
0.646656241479442
40
0.665253281401575
40
0.665253281401575
40
0.702447361245842
40
0.702447361245842
40
0.739641441090108
40
0.739641441090108
40
0.776835520934374
40
0.776835520934374
40
0.79543256085651
40
0.79543256085651
40
0.814029600778645
40
0.814029600778645
40
0.851223680622916
40
0.851223680622916
40
0.925611840311458
40
0.925611840311458
40
0.962805920155729
40
0.962805920155729
40
1
40
1
40
1
40
1
41
1
10
24.2222652910058
20
-1.13499990470115
30
0
41
1
10
24.1913490277074
20
-1.13498832512761
30
0
41
1
10
24.1603636618381
20
-1.13422839169169
30
0
41
1
10
24.0942671202891
20
-1.13100198046797
30
0
41
1
10
24.0590684074691
20
-1.12833381846559
30
0
41
1
10
23.9883382585091
20
-1.12107778423319
30
0
41
1
10
23.9531071463921
20
-1.11650674697549
30
0
41
1
10
23.8830110767665
20
-1.105474352127
30
0
41
1
10
23.8481261848777
20
-1.0990150070792
30
0
41
1
10
23.7786482263466
20
-1.08420560998729
30
0
41
1
10
23.7440926136443
20
-1.07583636704189
30
0
41
1
10
23.6749278063925
20
-1.05733768244582
30
0
41
1
10
23.640247584478
20
-1.04724418676028
30
0
41
1
10
23.5705384234133
20
-1.02552519706558
30
0
41
1
10
23.5356881737148
20
-1.01380507950975
30
0
41
1
10
23.4310530372737
20
-0.976105767978027
30
0
41
1
10
23.3610777544175
20
-0.947675531371999
30
0
41
1
10
23.2734311824593
20
-0.907788843081306
30
0
41
1
10
23.255889253545
20
-0.899595592243003
30
0
41
1
10
23.2207732581584
20
-0.882775053499273
30
0
41
1
10
23.2031775130286
20
-0.874136515386056
30
0
41
1
10
23.1505201685786
20
-0.847663741388089
30
0
41
1
10
23.1155897968985
20
-0.829281088499101
30
0
41
1
10
23.0455076228803
20
-0.79161302516826
30
0
41
1
10
23.0103912723373
20
-0.772302803346349
30
0
41
1
10
22.9403690153691
20
-0.73241361736126
30
0
41
1
10
22.9054410439708
20
-0.711853184383813
30
0
41
1
10
22.8357445663175
20
-0.669501923379784
30
0
41
1
10
22.8009807408288
20
-0.647706110641195
30
0
41
1
10
22.7316028511004
20
-0.602873591468693
30
0
41
1
10
22.6969771191895
20
-0.579848336442552
30
0
41
1
10
22.6276770604049
20
-0.532758120792238
30
0
41
1
10
22.5930076120501
20
-0.508687090056128
30
0
41
1
10
22.5234054339259
20
-0.45975245048237
30
0
41
1
10
22.4884269925417
20
-0.434945105145687
30
0
41
1
10
22.4356304395257
20
-0.397315434596919
30
0
41
1
10
22.4179896709085
20
-0.384686513040549
30
0
41
1
10
22.3826767970711
20
-0.359187702536104
30
0
41
1
10
22.3650073852713
20
-0.346316999684319
30
0
41
1
10
22.3122083042983
20
-0.307530615599063
30
0
41
1
10
22.2772014443748
20
-0.281379115646928
30
0
41
1
10
22.2075452382514
20
-0.228523376113259
30
0
41
1
10
22.1729379423733
20
-0.201764170220656
30
0
41
1
10
22.1037613212055
20
-0.148108708904516
30
0
41
1
10
22.0691255259532
20
-0.121299281887303
30
0
41
1
10
22.0168729972335
20
-0.0814134598183216
30
0
41
1
10
21.9994310734605
20
-0.0681397307318719
30
0
41
1
10
21.9645819270743
20
-0.0415260069273415
30
0
41
1
10
21.9471763633991
20
-0.028183792854577
30
0
41
1
10
21.8949490508904
20
0.0118603154852224
30
0
41
1
10
21.8599863027082
20
0.0384081859583603
30
0
41
1
10
21.7550096731026
20
0.118059849227564
30
0
41
1
10
21.6852178799306
20
0.17158182668453
30
0
41
1
10
21.5801646344799
20
0.251649359764912
30
0
41
1
10
21.545039522297
20
0.278357535417229
30
0
41
1
10
21.4747550537038
20
0.330448795771787
30
0
41
1
10
21.4395116147912
20
0.355881439162289
30
0
41
1
10
21.4044476659279
20
0.381075737142339
30
0
0
SPLINE
5
1DD
100
AcDbEntity
8
1
62
256
6
ByLayer
370
18
48
1
60
0
100
AcDbSpline
70
4
71
3
72
26
73
22
40
0
40
0
40
0
40
0
40
0.0668666860777145
40
0.0668666860777145
40
0.244576524959552
40
0.244576524959552
40
0.333431444400472
40
0.333431444400472
40
0.422286363841391
40
0.422286363841391
40
0.599996202723229
40
0.599996202723229
40
0.644423662443687
40
0.644423662443687
40
0.688851122164146
40
0.688851122164146
40
0.777706041605067
40
0.777706041605067
40
0.955415880486907
40
0.955415880486907
40
1
40
1
40
1
40
1
41
1
10
20.5192334528436
20
-0.588500386264855
30
0
41
1
10
20.5172203053082
20
-0.571801218756946
30
0
41
1
10
20.5173737299123
20
-0.553036679212966
30
0
41
1
10
20.5269207371358
20
-0.47583601083474
30
0
41
1
10
20.5522761907841
20
-0.403238074759571
30
0
41
1
10
20.6238718667983
20
-0.280140897754905
30
0
41
1
10
20.6540052289153
20
-0.23652552194892
30
0
41
1
10
20.7147460713979
20
-0.15125435451634
30
0
41
1
10
20.7467573248739
20
-0.108669563087744
30
0
41
1
10
20.8481238862524
20
0.0189197332856565
30
0
41
1
10
20.9206397036938
20
0.101226209738456
30
0
41
1
10
21.0158366894776
20
0.196165833460469
30
0
41
1
10
21.0348309696155
20
0.214463260122557
30
0
41
1
10
21.0726196098232
20
0.247998416077337
30
0
41
1
10
21.0914324389118
20
0.263518806381512
30
0
41
1
10
21.1476387771297
20
0.306527028172098
30
0
41
1
10
21.1832343205404
20
0.329277151198028
30
0
41
1
10
21.2820601729826
20
0.38150206111689
30
0
41
1
10
21.3378304667294
20
0.394739407049542
30
0
41
1
10
21.3875741816108
20
0.387301229905603
30
0
41
1
10
21.3963462009899
20
0.38436000208236
30
0
41
1
10
21.4044447875326
20
0.38060859991586
30
0
0
SPLINE
5
1DE
100
AcDbEntity
8
1
62
256
6
ByLayer
370
18
48
1
60
0
100
AcDbSpline
70
4
71
3
72
44
73
40
40
0
40
0
40
0
40
0
40
0.090966993421732
40
0.090966993421732
40
0.136450490132595
40
0.136450490132595
40
0.181933986843459
40
0.181933986843459
40
0.204675735198893
40
0.204675735198893
40
0.227417483554328
40
0.227417483554328
40
0.272900980265191
40
0.272900980265191
40
0.318384476976054
40
0.318384476976054
40
0.363867973686918
40
0.363867973686918
40
0.409351470397781
40
0.409351470397781
40
0.454834967108645
40
0.454834967108645
40
0.545801960530367
40
0.545801960530367
40
0.591285457241228
40
0.591285457241228
40
0.636768953952089
40
0.636768953952089
40
0.727735947373811
40
0.727735947373811
40
0.773219444084672
40
0.773219444084672
40
0.818702940795533
40
0.818702940795533
40
0.864186437506394
40
0.864186437506394
40
0.909669934217255
40
0.909669934217255
40
1
40
1
40
1
40
1
41
1
10
20.5191113364516
20
-0.588384832609165
30
0
41
1
10
20.598500101172
20
-0.640462182779203
30
0
41
1
10
20.6773545681977
20
-0.689717845017668
30
0
41
1
10
20.7955514147521
20
-0.758718231224947
30
0
41
1
10
20.834951985242
20
-0.780892204988135
30
0
41
1
10
20.9136006610512
20
-0.823726590457966
30
0
41
1
10
20.9526516693055
20
-0.84455478311915
30
0
41
1
10
21.0116961272602
20
-0.87411190964491
30
0
41
1
10
21.0314529820093
20
-0.883689788518183
30
0
41
1
10
21.0709872390288
20
-0.902408894139995
30
0
41
1
10
21.0907734243673
20
-0.911541955445557
30
0
41
1
10
21.1502243699011
20
-0.938228558230463
30
0
41
1
10
21.1899940076582
20
-0.955060579141275
30
0
41
1
10
21.2698707279137
20
-0.986729117614033
30
0
41
1
10
21.3097356110099
20
-1.00147595095621
30
0
41
1
10
21.3890630582516
20
-1.02870913777014
30
0
41
1
10
21.4285594371119
20
-1.04121941886652
30
0
41
1
10
21.5072539709869
20
-1.06400307895956
30
0
41
1
10
21.5464994204418
20
-1.07424751570392
30
0
41
1
10
21.6251437286256
20
-1.09232266532916
30
0
41
1
10
21.6644982059897
20
-1.10017672956212
30
0
41
1
10
21.7826707073898
20
-1.1202183557252
30
0
41
1
10
21.8616061582853
20
-1.12890000985428
30
0
41
1
10
21.9803889894011
20
-1.13466484107039
30
0
41
1
10
22.0200571523756
20
-1.13537004497132
30
0
41
1
10
22.0996480056511
20
-1.13426511920417
30
0
41
1
10
22.1394065161916
20
-1.13246843157617
30
0
41
1
10
22.2582647249546
20
-1.12345285380266
30
0
41
1
10
22.3372229002997
20
-1.11264528968906
30
0
41
1
10
22.4553886162373
20
-1.0894586315566
30
0
41
1
10
22.4947199827615
20
-1.08055884361593
30
0
41
1
10
22.573284121496
20
-1.0603900428325
30
0
41
1
10
22.6125375801301
20
-1.04912457716802
30
0
41
1
10
22.6913305190793
20
-1.02438776426311
30
0
41
1
10
22.7308520233091
20
-1.01091166608899
30
0
41
1
10
22.810197087331
20
-0.981767222836851
30
0
41
1
10
22.8500572652367
20
-0.966078404563035
30
0
41
1
10
22.9692942405146
20
-0.916023117651662
30
0
41
1
10
23.0479047101928
20
-0.878890438326607
30
0
41
1
10
23.1260382448648
20
-0.838146076241884
30
0
0
SPLINE
5
1DF
100
AcDbEntity
8
1
62
256
6
ByLayer
370
18
48
1
60
0
100
AcDbSpline
70
4
71
3
72
32
73
28
40
0
40
0
40
0
40
0
40
0.0092469318892277
40
0.0092469318892277
40
0.174372443241035
40
0.174372443241035
40
0.256935198916935
40
0.256935198916935
40
0.339497954592834
40
0.339497954592834
40
0.504623465944632
40
0.504623465944632
40
0.54590484378258
40
0.54590484378258
40
0.587186221620527
40
0.587186221620527
40
0.628467599458474
40
0.628467599458474
40
0.669748977296421
40
0.669748977296421
40
0.752311732972316
40
0.752311732972316
40
0.834874488648211
40
0.834874488648211
40
0.917437244324106
40
0.917437244324106
40
1
40
1
40
1
40
1
41
1
10
26.6700648220511
20
1.13500007887714
30
0
41
1
10
26.6744801901912
20
1.13500119805158
30
0
41
1
10
26.6788963599957
20
1.13498724546901
30
0
41
1
10
26.7621892525158
20
1.13444028163036
30
0
41
1
10
26.8412871481002
20
1.12913022967501
30
0
41
1
10
26.960396082649
20
1.11369908032654
30
0
41
1
10
27.0002453875034
20
1.10727181779765
30
0
41
1
10
27.0795577280848
20
1.09206926611796
30
0
41
1
10
27.1191509879793
20
1.0833167229423
30
0
41
1
10
27.2378152926883
20
1.0537523657197
30
0
41
1
10
27.3166871218224
20
1.0296197311165
30
0
41
1
10
27.4149944947379
20
0.993976877195138
30
0
41
1
10
27.4346544031305
20
0.986580263877698
30
0
41
1
10
27.4740255833786
20
0.971288136661599
30
0
41
1
10
27.4937334392939
20
0.963392026793684
30
0
41
1
10
27.5330318408743
20
0.946979079190555
30
0
41
1
10
27.5526428944773
20
0.938474399531884
30
0
41
1
10
27.5919436469335
20
0.920976437417551
30
0
41
1
10
27.6116453343149
20
0.911993354660325
30
0
41
1
10
27.6709297489578
20
0.884371651535247
30
0
41
1
10
27.7105686577701
20
0.864961487490945
30
0
41
1
10
27.7901695257399
20
0.824200791650696
30
0
41
1
10
27.8301873553921
20
0.802828353751494
30
0
41
1
10
27.9100084031318
20
0.758472678881901
30
0
41
1
10
27.9498733777181
20
0.73545786841666
30
0
41
1
10
28.0295028741454
20
0.687732964842411
30
0
41
1
10
28.0692338000832
20
0.662984887058315
30
0
41
1
10
28.1090484606617
20
0.637514867779515
30
0
0
SPLINE
5
1E0
100
AcDbEntity
8
1
62
256
6
ByLayer
370
18
48
1
60
0
100
AcDbSpline
70
4
71
3
72
12
73
8
40
0
40
0
40
0
40
0
40
0.499999999999959
40
0.499999999999959
40
0.74999999999998
40
0.74999999999998
40
1
40
1
40
1
40
1
41
1
10
28.1090484606617
20
0.637514867779515
30
0
41
1
10
28.1353493233064
20
0.620689822208931
30
0
41
1
10
28.1615311325006
20
0.605901980197331
30
0
41
1
10
28.2003320579336
20
0.586749386159141
30
0
41
1
10
28.2131874008069
20
0.580875746477062
30
0
41
1
10
28.2387098836674
20
0.570278358964856
30
0
41
1
10
28.2512714427693
20
0.565597119660225
30
0
41
1
10
28.2635598831347
20
0.561673691564152
30
0
0
SPLINE
5
1E1
100
AcDbEntity
8
1
62
256
6
ByLayer
370
18
48
1
60
0
100
AcDbSpline
70
4
71
3
72
8
73
4
40
0
40
0
40
0
40
0
40
1
40
1
40
1
40
1
41
1
10
29.0652447716857
20
0.0086378832125149
30
0
41
1
10
29.0517004266372
20
0.0227577920392434
30
0
41
1
10
29.0381578763749
20
0.0368695722278005
30
0
41
1
10
29.0246176621263
20
0.0509737609594367
30
0
0
SPLINE
5
1E2
100
AcDbEntity
8
1
62
256
6
ByLayer
370
18
48
1
60
0
100
AcDbSpline
70
4
71
3
72
8
73
4
40
0
40
0
40
0
40
0
40
1
40
1
40
1
40
1
41
1
10
29.5938948653662
20
-0.532827320549757
30
0
41
1
10
29.5802522796224
20
-0.51949960103812
30
0
41
1
10
29.5666127984894
20
-0.506121826548252
30
0
41
1
10
29.552979860695
20
-0.49269115737934
30
0
0
SPLINE
5
1E3
100
AcDbEntity
8
1
62
256
6
ByLayer
370
18
48
1
60
0
100
AcDbSpline
70
4
71
3
72
8
73
4
40
0
40
0
40
0
40
0
40
1
40
1
40
1
40
1
41
1
10
30.6509373580077
20
-1.35186539166804
30
0
41
1
10
30.6373527904785
20
-1.34508640353886
30
0
41
1
10
30.6237783284718
20
-1.33814233160388
30
0
41
1
10
30.6102133951138
20
-1.33103410973621
30
0
0
SPLINE
5
1E4
100
AcDbEntity
8
1
62
256
6
ByLayer
370
18
48
1
60
0
100
AcDbSpline
70
4
71
3
72
8
73
4
40
0
40
0
40
0
40
0
40
1
40
1
40
1
40
1
41
1
10
31.1793088886868
20
-1.5250020895445
30
0
41
1
10
31.1657495218385
20
-1.52301411689982
30
0
41
1
10
31.152200182771
20
-1.5208357090124
30
0
41
1
10
31.138661528435
20
-1.51846749783741
30
0
0
SPLINE
5
1E5
100
AcDbEntity
8
1
62
256
6
ByLayer
370
18
48
1
60
0
100
AcDbSpline
70
4
71
3
72
30
73
26
40
0
40
0
40
0
40
0
40
0.0176876476871107
40
0.0176876476871107
40
0.0540695866616625
40
0.0540695866616625
40
0.126833464610766
40
0.126833464610766
40
0.163215403585317
40
0.163215403585317
40
0.199597342559868
40
0.199597342559868
40
0.272361220508971
40
0.272361220508971
40
0.417888976407177
40
0.417888976407177
40
0.708944488203589
40
0.708944488203589
40
0.74532642717814
40
0.74532642717814
40
0.781708366152692
40
0.781708366152692
40
0.854472244101794
40
0.854472244101794
40
1
40
1
40
1
40
1
41
1
10
35.0999999999999
20
-0.470945373173208
30
0
41
1
10
35.1
20
-0.47102040781121
30
0
41
1
10
35.1
20
-0.471184516899029
30
0
41
1
10
35.1
20
-0.471962270073874
30
0
41
1
10
35.1
20
-0.472874913215264
30
0
41
1
10
35.1
20
-0.47671626218542
30
0
41
1
10
35.1
20
-0.480802926112233
30
0
41
1
10
35.1
20
-0.488871921720346
30
0
41
1
10
35.1
20
-0.491701510375464
30
0
41
1
10
35.1
20
-0.497309210087195
30
0
41
1
10
35.1
20
-0.500158794056603
30
0
41
1
10
35.1
20
-0.508840973035547
30
0
41
1
10
35.1
20
-0.514792567626927
30
0
41
1
10
35.1
20
-0.533118583338251
30
0
41
1
10
35.1
20
-0.545981287035005
30
0
41
1
10
35.1
20
-0.586525635656102
30
0
41
1
10
35.1
20
-0.61619067229492
30
0
41
1
10
35.1
20
-0.652411759007862
30
0
41
1
10
35.1
20
-0.656466463061719
30
0
41
1
10
35.1
20
-0.66470456381785
30
0
41
1
10
35.1
20
-0.668865402868619
30
0
41
1
10
35.1
20
-0.682508384651754
30
0
41
1
10
35.1
20
-0.693032587661634
30
0
41
1
10
35.1
20
-0.727622825067755
30
0
41
1
10
35.1
20
-0.754999856874775
30
0
41
1
10
35.1
20
-0.786761373170521
30
0
0
SPLINE
5
1E6
100
AcDbEntity
8
1
62
256
6
ByLayer
370
18
48
1
60
0
100
AcDbSpline
70
4
71
3
72
24
73
20
40
0
40
0
40
0
40
0
40
0.125000000000007
40
0.125000000000007
40
0.187500000000011
40
0.187500000000011
40
0.250000000000014
40
0.250000000000014
40
0.312500000000017
40
0.312500000000017
40
0.375000000000021
40
0.375000000000021
40
0.50000000000001
40
0.50000000000001
40
0.750000000000005
40
0.750000000000005
40
0.875000000000002
40
0.875000000000002
40
1
40
1
40
1
40
1
41
1
10
34.6341121526493
20
-0.40354213541795
30
0
41
1
10
34.6538046111671
20
-0.409352407304993
30
0
41
1
10
34.6736262654507
20
-0.414356431773484
30
0
41
1
10
34.7035625567025
20
-0.42072741602388
30
0
41
1
10
34.7135744820227
20
-0.42266436702343
30
0
41
1
10
34.7336730856555
20
-0.426152952678649
30
0
41
1
10
34.7437698568888
20
-0.427671966599036
30
0
41
1
10
34.7639968222077
20
-0.430474651761472
30
0
41
1
10
34.7740901552032
20
-0.431878154080579
30
0
41
1
10
34.7941515505338
20
-0.434941561704306
30
0
41
1
10
34.8041346783095
20
-0.436552503779637
30
0
41
1
10
34.8339587586955
20
-0.441534968630805
30
0
41
1
10
34.8536770662175
20
-0.445047765173854
30
0
41
1
10
34.9123869422786
20
-0.455771554872626
30
0
41
1
10
34.9509231155414
20
-0.463211901153471
30
0
41
1
10
35.0077016588209
20
-0.474113317891124
30
0
41
1
10
35.0264543164749
20
-0.477709431311325
30
0
41
1
10
35.0635634853092
20
-0.484748740673325
30
0
41
1
10
35.0819212528857
20
-0.488192056260033
30
0
41
1
10
35.1000000000031
20
-0.491624041783382
30
0
0
SPLINE
5
1E7
100
AcDbEntity
8
1
62
256
6
ByLayer
370
18
48
1
60
0
100
AcDbSpline
70
4
71
3
72
8
73
4
40
0
40
0
40
0
40
0
40
1
40
1
40
1
40
1
41
1
10
34.6341121526515
20
-0.403542135421873
30
0
41
1
10
34.5758834420918
20
-0.366709114207566
30
0
41
1
10
34.5183353233184
20
-0.326746443605941
30
0
41
1
10
34.4612723303241
20
-0.28361554242224
30
0
0
SPLINE
5
1E8
100
AcDbEntity
8
1
62
256
6
ByLayer
370
18
48
1
60
0
100
AcDbSpline
70
4
71
3
72
8
73
4
40
0
40
0
40
0
40
0
40
1
40
1
40
1
40
1
41
1
10
34.4612723303244
20
-0.283615542421785
30
0
41
1
10
34.4303893067948
20
-0.232786620350254
30
0
41
1
10
34.399294922868
20
-0.184149205799173
30
0
41
1
10
34.3679518659318
20
-0.137976545926989
30
0
0
SPLINE
5
1E9
100
AcDbEntity
8
1
62
256
6
ByLayer
370
18
48
1
60
0
100
AcDbSpline
70
4
71
3
72
8
73
4
40
0
40
0
40
0
40
0
40
1
40
1
40
1
40
1
41
1
10
34.021167937314
20
0.112864845734038
30
0
41
1
10
34.0347964765683
20
0.0987020625919399
30
0
41
1
10
34.0484162857394
20
0.0845268712313043
30
0
41
1
10
34.0620220830009
20
0.0703342259890292
30
0
0
SPLINE
5
1EA
100
AcDbEntity
8
1
62
256
6
ByLayer
370
18
48
1
60
0
100
AcDbSpline
70
4
71
3
72
8
73
4
40
0
40
0
40
0
40
0
40
1
40
1
40
1
40
1
41
1
10
33.4931217332718
20
0.644290438344598
30
0
41
1
10
33.506581345674
20
0.631665509950551
30
0
41
1
10
33.5200340277601
20
0.618964734554083
30
0
41
1
10
33.5334716117026
20
0.60618082378852
30
0
0
SPLINE
5
1EB
100
AcDbEntity
8
1
62
256
6
ByLayer
370
18
48
1
60
0
100
AcDbSpline
70
4
71
3
72
8
73
4
40
0
40
0
40
0
40
0
40
1
40
1
40
1
40
1
41
1
10
32.4354607768379
20
1.40637117422622
30
0
41
1
10
32.4490858536485
20
1.40056790921002
30
0
41
1
10
32.462691485163
20
1.39458119999901
30
0
41
1
10
32.4762986214755
20
1.38841939857505
30
0
0
SPLINE
5
1EC
100
AcDbEntity
8
1
62
256
6
ByLayer
370
18
48
1
60
0
100
AcDbSpline
70
4
71
3
72
8
73
4
40
0
40
0
40
0
40
0
40
1
40
1
40
1
40
1
41
1
10
31.9073719436155
20
1.53735145073523
30
0
41
1
10
31.9208748384731
20
1.5364781004584
30
0
41
1
10
31.9343670229256
20
1.53541409952507
30
0
41
1
10
31.9478401383203
20
1.53415827667806
30
0
0
SPLINE
5
1ED
100
AcDbEntity
8
1
62
256
6
ByLayer
370
18
48
1
60
0
100
AcDbSpline
70
4
71
3
72
121
73
117
40
0
40
0
40
0
40
0
40
0.0060758682978657
40
0.0060758682978657
40
0.0243764740392635
40
0.0243764740392635
40
0.0426770797806613
40
0.0426770797806613
40
0.0609776855220591
40
0.0609776855220591
40
0.0792782912634569
40
0.0792782912634569
40
0.0975788970048547
40
0.0975788970048547
40
0.115879502746253
40
0.115879502746253
40
0.13418010848765
40
0.13418010848765
40
0.152480714229048
40
0.152480714229048
40
0.170781319970446
40
0.170781319970446
40
0.189081925711844
40
0.189081925711844
40
0.207382531453242
40
0.207382531453242
40
0.225683137194639
40
0.234833440065338
40
0.234833440065338
40
0.243983742936037
40
0.243983742936037
40
0.253134045806736
40
0.253134045806736
40
0.262284348677435
40
0.262284348677435
40
0.271434651548134
40
0.271434651548134
40
0.280584954418833
40
0.280584954418833
40
0.298885560160231
40
0.298885560160231
40
0.335486771643029
40
0.335486771643029
40
0.353787377384428
40
0.353787377384428
40
0.372087983125826
40
0.372087983125826
40
0.408689194608624
40
0.408689194608624
40
0.426989800350023
40
0.426989800350023
40
0.436140103220722
40
0.436140103220722
40
0.44529040609142
40
0.44529040609142
40
0.463591011832819
40
0.463591011832819
40
0.481891617574218
40
0.481891617574218
40
0.518492829057013
40
0.518492829057013
40
0.536793434798412
40
0.536793434798412
40
0.555094040539811
40
0.555094040539811
40
0.573394646281211
40
0.573394646281211
40
0.591695252022609
40
0.591695252022609
40
0.609995857764008
40
0.609995857764008
40
0.628296463505407
40
0.628296463505407
40
0.646597069246806
40
0.646597069246806
40
0.664897674988205
40
0.664897674988205
40
0.701498886471003
40
0.701498886471003
40
0.710649189341702
40
0.710649189341702
40
0.7197994922124
40
0.7197994922124
40
0.738100097953797
40
0.738100097953797
40
0.756400703695194
40
0.756400703695194
40
0.77470130943659
40
0.77470130943659
40
0.793001915177987
40
0.793001915177987
40
0.811302520919384
40
0.811302520919384
40
0.829603126660781
40
0.829603126660781
40
0.847903732402178
40
0.847903732402178
40
0.857054035272876
40
0.857054035272876
40
0.866204338143574
40
0.866204338143574
40
0.884504943884969
40
0.884504943884969
40
0.902805549626363
40
0.902805549626363
40
0.921106155367758
40
0.921106155367758
40
0.930256458238455
40
0.930256458238455
40
0.939406761109152
40
0.939406761109152
40
0.957707366850546
40
0.957707366850546
40
0.994308578333335
40
0.994308578333335
40
1
40
1
40
1
40
1
41
1
10
27.305129499831
20
-1.13499985829938
30
0
41
1
10
27.2934116945257
20
-1.1349983242944
30
0
41
1
10
27.2816925310287
20
-1.13489030656621
30
0
41
1
10
27.2347770485292
20
-1.13402720255812
30
0
41
1
10
27.1997426546735
20
-1.13241012597882
30
0
41
1
10
27.1299744433916
20
-1.12724261130373
30
0
41
1
10
27.0952781768058
20
-1.12367978449885
30
0
41
1
10
27.0256890658827
20
-1.11473393533873
30
0
41
1
10
26.9907161758698
20
-1.10938263681746
30
0
41
1
10
26.9207748777208
20
-1.09690767635283
30
0
41
1
10
26.8858425297386
20
-1.08976772420038
30
0
41
1
10
26.8160766476811
20
-1.07365738128652
30
0
41
1
10
26.7812407546914
20
-1.06468796721035
30
0
41
1
10
26.7116834766243
20
-1.04486241775871
30
0
41
1
10
26.6769631517294
20
-1.03400331051347
30
0
41
1
10
26.6074901555098
20
-1.01040937155426
30
0
41
1
10
26.5727384777969
20
-0.997673688354325
30
0
41
1
10
26.5030377335283
20
-0.970377862159637
30
0
41
1
10
26.4679960199614
20
-0.955779551839413
30
0
41
1
10
26.3978550874787
20
-0.925323777202124
30
0
41
1
10
26.3626529876834
20
-0.909531356864676
30
0
41
1
10
26.2925316246739
20
-0.876442415802302
30
0
41
1
10
26.2575667087899
20
-0.859176070566264
30
0
41
1
10
26.1876876496069
20
-0.823335942934904
30
0
41
1
10
26.1528023533486
20
-0.804739013871256
30
0
41
1
10
26.0832439806958
20
-0.766084959108866
30
0
41
1
10
26.0312111631787
20
-0.73601884286083
30
0
41
1
10
25.9793142109804
20
-0.70437459763977
30
0
41
1
10
25.94473805555
20
-0.682931973683424
30
0
41
1
10
25.9274691056304
20
-0.672027935984516
30
0
41
1
10
25.8927864379752
20
-0.650050638773195
30
0
41
1
10
25.8753618144684
20
-0.638990754650081
30
0
41
1
10
25.8404714302003
20
-0.616596973807589
30
0
41
1
10
25.8230067717581
20
-0.605260351236439
30
0
41
1
10
25.7878806959915
20
-0.58249096665557
30
0
41
1
10
25.7702288573182
20
-0.571049000911557
30
0
41
1
10
25.734913134856
20
-0.547861455950198
30
0
41
1
10
25.7172409653606
20
-0.536124704905433
30
0
41
1
10
25.6641777755484
20
-0.500482343787155
30
0
41
1
10
25.6287108719377
20
-0.476123909952236
30
0
41
1
10
25.5231530498591
20
-0.401967399448523
30
0
41
1
10
25.4536899097167
20
-0.350721278917689
30
0
41
1
10
25.3497624037196
20
-0.272502372295094
30
0
41
1
10
25.3151661100367
20
-0.246202795846131
30
0
41
1
10
25.245729979438
20
-0.193587074704027
30
0
41
1
10
25.2108385589964
20
-0.167339085444382
30
0
41
1
10
25.1062030333558
20
-0.0880624233445531
30
0
41
1
10
25.0366364157055
20
-0.0343174600783414
30
0
41
1
10
24.9322993612965
20
0.0473476706708595
30
0
41
1
10
24.8975207649364
20
0.07474355004004
30
0
41
1
10
24.8449219561065
20
0.115521521160616
30
0
41
1
10
24.8273108680975
20
0.129074771948893
30
0
41
1
10
24.7921363192979
20
0.155972539727486
30
0
41
1
10
24.7745533488998
20
0.169333703673317
30
0
41
1
10
24.7218532166338
20
0.20920766313327
30
0
41
1
10
24.6868223027054
20
0.235559272525222
30
0
41
1
10
24.6166931489628
20
0.287463831458723
30
0
41
1
10
24.5816337106843
20
0.313070485606687
30
0
41
1
10
24.4769443648699
20
0.389458214043799
30
0
41
1
10
24.4076945907516
20
0.439654566745332
30
0
41
1
10
24.3037786342582
20
0.512732891078485
30
0
41
1
10
24.2690698579099
20
0.536648466765854
30
0
41
1
10
24.1993216729337
20
0.583378275021602
30
0
41
1
10
24.1643589235439
20
0.606282336054619
30
0
41
1
10
24.0942671202891
20
0.651173432114916
30
0
41
1
10
24.0590684074691
20
0.673082212178969
30
0
41
1
10
23.9883382585091
20
0.715793196114277
30
0
41
1
10
23.9531071463921
20
0.736504449623823
30
0
41
1
10
23.8830110767665
20
0.776698725814896
30
0
41
1
10
23.8481261848777
20
0.796168372559691
30
0
41
1
10
23.7786482263467
20
0.833805941930478
30
0
41
1
10
23.7440926136443
20
0.852003547938097
30
0
41
1
10
23.6749278063925
20
0.886782372925552
30
0
41
1
10
23.640247584478
20
0.903306906559862
30
0
41
1
10
23.5705384234133
20
0.93457345664865
30
0
41
1
10
23.5356881737148
20
0.949454390963638
30
0
41
1
10
23.4310530372737
20
0.991756843714029
30
0
41
1
10
23.3610777544175
20
1.01678357848456
30
0
41
1
10
23.2734311824593
20
1.04401734765071
30
0
41
1
10
23.255889253545
20
1.04925831472005
30
0
41
1
10
23.2207732581584
20
1.05931813712206
30
0
41
1
10
23.2031775130286
20
1.06414259505777
30
0
41
1
10
23.1505201685786
20
1.07791613672674
30
0
41
1
10
23.1155897968986
20
1.08615465479281
30
0
41
1
10
23.0455076228803
20
1.10059240720275
30
0
41
1
10
23.0103912723373
20
1.10681929507479
30
0
41
1
10
22.9403690153691
20
1.11745819633342
30
0
41
1
10
22.9054410439708
20
1.12185844900102
30
0
41
1
10
22.8357445663175
20
1.12880902462118
30
0
41
1
10
22.8009807408288
20
1.13135998318748
30
0
41
1
10
22.7316028511004
20
1.1345738897391
30
0
41
1
10
22.6969771191895
20
1.13523353470273
30
0
41
1
10
22.6276770604049
20
1.13462014648059
30
0
41
1
10
22.5930076120501
20
1.13334623200149
30
0
41
1
10
22.5234054339259
20
1.12886921943272
30
0
41
1
10
22.4884269925417
20
1.12567329673215
30
0
41
1
10
22.4356304395257
20
1.11947788314961
30
0
41
1
10
22.4179896709085
20
1.1171770480488
30
0
41
1
10
22.3826767970711
20
1.1120870001435
30
0
41
1
10
22.3650073852713
20
1.10929649978985
30
0
41
1
10
22.3122083042983
20
1.10022516059155
30
0
41
1
10
22.2772014443748
20
1.09323339111046
30
0
41
1
10
22.2075452382513
20
1.07735732676659
30
0
41
1
10
22.1729379423733
20
1.06845125335903
30
0
41
1
10
22.1037613212055
20
1.04887204940556
30
0
41
1
10
22.0691255259532
20
1.03823218188083
30
0
41
1
10
22.0168729972335
20
1.0211816858446
30
0
41
1
10
21.9994310734605
20
1.01530357755445
30
0
41
1
10
21.9645819270743
20
1.00311149466978
30
0
41
1
10
21.9471763633991
20
0.996795644131169
30
0
41
1
10
21.8949490508904
20
0.977226925958206
30
0
41
1
10
21.8599863027082
20
0.963441720557768
30
0
41
1
10
21.7550096731026
20
0.919661497486516
30
0
41
1
10
21.6852178799306
20
0.886995201408212
30
0
41
1
10
21.6042919908501
20
0.845354569976763
30
0
41
1
10
21.5933912146557
20
0.839664573891071
30
0
41
1
10
21.5824827687727
20
0.833903331541137
30
0
0
SPLINE
5
1EE
100
AcDbEntity
8
1
62
256
6
ByLayer
370
18
48
1
60
0
100
AcDbSpline
70
4
71
3
72
100
73
96
40
0
40
0
40
0
40
0
40
0.0415904148054384
40
0.0415904148054384
40
0.0623856222081564
40
0.0623856222081564
40
0.0831808296108744
40
0.0831808296108744
40
0.0935784333122346
40
0.0935784333122346
40
0.103976037013595
40
0.103976037013595
40
0.124771244416315
40
0.124771244416315
40
0.145566451819035
40
0.145566451819035
40
0.166361659221756
40
0.166361659221756
40
0.187156866624476
40
0.187156866624476
40
0.207952074027196
40
0.207952074027196
40
0.249542488832634
40
0.249542488832634
40
0.270337696235355
40
0.270337696235355
40
0.291132903638075
40
0.291132903638075
40
0.332723318443513
40
0.332723318443513
40
0.353518525846232
40
0.353518525846232
40
0.374313733248952
40
0.374313733248952
40
0.395108940651671
40
0.395108940651671
40
0.41590414805439
40
0.41590414805439
40
0.457494562859828
40
0.457494562859828
40
0.478289770262547
40
0.478289770262547
40
0.499084977665266
40
0.499084977665266
40
0.519880185067985
40
0.519880185067985
40
0.540675392470704
40
0.540675392470704
40
0.551072996172064
40
0.551072996172064
40
0.561470599873423
40
0.561470599873423
40
0.582265807276143
40
0.582265807276143
40
0.623856222081583
40
0.623856222081583
40
0.644651429484303
40
0.644651429484303
40
0.665446636887023
40
0.665446636887023
40
0.686241844289744
40
0.686241844289744
40
0.696639447991105
40
0.696639447991105
40
0.707037051692466
40
0.707037051692466
40
0.748627466497909
40
0.748627466497909
40
0.769422673900631
40
0.769422673900631
40
0.790217881303354
40
0.790217881303354
40
0.831808296108799
40
0.831808296108799
40
0.842205899810161
40
0.842205899810161
40
0.852603503511522
40
0.852603503511522
40
0.873398710914248
40
0.873398710914248
40
0.9149891257197
40
0.9149891257197
40
0.935784333122425
40
0.935784333122425
40
0.946181936823789
40
0.946181936823789
40
0.956579540525152
40
0.956579540525152
40
0.977374747927879
40
0.977374747927879
40
0.987772351629244
40
0.987772351629244
40
0.998169955330609
40
0.998169955330609
40
1
40
1
40
1
40
1
41
1
10
20.5191113364515
20
1.1347405806394
30
0
41
1
10
20.598500101172
20
1.13343859495447
30
0
41
1
10
20.6773545681977
20
1.12724168587505
30
0
41
1
10
20.7955514147521
20
1.11087329943516
30
0
41
1
10
20.8349519852421
20
1.10424710935828
30
0
41
1
10
20.9136006610512
20
1.08859236390282
30
0
41
1
10
20.9526516693056
20
1.07947388154989
30
0
41
1
10
21.0116961272602
20
1.0641829696618
30
0
41
1
10
21.0314529820093
20
1.05882180293824
30
0
41
1
10
21.0709872390288
20
1.04751382853615
30
0
41
1
10
21.0907734243673
20
1.04157005046329
30
0
41
1
10
21.1502243699011
20
1.02288097502418
30
0
41
1
10
21.1899940076582
20
1.00928603484354
30
0
41
1
10
21.2698707279137
20
0.979825185520497
30
0
41
1
10
21.3097356110099
20
0.96403920856406
30
0
41
1
10
21.3890630582516
20
0.930505653514018
30
0
41
1
10
21.4285594371119
20
0.912733426068002
30
0
41
1
10
21.5072539709869
20
0.875203380659883
30
0
41
1
10
21.5464994204379
20
0.85548024616665
30
0
41
1
10
21.6251437286218
20
0.814452300655489
30
0
41
1
10
21.6644982059897
20
0.793112161334165
30
0
41
1
10
21.7826707073898
20
0.726649407827182
30
0
41
1
10
21.8616061582853
20
0.679105027488902
30
0
41
1
10
21.9803889894011
20
0.602936295679996
30
0
41
1
10
22.0200571523756
20
0.576745582936411
30
0
41
1
10
22.0996480056511
20
0.522827621537829
30
0
41
1
10
22.1394065161916
20
0.495515503767791
30
0
41
1
10
22.2582647249546
20
0.412251330543512
30
0
41
1
10
22.3372229002997
20
0.35527726921012
30
0
41
1
10
22.4553886162373
20
0.267849459638228
30
0
41
1
10
22.4947199827615
20
0.238362846175903
30
0
41
1
10
22.573284121496
20
0.178714015777047
30
0
41
1
10
22.6125375801301
20
0.148577320250609
30
0
41
1
10
22.6913305190793
20
0.0881257725699811
30
0
41
1
10
22.7308520233091
20
0.0577883498956737
30
0
41
1
10
22.810197087331
20
-0.0030423071840744
30
0
41
1
10
22.8500572652367
20
-0.0335744326620784
30
0
41
1
10
22.9698534285939
20
-0.125178309600187
30
0
41
1
10
23.0490132585152
20
-0.185556668322619
30
0
41
1
10
23.1670298097041
20
-0.274682483067608
30
0
41
1
10
23.2062887472468
20
-0.304095804679378
30
0
41
1
10
23.2849495223003
20
-0.361957983159755
30
0
41
1
10
23.3243249787736
20
-0.390442028293052
30
0
41
1
10
23.4031221480697
20
-0.446575874258144
30
0
41
1
10
23.4425155831263
20
-0.474259155537652
30
0
41
1
10
23.52145909188
20
-0.528647426008746
30
0
41
1
10
23.5610590359387
20
-0.555294549385764
30
0
41
1
10
23.6205764110668
20
-0.594524313092393
30
0
41
1
10
23.6404318521468
20
-0.60748104787092
30
0
41
1
10
23.6801323587339
20
-0.633198970808223
30
0
41
1
10
23.7000138614768
20
-0.6459665498177
30
0
41
1
10
23.7596432771211
20
-0.683566117502494
30
0
41
1
10
23.7993129745104
20
-0.707722639134971
30
0
41
1
10
23.9181078165082
20
-0.77752826034893
30
0
41
1
10
23.997036626894
20
-0.82050970360666
30
0
41
1
10
24.1151494918437
20
-0.879652131972591
30
0
41
1
10
24.154478420495
20
-0.898470116177663
30
0
41
1
10
24.23307819786
20
-0.934268452484901
30
0
41
1
10
24.2723293285321
20
-0.951258728307721
30
0
41
1
10
24.3511573509584
20
-0.983094151819557
30
0
41
1
10
24.3907244443267
20
-0.997952181952968
30
0
41
1
10
24.4502934693713
20
-1.01865226424778
30
0
41
1
10
24.4701878404786
20
-1.02528641807976
30
0
41
1
10
24.5100579938481
20
-1.03801589571026
30
0
41
1
10
24.5300578443642
20
-1.04411777814707
30
0
41
1
10
24.6297722969289
20
-1.07312332548983
30
0
41
1
10
24.7088302823032
20
-1.09165003300166
30
0
41
1
10
24.8267797753185
20
-1.11233885399963
30
0
41
1
10
24.8660547254638
20
-1.11802814089893
30
0
41
1
10
24.9447004586395
20
-1.12698461789085
30
0
41
1
10
24.9840597912904
20
-1.13025640513425
30
0
41
1
10
25.1023080094297
20
-1.13646909217061
30
0
41
1
10
25.1813738098592
20
-1.13583235587018
30
0
41
1
10
25.2805288744867
20
-1.12884343598304
30
0
41
1
10
25.3003731186362
20
-1.12713347994008
30
0
41
1
10
25.3401224192726
20
-1.12308276008648
30
0
41
1
10
25.3600377222796
20
-1.12074004360858
30
0
41
1
10
25.4196303913347
20
-1.11282222065085
30
0
41
1
10
25.4592714512128
20
-1.10635265880285
30
0
41
1
10
25.5780081640178
20
-1.08350455183827
30
0
41
1
10
25.6568308430488
20
-1.0636651158753
30
0
41
1
10
25.774945982885
20
-1.02727672661382
30
0
41
1
10
25.8143447366285
20
-1.01407192117711
30
0
41
1
10
25.8732039103916
20
-0.99245092299455
30
0
41
1
10
25.8927976202632
20
-0.984947309550222
30
0
41
1
10
25.9320706546991
20
-0.96943277464112
30
0
41
1
10
25.9517715018249
20
-0.961437816703409
30
0
41
1
10
26.0110036136003
20
-0.936706251352575
30
0
41
1
10
26.0506333103727
20
-0.919200489133232
30
0
41
1
10
26.110289905631
20
-0.891400190705184
30
0
41
1
10
26.1302104452418
20
-0.88187589377381
30
0
41
1
10
26.1701176049482
20
-0.862301677259183
30
0
41
1
10
26.1900834706363
20
-0.852256829644915
30
0
41
1
10
26.2134848650307
20
-0.840206230669679
30
0
41
1
10
26.2169861941514
20
-0.838396273997404
30
0
41
1
10
26.2204865256533
20
-0.836579946552746
30
0
0
SPLINE
5
1EF
100
AcDbEntity
8
1
62
256
6
ByLayer
370
18
48
1
60
0
100
AcDbSpline
70
4
71
3
72
8
73
4
40
0
40
0
40
0
40
0
40
1
40
1
40
1
40
1
41
1
10
29.9462121474207
20
1.53664869071079
30
0
41
1
10
29.9326350318756
20
1.53762983380736
30
0
41
1
10
29.9190692261543
20
1.53841609138419
30
0
41
1
10
29.9055131464442
20
1.53900717080353
30
0
0
SPLINE
5
1F0
100
AcDbEntity
8
1
62
256
6
ByLayer
370
18
48
1
60
0
100
AcDbSpline
70
4
71
3
72
8
73
4
40
0
40
0
40
0
40
0
40
1
40
1
40
1
40
1
41
1
10
30.4748411509141
20
1.4013080278047
30
0
41
1
10
30.4611979400378
20
1.40722648131265
30
0
41
1
10
30.4475649225868
20
1.41296465860688
30
0
41
1
10
30.4339384774383
20
1.41852113713128
30
0
0
SPLINE
5
1F1
100
AcDbEntity
8
1
62
256
6
ByLayer
370
18
48
1
60
0
100
AcDbSpline
70
4
71
3
72
8
73
4
40
0
40
0
40
0
40
0
40
1
40
1
40
1
40
1
41
1
10
31.0030904269832
20
1.08785474176335
30
0
41
1
10
30.9895365392567
20
1.09787966335099
30
0
41
1
10
30.9759902396831
20
1.10776464848669
30
0
41
1
10
30.9624528860921
20
1.11751057867596
30
0
0
SPLINE
5
1F2
100
AcDbEntity
8
1
62
256
6
ByLayer
370
18
48
1
60
0
100
AcDbSpline
70
4
71
3
72
12
73
8
40
0
40
0
40
0
40
0
40
0.499999999999989
40
0.499999999999989
40
0.749999999999994
40
0.749999999999994
40
1
40
1
40
1
40
1
41
1
10
31.0030904269823
20
1.08785474175087
30
0
41
1
10
31.0326669795422
20
1.02673211183807
30
0
41
1
10
31.0625151569572
20
0.96616697092125
30
0
41
1
10
31.1077994156491
20
0.876455850614178
30
0
41
1
10
31.122969204913
20
0.846761606970858
30
0
41
1
10
31.1534745351104
20
0.787874436377535
30
0
41
1
10
31.1688052793772
20
0.758715236583242
30
0
41
1
10
31.1842115951568
20
0.729818340196061
30
0
0
SPLINE
5
1F3
100
AcDbEntity
8
1
62
256
6
ByLayer
370
18
48
1
60
0
100
AcDbSpline
70
4
71
3
72
26
73
22
40
0
40
0
40
0
40
0
40
0.125
40
0.125
40
0.25
40
0.25
40
0.375
40
0.375
40
0.5
40
0.5
40
0.625
40
0.625
40
0.75
40
0.75
40
0.8125
40
0.8125
40
0.875
40
0.875
40
0.9375
40
0.9375
40
1
40
1
40
1
40
1
41
1
10
31.1842115951568
20
0.729818340196033
30
0
41
1
10
31.1878851928209
20
0.722927947152925
30
0
41
1
10
31.192155623263
20
0.7162965154196
30
0
41
1
10
31.2015943047169
20
0.703427484386367
30
0
41
1
10
31.2068172919526
20
0.697148012829217
30
0
41
1
10
31.217683901146
20
0.68539098978809
30
0
41
1
10
31.2233619221654
20
0.679859051349553
30
0
41
1
10
31.2351616807201
20
0.669433390882034
30
0
41
1
10
31.2413243316915
20
0.664517836975278
30
0
41
1
10
31.2536471307428
20
0.655676927333104
30
0
41
1
10
31.2598530713657
20
0.651704057232934
30
0
41
1
10
31.2723375503495
20
0.644734777294076
30
0
41
1
10
31.2786579464796
20
0.641730308919819
30
0
41
1
10
31.2877475637274
20
0.638328253072245
30
0
41
1
10
31.2907274723062
20
0.637369839870388
30
0
41
1
10
31.2965691071128
20
0.63585405499947
30
0
41
1
10
31.299444826935
20
0.635297160486942
30
0
41
1
10
31.3048859816356
20
0.634680452507979
30
0
41
1
10
31.3074699947401
20
0.634613481299397
30
0
41
1
10
31.3123203673469
20
0.635040408212802
30
0
41
1
10
31.3145955441228
20
0.635540870192727
30
0
41
1
10
31.3166166759593
20
0.636366961497998
30
0
0
SPLINE
5
1F4
100
AcDbEntity
8
1
62
256
6
ByLayer
370
18
48
1
60
0
100
AcDbSpline
70
4
71
3
72
10
73
6
40
0
40
0
40
0
40
0
40
0.5
40
0.5
40
1
40
1
40
1
40
1
41
1
10
31.3166166759593
20
0.63636696149851
30
0
41
1
10
31.3462258094044
20
0.648469016027633
30
0
41
1
10
31.3755151696581
20
0.657466474449109
30
0
41
1
10
31.4337181491429
20
0.66993242960649
30
0
41
1
10
31.4624936319159
20
0.673337745166862
30
0
41
1
10
31.4910514458689
20
0.674028186331725
30
0
0
SPLINE
5
1F5
100
AcDbEntity
8
1
62
256
6
ByLayer
370
18
48
1
60
0
100
AcDbSpline
70
4
71
3
72
8
73
4
40
0
40
0
40
0
40
0
40
1
40
1
40
1
40
1
41
1
10
31.5318897018213
20
0.635275320036641
30
0
41
1
10
31.5182655056017
20
0.648274251813689
30
0
41
1
10
31.5046537474938
20
0.661192769310475
30
0
41
1
10
31.4910514458688
20
0.67402818633181
30
0
0
SPLINE
5
1F6
100
AcDbEntity
8
1
62
256
6
ByLayer
370
18
48
1
60
0
100
AcDbSpline
70
4
71
3
72
12
73
8
40
0
40
0
40
0
40
0
40
0.5
40
0.5
40
0.75
40
0.75
40
1
40
1
40
1
40
1
41
1
10
31.5318897018213
20
0.635275320036669
30
0
41
1
10
31.5614211024842
20
0.580467388481964
30
0
41
1
10
31.5912301102558
20
0.527295878942226
30
0
41
1
10
31.6364493113211
20
0.450277065715795
30
0
41
1
10
31.6515953736898
20
0.425076193576729
30
0
41
1
10
31.6820494384976
20
0.375706871521459
30
0
41
1
10
31.6973531590286
20
0.351578412680112
30
0
41
1
10
31.7127301097542
20
0.327956798700882
30
0
0
SPLINE
5
1F7
100
AcDbEntity
8
1
62
256
6
ByLayer
370
18
48
1
60
0
100
AcDbSpline
70
4
71
3
72
26
73
22
40
0
40
0
40
0
40
0
40
0.124999999999979
40
0.124999999999979
40
0.249999999999959
40
0.249999999999959
40
0.374999999999938
40
0.374999999999938
40
0.499999999999917
40
0.499999999999917
40
0.624999999999897
40
0.624999999999897
40
0.749999999999877
40
0.749999999999877
40
0.812499999999908
40
0.812499999999908
40
0.874999999999938
40
0.874999999999938
40
0.937499999999969
40
0.937499999999969
40
1
40
1
40
1
40
1
41
1
10
31.7127301097542
20
0.327956798700882
30
0
41
1
10
31.716403810639
20
0.322313368756568
30
0
41
1
10
31.720674544637
20
0.316609152973143
30
0
41
1
10
31.7301137551805
20
0.305122645034459
30
0
41
1
10
31.7353372860306
20
0.299293830882988
30
0
41
1
10
31.7462060710193
20
0.287989781502461
30
0
41
1
10
31.7518854264803
20
0.282467581254508
30
0
41
1
10
31.7636874561035
20
0.271647122310952
30
0
41
1
10
31.7698510624957
20
0.266319706030515
30
0
41
1
10
31.782174867254
20
0.256244191799226
30
0
41
1
10
31.7883808010809
20
0.25145003874195
30
0
41
1
10
31.8008640037579
20
0.242375182345285
30
0
41
1
10
31.8071830774959
20
0.238072709372688
30
0
41
1
10
31.8162709502867
20
0.232377634070872
30
0
41
1
10
31.8192502899069
20
0.230594711758698
30
0
41
1
10
31.8250909594141
20
0.227291072103952
30
0
41
1
10
31.8279664046466
20
0.225764627134623
30
0
41
1
10
31.8334072418542
20
0.223102855513758
30
0
41
1
10
31.8359910681604
20
0.221955605899922
30
0
41
1
10
31.8408410954805
20
0.220087816803243
30
0
41
1
10
31.8431162085021
20
0.219366788857258
30
0
41
1
10
31.8451374515868
20
0.218924908989209
30
0
0
SPLINE
5
1F8
100
AcDbEntity
8
1
62
256
6
ByLayer
370
18
48
1
60
0
100
AcDbSpline
70
4
71
3
72
12
73
8
40
0
40
0
40
0
40
0
40
0.25
40
0.25
40
0.500000000000001
40
0.500000000000001
40
1
40
1
40
1
40
1
41
1
10
31.8451374515868
20
0.218924908989777
30
0
41
1
10
31.8599481287159
20
0.215687030228281
30
0
41
1
10
31.8746780125407
20
0.211641799786946
30
0
41
1
10
31.9040213358566
20
0.202150273694713
30
0
41
1
10
31.918630541606
20
0.19666524998965
30
0
41
1
10
31.9623053713353
20
0.177990465677396
30
0
41
1
10
31.9910804981901
20
0.162666865006344
30
0
41
1
10
32.0196414564146
20
0.144762432624219
30
0
0
SPLINE
5
1F9
100
AcDbEntity
8
1
62
256
6
ByLayer
370
18
48
1
60
0
100
AcDbSpline
70
4
71
3
72
8
73
4
40
0
40
0
40
0
40
0
40
1
40
1
40
1
40
1
41
1
10
32.0602177663951
20
0.102349328042379
30
0
41
1
10
32.0466796222682
20
0.116498132650577
30
0
41
1
10
32.0331550988637
20
0.130636718067024
30
0
41
1
10
32.0196414564146
20
0.144762432624248
30
0
0
SPLINE
5
1FA
100
AcDbEntity
8
1
62
256
6
ByLayer
370
18
48
1
60
0
100
AcDbSpline
70
4
71
3
72
12
73
8
40
0
40
0
40
0
40
0
40
0.499999999999989
40
0.499999999999989
40
0.749999999999994
40
0.749999999999994
40
1
40
1
40
1
40
1
41
1
10
32.0602177663948
20
0.102349328041242
30
0
41
1
10
32.0897630796884
20
0.0607491180663544
30
0
41
1
10
32.1195951551827
20
0.0216573405965335
30
0
41
1
10
32.1648626022911
20
-0.0330020920978882
30
0
41
1
10
32.1800269629513
20
-0.0505486940941466
30
0
41
1
10
32.210520887115
20
-0.0842156363537185
30
0
41
1
10
32.2258459989331
20
-0.100296007703292
30
0
41
1
10
32.2412452238189
20
-0.115690880842806
30
0
0
SPLINE
5
1FB
100
AcDbEntity
8
1
62
256
6
ByLayer
370
18
48
1
60
0
100
AcDbSpline
70
4
71
3
72
8
73
4
40
0
40
0
40
0
40
0
40
1
40
1
40
1
40
1
41
1
10
32.5887124667034
20
-0.443624183080033
30
0
41
1
10
32.5751664896903
20
-0.430026372136695
30
0
41
1
10
32.5616256498745
20
-0.416377157806949
30
0
41
1
10
32.5481018185985
20
-0.402665571153676
30
0
0
SPLINE
5
1FC
100
AcDbEntity
8
1
62
256
6
ByLayer
370
18
48
1
60
0
100
AcDbSpline
70
4
71
3
72
8
73
4
40
0
40
0
40
0
40
0
40
1
40
1
40
1
40
1
41
1
10
33.6457716632888
20
-1.30403583451698
30
0
41
1
10
33.6322325632588
20
-1.29646540182699
30
0
41
1
10
33.6187141518243
20
-1.28872304164761
30
0
41
1
10
33.6052042637718
20
-1.28081464555998
30
0
0
SPLINE
5
1FD
100
AcDbEntity
8
1
62
256
6
ByLayer
370
18
48
1
60
0
100
AcDbSpline
70
4
71
3
72
26
73
22
40
0
40
0
40
0
40
0
40
0.12499999999998
40
0.12499999999998
40
0.249999999999959
40
0.249999999999959
40
0.374999999999939
40
0.374999999999939
40
0.499999999999919
40
0.499999999999919
40
0.624999999999898
40
0.624999999999898
40
0.749999999999878
40
0.749999999999878
40
0.812499999999909
40
0.812499999999909
40
0.874999999999939
40
0.874999999999939
40
0.937499999999969
40
0.937499999999969
40
1
40
1
40
1
40
1
41
1
10
34.3553087321608
20
-1.24835923557586
30
0
41
1
10
34.358992715071
20
-1.24264906340906
30
0
41
1
10
34.3632761921376
20
-1.23781205184699
30
0
41
1
10
34.3727412653804
20
-1.2294255010361
30
0
41
1
10
34.37797987521
20
-1.22586986405145
30
0
41
1
10
34.3888762197264
20
-1.22015315487482
30
0
41
1
10
34.3945673458141
20
-1.21795282898555
30
0
41
1
10
34.4063875530044
20
-1.21479470271387
30
0
41
1
10
34.4125566792754
20
-1.21384594175845
30
0
41
1
10
34.424883816945
20
-1.21331392498934
30
0
41
1
10
34.4310881841427
20
-1.21370869810966
30
0
41
1
10
34.4435608187954
20
-1.21597687032471
30
0
41
1
10
34.449866366347
20
-1.21787834390196
30
0
41
1
10
34.458929854675
20
-1.22197660809295
30
0
41
1
10
34.4619006412152
20
-1.22355326473732
30
0
41
1
10
34.4677235687167
20
-1.22719135342567
30
0
41
1
10
34.4705897306581
20
-1.22926786671249
30
0
41
1
10
34.4760131939898
20
-1.23386576335312
30
0
41
1
10
34.4785886176419
20
-1.23639463286153
30
0
41
1
10
34.4834227087354
20
-1.24198537738329
30
0
41
1
10
34.4856912447526
20
-1.24506741075072
30
0
41
1
10
34.4877086311152
20
-1.24838762362333
30
0
0
SPLINE
5
1FE
100
AcDbEntity
8
1
62
256
6
ByLayer
370
18
48
1
60
0
100
AcDbSpline
70
4
71
3
72
8
73
4
40
0
40
0
40
0
40
0
40
1
40
1
40
1
40
1
41
1
10
34.4877086311151
20
-1.24838762362333
30
0
41
1
10
34.5043941282404
20
-1.27584860153394
30
0
41
1
10
34.5209793941965
20
-1.30296183994685
30
0
41
1
10
34.5374956257706
20
-1.32976775985597
30
0
0
SPLINE
5
1FF
100
AcDbEntity
8
1
62
256
6
ByLayer
370
18
48
1
60
0
100
AcDbSpline
70
4
71
3
72
8
73
4
40
0
40
0
40
0
40
0
40
1
40
1
40
1
40
1
41
1
10
34.5374956257706
20
-1.32976775985597
30
0
41
1
10
34.58615454346
20
-1.30945251862727
30
0
41
1
10
34.6350949782112
20
-1.28661091692291
30
0
41
1
10
34.6844372311832
20
-1.26130773454113
30
0
0
SPLINE
5
200
100
AcDbEntity
8
1
62
256
6
ByLayer
370
18
48
1
60
0
100
AcDbSpline
70
4
71
3
72
22
73
18
40
0
40
0
40
0
40
0
40
0.125000000000005
40
0.125000000000005
40
0.25000000000001
40
0.25000000000001
40
0.50000000000002
40
0.50000000000002
40
0.562500000000017
40
0.562500000000017
40
0.625000000000015
40
0.625000000000015
40
0.75000000000001
40
0.75000000000001
40
0.875000000000005
40
0.875000000000005
40
1
40
1
40
1
40
1
41
1
10
35.1000000000003
20
-0.786761373169639
30
0
41
1
10
35.0806456637192
20
-0.805613310622221
30
0
41
1
10
35.0614756487853
20
-0.825066874231254
30
0
41
1
10
35.0233806110208
20
-0.864949991053834
30
0
41
1
10
35.0043901865638
20
-0.885459918309806
30
0
41
1
10
34.9489017929317
20
-0.946806418511017
30
0
41
1
10
34.9134401153365
20
-0.987889686954247
30
0
41
1
10
34.8702331326602
20
-1.03898048060745
30
0
41
1
10
34.8616494354415
20
-1.04918586744105
30
0
41
1
10
34.8445811203308
20
-1.06955957716426
30
0
41
1
10
34.8360817042025
20
-1.07974585502623
30
0
41
1
10
34.8109376556028
20
-1.10995963830925
30
0
41
1
10
34.7945842161482
20
-1.12971781283548
30
0
41
1
10
34.7625562972435
20
-1.16843290224352
30
0
41
1
10
34.7468725918478
20
-1.18739000710866
30
0
41
1
10
34.7155802449544
20
-1.22476257192
30
0
41
1
10
34.6999815663077
20
-1.24317783474558
30
0
41
1
10
34.6844372311838
20
-1.26130773454375
30
0
0
SPLINE
5
201
100
AcDbEntity
8
SK1
62
256
6
ByLayer
370
18
48
1
60
0
100
AcDbSpline
70
4
71
3
72
22
73
18
40
0
40
0
40
0
40
0
40
0.124981927219697
40
0.124981927219697
40
0.249963854439394
40
0.249963854439394
40
0.499927708878789
40
0.499927708878789
40
0.624909636098486
40
0.624909636098486
40
0.687400599708335
40
0.687400599708335
40
0.749891563318184
40
0.749891563318184
40
0.999855417757578
40
0.999855417757578
40
1
40
1
40
1
40
1
41
1
10
-20
20
1.34999999999997
30
0
41
1
10
-20.0227233080499
20
1.34999999999997
30
0
41
1
10
-20.0448914469382
20
1.34999999999997
30
0
41
1
10
-20.0877266864706
20
1.34999999999997
30
0
41
1
10
-20.1083284459351
20
1.34999999999997
30
0
41
1
10
-20.167230967575
20
1.34999999999997
30
0
41
1
10
-20.202663797918
20
1.34999999999997
30
0
41
1
10
-20.2476748963658
20
1.34999999999997
30
0
41
1
10
-20.2613137295386
20
1.34999999999997
30
0
41
1
10
-20.279347296802
20
1.34999999999997
30
0
41
1
10
-20.284953806971
20
1.34999999999997
30
0
41
1
10
-20.2952881054335
20
1.34999999999997
30
0
41
1
10
-20.3000257521431
20
1.34999999999997
30
0
41
1
10
-20.3212026648993
20
1.34999999999997
30
0
41
1
10
-20.3299903883143
20
1.34999999999997
30
0
41
1
10
-20.3299989989647
20
1.34999999999997
30
0
41
1
10
-20.3300010003422
20
1.34999999999997
30
0
41
1
10
-20.3299990013197
20
1.34999999999997
30
0
0
SPLINE
5
202
100
AcDbEntity
8
SK1
62
256
6
ByLayer
370
18
48
1
60
0
100
AcDbSpline
70
4
71
3
72
22
73
18
40
0
40
0
40
0
40
0
40
0.0001434161269349
40
0.0001434161269349
40
0.250107562095201
40
0.250107562095201
40
0.312598598587268
40
0.312598598587268
40
0.375089635079334
40
0.375089635079334
40
0.500071708063467
40
0.500071708063467
40
0.750035854031734
40
0.750035854031734
40
0.875017927015867
40
0.875017927015867
40
1
40
1
40
1
40
1
41
1
10
-20.3299990013025
20
-1.35000000000002
30
0
41
1
10
-20.3300010002995
20
-1.35000000000002
30
0
41
1
10
-20.3299989988964
20
-1.35000000000002
30
0
41
1
10
-20.3299903883143
20
-1.35000000000002
30
0
41
1
10
-20.3212026648993
20
-1.35000000000002
30
0
41
1
10
-20.3000257521431
20
-1.35000000000002
30
0
41
1
10
-20.2952881054335
20
-1.35000000000002
30
0
41
1
10
-20.284953806971
20
-1.35000000000002
30
0
41
1
10
-20.279347296802
20
-1.35000000000002
30
0
41
1
10
-20.2613137295386
20
-1.35000000000002
30
0
41
1
10
-20.2476748963658
20
-1.35000000000002
30
0
41
1
10
-20.2026637979179
20
-1.35000000000002
30
0
41
1
10
-20.167230967575
20
-1.35000000000002
30
0
41
1
10
-20.1083284459351
20
-1.35000000000002
30
0
41
1
10
-20.0877266864706
20
-1.35000000000002
30
0
41
1
10
-20.0448914469382
20
-1.35000000000002
30
0
41
1
10
-20.0227233080499
20
-1.35000000000002
30
0
41
1
10
-20
20
-1.35000000000002
30
0
0
SPLINE
5
203
100
AcDbEntity
8
SK1
62
256
6
ByLayer
370
18
48
1
60
0
100
AcDbSpline
70
4
71
3
72
32
73
28
40
0
40
0
40
0
40
0
40
0.0625000000000001
40
0.0625000000000001
40
0.125
40
0.125
40
0.25
40
0.25
40
0.375
40
0.375
40
0.4375
40
0.4375
40
0.5
40
0.5
40
0.625000000000001
40
0.625000000000001
40
0.656250000000001
40
0.656250000000001
40
0.687500000000001
40
0.687500000000001
40
0.75
40
0.75
40
0.875
40
0.875
40
0.9375
40
0.9375
40
1
40
1
40
1
40
1
41
1
10
-20
20
-0.999949998749969
30
0
41
1
10
-20.0226089992037
20
-0.961964980789418
30
0
41
1
10
-20.0446414325945
20
-0.923556954209289
30
0
41
1
10
-20.0873065833473
20
-0.845713972410636
30
0
41
1
10
-20.1079538208723
20
-0.80625143015169
30
0
41
1
10
-20.167235889623
20
-0.686151565538751
30
0
41
1
10
-20.2027721025258
20
-0.604757310331763
30
0
41
1
10
-20.262764019981
20
-0.438277271124207
30
0
41
1
10
-20.2872132552966
20
-0.353189331863888
30
0
41
1
10
-20.312577717807
20
-0.221789640917564
30
0
41
1
10
-20.3191405381361
20
-0.177169266100549
30
0
41
1
10
-20.3278289032073
20
-0.0884146419300009
30
0
41
1
10
-20.3300047939188
20
-0.0441017000041199
30
0
41
1
10
-20.3299903883143
20
0.0886429108702202
30
0
41
1
10
-20.3212026648993
20
0.176878721756935
30
0
41
1
10
-20.3000257521431
20
0.286870907411526
30
0
41
1
10
-20.2952881054335
20
0.308824177666793
30
0
41
1
10
-20.284953806971
20
0.352277195461767
30
0
41
1
10
-20.279347296802
20
0.373830967874341
30
0
41
1
10
-20.2613137295386
20
0.4380149817747
30
0
41
1
10
-20.2476748963658
20
0.48016880871964
30
0
41
1
10
-20.2026637979179
20
0.605020481841706
30
0
41
1
10
-20.167230967575
20
0.686121900852925
30
0
41
1
10
-20.1083284459351
20
0.80551210617773
30
0
41
1
10
-20.0877266864706
20
0.844928431198611
30
0
41
1
10
-20.0448914469382
20
0.923119563851714
30
0
41
1
10
-20.0227233080499
20
0.96177293232509
30
0
41
1
10
-20
20
0.999949998749941
30
0
0
SPLINE
5
204
100
AcDbEntity
8
1
62
256
6
ByLayer
370
18
48
1
60
0
100
AcDbSpline
70
4
71
1
72
4
73
2
40
0
40
0
40
1
40
1
41
1
10
34.1309656938596
20
-1.49405602044678
30
0
41
1
10
34.2468812208417
20
-1.44721760975347
30
0
0
SPLINE
5
205
100
AcDbEntity
8
1
62
256
6
ByLayer
370
18
48
1
60
0
100
AcDbSpline
70
4
71
2
72
6
73
3
40
0
40
0
40
0
40
1
40
1
40
1
41
1
10
33.1110248172436
20
1.25161007772041
30
0
41
1
10
33.0311616523364
20
1.38802403122438
30
0
41
1
10
32.9513473240855
20
1.52491076662
30
0
0
SPLINE
5
206
100
AcDbEntity
8
1
62
256
6
ByLayer
370
18
48
1
60
0
100
AcDbSpline
70
4
71
1
72
4
73
2
40
0
40
0
40
1
40
1
41
1
10
29.9739445980472
20
1.48918233965529
30
0
41
1
10
29.9464943229254
20
1.53646596682313
30
0
0
SPLINE
5
207
100
AcDbEntity
8
1
62
256
6
ByLayer
370
18
48
1
60
0
100
AcDbSpline
70
4
71
2
72
6
73
3
40
0
40
0
40
0
40
1
40
1
40
1
41
1
10
31.8941144790888
20
1.53201434685491
30
0
41
1
10
31.8091404627308
20
1.38565234535687
30
0
41
1
10
31.72411165183
20
1.23964290891286
30
0
0
SPLINE
5
208
100
AcDbEntity
8
1
62
256
6
ByLayer
370
18
48
1
60
0
100
AcDbSpline
70
4
71
2
72
6
73
3
40
0
40
0
40
0
40
1
40
1
40
1
41
1
10
28.8962777967273
20
1.53637080178061
30
0
41
1
10
28.8111754614396
20
1.38949296821576
30
0
41
1
10
28.7259735468021
20
1.24285502728938
30
0
0
SPLINE
5
209
100
AcDbEntity
8
1
62
256
6
ByLayer
370
18
48
1
60
0
100
AcDbSpline
70
4
71
2
72
6
73
3
40
0
40
0
40
0
40
1
40
1
40
1
41
1
10
32.1175874356954
20
1.24203235434851
30
0
41
1
10
32.0337238697519
20
1.38609874572728
30
0
41
1
10
31.9500801002932
20
1.53029640681291
30
0
0
SPLINE
5
20A
100
AcDbEntity
8
1
62
256
6
ByLayer
370
18
48
1
60
0
100
AcDbSpline
70
4
71
2
72
6
73
3
40
0
40
0
40
0
40
1
40
1
40
1
41
1
10
31.1962098531846
20
-1.53667287790583
30
0
41
1
10
31.2814452215729
20
-1.38977788666963
30
0
41
1
10
31.3668178639981
20
-1.24310815252338
30
0
0
SPLINE
5
20B
100
AcDbEntity
8
1
62
256
6
ByLayer
370
18
48
1
60
0
100
AcDbSpline
70
4
71
2
72
6
73
3
40
0
40
0
40
0
40
1
40
1
40
1
41
1
10
29.1137721053167
20
1.24719807397992
30
0
41
1
10
29.0288800653352
20
1.39345268681495
30
0
41
1
10
28.9440446812533
20
1.53984531234701
30
0
0
SPLINE
5
20C
100
AcDbEntity
8
1
62
256
6
ByLayer
370
18
48
1
60
0
100
AcDbSpline
70
4
71
3
72
11
73
7
40
0
40
0
40
0
40
0
40
0.242529158627641
40
0.492045322915345
40
0.748502756407274
40
1
40
1
40
1
40
1
41
1
10
32.2254039750732
20
1.24212875067644
30
0
41
1
10
32.2231152460303
20
1.23635618057489
30
0
41
1
10
32.2136816647268
20
1.22670538517016
30
0
41
1
10
32.1827937348338
20
1.21024624212612
30
0
41
1
10
32.1397505281045
20
1.21690788900108
30
0
41
1
10
32.122852152015
20
1.23339902117033
30
0
41
1
10
32.1157821907554
20
1.2448138019397
30
0
0
SPLINE
5
20D
100
AcDbEntity
8
1
62
256
6
ByLayer
370
18
48
1
60
0
100
AcDbSpline
70
4
71
3
72
11
73
7
40
0
40
0
40
0
40
0
40
0.264782245297116
40
0.524068456764665
40
0.770467603027128
40
1
40
1
40
1
40
1
41
1
10
29.2254046258589
20
1.24203007166784
30
0
41
1
10
29.2201745402825
20
1.23268484931302
30
0
41
1
10
29.2059824115033
20
1.21934303244464
30
0
41
1
10
29.166138127074
20
1.2096216544858
30
0
41
1
10
29.1323512586864
20
1.22365804629055
30
0
41
1
10
29.1212242905859
20
1.23496595532637
30
0
41
1
10
29.1177092724234
20
1.24188693354228
30
0
0
SPLINE
5
20E
100
AcDbEntity
8
1
62
256
6
ByLayer
370
18
48
1
60
0
100
AcDbSpline
70
4
71
2
72
6
73
3
40
0
40
0
40
0
40
1
40
1
40
1
41
1
10
33.9756928038163
20
-1.24262935835321
30
0
41
1
10
34.0508422792354
20
-1.37194378954422
30
0
41
1
10
34.125918515322
20
-1.50146788212149
30
0
0
SPLINE
5
20F
100
AcDbEntity
8
1
62
256
6
ByLayer
370
18
48
1
60
0
100
AcDbSpline
70
4
71
3
72
10
73
6
40
0
40
0
40
0
40
0
40
0.27588286266739
40
0.539247773743811
40
1
40
1
40
1
40
1
41
1
10
30.8675231413918
20
-1.24180414640796
30
0
41
1
10
30.8736320873673
20
-1.23148895878001
30
0
41
1
10
30.888811745303
20
-1.2168573187613
30
0
41
1
10
30.9445326978662
20
-1.21014698450116
30
0
41
1
10
30.9647785128939
20
-1.22403287249352
30
0
41
1
10
30.9745874128827
20
-1.2405779573796
30
0
0
SPLINE
5
210
100
AcDbEntity
8
1
62
256
6
ByLayer
370
18
48
1
60
0
100
AcDbSpline
70
4
71
3
72
10
73
6
40
0
40
0
40
0
40
0
40
0.458921121274875
40
0.722890863957952
40
1
40
1
40
1
40
1
41
1
10
33.868119028541
20
-1.24108276884158
30
0
41
1
10
33.8780955777222
20
-1.22440662700265
30
0
41
1
10
33.8984970123553
20
-1.21030529659734
30
0
41
1
10
33.954121461965
20
-1.2171373573203
30
0
41
1
10
33.9692884198964
20
-1.23176303492823
30
0
41
1
10
33.975378494782
20
-1.24209749074242
30
0
0
SPLINE
5
211
100
AcDbEntity
8
1
62
256
6
ByLayer
370
18
48
1
60
0
100
AcDbSpline
70
4
71
2
72
6
73
3
40
0
40
0
40
0
40
1
40
1
40
1
41
1
10
32.3959219882143
20
1.5359699207284
30
0
41
1
10
32.3107429969231
20
1.38895539222312
30
0
41
1
10
32.2253714508124
20
1.24207280120925
30
0
0
SPLINE
5
212
100
AcDbEntity
8
1
62
256
6
ByLayer
370
18
48
1
60
0
100
AcDbSpline
70
4
71
2
72
6
73
3
40
0
40
0
40
0
40
1
40
1
40
1
41
1
10
32.6174646094707
20
1.24211375860042
30
0
41
1
10
32.5317949265702
20
1.38929327397224
30
0
41
1
10
32.4463638845584
20
1.5366047690122
30
0
0
SPLINE
5
213
100
AcDbEntity
8
1
62
256
6
ByLayer
370
18
48
1
60
0
100
AcDbSpline
70
4
71
2
72
6
73
3
40
0
40
0
40
0
40
1
40
1
40
1
41
1
10
29.3954746512414
20
1.53500490894484
30
0
41
1
10
29.3100400690304
20
1.38749576609177
30
0
41
1
10
29.2243445820193
20
1.24009644032404
30
0
0
SPLINE
5
214
100
AcDbEntity
8
1
62
256
6
ByLayer
370
18
48
1
60
0
100
AcDbSpline
70
4
71
3
72
11
73
7
40
0
40
0
40
0
40
0
40
0.244032497957016
40
0.499810891286807
40
0.751875876133815
40
1
40
1
40
1
40
1
41
1
10
32.7292757465797
20
1.247299661304
30
0
41
1
10
32.7217570764429
20
1.2351614522303
30
0
41
1
10
32.704084209033
20
1.21712657869375
30
0
41
1
10
32.6607016449588
20
1.21008319949368
30
0
41
1
10
32.6294735966422
20
1.2263702817061
30
0
41
1
10
32.6198237031762
20
1.23612055813936
30
0
41
1
10
32.6175044137439
20
1.24204509791028
30
0
0
SPLINE
5
215
100
AcDbEntity
8
1
62
256
6
ByLayer
370
18
48
1
60
0
100
AcDbSpline
70
4
71
2
72
6
73
3
40
0
40
0
40
0
40
1
40
1
40
1
41
1
10
30.6975093098938
20
-1.53420940737138
30
0
41
1
10
30.7828434114302
20
-1.38709688798687
30
0
41
1
10
30.8683679513873
20
-1.24028422705396
30
0
0
SPLINE
5
216
100
AcDbEntity
8
1
62
256
6
ByLayer
370
18
48
1
60
0
100
AcDbSpline
70
4
71
2
72
6
73
3
40
0
40
0
40
0
40
1
40
1
40
1
41
1
10
29.6176485611044
20
1.24196500210533
30
0
41
1
10
29.5319701911994
20
1.38912002812003
30
0
41
1
10
29.4465119590818
20
1.53641978277204
30
0
0
SPLINE
5
217
100
AcDbEntity
8
1
62
256
6
ByLayer
370
18
48
1
60
0
100
AcDbSpline
70
4
71
2
72
6
73
3
40
0
40
0
40
0
40
1
40
1
40
1
41
1
10
30.4754830503272
20
-1.2418411930127
30
0
41
1
10
30.5610490203915
20
-1.38904424185856
30
0
41
1
10
30.6464030227093
20
-1.53635797642113
30
0
0
SPLINE
5
218
100
AcDbEntity
8
1
62
256
6
ByLayer
370
18
48
1
60
0
100
AcDbSpline
70
4
71
3
72
11
73
7
40
0
40
0
40
0
40
0
40
0.241321531232364
40
0.499114391819045
40
0.757437386878822
40
1
40
1
40
1
40
1
41
1
10
29.7320855925781
20
1.24886650479306
30
0
41
1
10
29.7268358860582
20
1.23853525848207
30
0
41
1
10
29.7125421820283
20
1.22211930491798
30
0
41
1
10
29.674436354768
20
1.20820613014806
30
0
41
1
10
29.6363874398642
20
1.21947776555382
30
0
41
1
10
29.6221109250647
20
1.23387789053933
30
0
41
1
10
29.616881116016
20
1.24321679876937
30
0
0
SPLINE
5
219
100
AcDbEntity
8
1
62
256
6
ByLayer
370
18
48
1
60
0
100
AcDbSpline
70
4
71
1
72
4
73
2
40
0
40
0
40
1
40
1
41
1
10
30.4122001604685
20
-1.21539369028304
30
0
41
1
10
30.4165067696455
20
-1.21511817298497
30
0
0
SPLINE
5
21A
100
AcDbEntity
8
1
62
256
6
ByLayer
370
18
48
1
60
0
100
AcDbSpline
70
4
71
2
72
6
73
3
40
0
40
0
40
0
40
1
40
1
40
1
41
1
10
30.4165067696455
20
-1.21511817298497
30
0
41
1
10
30.4573017284252
20
-1.20857828687448
30
0
41
1
10
30.475674528313
20
-1.24216751025253
30
0
0
SPLINE
5
21B
100
AcDbEntity
8
1
62
256
6
ByLayer
370
18
48
1
60
0
100
AcDbSpline
70
4
71
2
72
6
73
3
40
0
40
0
40
0
40
1
40
1
40
1
41
1
10
33.6966205586563
20
-1.5362696046914
30
0
41
1
10
33.7817405446476
20
-1.38952650431179
30
0
41
1
10
33.8669586751965
20
-1.24306981871746
30
0
0
SPLINE
5
21C
100
AcDbEntity
8
1
62
256
6
ByLayer
370
18
48
1
60
0
100
AcDbSpline
70
4
71
2
72
6
73
3
40
0
40
0
40
0
40
1
40
1
40
1
41
1
10
33.4756393810521
20
-1.24255407209606
30
0
41
1
10
33.5615892543669
20
-1.39042982688935
30
0
41
1
10
33.6472228433108
20
-1.5380780340804
30
0
0
SPLINE
5
21D
100
AcDbEntity
8
1
62
256
6
ByLayer
370
18
48
1
60
0
100
AcDbSpline
70
4
71
2
72
6
73
3
40
0
40
0
40
0
40
1
40
1
40
1
41
1
10
33.4211280125724
20
-1.21786370043725
30
0
41
1
10
33.4573882733573
20
-1.20628647464517
30
0
41
1
10
33.4737210502172
20
-1.23898291707064
30
0
0
SPLINE
5
21E
100
AcDbEntity
8
1
62
256
6
ByLayer
370
18
48
1
60
0
100
AcDbSpline
70
4
71
2
72
6
73
3
40
0
40
0
40
0
40
1
40
1
40
1
41
1
10
34.3689170490263
20
-1.23959652013613
30
0
41
1
10
34.38499702984
20
-1.21037086634024
30
0
41
1
10
34.4254171799389
20
-1.21502230815855
30
0
0
SPLINE
5
21F
100
AcDbEntity
8
1
62
256
6
ByLayer
370
18
48
1
60
0
100
AcDbSpline
70
4
71
2
72
6
73
3
40
0
40
0
40
0
40
1
40
1
40
1
41
1
10
34.2391958433369
20
-1.46286047858106
30
0
41
1
10
34.3028284983325
20
-1.35324823648187
30
0
41
1
10
34.366569586511
20
-1.24371778182439
30
0
0
SPLINE
5
220
100
AcDbEntity
8
1
62
256
6
ByLayer
370
18
48
1
60
0
100
AcDbSpline
70
4
71
2
72
6
73
3
40
0
40
0
40
0
40
1
40
1
40
1
41
1
10
30.9779461488386
20
-1.24572262051814
30
0
41
1
10
31.0630026574183
20
-1.39223432570813
30
0
41
1
10
31.1480091378209
20
-1.53890439186
30
0
0
SPLINE
5
221
100
AcDbEntity
8
1
62
256
6
ByLayer
370
18
48
1
60
0
100
AcDbSpline
70
4
71
3
72
9
73
5
40
0
40
0
40
0
40
0
40
0.0052068249843109
40
1
40
1
40
1
40
1
41
1
10
28.2849185417782
20
-0.137021916035792
30
0
41
1
10
28.2846423454229
20
-0.136865495806291
30
0
41
1
10
28.2315928931999
20
-0.106816161520214
30
0
41
1
10
28.1776940012858
20
-0.0752346423292067
30
0
41
1
10
28.1239030849435
20
-0.0428634426523047
30
0
0
SPLINE
5
222
100
AcDbEntity
8
1
62
256
6
ByLayer
370
18
48
1
60
0
100
AcDbSpline
70
4
71
3
72
8
73
4
40
0
40
0
40
0
40
0
40
1
40
1
40
1
40
1
41
1
10
34.9000700960027
20
0.184918220203144
30
0
41
1
10
34.9199254956281
20
0.171350448727935
30
0
41
1
10
34.9398025236626
20
0.15742471378644
30
0
41
1
10
34.9597035788598
20
0.143165101463865
30
0
0
LINE
5
7F
100
AcDbEntity
8
80
62
256
6
ByLayer
370
18
48
1
60
0
100
AcDbLine
10
0
20
0
30
0
11
-5
21
0
31
0
39
0
210
0
220
0
230
1
0
LINE
5
80
100
AcDbEntity
8
81
62
256
6
ByLayer
370
18
48
1
60
0
100
AcDbLine
10
35.1
20
0
30
0
11
40.1
21
0
31
0
39
0
210
0
220
0
230
1
0
LINE
5
81
100
AcDbEntity
8
4
62
256
6
ByLayer
370
18
48
0.05
60
0
100
AcDbLine
10
0
20
0
30
0
11
35.1
21
0
31
0
39
0
210
0
220
0
230
1
0
LINE
5
83
100
AcDbEntity
8
SK4
62
256
6
ByLayer
370
18
48
0.05
60
0
100
AcDbLine
10
-21
20
0
30
0
11
35.1
21
0
31
0
39
0
210
0
220
0
230
1
0
LINE
5
85
100
AcDbEntity
8
1
62
256
6
ByLayer
370
18
48
1
60
0
100
AcDbLine
10
0
20
1.75
30
0
11
0
21
-1.75
31
0
39
0
210
0
220
0
230
1
0
LINE
5
86
100
AcDbEntity
8
1
62
256
6
ByLayer
370
18
48
1
60
0
100
AcDbLine
10
28.726129
20
1.243108
30
0
11
28.729822
21
1.247708
31
0
39
0
210
0
220
0
230
1
0
LINE
5
87
100
AcDbEntity
8
1
62
256
6
ByLayer
370
13
48
1
60
0
100
AcDbLine
10
31.360372
20
-1.248985
30
0
11
31.366717
21
-1.243262
31
0
39
0
210
0
220
0
230
1
0
LINE
5
88
100
AcDbEntity
8
1
62
256
6
ByLayer
370
18
48
1
60
0
100
AcDbLine
10
31.366717
20
-1.243262
30
0
11
31.370499
21
-1.236114
31
0
39
0
210
0
220
0
230
1
0
LINE
5
89
100
AcDbEntity
8
1
62
256
6
ByLayer
370
18
48
1
60
0
100
AcDbLine
10
32.115333
20
1.245406
30
0
11
32.117577
21
1.242049
31
0
39
0
210
0
220
0
230
1
0
LINE
5
8A
100
AcDbEntity
8
1
62
256
6
ByLayer
370
13
48
1
60
0
100
AcDbLine
10
32.117577
20
1.242049
30
0
11
32.121195
21
1.234563
31
0
39
0
210
0
220
0
230
1
0
LINE
5
8B
100
AcDbEntity
8
1
62
256
6
ByLayer
370
18
48
1
60
0
100
AcDbLine
10
29.113866
20
1.247107
30
0
11
29.115859
21
1.244762
31
0
39
0
210
0
220
0
230
1
0
LINE
5
8C
100
AcDbEntity
8
1
62
256
6
ByLayer
370
18
48
1
60
0
100
AcDbLine
10
34.126324
20
-1.494852
30
0
11
34.1289
21
-1.494883
31
0
39
0
210
0
220
0
230
1
0
LINE
5
8D
100
AcDbEntity
8
1
62
256
6
ByLayer
370
18
48
1
60
0
100
AcDbLine
10
30.974596
20
-1.240593
30
0
11
30.977894
21
-1.245659
31
0
39
0
210
0
220
0
230
1
0
LINE
5
8E
100
AcDbEntity
8
1
62
256
6
ByLayer
370
18
48
1
60
0
100
AcDbLine
10
32.726027
20
1.243147
30
0
11
32.729321
21
1.247342
31
0
39
0
210
0
220
0
230
1
0
LINE
5
8F
100
AcDbEntity
8
1
62
256
6
ByLayer
370
18
48
1
60
0
100
AcDbLine
10
30.491749
20
-1.243946
30
0
11
30.486781
21
-1.237584
31
0
39
0
210
0
220
0
230
1
0
LINE
5
90
100
AcDbEntity
8
1
62
256
6
ByLayer
370
18
48
1
60
0
100
AcDbLine
10
35.1
20
0.865
30
0
11
35.1
21
0.862171
31
0
39
0
210
0
220
0
230
1
0
LINE
5
91
100
AcDbEntity
8
1
62
256
6
ByLayer
370
18
48
1
60
0
100
AcDbLine
10
31.892817
20
1.529769
30
0
11
31.89797
21
1.538106
31
0
39
0
210
0
220
0
230
1
0
LINE
5
92
100
AcDbEntity
8
1
62
256
6
ByLayer
370
18
48
1
60
0
100
AcDbLine
10
31.902347
20
1.540349
30
0
11
31.907372
21
1.537351
31
0
39
0
210
0
220
0
230
1
0
LINE
5
93
100
AcDbEntity
8
1
62
256
6
ByLayer
370
18
48
1
60
0
100
AcDbLine
10
31.94784
20
1.534158
30
0
11
31.940744
21
1.540366
31
0
39
0
210
0
220
0
230
1
0
LINE
5
94
100
AcDbEntity
8
1
62
256
6
ByLayer
370
18
48
1
60
0
100
AcDbLine
10
34.368809
20
-1.23981
30
0
11
34.366527
21
-1.243783
31
0
39
0
210
0
220
0
230
1
0
LINE
5
95
100
AcDbEntity
8
1
62
256
6
ByLayer
370
18
48
1
60
0
100
AcDbLine
10
29.394168
20
1.532743
30
0
11
29.39768
21
1.538004
31
0
39
0
210
0
220
0
230
1
0
LINE
5
96
100
AcDbEntity
8
1
62
256
6
ByLayer
370
13
48
1
60
0
100
AcDbLine
10
28.109048
20
-1.135
30
0
11
28.109048
21
-1.131992
31
0
39
0
210
0
220
0
230
1
0
LINE
5
97
100
AcDbEntity
8
1
62
256
6
ByLayer
370
13
48
1
60
0
100
AcDbLine
10
17.043744
20
-1.135
30
0
11
17.043744
21
1.135
31
0
39
0
210
0
220
0
230
1
0
LINE
5
98
100
AcDbEntity
8
1
62
256
6
ByLayer
370
13
48
1
60
0
100
AcDbLine
10
28.109048
20
-0.023519
30
0
11
28.109048
21
0.637515
31
0
39
0
210
0
220
0
230
1
0
LINE
5
99
100
AcDbEntity
8
1
62
256
6
ByLayer
370
18
48
1
60
0
100
AcDbLine
10
35.1
20
0.082055
30
0
11
35.1
21
-0.491624
31
0
39
0
210
0
220
0
230
1
0
LINE
5
9A
100
AcDbEntity
8
1
62
256
6
ByLayer
370
13
48
1
60
0
100
AcDbLine
10
28.26356
20
0.561674
30
0
11
28.26356
21
-0.1595
31
0
39
0
210
0
220
0
230
1
0
LINE
5
9B
100
AcDbEntity
8
1
62
256
6
ByLayer
370
13
48
1
60
0
100
AcDbLine
10
16.95692
20
1.142596
30
0
11
16.95692
21
-1.142596
31
0
39
0
210
0
220
0
230
1
0
LINE
5
9C
100
AcDbEntity
8
1
62
256
6
ByLayer
370
18
48
1
60
0
100
AcDbLine
10
13.512162
20
1.75
30
0
11
13.512162
21
-1.75
31
0
39
0
210
0
220
0
230
1
0
LINE
5
9D
100
AcDbEntity
8
SK1
62
256
6
ByLayer
370
18
48
1
60
0
100
AcDbLine
10
-21
20
0.68
30
0
11
-21
21
-0.68
31
0
39
0
210
0
220
0
230
1
0
LINE
5
9F
100
AcDbEntity
8
SK1
62
256
6
ByLayer
370
18
48
1
60
0
100
AcDbLine
10
-14.67
20
1.68
30
0
11
-15
21
1.35
31
0
39
0
210
0
220
0
230
1
0
LINE
5
A0
100
AcDbEntity
8
SK1
62
256
6
ByLayer
370
18
48
1
60
0
100
AcDbLine
10
-20
20
1.35
30
0
11
-15
21
1.35
31
0
39
0
210
0
220
0
230
1
0
LINE
5
A1
100
AcDbEntity
8
SK1
62
256
6
ByLayer
370
18
48
1
60
0
100
AcDbLine
10
-20
20
0.99995
30
0
11
-20
21
1.35
31
0
39
0
210
0
220
0
230
1
0
LINE
5
A2
100
AcDbEntity
8
SK1
62
256
6
ByLayer
370
18
48
1
60
0
100
AcDbLine
10
-15
20
0.99995
30
0
11
-20
21
0.99995
31
0
39
0
210
0
220
0
230
1
0
LINE
5
A3
100
AcDbEntity
8
SK1
62
256
6
ByLayer
370
18
48
1
60
0
100
AcDbLine
10
-20
20
-0.99995
30
0
11
-15
21
-0.99995
31
0
39
0
210
0
220
0
230
1
0
LINE
5
A4
100
AcDbEntity
8
SK1
62
256
6
ByLayer
370
18
48
1
60
0
100
AcDbLine
10
-20
20
-1.35
30
0
11
-20
21
-0.99995
31
0
39
0
210
0
220
0
230
1
0
LINE
5
A5
100
AcDbEntity
8
SK1
62
256
6
ByLayer
370
18
48
1
60
0
100
AcDbLine
10
-15
20
-1.35
30
0
11
-20
21
-1.35
31
0
39
0
210
0
220
0
230
1
0
LINE
5
A6
100
AcDbEntity
8
SK1
62
256
6
ByLayer
370
18
48
1
60
0
100
AcDbLine
10
-15
20
-1.35
30
0
11
-14.67
21
-1.68
31
0
39
0
210
0
220
0
230
1
0
LINE
5
A7
100
AcDbEntity
8
SK1
62
256
6
ByLayer
370
18
48
1
60
0
100
AcDbLine
10
-15
20
0.99995
30
0
11
-15
21
-0.99995
31
0
39
0
210
0
220
0
230
1
0
LINE
5
A8
100
AcDbEntity
8
SK1
62
256
6
ByLayer
370
18
48
1
60
0
100
AcDbLine
10
-14.4
20
1.68
30
0
11
-14.4
21
-1.68
31
0
39
0
210
0
220
0
230
1
0
LINE
5
A9
100
AcDbEntity
8
SK1
62
256
6
ByLayer
370
18
48
1
60
0
100
AcDbLine
10
0
20
1.75
30
0
11
0
21
-1.75
31
0
39
0
210
0
220
0
230
1
0
LINE
5
AA
100
AcDbEntity
8
SK1
62
256
6
ByLayer
370
18
48
1
60
0
100
AcDbLine
10
-14.33
20
-1.75
30
0
11
-14.33
21
1.75
31
0
39
0
210
0
220
0
230
1
0
LINE
5
AB
100
AcDbEntity
8
1
62
256
6
ByLayer
370
18
48
1
60
0
100
AcDbLine
10
13.512162
20
1.75
30
0
11
0
21
1.75
31
0
39
0
210
0
220
0
230
1
0
LINE
5
AC
100
AcDbEntity
8
1
62
256
6
ByLayer
370
18
48
1
60
0
100
AcDbLine
10
0
20
-1.75
30
0
11
13.512162
21
-1.75
31
0
39
0
210
0
220
0
230
1
0
LINE
5
AD
100
AcDbEntity
8
1
62
256
6
ByLayer
370
18
48
1
60
0
100
AcDbLine
10
35.1
20
0.865
30
0
11
35.013479
21
0.951521
31
0
39
0
210
0
220
0
230
1
0
LINE
5
AE
100
AcDbEntity
8
1
62
256
6
ByLayer
370
18
48
1
60
0
100
AcDbLine
10
31.940736
20
1.540348
30
0
11
31.90233
21
1.540348
31
0
39
0
210
0
220
0
230
1
0
LINE
5
AF
100
AcDbEntity
8
1
62
256
6
ByLayer
370
18
48
1
60
0
100
AcDbLine
10
28.940738
20
1.540348
30
0
11
28.902106
21
1.540348
31
0
39
0
210
0
220
0
230
1
0
LINE
5
B0
100
AcDbEntity
8
1
62
256
6
ByLayer
370
18
48
1
60
0
100
AcDbLine
10
31.152203
20
-1.540348
30
0
11
31.190582
21
-1.540348
31
0
39
0
210
0
220
0
230
1
0
LINE
5
B1
100
AcDbEntity
8
1
62
256
6
ByLayer
370
18
48
1
60
0
100
AcDbLine
10
32.440742
20
1.540348
30
0
11
32.402058
21
1.540348
31
0
39
0
210
0
220
0
230
1
0
LINE
5
B2
100
AcDbEntity
8
1
62
256
6
ByLayer
370
18
48
1
60
0
100
AcDbLine
10
29.440609
20
1.540348
30
0
11
29.402036
21
1.540348
31
0
39
0
210
0
220
0
230
1
0
LINE
5
B3
100
AcDbEntity
8
1
62
256
6
ByLayer
370
18
48
1
60
0
100
AcDbLine
10
30.652099
20
-1.540348
30
0
11
30.690605
21
-1.540348
31
0
39
0
210
0
220
0
230
1
0
LINE
5
B4
100
AcDbEntity
8
1
62
256
6
ByLayer
370
18
48
1
60
0
100
AcDbLine
10
33.652137
20
-1.540348
30
0
11
33.690745
21
-1.540348
31
0
39
0
210
0
220
0
230
1
0
LINE
5
B5
100
AcDbEntity
8
1
62
256
6
ByLayer
370
18
48
1
60
0
100
AcDbLine
10
32.930452
20
1.540348
30
0
11
32.902187
21
1.540348
31
0
39
0
210
0
220
0
230
1
0
LINE
5
B6
100
AcDbEntity
8
1
62
256
6
ByLayer
370
18
48
1
60
0
100
AcDbLine
10
17.043744
20
-1.135
30
0
11
19.794988
21
-1.135
31
0
39
0
210
0
220
0
230
1
0
LINE
5
B7
100
AcDbEntity
8
1
62
256
6
ByLayer
370
18
48
1
60
0
100
AcDbLine
10
21.118804
20
-1.135
30
0
11
22.033513
21
-1.135
31
0
39
0
210
0
220
0
230
1
0
LINE
5
B8
100
AcDbEntity
8
1
62
256
6
ByLayer
370
18
48
1
60
0
100
AcDbLine
10
24.221851
20
-1.135
30
0
11
25.124785
21
-1.135
31
0
39
0
210
0
220
0
230
1
0
LINE
5
B9
100
AcDbEntity
8
1
62
256
6
ByLayer
370
18
48
1
60
0
100
AcDbLine
10
27.30526
20
-1.135
30
0
11
28.109048
21
-1.135
31
0
39
0
210
0
220
0
230
1
0
LINE
5
BA
100
AcDbEntity
8
1
62
256
6
ByLayer
370
18
48
1
60
0
100
AcDbLine
10
26.670271
20
1.135
30
0
11
25.762868
21
1.135
31
0
39
0
210
0
220
0
230
1
0
LINE
5
BB
100
AcDbEntity
8
1
62
256
6
ByLayer
370
18
48
1
60
0
100
AcDbLine
10
23.579418
20
1.135
30
0
11
22.678738
21
1.135
31
0
39
0
210
0
220
0
230
1
0
LINE
5
BC
100
AcDbEntity
8
1
62
256
6
ByLayer
370
18
48
1
60
0
100
AcDbLine
10
20.494304
20
1.135
30
0
11
17.043744
21
1.135
31
0
39
0
210
0
220
0
230
1
0
LINE
5
BD
100
AcDbEntity
8
1
62
256
6
ByLayer
370
18
48
1
60
0
100
AcDbLine
10
16.95692
20
1.142596
30
0
11
13.512162
21
1.75
31
0
39
0
210
0
220
0
230
1
0
LINE
5
BE
100
AcDbEntity
8
1
62
256
6
ByLayer
370
18
48
1
60
0
100
AcDbLine
10
13.512162
20
-1.75
30
0
11
16.95692
21
-1.142596
31
0
39
0
210
0
220
0
230
1
0
LINE
5
BF
100
AcDbEntity
8
SK1
62
256
6
ByLayer
370
18
48
1
60
0
100
AcDbLine
10
-21
20
-0.68
30
0
11
-20.33
21
-1.35
31
0
39
0
210
0
220
0
230
1
0
LINE
5
C0
100
AcDbEntity
8
SK1
62
256
6
ByLayer
370
18
48
1
60
0
100
AcDbLine
10
-20.33
20
1.35
30
0
11
-21
21
0.68
31
0
39
0
210
0
220
0
230
1
0
LINE
5
C1
100
AcDbEntity
8
SK1
62
256
6
ByLayer
370
18
48
1
60
0
100
AcDbLine
10
-14.4
20
1.68
30
0
11
-14.67
21
1.68
31
0
39
0
210
0
220
0
230
1
0
LINE
5
C2
100
AcDbEntity
8
SK1
62
256
6
ByLayer
370
18
48
1
60
0
100
AcDbLine
10
-14.67
20
-1.68
30
0
11
-14.4
21
-1.68
31
0
39
0
210
0
220
0
230
1
0
LINE
5
C3
100
AcDbEntity
8
SK1
62
256
6
ByLayer
370
18
48
1
60
0
100
AcDbLine
10
-14.4
20
-1.68
30
0
11
-14.33
21
-1.75
31
0
39
0
210
0
220
0
230
1
0
LINE
5
C4
100
AcDbEntity
8
SK1
62
256
6
ByLayer
370
18
48
1
60
0
100
AcDbLine
10
-14.33
20
1.75
30
0
11
-14.4
21
1.68
31
0
39
0
210
0
220
0
230
1
0
LINE
5
C5
100
AcDbEntity
8
SK1
62
256
6
ByLayer
370
18
48
1
60
0
100
AcDbLine
10
0
20
1.75
30
0
11
-14.33
21
1.75
31
0
39
0
210
0
220
0
230
1
0
LINE
5
C6
100
AcDbEntity
8
SK1
62
256
6
ByLayer
370
18
48
1
60
0
100
AcDbLine
10
-14.33
20
-1.75
30
0
11
0
21
-1.75
31
0
39
0
210
0
220
0
230
1
0
LINE
5
C7
100
AcDbEntity
8
SK2
62
256
6
ByLayer
370
18
48
1
60
0
100
AcDbLine
10
7.591081
20
18.049084
30
0
11
7.591081
21
-9.25
31
0
39
0
210
0
220
0
230
1
0
LINE
5
C9
100
AcDbEntity
8
1
62
256
6
ByLayer
370
18
48
1
60
1
100
AcDbLine
10
7.591081
20
1.75
30
0
11
7.130297
21
5.249998
31
0
39
0
210
0
220
0
230
1
0
LINE
5
CA
100
AcDbEntity
8
1
62
256
6
ByLayer
370
18
48
1
60
1
100
AcDbLine
10
7.130297
20
5.249998
30
0
11
8.051865
21
5.250002
31
0
39
0
210
0
220
0
230
1
0
LINE
5
CB
100
AcDbEntity
8
1
62
256
6
ByLayer
370
18
48
1
60
1
100
AcDbLine
10
8.051865
20
5.250002
30
0
11
7.591081
21
1.75
31
0
39
0
210
0
220
0
230
1
0
LINE
5
CC
100
AcDbEntity
8
1
62
256
6
ByLayer
370
18
48
1
60
1
100
AcDbLine
10
7.591081
20
-1.75
30
0
11
8.051865
21
-5.249998
31
0
39
0
210
0
220
0
230
1
0
LINE
5
CD
100
AcDbEntity
8
1
62
256
6
ByLayer
370
18
48
1
60
1
100
AcDbLine
10
8.051865
20
-5.249998
30
0
11
7.130297
21
-5.250002
31
0
39
0
210
0
220
0
230
1
0
LINE
5
CE
100
AcDbEntity
8
1
62
256
6
ByLayer
370
18
48
1
60
1
100
AcDbLine
10
7.130297
20
-5.250002
30
0
11
7.591081
21
-1.75
31
0
39
0
210
0
220
0
230
1
0
LINE
5
CF
100
AcDbEntity
8
2
62
256
6
ByLayer
370
18
48
1
60
0
100
AcDbLine
10
35
20
-39.040348
30
0
11
-21
21
-39.040348
31
0
39
0
210
0
220
0
230
1
0
LINE
5
D1
100
AcDbEntity
8
2
62
256
6
ByLayer
370
18
48
1
60
0
100
AcDbLine
10
-21
20
-2.2675
30
0
11
-21
21
-41.040348
31
0
39
0
210
0
220
0
230
1
0
LINE
5
D2
100
AcDbEntity
8
2
62
256
6
ByLayer
370
18
48
1
60
0
100
AcDbLine
10
35
20
-3.127848
30
0
11
35
21
-41.040348
31
0
39
0
210
0
220
0
230
1
0
LINE
5
D3
100
AcDbEntity
8
1
62
256
6
ByLayer
370
18
48
1
60
1
100
AcDbLine
10
-21
20
-39.040348
30
0
11
-17.500002
21
-38.579564
31
0
39
0
210
0
220
0
230
1
0
LINE
5
D4
100
AcDbEntity
8
1
62
256
6
ByLayer
370
18
48
1
60
1
100
AcDbLine
10
-17.500002
20
-38.579564
30
0
11
-17.499998
21
-39.501131
31
0
39
0
210
0
220
0
230
1
0
LINE
5
D5
100
AcDbEntity
8
1
62
256
6
ByLayer
370
18
48
1
60
1
100
AcDbLine
10
-17.499998
20
-39.501131
30
0
11
-21
21
-39.040348
31
0
39
0
210
0
220
0
230
1
0
LINE
5
D6
100
AcDbEntity
8
1
62
256
6
ByLayer
370
18
48
1
60
1
100
AcDbLine
10
35
20
-39.040348
30
0
11
31.500002
21
-39.501131
31
0
39
0
210
0
220
0
230
1
0
LINE
5
D7
100
AcDbEntity
8
1
62
256
6
ByLayer
370
18
48
1
60
1
100
AcDbLine
10
31.500002
20
-39.501131
30
0
11
31.499998
21
-38.579564
31
0
39
0
210
0
220
0
230
1
0
LINE
5
D8
100
AcDbEntity
8
1
62
256
6
ByLayer
370
18
48
1
60
1
100
AcDbLine
10
31.499998
20
-38.579564
30
0
11
35
21
-39.040348
31
0
39
0
210
0
220
0
230
1
0
LINE
5
227
100
AcDbEntity
8
1
62
256
6
ByLayer
370
18
48
1
60
1
100
AcDbLine
10
7.591081
20
1.75
30
0
11
7.130297
21
5.249998
31
0
39
0
210
0
220
0
230
1
0
LINE
5
228
100
AcDbEntity
8
1
62
256
6
ByLayer
370
18
48
1
60
1
100
AcDbLine
10
7.130297
20
5.249998
30
0
11
8.051865
21
5.250002
31
0
39
0
210
0
220
0
230
1
0
LINE
5
229
100
AcDbEntity
8
1
62
256
6
ByLayer
370
18
48
1
60
1
100
AcDbLine
10
8.051865
20
5.250002
30
0
11
7.591081
21
1.75
31
0
39
0
210
0
220
0
230
1
0
LINE
5
22B
100
AcDbEntity
8
1
62
256
6
ByLayer
370
18
48
1
60
1
100
AcDbLine
10
7.591081
20
-1.75
30
0
11
8.051865
21
-5.249998
31
0
39
0
210
0
220
0
230
1
0
LINE
5
22C
100
AcDbEntity
8
1
62
256
6
ByLayer
370
18
48
1
60
1
100
AcDbLine
10
8.051865
20
-5.249998
30
0
11
7.130297
21
-5.250002
31
0
39
0
210
0
220
0
230
1
0
LINE
5
22D
100
AcDbEntity
8
1
62
256
6
ByLayer
370
18
48
1
60
1
100
AcDbLine
10
7.130297
20
-5.250002
30
0
11
7.591081
21
-1.75
31
0
39
0
210
0
220
0
230
1
0
LINE
5
230
100
AcDbEntity
8
1
62
256
6
ByLayer
370
18
48
1
60
1
100
AcDbLine
10
-21
20
-39.040348
30
0
11
-17.500002
21
-38.579564
31
0
39
0
210
0
220
0
230
1
0
LINE
5
231
100
AcDbEntity
8
1
62
256
6
ByLayer
370
18
48
1
60
1
100
AcDbLine
10
-17.500002
20
-38.579564
30
0
11
-17.499998
21
-39.501131
31
0
39
0
210
0
220
0
230
1
0
LINE
5
232
100
AcDbEntity
8
1
62
256
6
ByLayer
370
18
48
1
60
1
100
AcDbLine
10
-17.499998
20
-39.501131
30
0
11
-21
21
-39.040348
31
0
39
0
210
0
220
0
230
1
0
LINE
5
234
100
AcDbEntity
8
1
62
256
6
ByLayer
370
18
48
1
60
1
100
AcDbLine
10
35
20
-39.040348
30
0
11
31.500002
21
-39.501131
31
0
39
0
210
0
220
0
230
1
0
LINE
5
235
100
AcDbEntity
8
1
62
256
6
ByLayer
370
18
48
1
60
1
100
AcDbLine
10
31.500002
20
-39.501131
30
0
11
31.499998
21
-38.579564
31
0
39
0
210
0
220
0
230
1
0
LINE
5
236
100
AcDbEntity
8
1
62
256
6
ByLayer
370
18
48
1
60
1
100
AcDbLine
10
31.499998
20
-38.579564
30
0
11
35
21
-39.040348
31
0
39
0
210
0
220
0
230
1
0
MTEXT
5
223
100
AcDbEntity
8
SK2
62
256
6
ByLayer
370
18
48
1
60
0
100
AcDbMText
10
6.249966
20
7.408437
30
0
210
0
220
0
230
1
1
%%c
40
3
41
0
44
1.084337
50
90
71
7
72
5
7
iso_b_vert
0
MTEXT
5
226
100
AcDbEntity
8
SK2
62
256
6
ByLayer
370
18
48
1
60
0
100
AcDbMText
10
6.249966
20
13.385
30
0
210
0
220
0
230
1
1
\W0.7121;3.5
40
3
41
0
44
1.084337
50
90
71
7
72
5
7
iso_b_vert
0
MTEXT
5
22F
100
AcDbEntity
8
2
62
256
6
ByLayer
370
18
48
1
60
0
100
AcDbMText
10
5.367172
20
-38.155233
30
0
210
0
220
0
230
1
1
\W0.6740;56
40
3
41
0
44
1.084337
50
0
71
7
72
5
7
iso_b_vert
0
MTEXT
5
238
100
AcDbEntity
8
SK6
62
256
6
ByLayer
370
18
48
1
60
0
100
AcDbMText
10
-12.303335
20
-82.114886
30
0
210
0
220
0
230
1
1
\W0.7281;T300-XM102DA-M3     C110
40
3
41
0
44
1.084337
50
0
71
7
72
5
7
iso_b_vert
0
HATCH
5
22A
100
AcDbEntity
8
SK2
62
256
6
ByLayer
370
13
48
1
60
0
100
AcDbHatch
10
0
20
0
30
0
210
0
220
0
230
1
2
ANSI31
70
0
71
0
91
1
92
5
93
3
72
1
10
7.59108084046758
20
1.75
11
7.13029709891481
21
5.24999830744682
72
1
10
7.13029709891481
20
5.24999830744682
11
8.05186458202036
21
5.25000169255318
72
1
10
8.05186458202036
20
5.25000169255318
11
7.59108084046758
21
1.75
97
0
75
0
76
1
52
0
41
0.0062
77
0
78
1
53
45
43
0
44
0
45
-0.0139193969876572
46
0.0139193969876572
79
0
47
0
98
1
10
0
20
0
0
HATCH
5
22E
100
AcDbEntity
8
SK2
62
256
6
ByLayer
370
13
48
1
60
0
100
AcDbHatch
10
0
20
0
30
0
210
0
220
0
230
1
2
ANSI31
70
0
71
0
91
1
92
5
93
3
72
1
10
7.59108084046758
20
-1.75
11
8.05186458202036
21
-5.24999830744682
72
1
10
8.05186458202036
20
-5.24999830744682
11
7.13029709891481
21
-5.25000169255318
72
1
10
7.13029709891481
20
-5.25000169255318
11
7.59108084046758
21
-1.75
97
0
75
0
76
1
52
0
41
0.0062
77
0
78
1
53
45
43
0
44
0
45
-0.0139193969876572
46
0.0139193969876572
79
0
47
0
98
1
10
0
20
0
0
HATCH
5
233
100
AcDbEntity
8
2
62
256
6
ByLayer
370
13
48
1
60
0
100
AcDbHatch
10
0
20
0
30
0
210
0
220
0
230
1
2
ANSI31
70
0
71
0
91
1
92
5
93
3
72
1
10
-21
20
-39.0403476742858
11
-17.5000016925532
21
-38.579563932733
72
1
10
-17.5000016925532
20
-38.579563932733
11
-17.4999983074468
21
-39.5011314158386
72
1
10
-17.4999983074468
20
-39.5011314158386
11
-21
21
-39.0403476742858
97
0
75
0
76
1
52
0
41
0.0062
77
0
78
1
53
45
43
0
44
0
45
-0.0139193969876572
46
0.0139193969876572
79
0
47
0
98
1
10
0
20
0
0
HATCH
5
237
100
AcDbEntity
8
2
62
256
6
ByLayer
370
13
48
1
60
0
100
AcDbHatch
10
0
20
0
30
0
210
0
220
0
230
1
2
ANSI31
70
0
71
0
91
1
92
5
93
3
72
1
10
35
20
-39.0403476742858
11
31.5000016925532
21
-39.5011314158386
72
1
10
31.5000016925532
20
-39.5011314158386
11
31.4999983074468
21
-38.579563932733
72
1
10
31.4999983074468
20
-38.579563932733
11
35
21
-39.0403476742858
97
0
75
0
76
1
52
0
41
0.0062
77
0
78
1
53
45
43
0
44
0
45
-0.0139193969876572
46
0.0139193969876572
79
0
47
0
98
1
10
0
20
0
0
DIMENSION
5
23B
100
AcDbEntity
8
2
62
256
6
ByLayer
370
18
48
1
60
0
100
AcDbDimension
2
_U0
10
53.844652
20
-1.540348
30
0
11
53.844652
21
18.611776
31
0
70
32
71
1
72
1
41
1
210
0
220
0
230
1
3
Standard
100
AcDbAlignedDimension
13
35
23
1.540348
33
0
14
35
24
-1.540348
34
0
50
90
100
AcDbRotatedDimension
1001
ACAD
1000
DSTYLE
1002
{
1070
   371
1070
    13
1070
   372
1070
    13
1070
     3
1000

1070
   170
1070
     0
1070
   144
1040
1.0
1070
   277
1070
     2
1070
   284
1070
     8
1070
   278
1070
    46
1070
   146
1040
1.166667
1070
   345
1005
16
1070
   347
1005
16
1070
   346
1005
16
1070
   344
1005
0
1070
   343
1005
0
1070
   172
1070
     1
1070
    76
1070
     0
1070
    75
1070
     0
1070
   282
1070
     0
1070
   281
1070
     0
1070
    71
1070
     0
1070
    74
1070
     0
1070
   279
1070
     0
1070
   173
1070
     1
1070
   340
1005
224
1070
   271
1070
     3
1070
   272
1070
     3
1070
    77
1070
     1
1070
    73
1070
     0
1070
   171
1070
     3
1070
   274
1070
     4
1070
   177
1070
     2
1070
   176
1070
     2
1070
   178
1070
     2
1070
    78
1070
     8
1070
    48
1040
-0.1
1070
    41
1040
3.5
1070
   147
1040
1.5
1070
    42
1040
1.5875
1070
    44
1040
2.0
1070
   140
1040
3.0
1002
}
1001
ACAD_DSTYLE_DIM_LINETYPE
1070
   380
1005
16
1001
ACAD_DSTYLE_DIM_EXT1_LINETYPE
1070
   381
1005
16
1001
ACAD_DSTYLE_DIM_EXT2_LINETYPE
1070
   382
1005
16
0
DIMENSION
5
256
100
AcDbEntity
8
SK2
62
256
6
ByLayer
370
18
48
1
60
0
100
AcDbDimension
2
_U1
10
34.12
20
10.6
30
0
11
34.56
21
10.6
31
0
70
32
71
1
72
1
41
1
210
0
220
0
230
1
3
Standard
100
AcDbAlignedDimension
13
35
23
1.540348
33
0
14
34.12
24
0
34
0
50
0
100
AcDbRotatedDimension
1001
ACAD
1000
DSTYLE
1002
{
1070
   371
1070
    13
1070
   372
1070
    13
1070
   170
1070
     0
1070
   144
1040
1.0
1070
   277
1070
     2
1070
   284
1070
     8
1070
   278
1070
    46
1070
   146
1040
1.166667
1070
   345
1005
16
1070
   347
1005
16
1070
   346
1005
16
1070
   344
1005
0
1070
   343
1005
0
1070
   172
1070
     1
1070
    76
1070
     0
1070
    75
1070
     0
1070
   282
1070
     0
1070
   281
1070
     0
1070
    71
1070
     0
1070
    74
1070
     0
1070
   279
1070
     0
1070
   173
1070
     1
1070
   340
1005
224
1070
   271
1070
     3
1070
   272
1070
     3
1070
    77
1070
     1
1070
    73
1070
     1
1070
   171
1070
     3
1070
   274
1070
     4
1070
   177
1070
     2
1070
   176
1070
     2
1070
   178
1070
     2
1070
    78
1070
     8
1070
    48
1040
-0.1
1070
    41
1040
3.5
1070
   147
1040
1.5
1070
    42
1040
1.5875
1070
    44
1040
2.0
1070
   140
1040
3.0
1002
}
1001
ACAD_DSTYLE_DIM_LINETYPE
1070
   380
1005
16
1001
ACAD_DSTYLE_DIM_EXT1_LINETYPE
1070
   381
1005
16
1001
ACAD_DSTYLE_DIM_EXT2_LINETYPE
1070
   382
1005
16
0
DIMENSION
5
270
100
AcDbEntity
8
SK2
62
256
6
ByLayer
370
18
48
1
60
0
100
AcDbDimension
2
_U2
10
29
20
-8.540348
30
0
11
47.428571
21
-8.540348
31
0
70
32
71
1
72
1
41
1
210
0
220
0
230
1
3
Standard
100
AcDbAlignedDimension
13
35
23
-1.540348
33
0
14
29
24
-1.540348
34
0
50
0
100
AcDbRotatedDimension
1001
ACAD
1000
DSTYLE
1002
{
1070
   371
1070
    13
1070
   372
1070
    13
1070
   170
1070
     0
1070
   144
1040
1.0
1070
   277
1070
     2
1070
   284
1070
     8
1070
   278
1070
    46
1070
   146
1040
0.833333
1070
   345
1005
16
1070
   347
1005
16
1070
   346
1005
16
1070
   344
1005
0
1070
   343
1005
0
1070
   172
1070
     1
1070
    76
1070
     0
1070
    75
1070
     0
1070
   282
1070
     0
1070
   281
1070
     0
1070
    47
1040
0.5
1070
    72
1070
     0
1070
    71
1070
     1
1070
    74
1070
     0
1070
   279
1070
     0
1070
   173
1070
     1
1070
   340
1005
224
1070
   271
1070
     1
1070
   272
1070
     3
1070
    77
1070
     1
1070
    73
1070
     1
1070
   171
1070
     3
1070
   274
1070
     4
1070
   177
1070
     2
1070
   176
1070
     2
1070
   178
1070
     2
1070
    78
1070
     8
1070
    48
1040
0.5
1070
    41
1040
3.5
1070
   147
1040
1.5
1070
    42
1040
1.5875
1070
    44
1040
2.0
1070
   140
1040
3.0
1002
}
1001
ACAD_DSTYLE_DIM_LINETYPE
1070
   380
1005
16
1001
ACAD_DSTYLE_DIM_EXT1_LINETYPE
1070
   381
1005
16
1001
ACAD_DSTYLE_DIM_EXT2_LINETYPE
1070
   382
1005
16
0
DIMENSION
5
28B
100
AcDbEntity
8
SK2
62
256
6
ByLayer
370
18
48
1
60
0
100
AcDbDimension
2
_U3
10
17
20
-31.040348
30
0
11
26
21
-31.040348
31
0
70
32
71
1
72
1
41
1
210
0
220
0
230
1
3
Standard
100
AcDbAlignedDimension
13
35
23
-1.540348
33
0
14
17
24
-1.135
34
0
50
0
100
AcDbRotatedDimension
1001
ACAD
1000
DSTYLE
1002
{
1070
   371
1070
    13
1070
   372
1070
    13
1070
   170
1070
     0
1070
   144
1040
1.0
1070
   277
1070
     2
1070
   284
1070
     8
1070
   278
1070
    46
1070
   146
1040
1.166667
1070
   345
1005
16
1070
   347
1005
16
1070
   346
1005
16
1070
   344
1005
0
1070
   343
1005
0
1070
   172
1070
     1
1070
    76
1070
     0
1070
    75
1070
     0
1070
   282
1070
     0
1070
   281
1070
     0
1070
    71
1070
     0
1070
    74
1070
     0
1070
   279
1070
     0
1070
   173
1070
     1
1070
   340
1005
224
1070
   271
1070
     1
1070
   272
1070
     3
1070
    77
1070
     1
1070
    73
1070
     1
1070
   171
1070
     3
1070
   274
1070
     4
1070
   177
1070
     2
1070
   176
1070
     2
1070
   178
1070
     2
1070
    78
1070
     8
1070
    48
1040
-0.1
1070
    41
1040
3.5
1070
   147
1040
1.5
1070
    42
1040
1.5875
1070
    44
1040
2.0
1070
   140
1040
3.0
1002
}
1001
ACAD_DSTYLE_DIM_LINETYPE
1070
   380
1005
16
1001
ACAD_DSTYLE_DIM_EXT1_LINETYPE
1070
   381
1005
16
1001
ACAD_DSTYLE_DIM_EXT2_LINETYPE
1070
   382
1005
16
0
DIMENSION
5
2A3
100
AcDbEntity
8
2
62
256
6
ByLayer
370
18
48
1
60
0
100
AcDbDimension
2
_U4
10
19.7
20
-20.040348
30
0
11
27.35
21
-20.040348
31
0
70
32
71
1
72
1
41
1
210
0
220
0
230
1
3
Standard
100
AcDbAlignedDimension
13
35
23
-1.540348
33
0
14
19.7
24
0
34
0
50
0
100
AcDbRotatedDimension
1001
ACAD
1000
DSTYLE
1002
{
1070
   371
1070
    13
1070
   372
1070
    13
1070
   170
1070
     0
1070
   144
1040
1.0
1070
   277
1070
     2
1070
   284
1070
     8
1070
   278
1070
    46
1070
   146
1040
1.166667
1070
   345
1005
16
1070
   347
1005
16
1070
   346
1005
16
1070
   344
1005
0
1070
   343
1005
0
1070
   172
1070
     1
1070
    76
1070
     0
1070
    75
1070
     0
1070
   282
1070
     0
1070
   281
1070
     0
1070
    71
1070
     0
1070
    74
1070
     0
1070
   279
1070
     0
1070
   173
1070
     1
1070
   340
1005
224
1070
   271
1070
     1
1070
   272
1070
     3
1070
    77
1070
     1
1070
    73
1070
     1
1070
   171
1070
     3
1070
   274
1070
     4
1070
   177
1070
     2
1070
   176
1070
     2
1070
   178
1070
     2
1070
    78
1070
     8
1070
    48
1040
-0.1
1070
    41
1040
3.5
1070
   147
1040
1.5
1070
    42
1040
1.5875
1070
    44
1040
2.0
1070
   140
1040
3.0
1002
}
1001
ACAD_DSTYLE_DIM_LINETYPE
1070
   380
1005
16
1001
ACAD_DSTYLE_DIM_EXT1_LINETYPE
1070
   381
1005
16
1001
ACAD_DSTYLE_DIM_EXT2_LINETYPE
1070
   382
1005
16
0
ENDSEC
0
SECTION
2
OBJECTS
0
DICTIONARY
5
32c
330
0
100
AcDbDictionary
280
0
281
1
3
ACAD_GROUP
350
32d
3
ACAD_MLINESTYLE
350
32e
0
DICTIONARY
5
32d
330
0
100
AcDbDictionary
280
0
281
1
0
DICTIONARY
5
32e
330
0
100
AcDbDictionary
280
0
281
1
3
Standard
350
18
0
MLINESTYLE
5
18
330
32e
100
AcDbMlineStyle
2
Standard
70
0
3

62
256
51
90
52
90
71
2
49
-0.5
62
256
6
ByLayer
49
0.5
62
256
6
ByLayer
0
RASTERVARIABLES
5
31a
330

100
AcDbRasterVariables
90
0
70
1
71
1
72
1
0
ENDSEC
0
EOF
