0
SECTION
2
HEADER
9
$ACADVER
1
AC1015
9
$DWGCODEPAGE
3
ANSI_1252
9
$HANDSEED
5
32c
9
$ANGBASE
50
0
9
$ANGDIR
70
0
9
$ATTMODE
70
1
9
$AUNITS
70
0
9
$AUPREC
70
0
9
$CECOLOR
62
256
9
$CELTSCALE
40
1
9
$CELTYPE
6
ByLayer
9
$CELWEIGHT
370
18
9
$CLAYER
8
0
9
$CMLJUST
70
0
9
$CMLSCALE
40
1
9
$CMLSTYLE
2
Standard
9
$DIMSTYLE
2
Standard
9
$TEXTSIZE
40
0.2
9
$TEXTSTYLE
7
Standard
9
$LUNITS
70
2
9
$LUPREC
70
4
9
$EXTNAMES
290
1
9
$INSUNITS
70
4
9
$LTSCALE
40
1
9
$LWDISPLAY
290
1
9
$PDMODE
70
0
9
$PDSIZE
40
0
9
$PLINEGEN
70
0
0
ENDSEC
0
SECTION
2
CLASSES
0
CLASS
1
RASTERVARIABLES
2
AcDbRasterVariables
3
ISM
90
0
280
0
281
0
0
ENDSEC
0
SECTION
2
TABLES
0
TABLE
2
VPORT
5
322
100
AcDbSymbolTable
0
VPORT
5
1
100
AcDbSymbolTableRecord
100
AcDbViewportTableRecord
2
*Active
70
0
10
0
20
0
11
1
21
1
12
-1
22
1
13
0
23
0
14
0.5
24
0.5
15
10
25
10
16
0
26
0
36
1
17
0
27
0
37
0
0
ENDTAB
0
TABLE
2
LTYPE
5
323
100
AcDbSymbolTable
0
LTYPE
5
14
100
AcDbSymbolTableRecord
100
AcDbLinetypeTableRecord
70
0
2
ByBlock
3

72
65
73
0
40
0
0
LTYPE
5
15
100
AcDbSymbolTableRecord
100
AcDbLinetypeTableRecord
70
0
2
ByLayer
3

72
65
73
0
40
0
0
LTYPE
5
16
100
AcDbSymbolTableRecord
100
AcDbLinetypeTableRecord
70
0
2
Continuous
3
Solid line
72
65
73
0
40
0
0
LTYPE
5
6E
100
AcDbSymbolTableRecord
100
AcDbLinetypeTableRecord
70
0
2
CENTER
3
____ _ ____ _ ____ _ ____
72
65
73
4
40
47.5
49
22
74
0
49
-8.5
74
0
49
8.5
74
0
49
-8.5
74
0
0
LTYPE
5
6F
100
AcDbSymbolTableRecord
100
AcDbLinetypeTableRecord
70
0
2
DASHED
3
__ __ __ __ __ __ __ __ __
72
65
73
2
40
25.72
49
12.86
74
0
49
-12.86
74
0
0
ENDTAB
0
TABLE
2
LAYER
5
324
100
AcDbSymbolTable
0
LAYER
5
10
100
AcDbSymbolTableRecord
100
AcDbLayerTableRecord
2
0
70
0
62
7
6
Continuous
290
1
370
-3
390
0
0
LAYER
5
71
100
AcDbSymbolTableRecord
100
AcDbLayerTableRecord
2
80
70
0
62
-6
6
Continuous
290
1
370
-3
390
0
0
LAYER
5
73
100
AcDbSymbolTableRecord
100
AcDbLayerTableRecord
2
81
70
0
62
-3
6
Continuous
290
1
370
-3
390
0
0
LAYER
5
75
100
AcDbSymbolTableRecord
100
AcDbLayerTableRecord
2
1
70
0
62
4
6
Continuous
290
1
370
-3
390
0
0
LAYER
5
81
100
AcDbSymbolTableRecord
100
AcDbLayerTableRecord
2
4
70
0
62
-2
6
CENTER
290
1
370
-3
390
0
0
LAYER
5
CC
100
AcDbSymbolTableRecord
100
AcDbLayerTableRecord
2
2
70
0
62
7
6
Continuous
290
1
370
-3
390
0
0
LAYER
5
232
100
AcDbSymbolTableRecord
100
AcDbLayerTableRecord
2
Defpoints
70
0
62
7
6
Continuous
290
0
370
-3
390
0
0
LAYER
5
30e
100
AcDbSymbolTableRecord
100
AcDbLayerTableRecord
2
SK4
70
0
62
2
6
CENTER
290
1
370
-3
390
0
0
LAYER
5
30f
100
AcDbSymbolTableRecord
100
AcDbLayerTableRecord
2
SK1
70
0
62
4
6
Continuous
290
1
370
-3
390
0
0
LAYER
5
310
100
AcDbSymbolTableRecord
100
AcDbLayerTableRecord
2
SK2
70
0
62
7
6
Continuous
290
1
370
-3
390
0
0
LAYER
5
311
100
AcDbSymbolTableRecord
100
AcDbLayerTableRecord
2
SK6
70
0
62
5
6
Continuous
290
1
370
-3
390
0
0
ENDTAB
0
TABLE
2
STYLE
5
325
100
AcDbSymbolTable
0
STYLE
5
11
100
AcDbSymbolTableRecord
100
AcDbTextStyleTableRecord
2
Standard
3
txt
70
0
71
0
40
0
41
1
42
0
50
0
0
STYLE
5
218
100
AcDbSymbolTableRecord
100
AcDbTextStyleTableRecord
2
iso_b_vert
3
simplex.shx
70
0
71
0
40
0
41
1
42
0
50
0
0
STYLE
5
219
100
AcDbSymbolTableRecord
100
AcDbTextStyleTableRecord
2
DWGDirectTextStyle
3
simplex
70
0
71
0
40
0
41
1
42
0
50
0
0
ENDTAB
0
TABLE
2
DIMSTYLE
5
326
100
AcDbSymbolTable
100
AcDbDimStyleTable
0
DIMSTYLE
105
27
100
AcDbSymbolTableRecord
100
AcDbDimStyleTableRecord
2
Standard
70
0
3
<>
41
0.18
42
0.0625
44
0.18
140
0.18
147
0.09
73
0
74
0
77
1
271
2
275
0
278
52
280
0
340
11
0
ENDTAB
0
TABLE
2
VIEW
5
327
100
AcDbSymbolTable
0
ENDTAB
0
TABLE
2
UCS
5
328
100
AcDbSymbolTable
0
ENDTAB
0
TABLE
2
APPID
5
329
100
AcDbSymbolTable
0
APPID
5
12
100
AcDbSymbolTableRecord
100
AcDbRegAppTableRecord
2
ACAD
70
0
0
APPID
5
22E
100
AcDbSymbolTableRecord
100
AcDbRegAppTableRecord
2
ACAD_DSTYLE_DIMBREAK
70
0
0
APPID
5
2CD
100
AcDbSymbolTableRecord
100
AcDbRegAppTableRecord
2
ACAD_DSTYLE_DIM_LINETYPE
70
0
0
APPID
5
2CE
100
AcDbSymbolTableRecord
100
AcDbRegAppTableRecord
2
ACAD_DSTYLE_DIM_EXT1_LINETYPE
70
0
0
APPID
5
2CF
100
AcDbSymbolTableRecord
100
AcDbRegAppTableRecord
2
ACAD_DSTYLE_DIM_EXT2_LINETYPE
70
0
0
APPID
5
30A
100
AcDbSymbolTableRecord
100
AcDbRegAppTableRecord
2
ACAD_MLEADERVER
70
0
0
ENDTAB
0
TABLE
2
BLOCK_RECORD
5
32a
100
AcDbSymbolTable
0
BLOCK_RECORD
5
1F
100
AcDbSymbolTableRecord
100
AcDbBlockTableRecord
2
*Model_Space
340
0
70
0
0
BLOCK_RECORD
5
1B
100
AcDbSymbolTableRecord
100
AcDbBlockTableRecord
2
*Paper_Space
340
0
70
0
0
BLOCK_RECORD
5
23
100
AcDbSymbolTableRecord
100
AcDbBlockTableRecord
2
*Paper_Space0
340
0
70
0
0
BLOCK_RECORD
5
233
100
AcDbSymbolTableRecord
100
AcDbBlockTableRecord
2
*D1
340
0
70
0
0
BLOCK_RECORD
5
241
100
AcDbSymbolTableRecord
100
AcDbBlockTableRecord
2
_U0
340
0
70
0
0
BLOCK_RECORD
5
24D
100
AcDbSymbolTableRecord
100
AcDbBlockTableRecord
2
*D3
340
0
70
0
0
BLOCK_RECORD
5
25A
100
AcDbSymbolTableRecord
100
AcDbBlockTableRecord
2
_U1
340
0
70
0
0
BLOCK_RECORD
5
267
100
AcDbSymbolTableRecord
100
AcDbBlockTableRecord
2
*D5
340
0
70
0
0
BLOCK_RECORD
5
275
100
AcDbSymbolTableRecord
100
AcDbBlockTableRecord
2
_U2
340
0
70
0
0
BLOCK_RECORD
5
282
100
AcDbSymbolTableRecord
100
AcDbBlockTableRecord
2
*D7
340
0
70
0
0
BLOCK_RECORD
5
28E
100
AcDbSymbolTableRecord
100
AcDbBlockTableRecord
2
_U3
340
0
70
0
0
BLOCK_RECORD
5
29A
100
AcDbSymbolTableRecord
100
AcDbBlockTableRecord
2
*D9
340
0
70
0
0
BLOCK_RECORD
5
2A6
100
AcDbSymbolTableRecord
100
AcDbBlockTableRecord
2
_U4
340
0
70
0
0
ENDTAB
0
ENDSEC
0
SECTION
2
BLOCKS
0
BLOCK
5
20
100
AcDbEntity
8
0
100
AcDbBlockBegin
2
*Model_Space
70
0
10
0
20
0
30
0
3
*Model_Space
0
ENDBLK
5
21
100
AcDbEntity
8
0
100
AcDbBlockEnd
0
BLOCK
5
1C
100
AcDbEntity
8
0
100
AcDbBlockBegin
2
*Paper_Space
70
0
10
0
20
0
30
0
3
*Paper_Space
0
ENDBLK
5
1D
100
AcDbEntity
8
0
100
AcDbBlockEnd
0
BLOCK
5
24
100
AcDbEntity
8
0
100
AcDbBlockBegin
2
*Paper_Space0
70
0
10
0
20
0
30
0
3
*Paper_Space0
0
ENDBLK
5
25
100
AcDbEntity
8
0
100
AcDbBlockEnd
0
BLOCK
5
234
100
AcDbEntity
8
0
100
AcDbBlockBegin
2
*D1
70
1
10
0
20
0
30
0
3
*D1
0
LINE
5
236
100
AcDbEntity
8
0
62
256
6
ByLayer
370
-2
48
1
60
0
100
AcDbLine
10
50.2375
20
2.455509
30
0
11
69.314491
21
2.455509
31
0
39
0
210
0
220
0
230
1
0
LINE
5
237
100
AcDbEntity
8
0
62
256
6
ByLayer
370
-2
48
1
60
0
100
AcDbLine
10
50.2375
20
-2.455509
30
0
11
69.314491
21
-2.455509
31
0
39
0
210
0
220
0
230
1
0
LINE
5
238
100
AcDbEntity
8
0
62
256
6
ByLayer
370
-2
48
1
60
0
100
AcDbLine
10
67.314491
20
2.455509
30
0
11
67.314491
21
31.889107
31
0
39
0
210
0
220
0
230
1
0
LINE
5
239
100
AcDbEntity
8
0
62
256
6
ByLayer
370
-2
48
1
60
0
100
AcDbLine
10
67.314491
20
5.955509
30
0
11
67.314491
21
9.455509
31
0
39
0
210
0
220
0
230
1
0
LINE
5
23A
100
AcDbEntity
8
0
62
256
6
ByLayer
370
-2
48
1
60
0
100
AcDbLine
10
67.314491
20
-5.955509
30
0
11
67.314491
21
-9.455509
31
0
39
0
210
0
220
0
230
1
0
SOLID
5
23B
100
AcDbEntity
8
0
62
256
6
ByLayer
370
-1
48
1
60
0
100
AcDbTrace
10
66.731158
20
5.955509
30
0
11
67.897825
21
5.955509
31
0
12
67.314491
22
2.455509
32
0
13
67.314491
23
2.455509
33
0
39
0
210
0
220
0
230
1
0
SOLID
5
23C
100
AcDbEntity
8
0
62
256
6
ByLayer
370
-1
48
1
60
0
100
AcDbTrace
10
67.897825
20
-5.955509
30
0
11
66.731158
21
-5.955509
31
0
12
67.314491
22
-2.455509
32
0
13
67.314491
23
-2.455509
33
0
39
0
210
0
220
0
230
1
0
MTEXT
5
23D
100
AcDbEntity
8
0
62
256
6
ByLayer
370
18
48
1
60
0
100
AcDbMText
10
61.314491
20
21.817679
30
0
210
0
220
0
230
1
1
\A1;4.911
40
3
41
0
44
1
50
90
71
5
72
5
7
iso_b_vert
0
POINT
5
23E
100
AcDbEntity
8
Defpoints
62
0
6
ByLayer
370
-1
48
1
60
0
100
AcDbPoint
10
48.65
20
2.455509
30
0
39
0
210
0
220
0
230
1
50
360
0
POINT
5
23F
100
AcDbEntity
8
Defpoints
62
0
6
ByLayer
370
-1
48
1
60
0
100
AcDbPoint
10
48.65
20
-2.455509
30
0
39
0
210
0
220
0
230
1
50
360
0
POINT
5
240
100
AcDbEntity
8
Defpoints
62
0
6
ByLayer
370
-1
48
1
60
0
100
AcDbPoint
10
67.314491
20
-2.455509
30
0
39
0
210
0
220
0
230
1
50
360
0
ENDBLK
5
235
100
AcDbEntity
8
0
100
AcDbBlockEnd
0
BLOCK
5
248
100
AcDbEntity
8
0
100
AcDbBlockBegin
2
_U0
70
0
10
0
20
0
30
0
3
_U0
0
MTEXT
5
242
100
AcDbEntity
8
2
62
256
6
ByLayer
370
18
48
1
60
0
100
AcDbMText
10
66.723377
20
12.590509
30
0
210
0
220
0
230
1
1
\W0.7039;UNF 10-32
40
3
41
0
44
1.084337
50
90
71
7
72
5
7
iso_b_vert
0
LINE
5
243
100
AcDbEntity
8
2
62
256
6
ByLayer
370
13
48
1
60
0
100
AcDbLine
10
50.2375
20
2.455509
30
0
11
69.314491
21
2.455509
31
0
39
0
210
0
220
0
230
1
0
LINE
5
244
100
AcDbEntity
8
2
62
256
6
ByLayer
370
13
48
1
60
0
100
AcDbLine
10
50.2375
20
-2.455509
30
0
11
69.314491
21
-2.455509
31
0
39
0
210
0
220
0
230
1
0
LINE
5
245
100
AcDbEntity
8
2
62
256
6
ByLayer
370
13
48
1
60
0
100
AcDbLine
10
67.314491
20
-9.955509
30
0
11
67.314491
21
31.179849
31
0
39
0
210
0
220
0
230
1
0
SOLID
5
246
100
AcDbEntity
8
2
62
256
6
ByLayer
370
18
48
1
60
0
100
AcDbTrace
10
67.314491
20
2.455509
30
0
11
66.853708
21
5.955507
31
0
12
67.775275
22
5.95551
32
0
13
67.775275
23
5.95551
33
0
39
0
210
0
220
0
230
1
0
SOLID
5
247
100
AcDbEntity
8
2
62
256
6
ByLayer
370
18
48
1
60
0
100
AcDbTrace
10
67.314491
20
-2.455509
30
0
11
67.775275
21
-5.955507
31
0
12
66.853708
22
-5.95551
32
0
13
66.853708
23
-5.95551
33
0
39
0
210
0
220
0
230
1
0
ENDBLK
5
249
100
AcDbEntity
8
0
100
AcDbBlockEnd
0
BLOCK
5
24E
100
AcDbEntity
8
0
100
AcDbBlockBegin
2
*D3
70
1
10
0
20
0
30
0
3
*D3
0
LINE
5
250
100
AcDbEntity
8
0
62
256
6
ByLayer
370
-2
48
1
60
0
100
AcDbLine
10
48.65
20
4.043009
30
0
11
48.65
21
13.977312
31
0
39
0
210
0
220
0
230
1
0
LINE
5
251
100
AcDbEntity
8
0
62
256
6
ByLayer
370
-2
48
1
60
0
100
AcDbLine
10
47.26
20
1.5875
30
0
11
47.26
21
13.977312
31
0
39
0
210
0
220
0
230
1
0
LINE
5
252
100
AcDbEntity
8
0
62
256
6
ByLayer
370
-2
48
1
60
0
100
AcDbLine
10
52.15
20
11.977312
30
0
11
55.65
21
11.977312
31
0
39
0
210
0
220
0
230
1
0
LINE
5
253
100
AcDbEntity
8
0
62
256
6
ByLayer
370
-2
48
1
60
0
100
AcDbLine
10
43.76
20
11.977312
30
0
11
40.26
21
11.977312
31
0
39
0
210
0
220
0
230
1
0
SOLID
5
254
100
AcDbEntity
8
0
62
256
6
ByLayer
370
-1
48
1
60
0
100
AcDbTrace
10
52.15
20
12.560645
30
0
11
52.15
21
11.393978
31
0
12
48.65
22
11.977312
32
0
13
48.65
23
11.977312
33
0
39
0
210
0
220
0
230
1
0
SOLID
5
255
100
AcDbEntity
8
0
62
256
6
ByLayer
370
-1
48
1
60
0
100
AcDbTrace
10
43.76
20
11.393978
30
0
11
43.76
21
12.560645
31
0
12
47.26
22
11.977312
32
0
13
47.26
23
11.977312
33
0
39
0
210
0
220
0
230
1
0
MTEXT
5
256
100
AcDbEntity
8
0
62
256
6
ByLayer
370
18
48
1
60
0
100
AcDbMText
10
47.955
20
17.977312
30
0
210
0
220
0
230
1
1
\A1;1.39
40
3
41
0
44
1
50
0
71
5
72
5
7
iso_b_vert
0
POINT
5
257
100
AcDbEntity
8
Defpoints
62
0
6
ByLayer
370
-1
48
1
60
0
100
AcDbPoint
10
48.65
20
2.455509
30
0
39
0
210
0
220
0
230
1
50
360
0
POINT
5
258
100
AcDbEntity
8
Defpoints
62
0
6
ByLayer
370
-1
48
1
60
0
100
AcDbPoint
10
47.26
20
0
30
0
39
0
210
0
220
0
230
1
50
360
0
POINT
5
259
100
AcDbEntity
8
Defpoints
62
0
6
ByLayer
370
-1
48
1
60
0
100
AcDbPoint
10
47.26
20
11.977312
30
0
39
0
210
0
220
0
230
1
50
360
0
ENDBLK
5
24F
100
AcDbEntity
8
0
100
AcDbBlockEnd
0
BLOCK
5
262
100
AcDbEntity
8
0
100
AcDbBlockBegin
2
_U1
70
0
10
0
20
0
30
0
3
_U1
0
MTEXT
5
25B
100
AcDbEntity
8
SK2
62
256
6
ByLayer
370
18
48
1
60
0
100
AcDbMText
10
44.994986
20
12.759945
30
0
210
0
220
0
230
1
1
\W0.6844;'E'
40
3.5
41
0
44
1.084337
50
0
71
7
72
5
7
iso_b_vert
0
MTEXT
5
25C
100
AcDbEntity
8
SK2
62
256
6
ByLayer
370
18
48
1
60
0
100
AcDbMText
10
44.968486
20
19.862426
30
0
210
0
220
0
230
1
1
\W0.6662;1.39
40
3
41
0
44
1.084337
50
0
71
7
72
5
7
iso_b_vert
0
LINE
5
25D
100
AcDbEntity
8
SK2
62
256
6
ByLayer
370
13
48
1
60
0
100
AcDbLine
10
48.65
20
4.043009
30
0
11
48.65
21
13.977312
31
0
39
0
210
0
220
0
230
1
0
LINE
5
25E
100
AcDbEntity
8
SK2
62
256
6
ByLayer
370
13
48
1
60
0
100
AcDbLine
10
47.26
20
1.5875
30
0
11
47.26
21
13.977312
31
0
39
0
210
0
220
0
230
1
0
LINE
5
25F
100
AcDbEntity
8
SK2
62
256
6
ByLayer
370
13
48
1
60
0
100
AcDbLine
10
56.15
20
11.977312
30
0
11
39.76
21
11.977312
31
0
39
0
210
0
220
0
230
1
0
SOLID
5
260
100
AcDbEntity
8
SK2
62
256
6
ByLayer
370
18
48
1
60
0
100
AcDbTrace
10
48.65
20
11.977312
30
0
11
52.149998
21
12.438095
31
0
12
52.150002
22
11.516528
32
0
13
52.150002
23
11.516528
33
0
39
0
210
0
220
0
230
1
0
SOLID
5
261
100
AcDbEntity
8
SK2
62
256
6
ByLayer
370
18
48
1
60
0
100
AcDbTrace
10
47.26
20
11.977312
30
0
11
43.760002
21
11.516528
31
0
12
43.759998
22
12.438095
32
0
13
43.759998
23
12.438095
33
0
39
0
210
0
220
0
230
1
0
ENDBLK
5
263
100
AcDbEntity
8
0
100
AcDbBlockEnd
0
BLOCK
5
268
100
AcDbEntity
8
0
100
AcDbBlockBegin
2
*D5
70
1
10
0
20
0
30
0
3
*D5
0
LINE
5
26A
100
AcDbEntity
8
0
62
256
6
ByLayer
370
-2
48
1
60
0
100
AcDbLine
10
48.65
20
-4.043009
30
0
11
48.65
21
-11.455509
31
0
39
0
210
0
220
0
230
1
0
LINE
5
26B
100
AcDbEntity
8
0
62
256
6
ByLayer
370
-2
48
1
60
0
100
AcDbLine
10
39.75
20
-4.043009
30
0
11
39.75
21
-11.455509
31
0
39
0
210
0
220
0
230
1
0
LINE
5
26C
100
AcDbEntity
8
0
62
256
6
ByLayer
370
-2
48
1
60
0
100
AcDbLine
10
48.65
20
-9.455509
30
0
11
70.792857
21
-9.455509
31
0
39
0
210
0
220
0
230
1
0
LINE
5
26D
100
AcDbEntity
8
0
62
256
6
ByLayer
370
-2
48
1
60
0
100
AcDbLine
10
52.15
20
-9.455509
30
0
11
55.65
21
-9.455509
31
0
39
0
210
0
220
0
230
1
0
LINE
5
26E
100
AcDbEntity
8
0
62
256
6
ByLayer
370
-2
48
1
60
0
100
AcDbLine
10
36.25
20
-9.455509
30
0
11
32.75
21
-9.455509
31
0
39
0
210
0
220
0
230
1
0
SOLID
5
26F
100
AcDbEntity
8
0
62
256
6
ByLayer
370
-1
48
1
60
0
100
AcDbTrace
10
52.15
20
-8.872175
30
0
11
52.15
21
-10.038842
31
0
12
48.65
22
-9.455509
32
0
13
48.65
23
-9.455509
33
0
39
0
210
0
220
0
230
1
0
SOLID
5
270
100
AcDbEntity
8
0
62
256
6
ByLayer
370
-1
48
1
60
0
100
AcDbTrace
10
36.25
20
-10.038842
30
0
11
36.25
21
-8.872175
31
0
12
39.75
22
-9.455509
32
0
13
39.75
23
-9.455509
33
0
39
0
210
0
220
0
230
1
0
MTEXT
5
271
100
AcDbEntity
8
0
62
256
6
ByLayer
370
18
48
1
60
0
100
AcDbMText
10
63.221429
20
-3.455509
30
0
210
0
220
0
230
1
1
\A1;8.9
40
3
41
0
44
1
50
0
71
5
72
5
7
iso_b_vert
0
POINT
5
272
100
AcDbEntity
8
Defpoints
62
0
6
ByLayer
370
-1
48
1
60
0
100
AcDbPoint
10
48.65
20
-2.455509
30
0
39
0
210
0
220
0
230
1
50
360
0
POINT
5
273
100
AcDbEntity
8
Defpoints
62
0
6
ByLayer
370
-1
48
1
60
0
100
AcDbPoint
10
39.75
20
-2.455509
30
0
39
0
210
0
220
0
230
1
50
360
0
POINT
5
274
100
AcDbEntity
8
Defpoints
62
0
6
ByLayer
370
-1
48
1
60
0
100
AcDbPoint
10
39.75
20
-9.455509
30
0
39
0
210
0
220
0
230
1
50
360
0
ENDBLK
5
269
100
AcDbEntity
8
0
100
AcDbBlockEnd
0
BLOCK
5
27D
100
AcDbEntity
8
0
100
AcDbBlockBegin
2
_U2
70
0
10
0
20
0
30
0
3
_U2
0
MTEXT
5
276
100
AcDbEntity
8
SK2
62
256
6
ByLayer
370
18
48
1
60
0
100
AcDbMText
10
54.809
20
-8.570394
30
0
210
0
220
0
230
1
1
\W0.7276;8.9
40
3
41
0
44
1.084337
50
0
71
7
72
5
7
iso_b_vert
0
MTEXT
5
277
100
AcDbEntity
8
SK2
62
256
6
ByLayer
370
18
48
1
60
0
100
AcDbMText
10
62.081584
20
-8.217913
30
0
210
0
220
0
230
1
1
\W0.8315;\W0.4158;%%p\W0.8315;0.5
40
2.5
41
0
44
1.084337
50
0
71
7
72
5
7
iso_b_vert
0
LINE
5
278
100
AcDbEntity
8
SK2
62
256
6
ByLayer
370
13
48
1
60
0
100
AcDbLine
10
48.65
20
-4.043009
30
0
11
48.65
21
-11.455509
31
0
39
0
210
0
220
0
230
1
0
LINE
5
279
100
AcDbEntity
8
SK2
62
256
6
ByLayer
370
13
48
1
60
0
100
AcDbLine
10
39.75
20
-4.043009
30
0
11
39.75
21
-11.455509
31
0
39
0
210
0
220
0
230
1
0
LINE
5
27A
100
AcDbEntity
8
SK2
62
256
6
ByLayer
370
13
48
1
60
0
100
AcDbLine
10
39.75
20
-9.455509
30
0
11
69.198321
21
-9.455509
31
0
39
0
210
0
220
0
230
1
0
SOLID
5
27B
100
AcDbEntity
8
SK2
62
256
6
ByLayer
370
18
48
1
60
0
100
AcDbTrace
10
48.65
20
-9.455509
30
0
11
45.150002
21
-9.916292
31
0
12
45.149998
22
-8.994725
32
0
13
45.149998
23
-8.994725
33
0
39
0
210
0
220
0
230
1
0
SOLID
5
27C
100
AcDbEntity
8
SK2
62
256
6
ByLayer
370
18
48
1
60
0
100
AcDbTrace
10
39.75
20
-9.455509
30
0
11
43.249998
21
-8.994725
31
0
12
43.250002
22
-9.916292
32
0
13
43.250002
23
-9.916292
33
0
39
0
210
0
220
0
230
1
0
ENDBLK
5
27E
100
AcDbEntity
8
0
100
AcDbBlockEnd
0
BLOCK
5
283
100
AcDbEntity
8
0
100
AcDbBlockBegin
2
*D7
70
1
10
0
20
0
30
0
3
*D7
0
LINE
5
285
100
AcDbEntity
8
0
62
256
6
ByLayer
370
-2
48
1
60
0
100
AcDbLine
10
48.65
20
-4.043009
30
0
11
48.65
21
-33.955509
31
0
39
0
210
0
220
0
230
1
0
LINE
5
286
100
AcDbEntity
8
0
62
256
6
ByLayer
370
-2
48
1
60
0
100
AcDbLine
10
20.65
20
-3.4675
30
0
11
20.65
21
-33.955509
31
0
39
0
210
0
220
0
230
1
0
LINE
5
287
100
AcDbEntity
8
0
62
256
6
ByLayer
370
-2
48
1
60
0
100
AcDbLine
10
45.15
20
-31.955509
30
0
11
24.15
21
-31.955509
31
0
39
0
210
0
220
0
230
1
0
SOLID
5
288
100
AcDbEntity
8
0
62
256
6
ByLayer
370
-1
48
1
60
0
100
AcDbTrace
10
45.15
20
-32.538842
30
0
11
45.15
21
-31.372175
31
0
12
48.65
22
-31.955509
32
0
13
48.65
23
-31.955509
33
0
39
0
210
0
220
0
230
1
0
SOLID
5
289
100
AcDbEntity
8
0
62
256
6
ByLayer
370
-1
48
1
60
0
100
AcDbTrace
10
24.15
20
-31.372175
30
0
11
24.15
21
-32.538842
31
0
12
20.65
22
-31.955509
32
0
13
20.65
23
-31.955509
33
0
39
0
210
0
220
0
230
1
0
MTEXT
5
28A
100
AcDbEntity
8
0
62
256
6
ByLayer
370
18
48
1
60
0
100
AcDbMText
10
34.65
20
-25.955509
30
0
210
0
220
0
230
1
1
\A1;28
40
3
41
0
44
1
50
0
71
5
72
5
7
iso_b_vert
0
POINT
5
28B
100
AcDbEntity
8
Defpoints
62
0
6
ByLayer
370
-1
48
1
60
0
100
AcDbPoint
10
48.65
20
-2.455509
30
0
39
0
210
0
220
0
230
1
50
360
0
POINT
5
28C
100
AcDbEntity
8
Defpoints
62
0
6
ByLayer
370
-1
48
1
60
0
100
AcDbPoint
10
20.65
20
-1.88
30
0
39
0
210
0
220
0
230
1
50
360
0
POINT
5
28D
100
AcDbEntity
8
Defpoints
62
0
6
ByLayer
370
-1
48
1
60
0
100
AcDbPoint
10
20.65
20
-31.955509
30
0
39
0
210
0
220
0
230
1
50
360
0
ENDBLK
5
284
100
AcDbEntity
8
0
100
AcDbBlockEnd
0
BLOCK
5
295
100
AcDbEntity
8
0
100
AcDbBlockBegin
2
_U3
70
0
10
0
20
0
30
0
3
_U3
0
MTEXT
5
28F
100
AcDbEntity
8
SK2
62
256
6
ByLayer
370
18
48
1
60
0
100
AcDbMText
10
33.017172
20
-31.070394
30
0
210
0
220
0
230
1
1
\W0.6740;28
40
3
41
0
44
1.084337
50
0
71
7
72
5
7
iso_b_vert
0
LINE
5
290
100
AcDbEntity
8
SK2
62
256
6
ByLayer
370
13
48
1
60
0
100
AcDbLine
10
48.65
20
-4.043009
30
0
11
48.65
21
-33.955509
31
0
39
0
210
0
220
0
230
1
0
LINE
5
291
100
AcDbEntity
8
SK2
62
256
6
ByLayer
370
13
48
1
60
0
100
AcDbLine
10
20.65
20
-3.4675
30
0
11
20.65
21
-33.955509
31
0
39
0
210
0
220
0
230
1
0
LINE
5
292
100
AcDbEntity
8
SK2
62
256
6
ByLayer
370
13
48
1
60
0
100
AcDbLine
10
48.65
20
-31.955509
30
0
11
20.65
21
-31.955509
31
0
39
0
210
0
220
0
230
1
0
SOLID
5
293
100
AcDbEntity
8
SK2
62
256
6
ByLayer
370
18
48
1
60
0
100
AcDbTrace
10
48.65
20
-31.955509
30
0
11
45.150002
21
-32.416292
31
0
12
45.149998
22
-31.494725
32
0
13
45.149998
23
-31.494725
33
0
39
0
210
0
220
0
230
1
0
SOLID
5
294
100
AcDbEntity
8
SK2
62
256
6
ByLayer
370
18
48
1
60
0
100
AcDbTrace
10
20.65
20
-31.955509
30
0
11
24.149998
21
-31.494725
31
0
12
24.150002
22
-32.416292
32
0
13
24.150002
23
-32.416292
33
0
39
0
210
0
220
0
230
1
0
ENDBLK
5
296
100
AcDbEntity
8
0
100
AcDbBlockEnd
0
BLOCK
5
29B
100
AcDbEntity
8
0
100
AcDbBlockBegin
2
*D9
70
1
10
0
20
0
30
0
3
*D9
0
LINE
5
29D
100
AcDbEntity
8
0
62
256
6
ByLayer
370
-2
48
1
60
0
100
AcDbLine
10
48.65
20
-4.043009
30
0
11
48.65
21
-22.955509
31
0
39
0
210
0
220
0
230
1
0
LINE
5
29E
100
AcDbEntity
8
0
62
256
6
ByLayer
370
-2
48
1
60
0
100
AcDbLine
10
24.85
20
-1.5875
30
0
11
24.85
21
-22.955509
31
0
39
0
210
0
220
0
230
1
0
LINE
5
29F
100
AcDbEntity
8
0
62
256
6
ByLayer
370
-2
48
1
60
0
100
AcDbLine
10
45.15
20
-20.955509
30
0
11
28.35
21
-20.955509
31
0
39
0
210
0
220
0
230
1
0
SOLID
5
2A0
100
AcDbEntity
8
0
62
256
6
ByLayer
370
-1
48
1
60
0
100
AcDbTrace
10
45.15
20
-21.538842
30
0
11
45.15
21
-20.372175
31
0
12
48.65
22
-20.955509
32
0
13
48.65
23
-20.955509
33
0
39
0
210
0
220
0
230
1
0
SOLID
5
2A1
100
AcDbEntity
8
0
62
256
6
ByLayer
370
-1
48
1
60
0
100
AcDbTrace
10
28.35
20
-20.372175
30
0
11
28.35
21
-21.538842
31
0
12
24.85
22
-20.955509
32
0
13
24.85
23
-20.955509
33
0
39
0
210
0
220
0
230
1
0
MTEXT
5
2A2
100
AcDbEntity
8
0
62
256
6
ByLayer
370
18
48
1
60
0
100
AcDbMText
10
36.75
20
-14.955509
30
0
210
0
220
0
230
1
1
\A1;23.8
40
3
41
0
44
1
50
0
71
5
72
5
7
iso_b_vert
0
POINT
5
2A3
100
AcDbEntity
8
Defpoints
62
0
6
ByLayer
370
-1
48
1
60
0
100
AcDbPoint
10
48.65
20
-2.455509
30
0
39
0
210
0
220
0
230
1
50
360
0
POINT
5
2A4
100
AcDbEntity
8
Defpoints
62
0
6
ByLayer
370
-1
48
1
60
0
100
AcDbPoint
10
24.85
20
0
30
0
39
0
210
0
220
0
230
1
50
360
0
POINT
5
2A5
100
AcDbEntity
8
Defpoints
62
0
6
ByLayer
370
-1
48
1
60
0
100
AcDbPoint
10
24.85
20
-20.955509
30
0
39
0
210
0
220
0
230
1
50
360
0
ENDBLK
5
29C
100
AcDbEntity
8
0
100
AcDbBlockEnd
0
BLOCK
5
2AD
100
AcDbEntity
8
0
100
AcDbBlockBegin
2
_U4
70
0
10
0
20
0
30
0
3
_U4
0
MTEXT
5
2A7
100
AcDbEntity
8
2
62
256
6
ByLayer
370
18
48
1
60
0
100
AcDbMText
10
33.388544
20
-20.070394
30
0
210
0
220
0
230
1
1
\W0.7346;23.8
40
3
41
0
44
1.084337
50
0
71
7
72
5
7
iso_b_vert
0
LINE
5
2A8
100
AcDbEntity
8
2
62
256
6
ByLayer
370
13
48
1
60
0
100
AcDbLine
10
48.65
20
-4.043009
30
0
11
48.65
21
-22.955509
31
0
39
0
210
0
220
0
230
1
0
LINE
5
2A9
100
AcDbEntity
8
2
62
256
6
ByLayer
370
13
48
1
60
0
100
AcDbLine
10
24.85
20
-1.5875
30
0
11
24.85
21
-22.955509
31
0
39
0
210
0
220
0
230
1
0
LINE
5
2AA
100
AcDbEntity
8
2
62
256
6
ByLayer
370
13
48
1
60
0
100
AcDbLine
10
48.65
20
-20.955509
30
0
11
24.85
21
-20.955509
31
0
39
0
210
0
220
0
230
1
0
SOLID
5
2AB
100
AcDbEntity
8
2
62
256
6
ByLayer
370
18
48
1
60
0
100
AcDbTrace
10
48.65
20
-20.955509
30
0
11
45.150002
21
-21.416292
31
0
12
45.149998
22
-20.494725
32
0
13
45.149998
23
-20.494725
33
0
39
0
210
0
220
0
230
1
0
SOLID
5
2AC
100
AcDbEntity
8
2
62
256
6
ByLayer
370
18
48
1
60
0
100
AcDbTrace
10
24.85
20
-20.955509
30
0
11
28.349998
21
-20.494725
31
0
12
28.350002
22
-21.416292
32
0
13
28.350002
23
-21.416292
33
0
39
0
210
0
220
0
230
1
0
ENDBLK
5
2AE
100
AcDbEntity
8
0
100
AcDbBlockEnd
0
ENDSEC
0
SECTION
2
ENTITIES
0
ARC
5
D5
100
AcDbEntity
8
SK1
62
256
6
ByLayer
370
18
48
1
60
0
100
AcDbCircle
39
0
10
-16.93
20
0
30
0
40
2.36544000000015
210
0
220
0
230
1
100
AcDbArc
50
324.67802
51
35.32198
0
ARC
5
D6
100
AcDbEntity
8
1
62
256
6
ByLayer
370
18
48
1
60
0
100
AcDbCircle
39
0
10
38.575853
20
2.18
30
0
40
0.3
210
0
220
0
230
1
100
AcDbArc
50
270
51
301
0
ARC
5
D7
100
AcDbEntity
8
1
62
256
6
ByLayer
370
18
48
1
60
0
100
AcDbCircle
39
0
10
20.693744
20
-2.38
30
0
40
0.5
210
0
220
0
230
1
100
AcDbArc
50
90
51
100
0
ARC
5
D8
100
AcDbEntity
8
1
62
256
6
ByLayer
370
18
48
1
60
0
100
AcDbCircle
39
0
10
20.693744
20
2.38
30
0
40
0.5
210
0
220
0
230
1
100
AcDbArc
50
260
51
270
0
POINT
5
70
100
AcDbEntity
8
80
62
256
6
ByLayer
370
18
48
1
60
0
100
AcDbPoint
10
0
20
0
30
0
39
0
210
0
220
0
230
1
50
360
0
POINT
5
72
100
AcDbEntity
8
81
62
256
6
ByLayer
370
18
48
1
60
0
100
AcDbPoint
10
48.75
20
0
30
0
39
0
210
0
220
0
230
1
50
360
0
POINT
5
74
100
AcDbEntity
8
1
62
256
6
ByLayer
370
18
48
1
60
1
100
AcDbPoint
10
48.65
20
2.455509
30
0
39
0
210
0
220
0
230
1
50
360
0
POINT
5
76
100
AcDbEntity
8
1
62
256
6
ByLayer
370
18
48
1
60
1
100
AcDbPoint
10
48.65
20
-2.455509
30
0
39
0
210
0
220
0
230
1
50
360
0
POINT
5
77
100
AcDbEntity
8
1
62
256
6
ByLayer
370
18
48
1
60
1
100
AcDbPoint
10
48.65
20
2.455509
30
0
39
0
210
0
220
0
230
1
50
360
0
POINT
5
78
100
AcDbEntity
8
1
62
256
6
ByLayer
370
18
48
1
60
1
100
AcDbPoint
10
47.26
20
0
30
0
39
0
210
0
220
0
230
1
50
360
0
POINT
5
79
100
AcDbEntity
8
1
62
256
6
ByLayer
370
18
48
1
60
1
100
AcDbPoint
10
48.65
20
-2.455509
30
0
39
0
210
0
220
0
230
1
50
360
0
POINT
5
7A
100
AcDbEntity
8
1
62
256
6
ByLayer
370
18
48
1
60
1
100
AcDbPoint
10
39.75
20
-2.455509
30
0
39
0
210
0
220
0
230
1
50
360
0
POINT
5
7B
100
AcDbEntity
8
1
62
256
6
ByLayer
370
18
48
1
60
1
100
AcDbPoint
10
48.65
20
-2.455509
30
0
39
0
210
0
220
0
230
1
50
360
0
POINT
5
7C
100
AcDbEntity
8
1
62
256
6
ByLayer
370
18
48
1
60
1
100
AcDbPoint
10
20.65
20
-1.88
30
0
39
0
210
0
220
0
230
1
50
360
0
POINT
5
7D
100
AcDbEntity
8
1
62
256
6
ByLayer
370
18
48
1
60
1
100
AcDbPoint
10
48.65
20
-2.455509
30
0
39
0
210
0
220
0
230
1
50
360
0
POINT
5
7E
100
AcDbEntity
8
1
62
256
6
ByLayer
370
18
48
1
60
1
100
AcDbPoint
10
24.85
20
0
30
0
39
0
210
0
220
0
230
1
50
360
0
SPLINE
5
D9
100
AcDbEntity
8
1
62
256
6
ByLayer
370
13
48
1
60
0
100
AcDbSpline
70
4
71
3
72
9
73
5
40
0
40
0
40
0
40
0
40
0.289684729908726
40
1
40
1
40
1
40
1
41
1
10
47.6422329054411
20
-1.99684900380595
30
0
41
1
10
47.640182649449
20
-1.9999452662158
30
0
41
1
10
47.6331051184164
20
-2.00791653053366
30
0
41
1
10
47.6260276171591
20
-2.0064283871674
30
0
41
1
10
47.6210003672357
20
-2.00062622116195
30
0
0
SPLINE
5
DA
100
AcDbEntity
8
1
62
256
6
ByLayer
370
18
48
1
60
0
100
AcDbSpline
70
4
71
3
72
9
73
5
40
0
40
0
40
0
40
0
40
0.422876458779715
40
1
40
1
40
1
40
1
41
1
10
47.4465770630353
20
-2.32900180095143
30
0
41
1
10
47.4443129934224
20
-2.32922715811847
30
0
41
1
10
47.439094390266
20
-2.32438629560204
30
0
41
1
10
47.4341629162876
20
-2.30705338697973
30
0
41
1
10
47.4313776611187
20
-2.29284183425619
30
0
0
SPLINE
5
DB
100
AcDbEntity
8
1
62
256
6
ByLayer
370
13
48
1
60
0
100
AcDbSpline
70
4
71
3
72
9
73
5
40
0
40
0
40
0
40
0
40
0.331818827738606
40
1
40
1
40
1
40
1
41
1
10
42.0587820264116
20
-1.99196429319102
30
0
41
1
10
42.0619171802361
20
-1.99781194458387
30
0
41
1
10
42.0713655971403
20
-2.00989470089607
30
0
41
1
10
42.0808142102561
20
-2.00503961203623
30
0
41
1
10
42.0871276702359
20
-1.99436308877833
30
0
0
SPLINE
5
DC
100
AcDbEntity
8
1
62
256
6
ByLayer
370
18
48
1
60
0
100
AcDbSpline
70
4
71
3
72
10
73
6
40
0
40
0
40
0
40
0
40
0.773460523756997
40
0.773460523756997
40
1
40
1
40
1
40
1
41
1
10
47.2285291521664
20
-2.32748343353723
30
0
41
1
10
47.2339348250701
20
-2.34767828932229
30
0
41
1
10
47.2392870020222
20
-2.36359428713393
30
0
41
1
10
47.2461574936779
20
-2.37859923127115
30
0
41
1
10
47.2477103396526
20
-2.38162967501796
30
0
41
1
10
47.2492599478147
20
-2.38428729789672
30
0
0
SPLINE
5
DD
100
AcDbEntity
8
1
62
256
6
ByLayer
370
13
48
1
60
0
100
AcDbSpline
70
4
71
3
72
9
73
5
40
0
40
0
40
0
40
0
40
0.120083010123914
40
1
40
1
40
1
40
1
41
1
10
43.4510586497749
20
1.99483416702995
30
0
41
1
10
43.4521707789531
20
1.99671042993583
30
0
41
1
10
43.46143211494
20
2.01039326955993
30
0
41
1
10
43.4706934453332
20
2.00780365231455
30
0
41
1
10
43.4788426459566
20
1.99311493732571
30
0
0
SPLINE
5
DE
100
AcDbEntity
8
1
62
256
6
ByLayer
370
13
48
1
60
0
100
AcDbSpline
70
4
71
3
72
9
73
5
40
0
40
0
40
0
40
0
40
0.715157603772261
40
1
40
1
40
1
40
1
41
1
10
46.9972656177067
20
-1.90965555131723
30
0
41
1
10
47.0031140270831
20
-1.93811732329465
30
0
41
1
10
47.0112918170083
20
-1.96936317531845
30
0
41
1
10
47.0194696040614
20
-1.98808023531723
30
0
41
1
10
47.0217989842928
20
-1.99239388018975
30
0
0
SPLINE
5
DF
100
AcDbEntity
8
1
62
256
6
ByLayer
370
13
48
1
60
0
100
AcDbSpline
70
4
71
3
72
9
73
5
40
0
40
0
40
0
40
0
40
0.814859089253291
40
1
40
1
40
1
40
1
41
1
10
44.0727026993551
20
1.9928237287412
30
0
41
1
10
44.0808828069596
20
1.97789275012971
30
0
41
1
10
44.090921321103
20
1.94421415731708
30
0
41
1
10
44.1009597772911
20
1.8922449598316
30
0
41
1
10
44.1028183053567
20
1.88200977427542
30
0
0
SPLINE
5
E0
100
AcDbEntity
8
1
62
256
6
ByLayer
370
13
48
1
60
0
100
AcDbSpline
70
4
71
3
72
9
73
5
40
0
40
0
40
0
40
0
40
0.90584709135921
40
1
40
1
40
1
40
1
41
1
10
41.4349996218848
20
-1.88016136310296
30
0
41
1
10
41.4445413608434
20
-1.93290596274122
30
0
41
1
10
41.4550748638208
20
-1.9734142522168
30
0
41
1
10
41.4656083690108
20
-1.99304545681113
30
0
41
1
10
41.4666001291814
20
-1.99470880179038
30
0
0
SPLINE
5
E1
100
AcDbEntity
8
1
62
256
6
ByLayer
370
13
48
1
60
0
100
AcDbSpline
70
4
71
3
72
9
73
5
40
0
40
0
40
0
40
0
40
0.453992916994734
40
1
40
1
40
1
40
1
41
1
10
46.7868934162623
20
-1.85367801295152
30
0
41
1
10
46.7963988331753
20
-1.91135414661883
30
0
41
1
10
46.8173364656656
20
-2.00376662731281
30
0
41
1
10
46.8382732508362
20
-2.0140692245086
30
0
41
1
10
46.8497046488198
20
-1.99505363682073
30
0
0
SPLINE
5
E2
100
AcDbEntity
8
1
62
256
6
ByLayer
370
13
48
1
60
0
100
AcDbSpline
70
4
71
3
72
10
73
6
40
0
40
0
40
0
40
0
40
0.0198098248310836
40
0.575430892755297
40
1
40
1
40
1
40
1
41
1
10
41.2245737088492
20
-1.81698436811894
30
0
41
1
10
41.2250286806391
20
-1.82004544083307
30
0
41
1
10
41.2382446007525
20
-1.90792835256696
30
0
41
1
10
41.26121226585
20
-2.00809534547543
30
0
41
1
10
41.2837257395853
20
-2.01091986732447
30
0
41
1
10
41.2934773352701
20
-1.99433027969479
30
0
0
SPLINE
5
E3
100
AcDbEntity
8
1
62
256
6
ByLayer
370
13
48
1
60
0
100
AcDbSpline
70
4
71
3
72
10
73
6
40
0
40
0
40
0
40
0
40
0.066532181763819
40
0.63632648780007
40
1
40
1
40
1
40
1
41
1
10
39.3072665258942
20
1.99695803153509
30
0
41
1
10
39.3087565683289
20
1.99472636359948
30
0
41
1
10
39.3230076515933
20
1.96938819117369
30
0
41
1
10
39.3454041654392
20
1.86951348904108
30
0
41
1
10
39.366310759223
20
1.70104820361385
30
0
41
1
10
39.3744558057359
20
1.62531001339445
30
0
0
SPLINE
5
E4
100
AcDbEntity
8
1
62
256
6
ByLayer
370
13
48
1
60
0
100
AcDbSpline
70
4
71
3
72
10
73
6
40
0
40
0
40
0
40
0
40
0.144860645930565
40
0.709355151251737
40
1
40
1
40
1
40
1
41
1
10
46.1627374813875
20
-1.61669198364936
30
0
41
1
10
46.1660123018819
20
-1.6474987143248
30
0
41
1
10
46.1820484760476
20
-1.79038218675529
30
0
41
1
10
46.2046551532627
20
-1.93329095188912
30
0
41
1
10
46.223986998522
20
-1.98662881823543
30
0
41
1
10
46.2305575075963
20
-1.99668250800048
30
0
0
SPLINE
5
E5
100
AcDbEntity
8
1
62
256
6
ByLayer
370
13
48
1
60
0
100
AcDbSpline
70
4
71
3
72
10
73
6
40
0
40
0
40
0
40
0
40
0.196615794901002
40
0.757142001301811
40
1
40
1
40
1
40
1
41
1
10
44.2449309746012
20
1.99479926668948
30
0
41
1
10
44.2494072766802
20
2.00232273227013
30
0
41
1
10
44.2666449371702
20
2.01687256574769
30
0
41
1
10
44.2894116790512
20
1.96151492346993
30
0
41
1
10
44.3077020981189
20
1.85627608098053
30
0
41
1
10
44.3132311758404
20
1.81925112239546
30
0
0
SPLINE
5
E6
100
AcDbEntity
8
1
62
256
6
ByLayer
370
13
48
1
60
0
100
AcDbSpline
70
4
71
3
72
10
73
6
40
0
40
0
40
0
40
0
40
0.286578549842265
40
0.812482623048372
40
1
40
1
40
1
40
1
41
1
10
40.6005139906927
20
-1.56219374366393
30
0
41
1
10
40.6074679747524
20
-1.63142973211853
30
0
41
1
10
40.6271833117982
20
-1.80769268221692
30
0
41
1
10
40.6514488704372
20
-1.94555740230533
30
0
41
1
10
40.6687604430936
20
-1.988263714672
30
0
41
1
10
40.673310657509
20
-1.99561671121796
30
0
0
SPLINE
5
E7
100
AcDbEntity
8
1
62
256
6
ByLayer
370
13
48
1
60
0
100
AcDbSpline
70
4
71
3
72
9
73
5
40
0
40
0
40
0
40
0
40
0.504421957012946
40
1
40
1
40
1
40
1
41
1
10
44.8644422378069
20
1.99613339991208
30
0
41
1
10
44.8766972780556
20
1.97698032901559
30
0
41
1
10
44.90099322559
20
1.8829517913922
30
0
41
1
10
44.9252875417389
20
1.6849011389084
30
0
41
1
10
44.9373271736352
20
1.56525607070026
30
0
0
SPLINE
5
E8
100
AcDbEntity
8
1
62
256
6
ByLayer
370
13
48
1
60
0
100
AcDbSpline
70
4
71
3
72
10
73
6
40
0
40
0
40
0
40
0
40
0.222919019248971
40
0.635554442391859
40
1
40
1
40
1
40
1
41
1
10
45.95247785077
20
-1.51637366183007
30
0
41
1
10
45.9593721927638
20
-1.58801608339857
30
0
41
1
10
45.9790284022228
20
-1.77304084477137
30
0
41
1
10
46.0099549022384
20
-1.96594251819621
30
0
41
1
10
46.03398625068
20
-2.00920009908435
30
0
41
1
10
46.0452569819511
20
-2.00548315136518
30
0
0
SPLINE
5
E9
100
AcDbEntity
8
1
62
256
6
ByLayer
370
13
48
1
60
0
100
AcDbSpline
70
4
71
3
72
11
73
7
40
0
40
0
40
0
40
0
40
0.0184224661765109
40
0.412206086443994
40
0.805989706711478
40
1
40
1
40
1
40
1
41
1
10
45.3285219890332
20
-1.16121126268999
30
0
41
1
10
45.3291190062184
20
-1.16894417458587
30
0
41
1
10
45.342477375771
20
-1.34109494180618
30
0
41
1
10
45.3685970822173
20
-1.63860763183533
30
0
41
1
10
45.4004070329267
20
-1.87655769818517
30
0
41
1
10
45.4194556571657
20
-1.95389704690152
30
0
41
1
10
45.4257429456937
20
-1.97213014191675
30
0
0
SPLINE
5
EA
100
AcDbEntity
8
1
62
256
6
ByLayer
370
13
48
1
60
0
100
AcDbSpline
70
4
71
3
72
10
73
6
40
0
40
0
40
0
40
0
40
0.201500746148672
40
0.616611165682682
40
1
40
1
40
1
40
1
41
1
10
39.4925551475122
20
2.00550337153294
30
0
41
1
10
39.4987496884749
20
2.00775552014395
30
0
41
1
10
39.5177055637733
20
1.99259245233006
30
0
41
1
10
39.5484476000103
20
1.85823203591158
30
0
41
1
10
39.5729951212
20
1.64688233384086
30
0
41
1
10
39.5847812902941
20
1.52541289635803
30
0
0
SPLINE
5
EB
100
AcDbEntity
8
1
62
256
6
ByLayer
370
13
48
1
60
0
100
AcDbSpline
70
4
71
3
72
10
73
6
40
0
40
0
40
0
40
0
40
0.327761340811562
40
0.723202435124824
40
1
40
1
40
1
40
1
41
1
10
40.3902418700056
20
-1.45634589140249
30
0
41
1
10
40.4008188891373
20
-1.57180881352747
30
0
41
1
10
40.4241575033671
20
-1.79268109509692
30
0
41
1
10
40.4564299102046
20
-1.97319127705938
30
0
41
1
10
40.4781237242629
20
-2.00707522439728
30
0
41
1
10
40.4870562381067
20
-2.0059978328382
30
0
0
SPLINE
5
EC
100
AcDbEntity
8
1
62
256
6
ByLayer
370
13
48
1
60
0
100
AcDbSpline
70
4
71
3
72
11
73
7
40
0
40
0
40
0
40
0
40
0.0361119058941543
40
0.432309806052721
40
0.828507706211288
40
1
40
1
40
1
40
1
41
1
10
40.1122132861566
20
1.97274299943248
30
0
41
1
10
40.1133764144308
20
1.96938792851276
30
0
41
1
10
40.1273006476167
20
1.92620195335198
30
0
41
1
10
40.1539852402634
20
1.77422466583346
30
0
41
1
10
40.1850317701959
20
1.46670402461774
30
0
41
1
10
40.203317009331
20
1.24214779751529
30
0
41
1
10
40.2088407490518
20
1.17096406123685
30
0
0
SPLINE
5
ED
100
AcDbEntity
8
1
62
256
6
ByLayer
370
13
48
1
60
0
100
AcDbSpline
70
4
71
3
72
11
73
7
40
0
40
0
40
0
40
0
40
0.133845765126871
40
0.529991886728653
40
0.926138008330435
40
1
40
1
40
1
40
1
41
1
10
39.7661920246232
20
-1.08580849859089
30
0
41
1
10
39.7705036980015
20
-1.14336430063892
30
0
41
1
10
39.7875767238919
20
-1.3637830003581
30
0
41
1
10
39.8174111117083
20
-1.68863533822363
30
0
41
1
10
39.8453132025299
20
-1.88043088628063
30
0
41
1
10
39.8604539251
20
-1.94274486933981
30
0
41
1
10
39.86283329639
20
-1.95149765803572
30
0
0
SPLINE
5
EE
100
AcDbEntity
8
1
62
256
6
ByLayer
370
13
48
1
60
0
100
AcDbSpline
70
4
71
3
72
11
73
7
40
0
40
0
40
0
40
0
40
0.124074780206399
40
0.517327661098451
40
0.910580541990504
40
1
40
1
40
1
40
1
41
1
10
45.0502457464551
20
2.00571368850206
30
0
41
1
10
45.0542720667383
20
2.00665933601505
30
0
41
1
10
45.071059741673
20
1.99790156957255
30
0
41
1
10
45.1006087837463
20
1.88863134063465
30
0
41
1
10
45.1290332245038
20
1.65563066741291
30
0
41
1
10
45.1446962937406
20
1.49112941774371
30
0
41
1
10
45.1475980199186
20
1.45949768323604
30
0
0
SPLINE
5
EF
100
AcDbEntity
8
1
62
256
6
ByLayer
370
18
48
1
60
0
100
AcDbSpline
70
4
71
3
72
22
73
18
40
0
40
0
40
0
40
0
40
0.0624999999999998
40
0.0624999999999998
40
0.125
40
0.125
40
0.249999999999999
40
0.249999999999999
40
0.499999999999999
40
0.499999999999999
40
0.562499999999999
40
0.562499999999999
40
0.624999999999999
40
0.624999999999999
40
0.749999999999999
40
0.749999999999999
40
1
40
1
40
1
40
1
41
1
10
38.8340855321838
20
-1.60140146053243
30
0
41
1
10
38.8328472521055
20
-1.58279607642007
30
0
41
1
10
38.8316152947949
20
-1.56359277947817
30
0
41
1
10
38.8291572683115
20
-1.52396462963247
30
0
41
1
10
38.8279329316668
20
-1.50355069415053
30
0
41
1
10
38.8243137876124
20
-1.441116980619
30
0
41
1
10
38.821960816577
20
-1.39770564707777
30
0
41
1
10
38.8150866654911
20
-1.26224030839944
30
0
41
1
10
38.8107614204102
20
-1.16500281692194
30
0
41
1
10
38.8054917702009
20
-1.03450609101227
30
0
41
1
10
38.8044438277897
20
-1.00788674719482
30
0
41
1
10
38.8023840690065
20
-0.954104812152394
30
0
41
1
10
38.8013731766317
20
-0.926970467218894
30
0
41
1
10
38.7984002707072
20
-0.844851274265807
30
0
41
1
10
38.7964990207883
20
-0.789151945314245
30
0
41
1
10
38.7910287077273
20
-0.619242991287592
30
0
41
1
10
38.7876362567794
20
-0.502237141567491
30
0
41
1
10
38.7845662974337
20
-0.381352664804837
30
0
0
SPLINE
5
F0
100
AcDbEntity
8
1
62
256
6
ByLayer
370
13
48
1
60
0
100
AcDbSpline
70
4
71
3
72
10
73
6
40
0
40
0
40
0
40
0
40
0.315846985350946
40
0.709268611333617
40
1
40
1
40
1
40
1
41
1
10
45.6744359657485
20
1.95426947986709
30
0
41
1
10
45.6846808466383
20
1.91761194311326
30
0
41
1
10
45.7076871899763
20
1.79203096122657
30
0
41
1
10
45.7401258815123
20
1.48905338384992
30
0
41
1
10
45.7623175574846
20
1.21439577050322
30
0
41
1
10
45.771747830382
20
1.0885611915617
30
0
0
SPLINE
5
F1
100
AcDbEntity
8
1
62
256
6
ByLayer
370
13
48
1
60
0
100
AcDbSpline
70
4
71
3
72
11
73
7
40
0
40
0
40
0
40
0
40
0.0509621545040758
40
0.447272245323869
40
0.843582336143663
40
1
40
1
40
1
40
1
41
1
10
38.9319551362075
20
-0.499971652622321
30
0
41
1
10
38.9335961390954
20
-0.52519988205367
30
0
41
1
10
38.9479984947654
20
-0.745504445444823
30
0
41
1
10
38.9751622107589
20
-1.13975233489185
30
0
41
1
10
39.0057216458614
20
-1.50056903629499
30
0
41
1
10
39.0235197090531
20
-1.66367842531139
30
0
41
1
10
39.0285564216352
20
-1.70578037058681
30
0
0
SPLINE
5
F2
100
AcDbEntity
8
1
62
256
6
ByLayer
370
13
48
1
60
0
100
AcDbSpline
70
4
71
3
72
10
73
6
40
0
40
0
40
0
40
0
40
0.247875458307255
40
0.643381076032738
40
1
40
1
40
1
40
1
41
1
10
39.5557307919142
20
-0.944580391129023
30
0
41
1
10
39.5637286323332
20
-1.05659084396683
30
0
41
1
10
39.5844880122714
20
-1.33257565107655
30
0
41
1
10
39.6167551716977
20
-1.68153988869076
30
0
41
1
10
39.6410228989579
20
-1.851186518986
30
0
41
1
10
39.6525294411743
20
-1.90775635881732
30
0
0
SPLINE
5
F3
100
AcDbEntity
8
1
62
256
6
ByLayer
370
18
48
1
60
0
100
AcDbSpline
70
4
71
3
72
26
73
22
40
0
40
0
40
0
40
0
40
0.125
40
0.125
40
0.25
40
0.25
40
0.375000000000001
40
0.375000000000001
40
0.500000000000001
40
0.500000000000001
40
0.562500000000001
40
0.562500000000001
40
0.625
40
0.625
40
0.75
40
0.75
40
0.874999999999999
40
0.874999999999999
40
0.9375
40
0.9375
40
1
40
1
40
1
40
1
41
1
10
38.9681056249655
20
-0.540581738544688
30
0
41
1
10
38.9747423087295
20
-0.610087454865152
30
0
41
1
10
38.9814062944691
20
-0.679075371480138
30
0
41
1
10
38.994798009064
20
-0.815889926781836
30
0
41
1
10
39.0014084460493
20
-0.882564219789373
30
0
41
1
10
39.0145195484728
20
-1.01257672765442
30
0
41
1
10
39.0210202822152
20
-1.07591448776344
30
0
41
1
10
39.0340337384043
20
-1.19928835063217
30
0
41
1
10
39.0405586409899
20
-1.25932713116856
30
0
41
1
10
39.0503832020301
20
-1.34684693166335
30
0
41
1
10
39.0536709151198
20
-1.37565389857147
30
0
41
1
10
39.0601941575292
20
-1.4318095092035
30
0
41
1
10
39.0634367204902
20
-1.45922274705424
30
0
41
1
10
39.0731216851413
20
-1.5395081248154
30
0
41
1
10
39.0795198593712
20
-1.59043004041436
30
0
41
1
10
39.0923139206088
20
-1.68717454590839
30
0
41
1
10
39.0987211573686
20
-1.73300154866868
30
0
41
1
10
39.1083535326003
20
-1.7978586054262
30
0
41
1
10
39.1115676085027
20
-1.81882906943241
30
0
41
1
10
39.118007022655
20
-1.8594482206243
30
0
41
1
10
39.1212184168738
20
-1.87900609382831
30
0
41
1
10
39.1244075312903
20
-1.89771376351166
30
0
0
SPLINE
5
F4
100
AcDbEntity
8
1
62
256
6
ByLayer
370
18
48
1
60
0
100
AcDbSpline
70
4
71
3
72
24
73
20
40
0
40
0
40
0
40
0
40
0.125
40
0.25
40
0.25
40
0.3125
40
0.3125
40
0.375
40
0.375
40
0.5
40
0.625
40
0.625
40
0.6875
40
0.6875
40
0.71875
40
0.71875
40
0.75
40
0.875
40
1
40
1
40
1
40
1
41
1
10
39.4468541970451
20
-2.20856021048999
30
0
41
1
10
39.4437450503344
20
-2.17995097721149
30
0
41
1
10
39.4375413398137
20
-2.11573647172631
30
0
41
1
10
39.431326353069
20
-2.0375382124206
30
0
41
1
10
39.4266176911588
20
-1.97347485719248
30
0
41
1
10
39.4250352993554
20
-1.95115453636811
30
0
41
1
10
39.4218791965889
20
-1.90514620062348
30
0
41
1
10
39.4203037742293
20
-1.88142629715162
30
0
41
1
10
39.4155861558664
20
-1.8081590685405
30
0
41
1
10
39.4093209620804
20
-1.7048604475014
30
0
41
1
10
39.4030665675149
20
-1.59048526017312
30
0
41
1
10
39.3983404338531
20
-1.50046736837805
30
0
41
1
10
39.3967584280474
20
-1.46975371917159
30
0
41
1
10
39.3943705300445
20
-1.42259879914695
30
0
41
1
10
39.3935711317297
20
-1.40667624963368
30
0
41
1
10
39.3919751281759
20
-1.37461111361816
30
0
41
1
10
39.3879911661509
20
-1.29388742015132
30
0
41
1
10
39.3808804147389
20
-1.14361725530645
30
0
41
1
10
39.3746021492142
20
-1.00314921347353
30
0
41
1
10
39.3714460374528
20
-0.931176949559074
30
0
0
SPLINE
5
F5
100
AcDbEntity
8
1
62
256
6
ByLayer
370
13
48
1
60
0
100
AcDbSpline
70
4
71
3
72
11
73
7
40
0
40
0
40
0
40
0
40
0.132373621138413
40
0.525910510085275
40
0.919447399032137
40
1
40
1
40
1
40
1
41
1
10
45.1180339458124
20
-1.02327104547751
30
0
41
1
10
45.1223266219272
20
-1.08187674616488
30
0
41
1
10
45.1393810721246
20
-1.30770822935307
30
0
41
1
10
45.1691963525569
20
-1.64538582368559
30
0
41
1
10
45.1973298903405
20
-1.85361815270611
30
0
41
1
10
45.2127031249819
20
-1.92483753696132
30
0
41
1
10
45.2153152041289
20
-1.93569649761469
30
0
0
SPLINE
5
F6
100
AcDbEntity
8
1
62
256
6
ByLayer
370
13
48
1
60
0
100
AcDbSpline
70
4
71
3
72
10
73
6
40
0
40
0
40
0
40
0
40
0.330822386180033
40
0.724552560154415
40
1
40
1
40
1
40
1
41
1
10
44.4941809299691
20
-0.585980101032362
30
0
41
1
10
44.5049033495404
20
-0.748853773034938
30
0
41
1
10
44.5283871077042
20
-1.09173862726507
30
0
41
1
10
44.560798473666
20
-1.48896464165782
30
0
41
1
10
44.5824874426241
20
-1.68733029164244
30
0
41
1
10
44.5914150769632
20
-1.75586298080998
30
0
0
SPLINE
5
F7
100
AcDbEntity
8
1
62
256
6
ByLayer
370
18
48
1
60
0
100
AcDbSpline
70
4
71
3
72
26
73
22
40
0
40
0
40
0
40
0
40
0.125
40
0.125
40
0.249999999999999
40
0.249999999999999
40
0.312499999999999
40
0.312499999999999
40
0.374999999999999
40
0.374999999999999
40
0.499999999999998
40
0.499999999999998
40
0.624999999999998
40
0.624999999999998
40
0.687499999999998
40
0.687499999999998
40
0.749999999999998
40
0.749999999999998
40
0.874999999999999
40
0.874999999999999
40
1
40
1
40
1
40
1
41
1
10
44.7664294755873
20
-0.949116770259906
30
0
41
1
10
44.7707669522959
20
-1.02708060346581
30
0
41
1
10
44.7750808049304
20
-1.10311118223342
30
0
41
1
10
44.7837332884178
20
-1.2513155593351
30
0
41
1
10
44.7880814425593
20
-1.32348920028261
30
0
41
1
10
44.7946686635915
20
-1.42877129625404
30
0
41
1
10
44.7968780281755
20
-1.46343216571412
30
0
41
1
10
44.8012678895491
20
-1.53097638303839
30
0
41
1
10
44.8034537510628
20
-1.56394798032281
30
0
41
1
10
44.8099921501666
20
-1.66050381941878
30
0
41
1
10
44.8143241901505
20
-1.72173529302984
30
0
41
1
10
44.8230091634627
20
-1.83799068514958
30
0
41
1
10
44.8273729679672
20
-1.89301439418935
30
0
41
1
10
44.8339617070241
20
-1.97079871275048
30
0
41
1
10
44.8361639382898
20
-1.995934023622
30
0
41
1
10
44.8405817554346
20
-2.04457935792402
30
0
41
1
10
44.8427778392596
20
-2.06787453478026
30
0
41
1
10
44.8493366287432
20
-2.1347455911052
30
0
41
1
10
44.8536681742944
20
-2.17531492827339
30
0
41
1
10
44.8623392712978
20
-2.24858878662099
30
0
41
1
10
44.8666913557526
20
-2.28129291308412
30
0
41
1
10
44.8710654722247
20
-2.31001759257475
30
0
0
SPLINE
5
F8
100
AcDbEntity
8
1
62
256
6
ByLayer
370
13
48
1
60
0
100
AcDbSpline
70
4
71
3
72
10
73
6
40
0
40
0
40
0
40
0
40
0.319106915238003
40
0.714765469674724
40
1
40
1
40
1
40
1
41
1
10
40.3225108197344
20
1.9370573353898
30
0
41
1
10
40.3328031048729
20
1.8944889123525
30
0
41
1
10
40.3558567210634
20
1.7558949838606
30
0
41
1
10
40.3881101356693
20
1.43871738648315
30
0
41
1
10
40.4100712852864
20
1.15968749018145
30
0
41
1
10
40.4192710842359
20
1.03458805297075
30
0
0
SPLINE
5
F9
100
AcDbEntity
8
1
62
256
6
ByLayer
370
13
48
1
60
0
100
AcDbSpline
70
4
71
3
72
11
73
7
40
0
40
0
40
0
40
0
40
0.11993582941979
40
0.514943710253685
40
0.90995159108758
40
1
40
1
40
1
40
1
41
1
10
40.9463275754602
20
1.75896306175258
30
0
41
1
10
40.9502022663562
20
1.72936938894227
30
0
41
1
10
40.9668381040046
20
1.59165078584206
30
0
41
1
10
40.9962341461745
20
1.27105497355694
30
0
41
1
10
41.0246661383854
20
0.875510992258796
30
0
41
1
10
41.0403367975229
20
0.640597135759691
30
0
41
1
10
41.0432459813959
20
0.596510903229927
30
0
0
SPLINE
5
FA
100
AcDbEntity
8
1
62
256
6
ByLayer
370
13
48
1
60
0
100
AcDbSpline
70
4
71
3
72
11
73
7
40
0
40
0
40
0
40
0
40
0.203599285097952
40
0.596672007026298
40
0.989744728954644
40
1
40
1
40
1
40
1
41
1
10
45.8847436729966
20
1.91175090931298
30
0
41
1
10
45.8913536507197
20
1.87998171235304
30
0
41
1
10
45.9107249828902
20
1.76398062646442
30
0
41
1
10
45.9428576847286
20
1.4658837964721
30
0
41
1
10
45.9687133401282
20
1.13565479507801
30
0
41
1
10
45.9818076286877
20
0.952752086690964
30
0
41
1
10
45.9821405722916
20
0.94809151955269
30
0
0
SPLINE
5
FB
100
AcDbEntity
8
1
62
256
6
ByLayer
370
13
48
1
60
0
100
AcDbSpline
70
4
71
3
72
11
73
7
40
0
40
0
40
0
40
0
40
0.0055666872382815
40
0.398287879052804
40
0.791009070867326
40
1
40
1
40
1
40
1
41
1
10
46.5085935624577
20
1.71354908689531
30
0
41
1
10
46.5087744454151
20
1.712056189007
30
0
41
1
10
46.5217163445956
20
1.60486259980928
30
0
41
1
10
46.5474196743953
20
1.33821830273217
30
0
41
1
10
46.5797353086166
20
0.900587118732204
30
0
41
1
10
46.5992878226121
20
0.606157262028916
30
0
41
1
10
46.6060788696145
20
0.501703618582326
30
0
0
SPLINE
5
FC
100
AcDbEntity
8
1
62
256
6
ByLayer
370
18
48
1
60
0
100
AcDbSpline
70
4
71
3
72
31
73
27
40
0
40
0
40
0
40
0
40
0.0312499999999996
40
0.0312499999999996
40
0.0624999999999993
40
0.0624999999999993
40
0.125
40
0.125
40
0.250000000000002
40
0.375000000000003
40
0.375000000000003
40
0.437500000000004
40
0.437500000000004
40
0.468750000000004
40
0.468750000000004
40
0.500000000000004
40
0.625000000000003
40
0.750000000000003
40
0.750000000000003
40
0.812500000000002
40
0.812500000000002
40
0.843750000000002
40
0.843750000000002
40
0.875000000000002
40
0.875000000000002
40
1
40
1
40
1
40
1
41
1
10
46.1571569782279
20
2.25316549346701
30
0
41
1
10
46.1582527286846
20
2.24470989826139
30
0
41
1
10
46.1593506903691
20
2.23598587914214
30
0
41
1
10
46.1615527734129
20
2.21799477038564
30
0
41
1
10
46.1626566656005
20
2.20872866214032
30
0
41
1
10
46.1659608817721
20
2.18027984436469
30
0
41
1
10
46.1681598675652
20
2.16039488741001
30
0
41
1
10
46.1747383300546
20
2.09803593288848
30
0
41
1
10
46.1834562601217
20
2.00769378440438
30
0
41
1
10
46.1920942384338
20
1.90316738455652
30
0
41
1
10
46.1986038138464
20
1.81936260801624
30
0
41
1
10
46.2007795939395
20
1.79052427597014
30
0
41
1
10
46.2040639901681
20
1.74588352484378
30
0
41
1
10
46.2051623037785
20
1.73076770871327
30
0
41
1
10
46.2073522679279
20
1.70025214630286
30
0
41
1
10
46.2128189972156
20
1.62314360820295
30
0
41
1
10
46.2225778437465
20
1.47708406205749
30
0
41
1
10
46.2311974648296
20
1.3371608132945
30
0
41
1
10
46.2376986109333
20
1.22840250646325
30
0
41
1
10
46.2398726323229
20
1.19151255765558
30
0
41
1
10
46.2431519032732
20
1.13520633830439
30
0
41
1
10
46.2442477365374
20
1.11627561843267
30
0
41
1
10
46.2464447597145
20
1.07808651020514
30
0
41
1
10
46.2475466964853
20
1.05881462517559
30
0
41
1
10
46.2530379215843
20
0.962192546480395
30
0
41
1
10
46.2573942399616
20
0.883638776741151
30
0
41
1
10
46.2617312766974
20
0.803868925770757
30
0
0
SPLINE
5
FD
100
AcDbEntity
8
1
62
256
6
ByLayer
370
18
48
1
60
0
100
AcDbSpline
70
4
71
3
72
24
73
20
40
0
40
0
40
0
40
0
40
0.125
40
0.25
40
0.25
40
0.3125
40
0.3125
40
0.374999999999999
40
0.374999999999999
40
0.5
40
0.5
40
0.625
40
0.750000000000001
40
0.750000000000001
40
0.8125
40
0.8125
40
0.875
40
0.875
40
1
40
1
40
1
40
1
41
1
10
46.3397824632679
20
0.734024720666071
30
0
41
1
10
46.3354134850652
20
0.815163759613995
30
0
41
1
10
46.3267441788708
20
0.9738089199586
30
0
41
1
10
46.3180094378039
20
1.12532802104334
30
0
41
1
10
46.3114382955667
20
1.23626517946022
30
0
41
1
10
46.3092441686699
20
1.27279296546968
30
0
41
1
10
46.304844111802
20
1.34492962561899
30
0
41
1
10
46.3026323498898
20
1.38062900666378
30
0
41
1
10
46.2960370725923
20
1.48521913919618
30
0
41
1
10
46.291679923098
20
1.55185845978556
30
0
41
1
10
46.282949702716
20
1.67913656237616
30
0
41
1
10
46.274214345951
20
1.80041322542891
30
0
41
1
10
46.2654749196969
20
1.90965500747547
30
0
41
1
10
46.258876895483
20
1.98690975919553
30
0
41
1
10
46.256683727942
20
2.01171476581979
30
0
41
1
10
46.2523136538755
20
2.05928322106689
30
0
41
1
10
46.2501334351864
20
2.08207764062544
30
0
41
1
10
46.2435912316634
20
2.14753458779612
30
0
41
1
10
46.2392357549641
20
2.18727870278454
30
0
41
1
10
46.2348870623236
20
2.22314976707693
30
0
0
SPLINE
5
FE
100
AcDbEntity
8
1
62
256
6
ByLayer
370
18
48
1
60
0
100
AcDbSpline
70
4
71
3
72
27
73
23
40
0
40
0
40
0
40
0
40
0.124999999999999
40
0.124999999999999
40
0.249999999999998
40
0.249999999999998
40
0.312499999999997
40
0.312499999999997
40
0.343749999999996
40
0.343749999999996
40
0.374999999999996
40
0.499999999999997
40
0.624999999999997
40
0.624999999999997
40
0.687499999999998
40
0.718749999999997
40
0.718749999999997
40
0.749999999999997
40
0.749999999999997
40
0.874999999999998
40
0.874999999999998
40
1
40
1
40
1
40
1
41
1
10
47.688469708147
20
1.20623283950195
30
0
41
1
10
47.6935898945031
20
1.14352512480855
30
0
41
1
10
47.6986263693862
20
1.07898178685463
30
0
41
1
10
47.7085689610476
20
0.946281202905112
30
0
41
1
10
47.7134752562172
20
0.878122927895134
30
0
41
1
10
47.7207654411372
20
0.77312241654036
30
0
41
1
10
47.7231841969396
20
0.737661791879304
30
0
41
1
10
47.7268026322276
20
0.683769747351448
30
0
41
1
10
47.728008947198
20
0.665661776101842
30
0
41
1
10
47.7304089601964
20
0.629371676012454
30
0
41
1
10
47.7363781791579
20
0.538461366148908
30
0
41
1
10
47.746865975468
20
0.37318877431747
30
0
41
1
10
47.7558936284804
20
0.224025783976373
30
0
41
1
10
47.7625923927836
20
0.111302695113068
30
0
41
1
10
47.7659239959329
20
0.0547279602353399
30
0
41
1
10
47.7692387168222
20
-0.0021720510308967
30
0
41
1
10
47.7714453443099
20
-0.0401786131799327
30
0
41
1
10
47.772548392866
20
-0.0592442793838472
30
0
41
1
10
47.7780301872055
20
-0.154339080178545
30
0
41
1
10
47.7823129035732
20
-0.229757406394896
30
0
41
1
10
47.7906840686441
20
-0.379303094639681
30
0
41
1
10
47.7947720552133
20
-0.453430340019366
30
0
41
1
10
47.7987832394287
20
-0.526900600767419
30
0
0
SPLINE
5
FF
100
AcDbEntity
8
1
62
256
6
ByLayer
370
13
48
1
60
0
100
AcDbSpline
70
4
71
3
72
12
73
8
40
0
40
0
40
0
40
0
40
0.200095877077197
40
0.548127925987247
40
0.722143950442272
40
0.896159974897297
40
1
40
1
40
1
40
1
41
1
10
47.6509867484977
20
-0.301380861157611
30
0
41
1
10
47.6444692051194
20
-0.19902754721079
30
0
41
1
10
47.6266155186703
20
0.0845965235791084
30
0
41
1
10
47.6030937808076
20
0.457462594881747
30
0
41
1
10
47.5804215825632
20
0.797947237048106
30
0
41
1
10
47.5657031697195
20
1.00600365204141
30
0
41
1
10
47.5566528274393
20
1.1261043106619
30
0
41
1
10
47.5532705447077
20
1.16974477963345
30
0
0
SPLINE
5
100
100
AcDbEntity
8
1
62
256
6
ByLayer
370
13
48
1
60
0
100
AcDbSpline
70
4
71
3
72
10
73
6
40
0
40
0
40
0
40
0
40
0.281419973642966
40
0.676541204921399
40
1
40
1
40
1
40
1
41
1
10
42.6151821555553
20
0.829166777639642
30
0
41
1
10
42.6242713764163
20
0.697713372317963
30
0
41
1
10
42.6461217465348
20
0.36610885214921
30
0
41
1
10
42.6784175615305
20
-0.152167641587511
30
0
41
1
10
42.7016257718007
20
-0.514606999182519
30
0
41
1
10
42.7120726868404
20
-0.670866025366934
30
0
0
SPLINE
5
101
100
AcDbEntity
8
1
62
256
6
ByLayer
370
13
48
1
60
0
100
AcDbSpline
70
4
71
3
72
10
73
6
40
0
40
0
40
0
40
0
40
0.251184309798014
40
0.645037176825628
40
1
40
1
40
1
40
1
41
1
10
43.6596831829283
20
0.0515440530906801
30
0
41
1
10
43.6678218821749
20
-0.0776950998645134
30
0
41
1
10
43.6887219208437
20
-0.410425744862238
30
0
41
1
10
43.7211231899916
20
-0.904568492869714
30
0
41
1
10
43.7453857795618
20
-1.22373907396258
30
0
41
1
10
43.7568870365994
20
-1.35810584004696
30
0
0
SPLINE
5
102
100
AcDbEntity
8
1
62
256
6
ByLayer
370
13
48
1
60
0
100
AcDbSpline
70
4
71
3
72
11
73
7
40
0
40
0
40
0
40
0
40
0.0880600620518153
40
0.482312282587806
40
0.876564503123796
40
1
40
1
40
1
40
1
41
1
10
41.9910503619473
20
1.24112341390679
30
0
41
1
10
41.9939007313493
20
1.20555845644088
30
0
41
1
10
42.0095124399488
20
1.00558020114553
30
0
41
1
10
42.0378854730267
20
0.594710445485418
30
0
41
1
10
42.0674035686989
20
0.125706468868913
30
0
41
1
10
42.0841603385828
20
-0.140187941733501
30
0
41
1
10
42.0881557598571
20
-0.203284788538866
30
0
0
SPLINE
5
103
100
AcDbEntity
8
1
62
256
6
ByLayer
370
13
48
1
60
0
100
AcDbSpline
70
4
71
3
72
11
73
7
40
0
40
0
40
0
40
0
40
0.199962638748247
40
0.594855715978605
40
0.989748793208962
40
1
40
1
40
1
40
1
41
1
10
41.7808146783777
20
1.36328405891101
30
0
41
1
10
41.7872766841814
20
1.28797643623437
30
0
41
1
10
41.8064998506965
20
1.04803387175804
30
0
41
1
10
41.8384830521901
20
0.583237481782959
30
0
41
1
10
41.8643371598088
20
0.172217594909739
30
0
41
1
10
41.8774299022035
20
-0.0355425512004786
30
0
41
1
10
41.8777611827527
20
-0.0407990190613532
30
0
0
SPLINE
5
104
100
AcDbEntity
8
1
62
256
6
ByLayer
370
13
48
1
60
0
100
AcDbSpline
70
4
71
3
72
11
73
7
40
0
40
0
40
0
40
0
40
0.16798746168916
40
0.562903734396132
40
0.957820007103104
40
1
40
1
40
1
40
1
41
1
10
42.825565309478
20
0.678076562930357
30
0
41
1
10
42.8309936644449
20
0.596924870798404
30
0
41
1
10
42.8491833590381
20
0.318726814498376
30
0
41
1
10
42.8801343748954
20
-0.177424141695752
30
0
41
1
10
42.9070200585602
20
-0.596854593852754
30
0
41
1
10
42.9211444127861
20
-0.802810848056509
30
0
41
1
10
42.9225074196187
20
-0.822541981326339
30
0
0
SPLINE
5
105
100
AcDbEntity
8
1
62
256
6
ByLayer
370
18
48
1
60
0
100
AcDbSpline
70
4
71
3
72
27
73
23
40
0
40
0
40
0
40
0
40
0.125000000000001
40
0.125000000000001
40
0.250000000000001
40
0.250000000000001
40
0.312500000000001
40
0.312500000000001
40
0.343750000000001
40
0.343750000000001
40
0.375000000000001
40
0.500000000000001
40
0.500000000000001
40
0.625
40
0.625
40
0.6875
40
0.71875
40
0.71875
40
0.75
40
0.75
40
0.875
40
1
40
1
40
1
40
1
41
1
10
43.0977230513673
20
0.594670860643021
30
0
41
1
10
43.1020600007257
20
0.512612567069937
30
0
41
1
10
43.1063949343104
20
0.429903829023118
30
0
41
1
10
43.1150712594303
20
0.263203593095113
30
0
41
1
10
43.1194095808227
20
0.179211950542395
30
0
41
1
10
43.1259457026916
20
0.0522459299114075
30
0
41
1
10
43.1281295580031
20
0.0097605288431168
30
0
41
1
10
43.1314202075053
20
-0.0542175891660861
30
0
41
1
10
43.1325186333063
20
-0.0755665465862592
30
0
41
1
10
43.1347092142923
20
-0.118100870604764
30
0
41
1
10
43.1401759145189
20
-0.224174236783398
30
0
41
1
10
43.1456318989416
20
-0.328953132555966
30
0
41
1
10
43.1543372436144
20
-0.494979582811624
30
0
41
1
10
43.1586760305376
20
-0.577182944124729
30
0
41
1
10
43.1651928716012
20
-0.699259841372424
30
0
41
1
10
43.1684541760316
20
-0.759990618344744
30
0
41
1
10
43.1717321448041
20
-0.820251381153156
30
0
41
1
10
43.1739230347309
20
-0.860319386001777
30
0
41
1
10
43.1750211249603
20
-0.88029779762428
30
0
41
1
10
43.1804980129706
20
-0.979337929183487
30
0
41
1
10
43.1892363884474
20
-1.13331234298383
30
0
41
1
10
43.1979016066694
20
-1.27858015484995
30
0
41
1
10
43.2022359487653
20
-1.34903389507139
30
0
0
SPLINE
5
106
100
AcDbEntity
8
1
62
256
6
ByLayer
370
13
48
1
60
0
100
AcDbSpline
70
4
71
3
72
10
73
6
40
0
40
0
40
0
40
0
40
0.284618649433069
40
0.677716996702721
40
1
40
1
40
1
40
1
41
1
10
46.7191033494456
20
1.62241473980879
30
0
41
1
10
46.728343067565
20
1.53613841266355
30
0
41
1
10
46.7503441403052
20
1.29977524663485
30
0
41
1
10
46.782807669709
20
0.861242954878577
30
0
41
1
10
46.8060314668271
20
0.505620956724528
30
0
41
1
10
46.8164939016852
20
0.341883110896305
30
0
0
SPLINE
5
107
100
AcDbEntity
8
1
62
256
6
ByLayer
370
18
48
1
60
0
100
AcDbSpline
70
4
71
3
72
28
73
24
40
0
40
0
40
0
40
0
40
0.0624999999999998
40
0.0624999999999998
40
0.125
40
0.125
40
0.249999999999999
40
0.249999999999999
40
0.374999999999999
40
0.374999999999999
40
0.437499999999999
40
0.437499999999999
40
0.499999999999998
40
0.499999999999998
40
0.624999999999999
40
0.624999999999999
40
0.749999999999999
40
0.749999999999999
40
0.8125
40
0.8125
40
0.875
40
0.875
40
1
40
1
40
1
40
1
41
1
10
41.6111513012661
20
0.0780903344773094
30
0
41
1
10
41.6089612780675
20
0.120519558079707
30
0
41
1
10
41.6067605655077
20
0.163117446557806
30
0
41
1
10
41.6023919036943
20
0.247584915557894
30
0
41
1
10
41.6002176580138
20
0.289576482050165
30
0
41
1
10
41.5937181922799
20
0.41483678851796
30
0
41
1
10
41.5894177631656
20
0.497393055043176
30
0
41
1
10
41.580807910451
20
0.660620594621889
30
0
41
1
10
41.5764880538993
20
0.741291404350761
30
0
41
1
10
41.5699597225191
20
0.860851764670599
30
0
41
1
10
41.567775327912
20
0.900498362293234
30
0
41
1
10
41.5634001593799
20
0.97915352902163
30
0
41
1
10
41.5612247135889
20
1.01788700073371
30
0
41
1
10
41.5547264338771
20
1.13234326107238
30
0
41
1
10
41.5504332445435
20
1.20632648991037
30
0
41
1
10
41.541841393881
20
1.34973640581183
30
0
41
1
10
41.5375311411174
20
1.41916252209796
30
0
41
1
10
41.5310228659276
20
1.51984045963684
30
0
41
1
10
41.5288477287119
20
1.55282183817175
30
0
41
1
10
41.5244840806864
20
1.61760744480381
30
0
41
1
10
41.5222907225773
20
1.64947744578447
30
0
41
1
10
41.5157547181251
20
1.74226274305437
30
0
41
1
10
41.5114381449868
20
1.80066070452369
30
0
41
1
10
41.5071215376511
20
1.85569487211558
30
0
0
SPLINE
5
108
100
AcDbEntity
8
1
62
256
6
ByLayer
370
13
48
1
60
0
100
AcDbSpline
70
4
71
3
72
11
73
7
40
0
40
0
40
0
40
0
40
0.0060128380910672
40
0.401505381545085
40
0.796997924999103
40
1
40
1
40
1
40
1
41
1
10
41.1567705196979
20
1.67435592137292
30
0
41
1
10
41.1569645356466
20
1.67265849052734
30
0
41
1
10
41.1699198898121
20
1.55891469516337
30
0
41
1
10
41.1956365711639
20
1.28044950272019
30
0
41
1
10
41.2277095080117
20
0.835640295277642
30
0
41
1
10
41.2470211232059
20
0.541770498024306
30
0
41
1
10
41.2535713888167
20
0.440323608422545
30
0
0
SPLINE
5
109
100
AcDbEntity
8
1
62
256
6
ByLayer
370
18
48
1
60
0
100
AcDbSpline
70
4
71
3
72
29
73
25
40
0
40
0
40
0
40
0
40
0.124999999999998
40
0.124999999999998
40
0.249999999999997
40
0.249999999999997
40
0.281249999999997
40
0.281249999999997
40
0.312499999999997
40
0.312499999999997
40
0.374999999999997
40
0.374999999999997
40
0.499999999999997
40
0.499999999999997
40
0.624999999999996
40
0.624999999999996
40
0.687499999999996
40
0.687499999999996
40
0.718749999999996
40
0.718749999999996
40
0.749999999999996
40
0.874999999999998
40
0.874999999999998
40
1
40
1
40
1
40
1
41
1
10
44.1144614540703
20
-1.97289539251793
30
0
41
1
10
44.110134717517
20
-1.92263603765238
30
0
41
1
10
44.1058218932683
20
-1.86907530697508
30
0
41
1
10
44.0971544464507
20
-1.7553960800214
30
0
41
1
10
44.0928116816879
20
-1.69527754159049
30
0
41
1
10
44.0873628394297
20
-1.61592525154859
30
0
41
1
10
44.0862719033232
20
-1.59984405310556
30
0
41
1
10
44.084086856002
20
-1.56725532800897
30
0
41
1
10
44.0829925830836
20
-1.55074464724936
30
0
41
1
10
44.0797227288072
20
-1.50086420390039
30
0
41
1
10
44.0775537449118
20
-1.46705081408652
30
0
41
1
10
44.0710625945132
20
-1.36396472915581
30
0
41
1
10
44.0667494256573
20
-1.29305068248723
30
0
41
1
10
44.0580874665439
20
-1.14691084994453
30
0
41
1
10
44.0537502568316
20
-1.07168458704857
30
0
41
1
10
44.0472222614695
20
-0.955556386525274
30
0
41
1
10
44.0450421436712
20
-0.916297794679394
30
0
41
1
10
44.0417601243589
20
-0.856569227758001
30
0
41
1
10
44.0406633490466
20
-0.836505178274706
30
0
41
1
10
44.0384772041815
20
-0.796327978803845
30
0
41
1
10
44.0330247656555
20
-0.695625871855896
30
0
41
1
10
44.0275973449195
20
-0.593650045380599
30
0
41
1
10
44.0188976993521
20
-0.428899048992349
30
0
41
1
10
44.0145498710947
20
-0.345728152201502
30
0
41
1
10
44.0101941755264
20
-0.26175576433829
30
0
0
SPLINE
5
10A
100
AcDbEntity
8
1
62
256
6
ByLayer
370
13
48
1
60
0
100
AcDbSpline
70
4
71
3
72
11
73
7
40
0
40
0
40
0
40
0
40
0.0490351977129637
40
0.443325333902846
40
0.837615470092727
40
1
40
1
40
1
40
1
41
1
10
44.2839017557526
20
-0.429975530035421
30
0
41
1
10
44.285488847489
20
-0.454581666315164
30
0
41
1
10
44.2998376528485
20
-0.676135365624674
30
0
41
1
10
44.3269474589755
20
-1.0765082937362
30
0
41
1
10
44.3577243986145
20
-1.45208089168005
30
0
41
1
10
44.375741217139
20
-1.62503025134262
30
0
41
1
10
44.3809968395807
20
-1.67115406359855
30
0
0
SPLINE
5
10B
100
AcDbEntity
8
1
62
256
6
ByLayer
370
18
48
1
60
0
100
AcDbSpline
70
4
71
3
72
24
73
20
40
0
40
0
40
0
40
0
40
0.125
40
0.125
40
0.25
40
0.25
40
0.375
40
0.375
40
0.5
40
0.5
40
0.625
40
0.625
40
0.6875
40
0.6875
40
0.75
40
0.75
40
0.875
40
0.875
40
1
40
1
40
1
40
1
41
1
10
42.445486980258
20
-0.700238791896822
30
0
41
1
10
42.441145924018
20
-0.619469360971891
30
0
41
1
10
42.4368250169927
20
-0.537618869950904
30
0
41
1
10
42.4281701673205
20
-0.371748742798445
30
0
41
1
10
42.4238337276917
20
-0.287711480928579
30
0
41
1
10
42.415050416619
20
-0.117464493588699
30
0
41
1
10
42.4106887306339
20
-0.032725213789746
30
0
41
1
10
42.4020203558212
20
0.136012170058905
30
0
41
1
10
42.3977136264168
20
0.220010186394376
30
0
41
1
10
42.3890939849604
20
0.387264719805756
30
0
41
1
10
42.384777920931
20
0.470521120142081
30
0
41
1
10
42.3782214557534
20
0.594829985528918
30
0
41
1
10
42.3760192419133
20
0.636268385670178
30
0
41
1
10
42.3716400924369
20
0.718059602701516
30
0
41
1
10
42.369458782484
20
0.758496780676211
30
0
41
1
10
42.3629353543067
20
0.878457916177297
30
0
41
1
10
42.3586153066149
20
0.956635056118586
30
0
41
1
10
42.3499720986449
20
1.10943745722932
30
0
41
1
10
42.3456442720037
20
1.18406255560686
30
0
41
1
10
42.3412702414462
20
1.25687526946777
30
0
0
SPLINE
5
10C
100
AcDbEntity
8
1
62
256
6
ByLayer
370
18
48
1
60
0
100
AcDbSpline
70
4
71
3
72
33
73
29
40
0
40
0
40
0
40
0
40
0.124999999999999
40
0.124999999999999
40
0.15625
40
0.15625
40
0.187500000000001
40
0.250000000000001
40
0.250000000000001
40
0.375
40
0.375
40
0.5
40
0.5
40
0.53125
40
0.53125
40
0.5625
40
0.5625
40
0.625000000000001
40
0.625000000000001
40
0.750000000000001
40
0.750000000000001
40
0.875000000000001
40
0.875000000000001
40
0.9375
40
0.9375
40
0.96875
40
0.96875
40
1
40
1
40
1
40
1
41
1
10
42.2631163223786
20
1.31994718903329
30
0
41
1
10
42.2674552236435
20
1.24888106433175
30
0
41
1
10
42.2718133790834
20
1.17529004682379
30
0
41
1
10
42.2772976751146
20
1.08003943647472
30
0
41
1
10
42.2783971586176
20
1.0608136315924
30
0
41
1
10
42.2805880534189
20
1.02225756594029
30
0
41
1
10
42.2838669343313
20
0.964187228831264
30
0
41
1
10
42.2871276555623
20
0.905416667602452
30
0
41
1
10
42.2936395239462
20
0.786957284723258
30
0
41
1
10
42.29797450738
20
0.706762711972431
30
0
41
1
10
42.306680916302
20
0.543951151871653
30
0
41
1
10
42.3110411230444
20
0.461333719655812
30
0
41
1
10
42.316509177605
20
0.356510491433767
30
0
41
1
10
42.3176038354527
20
0.33546808336439
30
0
41
1
10
42.3197961175819
20
0.293226033459433
30
0
41
1
10
42.3208949170443
20
0.272003553171061
30
0
41
1
10
42.3241791333843
20
0.208452946726226
30
0
41
1
10
42.3263573043879
20
0.166145057316584
30
0
41
1
10
42.3328757222087
20
0.0393962683306484
30
0
41
1
10
42.3372087267282
20
-0.0448697496540262
30
0
41
1
10
42.3458992532206
20
-0.21294037433384
30
0
41
1
10
42.3502457836721
20
-0.296745549788426
30
0
41
1
10
42.3567804708192
20
-0.422101991559941
30
0
41
1
10
42.3589616212448
20
-0.463828781447887
30
0
41
1
10
42.3622435640513
20
-0.526328857382396
30
0
41
1
10
42.363340770604
20
-0.547175356177803
30
0
41
1
10
42.3655287203573
20
-0.58862438440201
30
0
41
1
10
42.36662024983
20
-0.609242024894627
30
0
41
1
10
42.3677101110508
20
-0.629753958163974
30
0
0
SPLINE
5
10D
100
AcDbEntity
8
1
62
256
6
ByLayer
370
13
48
1
60
0
100
AcDbSpline
70
4
71
3
72
12
73
8
40
0
40
0
40
0
40
0
40
0.0882665846506893
40
0.436589499986763
40
0.6107509576548
40
0.784912415322836
40
1
40
1
40
1
40
1
41
1
10
47.4406510398971
20
-0.140139613020097
30
0
41
1
10
47.4377784385883
20
-0.0946231953295182
30
0
41
1
10
47.4235697366065
20
0.130990787861009
30
0
41
1
10
47.4036923196412
20
0.446104353254555
30
0
41
1
10
47.38102022743
20
0.787211159740281
30
0
41
1
10
47.3626839091018
20
1.04716209574417
30
0
41
1
10
47.3500159273467
20
1.21157138593645
30
0
41
1
10
47.3430159762916
20
1.29645146819667
30
0
0
SPLINE
5
10E
100
AcDbEntity
8
1
62
256
6
ByLayer
370
13
48
1
60
0
100
AcDbSpline
70
4
71
3
72
10
73
6
40
0
40
0
40
0
40
0
40
0.363367232828803
40
0.757201775945501
40
1
40
1
40
1
40
1
41
1
10
43.4493758671813
20
0.212990810182816
30
0
41
1
10
43.4611502525296
20
0.0271127635342623
30
0
41
1
10
43.485685747012
20
-0.366283956630753
30
0
41
1
10
43.5180870856236
20
-0.859814304369394
30
0
41
1
10
43.538715692934
20
-1.13660797367874
30
0
41
1
10
43.5465830618163
20
-1.23500425591928
30
0
0
SPLINE
5
10F
100
AcDbEntity
8
1
62
256
6
ByLayer
370
18
48
1
60
0
100
AcDbSpline
70
4
71
3
72
8
73
4
40
0
40
0
40
0
40
0
40
1
40
1
40
1
40
1
41
1
10
47.8730020869512
20
2.14013520158323
30
0
41
1
10
47.77181300983
20
2.15716065183605
30
0
41
1
10
47.6719256768012
20
2.16874972647969
30
0
41
1
10
47.5729242806778
20
2.17462771776047
30
0
0
SPLINE
5
110
100
AcDbEntity
8
1
62
256
6
ByLayer
370
18
48
1
60
0
100
AcDbSpline
70
4
71
3
72
10
73
6
40
0
40
0
40
0
40
0
40
0.5
40
0.5
40
1
40
1
40
1
40
1
41
1
10
47.5729242806778
20
2.1746277177605
30
0
41
1
10
47.5399003892342
20
2.10982453339662
30
0
41
1
10
47.5066920126209
20
2.0443822296418
30
0
41
1
10
47.4399897765144
20
1.91258584464069
30
0
41
1
10
47.4064968661572
20
1.84622329124414
30
0
41
1
10
47.3728499861534
20
1.77950395986551
30
0
0
SPLINE
5
111
100
AcDbEntity
8
1
62
256
6
ByLayer
370
18
48
1
60
0
100
AcDbSpline
70
4
71
3
72
28
73
24
40
0
40
0
40
0
40
0
40
0.124999999999978
40
0.124999999999978
40
0.249999999999956
40
0.249999999999956
40
0.374999999999934
40
0.374999999999934
40
0.437499999999975
40
0.437499999999975
40
0.500000000000015
40
0.500000000000015
40
0.625000000000096
40
0.625000000000096
40
0.68750000000008
40
0.68750000000008
40
0.750000000000064
40
0.750000000000064
40
0.875000000000032
40
0.875000000000032
40
0.937500000000016
40
0.937500000000016
40
1
40
1
40
1
40
1
41
1
10
47.3728499861534
20
1.77950395986557
30
0
41
1
10
47.3672381226248
20
1.76837604005917
30
0
41
1
10
47.3607169696007
20
1.75813370508547
30
0
41
1
10
47.34623469252
20
1.73904496944638
30
0
41
1
10
47.338192841129
20
1.73014823934227
30
0
41
1
10
47.3212715700654
20
1.71418594334102
30
0
41
1
10
47.3123607769956
20
1.70705967596817
30
0
41
1
10
47.2983410924546
20
1.69763134143341
30
0
41
1
10
47.2935488509277
20
1.69469859565743
30
0
41
1
10
47.2839159956182
20
1.68937028464532
30
0
41
1
10
47.279055194849
20
1.68695989006312
30
0
41
1
10
47.2643444426635
20
1.68050100164376
30
0
41
1
10
47.2543684426315
20
1.67720928104046
30
0
41
1
10
47.2391355354584
20
1.67406411310642
30
0
41
1
10
47.2340122710113
20
1.67332353571393
30
0
41
1
10
47.2239270102824
20
1.67255062715361
30
0
41
1
10
47.2189343620819
20
1.67251031473563
30
0
41
1
10
47.2041317910158
20
1.67354278887561
30
0
41
1
10
47.1944093078773
20
1.67581246720627
30
0
41
1
10
47.1812412559792
20
1.68200670981918
30
0
41
1
10
47.177034302625
20
1.68455509687857
30
0
41
1
10
47.1692062130107
20
1.69069576972251
30
0
41
1
10
47.165637549209
20
1.69423989474041
30
0
41
1
10
47.1624530107943
20
1.69831411520727
30
0
0
SPLINE
5
112
100
AcDbEntity
8
1
62
256
6
ByLayer
370
18
48
1
60
0
100
AcDbSpline
70
4
71
3
72
8
73
4
40
0
40
0
40
0
40
0
40
1
40
1
40
1
40
1
41
1
10
47.1624530107927
20
1.69831411520943
30
0
41
1
10
47.1285526899095
20
1.74168535562359
30
0
41
1
10
47.0947731805743
20
1.78351017425857
30
0
41
1
10
47.0610873701832
20
1.82377614922322
30
0
0
SPLINE
5
113
100
AcDbEntity
8
1
62
256
6
ByLayer
370
18
48
1
60
0
100
AcDbSpline
70
4
71
3
72
8
73
4
40
0
40
0
40
0
40
0
40
1
40
1
40
1
40
1
41
1
10
47.0610873701831
20
1.82377614922322
30
0
41
1
10
47.0056375360359
20
1.89005742232607
30
0
41
1
10
46.9505838522355
20
1.95197146189517
30
0
41
1
10
46.896006406738
20
2.0093007011549
30
0
0
SPLINE
5
114
100
AcDbEntity
8
1
62
256
6
ByLayer
370
18
48
1
60
0
100
AcDbSpline
70
4
71
3
72
8
73
4
40
0
40
0
40
0
40
0
40
1
40
1
40
1
40
1
41
1
10
46.8181449822192
20
1.96587506127722
30
0
41
1
10
46.8440742532832
20
1.98064822489945
30
0
41
1
10
46.8700255083964
20
1.99512511601287
30
0
41
1
10
46.896006406738
20
2.00930070115476
30
0
0
SPLINE
5
115
100
AcDbEntity
8
1
62
256
6
ByLayer
370
18
48
1
60
0
100
AcDbSpline
70
4
71
3
72
10
73
6
40
0
40
0
40
0
40
0
40
0.812945353024985
40
0.812945353024985
40
1
40
1
40
1
40
1
41
1
10
46.8181449822192
20
1.96587506127722
30
0
41
1
10
46.7721565089329
20
1.87004407574327
30
0
41
1
10
46.7258741530469
20
1.77423164446623
30
0
41
1
10
46.6685091080967
20
1.65677565253233
30
0
41
1
10
46.6577629562706
20
1.63482454762456
30
0
41
1
10
46.646999289813
20
1.61289953749497
30
0
0
SPLINE
5
116
100
AcDbEntity
8
1
62
256
6
ByLayer
370
18
48
1
60
0
100
AcDbSpline
70
4
71
3
72
18
73
14
40
0
40
0
40
0
40
0
40
0.021048482021137
40
0.021048482021137
40
0.184207068350998
40
0.184207068350998
40
0.347365654680857
40
0.347365654680857
40
0.673682827340432
40
0.673682827340432
40
0.836841413670216
40
0.836841413670216
40
1
40
1
40
1
40
1
41
1
10
40.5706230012639
20
-1.94907977211835
30
0
41
1
10
40.5699696989657
20
-1.94920156983184
30
0
41
1
10
40.5693156708877
20
-1.94932850794441
30
0
41
1
10
40.5635855325386
20
-1.95048487354063
30
0
41
1
10
40.5584722984018
20
-1.95182883898735
30
0
41
1
10
40.5484066813929
20
-1.95515256956932
30
0
41
1
10
40.5434243992147
20
-1.95713690604157
30
0
41
1
10
40.5286539726308
20
-1.96417016511563
30
0
41
1
10
40.5189571388738
20
-1.97037804342636
30
0
41
1
10
40.505816976065
20
-1.98194404917643
30
0
41
1
10
40.5016176633428
20
-1.9862156006169
30
0
41
1
10
40.4938026206745
20
-1.99557692035682
30
0
41
1
10
40.4902383265573
20
-2.00059758855264
30
0
41
1
10
40.4870562381067
20
-2.0059978328382
30
0
0
SPLINE
5
117
100
AcDbEntity
8
1
62
256
6
ByLayer
370
18
48
1
60
0
100
AcDbSpline
70
4
71
3
72
10
73
6
40
0
40
0
40
0
40
0
40
0.5
40
0.5
40
1
40
1
40
1
40
1
41
1
10
40.4870562381067
20
-2.0059978328382
30
0
41
1
10
40.4421746803378
20
-2.08216522404615
30
0
41
1
10
40.3974930217502
20
-2.15765372131523
30
0
41
1
10
40.3085929980692
20
-2.30689099047703
30
0
41
1
10
40.2644043452963
20
-2.38058643808176
30
0
41
1
10
40.2205331144398
20
-2.45308828494083
30
0
0
SPLINE
5
118
100
AcDbEntity
8
1
62
256
6
ByLayer
370
18
48
1
60
0
100
AcDbSpline
70
4
71
3
72
8
73
4
40
0
40
0
40
0
40
0
40
1
40
1
40
1
40
1
41
1
10
40.1425018297167
20
-2.44868288192657
30
0
41
1
10
40.168511811161
20
-2.45052415295433
30
0
41
1
10
40.1945203154163
20
-2.45199239023907
30
0
41
1
10
40.2205331144398
20
-2.45308828494072
30
0
0
SPLINE
5
119
100
AcDbEntity
8
1
62
256
6
ByLayer
370
18
48
1
60
0
100
AcDbSpline
70
4
71
3
72
10
73
6
40
0
40
0
40
0
40
0
40
0.438733904787926
40
0.438733904787926
40
1
40
1
40
1
40
1
41
1
10
40.1123527071001
20
-2.39690528814478
30
0
41
1
10
40.0763167116861
20
-2.33472206804828
30
0
41
1
10
40.0400910390693
20
-2.27116579187549
30
0
41
1
10
39.9570406671124
20
-2.12336130547041
30
0
41
1
10
39.9101142969743
20
-2.03834641420582
30
0
41
1
10
39.86283329639
20
-1.95149765803572
30
0
0
SPLINE
5
11A
100
AcDbEntity
8
1
62
256
6
ByLayer
370
18
48
1
60
0
100
AcDbSpline
70
4
71
3
72
26
73
22
40
0
40
0
40
0
40
0
40
0.124999999999949
40
0.124999999999949
40
0.249999999999899
40
0.249999999999899
40
0.374999999999849
40
0.374999999999849
40
0.437499999999824
40
0.437499999999824
40
0.499999999999799
40
0.499999999999799
40
0.624999999999806
40
0.624999999999806
40
0.687499999999838
40
0.687499999999838
40
0.749999999999871
40
0.749999999999871
40
0.874999999999935
40
0.874999999999935
40
1
40
1
40
1
40
1
41
1
10
39.862833296389
20
-1.95149765803399
30
0
41
1
10
39.8572347345941
20
-1.94121386280585
30
0
41
1
10
39.8507311229059
20
-1.93198118908458
30
0
41
1
10
39.8362800475524
20
-1.91516659034647
30
0
41
1
10
39.8282504688161
20
-1.90754702376583
30
0
41
1
10
39.8113346620392
20
-1.89430658047095
30
0
41
1
10
39.8024197585147
20
-1.88863085361305
30
0
41
1
10
39.7883861597838
20
-1.88152098918189
30
0
41
1
10
39.7835862843093
20
-1.87938601182057
30
0
41
1
10
39.7739371660077
20
-1.87567673722407
30
0
41
1
10
39.769067861298
20
-1.87409088340374
30
0
41
1
10
39.7543310154825
20
-1.87015391606334
30
0
41
1
10
39.7443363292859
20
-1.86860737849017
30
0
41
1
10
39.7290821009272
20
-1.86819846947347
30
0
41
1
10
39.7239540080287
20
-1.86839014603507
30
0
41
1
10
39.7138656007873
20
-1.86947787330342
30
0
41
1
10
39.7088743539322
20
-1.87037133945691
30
0
41
1
10
39.6940855662509
20
-1.87421485002705
30
0
41
1
10
39.6843836144307
20
-1.8783912288855
30
0
41
1
10
39.6668781815925
20
-1.890260780728
30
0
41
1
10
39.658878172058
20
-1.89810033967848
30
0
41
1
10
39.6525294411743
20
-1.90775635881749
30
0
0
SPLINE
5
11B
100
AcDbEntity
8
1
62
256
6
ByLayer
370
18
48
1
60
0
100
AcDbSpline
70
4
71
3
72
10
73
6
40
0
40
0
40
0
40
0
40
0.5
40
0.5
40
1
40
1
40
1
40
1
41
1
10
39.6525294411743
20
-1.90775635881752
30
0
41
1
10
39.6179772231664
20
-1.96030810254268
30
0
41
1
10
39.5835752235032
20
-2.01163513795808
30
0
41
1
10
39.5149954534506
20
-2.11195739642935
30
0
41
1
10
39.4808175037155
20
-2.16094066995859
30
0
41
1
10
39.4468541970592
20
-2.20856021046765
30
0
0
SPLINE
5
11C
100
AcDbEntity
8
1
62
256
6
ByLayer
370
18
48
1
60
0
100
AcDbSpline
70
4
71
3
72
8
73
4
40
0
40
0
40
0
40
0
40
1
40
1
40
1
40
1
41
1
10
39.4468541970465
20
-2.20856021048931
30
0
41
1
10
39.3402432797137
20
-2.11001431159411
30
0
41
1
10
39.2330303337295
20
-2.00619409261645
30
0
41
1
10
39.1244075312903
20
-1.89771376351166
30
0
0
SPLINE
5
11D
100
AcDbEntity
8
1
62
256
6
ByLayer
370
18
48
1
60
0
100
AcDbSpline
70
4
71
3
72
8
73
4
40
0
40
0
40
0
40
0
40
1
40
1
40
1
40
1
41
1
10
39.1244075312903
20
-1.89771376351163
30
0
41
1
10
39.0925940605627
20
-1.8339535622454
30
0
41
1
10
39.0606474012487
20
-1.76994920605617
30
0
41
1
10
39.0285564216352
20
-1.70578037058681
30
0
0
SPLINE
5
11E
100
AcDbEntity
8
1
62
256
6
ByLayer
370
18
48
1
60
0
100
AcDbSpline
70
4
71
3
72
26
73
22
40
0
40
0
40
0
40
0
40
0.124999999999979
40
0.124999999999979
40
0.187499999999968
40
0.187499999999968
40
0.249999999999957
40
0.249999999999957
40
0.374999999999983
40
0.374999999999983
40
0.50000000000001
40
0.50000000000001
40
0.625000000000037
40
0.625000000000037
40
0.687500000000051
40
0.687500000000051
40
0.750000000000065
40
0.750000000000065
40
0.875000000000032
40
0.875000000000032
40
1
40
1
40
1
40
1
41
1
10
39.0285564216353
20
-1.70578037058681
30
0
41
1
10
39.0234410351238
20
-1.69555168952593
30
0
41
1
10
39.0175684113968
20
-1.68601031783066
30
0
41
1
10
39.0078478834939
20
-1.67252070892448
30
0
41
1
10
39.0044531649943
20
-1.66816370258277
30
0
41
1
10
38.9973685433557
20
-1.65971610688555
30
0
41
1
10
38.9936692907268
20
-1.65561812498086
30
0
41
1
10
38.98232093948
20
-1.64390149320209
30
0
41
1
10
38.9743725331829
20
-1.63678706501631
30
0
41
1
10
38.957760903858
20
-1.62387892052755
30
0
41
1
10
38.9490359577325
20
-1.61806107420102
30
0
41
1
10
38.9313980730906
20
-1.60814249917149
30
0
41
1
10
38.9224373963833
20
-1.60399203098038
30
0
41
1
10
38.9087871638971
20
-1.59907755480918
30
0
41
1
10
38.9042019682028
20
-1.59765968719665
30
0
41
1
10
38.894958066957
20
-1.59530943142332
30
0
41
1
10
38.8903019404957
20
-1.59438140139019
30
0
41
1
10
38.8765334329525
20
-1.59245596454593
30
0
41
1
10
38.8675177379466
20
-1.59226755498074
30
0
41
1
10
38.8499306372584
20
-1.59465007276589
30
0
41
1
10
38.8416205986382
20
-1.59719753547782
30
0
41
1
10
38.8340855321838
20
-1.60140146053243
30
0
0
SPLINE
5
11F
100
AcDbEntity
8
1
62
256
6
ByLayer
370
18
48
1
60
0
100
AcDbSpline
70
4
71
3
72
8
73
4
40
0
40
0
40
0
40
0
40
1
40
1
40
1
40
1
41
1
10
38.8340855321838
20
-1.60140146053249
30
0
41
1
10
38.7997467032454
20
-1.56575514772902
30
0
41
1
10
38.7651695576719
20
-1.52971590948823
30
0
41
1
10
38.7303643992219
20
-1.49328584777456
30
0
0
SPLINE
5
120
100
AcDbEntity
8
1
62
256
6
ByLayer
370
18
48
1
60
0
100
AcDbSpline
70
4
71
3
72
12
73
8
40
0
40
0
40
0
40
0
40
0.499999999999958
40
0.499999999999958
40
0.749999999999979
40
0.749999999999979
40
1
40
1
40
1
40
1
41
1
10
38.5758529767488
20
-1.50772793836919
30
0
41
1
10
38.6026348586693
20
-1.4960828310121
30
0
41
1
10
38.6289974564031
20
-1.4871927505028
30
0
41
1
10
38.6677669864012
20
-1.4778981427348
30
0
41
1
10
38.6805621587391
20
-1.47548343513426
30
0
41
1
10
38.7058693530525
20
-1.47214505718176
30
0
41
1
10
38.7182851228349
20
-1.47123738368612
30
0
41
1
10
38.7303643992242
20
-1.4711673921052
30
0
0
SPLINE
5
121
100
AcDbEntity
8
1
62
256
6
ByLayer
370
18
48
1
60
0
100
AcDbSpline
70
4
71
3
72
15
73
11
40
0
40
0
40
0
40
0
40
0.329502588781924
40
0.329502588781924
40
0.497126941586443
40
0.497126941586443
40
0.664751294390962
40
0.832375647195481
40
0.832375647195481
40
1
40
1
40
1
40
1
41
1
10
44.9748859475828
20
1.94990936917304
30
0
41
1
10
44.9844249723611
20
1.95250817136042
30
0
41
1
10
44.9937236231341
20
1.95615669400348
30
0
41
1
10
45.0073164060681
20
1.96345068726731
30
0
41
1
10
45.0118514305953
20
1.96624058015951
30
0
41
1
10
45.0205972616971
20
1.9724265878223
30
0
41
1
10
45.0289951283064
20
1.9791914779413
30
0
41
1
10
45.0366377457414
20
1.98721017937416
30
0
41
1
10
45.0438441361011
20
1.99595509493756
30
0
41
1
10
45.0472126744142
20
2.00067822072367
30
0
41
1
10
45.0502457464488
20
2.00571368849052
30
0
0
SPLINE
5
122
100
AcDbEntity
8
1
62
256
6
ByLayer
370
18
48
1
60
0
100
AcDbSpline
70
4
71
3
72
10
73
6
40
0
40
0
40
0
40
0
40
0.5
40
0.5
40
1
40
1
40
1
40
1
41
1
10
45.0502457464551
20
2.00571368850206
30
0
41
1
10
45.0965314921723
20
2.0825566971813
30
0
41
1
10
45.1423343579079
20
2.15776208040543
30
0
41
1
10
45.2332549835837
20
2.30471331609766
30
0
41
1
10
45.2782325582288
20
2.37623548062257
30
0
41
1
10
45.3229074698078
20
2.44590747436612
30
0
0
SPLINE
5
123
100
AcDbEntity
8
1
62
256
6
ByLayer
370
18
48
1
60
0
100
AcDbSpline
70
4
71
3
72
8
73
4
40
0
40
0
40
0
40
0
40
1
40
1
40
1
40
1
41
1
10
45.4006989428811
20
2.43821907520754
30
0
41
1
10
45.374779479165
20
2.44114721882764
30
0
41
1
10
45.34881547313
20
2.44371502130016
30
0
41
1
10
45.3229074698078
20
2.44590747436612
30
0
0
SPLINE
5
124
100
AcDbEntity
8
1
62
256
6
ByLayer
370
18
48
1
60
0
100
AcDbSpline
70
4
71
3
72
10
73
6
40
0
40
0
40
0
40
0
40
0.5
40
0.5
40
1
40
1
40
1
40
1
41
1
10
45.4006989428811
20
2.43821907520754
30
0
41
1
10
45.4454845238334
20
2.35995540260538
30
0
41
1
10
45.4906548647533
20
2.28034596025523
30
0
41
1
10
45.5819650019526
20
2.11869638681782
30
0
41
1
10
45.6279543902747
20
2.03692224733635
30
0
41
1
10
45.6744359657485
20
1.95426947986709
30
0
0
SPLINE
5
125
100
AcDbEntity
8
1
62
256
6
ByLayer
370
18
48
1
60
0
100
AcDbSpline
70
4
71
3
72
29
73
25
40
0
40
0
40
0
40
0
40
0.125000000000105
40
0.125000000000105
40
0.187500000000113
40
0.187500000000113
40
0.25000000000012
40
0.312500000000128
40
0.312500000000128
40
0.375000000000135
40
0.375000000000135
40
0.50000000000015
40
0.50000000000015
40
0.625000000000164
40
0.625000000000164
40
0.750000000000179
40
0.750000000000179
40
0.812500000000134
40
0.812500000000134
40
0.875000000000089
40
0.875000000000089
40
0.937500000000045
40
0.937500000000045
40
1
40
1
40
1
40
1
41
1
10
45.6744359657485
20
1.95426947986709
30
0
41
1
10
45.6804646726011
20
1.94354933321659
30
0
41
1
10
45.6875861858684
20
1.93410855661185
30
0
41
1
10
45.6995165133713
20
1.9213988394892
30
0
41
1
10
45.7037332233902
20
1.91739101607794
30
0
41
1
10
45.712366541914
20
1.91001433381553
30
0
41
1
10
45.7212279146828
20
1.90323637431621
30
0
41
1
10
45.7304939519305
20
1.89753816923059
30
0
41
1
10
45.7399496145242
20
1.89235122020008
30
0
41
1
10
45.7447945643821
20
1.8900046194789
30
0
41
1
10
45.7594363549583
20
1.88379550897858
30
0
41
1
10
45.7692813829894
20
1.88076361819748
30
0
41
1
10
45.7890951598733
20
1.8767954444923
30
0
41
1
10
45.7991393293625
20
1.87587626725588
30
0
41
1
10
45.8185764962456
20
1.87631089688361
30
0
41
1
10
45.8280480961074
20
1.87763101612816
30
0
41
1
10
45.8418061157355
20
1.88147147375989
30
0
41
1
10
45.8463444586617
20
1.88307812832272
30
0
41
1
10
45.8550948528363
20
1.88694329761157
30
0
41
1
10
45.8592957784977
20
1.88919119671877
30
0
41
1
10
45.8673180696715
20
1.89437092978153
30
0
41
1
10
45.8711398946333
20
1.89730189021103
30
0
41
1
10
45.8783459220678
20
1.90395362842472
30
0
41
1
10
45.8817126364113
20
1.90766540110886
30
0
41
1
10
45.88474367299
20
1.91175090929968
30
0
0
SPLINE
5
126
100
AcDbEntity
8
1
62
256
6
ByLayer
370
18
48
1
60
0
100
AcDbSpline
70
4
71
3
72
10
73
6
40
0
40
0
40
0
40
0
40
0.5
40
0.5
40
1
40
1
40
1
40
1
41
1
10
45.8847436729966
20
1.91175090931298
30
0
41
1
10
45.9309138457046
20
1.97398328887334
30
0
41
1
10
45.9766470829359
20
2.03361382465326
30
0
41
1
10
46.0675112314954
20
2.14762025956912
30
0
41
1
10
46.1125034923012
20
2.20182108162135
30
0
41
1
10
46.1571569782279
20
2.25316549346701
30
0
0
SPLINE
5
127
100
AcDbEntity
8
1
62
256
6
ByLayer
370
18
48
1
60
0
100
AcDbSpline
70
4
71
3
72
8
73
4
40
0
40
0
40
0
40
0
40
1
40
1
40
1
40
1
41
1
10
46.2348870623229
20
2.22314976707685
30
0
41
1
10
46.2089770083813
20
2.23349759897746
30
0
41
1
10
46.1830668734294
20
2.24350195372395
30
0
41
1
10
46.1571569782279
20
2.25316549346701
30
0
0
SPLINE
5
128
100
AcDbEntity
8
1
62
256
6
ByLayer
370
18
48
1
60
0
100
AcDbSpline
70
4
71
3
72
10
73
6
40
0
40
0
40
0
40
0
40
0.5
40
0.5
40
1
40
1
40
1
40
1
41
1
10
46.2348870623228
20
2.22314976707816
30
0
41
1
10
46.2797599216388
20
2.13800706619333
30
0
41
1
10
46.3249667900516
20
2.05282040228934
30
0
41
1
10
46.4162377209364
20
1.88262598568844
30
0
41
1
10
46.4621681223786
20
1.7978593903695
30
0
41
1
10
46.5085935624577
20
1.71354908689531
30
0
0
SPLINE
5
129
100
AcDbEntity
8
1
62
256
6
ByLayer
370
18
48
1
60
0
100
AcDbSpline
70
4
71
3
72
29
73
25
40
0
40
0
40
0
40
0
40
0.125000000000011
40
0.125000000000011
40
0.187499999999973
40
0.187499999999973
40
0.249999999999934
40
0.312499999999895
40
0.312499999999895
40
0.374999999999856
40
0.374999999999856
40
0.499999999999885
40
0.499999999999885
40
0.624999999999915
40
0.624999999999915
40
0.749999999999944
40
0.749999999999944
40
0.812499999999958
40
0.812499999999958
40
0.874999999999972
40
0.874999999999972
40
0.937499999999986
40
0.937499999999986
40
1
40
1
40
1
40
1
41
1
10
46.5085935624577
20
1.71354908689531
30
0
41
1
10
46.5146587427136
20
1.70253449689625
30
0
41
1
10
46.5218268442397
20
1.6924122462589
30
0
41
1
10
46.5338290320355
20
1.67823966193174
30
0
41
1
10
46.5380693682612
20
1.6736655577036
30
0
41
1
10
46.5467421007856
20
1.66504522339699
30
0
41
1
10
46.555638809132
20
1.65690624199738
30
0
41
1
10
46.5649270552704
20
1.64962667590464
30
0
41
1
10
46.5743969285196
20
1.64275055936963
30
0
41
1
10
46.5792454580283
20
1.63950097934489
30
0
41
1
10
46.5938760432838
20
1.63045735579277
30
0
41
1
10
46.6037029657201
20
1.62537041087984
30
0
41
1
10
46.6234744434977
20
1.61696644782219
30
0
41
1
10
46.6334894470003
20
1.61364828467248
30
0
41
1
10
46.6528834830961
20
1.60911290963955
30
0
41
1
10
46.6623417571814
20
1.6078467847876
30
0
41
1
10
46.676089198212
20
1.6076291058647
30
0
41
1
10
46.6806247222563
20
1.60784360170499
30
0
41
1
10
46.6893827738795
20
1.60890614387819
30
0
41
1
10
46.6935892951571
20
1.60974764167213
30
0
41
1
10
46.7016253687415
20
1.61210411968727
30
0
41
1
10
46.7054553884189
20
1.61361821462722
30
0
41
1
10
46.7126794617855
20
1.61742560371152
30
0
41
1
10
46.7160599184379
20
1.61971811702802
30
0
41
1
10
46.71910334944
20
1.62241473979733
30
0
0
SPLINE
5
12A
100
AcDbEntity
8
1
62
256
6
ByLayer
370
18
48
1
60
0
100
AcDbSpline
70
4
71
3
72
10
73
6
40
0
40
0
40
0
40
0
40
0.5
40
0.5
40
1
40
1
40
1
40
1
41
1
10
46.7191033494457
20
1.62241473980879
30
0
41
1
10
46.7652978981652
20
1.66334527901083
30
0
41
1
10
46.8110604424517
20
1.70087048446339
30
0
41
1
10
46.9019932556265
20
1.76915103868356
30
0
41
1
10
46.9470281853812
20
1.79979776216999
30
0
41
1
10
46.9917405768973
20
1.82700678421662
30
0
0
SPLINE
5
12B
100
AcDbEntity
8
1
62
256
6
ByLayer
370
18
48
1
60
0
100
AcDbSpline
70
4
71
3
72
10
73
6
40
0
40
0
40
0
40
0
40
0.5
40
0.5
40
1
40
1
40
1
40
1
41
1
10
47.0802107962429
20
1.75762231803765
30
0
41
1
10
47.1232805943613
20
1.67816140705179
30
0
41
1
10
47.1666877211925
20
1.59984974900792
30
0
41
1
10
47.2543382852799
20
1.44583653649565
30
0
41
1
10
47.2984613026338
20
1.37034378223097
30
0
41
1
10
47.3430159762916
20
1.29645146819667
30
0
0
SPLINE
5
12C
100
AcDbEntity
8
1
62
256
6
ByLayer
370
18
48
1
60
0
100
AcDbSpline
70
4
71
3
72
29
73
25
40
0
40
0
40
0
40
0
40
0.124999999999974
40
0.124999999999974
40
0.187499999999961
40
0.187499999999961
40
0.249999999999949
40
0.312499999999936
40
0.312499999999936
40
0.374999999999923
40
0.374999999999923
40
0.499999999999897
40
0.499999999999897
40
0.624999999999872
40
0.624999999999872
40
0.749999999999846
40
0.749999999999846
40
0.812499999999885
40
0.812499999999885
40
0.874999999999923
40
0.874999999999923
40
0.937499999999962
40
0.937499999999962
40
1
40
1
40
1
40
1
41
1
10
47.3430159762934
20
1.29645146819479
30
0
41
1
10
47.3490472674759
20
1.28644879001399
30
0
41
1
10
47.3561763760518
20
1.27683191836516
30
0
41
1
10
47.3681257197234
20
1.26285425921688
30
0
41
1
10
47.3723496692308
20
1.25824675198447
30
0
41
1
10
47.3809952358962
20
1.249384602867
30
0
41
1
10
47.3898681351357
20
1.24083138425496
30
0
41
1
10
47.3991472719019
20
1.23283147857109
30
0
41
1
10
47.4086174260407
20
1.2250922986338
30
0
41
1
10
47.4134713568608
20
1.22133645721456
30
0
41
1
10
47.4281225704061
20
1.21058852769843
30
0
41
1
10
47.4379733241936
20
1.20412484800454
30
0
41
1
10
47.457795124728
20
1.19249234467316
30
0
41
1
10
47.4678320060913
20
1.18730517060973
30
0
41
1
10
47.4872424992351
20
1.17864779750067
30
0
41
1
10
47.4967018496934
20
1.17511815464923
30
0
41
1
10
47.5104459796273
20
1.17115407194132
30
0
41
1
10
47.5149805413422
20
1.17005171918231
30
0
41
1
10
47.5236998170269
20
1.16838770802099
30
0
41
1
10
47.5278871927497
20
1.16782253866137
30
0
41
1
10
47.535886952829
20
1.16727297303197
30
0
41
1
10
47.5396997151112
20
1.16728760642423
30
0
41
1
10
47.5468920776185
20
1.16798946036218
30
0
41
1
10
47.5502465243681
20
1.16867782152087
30
0
41
1
10
47.553270544699
20
1.16974477961529
30
0
0
SPLINE
5
12D
100
AcDbEntity
8
1
62
256
6
ByLayer
370
18
48
1
60
0
100
AcDbSpline
70
4
71
3
72
8
73
4
40
0
40
0
40
0
40
0
40
1
40
1
40
1
40
1
41
1
10
47.5532705447077
20
1.16974477963345
30
0
41
1
10
47.5987370962747
20
1.18578663780951
30
0
41
1
10
47.6437594693526
20
1.19795287652278
30
0
41
1
10
47.688469708147
20
1.20623283950195
30
0
0
SPLINE
5
12E
100
AcDbEntity
8
1
62
256
6
ByLayer
370
18
48
1
60
0
100
AcDbSpline
70
4
71
3
72
10
73
6
40
0
40
0
40
0
40
0
40
0.5
40
0.5
40
1
40
1
40
1
40
1
41
1
10
46.0498929168911
20
-2.00259911858737
30
0
41
1
10
46.0050298479069
20
-2.07931707229906
30
0
41
1
10
45.9603590581835
20
-2.15557151916659
30
0
41
1
10
45.8714752786018
20
-2.30673496140906
30
0
41
1
10
45.8272895541637
20
-2.38159591153629
30
0
41
1
10
45.7834134840437
20
-2.45546530297403
30
0
0
SPLINE
5
12F
100
AcDbEntity
8
1
62
256
6
ByLayer
370
18
48
1
60
0
100
AcDbSpline
70
4
71
3
72
10
73
6
40
0
40
0
40
0
40
0
40
0.0444908199147426
40
0.0444908199147426
40
1
40
1
40
1
40
1
41
1
10
45.5730856409764
20
-2.23151700553979
30
0
41
1
10
45.5709157436562
20
-2.22777668883177
30
0
41
1
10
45.5687451142492
20
-2.22403133754392
30
0
41
1
10
45.5199403020765
20
-2.13973602257187
30
0
41
1
10
45.4730013561524
20
-2.05693631658204
30
0
41
1
10
45.4257429456937
20
-1.97213014191678
30
0
0
SPLINE
5
130
100
AcDbEntity
8
1
62
256
6
ByLayer
370
18
48
1
60
0
100
AcDbSpline
70
4
71
3
72
28
73
24
40
0
40
0
40
0
40
0
40
0.12500000000012
40
0.12500000000012
40
0.250000000000239
40
0.250000000000239
40
0.375000000000359
40
0.375000000000359
40
0.437500000000367
40
0.437500000000367
40
0.500000000000376
40
0.500000000000376
40
0.625000000000282
40
0.625000000000282
40
0.687500000000234
40
0.687500000000234
40
0.750000000000187
40
0.750000000000187
40
0.875000000000093
40
0.875000000000093
40
0.937500000000046
40
0.937500000000046
40
1
40
1
40
1
40
1
41
1
10
45.4257429456936
20
-1.97213014191655
30
0
41
1
10
45.4201319426837
20
-1.96206108337887
30
0
41
1
10
45.4136131586311
20
-1.95307373087658
30
0
41
1
10
45.39913461518
20
-1.93679758943429
30
0
41
1
10
45.3910946315559
20
-1.9294760391636
30
0
41
1
10
45.3741771119513
20
-1.91685313823339
30
0
41
1
10
45.365268914329
20
-1.91149627475102
30
0
41
1
10
45.3512554610456
20
-1.9048734019606
30
0
41
1
10
45.3464653000007
20
-1.90290314284377
30
0
41
1
10
45.3368362687662
20
-1.89951889230795
30
0
41
1
10
45.3319773443226
20
-1.89809413690992
30
0
41
1
10
45.3172718282767
20
-1.89463666030449
30
0
41
1
10
45.3072985956982
20
-1.89340438276344
30
0
41
1
10
45.2920706702954
20
-1.89346384829565
30
0
41
1
10
45.2869473156782
20
-1.89381128285456
30
0
41
1
10
45.2768600715682
20
-1.89520693290496
30
0
41
1
10
45.2718656778057
20
-1.89625342808358
30
0
41
1
10
45.2570548455397
20
-1.90056001282889
30
0
41
1
10
45.2473216216926
20
-1.90505337026602
30
0
41
1
10
45.2341313620736
20
-1.91443778027809
30
0
41
1
10
45.2299141958947
20
-1.91803994385694
30
0
41
1
10
45.2220752513833
20
-1.92620977172527
30
0
41
1
10
45.2185024167299
20
-1.93071771484514
30
0
41
1
10
45.2153152041289
20
-1.93569649761469
30
0
0
SPLINE
5
131
100
AcDbEntity
8
1
62
256
6
ByLayer
370
18
48
1
60
0
100
AcDbSpline
70
4
71
3
72
12
73
8
40
0
40
0
40
0
40
0
40
0.25
40
0.25
40
0.499999999999999
40
0.499999999999999
40
1
40
1
40
1
40
1
41
1
10
45.2153152041289
20
-1.93569649761469
30
0
41
1
10
45.1928929391318
20
-1.9707225848565
30
0
41
1
10
45.1705229672106
20
-2.00533803873393
30
0
41
1
10
45.1258843915165
20
-2.07362982951301
30
0
41
1
10
45.1036042799513
20
-2.10733706732103
30
0
41
1
10
45.0369498716311
20
-2.20701333511951
30
0
41
1
10
44.9927808915955
20
-2.27150668790313
30
0
41
1
10
44.9489258626896
20
-2.33387813068288
30
0
0
SPLINE
5
132
100
AcDbEntity
8
1
62
256
6
ByLayer
370
18
48
1
60
0
100
AcDbSpline
70
4
71
3
72
8
73
4
40
0
40
0
40
0
40
0
40
1
40
1
40
1
40
1
41
1
10
44.871065472225
20
-2.31001759257472
30
0
41
1
10
44.8970106513188
20
-2.31831759775741
30
0
41
1
10
44.922962875051
20
-2.32627148126505
30
0
41
1
10
44.9489258626896
20
-2.33387813068288
30
0
0
SPLINE
5
133
100
AcDbEntity
8
1
62
256
6
ByLayer
370
18
48
1
60
0
100
AcDbSpline
70
4
71
3
72
10
73
6
40
0
40
0
40
0
40
0
40
0.5
40
0.5
40
1
40
1
40
1
40
1
41
1
10
44.8710654722249
20
-2.31001759257504
30
0
41
1
10
44.8250739065972
20
-2.21971822317275
30
0
41
1
10
44.7787762045637
20
-2.12820286123102
30
0
41
1
10
44.6855380224705
20
-1.94322840590948
30
0
41
1
10
44.6386288716691
20
-1.84983279217653
30
0
41
1
10
44.5914150769632
20
-1.75586298081058
30
0
0
SPLINE
5
134
100
AcDbEntity
8
1
62
256
6
ByLayer
370
18
48
1
60
0
100
AcDbSpline
70
4
71
3
72
28
73
24
40
0
40
0
40
0
40
0
40
0.12500000000005
40
0.12500000000005
40
0.2500000000001
40
0.2500000000001
40
0.37500000000015
40
0.37500000000015
40
0.437500000000123
40
0.437500000000123
40
0.500000000000096
40
0.500000000000096
40
0.624999999999933
40
0.624999999999933
40
0.687499999999908
40
0.687499999999908
40
0.749999999999883
40
0.749999999999883
40
0.874999999999941
40
0.874999999999941
40
0.93749999999997
40
0.93749999999997
40
1
40
1
40
1
40
1
41
1
10
44.5914150769626
20
-1.75586298080964
30
0
41
1
10
44.5858005141961
20
-1.74468829325548
30
0
41
1
10
44.579276813356
20
-1.73437994570472
30
0
41
1
10
44.5647866593247
20
-1.71512850086467
30
0
41
1
10
44.556739194015
20
-1.70613421192743
30
0
41
1
10
44.5398067002377
20
-1.68995587943863
30
0
41
1
10
44.5308910948725
20
-1.68271041127281
30
0
41
1
10
44.5168673682368
20
-1.67308426264637
30
0
41
1
10
44.5120746541346
20
-1.67008260960617
30
0
41
1
10
44.5024411517943
20
-1.66461235478568
30
0
41
1
10
44.4975800677781
20
-1.66212860727168
30
0
41
1
10
44.4828680277487
20
-1.65544258332235
30
0
41
1
10
44.4728902698043
20
-1.65199046804398
30
0
41
1
10
44.4576551859853
20
-1.64858683465138
30
0
41
1
10
44.4525328485417
20
-1.64775725868057
30
0
41
1
10
44.4424499208246
20
-1.64680223523246
30
0
41
1
10
44.4374588609107
20
-1.64666827270179
30
0
41
1
10
44.4226625972515
20
-1.64740974917436
30
0
41
1
10
44.4129462735134
20
-1.6494697740375
30
0
41
1
10
44.3997829405649
20
-1.65535342376498
30
0
41
1
10
44.3955769003234
20
-1.65779801207307
30
0
41
1
10
44.3877499452784
20
-1.66373369714975
30
0
41
1
10
44.3841814561494
20
-1.66717760880391
30
0
41
1
10
44.3809968395807
20
-1.67115406359855
30
0
0
SPLINE
5
135
100
AcDbEntity
8
1
62
256
6
ByLayer
370
18
48
1
60
0
100
AcDbSpline
70
4
71
3
72
10
73
6
40
0
40
0
40
0
40
0
40
0.5
40
0.5
40
1
40
1
40
1
40
1
41
1
10
44.3809968395807
20
-1.67115406359855
30
0
41
1
10
44.3361178362598
20
-1.72719199597796
30
0
41
1
10
44.291440359729
20
-1.78041329439779
30
0
41
1
10
44.2025268488582
20
-1.88109964052728
30
0
41
1
10
44.1583339567782
20
-1.92851849740353
30
0
41
1
10
44.1144614540703
20
-1.9728953925179
30
0
0
SPLINE
5
136
100
AcDbEntity
8
1
62
256
6
ByLayer
370
18
48
1
60
0
100
AcDbSpline
70
4
71
3
72
8
73
4
40
0
40
0
40
0
40
0
40
1
40
1
40
1
40
1
41
1
10
44.0366181485641
20
-1.92788300050981
30
0
41
1
10
44.0625495256815
20
-1.94318937149248
30
0
41
1
10
44.0884962847228
20
-1.95819390541274
30
0
41
1
10
44.1144614540703
20
-1.9728953925179
30
0
0
SPLINE
5
137
100
AcDbEntity
8
1
62
256
6
ByLayer
370
18
48
1
60
0
100
AcDbSpline
70
4
71
3
72
14
73
10
40
0
40
0
40
0
40
0
40
0.25
40
0.25
40
0.5
40
0.5
40
0.75
40
0.75
40
1
40
1
40
1
40
1
41
1
10
44.0366181485641
20
-1.92788300051006
30
0
41
1
10
44.0136647690344
20
-1.88000789597461
30
0
41
1
10
43.9906463990065
20
-1.83218159167413
30
0
41
1
10
43.9444377653444
20
-1.73664775592812
30
0
41
1
10
43.9212285876011
20
-1.68891947698717
30
0
41
1
10
43.8745884748126
20
-1.59380474760005
30
0
41
1
10
43.8511583588344
20
-1.54639330460796
30
0
41
1
10
43.8041382711145
20
-1.45193800351095
30
0
41
1
10
43.7805576719032
20
-1.40491444523039
30
0
41
1
10
43.7568870365994
20
-1.35810584004665
30
0
0
SPLINE
5
138
100
AcDbEntity
8
1
62
256
6
ByLayer
370
18
48
1
60
0
100
AcDbSpline
70
4
71
3
72
28
73
24
40
0
40
0
40
0
40
0
40
0.124999999999906
40
0.124999999999906
40
0.249999999999812
40
0.249999999999812
40
0.374999999999718
40
0.374999999999718
40
0.437499999999723
40
0.437499999999723
40
0.499999999999727
40
0.499999999999727
40
0.624999999999736
40
0.624999999999736
40
0.687499999999796
40
0.687499999999796
40
0.749999999999856
40
0.749999999999856
40
0.874999999999977
40
0.874999999999977
40
0.937499999999989
40
0.937499999999989
40
1
40
1
40
1
40
1
41
1
10
43.7568870365993
20
-1.35810584004685
30
0
41
1
10
43.7512834956839
20
-1.34702485590878
30
0
41
1
10
43.7447705737187
20
-1.33650114952445
30
0
41
1
10
43.7302960845821
20
-1.31634323128537
30
0
41
1
10
43.7222516919253
20
-1.30664390328818
30
0
41
1
10
43.7053156549663
20
-1.28865848057455
30
0
41
1
10
43.6963953123455
20
-1.28031316621119
30
0
41
1
10
43.6823608134816
20
-1.26874172741194
30
0
41
1
10
43.6775628389871
20
-1.26503929787256
30
0
41
1
10
43.667919320126
20
-1.25809061856731
30
0
41
1
10
43.6630534866916
20
-1.25482653923495
30
0
41
1
10
43.6483281333852
20
-1.24567088872811
30
0
41
1
10
43.6383426572208
20
-1.24040378510298
30
0
41
1
10
43.6230996374655
20
-1.23396150886168
30
0
41
1
10
43.6179781768024
20
-1.23206621475222
30
0
41
1
10
43.6078998819683
20
-1.22891094868788
30
0
41
1
10
43.6029124763441
20
-1.22763674336852
30
0
41
1
10
43.5881311730901
20
-1.22481887160245
30
0
41
1
10
43.5784334107562
20
-1.22429412740718
30
0
41
1
10
43.5653058038269
20
-1.22616420500052
30
0
41
1
10
43.5611126986078
20
-1.22723316809569
30
0
41
1
10
43.5533123615978
20
-1.23037678824298
30
0
41
1
10
43.5497565817495
20
-1.23242453259374
30
0
41
1
10
43.5465830618181
20
-1.23500425591777
30
0
0
SPLINE
5
139
100
AcDbEntity
8
1
62
256
6
ByLayer
370
18
48
1
60
0
100
AcDbSpline
70
4
71
3
72
10
73
6
40
0
40
0
40
0
40
0
40
0.5
40
0.5
40
1
40
1
40
1
40
1
41
1
10
43.5465830618163
20
-1.23500425591928
30
0
41
1
10
43.5016956647712
20
-1.27149278210825
30
0
41
1
10
43.4570161832544
20
-1.30426750370739
30
0
41
1
10
43.3680957711882
20
-1.36254234106326
30
0
41
1
10
43.3239037525023
20
-1.38802401653183
30
0
41
1
10
43.2800252763023
20
-1.40994496920996
30
0
0
SPLINE
5
13A
100
AcDbEntity
8
1
62
256
6
ByLayer
370
18
48
1
60
0
100
AcDbSpline
70
4
71
3
72
10
73
6
40
0
40
0
40
0
40
0
40
0.5
40
0.5
40
1
40
1
40
1
40
1
41
1
10
43.2022359487654
20
-1.34903389507153
30
0
41
1
10
43.1562437694044
20
-1.25782345788534
30
0
41
1
10
43.1099484306527
20
-1.1681209611107
30
0
41
1
10
43.0166831157672
20
-0.992337684759519
30
0
41
1
10
42.9697455951592
20
-0.906315754115667
30
0
41
1
10
42.9225074196189
20
-0.822541981329437
30
0
0
SPLINE
5
13B
100
AcDbEntity
8
1
62
256
6
ByLayer
370
18
48
1
60
0
100
AcDbSpline
70
4
71
3
72
28
73
24
40
0
40
0
40
0
40
0
40
0.125000000000014
40
0.125000000000014
40
0.250000000000028
40
0.250000000000028
40
0.375000000000043
40
0.375000000000043
40
0.437500000000049
40
0.437500000000049
40
0.500000000000056
40
0.500000000000056
40
0.625000000000181
40
0.625000000000181
40
0.687500000000187
40
0.687500000000187
40
0.750000000000194
40
0.750000000000194
40
0.875000000000097
40
0.875000000000097
40
0.937500000000049
40
0.937500000000049
40
1
40
1
40
1
40
1
41
1
10
42.9225074196176
20
-0.822541981326225
30
0
41
1
10
42.9168922095433
20
-0.812583778505456
30
0
41
1
10
42.910368004478
20
-0.802819218035125
30
0
41
1
10
42.8958772766703
20
-0.783610151104369
30
0
41
1
10
42.8878293459701
20
-0.774096239976103
30
0
41
1
10
42.8708950957655
20
-0.755935022950069
30
0
41
1
10
42.8619781496585
20
-0.747232922387099
30
0
41
1
10
42.8479531688309
20
-0.734722924285933
30
0
41
1
10
42.8431601344195
20
-0.73063906709308
30
0
41
1
10
42.8335262691532
20
-0.722799969534947
30
0
41
1
10
42.8286651723971
20
-0.719025865507774
30
0
41
1
10
42.8139534725658
20
-0.708140628743791
30
0
41
1
10
42.80397633367
20
-0.701458633491654
30
0
41
1
10
42.7887435639552
20
-0.692420053420733
30
0
41
1
10
42.7836214689198
20
-0.689576707108699
30
0
41
1
10
42.7735390283022
20
-0.684394137221574
30
0
41
1
10
42.7685482053977
20
-0.682035797057665
30
0
41
1
10
42.7537523405374
20
-0.675729412591778
30
0
41
1
10
42.7440347860579
20
-0.672532525969501
30
0
41
1
10
42.7308671781569
20
-0.670035620901984
30
0
41
1
10
42.7266597469498
20
-0.669572828812733
30
0
41
1
10
42.7188290856286
20
-0.669533890651195
30
0
41
1
10
42.7152588486756
20
-0.669953663390459
30
0
41
1
10
42.7120726868404
20
-0.670866025367019
30
0
0
SPLINE
5
13C
100
AcDbEntity
8
1
62
256
6
ByLayer
370
18
48
1
60
0
100
AcDbSpline
70
4
71
3
72
10
73
6
40
0
40
0
40
0
40
0
40
0.5
40
0.5
40
1
40
1
40
1
40
1
41
1
10
42.7120726868404
20
-0.670866025366934
30
0
41
1
10
42.6671869546143
20
-0.683719118678368
30
0
41
1
10
42.6224963085696
20
-0.692455604121278
30
0
41
1
10
42.533584730051
20
-0.702069070101089
30
0
41
1
10
42.4893913346634
20
-0.702915211083507
30
0
41
1
10
42.445486980258
20
-0.700238791896822
30
0
0
SPLINE
5
13D
100
AcDbEntity
8
1
62
256
6
ByLayer
370
18
48
1
60
0
100
AcDbSpline
70
4
71
3
72
8
73
4
40
0
40
0
40
0
40
0
40
1
40
1
40
1
40
1
41
1
10
42.3677101110428
20
-0.629753958164144
30
0
41
1
10
42.3936370250222
20
-0.653339257640198
30
0
41
1
10
42.4195786022289
20
-0.676818030296062
30
0
41
1
10
42.445486980258
20
-0.700238791896851
30
0
0
SPLINE
5
13E
100
AcDbEntity
8
1
62
256
6
ByLayer
370
18
48
1
60
0
100
AcDbSpline
70
4
71
3
72
10
73
6
40
0
40
0
40
0
40
0
40
0.5
40
0.5
40
1
40
1
40
1
40
1
41
1
10
42.3677101110441
20
-0.62975395815991
30
0
41
1
10
42.3217731168088
20
-0.552773229218928
30
0
41
1
10
42.2755109860678
20
-0.478575435112106
30
0
41
1
10
42.1822924906988
20
-0.336204029612162
30
0
41
1
10
42.1353701694249
20
-0.268078955622798
30
0
41
1
10
42.0881557598541
20
-0.203284788538212
30
0
0
SPLINE
5
13F
100
AcDbEntity
8
1
62
256
6
ByLayer
370
18
48
1
60
0
100
AcDbSpline
70
4
71
3
72
28
73
24
40
0
40
0
40
0
40
0
40
0.124999999999987
40
0.124999999999987
40
0.249999999999974
40
0.249999999999974
40
0.374999999999961
40
0.374999999999961
40
0.437499999999954
40
0.437499999999954
40
0.499999999999948
40
0.499999999999948
40
0.624999999999935
40
0.624999999999935
40
0.687499999999929
40
0.687499999999929
40
0.749999999999923
40
0.749999999999923
40
0.874999999999913
40
0.874999999999913
40
0.937499999999956
40
0.937499999999956
40
1
40
1
40
1
40
1
41
1
10
42.0881557598571
20
-0.203284788538866
30
0
41
1
10
42.0825364355789
20
-0.195573171694349
30
0
41
1
10
42.0760052437299
20
-0.187669036694331
30
0
41
1
10
42.0614967020869
20
-0.171576449596586
30
0
41
1
10
42.0534368568221
20
-0.163319140992741
30
0
41
1
10
42.0364783867267
20
-0.147034957045236
30
0
41
1
10
42.027549830891
20
-0.138965823799651
30
0
41
1
10
42.0135097331019
20
-0.12694919057526
30
0
41
1
10
42.0087132062508
20
-0.122953176363978
30
0
41
1
10
41.9990742412463
20
-0.115129560055095
30
0
41
1
10
41.9942112231739
20
-0.11128393223305
30
0
41
1
10
41.979495728876
20
-0.0999406302490513
30
0
41
1
10
41.969518696511
20
-0.0926335117534904
30
0
41
1
10
41.9542901704395
20
-0.0820826269201973
30
0
41
1
10
41.9491761226253
20
-0.0786407021914499
30
0
41
1
10
41.9391090873318
20
-0.0720728923421632
30
0
41
1
10
41.9341261729129
20
-0.0689258152514185
30
0
41
1
10
41.9193542470011
20
-0.0599313106558554
30
0
41
1
10
41.9096575141133
20
-0.0544881164162518
30
0
41
1
10
41.8965182071434
20
-0.0479863696094185
30
0
41
1
10
41.8923190062458
20
-0.0460681164758228
30
0
41
1
10
41.8845055779243
20
-0.042890278938529
30
0
41
1
10
41.8809422384183
20
-0.0416492105993882
30
0
41
1
10
41.8777611827527
20
-0.0407990190613532
30
0
0
SPLINE
5
140
100
AcDbEntity
8
1
62
256
6
ByLayer
370
18
48
1
60
0
100
AcDbSpline
70
4
71
3
72
10
73
6
40
0
40
0
40
0
40
0
40
0.5
40
0.5
40
1
40
1
40
1
40
1
41
1
10
41.8777611827527
20
-0.0407990190613532
30
0
41
1
10
41.8328694117612
20
-0.0288009253978885
30
0
41
1
10
41.7881783834492
20
-0.0127560876219093
30
0
41
1
10
41.6992467432312
20
0.0270249614880527
30
0
41
1
10
41.6550414235366
20
0.0507484689295552
30
0
41
1
10
41.6111513012661
20
0.0780903344773094
30
0
0
SPLINE
5
141
100
AcDbEntity
8
1
62
256
6
ByLayer
370
18
48
1
60
0
100
AcDbSpline
70
4
71
3
72
10
73
6
40
0
40
0
40
0
40
0
40
0.5
40
0.5
40
1
40
1
40
1
40
1
41
1
10
41.5333205933505
20
0.15187341252161
30
0
41
1
10
41.4873240133258
20
0.207612559544884
30
0
41
1
10
41.4410378275626
20
0.259721440311381
30
0
41
1
10
41.3477807926167
20
0.356108320179175
30
0
41
1
10
41.3008388530784
20
0.400343632500693
30
0
41
1
10
41.2535713888166
20
0.440323608422574
30
0
0
SPLINE
5
142
100
AcDbEntity
8
1
62
256
6
ByLayer
370
18
48
1
60
0
100
AcDbSpline
70
4
71
3
72
28
73
24
40
0
40
0
40
0
40
0
40
0.125000000000057
40
0.125000000000057
40
0.250000000000114
40
0.250000000000114
40
0.375000000000171
40
0.375000000000171
40
0.4375000000002
40
0.4375000000002
40
0.500000000000228
40
0.500000000000228
40
0.62500000000023
40
0.62500000000023
40
0.687500000000202
40
0.687500000000202
40
0.750000000000175
40
0.750000000000175
40
0.875000000000064
40
0.875000000000064
40
0.937500000000032
40
0.937500000000032
40
1
40
1
40
1
40
1
41
1
10
41.2535713888167
20
0.440323608422545
30
0
41
1
10
41.247972845923
20
0.445058992763194
30
0
41
1
10
41.2414702984806
20
0.450348039865076
30
0
41
1
10
41.2270290672838
20
0.461773992355205
30
0
41
1
10
41.2190089536487
20
0.467971135773553
30
0
41
1
10
41.2021280411803
20
0.480785607174965
30
0
41
1
10
41.193239323243
20
0.487429211718961
30
0
41
1
10
41.1792504584939
20
0.497754260760445
30
0
41
1
10
41.1744663751212
20
0.501264149490595
30
0
41
1
10
41.1648458024575
20
0.508284464708481
30
0
41
1
10
41.1599894858981
20
0.511809600066158
30
0
41
1
10
41.1452831199295
20
0.522436048422264
30
0
41
1
10
41.1352950506255
20
0.529582996839025
30
0
41
1
10
41.1200239217947
20
0.540471427757865
30
0
41
1
10
41.114881324945
20
0.5441330580488
30
0
41
1
10
41.1047621099634
20
0.551346406657501
30
0
41
1
10
41.0997540696492
20
0.554920539494248
30
0
41
1
10
41.0849139556155
20
0.565552539151497
30
0
41
1
10
41.0751762701282
20
0.572589320358105
30
0
41
1
10
41.062008314216
20
0.582285092348258
30
0
41
1
10
41.0578067033229
20
0.585410780298417
30
0
41
1
10
41.0499864620169
20
0.591305724111123
30
0
41
1
10
41.046423862196
20
0.594032439890015
30
0
41
1
10
41.0432459813959
20
0.596510903229955
30
0
0
SPLINE
5
143
100
AcDbEntity
8
1
62
256
6
ByLayer
370
18
48
1
60
0
100
AcDbSpline
70
4
71
3
72
10
73
6
40
0
40
0
40
0
40
0
40
0.5
40
0.5
40
1
40
1
40
1
40
1
41
1
10
41.0432459813959
20
0.596510903229927
30
0
41
1
10
40.9983377101539
20
0.631535345912766
30
0
41
1
10
40.9536882868963
20
0.670419674352104
30
0
41
1
10
40.8647334077652
20
0.75530682145137
30
0
41
1
10
40.8205944385216
20
0.801155717701135
30
0
41
1
10
40.7767183462349
20
0.850148508584653
30
0
0
SPLINE
5
144
100
AcDbEntity
8
1
62
256
6
ByLayer
370
18
48
1
60
0
100
AcDbSpline
70
4
71
3
72
10
73
6
40
0
40
0
40
0
40
0
40
0.5
40
0.5
40
1
40
1
40
1
40
1
41
1
10
40.6989084764083
20
0.918761763412505
30
0
41
1
10
40.6529223577808
20
0.946659281714744
30
0
41
1
10
40.606634204583
20
0.970377383955821
30
0
41
1
10
40.5133996048838
20
1.00910549958061
30
0
41
1
10
40.4664834417918
20
1.02409265584439
30
0
41
1
10
40.4192710842368
20
1.03458805295841
30
0
0
SPLINE
5
145
100
AcDbEntity
8
1
62
256
6
ByLayer
370
18
48
1
60
0
100
AcDbSpline
70
4
71
3
72
28
73
24
40
0
40
0
40
0
40
0
40
0.124999999999983
40
0.124999999999983
40
0.249999999999965
40
0.249999999999965
40
0.374999999999947
40
0.374999999999947
40
0.437499999999964
40
0.437499999999964
40
0.499999999999981
40
0.499999999999981
40
0.625000000000067
40
0.625000000000067
40
0.687500000000082
40
0.687500000000082
40
0.750000000000097
40
0.750000000000097
40
0.875000000000072
40
0.875000000000072
40
0.937500000000036
40
0.937500000000036
40
1
40
1
40
1
40
1
41
1
10
40.4192710842368
20
1.03458805295844
30
0
41
1
10
40.4136513452287
20
1.03583733165627
30
0
41
1
10
40.4071210934891
20
1.03795665139927
30
0
41
1
10
40.3926171836806
20
1.04353980467658
30
0
41
1
10
40.3845618512155
20
1.04704982798665
30
0
41
1
10
40.367612151549
20
1.05510977623433
30
0
41
1
10
40.358687355744
20
1.05966712046708
30
0
41
1
10
40.3446521841474
20
1.06730394450736
30
0
41
1
10
40.3398569957283
20
1.06998972990289
30
0
41
1
10
40.3302201077193
20
1.07554491080589
30
0
41
1
10
40.3253579131821
20
1.07842512801508
30
0
41
1
10
40.3106443462637
20
1.08738752607752
30
0
41
1
10
40.3006678944949
20
1.09378426122305
30
0
41
1
10
40.2854393262559
20
1.1041715947641
30
0
41
1
10
40.2803226874849
20
1.10776687118789
30
0
41
1
10
40.270250463132
20
1.11508307747917
30
0
41
1
10
40.2652647363273
20
1.11882403116056
30
0
41
1
10
40.2504835428309
20
1.13033361435683
30
0
41
1
10
40.2407769272167
20
1.13847159851545
30
0
41
1
10
40.2276221991766
20
1.15068740020752
30
0
41
1
10
40.2234182713894
20
1.15480764986418
30
0
41
1
10
40.215594045825
20
1.16300775825852
30
0
41
1
10
40.212025868191
20
1.16703026080739
30
0
41
1
10
40.2088407490518
20
1.17096406123687
30
0
0
SPLINE
5
146
100
AcDbEntity
8
1
62
256
6
ByLayer
370
18
48
1
60
0
100
AcDbSpline
70
4
71
3
72
10
73
6
40
0
40
0
40
0
40
0
40
0.5
40
0.5
40
1
40
1
40
1
40
1
41
1
10
40.2088407490518
20
1.17096406123685
30
0
41
1
10
40.1639353494698
20
1.22642474337798
30
0
41
1
10
40.1192282885985
20
1.28478237911639
30
0
41
1
10
40.0302910835784
20
1.40668279541737
30
0
41
1
10
39.9860868855403
20
1.47020065399141
30
0
41
1
10
39.9422014784733
20
1.53591834107155
30
0
0
SPLINE
5
147
100
AcDbEntity
8
1
62
256
6
ByLayer
370
18
48
1
60
0
100
AcDbSpline
70
4
71
3
72
12
73
8
40
0
40
0
40
0
40
0
40
0.249999999999996
40
0.249999999999996
40
0.499999999999993
40
0.499999999999993
40
1
40
1
40
1
40
1
41
1
10
39.8643884971519
20
1.59297504668351
30
0
41
1
10
39.8414552950099
20
1.59189800034142
30
0
41
1
10
39.8184411284412
20
1.58969010190981
30
0
41
1
10
39.7721951146211
20
1.58292822399133
30
0
41
1
10
39.7489559425108
20
1.57838583244535
30
0
41
1
10
39.6790010798679
20
1.56139204538732
30
0
41
1
10
39.6320535243665
20
1.54566208714002
30
0
41
1
10
39.5847812902941
20
1.52541289635803
30
0
0
SPLINE
5
148
100
AcDbEntity
8
1
62
256
6
ByLayer
370
18
48
1
60
0
100
AcDbSpline
70
4
71
3
72
28
73
24
40
0
40
0
40
0
40
0
40
0.125000000000061
40
0.125000000000061
40
0.250000000000121
40
0.250000000000121
40
0.375000000000182
40
0.375000000000182
40
0.437500000000186
40
0.437500000000186
40
0.50000000000019
40
0.50000000000019
40
0.625000000000141
40
0.625000000000141
40
0.687500000000117
40
0.687500000000117
40
0.750000000000094
40
0.750000000000094
40
0.875000000000046
40
0.875000000000046
40
0.937500000000023
40
0.937500000000023
40
1
40
1
40
1
40
1
41
1
10
39.5847812902923
20
1.52541289636053
30
0
41
1
10
39.5791694489629
20
1.52300904877541
30
0
41
1
10
39.5726461544163
20
1.52168781388022
30
0
41
1
10
39.558150153156
20
1.52073065307121
30
0
41
1
10
39.5500944109497
20
1.52112131360229
30
0
41
1
10
39.5331366823501
20
1.52345250383595
30
0
41
1
10
39.5242056501034
20
1.52537954833264
30
0
41
1
10
39.5101585455593
20
1.5294165910901
30
0
41
1
10
39.5053583058574
20
1.53096002187129
30
0
41
1
10
39.4957121626252
20
1.53438929070367
30
0
41
1
10
39.4908456889883
20
1.53628034565438
30
0
41
1
10
39.4761207166042
20
1.54249920885721
30
0
41
1
10
39.4661385379644
20
1.54736121136031
30
0
41
1
10
39.4509050772457
20
1.55596108233365
30
0
41
1
10
39.4457911890433
20
1.5590471211834
30
0
41
1
10
39.4357262195956
20
1.56555994649832
30
0
41
1
10
39.4307452113403
20
1.56900271301126
30
0
41
1
10
39.4159813727096
20
1.57996106877829
30
0
41
1
10
39.4062943293966
20
1.58819448399638
30
0
41
1
10
39.3931757813571
20
1.60143302720292
30
0
41
1
10
39.3889846537442
20
1.60604352712647
30
0
41
1
10
39.3811865032252
20
1.61555552480499
30
0
41
1
10
39.3776304933882
20
1.62038989150855
30
0
41
1
10
39.3744558057359
20
1.62531001339445
30
0
0
SPLINE
5
149
100
AcDbEntity
8
1
62
256
6
ByLayer
370
18
48
1
60
0
100
AcDbSpline
70
4
71
3
72
8
73
4
40
0
40
0
40
0
40
0
40
1
40
1
40
1
40
1
41
1
10
39.3744558057359
20
1.62531001339445
30
0
41
1
10
39.3300190323685
20
1.69417799825692
30
0
41
1
10
39.2857716583361
20
1.76485455617146
30
0
41
1
10
39.2417672617566
20
1.83699598216526
30
0
0
SPLINE
5
14A
100
AcDbEntity
8
1
62
256
6
ByLayer
370
18
48
1
60
0
100
AcDbSpline
70
4
71
3
72
12
73
8
40
0
40
0
40
0
40
0
40
0.500000000000042
40
0.500000000000042
40
0.750000000000021
40
0.750000000000021
40
1
40
1
40
1
40
1
41
1
10
38.5758529767488
20
-0.218693148878657
30
0
41
1
10
38.6026348586693
20
-0.238055514292796
30
0
41
1
10
38.628997456403
20
-0.257517379305227
30
0
41
1
10
38.6677669864011
20
-0.287051951750982
30
0
41
1
10
38.6805621587391
20
-0.296950953993587
30
0
41
1
10
38.7058693530525
20
-0.316871877712657
30
0
41
1
10
38.718285122835
20
-0.326817993853098
30
0
41
1
10
38.7303643992242
20
-0.336686522476327
30
0
0
SPLINE
5
14B
100
AcDbEntity
8
1
62
256
6
ByLayer
370
18
48
1
60
0
100
AcDbSpline
70
4
71
3
72
8
73
4
40
0
40
0
40
0
40
0
40
1
40
1
40
1
40
1
41
1
10
38.7303643992219
20
-0.336686522476612
30
0
41
1
10
38.7484677051824
20
-0.351476563476552
30
0
41
1
10
38.7665585348266
20
-0.366332954328868
30
0
41
1
10
38.7845662974337
20
-0.381352664804837
30
0
0
SPLINE
5
14C
100
AcDbEntity
8
1
62
256
6
ByLayer
370
18
48
1
60
0
100
AcDbSpline
70
4
71
3
72
18
73
14
40
0
40
0
40
0
40
0
40
0.250000000000041
40
0.250000000000041
40
0.500000000000081
40
0.500000000000081
40
0.625000000000061
40
0.625000000000061
40
0.750000000000041
40
0.750000000000041
40
0.87500000000002
40
0.87500000000002
40
1
40
1
40
1
40
1
41
1
10
38.7845662974337
20
-0.381352664804837
30
0
41
1
10
38.7973826159994
20
-0.390054200564777
30
0
41
1
10
38.8105759439257
20
-0.399298115909403
30
0
41
1
10
38.8376135900456
20
-0.418938087960328
30
0
41
1
10
38.8509713781976
20
-0.428982806352082
30
0
41
1
10
38.8705561951282
20
-0.444409308089263
30
0
41
1
10
38.8770622918876
20
-0.449657464509954
30
0
41
1
10
38.8896496168569
20
-0.460107394288059
30
0
41
1
10
38.8957094309242
20
-0.465288747801196
30
0
41
1
10
38.907302324199
20
-0.475563071336467
30
0
41
1
10
38.9128804351637
20
-0.480699236803957
30
0
41
1
10
38.9231562225433
20
-0.490642566462355
30
0
41
1
10
38.9278326211387
20
-0.495424108064697
30
0
41
1
10
38.9319551362075
20
-0.499971652622321
30
0
0
SPLINE
5
14D
100
AcDbEntity
8
1
62
256
6
ByLayer
370
18
48
1
60
0
100
AcDbSpline
70
4
71
3
72
8
73
4
40
0
40
0
40
0
40
0
40
1
40
1
40
1
40
1
41
1
10
38.9319551362075
20
-0.499971652622321
30
0
41
1
10
38.9440317714668
20
-0.51329338366051
30
0
41
1
10
38.9560810936089
20
-0.526830693096031
30
0
41
1
10
38.9681056249654
20
-0.540581738544688
30
0
0
SPLINE
5
14E
100
AcDbEntity
8
1
62
256
6
ByLayer
370
18
48
1
60
0
100
AcDbSpline
70
4
71
3
72
8
73
4
40
0
40
0
40
0
40
0
40
1
40
1
40
1
40
1
41
1
10
38.9681056249654
20
-0.540581738544688
30
0
41
1
10
39.1050417140922
20
-0.663856212698619
30
0
41
1
10
39.2391208633993
20
-0.794306676963828
30
0
41
1
10
39.3714460374546
20
-0.931176949554072
30
0
0
SPLINE
5
14F
100
AcDbEntity
8
1
62
256
6
ByLayer
370
18
48
1
60
0
100
AcDbSpline
70
4
71
3
72
10
73
6
40
0
40
0
40
0
40
0
40
0.500000000000001
40
0.500000000000001
40
1
40
1
40
1
40
1
41
1
10
39.3714460374599
20
-0.931176949553333
30
0
41
1
10
39.4018143010015
20
-0.936951512105964
30
0
41
1
10
39.432361184758
20
-0.94097436627041
30
0
41
1
10
39.4937954900196
20
-0.945460333547345
30
0
41
1
10
39.5246631126543
20
-0.945930115478291
30
0
41
1
10
39.5557307919142
20
-0.944580391128994
30
0
0
SPLINE
5
150
100
AcDbEntity
8
1
62
256
6
ByLayer
370
18
48
1
60
0
100
AcDbSpline
70
4
71
3
72
26
73
22
40
0
40
0
40
0
40
0
40
0.125000000000037
40
0.125000000000037
40
0.187500000000056
40
0.187500000000056
40
0.250000000000075
40
0.250000000000075
40
0.375000000000063
40
0.375000000000063
40
0.500000000000051
40
0.500000000000051
40
0.625000000000039
40
0.625000000000039
40
0.750000000000026
40
0.750000000000026
40
0.875000000000014
40
0.875000000000014
40
0.937500000000007
40
0.937500000000007
40
1
40
1
40
1
40
1
41
1
10
39.5557307919142
20
-0.944580391129023
30
0
41
1
10
39.5617600804519
20
-0.944318450818628
30
0
41
1
10
39.5688734411124
20
-0.945392267991139
30
0
41
1
10
39.5807765772219
20
-0.948501735579555
30
0
41
1
10
39.5849825450977
20
-0.949805956429174
30
0
41
1
10
39.5936013107979
20
-0.952833295735729
30
0
41
1
10
39.5980238162702
20
-0.954556472112671
30
0
41
1
10
39.6115932661008
20
-0.960296738921869
30
0
41
1
10
39.6210768466772
20
-0.964900046232657
30
0
41
1
10
39.6405987096037
20
-0.975463324504204
30
0
41
1
10
39.6504429078041
20
-0.98131315975715
30
0
41
1
10
39.6702502307573
20
-0.994138008886011
30
0
41
1
10
39.6803056930708
20
-1.0011896906162
30
0
41
1
10
39.6997940596187
20
-1.01605102540785
30
0
41
1
10
39.7092796312337
20
-1.02388417050469
30
0
41
1
10
39.7276346838106
20
-1.04049477892946
30
0
41
1
10
39.7365755319279
20
-1.04935881532154
30
0
41
1
10
39.7486732618377
20
-1.06282020067175
30
0
41
1
10
39.7525128309539
20
-1.06735749905829
30
0
41
1
10
39.7597475299081
20
-1.0765460940321
30
0
41
1
10
39.7631416606647
20
-1.08120131795957
30
0
41
1
10
39.7661920246215
20
-1.08580849859109
30
0
0
SPLINE
5
151
100
AcDbEntity
8
1
62
256
6
ByLayer
370
18
48
1
60
0
100
AcDbSpline
70
4
71
3
72
10
73
6
40
0
40
0
40
0
40
0
40
0.5
40
0.5
40
1
40
1
40
1
40
1
41
1
10
39.7661920246232
20
-1.08580849859092
30
0
41
1
10
39.8123243727022
20
-1.155485449792
30
0
41
1
10
39.8580178239351
20
-1.22737855505937
30
0
41
1
10
39.9488152215178
20
-1.37536594103685
30
0
41
1
10
39.9937934283564
20
-1.45121426304007
30
0
41
1
10
40.0384590085164
20
-1.52875902687845
30
0
0
SPLINE
5
152
100
AcDbEntity
8
1
62
256
6
ByLayer
370
18
48
1
60
0
100
AcDbSpline
70
4
71
3
72
10
73
6
40
0
40
0
40
0
40
0
40
0.5
40
0.5
40
1
40
1
40
1
40
1
41
1
10
40.116246589757
20
-1.58574021377666
30
0
41
1
10
40.1610868126604
20
-1.57207147234467
30
0
41
1
10
40.2063040221624
20
-1.55444920071881
30
0
41
1
10
40.2976970852409
20
-1.51125701657969
30
0
41
1
10
40.3437249340698
20
-1.48576023544345
30
0
41
1
10
40.3902418700061
20
-1.45634589140823
30
0
0
SPLINE
5
153
100
AcDbEntity
8
1
62
256
6
ByLayer
370
18
48
1
60
0
100
AcDbSpline
70
4
71
3
72
26
73
22
40
0
40
0
40
0
40
0
40
0.124999999999992
40
0.124999999999992
40
0.187500000000012
40
0.187500000000012
40
0.250000000000031
40
0.250000000000031
40
0.375000000000019
40
0.375000000000019
40
0.500000000000006
40
0.500000000000006
40
0.624999999999994
40
0.624999999999994
40
0.749999999999981
40
0.749999999999981
40
0.874999999999968
40
0.874999999999968
40
0.937499999999984
40
0.937499999999984
40
1
40
1
40
1
40
1
41
1
10
40.3902418700061
20
-1.45634589140823
30
0
41
1
10
40.3962477731382
20
-1.45254814124669
30
0
41
1
10
40.4033363483015
20
-1.45030784032804
30
0
41
1
10
40.4152083086859
20
-1.44870565806994
30
0
41
1
10
40.4194048873826
20
-1.44847498658186
30
0
41
1
10
40.4280068977308
20
-1.44858069560468
30
0
41
1
10
40.4324220814209
20
-1.44891178317116
30
0
41
1
10
40.445973345663
20
-1.45066117817069
30
0
41
1
10
40.4554541014939
20
-1.45284145856391
30
0
41
1
10
40.474960750883
20
-1.45905036514097
30
0
41
1
10
40.4847995936057
20
-1.46301174395396
30
0
41
1
10
40.504605092708
20
-1.47259690720313
30
0
41
1
10
40.5146616303619
20
-1.47828892797267
30
0
41
1
10
40.5341475458843
20
-1.49106720605974
30
0
41
1
10
40.5436389867552
20
-1.49816609961621
30
0
41
1
10
40.5620163912508
20
-1.51399950784736
30
0
41
1
10
40.5709543733418
20
-1.52281569039181
30
0
41
1
10
40.5830364116494
20
-1.53684817391743
30
0
41
1
10
40.5868707996915
20
-1.54168390181093
30
0
41
1
10
40.5940949875618
20
-1.55171989824675
30
0
41
1
10
40.597475576372
20
-1.55691422114418
30
0
41
1
10
40.6005139906896
20
-1.56219374366194
30
0
0
SPLINE
5
154
100
AcDbEntity
8
1
62
256
6
ByLayer
370
18
48
1
60
0
100
AcDbSpline
70
4
71
3
72
10
73
6
40
0
40
0
40
0
40
0
40
0.5
40
0.5
40
1
40
1
40
1
40
1
41
1
10
40.6005139906927
20
-1.56219374366393
30
0
41
1
10
40.6466404866253
20
-1.64234274525364
30
0
41
1
10
40.6923271183448
20
-1.72358893699979
30
0
41
1
10
40.7830882134474
20
-1.88811976676308
30
0
41
1
10
40.8280203716888
20
-1.97114772781262
30
0
41
1
10
40.8726027016185
20
-2.0548085655775
30
0
0
SPLINE
5
155
100
AcDbEntity
8
1
62
256
6
ByLayer
370
18
48
1
60
0
100
AcDbSpline
70
4
71
3
72
10
73
6
40
0
40
0
40
0
40
0
40
0.5
40
0.5
40
1
40
1
40
1
40
1
41
1
10
40.9503934320251
20
-2.09419011364878
30
0
41
1
10
40.9953316041215
20
-2.05448054543805
30
0
41
1
10
41.0406016127681
20
-2.01154115938098
30
0
41
1
10
41.1320133227831
20
-1.91915713669658
30
0
41
1
10
41.1780222580371
20
-1.86982644225853
30
0
41
1
10
41.2245737088492
20
-1.81698436811897
30
0
0
SPLINE
5
156
100
AcDbEntity
8
1
62
256
6
ByLayer
370
18
48
1
60
0
100
AcDbSpline
70
4
71
3
72
26
73
22
40
0
40
0
40
0
40
0
40
0.125000000000076
40
0.125000000000076
40
0.187500000000114
40
0.187500000000114
40
0.250000000000153
40
0.250000000000153
40
0.375000000000128
40
0.375000000000128
40
0.500000000000102
40
0.500000000000102
40
0.625000000000077
40
0.625000000000077
40
0.750000000000052
40
0.750000000000052
40
0.875000000000027
40
0.875000000000027
40
0.937500000000013
40
0.937500000000013
40
1
40
1
40
1
40
1
41
1
10
41.2245737088492
20
-1.81698436811894
30
0
41
1
10
41.2305991598751
20
-1.8101446816155
30
0
41
1
10
41.2377060680867
20
-1.80495894279912
30
0
41
1
10
41.24959707343
20
-1.79903625726232
30
0
41
1
10
41.253798528935
20
-1.79737391576447
30
0
41
1
10
41.2624080108224
20
-1.794706858155
30
0
41
1
10
41.2668257467901
20
-1.7936922636311
30
0
41
1
10
41.2803812894738
20
-1.79151190215055
30
0
41
1
10
41.2898563447028
20
-1.79120181542905
30
0
41
1
10
41.3093632873672
20
-1.79273076213258
30
0
41
1
10
41.3191999043869
20
-1.79454603196152
30
0
41
1
10
41.3389960823966
20
-1.80019254659214
30
0
41
1
10
41.3490494590502
20
-1.8040806505083
30
0
41
1
10
41.3685435145986
20
-1.81375699682849
30
0
41
1
10
41.3780359653121
20
-1.81953743464376
30
0
41
1
10
41.3964131249394
20
-1.83324079254476
30
0
41
1
10
41.405369206489
20
-1.84126421834398
30
0
41
1
10
41.417478862396
20
-1.85466814798764
30
0
41
1
10
41.4213207797282
20
-1.85938223445092
30
0
41
1
10
41.4285567923457
20
-1.86937706659597
30
0
41
1
10
41.4319505655946
20
-1.87466639962088
30
0
41
1
10
41.4349996218833
20
-1.88016136310105
30
0
0
SPLINE
5
157
100
AcDbEntity
8
1
62
256
6
ByLayer
370
18
48
1
60
0
100
AcDbSpline
70
4
71
3
72
10
73
6
40
0
40
0
40
0
40
0
40
0.5
40
0.5
40
1
40
1
40
1
40
1
41
1
10
41.4349996218848
20
-1.88016136310296
30
0
41
1
10
41.4811089575805
20
-1.96325891584266
30
0
41
1
10
41.526788652877
20
-2.04616552959717
30
0
41
1
10
41.6175697251208
20
-2.21146848410817
30
0
41
1
10
41.6625389525022
20
-2.29362479427283
30
0
41
1
10
41.70718787922
20
-2.37518104260243
30
0
0
SPLINE
5
158
100
AcDbEntity
8
1
62
256
6
ByLayer
370
18
48
1
60
0
100
AcDbSpline
70
4
71
3
72
10
73
6
40
0
40
0
40
0
40
0
40
0.5
40
0.5
40
1
40
1
40
1
40
1
41
1
10
41.7849734979486
20
-2.39263234491475
30
0
41
1
10
41.8298213919897
20
-2.33060970019193
30
0
41
1
10
41.8750271065387
20
-2.26611093075229
30
0
41
1
10
41.9663522934868
20
-2.13231825458334
30
0
41
1
10
42.0123341650348
20
-2.06322597280598
30
0
41
1
10
42.0587820264116
20
-1.99196429319102
30
0
0
SPLINE
5
159
100
AcDbEntity
8
1
62
256
6
ByLayer
370
18
48
1
60
0
100
AcDbSpline
70
4
71
3
72
27
73
23
40
0
40
0
40
0
40
0
40
0.124999999999869
40
0.124999999999869
40
0.18749999999985
40
0.18749999999985
40
0.24999999999983
40
0.24999999999983
40
0.374999999999893
40
0.374999999999893
40
0.499999999999956
40
0.499999999999956
40
0.62500000000002
40
0.62500000000002
40
0.750000000000083
40
0.750000000000083
40
0.812500000000062
40
0.812500000000062
40
0.875000000000041
40
0.937500000000021
40
0.937500000000021
40
1
40
1
40
1
40
1
41
1
10
42.0587820264116
20
-1.99196429319102
30
0
41
1
10
42.0648046921679
20
-1.982724141657
30
0
41
1
10
42.0719164750705
20
-1.97503806845961
30
0
41
1
10
42.0838278689303
20
-1.96526993255563
30
0
41
1
10
42.0880380479544
20
-1.96230167262962
30
0
41
1
10
42.0966623916827
20
-1.95705260592882
30
0
41
1
10
42.1010885075962
20
-1.95475662474976
30
0
41
1
10
42.114669503037
20
-1.94875902902382
30
0
41
1
10
42.1241735183052
20
-1.94592727331039
30
0
41
1
10
42.143692683735
20
-1.94251495939017
30
0
41
1
10
42.1535351388816
20
-1.94195355517681
30
0
41
1
10
42.1733406683449
20
-1.94301102854206
30
0
41
1
10
42.18338705592
20
-1.94466741179221
30
0
41
1
10
42.2028404044111
20
-1.95017637296556
30
0
41
1
10
42.2123176976848
20
-1.9540116990558
30
0
41
1
10
42.2260818143595
20
-1.9615991422761
30
0
41
1
10
42.2306190174107
20
-1.96445588442896
30
0
41
1
10
42.239393391074
20
-1.97079050677732
30
0
41
1
10
42.2478159575699
20
-1.97769915810542
30
0
41
1
10
42.2554740429004
20
-1.98585251210085
30
0
41
1
10
42.2626921939831
20
-1.99472381796582
30
0
41
1
10
42.2660693932373
20
-1.99951286324062
30
0
41
1
10
42.2691071343621
20
-2.00460731035477
30
0
0
SPLINE
5
15A
100
AcDbEntity
8
1
62
256
6
ByLayer
370
18
48
1
60
0
100
AcDbSpline
70
4
71
3
72
12
73
8
40
0
40
0
40
0
40
0
40
0.499999999999983
40
0.499999999999983
40
0.749999999999991
40
0.749999999999991
40
1
40
1
40
1
40
1
41
1
10
42.2691071343684
20
-2.004607310366
30
0
41
1
10
42.315335445855
20
-2.08213455130908
30
0
41
1
10
42.3611016629053
20
-2.1581696258711
30
0
41
1
10
42.4292643422993
20
-2.26988987459293
30
0
41
1
10
42.4518711700889
20
-2.30668776602767
30
0
41
1
10
42.4968373103751
20
-2.37928045236106
30
0
41
1
10
42.5191995902998
20
-2.41507622630934
30
0
41
1
10
42.5414869815755
20
-2.45043827709881
30
0
0
SPLINE
5
15B
100
AcDbEntity
8
1
62
256
6
ByLayer
370
18
48
1
60
0
100
AcDbSpline
70
4
71
3
72
8
73
4
40
0
40
0
40
0
40
0
40
1
40
1
40
1
40
1
41
1
10
42.6194434583269
20
-2.44449636273458
30
0
41
1
10
42.593399875225
20
-2.44685302737471
30
0
41
1
10
42.5674130972084
20
-2.44883444844004
30
0
41
1
10
42.5414869815752
20
-2.45043827709912
30
0
0
SPLINE
5
15C
100
AcDbEntity
8
1
62
256
6
ByLayer
370
18
48
1
60
0
100
AcDbSpline
70
4
71
3
72
10
73
6
40
0
40
0
40
0
40
0
40
0.5
40
0.5
40
1
40
1
40
1
40
1
41
1
10
42.6194434583269
20
-2.44449636273458
30
0
41
1
10
42.6642287203414
20
-2.36705160383468
30
0
41
1
10
42.7094105471431
20
-2.28812185317224
30
0
41
1
10
42.8007675423485
20
-2.12758449253317
30
0
41
1
10
42.8467934773841
20
-2.04623906001288
30
0
41
1
10
42.8933217034015
20
-1.96388640286767
30
0
0
SPLINE
5
15D
100
AcDbEntity
8
1
62
256
6
ByLayer
370
18
48
1
60
0
100
AcDbSpline
70
4
71
3
72
28
73
24
40
0
40
0
40
0
40
0
40
0.124999999999817
40
0.124999999999817
40
0.18749999999977
40
0.18749999999977
40
0.249999999999724
40
0.249999999999724
40
0.374999999999735
40
0.374999999999735
40
0.499999999999746
40
0.499999999999746
40
0.624999999999757
40
0.624999999999757
40
0.749999999999769
40
0.749999999999769
40
0.812499999999826
40
0.812499999999826
40
0.874999999999884
40
0.874999999999884
40
0.937499999999942
40
0.937499999999942
40
1
40
1
40
1
40
1
41
1
10
42.8933217034015
20
-1.96388640286767
30
0
41
1
10
42.8993415885433
20
-1.95323150412
30
0
41
1
10
42.9064487585447
20
-1.94387602609652
30
0
41
1
10
42.918351590703
20
-1.93131697897408
30
0
41
1
10
42.9225586178969
20
-1.92736286911091
30
0
41
1
10
42.9311766850118
20
-1.92009445353949
30
0
41
1
10
42.9355995747249
20
-1.91676224660321
30
0
41
1
10
42.9491728137717
20
-1.90758153486252
30
0
41
1
10
42.9586726696402
20
-1.90251846406369
30
0
41
1
10
42.978185578587
20
-1.89450322923864
30
0
41
1
10
42.9880261254895
20
-1.89161081739516
30
0
41
1
10
43.0078323623857
20
-1.88793709304033
30
0
41
1
10
43.0178820667224
20
-1.88717284528599
30
0
41
1
10
43.0373431612095
20
-1.8879300124253
30
0
41
1
10
43.0468238303179
20
-1.88941769727526
30
0
41
1
10
43.0605929987795
20
-1.89351942629017
30
0
41
1
10
43.0651323484683
20
-1.89521414729737
30
0
41
1
10
43.0739098966627
20
-1.89926991384618
30
0
41
1
10
43.07812224176
20
-1.90161422351119
30
0
41
1
10
43.0861633420344
20
-1.90698813583282
30
0
41
1
10
43.0899925543124
20
-1.91001687756614
30
0
41
1
10
43.0972094492151
20
-1.91686446981163
30
0
41
1
10
43.1005854873716
20
-1.92068028934742
30
0
41
1
10
43.1036218211214
20
-1.92486733394
30
0
0
SPLINE
5
15E
100
AcDbEntity
8
1
62
256
6
ByLayer
370
18
48
1
60
0
100
AcDbSpline
70
4
71
3
72
10
73
6
40
0
40
0
40
0
40
0
40
0.5
40
0.5
40
1
40
1
40
1
40
1
41
1
10
43.1036218211238
20
-1.92486733394452
30
0
41
1
10
43.1497297501409
20
-1.98844926228048
30
0
41
1
10
43.1954077518147
20
-2.04952845303009
30
0
41
1
10
43.2861830275023
20
-2.16665970360475
30
0
41
1
10
43.3311441745954
20
-2.22253578769661
30
0
41
1
10
43.3757723759301
20
-2.27567077051126
30
0
0
SPLINE
5
15F
100
AcDbEntity
8
1
62
256
6
ByLayer
370
18
48
1
60
0
100
AcDbSpline
70
4
71
3
72
8
73
4
40
0
40
0
40
0
40
0
40
1
40
1
40
1
40
1
41
1
10
43.4537312939184
20
-2.24720157906569
30
0
41
1
10
43.4277401591929
20
-2.25703608748833
30
0
41
1
10
43.4017532712745
20
-2.2665248381395
30
0
41
1
10
43.37577237593
20
-2.27567077051143
30
0
0
SPLINE
5
160
100
AcDbEntity
8
1
62
256
6
ByLayer
370
18
48
1
60
0
100
AcDbSpline
70
4
71
3
72
10
73
6
40
0
40
0
40
0
40
0
40
0.5
40
0.5
40
1
40
1
40
1
40
1
41
1
10
43.4537312939184
20
-2.24720157906569
30
0
41
1
10
43.4986078986625
20
-2.16211576961331
30
0
41
1
10
43.5438172610061
20
-2.07687697915532
30
0
41
1
10
43.6351076152663
20
-1.90636754648219
30
0
41
1
10
43.6810568353312
20
-1.82134184505085
30
0
41
1
10
43.7274614141149
20
-1.73662851078427
30
0
0
SPLINE
5
161
100
AcDbEntity
8
1
62
256
6
ByLayer
370
18
48
1
60
0
100
AcDbSpline
70
4
71
3
72
22
73
18
40
0
40
0
40
0
40
0
40
0.162281611166935
40
0.162281611166935
40
0.24342241675046
40
0.24342241675046
40
0.324563222333984
40
0.324563222333984
40
0.486844833501035
40
0.486844833501035
40
0.649126444668085
40
0.649126444668085
40
0.811408055835135
40
0.811408055835135
40
0.973689667002186
40
0.973689667002186
40
1
40
1
40
1
40
1
41
1
10
43.7274614141178
20
-1.73662851078089
30
0
41
1
10
43.7335100290926
20
-1.72558653269198
30
0
41
1
10
43.7406511159274
20
-1.71546815662586
30
0
41
1
10
43.7526018680367
20
-1.70133659214386
30
0
41
1
10
43.756824052466
20
-1.69678116536619
30
0
41
1
10
43.7654668740966
20
-1.6882025847994
30
0
41
1
10
43.7699008483022
20
-1.6841591522448
30
0
41
1
10
43.7835012530055
20
-1.67268932688572
30
0
41
1
10
43.7930128949408
20
-1.66588430182395
30
0
41
1
10
43.8125299908793
20
-1.65402706464101
30
0
41
1
10
43.8223675593315
20
-1.64906628086334
30
0
41
1
10
43.842158311781
20
-1.64095766725157
30
0
41
1
10
43.8521942311346
20
-1.63780401207242
30
0
41
1
10
43.8716322701743
20
-1.63362219443809
30
0
41
1
10
43.8811026858154
20
-1.63254848347231
30
0
41
1
10
43.8917596995329
20
-1.63262070524499
30
0
41
1
10
43.8932399048308
20
-1.63266173539827
30
0
41
1
10
43.8947109083235
20
-1.63273448139989
30
0
0
SPLINE
5
162
100
AcDbEntity
8
1
62
256
6
ByLayer
370
18
48
1
60
0
100
AcDbSpline
70
4
71
3
72
8
73
4
40
0
40
0
40
0
40
0
40
1
40
1
40
1
40
1
41
1
10
44.2883445717385
20
-1.8169362762383
30
0
41
1
10
44.3065661743398
20
-1.78287578762598
30
0
41
1
10
44.3248485852318
20
-1.74900275186067
30
0
41
1
10
44.3431984740554
20
-1.71532769103851
30
0
0
SPLINE
5
163
100
AcDbEntity
8
1
62
256
6
ByLayer
370
18
48
1
60
0
100
AcDbSpline
70
4
71
3
72
8
73
4
40
0
40
0
40
0
40
0
40
1
40
1
40
1
40
1
41
1
10
47.7987832394287
20
-0.526900600767391
30
0
41
1
10
47.7498579986841
20
-0.448387494796123
30
0
41
1
10
47.7005934449468
20
-0.373102672986875
30
0
41
1
10
47.650986748498
20
-0.301380861161505
30
0
0
SPLINE
5
164
100
AcDbEntity
8
1
62
256
6
ByLayer
370
18
48
1
60
0
100
AcDbSpline
70
4
71
3
72
28
73
24
40
0
40
0
40
0
40
0
40
0.125000000000066
40
0.125000000000066
40
0.250000000000131
40
0.250000000000131
40
0.375000000000197
40
0.375000000000197
40
0.437500000000177
40
0.437500000000177
40
0.500000000000158
40
0.500000000000158
40
0.62500000000012
40
0.62500000000012
40
0.6875000000001
40
0.6875000000001
40
0.750000000000081
40
0.750000000000081
40
0.875000000000041
40
0.875000000000041
40
0.93750000000002
40
0.93750000000002
40
1
40
1
40
1
40
1
41
1
10
47.6509867484978
20
-0.301380861159487
30
0
41
1
10
47.6453770422137
20
-0.293270296914898
30
0
41
1
10
47.6388560081068
20
-0.285032837559754
30
0
41
1
10
47.6243693205273
20
-0.268367547895139
30
0
41
1
10
47.6163219882339
20
-0.259869140829466
30
0
41
1
10
47.5993866286767
20
-0.243205294294455
30
0
41
1
10
47.5904678215096
20
-0.23499827679899
30
0
41
1
10
47.5764360495672
20
-0.2228548712894
30
0
41
1
10
47.5716400140562
20
-0.218828866415691
30
0
41
1
10
47.5620007332586
20
-0.210973336595714
30
0
41
1
10
47.557137138804
20
-0.207125634368424
30
0
41
1
10
47.542419603111
20
-0.195817342381389
30
0
41
1
10
47.5324412506889
20
-0.188587103631647
30
0
41
1
10
47.5172086938555
20
-0.17825000594928
30
0
41
1
10
47.5120902348678
20
-0.174894590840694
30
0
41
1
10
47.5020153260136
20
-0.16853536232378
30
0
41
1
10
47.4970284316873
20
-0.165510428477802
30
0
41
1
10
47.4822446259612
20
-0.156941840595039
30
0
41
1
10
47.4725398852252
20
-0.151865587896225
30
0
41
1
10
47.4593992868173
20
-0.146015214219148
30
0
41
1
10
47.4552013060062
20
-0.144333568147232
30
0
41
1
10
47.4473907318348
20
-0.141667468121739
30
0
41
1
10
47.4438296007567
20
-0.140698684103199
30
0
41
1
10
47.4406510398972
20
-0.140139613021518
30
0
0
SPLINE
5
165
100
AcDbEntity
8
1
62
256
6
ByLayer
370
18
48
1
60
0
100
AcDbSpline
70
4
71
3
72
10
73
6
40
0
40
0
40
0
40
0
40
0.5
40
0.5
40
1
40
1
40
1
40
1
41
1
10
47.4406510398968
20
-0.14013961302058
30
0
41
1
10
47.3958112801369
20
-0.132252832147088
30
0
41
1
10
47.351166731405
20
-0.120298867189433
30
0
41
1
10
47.2623195317107
20
-0.0886219053618333
30
0
41
1
10
47.218153573441
20
-0.0689340071409674
30
0
41
1
10
47.1742867428953
20
-0.0456210002498665
30
0
0
SPLINE
5
166
100
AcDbEntity
8
1
62
256
6
ByLayer
370
18
48
1
60
0
100
AcDbSpline
70
4
71
3
72
10
73
6
40
0
40
0
40
0
40
0
40
0.5
40
0.5
40
1
40
1
40
1
40
1
41
1
10
47.0962186727525
20
0.0282721818463756
30
0
41
1
10
47.0502241915439
20
0.0879372170780925
30
0
41
1
10
47.0039222806279
20
0.144082059700281
30
0
41
1
10
46.9106530531334
20
0.248830574706403
30
0
41
1
10
46.8637272788195
20
0.297419135400162
30
0
41
1
10
46.8164939016852
20
0.341883110895964
30
0
0
SPLINE
5
167
100
AcDbEntity
8
1
62
256
6
ByLayer
370
18
48
1
60
0
100
AcDbSpline
70
4
71
3
72
28
73
24
40
0
40
0
40
0
40
0
40
0.124999999999964
40
0.124999999999964
40
0.249999999999926
40
0.249999999999926
40
0.374999999999888
40
0.374999999999888
40
0.437499999999921
40
0.437499999999921
40
0.499999999999954
40
0.499999999999954
40
0.62500000000002
40
0.62500000000002
40
0.687500000000053
40
0.687500000000053
40
0.750000000000087
40
0.750000000000087
40
0.875000000000044
40
0.875000000000044
40
0.937500000000022
40
0.937500000000022
40
1
40
1
40
1
40
1
41
1
10
46.8164939016852
20
0.34188311089568
30
0
41
1
10
46.8108836310074
20
0.347164438488136
30
0
41
1
10
46.804365200606
20
0.352944016298551
30
0
41
1
10
46.7898887638355
20
0.365271617268633
30
0
41
1
10
46.7818506576307
20
0.371882545463421
30
0
41
1
10
46.7649369636646
20
0.385425155613064
30
0
41
1
10
46.756030187335
20
0.392385115521421
30
0
41
1
10
46.7420159112998
20
0.403120087965334
30
0
41
1
10
46.7372251218131
20
0.406755163347185
30
0
41
1
10
46.7275944767076
20
0.414002811557879
30
0
41
1
10
46.7227345350912
20
0.417630925776336
30
0
41
1
10
46.7080253735839
20
0.428537891583261
30
0
41
1
10
46.6980489616368
20
0.435838286967055
30
0
41
1
10
46.6828140136494
20
0.446885269772452
30
0
41
1
10
46.6776879967377
20
0.450585203327762
30
0
41
1
10
46.667597238689
20
0.457843400617065
30
0
41
1
10
46.6626018161631
20
0.461423903286629
30
0
41
1
10
46.6477914579182
20
0.472015693069238
30
0
41
1
10
46.6380625805788
20
0.478944770965995
30
0
41
1
10
46.6248841593979
20
0.488330678071435
30
0
41
1
10
46.6206744341571
20
0.49132853515431
30
0
41
1
10
46.6128384712415
20
0.49690463646445
30
0
41
1
10
46.6092663117447
20
0.499444071441559
30
0
41
1
10
46.6060788696145
20
0.501703618582326
30
0
0
SPLINE
5
168
100
AcDbEntity
8
1
62
256
6
ByLayer
370
18
48
1
60
0
100
AcDbSpline
70
4
71
3
72
12
73
8
40
0
40
0
40
0
40
0
40
0.25
40
0.25
40
0.5
40
0.5
40
1
40
1
40
1
40
1
41
1
10
46.6060788696146
20
0.501703618582326
30
0
41
1
10
46.5836617183879
20
0.517594921982266
30
0
41
1
10
46.561301988068
20
0.534376582278355
30
0
41
1
10
46.5166779110877
20
0.56962085181928
30
0
41
1
10
46.4944147641969
20
0.588104550317667
30
0
41
1
10
46.4277530638707
20
0.646288786669487
30
0
41
1
10
46.3836372785345
20
0.688525997731261
30
0
41
1
10
46.3397824632679
20
0.734024720666127
30
0
0
SPLINE
5
169
100
AcDbEntity
8
1
62
256
6
ByLayer
370
18
48
1
60
0
100
AcDbSpline
70
4
71
3
72
10
73
6
40
0
40
0
40
0
40
0
40
0.5
40
0.5
40
1
40
1
40
1
40
1
41
1
10
46.2617312766974
20
0.803868925770757
30
0
41
1
10
46.2157667361701
20
0.836396230093669
30
0
41
1
10
46.1694889776128
20
0.864777941860325
30
0
41
1
10
46.0762618215507
20
0.912969508184801
30
0
41
1
10
46.0293478986983
20
0.932777587813803
30
0
41
1
10
45.9821405722916
20
0.948091519552378
30
0
0
SPLINE
5
16A
100
AcDbEntity
8
1
62
256
6
ByLayer
370
18
48
1
60
0
100
AcDbSpline
70
4
71
3
72
28
73
24
40
0
40
0
40
0
40
0
40
0.125000000000065
40
0.125000000000065
40
0.250000000000131
40
0.250000000000131
40
0.375000000000196
40
0.375000000000196
40
0.437500000000177
40
0.437500000000177
40
0.500000000000158
40
0.500000000000158
40
0.625000000000117
40
0.625000000000117
40
0.687500000000097
40
0.687500000000097
40
0.750000000000077
40
0.750000000000077
40
0.875000000000038
40
0.875000000000038
40
0.937500000000019
40
0.937500000000019
40
1
40
1
40
1
40
1
41
1
10
45.9821405722889
20
0.948091519557607
30
0
41
1
10
45.9765261409962
20
0.949912826208703
30
0
41
1
10
45.9700018182334
20
0.952554286916779
30
0
41
1
10
45.9555107595509
20
0.95910953444627
30
0
41
1
10
45.9474632719598
20
0.963073447140744
30
0
41
1
10
45.9305316094261
20
0.971951119927553
30
0
41
1
10
45.9216170122139
20
0.976874507537019
30
0
41
1
10
45.9075940928276
20
0.984991733111912
30
0
41
1
10
45.9028016720583
20
0.98782677625411
30
0
41
1
10
45.8931690174498
20
0.993652308267286
30
0
41
1
10
45.8883084813607
20
0.996654295432421
30
0
41
1
10
45.8735986386206
20
1.00594165054559
30
0
41
1
10
45.8636231865114
20
1.01250212208748
30
0
41
1
10
45.8483920186665
20
1.0230414805701
30
0
41
1
10
45.8432711356461
20
1.02667314332652
30
0
41
1
10
45.8331906258987
20
1.03402441243398
30
0
41
1
10
45.8282004763723
20
1.03776458886375
30
0
41
1
10
45.8134065397114
20
1.04921281015012
30
0
41
1
10
45.8036917747815
20
1.05723093692919
30
0
41
1
10
45.7905309073069
20
1.06912741910347
30
0
41
1
10
45.7863257577062
20
1.07311684091999
30
0
41
1
10
45.7785001756704
20
1.0810002354734
30
0
41
1
10
45.7749321683351
20
1.08483916099894
30
0
41
1
10
45.771747830382
20
1.08856119156127
30
0
0
SPLINE
5
16B
100
AcDbEntity
8
1
62
256
6
ByLayer
370
18
48
1
60
0
100
AcDbSpline
70
4
71
3
72
10
73
6
40
0
40
0
40
0
40
0
40
0.5
40
0.5
40
1
40
1
40
1
40
1
41
1
10
45.7717478303818
20
1.08856119156158
30
0
41
1
10
45.7269003352036
20
1.14098142777959
30
0
41
1
10
45.6822591595487
20
1.19637214513898
30
0
41
1
10
45.5933930999388
20
1.3126959054122
30
0
41
1
10
45.549222633989
20
1.37354760225114
30
0
41
1
10
45.5053678034968
20
1.43678054443723
30
0
0
SPLINE
5
16C
100
AcDbEntity
8
1
62
256
6
ByLayer
370
18
48
1
60
0
100
AcDbSpline
70
4
71
3
72
12
73
8
40
0
40
0
40
0
40
0
40
0.5
40
0.5
40
0.75
40
0.75
40
1
40
1
40
1
40
1
41
1
10
45.4272672333152
20
1.49630381725191
30
0
41
1
10
45.381344788369
20
1.49917794531549
30
0
41
1
10
45.3351218777374
20
1.49772899363162
30
0
41
1
10
45.2652586897084
20
1.48882928263129
30
0
41
1
10
45.241878582109
20
1.48470938247084
30
0
41
1
10
45.1948792683954
20
1.47390050926899
30
0
41
1
10
45.1712838443516
20
1.46726797674785
30
0
41
1
10
45.1475980199186
20
1.45949768323601
30
0
0
SPLINE
5
16D
100
AcDbEntity
8
1
62
256
6
ByLayer
370
18
48
1
60
0
100
AcDbSpline
70
4
71
3
72
28
73
24
40
0
40
0
40
0
40
0
40
0.125000000000058
40
0.125000000000058
40
0.250000000000117
40
0.250000000000117
40
0.375000000000175
40
0.375000000000175
40
0.437500000000203
40
0.437500000000203
40
0.500000000000231
40
0.500000000000231
40
0.625000000000174
40
0.625000000000174
40
0.687500000000145
40
0.687500000000145
40
0.750000000000116
40
0.750000000000116
40
0.875000000000058
40
0.875000000000058
40
0.937500000000029
40
0.937500000000029
40
1
40
1
40
1
40
1
41
1
10
45.1475980199185
20
1.45949768323598
30
0
41
1
10
45.1419950337574
20
1.45765958605944
30
0
41
1
10
45.1354817154006
20
1.45686602652302
30
0
41
1
10
45.1210043422978
20
1.45691052396191
30
0
41
1
10
45.1129577829164
20
1.45777941451311
30
0
41
1
10
45.0960180738321
20
1.46099529956254
30
0
41
1
10
45.0870964416963
20
1.46333118579034
30
0
41
1
10
45.0730603444344
20
1.46792930400338
30
0
41
1
10
45.0682619441053
20
1.4696515614078
30
0
41
1
10
45.05861790246
20
1.47341457929255
30
0
41
1
10
45.0537519489795
20
1.47546132727368
30
0
41
1
10
45.0390269364667
20
1.4821138558886
30
0
41
1
10
45.0290427448733
20
1.48722111194147
30
0
41
1
10
45.013802725065
20
1.4961142413872
30
0
41
1
10
45.0086835470197
20
1.49928659616305
30
0
41
1
10
44.9986094977804
20
1.50593956646176
30
0
41
1
10
44.9936242226134
20
1.50943707885409
30
0
41
1
10
44.9788496315932
20
1.52050965278414
30
0
41
1
10
44.9691575740861
20
1.52875304693839
30
0
41
1
10
44.9560384860046
20
1.54187291297936
30
0
41
1
10
44.9518481406142
20
1.54642114871001
30
0
41
1
10
44.9440528133031
20
1.55575627109138
30
0
41
1
10
44.9404990998954
20
1.56047731978492
30
0
41
1
10
44.9373271736352
20
1.56525607070026
30
0
0
SPLINE
5
16E
100
AcDbEntity
8
1
62
256
6
ByLayer
370
18
48
1
60
0
100
AcDbSpline
70
4
71
3
72
10
73
6
40
0
40
0
40
0
40
0
40
0.5
40
0.5
40
1
40
1
40
1
40
1
41
1
10
44.9373271736352
20
1.56525607070026
30
0
41
1
10
44.892476311285
20
1.63282734503895
30
0
41
1
10
44.8478341656831
20
1.70241228949291
30
0
41
1
10
44.7589756683756
20
1.84509911194979
30
0
41
1
10
44.714812756767
20
1.91811079465975
30
0
41
1
10
44.6709608597203
20
1.99241527998555
30
0
0
SPLINE
5
16F
100
AcDbEntity
8
1
62
256
6
ByLayer
370
18
48
1
60
0
100
AcDbSpline
70
4
71
3
72
8
73
4
40
0
40
0
40
0
40
0
40
1
40
1
40
1
40
1
41
1
10
44.5928522874696
20
2.03471179477049
30
0
41
1
10
44.6188924387394
20
2.02091256378461
30
0
41
1
10
44.6449258800237
20
2.0068118256458
30
0
41
1
10
44.6709608597203
20
1.99241527998549
30
0
0
SPLINE
5
170
100
AcDbEntity
8
1
62
256
6
ByLayer
370
18
48
1
60
0
100
AcDbSpline
70
4
71
3
72
10
73
6
40
0
40
0
40
0
40
0
40
0.5
40
0.5
40
1
40
1
40
1
40
1
41
1
10
44.5928522874696
20
2.03471179477049
30
0
41
1
10
44.5468769840462
20
2.00692955632201
30
0
41
1
10
44.500605225431
20
1.97507436279858
30
0
41
1
10
44.4073792306071
20
1.9032037752759
30
0
41
1
10
44.3604596035776
20
1.86322342175924
30
0
41
1
10
44.3132311758404
20
1.81925112239546
30
0
0
SPLINE
5
171
100
AcDbEntity
8
1
62
256
6
ByLayer
370
18
48
1
60
0
100
AcDbSpline
70
4
71
3
72
28
73
24
40
0
40
0
40
0
40
0
40
0.124999999999985
40
0.124999999999985
40
0.24999999999997
40
0.24999999999997
40
0.374999999999956
40
0.374999999999956
40
0.437499999999949
40
0.437499999999949
40
0.499999999999942
40
0.499999999999942
40
0.624999999999927
40
0.624999999999927
40
0.687499999999919
40
0.687499999999919
40
0.749999999999911
40
0.749999999999911
40
0.875000000000004
40
0.875000000000004
40
0.937500000000002
40
0.937500000000002
40
1
40
1
40
1
40
1
41
1
10
44.31323117584
20
1.81925112239549
30
0
41
1
10
44.3076164844657
20
1.81402353168852
30
0
41
1
10
44.3010925556219
20
1.80997848982949
30
0
41
1
10
44.2866012440314
20
1.80373300062865
30
0
41
1
10
44.278552763968
20
1.80154183594016
30
0
41
1
10
44.2616179223254
20
1.7990124977589
30
0
41
1
10
44.2527007860121
20
1.79864515522561
30
0
41
1
10
44.2386752219792
20
1.79943299847275
30
0
41
1
10
44.2338819839507
20
1.79992458971836
30
0
41
1
10
44.2242477416388
20
1.80135323349757
30
0
41
1
10
44.2193864456867
20
1.80229049157373
30
0
41
1
10
44.2046743033884
20
1.80578855031518
30
0
41
1
10
44.1946971558753
20
1.80902146839256
30
0
41
1
10
44.1794646481474
20
1.81549977750726
30
0
41
1
10
44.1743434681118
20
1.81793798882569
30
0
41
1
10
44.1642630606269
20
1.82330821087859
30
0
41
1
10
44.1592733789658
20
1.82625179960226
30
0
41
1
10
44.144481448098
20
1.83595236563156
30
0
41
1
10
44.1347676221316
20
1.84367069419579
30
0
41
1
10
44.1216059404294
20
1.85681772930224
30
0
41
1
10
44.1174005846812
20
1.86150852104134
30
0
41
1
10
44.1095728239445
20
1.87144344905138
30
0
41
1
10
44.1060036925976
20
1.87661384165821
30
0
41
1
10
44.1028183053567
20
1.8820097742753
30
0
0
SPLINE
5
172
100
AcDbEntity
8
1
62
256
6
ByLayer
370
18
48
1
60
0
100
AcDbSpline
70
4
71
3
72
12
73
8
40
0
40
0
40
0
40
0
40
0.50000000000002
40
0.50000000000002
40
0.75000000000001
40
0.75000000000001
40
1
40
1
40
1
40
1
41
1
10
44.1028183053558
20
1.88200977427587
30
0
41
1
10
44.0579691631343
20
1.95798262500577
30
0
41
1
10
44.0133169724324
20
2.03471482244856
30
0
41
1
10
43.9466964901669
20
2.15055340774143
30
0
41
1
10
43.9245538049148
20
2.18927185979305
30
0
41
1
10
43.8803835660752
20
2.2668348312576
30
0
41
1
10
43.8583728020796
20
2.30566028751792
30
0
41
1
10
43.8364351127758
20
2.34452919702312
30
0
0
SPLINE
5
173
100
AcDbEntity
8
1
62
256
6
ByLayer
370
18
48
1
60
0
100
AcDbSpline
70
4
71
3
72
10
73
6
40
0
40
0
40
0
40
0
40
0.5
40
0.5
40
1
40
1
40
1
40
1
41
1
10
43.7583449123506
20
2.36537858446209
30
0
41
1
10
43.7124374400209
20
2.31007553294944
30
0
41
1
10
43.6661909909638
20
2.25128149047316
30
0
41
1
10
43.5729881214556
20
2.12700270342432
30
0
41
1
10
43.5260657248195
20
2.06157632433963
30
0
41
1
10
43.4788426459566
20
1.99311493732563
30
0
0
SPLINE
5
174
100
AcDbEntity
8
1
62
256
6
ByLayer
370
18
48
1
60
0
100
AcDbSpline
70
4
71
3
72
28
73
24
40
0
40
0
40
0
40
0
40
0.125000000000023
40
0.125000000000023
40
0.250000000000046
40
0.250000000000046
40
0.375000000000069
40
0.375000000000069
40
0.437500000000028
40
0.437500000000028
40
0.499999999999988
40
0.499999999999988
40
0.624999999999907
40
0.624999999999907
40
0.687499999999922
40
0.687499999999922
40
0.749999999999938
40
0.749999999999938
40
0.874999999999969
40
0.874999999999969
40
0.937499999999985
40
0.937499999999985
40
1
40
1
40
1
40
1
41
1
10
43.4788426459566
20
1.99311493732543
30
0
41
1
10
43.4732263312208
20
1.98497271733515
30
0
41
1
10
43.4666981449386
20
1.9780198591076
30
0
41
1
10
43.4521939956294
20
1.96597794169065
30
0
41
1
10
43.4441354687044
20
1.96087452573408
30
0
41
1
10
43.4271792287678
20
1.95271554766393
30
0
41
1
10
43.4182516004853
20
1.94961500663888
30
0
41
1
10
43.4042120311272
20
1.94641739775176
30
0
41
1
10
43.3994151615212
20
1.94559810267518
30
0
41
1
10
43.3897754422767
20
1.94448940183631
30
0
41
1
10
43.3849120312475
20
1.94419419782764
30
0
41
1
10
43.3701953160755
20
1.94410231140964
30
0
41
1
10
43.3602174229098
20
1.94508331576603
30
0
41
1
10
43.3449876933877
20
1.94841988085793
30
0
41
1
10
43.3398734535538
20
1.94985033173782
30
0
41
1
10
43.3298066888549
20
1.95333964798618
30
0
41
1
10
43.324824182359
20
1.95540363636036
30
0
41
1
10
43.3100544436161
20
1.96266499417698
30
0
41
1
10
43.3003608551367
20
1.96901110378815
30
0
41
1
10
43.2872280621233
20
1.98073949036456
30
0
41
1
10
43.283031238199
20
1.98505881409852
30
0
41
1
10
43.2752222918254
20
1.99449687859652
30
0
41
1
10
43.2716610997224
20
1.99954654684262
30
0
41
1
10
43.2684819457326
20
2.00496510727641
30
0
0
SPLINE
5
175
100
AcDbEntity
8
1
62
256
6
ByLayer
370
18
48
1
60
0
100
AcDbSpline
70
4
71
3
72
10
73
6
40
0
40
0
40
0
40
0
40
0.5
40
0.5
40
1
40
1
40
1
40
1
41
1
10
43.2684819457326
20
2.00496510727641
30
0
41
1
10
43.2236231230633
20
2.08142263100765
30
0
41
1
10
43.1789610979298
20
2.1573087839719
30
0
41
1
10
43.0900982438008
20
2.30754390175264
30
0
41
1
10
43.0459241923648
20
2.3818449453419
30
0
41
1
10
43.002062179122
20
2.4550567800411
30
0
0
SPLINE
5
176
100
AcDbEntity
8
1
62
256
6
ByLayer
370
18
48
1
60
0
100
AcDbSpline
70
4
71
3
72
8
73
4
40
0
40
0
40
0
40
0
40
1
40
1
40
1
40
1
41
1
10
42.923999946788
20
2.45252231106079
30
0
41
1
10
42.9500238477828
20
2.45373911820295
30
0
41
1
10
42.9760431540053
20
2.45458369543653
30
0
41
1
10
43.002062179122
20
2.45505678004099
30
0
0
SPLINE
5
177
100
AcDbEntity
8
1
62
256
6
ByLayer
370
18
48
1
60
0
100
AcDbSpline
70
4
71
3
72
10
73
6
40
0
40
0
40
0
40
0
40
0.5
40
0.5
40
1
40
1
40
1
40
1
41
1
10
42.923999946788
20
2.45252231106079
30
0
41
1
10
42.8780144496301
20
2.3753565891476
30
0
41
1
10
42.8317229442716
20
2.29581087706802
30
0
41
1
10
42.7384649865307
20
2.13228583038725
30
0
41
1
10
42.6915346504643
20
2.0483589879484
30
0
41
1
10
42.6442908410681
20
1.96252615463783
30
0
0
SPLINE
5
178
100
AcDbEntity
8
1
62
256
6
ByLayer
370
18
48
1
60
0
100
AcDbSpline
70
4
71
3
72
28
73
24
40
0
40
0
40
0
40
0
40
0.125000000000048
40
0.125000000000048
40
0.250000000000097
40
0.250000000000097
40
0.375000000000145
40
0.375000000000145
40
0.437500000000221
40
0.437500000000221
40
0.500000000000296
40
0.500000000000296
40
0.625000000000337
40
0.625000000000337
40
0.687500000000301
40
0.687500000000301
40
0.750000000000265
40
0.750000000000265
40
0.875000000000084
40
0.875000000000084
40
0.937500000000042
40
0.937500000000042
40
1
40
1
40
1
40
1
41
1
10
42.644290841068
20
1.96252615463777
30
0
41
1
10
42.6386853177678
20
1.95234200663631
30
0
41
1
10
42.6321739688908
20
1.94322511299731
30
0
41
1
10
42.6177118511127
20
1.92666631181101
30
0
41
1
10
42.6096797064974
20
1.91918920459247
30
0
41
1
10
42.5927735580928
20
1.90624323134941
30
0
41
1
10
42.5838698059297
20
1.90071886261174
30
0
41
1
10
42.5698610829221
20
1.89383700610389
30
0
41
1
10
42.5650715609926
20
1.8917786638529
30
0
41
1
10
42.5554430426145
20
1.88821919929961
30
0
41
1
10
42.5505840637809
20
1.88670693271467
30
0
41
1
10
42.5358766558313
20
1.88298759809814
30
0
41
1
10
42.525899815328
20
1.88158155669112
30
0
41
1
10
42.5106608877129
20
1.88138489021159
30
0
41
1
10
42.5055327949941
20
1.88164774567238
30
0
41
1
10
42.4954381743437
20
1.88287908295734
30
0
41
1
10
42.4904408397639
20
1.88384528481709
30
0
41
1
10
42.4756242586274
20
1.88791509570845
30
0
41
1
10
42.4658918645935
20
1.8922550172243
30
0
41
1
10
42.4527125645593
20
1.90142005769232
30
0
41
1
10
42.4485016897575
20
1.90494845648928
30
0
41
1
10
42.4406726394939
20
1.91297636993033
30
0
41
1
10
42.4371049809608
20
1.91741592632232
30
0
41
1
10
42.4339223806126
20
1.92232899793274
30
0
0
SPLINE
5
179
100
AcDbEntity
8
1
62
256
6
ByLayer
370
18
48
1
60
0
100
AcDbSpline
70
4
71
3
72
10
73
6
40
0
40
0
40
0
40
0
40
0.5
40
0.5
40
1
40
1
40
1
40
1
41
1
10
42.4339223806126
20
1.92232899793274
30
0
41
1
10
42.3890538226734
20
1.99159388013533
30
0
41
1
10
42.3444308891182
20
2.05892599926821
30
0
41
1
10
42.2555315116565
20
2.1897312195228
30
0
41
1
10
42.2114166560518
20
2.25298587725436
30
0
41
1
10
42.1675659542248
20
2.31411152191245
30
0
0
SPLINE
5
17A
100
AcDbEntity
8
1
62
256
6
ByLayer
370
18
48
1
60
0
100
AcDbSpline
70
4
71
3
72
8
73
4
40
0
40
0
40
0
40
0
40
1
40
1
40
1
40
1
41
1
10
42.0895602279887
20
2.2884522928575
30
0
41
1
10
42.1155602871327
20
2.29735537190874
30
0
41
1
10
42.1415603543196
20
2.30590869854103
30
0
41
1
10
42.1675659542249
20
2.3141115219124
30
0
0
SPLINE
5
17B
100
AcDbEntity
8
1
62
256
6
ByLayer
370
18
48
1
60
0
100
AcDbSpline
70
4
71
3
72
10
73
6
40
0
40
0
40
0
40
0
40
0.5
40
0.5
40
1
40
1
40
1
40
1
41
1
10
42.0895602279887
20
2.28845229285747
30
0
41
1
10
42.0435972314695
20
2.19744418861234
30
0
41
1
10
41.9973270298365
20
2.10533950417451
30
0
41
1
10
41.9041110956443
20
1.91942166998265
30
0
41
1
10
41.8571953630035
20
1.82567090063284
30
0
41
1
10
41.8099829720003
20
1.73145757803533
30
0
0
SPLINE
5
17C
100
AcDbEntity
8
1
62
256
6
ByLayer
370
18
48
1
60
0
100
AcDbSpline
70
4
71
3
72
24
73
20
40
0
40
0
40
0
40
0
40
0.150503618022657
40
0.150503618022657
40
0.301007236045314
40
0.301007236045314
40
0.451510854067971
40
0.451510854067971
40
0.526762663079237
40
0.526762663079237
40
0.602014472090503
40
0.602014472090503
40
0.752518090113169
40
0.752518090113169
40
0.827769899124434
40
0.827769899124434
40
0.903021708135699
40
0.903021708135699
40
1
40
1
40
1
40
1
41
1
10
41.8099829720002
20
1.7314575780353
30
0
41
1
10
41.8043639208117
20
1.72024464280662
30
0
41
1
10
41.7978346426614
20
1.70987889026782
30
0
41
1
10
41.7833327972945
20
1.69048183550043
30
0
41
1
10
41.7752784105601
20
1.68139813964478
30
0
41
1
10
41.7583310754522
20
1.66501884150017
30
0
41
1
10
41.7494078457406
20
1.65766156585627
30
0
41
1
10
41.7353748890432
20
1.64784918362813
30
0
41
1
10
41.7305801083505
20
1.64478254859145
30
0
41
1
10
41.7209438313186
20
1.63917759133983
30
0
41
1
10
41.71608189741
20
1.63662382084706
30
0
41
1
10
41.7013689193243
20
1.62971899381054
30
0
41
1
10
41.6913925820952
20
1.62610967794277
30
0
41
1
10
41.6761638512541
20
1.62244670089919
30
0
41
1
10
41.6710463457614
20
1.62152698349996
30
0
41
1
10
41.6609729011813
20
1.62038612808112
30
0
41
1
10
41.6559867160689
20
1.62015615906071
30
0
41
1
10
41.6447095613268
20
1.62049461603451
30
0
41
1
10
41.6384212339954
20
1.6213288638678
30
0
41
1
10
41.6324056138711
20
1.62289021909152
30
0
0
SPLINE
5
17D
100
AcDbEntity
8
1
62
256
6
ByLayer
370
18
48
1
60
0
100
AcDbSpline
70
4
71
3
72
8
73
4
40
0
40
0
40
0
40
0
40
1
40
1
40
1
40
1
41
1
10
41.3926473126737
20
1.87566563074796
30
0
41
1
10
41.3727234470841
20
1.89616419089001
30
0
41
1
10
41.3528590931563
20
1.91604675832303
30
0
41
1
10
41.3330595661056
20
1.93530488978362
30
0
0
SPLINE
5
17E
100
AcDbEntity
8
1
62
256
6
ByLayer
370
18
48
1
60
0
100
AcDbSpline
70
4
71
3
72
8
73
4
40
0
40
0
40
0
40
0
40
1
40
1
40
1
40
1
41
1
10
41.2550265233283
20
1.88874335615904
30
0
41
1
10
41.2810409860997
20
1.90456081066685
30
0
41
1
10
41.3070510405563
20
1.92008172805626
30
0
41
1
10
41.3330595661056
20
1.93530488978351
30
0
0
SPLINE
5
17F
100
AcDbEntity
8
1
62
256
6
ByLayer
370
18
48
1
60
0
100
AcDbSpline
70
4
71
3
72
10
73
6
40
0
40
0
40
0
40
0
40
0.664093511303217
40
0.664093511303217
40
1
40
1
40
1
40
1
41
1
10
41.2550265233283
20
1.88874335615904
30
0
41
1
10
41.2321138620713
20
1.84098054125198
30
0
41
1
10
41.2091339037932
20
1.79329769438087
30
0
41
1
10
41.1743839417756
20
1.72164219686732
30
0
41
1
10
41.1626798287401
20
1.69759330816217
30
0
41
1
10
41.1509452430375
20
1.67358171433023
30
0
0
SPLINE
5
180
100
AcDbEntity
8
1
62
256
6
ByLayer
370
18
48
1
60
0
100
AcDbSpline
70
4
71
3
72
12
73
8
40
0
40
0
40
0
40
0
40
0.5
40
0.5
40
0.75
40
0.75
40
1
40
1
40
1
40
1
41
1
10
39.487968982575
20
2.00251946459972
30
0
41
1
10
39.534135486747
20
2.0806384916697
30
0
41
1
10
39.579837129209
20
2.1573854579261
30
0
41
1
10
39.6479155467336
20
2.27038941639068
30
0
41
1
10
39.6704989575472
20
2.30765563330138
30
0
41
1
10
39.7154307956834
20
2.3812765030581
30
0
41
1
10
39.7377784122054
20
2.41762476275724
30
0
41
1
10
39.7600401432784
20
2.45353885471448
30
0
0
SPLINE
5
181
100
AcDbEntity
8
1
62
256
6
ByLayer
370
18
48
1
60
0
100
AcDbSpline
70
4
71
3
72
8
73
4
40
0
40
0
40
0
40
0
40
1
40
1
40
1
40
1
41
1
10
39.8382013266451
20
2.44938581188944
30
0
41
1
10
39.8121217961241
20
2.45115048225784
30
0
41
1
10
39.786074144564
20
2.45253582360817
30
0
41
1
10
39.7600401432784
20
2.45353885471448
30
0
0
SPLINE
5
182
100
AcDbEntity
8
1
62
256
6
ByLayer
370
18
48
1
60
0
100
AcDbSpline
70
4
71
3
72
10
73
6
40
0
40
0
40
0
40
0
40
0.373653871359012
40
0.373653871359012
40
1
40
1
40
1
40
1
41
1
10
39.8926256411359
20
2.35599297916497
30
0
41
1
10
39.9195525077647
20
2.30958373491728
30
0
41
1
10
39.9466349040783
20
2.26262319278126
30
0
41
1
10
40.0195995625246
20
2.13552742485632
30
0
41
1
10
40.0656524122939
20
2.05470869488042
30
0
41
1
10
40.1122132861566
20
1.97274299943248
30
0
0
SPLINE
5
183
100
AcDbEntity
8
1
62
256
6
ByLayer
370
18
48
1
60
0
100
AcDbSpline
70
4
71
3
72
26
73
22
40
0
40
0
40
0
40
0
40
0.125000000000031
40
0.125000000000031
40
0.187500000000047
40
0.187500000000047
40
0.250000000000063
40
0.250000000000063
40
0.375000000000045
40
0.375000000000045
40
0.500000000000027
40
0.500000000000027
40
0.625000000000009
40
0.625000000000009
40
0.749999999999991
40
0.749999999999991
40
0.874999999999973
40
0.874999999999973
40
0.937499999999987
40
0.937499999999987
40
1
40
1
40
1
40
1
41
1
10
40.1122132861566
20
1.97274299943246
30
0
41
1
10
40.1182229918684
20
1.96216352213247
30
0
41
1
10
40.1253126822349
20
1.95290101618758
30
0
41
1
10
40.1371805758731
20
1.94049988731712
30
0
41
1
10
40.1413748913164
20
1.93660120575837
30
0
41
1
10
40.149972812319
20
1.92944159677421
30
0
41
1
10
40.1543854086616
20
1.92616543948773
30
0
41
1
10
40.1679275258577
20
1.9171575676672
30
0
41
1
10
40.1773969274638
20
1.91222042509418
30
0
41
1
10
40.1968970620349
20
1.90444923802031
30
0
41
1
10
40.20673168095
20
1.90168482272912
30
0
41
1
10
40.2265279883045
20
1.89827961921938
30
0
41
1
10
40.2365833772557
20
1.89765547469568
30
0
41
1
10
40.2560788331959
20
1.89870688058102
30
0
41
1
10
40.2655727968726
20
1.90034824064176
30
0
41
1
10
40.2839548111669
20
1.90613938717203
30
0
41
1
10
40.2929077661626
20
1.91035926156834
30
0
41
1
10
40.305008902305
20
1.91869883193812
30
0
41
1
10
40.3088481985673
20
1.92182111060342
30
0
41
1
10
40.3160793992342
20
1.92885492825584
30
0
41
1
10
40.3194673130377
20
1.93277160831141
30
0
41
1
10
40.3225108197324
20
1.93705733538542
30
0
0
SPLINE
5
184
100
AcDbEntity
8
1
62
256
6
ByLayer
370
18
48
1
60
0
100
AcDbSpline
70
4
71
3
72
10
73
6
40
0
40
0
40
0
40
0
40
0.5
40
0.5
40
1
40
1
40
1
40
1
41
1
10
40.3225108197344
20
1.9370573353898
30
0
41
1
10
40.3685820617941
20
2.00193275353499
30
0
41
1
10
40.4142254705421
20
2.06440780825304
30
0
41
1
10
40.504925350341
20
2.18454640954252
30
0
41
1
10
40.5498480806301
20
2.24203234994036
30
0
41
1
10
40.5944398631026
20
2.29688654889748
30
0
0
SPLINE
5
185
100
AcDbEntity
8
1
62
256
6
ByLayer
370
18
48
1
60
0
100
AcDbSpline
70
4
71
3
72
8
73
4
40
0
40
0
40
0
40
0
40
1
40
1
40
1
40
1
41
1
10
40.6725172506322
20
2.26999816428943
30
0
41
1
10
40.6464918285918
20
2.27930369368212
30
0
41
1
10
40.6204661341773
20
2.28826617766691
30
0
41
1
10
40.5944398631026
20
2.29688654889756
30
0
0
SPLINE
5
186
100
AcDbEntity
8
1
62
256
6
ByLayer
370
18
48
1
60
0
100
AcDbSpline
70
4
71
3
72
10
73
6
40
0
40
0
40
0
40
0
40
0.5
40
0.5
40
1
40
1
40
1
40
1
41
1
10
40.6725172506323
20
2.2699981642761
30
0
41
1
10
40.7173907506725
20
2.18504925232816
30
0
41
1
10
40.7626080097597
20
2.0998408462219
30
0
41
1
10
40.8539292861268
20
1.92917636920274
30
0
41
1
10
40.8998984401474
20
1.84396763817281
30
0
41
1
10
40.9463275754602
20
1.75896306175258
30
0
0
SPLINE
5
187
100
AcDbEntity
8
1
62
256
6
ByLayer
370
18
48
1
60
0
100
AcDbSpline
70
4
71
3
72
26
73
22
40
0
40
0
40
0
40
0
40
0.124999999999993
40
0.124999999999993
40
0.187499999999968
40
0.187499999999968
40
0.249999999999942
40
0.249999999999942
40
0.374999999999945
40
0.374999999999945
40
0.499999999999947
40
0.499999999999947
40
0.624999999999949
40
0.624999999999949
40
0.749999999999951
40
0.749999999999951
40
0.874999999999954
40
0.874999999999954
40
0.937499999999977
40
0.937499999999977
40
1
40
1
40
1
40
1
41
1
10
40.9463275754602
20
1.75896306175258
30
0
41
1
10
40.9523649763257
20
1.74790951316308
30
0
41
1
10
40.9594900041769
20
1.73781001636047
30
0
41
1
10
40.9714133236931
20
1.72374268880628
30
0
41
1
10
40.9756262741439
20
1.71921423078373
30
0
41
1
10
40.9842557464951
20
1.71069509479671
30
0
41
1
10
40.9886833818807
20
1.70668638868304
30
0
41
1
10
41.0022665536905
20
1.69533521699682
30
0
41
1
10
41.0117617677656
20
1.68863266445072
30
0
41
1
10
41.0312801149604
20
1.67699636450107
30
0
41
1
10
41.0411191905688
20
1.67216349645926
30
0
41
1
10
41.0609118089364
20
1.6643425049113
30
0
41
1
10
41.0709542955864
20
1.6613477188472
30
0
41
1
10
41.0904131451175
20
1.65750367361878
30
0
41
1
10
41.0998886153286
20
1.65661023376532
30
0
41
1
10
41.1182340745325
20
1.65712156709964
30
0
41
1
10
41.1271681506918
20
1.65857144319332
30
0
41
1
10
41.1392581048674
20
1.66279961447302
30
0
41
1
10
41.1430960822344
20
1.66455133073168
30
0
41
1
10
41.1503291515035
20
1.66884743824136
30
0
41
1
10
41.15372125468
20
1.67139784699029
30
0
41
1
10
41.1567705196959
20
1.67435592136826
30
0
0
SPLINE
5
188
100
AcDbEntity
8
1
62
256
6
ByLayer
370
18
48
1
60
0
100
AcDbSpline
70
4
71
3
72
10
73
6
40
0
40
0
40
0
40
0
40
0.5
40
0.5
40
1
40
1
40
1
40
1
41
1
10
41.1567705196979
20
1.67435592137292
30
0
41
1
10
41.2028900096601
20
1.71909617218486
30
0
41
1
10
41.2485741855048
20
1.76051735045894
30
0
41
1
10
41.3393634777387
20
1.83690122881075
30
0
41
1
10
41.3843322562613
20
1.87173231166574
30
0
41
1
10
41.4289806375759
20
1.90325617226577
30
0
0
SPLINE
5
189
100
AcDbEntity
8
1
62
256
6
ByLayer
370
18
48
1
60
0
100
AcDbSpline
70
4
71
3
72
10
73
6
40
0
40
0
40
0
40
0
40
0.5
40
0.5
40
1
40
1
40
1
40
1
41
1
10
41.5071215376582
20
1.85569487210614
30
0
41
1
10
41.5519167798086
20
1.77123392175736
30
0
41
1
10
41.5970837057771
20
1.68780223430554
30
0
41
1
10
41.688373616668
20
1.52332195936592
30
0
41
1
10
41.7343515740849
20
1.44253186035195
30
0
41
1
10
41.7808146783777
20
1.36328405891098
30
0
0
SPLINE
5
18A
100
AcDbEntity
8
1
62
256
6
ByLayer
370
18
48
1
60
0
100
AcDbSpline
70
4
71
3
72
27
73
23
40
0
40
0
40
0
40
0
40
0.124999999999974
40
0.124999999999974
40
0.187499999999961
40
0.187499999999961
40
0.249999999999948
40
0.249999999999948
40
0.374999999999922
40
0.374999999999922
40
0.499999999999895
40
0.499999999999895
40
0.624999999999869
40
0.624999999999869
40
0.749999999999843
40
0.749999999999843
40
0.812499999999882
40
0.812499999999882
40
0.874999999999921
40
0.937499999999961
40
0.937499999999961
40
1
40
1
40
1
40
1
41
1
10
41.7808146783776
20
1.36328405891098
30
0
41
1
10
41.7868252706876
20
1.35303234987924
30
0
41
1
10
41.7939211492506
20
1.34324980393842
30
0
41
1
10
41.8058069865228
20
1.32911807318919
30
0
41
1
10
41.8100085353673
20
1.32447358817231
30
0
41
1
10
41.8186183111352
20
1.31555786025905
30
0
41
1
10
41.8230374379191
20
1.31126973729684
30
0
41
1
10
41.8366000067686
20
1.29886092372794
30
0
41
1
10
41.8460915731355
20
1.29115448678715
30
0
41
1
10
41.8656013751677
20
1.27700139659342
30
0
41
1
10
41.8754412220034
20
1.2706765330629
30
0
41
1
10
41.8952468231126
20
1.25942130634334
30
0
41
1
10
41.9052985482985
20
1.25446438971386
30
0
41
1
10
41.9247658104148
20
1.24635595458679
30
0
41
1
10
41.9342491862483
20
1.24315232234807
30
0
41
1
10
41.9480211020469
20
1.23975747242437
30
0
41
1
10
41.9525607937252
20
1.23886042627072
30
0
41
1
10
41.9613406519417
20
1.23762916813553
30
0
41
1
10
41.969766692624
20
1.2369619067814
30
0
41
1
10
41.9774244985162
20
1.23751360626781
30
0
41
1
10
41.9846406200729
20
1.23876831179231
30
0
41
1
10
41.9880155167868
20
1.23975058813482
30
0
41
1
10
41.9910503619434
20
1.24112341389835
30
0
0
SPLINE
5
18B
100
AcDbEntity
8
1
62
256
6
ByLayer
370
18
48
1
60
0
100
AcDbSpline
70
4
71
3
72
10
73
6
40
0
40
0
40
0
40
0
40
0.5
40
0.5
40
1
40
1
40
1
40
1
41
1
10
41.9910503619473
20
1.24112341390679
30
0
41
1
10
42.0371811492497
20
1.26199088162215
30
0
41
1
10
42.082866451224
20
1.27899859783125
30
0
41
1
10
42.173619152603
20
1.30530656682652
30
0
41
1
10
42.2185431578302
20
1.31455806450549
30
0
41
1
10
42.2631163223786
20
1.31994718903329
30
0
0
SPLINE
5
18C
100
AcDbEntity
8
1
62
256
6
ByLayer
370
18
48
1
60
0
100
AcDbSpline
70
4
71
3
72
8
73
4
40
0
40
0
40
0
40
0
40
1
40
1
40
1
40
1
41
1
10
42.3412702414541
20
1.25687526946996
30
0
41
1
10
42.3152368488217
20
1.27812170476145
30
0
41
1
10
42.2891865801351
20
1.29914608326538
30
0
41
1
10
42.2631163223786
20
1.31994718903329
30
0
0
SPLINE
5
18D
100
AcDbEntity
8
1
62
256
6
ByLayer
370
18
48
1
60
0
100
AcDbSpline
70
4
71
3
72
12
73
8
40
0
40
0
40
0
40
0
40
0.499999999999983
40
0.499999999999983
40
0.749999999999992
40
0.749999999999992
40
1
40
1
40
1
40
1
41
1
10
42.3412702414543
20
1.25687526946226
30
0
41
1
10
42.3861679903426
20
1.18108402356847
30
0
41
1
10
42.4314115408513
20
1.10740716022715
30
0
41
1
10
42.4998960120885
20
1.00014450091857
30
0
41
1
10
42.5227885207648
20
0.964959062707749
30
0
41
1
10
42.5688023653617
20
0.895999616978742
30
0
41
1
10
42.5919245541497
20
0.862226609354281
30
0
41
1
10
42.6151821555553
20
0.829166777639642
30
0
0
SPLINE
5
18E
100
AcDbEntity
8
1
62
256
6
ByLayer
370
18
48
1
60
0
100
AcDbSpline
70
4
71
3
72
26
73
22
40
0
40
0
40
0
40
0
40
0.125000000000011
40
0.125000000000011
40
0.187500000000016
40
0.187500000000016
40
0.250000000000022
40
0.250000000000022
40
0.375000000000033
40
0.375000000000033
40
0.500000000000045
40
0.500000000000045
40
0.625000000000056
40
0.625000000000056
40
0.750000000000068
40
0.750000000000068
40
0.875000000000079
40
0.875000000000079
40
0.93750000000004
40
0.93750000000004
40
1
40
1
40
1
40
1
41
1
10
42.6151821555553
20
0.829166777639642
30
0
41
1
10
42.6212101266762
20
0.820598236655428
30
0
41
1
10
42.6283214909311
20
0.811975367138217
30
0
41
1
10
42.6402220280966
20
0.798994594042142
30
0
41
1
10
42.6444270381963
20
0.794633439899002
30
0
41
1
10
42.6530421383931
20
0.786084223494157
30
0
41
1
10
42.6574627842115
20
0.781882025456923
30
0
41
1
10
42.6710272035324
20
0.769467342211669
30
0
41
1
10
42.6805115277223
20
0.761409767420787
30
0
41
1
10
42.7000202404978
20
0.745882155657597
30
0
41
1
10
42.7098572681664
20
0.73855848338161
30
0
41
1
10
42.7296535224261
20
0.724705112051055
30
0
41
1
10
42.7397036874721
20
0.718125010055417
30
0
41
1
10
42.7591824041347
20
0.70622802660111
30
0
41
1
10
42.7686684452587
20
0.700860578220073
30
0
41
1
10
42.7870334494525
20
0.691392430786948
30
0
41
1
10
42.7959757633099
20
0.687278095078028
30
0
41
1
10
42.8080669439966
20
0.682625365816591
30
0
41
1
10
42.8119037811472
20
0.681313674205427
30
0
41
1
10
42.8191317626754
20
0.679242413065651
30
0
41
1
10
42.8225201560935
20
0.678486713473319
30
0
41
1
10
42.8255653094761
20
0.67807656292689
30
0
0
SPLINE
5
18F
100
AcDbEntity
8
1
62
256
6
ByLayer
370
18
48
1
60
0
100
AcDbSpline
70
4
71
3
72
10
73
6
40
0
40
0
40
0
40
0
40
0.5
40
0.5
40
1
40
1
40
1
40
1
41
1
10
42.825565309478
20
0.678076562930357
30
0
41
1
10
42.8716800828521
20
0.671865381713928
30
0
41
1
10
42.9173585393549
20
0.661723601249548
30
0
41
1
10
43.0081272946966
20
0.633799016967117
30
0
41
1
10
43.0530853755232
20
0.616060782463563
30
0
41
1
10
43.0977230513673
20
0.594670860643021
30
0
0
SPLINE
5
190
100
AcDbEntity
8
1
62
256
6
ByLayer
370
18
48
1
60
0
100
AcDbSpline
70
4
71
3
72
8
73
4
40
0
40
0
40
0
40
0
40
1
40
1
40
1
40
1
41
1
10
43.1757913933629
20
0.523375485479079
30
0
41
1
10
43.149753846252
20
0.547219982011711
30
0
41
1
10
43.1237318132603
20
0.570985907418418
30
0
41
1
10
43.0977230513673
20
0.594670860643021
30
0
0
SPLINE
5
191
100
AcDbEntity
8
1
62
256
6
ByLayer
370
18
48
1
60
0
100
AcDbSpline
70
4
71
3
72
10
73
6
40
0
40
0
40
0
40
0
40
0.5
40
0.5
40
1
40
1
40
1
40
1
41
1
10
43.1757913933631
20
0.523375485476009
30
0
41
1
10
43.2206094267328
20
0.465225046000199
30
0
41
1
10
43.2657826553363
20
0.41015728092836
30
0
41
1
10
43.3570351370218
20
0.306466875240261
30
0
41
1
10
43.4029758622863
20
0.257997564782102
30
0
41
1
10
43.4493758671813
20
0.212990810183754
30
0
0
SPLINE
5
192
100
AcDbEntity
8
1
62
256
6
ByLayer
370
18
48
1
60
0
100
AcDbSpline
70
4
71
3
72
27
73
23
40
0
40
0
40
0
40
0
40
0.125000000000001
40
0.125000000000001
40
0.187500000000002
40
0.187500000000002
40
0.250000000000003
40
0.250000000000003
40
0.375000000000003
40
0.375000000000003
40
0.500000000000003
40
0.500000000000003
40
0.625000000000003
40
0.625000000000003
40
0.750000000000003
40
0.750000000000003
40
0.812500000000003
40
0.812500000000003
40
0.875000000000002
40
0.937500000000001
40
0.937500000000001
40
1
40
1
40
1
40
1
41
1
10
43.4493758671813
20
0.212990810183754
30
0
41
1
10
43.4554033522585
20
0.20714431205667
30
0
41
1
10
43.462521828076
20
0.200724031906134
30
0
41
1
10
43.4744446235652
20
0.190454140870543
30
0
41
1
10
43.4786586874227
20
0.186899010378824
30
0
41
1
10
43.4872891573716
20
0.179743750504514
30
0
41
1
10
43.4917181978563
20
0.176132007387707
30
0
41
1
10
43.5053073280386
20
0.1651964772864
30
0
41
1
10
43.5148187668738
20
0.157735009025345
30
0
41
1
10
43.5343410149907
20
0.142713722375447
30
0
41
1
10
43.5441845254039
20
0.135279288103561
30
0
41
1
10
43.5639907632469
20
0.120505503198927
30
0
41
1
10
43.5740342043338
20
0.11310857399863
30
0
41
1
10
43.5934761338013
20
0.0989082586019379
30
0
41
1
10
43.6029477751078
20
0.0920507885308552
30
0
41
1
10
43.6167034666758
20
0.0821368879873035
30
0
41
1
10
43.6212387246547
20
0.0788758487283872
30
0
41
1
10
43.6300010205904
20
0.072591570686086
30
0
41
1
10
43.6384128230399
20
0.0665750156349816
30
0
41
1
10
43.6460628668409
20
0.0611370286505064
30
0
41
1
10
43.6532744688381
20
0.0560345116522285
30
0
41
1
10
43.6566478484509
20
0.0536604703777925
30
0
41
1
10
43.6596831829239
20
0.0515440530850526
30
0
0
SPLINE
5
193
100
AcDbEntity
8
1
62
256
6
ByLayer
370
18
48
1
60
0
100
AcDbSpline
70
4
71
3
72
10
73
6
40
0
40
0
40
0
40
0
40
0.5
40
0.5
40
1
40
1
40
1
40
1
41
1
10
43.6596831829283
20
0.0515440530906801
30
0
41
1
10
43.7059319547333
20
0.0192966347971719
30
0
41
1
10
43.7517005720767
20
-0.0168253497145088
30
0
41
1
10
43.8425611177736
20
-0.0967464444631219
30
0
41
1
10
43.8874977715078
20
-0.14042564125549
30
0
41
1
10
43.9321103415557
20
-0.187369055319664
30
0
0
SPLINE
5
194
100
AcDbEntity
8
1
62
256
6
ByLayer
370
18
48
1
60
0
100
AcDbSpline
70
4
71
3
72
10
73
6
40
0
40
0
40
0
40
0
40
0.5
40
0.5
40
1
40
1
40
1
40
1
41
1
10
44.0101941755264
20
-0.26175576433829
30
0
41
1
10
44.0549632348445
20
-0.297702134673273
30
0
41
1
10
44.1001202723483
20
-0.329783868174786
30
0
41
1
10
44.1914208080833
20
-0.386002486700278
30
0
41
1
10
44.2374140053206
20
-0.410051364833123
30
0
41
1
10
44.2839017557525
20
-0.429975530034738
30
0
0
SPLINE
5
195
100
AcDbEntity
8
1
62
256
6
ByLayer
370
18
48
1
60
0
100
AcDbSpline
70
4
71
3
72
28
73
24
40
0
40
0
40
0
40
0
40
0.125000000000078
40
0.125000000000078
40
0.187500000000072
40
0.187500000000072
40
0.250000000000066
40
0.250000000000066
40
0.375000000000055
40
0.375000000000055
40
0.500000000000044
40
0.500000000000044
40
0.625000000000033
40
0.625000000000033
40
0.750000000000021
40
0.750000000000021
40
0.812500000000016
40
0.812500000000016
40
0.875000000000011
40
0.875000000000011
40
0.937500000000005
40
0.937500000000005
40
1
40
1
40
1
40
1
41
1
10
44.2839017557525
20
-0.429975530034738
30
0
41
1
10
44.289925249887
20
-0.432557136826006
30
0
41
1
10
44.2970377593927
20
-0.436177158620552
30
0
41
1
10
44.3089501712958
20
-0.442768598903115
30
0
41
1
10
44.3131605045657
20
-0.445181441063596
30
0
41
1
10
44.3217836036523
20
-0.450267267272437
30
0
41
1
10
44.3262090053208
20
-0.452946207257867
30
0
41
1
10
44.3397892055779
20
-0.461356140324312
30
0
41
1
10
44.3492952987492
20
-0.467492018404783
30
0
41
1
10
44.3688096320281
20
-0.480569246130528
30
0
41
1
10
44.3786506979114
20
-0.487396315759156
30
0
41
1
10
44.398457020182
20
-0.501645427883886
30
0
41
1
10
44.408503682571
20
-0.509134021454855
30
0
41
1
10
44.4279539686048
20
-0.524241898312425
30
0
41
1
10
44.4374301465784
20
-0.531907302923031
30
0
41
1
10
44.4511926482865
20
-0.543632906220751
30
0
41
1
10
44.4557306774708
20
-0.547603489320323
30
0
41
1
10
44.4644975194818
20
-0.555513851954458
30
0
41
1
10
44.4687051498001
20
-0.559433229987491
30
0
41
1
10
44.4767380488445
20
-0.567195947491172
30
0
41
1
10
44.4805637749607
20
-0.571039408847298
30
0
41
1
10
44.4877749489658
20
-0.578637842639154
30
0
41
1
10
44.4911471582334
20
-0.582381350991739
30
0
41
1
10
44.4941809299642
20
-0.58598010102574
30
0
0
SPLINE
5
196
100
AcDbEntity
8
1
62
256
6
ByLayer
370
18
48
1
60
0
100
AcDbSpline
70
4
71
3
72
10
73
6
40
0
40
0
40
0
40
0
40
0.5
40
0.5
40
1
40
1
40
1
40
1
41
1
10
44.4941809299685
20
-0.58598010102304
30
0
41
1
10
44.5403217579425
20
-0.640713720090929
30
0
41
1
10
44.5860263143174
20
-0.698455143153069
30
0
41
1
10
44.6768350760817
20
-0.819754585210234
30
0
41
1
10
44.7218026378301
20
-0.883131464145663
30
0
41
1
10
44.7664294755873
20
-0.949116770259906
30
0
0
SPLINE
5
197
100
AcDbEntity
8
1
62
256
6
ByLayer
370
18
48
1
60
0
100
AcDbSpline
70
4
71
3
72
10
73
6
40
0
40
0
40
0
40
0
40
0.500000000000001
40
0.500000000000001
40
1
40
1
40
1
40
1
41
1
10
44.8443918445062
20
-1.01617424957487
30
0
41
1
10
44.8892482804901
20
-1.02508950735844
30
0
41
1
10
44.9344416093081
20
-1.03019715622722
30
0
41
1
10
45.0257043953017
20
-1.03262247872411
30
0
41
1
10
45.0716421181291
20
-1.02994109788943
30
0
41
1
10
45.1180339458124
20
-1.02327104547751
30
0
0
SPLINE
5
198
100
AcDbEntity
8
1
62
256
6
ByLayer
370
18
48
1
60
0
100
AcDbSpline
70
4
71
3
72
27
73
23
40
0
40
0
40
0
40
0
40
0.125000000000058
40
0.125000000000058
40
0.187500000000086
40
0.187500000000086
40
0.250000000000115
40
0.312500000000143
40
0.312500000000143
40
0.375000000000171
40
0.375000000000171
40
0.500000000000119
40
0.500000000000119
40
0.625000000000066
40
0.625000000000066
40
0.750000000000013
40
0.750000000000013
40
0.874999999999961
40
0.874999999999961
40
0.93749999999998
40
0.93749999999998
40
1
40
1
40
1
40
1
41
1
10
45.1180339458124
20
-1.02327104547751
30
0
41
1
10
45.1240908490154
20
-1.02240020542152
30
0
41
1
10
45.1312426832236
20
-1.02294780411665
30
0
41
1
10
45.1432104888268
20
-1.02535868419628
30
0
41
1
10
45.1474382526224
20
-1.02644444894545
30
0
41
1
10
45.1560895744694
20
-1.02906862354297
30
0
41
1
10
45.1649651397953
20
-1.03214593734944
30
0
41
1
10
45.1742366228732
20
-1.03604947712668
30
0
41
1
10
45.1836929752703
20
-1.04034627007073
30
0
41
1
10
45.1885347576466
20
-1.04270256723208
30
0
41
1
10
45.203170306849
20
-1.05027801136256
30
0
41
1
10
45.2130048599311
20
-1.05595538648595
30
0
41
1
10
45.2327889234162
20
-1.06853517701345
30
0
41
1
10
45.2428184289941
20
-1.07550551093181
30
0
41
1
10
45.2622432840048
20
-1.09027749198438
30
0
41
1
10
45.2717096434088
20
-1.098113226278
30
0
41
1
10
45.2900451535712
20
-1.11484668254585
30
0
41
1
10
45.2989616736885
20
-1.12381318405116
30
0
41
1
10
45.3110309928474
20
-1.13753508258043
30
0
41
1
10
45.3148639079683
20
-1.14217923534974
30
0
41
1
10
45.3220899646637
20
-1.15162955091967
30
0
41
1
10
45.3254760541386
20
-1.15643171160241
30
0
41
1
10
45.3285219890302
20
-1.16121126268979
30
0
0
SPLINE
5
199
100
AcDbEntity
8
1
62
256
6
ByLayer
370
18
48
1
60
0
100
AcDbSpline
70
4
71
3
72
10
73
6
40
0
40
0
40
0
40
0
40
0.5
40
0.5
40
1
40
1
40
1
40
1
41
1
10
45.3285219890332
20
-1.16121126268999
30
0
41
1
10
45.374703140255
20
-1.23367675502939
30
0
41
1
10
45.4204442740702
20
-1.30817383700995
30
0
41
1
10
45.511335116441
20
-1.46098994569073
30
0
41
1
10
45.5563499210793
20
-1.53908381747902
30
0
41
1
10
45.6010402229874
20
-1.6187024761264
30
0
0
SPLINE
5
19A
100
AcDbEntity
8
1
62
256
6
ByLayer
370
18
48
1
60
0
100
AcDbSpline
70
4
71
3
72
10
73
6
40
0
40
0
40
0
40
0
40
0.5
40
0.5
40
1
40
1
40
1
40
1
41
1
10
45.679000071626
20
-1.67329526872896
30
0
41
1
10
45.7237754717263
20
-1.65472112696315
30
0
41
1
10
45.768913977168
20
-1.63234931792266
30
0
41
1
10
45.8601291058075
20
-1.57997525629455
30
0
41
1
10
45.9060644090222
20
-1.55005320107802
30
0
41
1
10
45.95247785077
20
-1.51637366183004
30
0
0
SPLINE
5
19B
100
AcDbEntity
8
1
62
256
6
ByLayer
370
18
48
1
60
0
100
AcDbSpline
70
4
71
3
72
28
73
24
40
0
40
0
40
0
40
0
40
0.124999999999826
40
0.124999999999826
40
0.187499999999784
40
0.187499999999784
40
0.249999999999742
40
0.3124999999997
40
0.3124999999997
40
0.374999999999658
40
0.374999999999658
40
0.499999999999685
40
0.499999999999685
40
0.624999999999712
40
0.624999999999712
40
0.749999999999738
40
0.749999999999738
40
0.812499999999804
40
0.812499999999804
40
0.874999999999869
40
0.937499999999935
40
0.937499999999935
40
1
40
1
40
1
40
1
41
1
10
45.95247785077
20
-1.51637366183007
30
0
41
1
10
45.9585053181311
20
-1.51199987880716
30
0
41
1
10
45.9656273806524
20
-1.50923400752563
30
0
41
1
10
45.9775621636486
20
-1.50690069866235
30
0
41
1
10
45.9817809083238
20
-1.50643529588274
30
0
41
1
10
45.9904182534205
20
-1.50609914439261
30
0
41
1
10
45.9992839556049
20
-1.50634484702059
30
0
41
1
10
46.0085542014052
20
-1.50764757084812
30
0
41
1
10
46.0180153626475
20
-1.50945262232295
30
0
41
1
10
46.0228639000737
20
-1.51061339469743
30
0
41
1
10
46.0375104022589
20
-1.51479722764836
30
0
41
1
10
46.0473582605499
20
-1.51848784107273
30
0
41
1
10
46.0671752874068
20
-1.52761614509029
30
0
41
1
10
46.0772164739755
20
-1.53311278798381
30
0
41
1
10
46.0966414736867
20
-1.54557163978379
30
0
41
1
10
46.1061068188991
20
-1.55255584732066
30
0
41
1
10
46.1198570884607
20
-1.56433730995658
30
0
41
1
10
46.124393222337
20
-1.56851388609775
30
0
41
1
10
46.1331285770751
20
-1.57721157571791
30
0
41
1
10
46.1415167079997
20
-1.58623332955472
30
0
41
1
10
46.1491509729036
20
-1.59595843408357
30
0
41
1
10
46.1563496506188
20
-1.6060900623674
30
0
41
1
10
46.1597102999969
20
-1.61133548682378
30
0
41
1
10
46.1627374813805
20
-1.61669198364393
30
0
0
SPLINE
5
19C
100
AcDbEntity
8
1
62
256
6
ByLayer
370
18
48
1
60
0
100
AcDbSpline
70
4
71
3
72
10
73
6
40
0
40
0
40
0
40
0
40
0.5
40
0.5
40
1
40
1
40
1
40
1
41
1
10
46.1627374813875
20
-1.61669198364939
30
0
41
1
10
46.2089635379049
20
-1.69848745389922
30
0
41
1
10
46.2547289750008
20
-1.78117815647101
30
0
41
1
10
46.3456202149996
20
-1.94819172622528
30
0
41
1
10
46.3905951403039
20
-2.03224590581175
30
0
41
1
10
46.4352133768129
20
-2.11670318488839
30
0
0
SPLINE
5
19D
100
AcDbEntity
8
1
62
256
6
ByLayer
370
18
48
1
60
0
100
AcDbSpline
70
4
71
3
72
12
73
8
40
0
40
0
40
0
40
0
40
0.250000000000008
40
0.250000000000008
40
0.500000000000017
40
0.500000000000017
40
1
40
1
40
1
40
1
41
1
10
46.5131597415737
20
-2.15331491063486
30
0
41
1
10
46.5355901974436
20
-2.13146587272999
30
0
41
1
10
46.5581018067249
20
-2.1088417266931
30
0
41
1
10
46.6032826581444
20
-2.06218385305161
30
0
41
1
10
46.6259673229702
20
-2.03810145348052
30
0
41
1
10
46.6944027296014
20
-1.96323291876803
30
0
41
1
10
46.7403868458056
20
-1.91006370155506
30
0
41
1
10
46.7868934162623
20
-1.85367801295152
30
0
0
SPLINE
5
19E
100
AcDbEntity
8
1
62
256
6
ByLayer
370
18
48
1
60
0
100
AcDbSpline
70
4
71
3
72
28
73
24
40
0
40
0
40
0
40
0
40
0.124999999999922
40
0.124999999999922
40
0.187499999999927
40
0.187499999999927
40
0.249999999999932
40
0.312499999999938
40
0.312499999999938
40
0.374999999999943
40
0.374999999999943
40
0.499999999999954
40
0.499999999999954
40
0.624999999999965
40
0.624999999999965
40
0.749999999999976
40
0.749999999999976
40
0.812499999999982
40
0.812499999999982
40
0.874999999999988
40
0.937499999999994
40
0.937499999999994
40
1
40
1
40
1
40
1
41
1
10
46.7868934162623
20
-1.85367801295152
30
0
41
1
10
46.792934033309
20
-1.84635422303472
30
0
41
1
10
46.8000678931707
20
-1.84070065027044
30
0
41
1
10
46.812013832027
20
-1.83409784296643
30
0
41
1
10
46.8162351594768
20
-1.83221207222658
30
0
41
1
10
46.8248760538458
20
-1.8291178188594
30
0
41
1
10
46.8337439123378
20
-1.82667513246238
30
0
41
1
10
46.8430143026643
20
-1.82541272465295
30
0
41
1
10
46.8524730947351
20
-1.82471075659927
30
0
41
1
10
46.8573187443452
20
-1.82464142455109
30
0
41
1
10
46.8719632921379
20
-1.8252613211472
30
0
41
1
10
46.8818085958514
20
-1.82675254616842
30
0
41
1
10
46.901618664101
20
-1.8318022376709
30
0
41
1
10
46.9116601213848
20
-1.83541119979108
30
0
41
1
10
46.931093595112
20
-1.84456849692708
30
0
41
1
10
46.9405620655333
20
-1.85011768557553
30
0
41
1
10
46.9543132687849
20
-1.86010032137344
30
0
41
1
10
46.9588480698488
20
-1.86373189601076
30
0
41
1
10
46.9676020770659
20
-1.87151287601446
30
0
41
1
10
46.9760064584728
20
-1.87977214152841
30
0
41
1
10
46.9836519652627
20
-1.8890669701492
30
0
41
1
10
46.9908593884032
20
-1.89896015757068
30
0
41
1
10
46.994230964636
20
-1.90419566488401
30
0
41
1
10
46.9972656177025
20
-1.90965555131123
30
0
0
SPLINE
5
19F
100
AcDbEntity
8
1
62
256
6
ByLayer
370
18
48
1
60
0
100
AcDbSpline
70
4
71
3
72
10
73
6
40
0
40
0
40
0
40
0
40
0.5
40
0.5
40
1
40
1
40
1
40
1
41
1
10
46.9972656177067
20
-1.90965555131723
30
0
41
1
10
47.0363596648466
20
-1.97999277034046
30
0
41
1
10
47.0751373383254
20
-2.05003454891565
30
0
41
1
10
47.1522357758863
20
-2.18945480484137
30
0
41
1
10
47.1905267931582
20
-2.25877962525703
30
0
41
1
10
47.2285291521664
20
-2.32748343353714
30
0
0
SPLINE
5
1A0
100
AcDbEntity
8
1
62
256
6
ByLayer
370
18
48
1
60
0
100
AcDbSpline
70
4
71
3
72
8
73
4
40
0
40
0
40
0
40
0
40
1
40
1
40
1
40
1
41
1
10
47.2285291521664
20
-2.32748343353711
30
0
41
1
10
47.2957489132859
20
-2.31875034759389
30
0
41
1
10
47.3633427491233
20
-2.30717382484843
30
0
41
1
10
47.4313776611187
20
-2.29284183425619
30
0
0
SPLINE
5
1A1
100
AcDbEntity
8
1
62
256
6
ByLayer
370
18
48
1
60
0
100
AcDbSpline
70
4
71
3
72
10
73
6
40
0
40
0
40
0
40
0
40
0.5
40
0.5
40
1
40
1
40
1
40
1
41
1
10
47.4313776611187
20
-2.29284183425619
30
0
41
1
10
47.4626081203791
20
-2.24611433952347
30
0
41
1
10
47.4940545237582
20
-2.19830091283745
30
0
41
1
10
47.5572523315739
20
-2.10085482152874
30
0
41
1
10
47.589018506728
20
-2.05120104354418
30
0
41
1
10
47.6210003672358
20
-2.00062622116198
30
0
0
SPLINE
5
1A2
100
AcDbEntity
8
1
62
256
6
ByLayer
370
18
48
1
60
0
100
AcDbSpline
70
4
71
3
72
29
73
25
40
0
40
0
40
0
40
0
40
0.125000000000173
40
0.125000000000173
40
0.187500000000214
40
0.187500000000214
40
0.250000000000256
40
0.312500000000298
40
0.312500000000298
40
0.375000000000339
40
0.375000000000339
40
0.500000000000313
40
0.500000000000313
40
0.625000000000287
40
0.625000000000287
40
0.75000000000026
40
0.75000000000026
40
0.812500000000195
40
0.812500000000195
40
0.87500000000013
40
0.87500000000013
40
0.937500000000065
40
0.937500000000065
40
1
40
1
40
1
40
1
41
1
10
47.6210003672357
20
-2.00062622116195
30
0
41
1
10
47.6270488887064
20
-1.99106133362272
30
0
41
1
10
47.6341988843984
20
-1.98304534051661
30
0
41
1
10
47.6461787830564
20
-1.97277407919449
30
0
41
1
10
47.6504125939785
20
-1.9696371376059
30
0
41
1
10
47.6590745029866
20
-1.96406141084699
30
0
41
1
10
47.6679617804957
20
-1.95914696696249
30
0
41
1
10
47.677252533093
20
-1.95542306366286
30
0
41
1
10
47.6867322231245
20
-1.95226359421343
30
0
41
1
10
47.691589843822
20
-1.95096213944092
30
0
41
1
10
47.7062469629109
20
-1.9479353015054
30
0
41
1
10
47.7160982091607
20
-1.9470674779956
30
0
41
1
10
47.7359139033967
20
-1.94751800593787
30
0
41
1
10
47.745943237018
20
-1.94887027627035
30
0
41
1
10
47.7653399418954
20
-1.95377640891613
30
0
41
1
10
47.7747924516541
20
-1.95731513958847
30
0
41
1
10
47.7885268682178
20
-1.96447026211689
30
0
41
1
10
47.7930580723995
20
-1.96718717802335
30
0
41
1
10
47.8017784492861
20
-1.97321668279511
30
0
41
1
10
47.8059670230968
20
-1.97652233896125
30
0
41
1
10
47.8139702745873
20
-1.98376736109819
30
0
41
1
10
47.8177853496078
20
-1.98770584571139
30
0
41
1
10
47.824983388362
20
-1.99631678934071
30
0
41
1
10
47.8283449933584
20
-2.00097057030126
30
0
41
1
10
47.8313750832656
20
-2.00594421094578
30
0
0
SPLINE
5
1A3
100
AcDbEntity
8
1
62
256
6
ByLayer
370
18
48
1
60
0
100
AcDbSpline
70
4
71
3
72
20
73
16
40
0
40
0
40
0
40
0
40
0.117157349069
40
0.117157349069
40
0.291167949961804
40
0.291167949961804
40
0.465178550854608
40
0.465178550854608
40
0.639189151747411
40
0.639189151747411
40
0.813199752640215
40
0.813199752640215
40
0.987210353533019
40
0.987210353533019
40
1
40
1
40
1
40
1
41
1
10
26.3373548028059
20
-1.86552016153695
30
0
41
1
10
26.3393839844825
20
-1.81979954815793
30
0
41
1
10
26.3426996129117
20
-1.77417541626721
30
0
41
1
10
26.3568337191007
20
-1.6619706130225
30
0
41
1
10
26.3694659879228
20
-1.59710063045756
30
0
41
1
10
26.3987003839759
20
-1.4694350223067
30
0
41
1
10
26.415963731449
20
-1.40693354201659
30
0
41
1
10
26.4566382552981
20
-1.28535134196696
30
0
41
1
10
26.4796893536352
20
-1.22741013053263
30
0
41
1
10
26.5318202428371
20
-1.11785863533632
30
0
41
1
10
26.5611808366337
20
-1.06583199382709
30
0
41
1
10
26.6254390442421
20
-0.971269555673302
30
0
41
1
10
26.6600881558438
20
-0.928914291742643
30
0
41
1
10
26.7001473224747
20
-0.889043089943442
30
0
41
1
10
26.70290644144
20
-0.886340758232564
30
0
41
1
10
26.7056811678564
20
-0.883666630012698
30
0
0
SPLINE
5
1A4
100
AcDbEntity
8
1
62
256
6
ByLayer
370
18
48
1
60
0
100
AcDbSpline
70
4
71
3
72
12
73
8
40
0
40
0
40
0
40
0
40
0.0938289952989655
40
0.0938289952989655
40
0.546914497649483
40
0.546914497649483
40
1
40
1
40
1
40
1
41
1
10
41.8136831306244
20
-2.45550837436988
30
0
41
1
10
41.8127835491817
20
-2.45551889599096
30
0
41
1
10
41.8118847358858
20
-2.45534187272213
30
0
41
1
10
41.8066474745883
20
-2.45322448560592
30
0
41
1
10
41.802308973229
20
-2.44713624499943
30
0
41
1
10
41.7936416817774
20
-2.42637281831477
30
0
41
1
10
41.7893146161988
20
-2.41169787588655
30
0
41
1
10
41.7849734979486
20
-2.39263234491475
30
0
0
SPLINE
5
1A5
100
AcDbEntity
8
1
62
256
6
ByLayer
370
18
48
1
60
0
100
AcDbSpline
70
4
71
3
72
14
73
10
40
0
40
0
40
0
40
0
40
0.402532440271038
40
0.402532440271038
40
0.603798660406557
40
0.603798660406557
40
0.805064880542076
40
0.805064880542076
40
1
40
1
40
1
40
1
41
1
10
41.7071878792202
20
-2.37518104260266
30
0
41
1
10
41.7115222742013
20
-2.3965185938645
30
0
41
1
10
41.7158540389945
20
-2.41373676378873
30
0
41
1
10
41.7224182927854
20
-2.43319628061405
30
0
41
1
10
41.7246219006045
20
-2.43861675978189
30
0
41
1
10
41.7290060336461
20
-2.44719910379493
30
0
41
1
10
41.7311918257006
20
-2.45038249997424
30
0
41
1
10
41.7354810676921
20
-2.45450597436602
30
0
41
1
10
41.7375845212361
20
-2.45551542801837
30
0
41
1
10
41.7396830844148
20
-2.45551077702845
30
0
0
SPLINE
5
1A6
100
AcDbEntity
8
1
62
256
6
ByLayer
370
18
48
1
60
0
100
AcDbSpline
70
4
71
3
72
14
73
10
40
0
40
0
40
0
40
0
40
0.0479034261074942
40
0.0479034261074942
40
0.238322740885996
40
0.238322740885996
40
0.619161370442998
40
0.619161370442998
40
1
40
1
40
1
40
1
41
1
10
43.7240305109929
20
2.45550875920702
30
0
41
1
10
43.7245812221193
20
2.45550760375823
30
0
41
1
10
43.7251323806597
20
2.4554365605043
30
0
41
1
10
43.7278767126721
20
2.45473379933318
30
0
41
1
10
43.7300805375073
20
2.45305207737164
30
0
41
1
10
43.7366455174434
20
2.44471897486156
30
0
41
1
10
43.7409815453039
20
2.43479895043029
30
0
41
1
10
43.749645688871
20
2.40646735918739
30
0
41
1
10
43.7539839325435
20
2.38805538826739
30
0
41
1
10
43.7583449123506
20
2.36537858446215
30
0
0
SPLINE
5
1A7
100
AcDbEntity
8
1
62
256
6
ByLayer
370
18
48
1
60
0
100
AcDbSpline
70
4
71
3
72
15
73
11
40
0
40
0
40
0
40
0
40
0.171234922430931
40
0.171234922430931
40
0.256852383646395
40
0.256852383646395
40
0.34246984486186
40
0.684939689723713
40
0.684939689723713
40
1
40
1
40
1
40
1
41
1
10
43.8364351127759
20
2.34452919702301
30
0
41
1
10
43.8342585108773
20
2.35710451903202
30
0
41
1
10
43.8320719609883
20
2.36866994438736
30
0
41
1
10
43.8287784037211
20
2.38447256041914
30
0
41
1
10
43.8276768094763
20
2.38948802266435
30
0
41
1
10
43.8254804800008
20
2.39894841176096
30
0
41
1
10
43.8200015602921
20
2.42119651112605
30
0
41
1
10
43.8145830643577
20
2.43653980330672
30
0
41
1
10
43.8062794894244
20
2.4518290187977
30
0
41
1
10
43.8023069823819
20
2.45550572453149
30
0
41
1
10
43.7983044232166
20
2.45550887033713
30
0
0
SPLINE
5
1A8
100
AcDbEntity
8
1
62
256
6
ByLayer
370
18
48
1
60
0
100
AcDbSpline
70
4
71
3
72
8
73
4
40
0
40
0
40
0
40
0
40
1
40
1
40
1
40
1
41
1
10
46.5894442435341
20
-2.44279594108892
30
0
41
1
10
46.5866765352103
20
-2.44826590399509
30
0
41
1
10
46.5839116849496
20
-2.45196470961807
30
0
41
1
10
46.5811488804142
20
-2.45390424769954
30
0
0
SPLINE
5
1A9
100
AcDbEntity
8
1
62
256
6
ByLayer
370
18
48
1
60
0
100
AcDbSpline
70
4
71
3
72
19
73
15
40
0
40
0
40
0
40
0
40
0.173894835788174
40
0.173894835788174
40
0.277157981314652
40
0.277157981314652
40
0.380421126841129
40
0.380421126841129
40
0.586947417894086
40
0.793473708947043
40
0.793473708947043
40
0.896736854473522
40
0.896736854473522
40
1
40
1
40
1
40
1
41
1
10
46.5765967357645
20
-2.45550936278008
30
0
41
1
10
46.5729455816246
20
-2.4555196574162
30
0
41
1
10
46.5692941691018
20
-2.45244976688397
30
0
41
1
10
46.5634451035079
20
-2.44255881818646
30
0
41
1
10
46.5612563821079
20
-2.43775870572509
30
0
41
1
10
46.5568625396071
20
-2.42592038890905
30
0
41
1
10
46.5546701101495
20
-2.4189229249352
30
0
41
1
10
46.5481011372111
20
-2.39476548600885
30
0
41
1
10
46.5393755166609
20
-2.35413196621175
30
0
41
1
10
46.5306952342787
20
-2.29696885189026
30
0
41
1
10
46.5241554902181
20
-2.24781783681252
30
0
41
1
10
46.5219702376957
20
-2.23038570124834
30
0
41
1
10
46.5175761106302
20
-2.19338544008227
30
0
41
1
10
46.5153618906846
20
-2.17377571155626
30
0
41
1
10
46.5131597415745
20
-2.15331491063381
30
0
0
SPLINE
5
1AA
100
AcDbEntity
8
1
62
256
6
ByLayer
370
18
48
1
60
0
100
AcDbSpline
70
4
71
3
72
20
73
16
40
0
40
0
40
0
40
0
40
0.194830878143624
40
0.194830878143624
40
0.292246317215436
40
0.340954036751342
40
0.340954036751342
40
0.389661756287249
40
0.389661756287249
40
0.584492634430878
40
0.584492634430878
40
0.779323512574506
40
0.974154390718135
40
0.974154390718135
40
1
40
1
40
1
40
1
41
1
10
46.4352133768129
20
-2.11670318488839
30
0
41
1
10
46.4395483027136
20
-2.159497991812
30
0
41
1
10
46.4438859772273
20
-2.19848582323999
30
0
41
1
10
46.4504038556135
20
-2.25121642404224
30
0
41
1
10
46.4536662338761
20
-2.27614109747435
30
0
41
1
10
46.4569408493142
20
-2.29887051586164
30
0
41
1
10
46.4591278589777
20
-2.31352985098911
30
0
41
1
10
46.4602249227806
20
-2.32062251352974
30
0
41
1
10
46.4656975828465
20
-2.35467838894732
30
0
41
1
10
46.4700439755996
20
-2.37747723743743
30
0
41
1
10
46.47874687047
20
-2.41447582607907
30
0
41
1
10
46.4874388187084
20
-2.44287337300042
30
0
41
1
10
46.4961448059317
20
-2.4540932796032
30
0
41
1
10
46.5011174630862
20
-2.45543046879371
30
0
41
1
10
46.5017010115141
20
-2.45550874700493
30
0
41
1
10
46.5022848714438
20
-2.45550849537631
30
0
0
SPLINE
5
1AB
100
AcDbEntity
8
1
62
256
6
ByLayer
370
18
48
1
60
0
100
AcDbSpline
70
4
71
3
72
23
73
19
40
0
40
0
40
0
40
0
40
0.0814066366501557
40
0.122109954975233
40
0.122109954975233
40
0.162813273300311
40
0.162813273300311
40
0.325626546600619
40
0.325626546600619
40
0.488439819900927
40
0.651253093201236
40
0.651253093201236
40
0.73265972985139
40
0.73265972985139
40
0.814066366501544
40
0.814066366501544
40
0.976879639801852
40
1
40
1
40
1
40
1
41
1
10
39.2417672617571
20
1.83699598216455
30
0
41
1
10
39.2402440774525
20
1.85673884306459
30
0
41
1
10
39.2379554331704
20
1.88531270283016
30
0
41
1
10
39.2356564458466
20
1.91229770168425
30
0
41
1
10
39.234120741289
20
1.92993009200421
30
0
41
1
10
39.2333510911185
20
1.93857001861807
30
0
41
1
10
39.2295147836695
20
1.98063298957365
30
0
41
1
10
39.2264651570691
20
2.01085207705694
30
0
41
1
10
39.2203563574173
20
2.06461090226551
30
0
41
1
10
39.2142508188486
20
2.11169659441976
30
0
41
1
10
39.2081363923768
20
2.14546089699164
30
0
41
1
10
39.2035189829146
20
2.16563842092043
30
0
41
1
10
39.2019699467561
20
2.17151705222261
30
0
41
1
10
39.1988808210496
20
2.18142736666167
30
0
41
1
10
39.1973395012651
20
2.18546781874076
30
0
41
1
10
39.192718044944
20
2.19489252289026
30
0
41
1
10
39.1892081821767
20
2.19797211765513
30
0
41
1
10
39.185704667499
20
2.19644569055768
30
0
41
1
10
39.18526905806
20
2.19618449550728
30
0
0
SPLINE
5
1AC
100
AcDbEntity
8
1
62
256
6
ByLayer
370
18
48
1
60
0
100
AcDbSpline
70
4
71
3
72
24
73
20
40
0
40
0
40
0
40
0
40
0.05942358311469
40
0.05942358311469
40
0.106452403958956
40
0.106452403958956
40
0.153481224803222
40
0.153481224803222
40
0.247538866491753
40
0.247538866491753
40
0.435654149868815
40
0.623769433245877
40
0.623769433245877
40
0.717827074934408
40
0.717827074934408
40
0.764855895778674
40
0.764855895778674
40
0.81188471662294
40
1
40
1
40
1
40
1
41
1
10
41.019860136761
20
-2.45551035653966
30
0
41
1
10
41.0184844585079
20
-2.45550820845466
30
0
41
1
10
41.0171072367469
20
-2.45507012781721
30
0
41
1
10
41.0146357984743
20
-2.45349825491689
30
0
41
1
10
41.01354233293
20
-2.45252793318707
30
0
41
1
10
41.0113507508568
20
-2.45002918605829
30
0
41
1
10
41.0102520254555
20
-2.44849888813565
30
0
41
1
10
41.0069656864704
20
-2.44309641013035
30
0
41
1
10
41.0047809324221
20
-2.43840774773525
30
0
41
1
10
40.9982321794314
20
-2.42114503635122
30
0
41
1
10
40.9895297316577
20
-2.38962010130933
30
0
41
1
10
40.9808770372243
20
-2.34133995258571
30
0
41
1
10
40.9743625375121
20
-2.29874373150614
30
0
41
1
10
40.9721864505587
20
-2.28347856720961
30
0
41
1
10
40.9689059354458
20
-2.25894853575102
30
0
41
1
10
40.9678085008288
20
-2.25048982821426
30
0
41
1
10
40.9656184291717
20
-2.23312034671994
30
0
41
1
10
40.960148442584
20
-2.18851965642409
30
0
41
1
10
40.9547169436624
20
-2.1381250229351
30
0
41
1
10
40.9503934320259
20
-2.09419011364758
30
0
0
SPLINE
5
1AD
100
AcDbEntity
8
1
62
256
6
ByLayer
370
18
48
1
60
0
100
AcDbSpline
70
4
71
3
72
16
73
12
40
0
40
0
40
0
40
0
40
0.178166545425917
40
0.178166545425917
40
0.356333090851835
40
0.534499636277752
40
0.534499636277752
40
0.712666181703669
40
0.712666181703669
40
0.890832727129586
40
1
40
1
40
1
40
1
41
1
10
40.8726027016186
20
-2.05480856557756
30
0
41
1
10
40.8769775912364
20
-2.10135953013952
30
0
41
1
10
40.8813267421033
20
-2.14387990521365
30
0
41
1
10
40.8900357647848
20
-2.22108212752789
30
0
41
1
10
40.8987298605566
20
-2.29044469668818
30
0
41
1
10
40.9074111179829
20
-2.3440716893337
30
0
41
1
10
40.9161604601282
20
-2.38954146890398
30
0
41
1
10
40.9205066628865
20
-2.40781559450932
30
0
41
1
10
40.9291904173013
20
-2.43569333265515
30
0
41
1
10
40.9361725419418
20
-2.45119947509534
30
0
41
1
10
40.9431490342604
20
-2.45551414838098
30
0
41
1
10
40.9458068039097
20
-2.45551071491525
30
0
0
SPLINE
5
1AE
100
AcDbEntity
8
1
62
256
6
ByLayer
370
18
48
1
60
0
100
AcDbSpline
70
4
71
3
72
24
73
20
40
0
40
0
40
0
40
0
40
0.130360636935453
40
0.130360636935453
40
0.217324573241909
40
0.260806541395136
40
0.260806541395136
40
0.304288509548363
40
0.304288509548363
40
0.478216382161273
40
0.478216382161273
40
0.652144254774182
40
0.652144254774182
40
0.826072127387092
40
0.826072127387092
40
0.869554095540319
40
0.869554095540319
40
0.913036063693546
40
1
40
1
40
1
40
1
41
1
10
44.5179415361117
20
2.45550990067008
30
0
41
1
10
44.5211747158063
20
2.4555104338603
30
0
41
1
10
44.5244140952548
20
2.45308076045279
30
0
41
1
10
44.5298289614006
20
2.44495795574275
30
0
41
1
10
44.533084399657
20
2.4384485523685
30
0
41
1
10
44.5363517362803
20
2.42945011943797
30
0
41
1
10
44.538533429605
20
2.42289158667407
30
0
41
1
10
44.5396276092675
20
2.41932669817552
30
0
41
1
10
44.5450855386735
20
2.40017235973744
30
0
41
1
10
44.5494081345001
20
2.38062434292428
30
0
41
1
10
44.5580534606524
20
2.33336105542057
30
0
41
1
10
44.5623830247117
20
2.30564517579367
30
0
41
1
10
44.571055993802
20
2.24205899581691
30
0
41
1
10
44.575397999259
20
2.20618925848956
30
0
41
1
10
44.5808595851793
20
2.15610000665529
30
0
41
1
10
44.581955244853
20
2.14580426305466
30
0
41
1
10
44.5841436962755
20
2.12475474880821
30
0
41
1
10
44.5874192036433
20
2.09252359249524
30
0
41
1
10
44.5906792853455
20
2.05834644853982
30
0
41
1
10
44.5928522874696
20
2.03471179477049
30
0
0
SPLINE
5
1AF
100
AcDbEntity
8
1
62
256
6
ByLayer
370
18
48
1
60
0
100
AcDbSpline
70
4
71
3
72
22
73
18
40
0
40
0
40
0
40
0
40
0.165840335935529
40
0.331680671871058
40
0.331680671871058
40
0.414600839838823
40
0.414600839838823
40
0.497521007806588
40
0.497521007806588
40
0.663361343742116
40
0.829201679677645
40
0.829201679677645
40
0.912121847645409
40
0.912121847645409
40
0.995042015613173
40
0.995042015613173
40
1
40
1
40
1
40
1
41
1
10
44.6709608597203
20
1.99241527998549
30
0
41
1
10
44.6665989010179
20
2.04186534844126
30
0
41
1
10
44.6579182200202
20
2.1332586536268
30
0
41
1
10
44.6492591309351
20
2.20978834758543
30
0
41
1
10
44.6427053953113
20
2.26148730801256
30
0
41
1
10
44.6405056578569
20
2.27779162619467
30
0
41
1
10
44.6360928588159
20
2.30835220649476
30
0
41
1
10
44.6338931415778
20
2.32252640741078
30
0
41
1
10
44.6273143063703
20
2.36180155823291
30
0
41
1
10
44.6185996961304
20
2.4055257635294
30
0
41
1
10
44.609927757
20
2.43228089329043
30
0
41
1
10
44.6033754715923
20
2.44589789617606
30
0
41
1
10
44.6011815746037
20
2.449359903692
30
0
41
1
10
44.5967740830493
20
2.45408905626459
30
0
41
1
10
44.5945577848418
20
2.45534998772018
30
0
41
1
10
44.5922260124777
20
2.45550317108908
30
0
41
1
10
44.5920944939614
20
2.45550786655784
30
0
41
1
10
44.5919630122524
20
2.45550861820385
30
0
0
SPLINE
5
1B0
100
AcDbEntity
8
1
62
256
6
ByLayer
370
18
48
1
60
0
100
AcDbSpline
70
4
71
3
72
26
73
22
40
0
40
0
40
0
40
0
40
0.124999999999999
40
0.249999999999997
40
0.249999999999997
40
0.312499999999997
40
0.312499999999997
40
0.343749999999997
40
0.343749999999997
40
0.374999999999996
40
0.499999999999997
40
0.624999999999998
40
0.624999999999998
40
0.687499999999999
40
0.687499999999999
40
0.718749999999999
40
0.718749999999999
40
0.749999999999999
40
0.749999999999999
40
0.874999999999999
40
1
40
1
40
1
40
1
41
1
10
45.7834134840437
20
-2.45546530297403
30
0
41
1
10
45.7790526635102
20
-2.45596910482655
30
0
41
1
10
45.7703856021774
20
-2.44821946918597
30
0
41
1
10
45.7617757265726
20
-2.42325491679844
30
0
41
1
10
45.7552774243102
20
-2.39798146801246
30
0
41
1
10
45.7531036467946
20
-2.38846318916623
30
0
41
1
10
45.7498213875526
20
-2.37251300466213
30
0
41
1
10
45.7487224132247
20
-2.36690852965535
30
0
41
1
10
45.7465271727839
20
-2.35518352414098
30
0
41
1
10
45.74104717832
20
-2.32459303560736
30
0
41
1
10
45.7312675422011
20
-2.25821255859424
30
0
41
1
10
45.7226372258393
20
-2.18352328848863
30
0
41
1
10
45.7161273931497
20
-2.12158995235694
30
0
41
1
10
45.7139500348704
20
-2.09995755313869
30
0
41
1
10
45.7106658755181
20
-2.06600473631599
30
0
41
1
10
45.7095684634639
20
-2.05443629018916
30
0
41
1
10
45.7073684500421
20
-2.03079235201156
30
0
41
1
10
45.7062643592123
20
-2.01870012724908
30
0
41
1
10
45.7007498119359
20
-1.95716751332705
30
0
41
1
10
45.6920039309452
20
-1.85229674840534
30
0
41
1
10
45.6833470287243
20
-1.73502371982843
30
0
41
1
10
45.679000071626
20
-1.67329526872896
30
0
0
SPLINE
5
1B1
100
AcDbEntity
8
1
62
256
6
ByLayer
370
18
48
1
60
0
100
AcDbSpline
70
4
71
3
72
30
73
26
40
0
40
0
40
0
40
0
40
0.0312500000000006
40
0.0312500000000006
40
0.0625000000000012
40
0.0625000000000012
40
0.125000000000001
40
0.125000000000001
40
0.250000000000003
40
0.250000000000003
40
0.375000000000004
40
0.375000000000004
40
0.437500000000005
40
0.437500000000005
40
0.500000000000005
40
0.500000000000005
40
0.625000000000005
40
0.625000000000005
40
0.750000000000004
40
0.750000000000004
40
0.812500000000003
40
0.812500000000003
40
0.875000000000003
40
0.875000000000003
40
1
40
1
40
1
40
1
41
1
10
45.6010402229874
20
-1.6187024761264
30
0
41
1
10
45.6021298848913
20
-1.63464562433805
30
0
41
1
10
45.6032211138317
20
-1.65043365928986
30
0
41
1
10
45.6054070937859
20
-1.6816961251767
30
0
41
1
10
45.6065034548612
20
-1.69719288649509
30
0
41
1
10
45.6097848967422
20
-1.74301419373293
30
0
41
1
10
45.611961299229
20
-1.77265978979383
30
0
41
1
10
45.6184679060898
20
-1.85894676712118
30
0
41
1
10
45.6227741161734
20
-1.91294526235677
30
0
41
1
10
45.6314163510407
20
-2.0140110572263
30
0
41
1
10
45.6357544764704
20
-2.06107828822641
30
0
41
1
10
45.6422879429312
20
-2.126407199483
30
0
41
1
10
45.6444704892799
20
-2.14730311612436
30
0
41
1
10
45.6488497455822
20
-2.18729999772387
30
0
41
1
10
45.6510483461845
20
-2.20640995638178
30
0
41
1
10
45.6576000667637
20
-2.26037383131865
30
0
41
1
10
45.6619334540927
20
-2.2921121303898
30
0
41
1
10
45.6706237893516
20
-2.3473331975361
30
0
41
1
10
45.6749770394422
20
-2.37081565114775
30
0
41
1
10
45.6815112386812
20
-2.3998135068538
30
0
41
1
10
45.6836905043129
20
-2.40843978225411
30
0
41
1
10
45.6880560789187
20
-2.42358205249525
30
0
41
1
10
45.690244919883
20
-2.43010429615302
30
0
41
1
10
45.6968191344125
20
-2.44639247437871
30
0
41
1
10
45.7011555769952
20
-2.45276082594952
30
0
41
1
10
45.705500413846
20
-2.45479431706144
30
0
0
SPLINE
5
1B2
100
AcDbEntity
8
1
62
256
6
ByLayer
370
18
48
1
60
0
100
AcDbSpline
70
4
71
3
72
94
73
90
40
0
40
0
40
0
40
0
40
0.0312499999999954
40
0.0312499999999954
40
0.0468749999999945
40
0.0468749999999945
40
0.0624999999999937
40
0.0624999999999937
40
0.124999999999996
40
0.124999999999996
40
0.187499999999999
40
0.187499999999999
40
0.203124999999999
40
0.203124999999999
40
0.218749999999998
40
0.218749999999998
40
0.250000000000001
40
0.250000000000001
40
0.281250000000005
40
0.281250000000005
40
0.296875000000004
40
0.296875000000004
40
0.312500000000004
40
0.312500000000004
40
0.328125000000004
40
0.328125000000004
40
0.343750000000003
40
0.343750000000003
40
0.374999999999999
40
0.374999999999999
40
0.406249999999995
40
0.406249999999995
40
0.437499999999991
40
0.437499999999991
40
0.453124999999989
40
0.453124999999989
40
0.468749999999986
40
0.468749999999986
40
0.484374999999984
40
0.484374999999984
40
0.499999999999982
40
0.499999999999982
40
0.51562499999998
40
0.51562499999998
40
0.52343749999998
40
0.52343749999998
40
0.531249999999981
40
0.531249999999981
40
0.546874999999981
40
0.546874999999981
40
0.554687499999981
40
0.554687499999981
40
0.562499999999982
40
0.562499999999982
40
0.578124999999983
40
0.578124999999983
40
0.585937499999984
40
0.585937499999984
40
0.593749999999984
40
0.593749999999984
40
0.609374999999985
40
0.609374999999985
40
0.617187499999986
40
0.617187499999986
40
0.624999999999987
40
0.624999999999987
40
0.656249999999988
40
0.656249999999988
40
0.664062499999989
40
0.664062499999989
40
0.671874999999991
40
0.671874999999991
40
0.687499999999994
40
0.687499999999994
40
0.718749999999999
40
0.718749999999999
40
0.750000000000003
40
0.750000000000003
40
0.765625000000004
40
0.765625000000004
40
0.781250000000005
40
0.781250000000005
40
0.812500000000004
40
0.812500000000004
40
0.875000000000003
40
0.875000000000003
40
0.937500000000001
40
0.937500000000001
40
1
40
1
40
1
40
1
41
1
10
27.6792795545751
20
1.80210161692932
30
0
41
1
10
27.6328007267303
20
1.81263539446471
30
0
41
1
10
27.5862735385296
20
1.82203868443858
30
0
41
1
10
27.5159106725646
20
1.83436490772507
30
0
41
1
10
27.4923594901461
20
1.83817831309329
30
0
41
1
10
27.4449659372632
20
1.84521780644116
30
0
41
1
10
27.4211078873195
20
1.84843948386646
30
0
41
1
10
27.3010410818936
20
1.86318206150071
30
0
41
1
10
27.2027088035139
20
1.87063724130164
30
0
41
1
10
26.9997416328966
20
1.87925103287552
30
0
41
1
10
26.895125443062
20
1.88041489588431
30
0
41
1
10
26.7592065085072
20
1.87974214483648
30
0
41
1
10
26.7317544734584
20
1.8795025517214
30
0
41
1
10
26.6762963501379
20
1.87886229169487
30
0
41
1
10
26.648227316628
20
1.87846049370361
30
0
41
1
10
26.5636931256238
20
1.87709562769959
30
0
41
1
10
26.5069329779379
20
1.87597726006311
30
0
41
1
10
26.3925377803153
20
1.87372371148683
30
0
41
1
10
26.3349146404966
20
1.8725835714813
30
0
41
1
10
26.2477506852862
20
1.87111928677098
30
0
41
1
10
26.2185743063558
20
1.87067182338444
30
0
41
1
10
26.1599598031808
20
1.86989691056661
30
0
41
1
10
26.1305130625752
20
1.86957460440047
30
0
41
1
10
26.0714152756359
20
1.86903799938037
30
0
41
1
10
26.0417587239931
20
1.86882648907093
30
0
41
1
10
25.9822346600309
20
1.86852515534738
30
0
41
1
10
25.9523201023634
20
1.86843530412972
30
0
41
1
10
25.8626146282532
20
1.86834861616853
30
0
41
1
10
25.8030499911236
20
1.86852011233176
30
0
41
1
10
25.6845013359708
20
1.86938172549097
30
0
41
1
10
25.6255118996833
20
1.87006934119651
30
0
41
1
10
25.5082249507
20
1.87189713322255
30
0
41
1
10
25.4499252002517
20
1.87304193057423
30
0
41
1
10
25.3631524501454
20
1.87492215681834
30
0
41
1
10
25.3344511574969
20
1.87557218833305
30
0
41
1
10
25.2780169928402
20
1.87684326488943
30
0
41
1
10
25.2502223823101
20
1.87746666047258
30
0
41
1
10
25.1956258716623
20
1.87858948878338
30
0
41
1
10
25.1687635411318
20
1.87908977290817
30
0
41
1
10
25.1164453932359
20
1.87980962808589
30
0
41
1
10
25.0912815639523
20
1.88002589769766
30
0
41
1
10
25.0433450393729
20
1.87996920009903
30
0
41
1
10
25.0205450691634
20
1.87969777541335
30
0
41
1
10
24.988481711007
20
1.87869990207071
30
0
41
1
10
24.978151463263
20
1.87826789490043
30
0
41
1
10
24.9582935022482
20
1.87715220029415
30
0
41
1
10
24.948733566615
20
1.87646391769511
30
0
41
1
10
24.9219803852156
20
1.87398232431258
30
0
41
1
10
24.9065225914586
20
1.87176954930405
30
0
41
1
10
24.8872388182514
20
1.8673341611358
30
0
41
1
10
24.8814425471254
20
1.86566277982305
30
0
41
1
10
24.8712873082858
20
1.8619191491828
30
0
41
1
10
24.866977385884
20
1.85986795889107
30
0
41
1
10
24.8562484218387
20
1.85315129801327
30
0
41
1
10
24.8520374206811
20
1.84792253974769
30
0
41
1
10
24.8497925347421
20
1.83885226963756
30
0
41
1
10
24.8497320153213
20
1.83562575609841
30
0
41
1
10
24.850864331181
20
1.82889552953659
30
0
41
1
10
24.8520514897707
20
1.82537626402609
30
0
41
1
10
24.8572758723361
20
1.81436755966837
30
0
41
1
10
24.8629675156396
20
1.80642779603929
30
0
41
1
10
24.8742159515842
20
1.79365086421572
30
0
41
1
10
24.8784343586889
20
1.78923382430682
30
0
41
1
10
24.8875930502513
20
1.78021679759024
30
0
41
1
10
24.8925381540221
20
1.7756098577222
30
0
41
1
10
24.918870200017
20
1.75210255633974
30
0
41
1
10
24.9449702957033
20
1.73179398638723
30
0
41
1
10
24.9816917690526
20
1.70472462933375
30
0
41
1
10
24.9892467397437
20
1.69922603622564
30
0
41
1
10
25.0047426844007
20
1.68806241625487
30
0
41
1
10
25.0126956623618
20
1.6823924945694
30
0
41
1
10
25.0369214706874
20
1.66523020817493
30
0
41
1
10
25.0535796689493
20
1.65354877364638
30
0
41
1
10
25.1049323109994
20
1.61786120584839
30
0
41
1
10
25.1410010277402
20
1.5932176919988
30
0
41
1
10
25.2160416625962
20
1.54243517798693
30
0
41
1
10
25.2550115673983
20
1.51629281758508
30
0
41
1
10
25.3151627198905
20
1.47599384977784
30
0
41
1
10
25.3354925637065
20
1.4623767200861
30
0
41
1
10
25.3766863059253
20
1.4347945836893
30
0
41
1
10
25.3975747885403
20
1.42080698107941
30
0
41
1
10
25.4605783596103
20
1.3785043712605
30
0
41
1
10
25.5030794459834
20
1.34981133460127
30
0
41
1
10
25.6315264663046
20
1.26208839406502
30
0
41
1
10
25.7183837082137
20
1.20140509587691
30
0
41
1
10
25.8933224523826
20
1.07527519960181
30
0
41
1
10
25.9814330575104
20
1.00983864058063
30
0
41
1
10
26.1586234557654
20
0.874118758927665
30
0
41
1
10
26.2477068439225
20
0.80383297398032
30
0
41
1
10
26.3373544143325
20
0.731142531434728
30
0
0
SPLINE
5
1B3
100
AcDbEntity
8
1
62
256
6
ByLayer
370
18
48
1
60
0
100
AcDbSpline
70
4
71
3
72
27
73
23
40
0
40
0
40
0
40
0
40
0.125
40
0.125
40
0.249999999999999
40
0.374999999999999
40
0.374999999999999
40
0.40625
40
0.40625
40
0.4375
40
0.5
40
0.5
40
0.625
40
0.75
40
0.75
40
0.78125
40
0.78125
40
0.8125
40
0.8125
40
0.875
40
0.875
40
1
40
1
40
1
40
1
41
1
10
39.9422014784733
20
1.53591834107152
30
0
41
1
10
39.9378358057219
20
1.60220384259924
30
0
41
1
10
39.9335048852546
20
1.66520871939954
30
0
41
1
10
39.9248335428959
20
1.78485911729408
30
0
41
1
10
39.916175576913
20
1.89814950474275
30
0
41
1
10
39.9075250341175
20
1.99871899894146
30
0
41
1
10
39.9020800352033
20
2.05746870474698
30
0
41
1
10
39.9009876303553
20
2.06902622806237
30
0
41
1
10
39.8988088388391
20
2.0916040359792
30
0
41
1
10
39.8955471888622
20
2.124700326723
30
0
41
1
10
39.8922926082167
20
2.15551266352105
30
0
41
1
10
39.8857922238314
20
2.21414142619483
30
0
41
1
10
39.877156399787
20
2.28433969831815
30
0
41
1
10
39.868555624181
20
2.33872662696993
30
0
41
1
10
39.863146248891
20
2.36766133329709
30
0
41
1
10
39.8620625258438
20
2.37319476872406
30
0
41
1
10
39.8598896410107
20
2.3837490691985
30
0
41
1
10
39.8587988781173
20
2.38877660094494
30
0
41
1
10
39.8555306121771
20
2.40301596069787
30
0
41
1
10
39.8533551277995
20
2.41139361791187
30
0
41
1
10
39.8468406181671
20
2.4332499416829
30
0
41
1
10
39.8425160573281
20
2.44346049206086
30
0
41
1
10
39.8382013266451
20
2.44938581188944
30
0
0
SPLINE
5
1B4
100
AcDbEntity
8
1
62
256
6
ByLayer
370
18
48
1
60
0
100
AcDbSpline
70
4
71
3
72
24
73
20
40
0
40
0
40
0
40
0
40
0.125000000000001
40
0.125000000000001
40
0.250000000000001
40
0.375000000000001
40
0.375000000000001
40
0.437500000000002
40
0.437500000000002
40
0.500000000000002
40
0.500000000000002
40
0.625000000000001
40
0.75
40
0.75
40
0.8125
40
0.8125
40
0.875
40
0.875
40
1
40
1
40
1
40
1
41
1
10
39.7600401432784
20
2.45353885471448
30
0
41
1
10
39.7644188812382
20
2.4501294804555
30
0
41
1
10
39.7687628023872
20
2.44233795106518
30
0
41
1
10
39.7774610339636
20
2.41829344806274
30
0
41
1
10
39.7861471451769
20
2.38578520548026
30
0
41
1
10
39.7948127643968
20
2.336403509083
30
0
41
1
10
39.801352560597
20
2.29285561631818
30
0
41
1
10
39.8035439920539
20
2.27721507805728
30
0
41
1
10
39.8079061831863
20
2.24409736733034
30
0
41
1
10
39.8100838541584
20
2.22658838948314
30
0
41
1
10
39.816611898889
20
2.17126196760603
30
0
41
1
10
39.8252907595242
20
2.09004223509277
30
0
41
1
10
39.8339306995313
20
1.99409577690992
30
0
41
1
10
39.8404428808207
20
1.91650378882548
30
0
41
1
10
39.842619428314
20
1.88969928000836
30
0
41
1
10
39.8469977609241
20
1.8341675796074
30
0
41
1
10
39.8491833844882
20
1.80566303125832
30
0
41
1
10
39.8557242361004
20
1.7180813236366
30
0
41
1
10
39.8600631480699
20
1.65689752133824
30
0
41
1
10
39.8643884971522
20
1.59297504668424
30
0
0
SPLINE
5
1B5
100
AcDbEntity
8
1
62
256
6
ByLayer
370
18
48
1
60
0
100
AcDbSpline
70
4
71
3
72
27
73
23
40
0
40
0
40
0
40
0
40
0.124999999999998
40
0.124999999999998
40
0.187499999999997
40
0.187499999999997
40
0.218749999999997
40
0.218749999999997
40
0.249999999999997
40
0.374999999999997
40
0.499999999999997
40
0.499999999999997
40
0.562499999999998
40
0.562499999999998
40
0.593749999999998
40
0.593749999999998
40
0.624999999999999
40
0.624999999999999
40
0.749999999999999
40
0.875
40
0.875
40
1
40
1
40
1
40
1
41
1
10
40.2205331144398
20
-2.45308828494072
30
0
41
1
10
40.2162085328851
20
-2.44936178800458
30
0
41
1
10
40.2118940982422
20
-2.44134417510065
30
0
41
1
10
40.2053821489213
20
-2.42276078779088
30
0
41
1
10
40.2032043219203
20
-2.41547137093514
30
0
41
1
10
40.1999155713696
20
-2.40285937460931
30
0
41
1
10
40.198817042194
20
-2.39837996855556
30
0
41
1
10
40.1966256189536
20
-2.38891394826891
30
0
41
1
10
40.1911535914893
20
-2.3639517435316
30
0
41
1
10
40.1813762060408
20
-2.30751919219256
30
0
41
1
10
40.1727462513519
20
-2.24135668662137
30
0
41
1
10
40.166242849907
20
-2.18567709448237
30
0
41
1
10
40.1640693241229
20
-2.16610566952178
30
0
41
1
10
40.1607907596361
20
-2.13520567755168
30
0
41
1
10
40.1596950824379
20
-2.12464840021215
30
0
41
1
10
40.1574983748534
20
-2.10301332007123
30
0
41
1
10
40.1563973992278
20
-2.0919351373953
30
0
41
1
10
40.1509117788259
20
-2.03556804349344
30
0
41
1
10
40.1422101727119
20
-1.93864724680571
30
0
41
1
10
40.1336049014765
20
-1.82866832227523
30
0
41
1
10
40.1249701444841
20
-1.71215659255407
30
0
41
1
10
40.1206264431005
20
-1.65063537022758
30
0
41
1
10
40.116246589757
20
-1.58574021377666
30
0
0
SPLINE
5
1B6
100
AcDbEntity
8
1
62
256
6
ByLayer
370
18
48
1
60
0
100
AcDbSpline
70
4
71
3
72
25
73
21
40
0
40
0
40
0
40
0
40
0.125
40
0.125
40
0.187499999999999
40
0.187499999999999
40
0.249999999999999
40
0.249999999999999
40
0.374999999999999
40
0.374999999999999
40
0.499999999999999
40
0.499999999999999
40
0.562499999999999
40
0.562499999999999
40
0.624999999999999
40
0.624999999999999
40
0.749999999999999
40
0.749999999999999
40
0.875
40
1
40
1
40
1
40
1
41
1
10
40.0384590085165
20
-1.52875902687842
30
0
41
1
10
40.0427898117876
20
-1.59444007005169
30
0
41
1
10
40.047139364883
20
-1.65748638116622
30
0
41
1
10
40.0536811455508
20
-1.74802709125765
30
0
41
1
10
40.0558651255742
20
-1.77753453260422
30
0
41
1
10
40.0602441816843
20
-1.83517393435255
30
0
41
1
10
40.0624242471977
20
-1.86310652503687
30
0
41
1
10
40.0689299104455
20
-1.94405299996578
30
0
41
1
10
40.0732280710226
20
-1.99433191942384
30
0
41
1
10
40.0818536101633
20
-2.08767036107497
30
0
41
1
10
40.0861759549768
20
-2.13072989910825
30
0
41
1
10
40.0926760093585
20
-2.18984775444517
30
0
41
1
10
40.0948458081061
20
-2.20864001411476
30
0
41
1
10
40.099196567871
20
-2.2443652536592
30
0
41
1
10
40.1013838124203
20
-2.2613415537428
30
0
41
1
10
40.1079114181892
20
-2.3089632129315
30
0
41
1
10
40.1122250143997
20
-2.33639646419309
30
0
41
1
10
40.1208650668753
20
-2.38288919058061
30
0
41
1
10
40.129502583703
20
-2.42100648123446
30
0
41
1
10
40.1381470623817
20
-2.44234881184406
30
0
41
1
10
40.1425018297167
20
-2.44868288192657
30
0
0
SPLINE
5
1B7
100
AcDbEntity
8
1
62
256
6
ByLayer
370
18
48
1
60
0
100
AcDbSpline
70
4
71
3
72
26
73
22
40
0
40
0
40
0
40
0
40
0.125000000000002
40
0.250000000000003
40
0.250000000000003
40
0.281250000000003
40
0.281250000000003
40
0.312500000000003
40
0.375000000000003
40
0.375000000000003
40
0.500000000000004
40
0.625000000000004
40
0.625000000000004
40
0.656250000000004
40
0.656250000000004
40
0.687500000000004
40
0.687500000000004
40
0.750000000000003
40
0.750000000000003
40
0.875000000000002
40
1
40
1
40
1
40
1
41
1
10
45.3229074698078
20
2.44590747436612
30
0
41
1
10
45.3272702546004
20
2.43845310016388
30
0
41
1
10
45.3359970666524
20
2.41494080470173
30
0
41
1
10
45.3446966539233
20
2.37421765185419
30
0
41
1
10
45.350160051622
20
2.34320962349983
30
0
41
1
10
45.3512553373045
20
2.33672196150289
30
0
41
1
10
45.3534381896688
20
2.32326063527347
30
0
41
1
10
45.3567044193759
20
2.30231882527647
30
0
41
1
10
45.3599575895375
20
2.27915446406382
30
0
41
1
10
45.3664634864299
20
2.22991018199968
30
0
41
1
10
45.3751222780199
20
2.15649096165723
30
0
41
1
10
45.383770742401
20
2.06767780101527
30
0
41
1
10
45.3892094184117
20
2.00724360956971
30
0
41
1
10
45.3902989471373
20
1.99490984724392
30
0
41
1
10
45.3924830226652
20
1.96974300399736
30
0
41
1
10
45.3935789701338
20
1.95689283235703
30
0
41
1
10
45.3968592746306
20
1.91779495239837
30
0
41
1
10
45.3990410569089
20
1.89095754913211
30
0
41
1
10
45.4055794187864
20
1.80817617311095
30
0
41
1
10
45.4142668956068
20
1.69176143069347
30
0
41
1
10
45.4229188578567
20
1.5634662711758
30
0
41
1
10
45.4272672333152
20
1.49630381725191
30
0
0
SPLINE
5
1B8
100
AcDbEntity
8
1
62
256
6
ByLayer
370
18
48
1
60
0
100
AcDbSpline
70
4
71
3
72
24
73
20
40
0
40
0
40
0
40
0
40
0.125000000000001
40
0.125000000000001
40
0.250000000000002
40
0.250000000000002
40
0.375000000000002
40
0.500000000000003
40
0.500000000000003
40
0.562500000000003
40
0.562500000000003
40
0.625000000000003
40
0.625000000000003
40
0.750000000000002
40
0.875000000000002
40
0.875000000000002
40
0.937500000000001
40
0.937500000000001
40
1
40
1
40
1
40
1
41
1
10
45.5053678034969
20
1.43678054443717
30
0
41
1
10
45.5010248881237
20
1.50518257736962
30
0
41
1
10
45.4966745506306
20
1.57132789519125
30
0
41
1
10
45.4879072486581
20
1.69867188774381
30
0
41
1
10
45.4835536438778
20
1.75883347025749
30
0
41
1
10
45.4748393449408
20
1.8723810232425
30
0
41
1
10
45.4661408912809
20
1.97915198083732
30
0
41
1
10
45.4574463494413
20
2.07242042739227
30
0
41
1
10
45.4508768213582
20
2.13716169755855
30
0
41
1
10
45.4486735109682
20
2.15791175117883
30
0
41
1
10
45.4442849435536
20
2.19720437784685
30
0
41
1
10
45.4420943562214
20
2.21579908904508
30
0
41
1
10
45.4355374048398
20
2.26848552238479
30
0
41
1
10
45.426837871982
20
2.33048962243666
30
0
41
1
10
45.4181853911416
20
2.37620489708672
30
0
41
1
10
45.4116572812753
20
2.4042614532795
30
0
41
1
10
45.4094743064148
20
2.41257328077063
30
0
41
1
10
45.4050797029389
20
2.42706977482283
30
0
41
1
10
45.4028850262265
20
2.43319894971367
30
0
41
1
10
45.4006989428811
20
2.43821907520754
30
0
0
SPLINE
5
1B9
100
AcDbEntity
8
1
62
256
6
ByLayer
370
18
48
1
60
0
100
AcDbSpline
70
4
71
3
72
22
73
18
40
0
40
0
40
0
40
0
40
0.25
40
0.25
40
0.375000000000001
40
0.375000000000001
40
0.437500000000001
40
0.437500000000001
40
0.500000000000001
40
0.500000000000001
40
0.750000000000001
40
0.750000000000001
40
0.875
40
0.875
40
0.9375
40
0.9375
40
1
40
1
40
1
40
1
41
1
10
48.3999890897606
20
-0.814427747849123
30
0
41
1
10
48.3988440609933
20
-0.704358331773562
30
0
41
1
10
48.3971788288247
20
-0.591322905563771
30
0
41
1
10
48.3941032637735
20
-0.417450157511013
30
0
41
1
10
48.3929845007544
20
-0.358767306265406
30
0
41
1
10
48.3911889917622
20
-0.269631034199534
30
0
41
1
10
48.3905694211772
20
-0.23973376003886
30
0
41
1
10
48.3892842791826
20
-0.17956347157687
30
0
41
1
10
48.3886174057136
20
-0.149232908105773
30
0
41
1
10
48.3851778077919
20
0.0027216942606856
30
0
41
1
10
48.3821301374404
20
0.123397379625743
30
0
41
1
10
48.3772319165293
20
0.303126040074659
30
0
41
1
10
48.3755357186042
20
0.362820551435874
30
0
41
1
10
48.3728701767224
20
0.452035773460324
30
0
41
1
10
48.3719616747996
20
0.481719663239772
30
0
41
1
10
48.3701025991184
20
0.540976588509778
30
0
41
1
10
48.3691511117389
20
0.570573518787455
30
0
41
1
10
48.3681884836606
20
0.599807218876208
30
0
0
SPLINE
5
1BA
100
AcDbEntity
8
1
62
256
6
ByLayer
370
13
48
1
60
0
100
AcDbSpline
70
4
71
3
72
11
73
7
40
0
40
0
40
0
40
0
40
0.274002744660724
40
0.622949899374166
40
0.971897054087609
40
1
40
1
40
1
40
1
41
1
10
48.2749374329585
20
-0.763683219727454
30
0
41
1
10
48.266035906357
20
-0.632995460273264
30
0
41
1
10
48.2457983730764
20
-0.323152427117663
30
0
41
1
10
48.2142252061376
20
0.182523427426332
30
0
41
1
10
48.1906405395103
20
0.55133819282193
30
0
41
1
10
48.178391366428
20
0.732576050501763
30
0
41
1
10
48.1774783882901
20
0.746024416766687
30
0
0
SPLINE
5
1BB
100
AcDbEntity
8
1
62
256
6
ByLayer
370
18
48
1
60
0
100
AcDbSpline
70
4
71
3
72
31
73
27
40
0
40
0
40
0
40
0
40
0.0625000000000008
40
0.0937500000000017
40
0.0937500000000017
40
0.125000000000003
40
0.125000000000003
40
0.250000000000004
40
0.375000000000005
40
0.375000000000005
40
0.500000000000006
40
0.500000000000006
40
0.531250000000006
40
0.531250000000006
40
0.562500000000006
40
0.625000000000006
40
0.625000000000006
40
0.750000000000004
40
0.750000000000004
40
0.875000000000003
40
0.875000000000003
40
0.906250000000002
40
0.906250000000002
40
0.937500000000001
40
0.937500000000001
40
1
40
1
40
1
40
1
41
1
10
44.9489258626896
20
-2.33387813068288
30
0
41
1
10
44.9467562134824
20
-2.32074193514242
30
0
41
1
10
44.9434883322224
20
-2.29944313464114
30
0
41
1
10
44.9402028414462
20
-2.27571306366068
30
0
41
1
10
44.9380085593924
20
-2.25934616758113
30
0
41
1
10
44.9369084380046
20
-2.2508807185628
30
0
41
1
10
44.9314286344979
20
-2.2074233978494
30
0
41
1
10
44.922753922432
20
-2.13036401471516
30
0
41
1
10
44.9141605082688
20
-2.03872314778585
30
0
41
1
10
44.9055026935589
20
-1.93979393379612
30
0
41
1
10
44.9011434855997
20
-1.88668580926162
30
0
41
1
10
44.8956582213056
20
-1.81559728263079
30
0
41
1
10
44.8945578830882
20
-1.80112556620332
30
0
41
1
10
44.8923647021052
20
-1.77186509222844
30
0
41
1
10
44.8890828646457
20
-1.72745792183801
30
0
41
1
10
44.8858217974572
20
-1.68152001442618
30
0
41
1
10
44.8793150257954
20
-1.58763669935601
30
0
41
1
10
44.874998501291
20
-1.52237631315728
30
0
41
1
10
44.8663104873265
20
-1.38656135377528
30
0
41
1
10
44.8619452106235
20
-1.31600678843347
30
0
41
1
10
44.8564619218816
20
-1.22442600074811
30
0
41
1
10
44.8553637973463
20
-1.20594003591918
30
0
41
1
10
44.8531640664973
20
-1.16862475582414
30
0
41
1
10
44.8520609174472
20
-1.14976866957809
30
0
41
1
10
44.8487617450655
20
-1.09296692237592
30
0
41
1
10
44.8465734037509
20
-1.05474427138475
30
0
41
1
10
44.8443918445062
20
-1.01617424957487
30
0
0
SPLINE
5
1BC
100
AcDbEntity
8
1
62
256
6
ByLayer
370
18
48
1
60
0
100
AcDbSpline
70
4
71
3
72
27
73
23
40
0
40
0
40
0
40
0
40
0.125000000000001
40
0.125000000000001
40
0.187500000000001
40
0.187500000000001
40
0.218750000000001
40
0.218750000000001
40
0.250000000000001
40
0.375000000000001
40
0.375000000000001
40
0.500000000000002
40
0.500000000000002
40
0.562500000000001
40
0.593750000000001
40
0.593750000000001
40
0.625000000000001
40
0.625000000000001
40
0.750000000000001
40
0.750000000000001
40
0.875
40
1
40
1
40
1
40
1
41
1
10
40.7767183462349
20
0.850148508584681
30
0
41
1
10
40.7723895998044
20
0.929079082088947
30
0
41
1
10
40.7680438008714
20
1.00650417536787
30
0
41
1
10
40.7615042549002
20
1.12034974654
30
0
41
1
10
40.7593207083458
20
1.15791549922653
30
0
41
1
10
40.7560369404576
20
1.21367844382337
30
0
41
1
10
40.7549392976555
20
1.23219537226706
30
0
41
1
10
40.7527502689191
20
1.26886482065564
30
0
41
1
10
40.747292252004
20
1.35963904840244
30
0
41
1
10
40.741898361118
20
1.44598711366657
30
0
41
1
10
40.7332539073679
20
1.57861774034251
30
0
41
1
10
40.7289223422394
20
1.64216960128647
30
0
41
1
10
40.7224173460773
20
1.73332597575643
30
0
41
1
10
40.7191623116987
20
1.77785924381615
30
0
41
1
10
40.715898466848
20
1.82080083970536
30
0
41
1
10
40.7137195926281
20
1.84907074389577
30
0
41
1
10
40.7126271460638
20
1.86304614128912
30
0
41
1
10
40.707175022329
20
1.93176108019529
30
0
41
1
10
40.7028594148716
20
1.98288426518275
30
0
41
1
10
40.6942123286123
20
2.07768972192213
30
0
41
1
10
40.6855539510971
20
2.16505259560157
30
0
41
1
10
40.6768819723194
20
2.23756627525688
30
0
41
1
10
40.6725172506243
20
2.26999816428827
30
0
0
SPLINE
5
1BD
100
AcDbEntity
8
1
62
256
6
ByLayer
370
18
48
1
60
0
100
AcDbSpline
70
4
71
3
72
28
73
24
40
0
40
0
40
0
40
0
40
0.125000000000001
40
0.125000000000001
40
0.156250000000001
40
0.156250000000001
40
0.1875
40
0.1875
40
0.25
40
0.25
40
0.374999999999999
40
0.499999999999998
40
0.499999999999998
40
0.562499999999998
40
0.562499999999998
40
0.624999999999999
40
0.624999999999999
40
0.749999999999999
40
0.874999999999999
40
0.874999999999999
40
0.9375
40
0.9375
40
1
40
1
40
1
40
1
41
1
10
40.5944398631026
20
2.29688654889756
30
0
41
1
10
40.5987685669254
20
2.26714754885384
30
0
41
1
10
40.6030953770412
20
2.23334471151762
30
0
41
1
10
40.608548182177
20
2.1858964813685
30
0
41
1
10
40.6096410767831
20
2.17614644624632
30
0
41
1
10
40.6118331887551
20
2.15612002441364
30
0
41
1
10
40.6129341647873
20
2.14582819183951
30
0
41
1
10
40.6162346260277
20
2.11428072304381
30
0
41
1
10
40.6184290632367
20
2.0923748514314
30
0
41
1
10
40.6249914743909
20
2.02408936890663
30
0
41
1
10
40.6336820133753
20
1.92620778846086
30
0
41
1
10
40.642309383739
20
1.81490103810668
30
0
41
1
10
40.6488218399503
20
1.72631859072808
30
0
41
1
10
40.651001111162
20
1.69593911249987
30
0
41
1
10
40.6553862237065
20
1.63344384964557
30
0
41
1
10
40.6575928854083
20
1.60128783819096
30
0
41
1
10
40.6641688920694
20
1.50332348019737
30
0
41
1
10
40.6728661518328
20
1.36802968257061
30
0
41
1
10
40.6814828622935
20
1.22363356724114
30
0
41
1
10
40.6879785217669
20
1.11190811814345
30
0
41
1
10
40.6901508875476
20
1.07409387442863
30
0
41
1
10
40.6945160644565
20
0.997304054501683
30
0
41
1
10
40.6967096511321
20
0.958294049665369
30
0
41
1
10
40.6989084764082
20
0.918761763412419
30
0
0
SPLINE
5
1BE
100
AcDbEntity
8
1
62
256
6
ByLayer
370
18
48
1
60
0
100
AcDbSpline
70
4
71
3
72
24
73
20
40
0
40
0
40
0
40
0
40
0.250000000000005
40
0.250000000000005
40
0.312500000000006
40
0.312500000000006
40
0.375000000000006
40
0.375000000000006
40
0.500000000000006
40
0.500000000000006
40
0.625000000000005
40
0.625000000000005
40
0.687500000000004
40
0.687500000000004
40
0.750000000000004
40
0.750000000000004
40
0.875000000000002
40
0.875000000000002
40
1
40
1
40
1
40
1
41
1
10
48.2311244378007
20
-0.778827107324929
30
0
41
1
10
48.2211832569122
20
-0.653554720791078
30
0
41
1
10
48.2120693090113
20
-0.524372975458874
30
0
41
1
10
48.2012822420143
20
-0.358153340244428
30
0
41
1
10
48.1991519072375
20
-0.324670889598821
30
0
41
1
10
48.1949405337692
20
-0.257223349308958
30
0
41
1
10
48.1928585314434
20
-0.223234674518437
30
0
41
1
10
48.1867437985199
20
-0.121651112763544
30
0
41
1
10
48.1828198819217
20
-0.0540729666653874
30
0
41
1
10
48.1751802148187
20
0.0807996529151467
30
0
41
1
10
48.1714628869088
20
0.148094054070896
30
0
41
1
10
48.1659581350435
20
0.248818496027639
30
0
41
1
10
48.1641369607952
20
0.282357114622272
30
0
41
1
10
48.160523260803
20
0.349360862365899
30
0
41
1
10
48.1587269294017
20
0.382897687096687
30
0
41
1
10
48.1534069136577
20
0.482885781384056
30
0
41
1
10
48.1499746009296
20
0.548305380562425
30
0
41
1
10
48.1432980464434
20
0.676721032236657
30
0
41
1
10
48.140047862554
20
0.73971726352832
30
0
41
1
10
48.1368754618469
20
0.801485331036019
30
0
0
SPLINE
5
1BF
100
AcDbEntity
8
1
62
256
6
ByLayer
370
18
48
1
60
0
100
AcDbSpline
70
4
71
3
72
27
73
23
40
0
40
0
40
0
40
0
40
0.0625000000000004
40
0.0625000000000004
40
0.125000000000001
40
0.125000000000001
40
0.250000000000002
40
0.375000000000002
40
0.375000000000002
40
0.500000000000003
40
0.500000000000003
40
0.562500000000003
40
0.562500000000003
40
0.625000000000003
40
0.625000000000003
40
0.750000000000002
40
0.750000000000002
40
0.875000000000001
40
0.875000000000001
40
0.937500000000001
40
0.937500000000001
40
1
40
1
40
1
40
1
41
1
10
43.9321103415557
20
-0.187369055319664
30
0
41
1
10
43.934273161389
20
-0.22946762831063
30
0
41
1
10
43.9364401948813
20
-0.271581004583254
30
0
41
1
10
43.9407943421517
20
-0.355837308890301
30
0
41
1
10
43.9429873543189
20
-0.398079678636435
30
0
41
1
10
43.9495430194221
20
-0.523483713643515
30
0
41
1
10
43.9582434367874
20
-0.687860619546825
30
0
41
1
10
43.9668837757083
20
-0.846738373534066
30
0
41
1
10
43.9755497969613
20
-1.00285463414579
30
0
41
1
10
43.979898628391
20
-1.07953215475138
30
0
41
1
10
43.9865077409402
20
-1.19240005306949
30
0
41
1
10
43.9887080854592
20
-1.22941146296586
30
0
41
1
10
43.9930878315476
20
-1.30200124387878
30
0
41
1
10
43.9952695181777
20
-1.3376185326795
30
0
41
1
10
44.0017936666171
20
-1.4424669699257
30
0
41
1
10
44.0061133905212
20
-1.5096999462757
30
0
41
1
10
44.0147571179207
20
-1.63885948892488
30
0
41
1
10
44.0190861649221
20
-1.7007861411615
30
0
41
1
10
44.0256571566245
20
-1.78958705762221
30
0
41
1
10
44.0278640398103
20
-1.81858300868569
30
0
41
1
10
44.0322546395909
20
-1.87463171955289
30
0
41
1
10
44.0344404193411
20
-1.90171769816482
30
0
41
1
10
44.0366181485639
20
-1.92788300050981
30
0
0
SPLINE
5
1C0
100
AcDbEntity
8
1
62
256
6
ByLayer
370
18
48
1
60
0
100
AcDbSpline
70
4
71
3
72
26
73
22
40
0
40
0
40
0
40
0
40
0.125000000000003
40
0.250000000000006
40
0.250000000000006
40
0.312500000000007
40
0.343750000000007
40
0.343750000000007
40
0.375000000000007
40
0.375000000000007
40
0.500000000000007
40
0.625000000000008
40
0.625000000000008
40
0.750000000000008
40
0.750000000000008
40
0.781250000000008
40
0.781250000000008
40
0.812500000000007
40
0.875000000000004
40
0.875000000000004
40
1
40
1
40
1
40
1
41
1
10
41.428980637576
20
1.90325617226588
30
0
41
1
10
41.4333470906638
20
1.84970974821735
30
0
41
1
10
41.4420132307877
20
1.73655090022262
30
0
41
1
10
41.4506425406134
20
1.61154976089799
30
0
41
1
10
41.4571684594228
20
1.51332612711445
30
0
41
1
10
41.4604444369477
20
1.46309393738502
30
0
41
1
10
41.4637366390146
20
1.41115408940749
30
0
41
1
10
41.4659351414407
20
1.37614353252982
30
0
41
1
10
41.4670377085557
20
1.35842195855824
30
0
41
1
10
41.4725319271141
20
1.26930551574688
30
0
41
1
10
41.4812244299974
20
1.1230742490811
30
0
41
1
10
41.4898337628702
20
0.969792104686348
30
0
41
1
10
41.4985074532532
20
0.812992732556751
30
0
41
1
10
41.5028697306666
20
0.732834429831001
30
0
41
1
10
41.5083521875044
20
0.630368922495904
30
0
41
1
10
41.5094519224461
20
0.609731536929559
30
0
41
1
10
41.511645460833
20
0.568409756969601
30
0
41
1
10
41.5149269087788
20
0.506357751540662
30
0
41
1
10
41.5181849436996
20
0.444100428860281
30
0
41
1
10
41.5246826354893
20
0.319317237348656
30
0
41
1
10
41.528989978912
20
0.235771072920301
30
0
41
1
10
41.5333205933503
20
0.151873412521553
30
0
0
SPLINE
5
1C1
100
AcDbEntity
8
1
62
256
6
ByLayer
370
18
48
1
60
0
100
AcDbSpline
70
4
71
3
72
12
73
8
40
0
40
0
40
0
40
0
40
0.250000000000001
40
0.250000000000001
40
0.500000000000001
40
0.500000000000001
40
1
40
1
40
1
40
1
41
1
10
47.0981779979991
20
1.3526393799566
30
0
41
1
10
47.0928581465824
20
1.39361285116476
30
0
41
1
10
47.0874077321834
20
1.433932880892
30
0
41
1
10
47.076228759392
20
1.51322735052079
30
0
41
1
10
47.0705398927004
20
1.55191616169631
30
0
41
1
10
47.0532030286017
20
1.66481897197292
30
0
41
1
10
47.0412185499094
20
1.73602030953543
30
0
41
1
10
47.0292755219101
20
1.80317263064086
30
0
0
SPLINE
5
1C2
100
AcDbEntity
8
1
62
256
6
ByLayer
370
18
48
1
60
0
100
AcDbSpline
70
4
71
3
72
25
73
21
40
0
40
0
40
0
40
0
40
0.125
40
0.125
40
0.1875
40
0.1875
40
0.25
40
0.25
40
0.375000000000001
40
0.500000000000001
40
0.500000000000001
40
0.625000000000002
40
0.625000000000002
40
0.687500000000001
40
0.687500000000001
40
0.750000000000001
40
0.750000000000001
40
0.875
40
0.875
40
1
40
1
40
1
40
1
41
1
10
46.9917405768974
20
1.82700678421659
30
0
41
1
10
46.9960856527773
20
1.77067534970581
30
0
41
1
10
47.0004186235622
20
1.71116600610202
30
0
41
1
10
47.0069706779858
20
1.61708440735731
30
0
41
1
10
47.0091651050487
20
1.58491944754544
30
0
41
1
10
47.0135711302293
20
1.51895184408085
30
0
41
1
10
47.0157884020321
20
1.48505412451982
30
0
41
1
10
47.0223947767202
20
1.38193120003683
30
0
41
1
10
47.0311052752539
20
1.24025556368963
30
0
41
1
10
47.0397077367765
20
1.09046659534081
30
0
41
1
10
47.0483643862338
20
0.936614750867165
30
0
41
1
10
47.0527216744126
20
0.857657936613691
30
0
41
1
10
47.0593040073829
20
0.736068077654323
30
0
41
1
10
47.061493587553
20
0.695243869626978
30
0
41
1
10
47.0658488838726
20
0.613384358035347
30
0
41
1
10
47.0680177649951
20
0.572290678517959
30
0
41
1
10
47.0745098782871
20
0.448525707491086
30
0
41
1
10
47.0788175038906
20
0.365371681079324
30
0
41
1
10
47.087484457611
20
0.197787604493385
30
0
41
1
10
47.091839738038
20
0.113357429038018
30
0
41
1
10
47.0962186727525
20
0.0282721818463472
30
0
0
SPLINE
5
1C3
100
AcDbEntity
8
1
62
256
6
ByLayer
370
18
48
1
60
0
100
AcDbSpline
70
4
71
3
72
10
73
6
40
0
40
0
40
0
40
0
40
0.5
40
0.5
40
1
40
1
40
1
40
1
41
1
10
47.0981779980014
20
1.35263937995603
30
0
41
1
10
47.0949867954816
20
1.42688515754256
30
0
41
1
10
47.091911134081
20
1.49773545550755
30
0
41
1
10
47.085959956208
20
1.63272447605789
30
0
41
1
10
47.0831030985209
20
1.69684226065524
30
0
41
1
10
47.0802107962429
20
1.75762231803768
30
0
0
SPLINE
5
1C4
100
AcDbEntity
8
1
62
256
6
ByLayer
370
18
48
1
60
0
100
AcDbSpline
70
4
71
3
72
21
73
17
40
0
40
0
40
0
40
0
40
0.250000000000002
40
0.250000000000002
40
0.312500000000001
40
0.312500000000001
40
0.375000000000001
40
0.500000000000002
40
0.500000000000002
40
0.750000000000004
40
0.750000000000004
40
0.812500000000003
40
0.812500000000003
40
0.875000000000003
40
0.875000000000003
40
1
40
1
40
1
40
1
41
1
10
47.1742867428954
20
-0.0456210002493833
30
0
41
1
10
47.1679688952292
20
0.0768949986724863
30
0
41
1
10
47.1616150195817
20
0.199590488944239
30
0
41
1
10
47.1536222501133
20
0.353191895790531
30
0
41
1
10
47.1520185316187
20
0.383963264909198
30
0
41
1
10
47.1488288270621
20
0.445021297961205
30
0
41
1
10
47.144062244354
20
0.536053409941644
30
0
41
1
10
47.1393307883087
20
0.625446740694599
30
0
41
1
10
47.1298666246871
20
0.802081878910741
30
0
41
1
10
47.1235659891589
20
0.916982543033754
30
0
41
1
10
47.1156444568148
20
1.05697148235384
30
0
41
1
10
47.1140578436535
20
1.08478646410373
30
0
41
1
10
47.1108766299721
20
1.14004507257425
30
0
41
1
10
47.109280180386
20
1.16751902749658
30
0
41
1
10
47.1045109576023
20
1.24869546066611
30
0
41
1
10
47.1013419985011
20
1.3013708799576
30
0
41
1
10
47.0981779980009
20
1.35263937995666
30
0
0
SPLINE
5
1C5
100
AcDbEntity
8
1
62
256
6
ByLayer
370
18
48
1
60
0
100
AcDbSpline
70
4
71
3
72
28
73
24
40
0
40
0
40
0
40
0
40
0.0624999999999993
40
0.0624999999999993
40
0.124999999999999
40
0.124999999999999
40
0.249999999999998
40
0.249999999999998
40
0.374999999999998
40
0.374999999999998
40
0.437499999999998
40
0.437499999999998
40
0.499999999999997
40
0.499999999999997
40
0.624999999999998
40
0.624999999999998
40
0.749999999999999
40
0.875
40
0.875
40
0.90625
40
0.90625
40
0.937499999999999
40
1
40
1
40
1
40
1
41
1
10
43.2800252763023
20
-1.40994496920996
30
0
41
1
10
43.2778518482594
20
-1.37529754542007
30
0
41
1
10
43.275674869144
20
-1.33992036436695
30
0
41
1
10
43.2713043830361
20
-1.26767467157649
30
0
41
1
10
43.2691254575648
20
-1.23104664210777
30
0
41
1
10
43.2626093469729
20
-1.12002318131363
30
0
41
1
10
43.2582747208336
20
-1.04434343837801
30
0
41
1
10
43.2496215766679
20
-0.88972597053376
30
0
41
1
10
43.2453065813583
20
-0.810787973859163
30
0
41
1
10
43.2388236375703
20
-0.689912520743036
30
0
41
1
10
43.2366604649059
20
-0.649208513413555
30
0
41
1
10
43.2323194113779
20
-0.566962231161455
30
0
41
1
10
43.2301352643392
20
-0.525299378919357
30
0
41
1
10
43.2236033323239
20
-0.40025490892566
30
0
41
1
10
43.2192596815481
20
-0.316670269866478
30
0
41
1
10
43.2105950620556
20
-0.149070754434604
30
0
41
1
10
43.2019572239991
20
0.0189593164954545
30
0
41
1
10
43.1932977433772
20
0.187848051305934
30
0
41
1
10
43.1878201987503
20
0.293678065504565
30
0
41
1
10
43.1867213543512
20
0.314852833103231
30
0
41
1
10
43.1845288317748
20
0.356981389344753
30
0
41
1
10
43.1812433337356
20
0.419936171848292
30
0
41
1
10
43.1779692223596
20
0.482185105748272
30
0
41
1
10
43.1757913933559
20
0.523375485479221
30
0
0
SPLINE
5
1C6
100
AcDbEntity
8
1
62
256
6
ByLayer
370
18
48
1
60
0
100
AcDbSpline
70
4
71
3
72
35
73
31
40
0
40
0
40
0
40
0
40
0.0625000000000004
40
0.0625000000000004
40
0.125000000000001
40
0.125000000000001
40
0.156250000000001
40
0.156250000000001
40
0.187500000000001
40
0.218750000000001
40
0.218750000000001
40
0.250000000000001
40
0.250000000000001
40
0.312500000000001
40
0.312500000000001
40
0.375000000000001
40
0.375000000000001
40
0.500000000000001
40
0.500000000000001
40
0.562500000000001
40
0.562500000000001
40
0.625000000000001
40
0.625000000000001
40
0.750000000000001
40
0.750000000000001
40
0.875
40
0.875
40
0.9375
40
0.9375
40
1
40
1
40
1
40
1
41
1
10
48.75
20
1.59959377056293
30
0
41
1
10
48.75
20
1.55451527183038
30
0
41
1
10
48.75
20
1.51015050856842
30
0
41
1
10
48.75
20
1.42279868296262
30
0
41
1
10
48.75
20
1.37981123494811
30
0
41
1
10
48.75
20
1.31639855755688
30
0
41
1
10
48.75
20
1.29543536857858
30
0
41
1
10
48.75
20
1.25454796427354
30
0
41
1
10
48.75
20
1.2145222718099
30
0
41
1
10
48.75
20
1.17620525167075
30
0
41
1
10
48.75
20
1.13875679160884
30
0
41
1
10
48.75
20
1.12051548785644
30
0
41
1
10
48.75
20
1.06650214222842
30
0
41
1
10
48.75
20
1.03115236215666
30
0
41
1
10
48.7500000000001
20
0.962993987252446
30
0
41
1
10
48.75
20
0.93004900854649
30
0
41
1
10
48.75
20
0.834520719243528
30
0
41
1
10
48.75
20
0.775219895528267
30
0
41
1
10
48.75
20
0.692872341628373
30
0
41
1
10
48.75
20
0.666532334873096
30
0
41
1
10
48.75
20
0.616104077444021
30
0
41
1
10
48.75
20
0.591963620757213
30
0
41
1
10
48.75
20
0.524013462596884
30
0
41
1
10
48.75
20
0.484289401756428
30
0
41
1
10
48.75
20
0.415733255895333
30
0
41
1
10
48.75
20
0.386886470167184
30
0
41
1
10
48.75
20
0.352019248444208
30
0
41
1
10
48.75
20
0.341775042323093
30
0
41
1
10
48.75
20
0.324417836462487
30
0
41
1
10
48.75
20
0.317254262695911
30
0
41
1
10
48.75
20
0.311605556285741
30
0
0
SPLINE
5
1C7
100
AcDbEntity
8
1
62
256
6
ByLayer
370
18
48
1
60
0
100
AcDbSpline
70
4
71
3
72
16
73
12
40
0
40
0
40
0
40
0
40
0.125000000000004
40
0.125000000000004
40
0.187500000000006
40
0.187500000000006
40
0.250000000000009
40
0.250000000000009
40
0.500000000000019
40
0.500000000000019
40
1
40
1
40
1
40
1
41
1
10
48.2937117475546
20
2.0418117749837
30
0
41
1
10
48.3129007219371
20
2.02393750427814
30
0
41
1
10
48.3321671415758
20
2.00586720301499
30
0
41
1
10
48.3611880069078
20
1.9784804430515
30
0
41
1
10
48.3708819346761
20
1.9693044285479
30
0
41
1
10
48.3903248959486
20
1.95084255325361
30
0
41
1
10
48.4000801782242
20
1.9415489680261
30
0
41
1
10
48.4487651149272
20
1.89511038612631
30
0
41
1
10
48.4873558082257
20
1.85813175493394
30
0
41
1
10
48.6019412838254
20
1.74744451012097
30
0
41
1
10
48.6768486918249
20
1.6738876603826
30
0
41
1
10
48.7499999999986
20
1.59959377056325
30
0
0
SPLINE
5
1C8
100
AcDbEntity
8
1
62
256
6
ByLayer
370
18
48
1
60
0
100
AcDbSpline
70
4
71
3
72
8
73
4
40
0
40
0
40
0
40
0
40
1
40
1
40
1
40
1
41
1
10
48.2937117475546
20
2.0418117749837
30
0
41
1
10
48.2788566807053
20
2.0462140417568
30
0
41
1
10
48.2640248514233
20
2.05051638081616
30
0
41
1
10
48.2492150913951
20
2.05471720795978
30
0
0
SPLINE
5
1C9
100
AcDbEntity
8
1
62
256
6
ByLayer
370
18
48
1
60
0
100
AcDbSpline
70
4
71
3
72
8
73
4
40
0
40
0
40
0
40
0
40
1
40
1
40
1
40
1
41
1
10
48.249215091395
20
2.05471720795978
30
0
41
1
10
48.2352162978497
20
2.0302004081004
30
0
41
1
10
48.2211943167829
20
2.00549411771351
30
0
41
1
10
48.2071405707131
20
1.98059182128981
30
0
0
SPLINE
5
1CA
100
AcDbEntity
8
1
62
256
6
ByLayer
370
18
48
1
60
0
100
AcDbSpline
70
4
71
3
72
28
73
24
40
0
40
0
40
0
40
0
40
0.125000000000008
40
0.125000000000008
40
0.250000000000017
40
0.250000000000017
40
0.375000000000027
40
0.375000000000027
40
0.43749999999998
40
0.43749999999998
40
0.499999999999933
40
0.499999999999933
40
0.62499999999995
40
0.62499999999995
40
0.687499999999958
40
0.687499999999958
40
0.749999999999966
40
0.749999999999966
40
0.874999999999983
40
0.874999999999983
40
0.937499999999991
40
0.937499999999991
40
1
40
1
40
1
40
1
41
1
10
48.2071405707131
20
1.98059182128981
30
0
41
1
10
48.2015380608545
20
1.97066454919303
30
0
41
1
10
48.1950311764052
20
1.96182743934548
30
0
41
1
10
48.1805864290405
20
1.9458660913721
30
0
41
1
10
48.1725691931829
20
1.93871008687057
30
0
41
1
10
48.1556955677478
20
1.92641291652666
30
0
41
1
10
48.1468075089716
20
1.92121728995696
30
0
41
1
10
48.1328173500977
20
1.91483829515769
30
0
41
1
10
48.1280323853315
20
1.91294923335496
30
0
41
1
10
48.1184105595184
20
1.90972655009531
30
0
41
1
10
48.1135541017302
20
1.90838259528476
30
0
41
1
10
48.0988523473137
20
1.90516891974326
30
0
41
1
10
48.0888771817087
20
1.90410045989742
30
0
41
1
10
48.0736326199843
20
1.90441829029106
30
0
41
1
10
48.068495643232
20
1.90485463695302
30
0
41
1
10
48.0583815406926
20
1.90643090511273
30
0
41
1
10
48.0533737741557
20
1.90756927106358
30
0
41
1
10
48.0385252880828
20
1.91215478277289
30
0
41
1
10
48.028766932804
20
1.91684309539238
30
0
41
1
10
48.0155605256592
20
1.92648299410291
30
0
41
1
10
48.0113435670267
20
1.93016218550127
30
0
41
1
10
48.0034986857002
20
1.93848017768121
30
0
41
1
10
47.9999247943342
20
1.94305429155955
30
0
41
1
10
47.9967375388248
20
1.94809120107598
30
0
0
SPLINE
5
1CB
100
AcDbEntity
8
1
62
256
6
ByLayer
370
18
48
1
60
0
100
AcDbSpline
70
4
71
3
72
8
73
4
40
0
40
0
40
0
40
0
40
1
40
1
40
1
40
1
41
1
10
47.9967375388231
20
1.94809120107865
30
0
41
1
10
47.9553245742086
20
2.0135372737156
30
0
41
1
10
47.9140803978039
20
2.07754398831108
30
0
41
1
10
47.8730020869512
20
2.14013520158323
30
0
0
SPLINE
5
1CC
100
AcDbEntity
8
1
62
256
6
ByLayer
370
18
48
1
60
0
100
AcDbSpline
70
4
71
3
72
10
73
6
40
0
40
0
40
0
40
0
40
0.5
40
0.5
40
1
40
1
40
1
40
1
41
1
10
38.7303643992219
20
-1.49328584777453
30
0
41
1
10
38.707227134231
20
-1.46906840331979
30
0
41
1
10
38.6826694898181
20
-1.44739141604012
30
0
41
1
10
38.6309355994162
20
-1.40895557721211
30
0
41
1
10
38.6036471223287
20
-1.39212973227114
30
0
41
1
10
38.5758529767488
20
-1.37834904622258
30
0
0
SPLINE
5
1CD
100
AcDbEntity
8
1
62
256
6
ByLayer
370
18
48
1
60
0
100
AcDbSpline
70
4
71
3
72
84
73
80
40
0
40
0
40
0
40
0
40
0.0212548893360252
40
0.0212548893360252
40
0.0425097786720505
40
0.0425097786720505
40
0.0850195573441009
40
0.0850195573441009
40
0.127529336016151
40
0.127529336016151
40
0.170039114688202
40
0.170039114688202
40
0.180666559356213
40
0.180666559356213
40
0.191294004024225
40
0.191294004024225
40
0.201921448692236
40
0.201921448692236
40
0.212548893360247
40
0.212548893360247
40
0.255058672032294
40
0.255058672032294
40
0.297568450704341
40
0.297568450704341
40
0.340078229376388
40
0.340078229376388
40
0.361333118712413
40
0.371960563380424
40
0.371960563380424
40
0.382588008048435
40
0.382588008048435
40
0.425097786720484
40
0.425097786720484
40
0.467607565392533
40
0.467607565392533
40
0.510117344064581
40
0.510117344064581
40
0.531372233400607
40
0.531372233400607
40
0.552627122736632
40
0.552627122736632
40
0.563254567404645
40
0.563254567404645
40
0.573882012072659
40
0.573882012072659
40
0.595136901408684
40
0.595136901408684
40
0.680156458752785
40
0.680156458752785
40
0.701411348088811
40
0.701411348088811
40
0.712038792756824
40
0.712038792756824
40
0.722666237424838
40
0.722666237424838
40
0.743921126760865
40
0.743921126760865
40
0.75454857142888
40
0.75454857142888
40
0.765176016096895
40
0.807685794768956
40
0.807685794768956
40
0.850195573441017
40
0.850195573441017
40
0.871450462777049
40
0.871450462777049
40
0.882077907445064
40
0.882077907445064
40
0.892705352113079
40
0.892705352113079
40
0.913960241449109
40
0.913960241449109
40
0.935215130785139
40
0.935215130785139
40
0.956470020121169
40
0.956470020121169
40
0.977724909457198
40
0.977724909457198
40
1
40
1
40
1
40
1
41
1
10
38.5758529767488
20
-1.37834904622258
30
0
41
1
10
38.5186841643073
20
-1.35000403184665
30
0
41
1
10
38.4617117192349
20
-1.32072544585654
30
0
41
1
10
38.3478664826405
20
-1.26063686535778
30
0
41
1
10
38.2908084536122
20
-1.23002653595802
30
0
41
1
10
38.1200064329145
20
-1.1357484288892
30
0
41
1
10
38.006712660151
20
-1.06953245218767
30
0
41
1
10
37.7808076331304
20
-0.930839560176565
30
0
41
1
10
37.6681512281674
20
-0.858406951432642
30
0
41
1
10
37.442352568977
20
-0.708595170369136
30
0
41
1
10
37.3291562942068
20
-0.631287845764348
30
0
41
1
10
37.1867243054927
20
-0.532350702082397
30
0
41
1
10
37.1581928995755
20
-0.512445748454638
30
0
41
1
10
37.1010290152518
20
-0.472414058205999
30
0
41
1
10
37.0723839357964
20
-0.452250775239037
30
0
41
1
10
37.015042522468
20
-0.412111566943025
30
0
41
1
10
36.986338678098
20
-0.39210278800644
30
0
41
1
10
36.9290493180071
20
-0.351945370797665
30
0
41
1
10
36.900447923347
20
-0.33181922094937
30
0
41
1
10
36.7576786798783
20
-0.230920983251821
30
0
41
1
10
36.6442565468393
20
-0.149300825218916
30
0
41
1
10
36.4181206725926
20
0.0145054999773038
30
0
41
1
10
36.3053861101676
20
0.0966623453221302
30
0
41
1
10
36.0796055790895
20
0.260112198582334
30
0
41
1
10
35.9666190729188
20
0.341488551137616
30
0
41
1
10
35.7964550791532
20
0.46227223031201
30
0
41
1
10
35.7112292842244
20
0.522381472620538
30
0
41
1
10
35.6254333655002
20
0.58157438366743
30
0
41
1
10
35.5679899170923
20
0.620667717534985
30
0
41
1
10
35.5392255536479
20
0.639989137878558
30
0
41
1
10
35.3958233751782
20
0.736076136223403
30
0
41
1
10
35.2820134610417
20
0.810968759281906
30
0
41
1
10
35.0555250216052
20
0.955896067269549
30
0
41
1
10
34.9427607068061
20
1.02581898912507
30
0
41
1
10
34.7172223011467
20
1.15942583990997
30
0
41
1
10
34.6045542072655
20
1.22322774933724
30
0
41
1
10
34.4348474419047
20
1.31345818195115
30
0
41
1
10
34.3781628171434
20
1.34262342723372
30
0
41
1
10
34.2641427114974
20
1.39872842931916
30
0
41
1
10
34.2068764492625
20
1.42574337645939
30
0
41
1
10
34.120875384586
20
1.46496338941719
30
0
41
1
10
34.0921492109768
20
1.47782030751532
30
0
41
1
10
34.0347877637271
20
1.50298831547039
30
0
41
1
10
34.0061652783108
20
1.51529441998187
30
0
41
1
10
33.9204573199225
20
1.55136917329801
30
0
41
1
10
33.8635352083261
20
1.57429703051429
30
0
41
1
10
33.5796980124076
20
1.68310958537154
30
0
41
1
10
33.3548809693651
20
1.75136149523942
30
0
41
1
10
33.0729633994831
20
1.81107206833437
30
0
41
1
10
33.0165107693262
20
1.82171809840327
30
0
41
1
10
32.9313719918365
20
1.8356445992876
30
0
41
1
10
32.9029139636268
20
1.83994845537393
30
0
41
1
10
32.846008779094
20
1.84792924198271
30
0
41
1
10
32.8175431300275
20
1.85159934020518
30
0
41
1
10
32.7320073550283
20
1.86161676990221
30
0
41
1
10
32.6747769437968
20
1.86697196493216
30
0
41
1
10
32.5887534284083
20
1.87301663712185
30
0
41
1
10
32.560030618358
20
1.87469937322936
30
0
41
1
10
32.5027516297931
20
1.87737922888255
30
0
41
1
10
32.3598380926613
20
1.88237642815983
30
0
41
1
10
32.2181556777525
20
1.87888068279256
30
0
41
1
10
31.9922937344847
20
1.86252534722405
30
0
41
1
10
31.8797879757151
20
1.84894596788658
30
0
41
1
10
31.7106289277281
20
1.82078048313801
30
0
41
1
10
31.6541591857107
20
1.81010189131175
30
0
41
1
10
31.569223898865
20
1.79221363565077
30
0
41
1
10
31.5408660731736
20
1.78594269864209
30
0
41
1
10
31.4840783087699
20
1.77278015685749
30
0
41
1
10
31.4557147036685
20
1.76585671618705
30
0
41
1
10
31.3704218431827
20
1.74419415198696
30
0
41
1
10
31.3133500606733
20
1.72854590107738
30
0
41
1
10
31.1991697246981
20
1.69459179954359
30
0
41
1
10
31.1420155373863
20
1.67630530344093
30
0
41
1
10
31.0274532363704
20
1.63710959263111
30
0
41
1
10
30.9703202723657
20
1.61629177491054
30
0
41
1
10
30.8565127759815
20
1.57242897669175
30
0
41
1
10
30.7997907923096
20
1.54936809284899
30
0
41
1
10
30.6838639756161
20
1.49994821443357
30
0
41
1
10
30.6246633541703
20
1.47348910424648
30
0
41
1
10
30.5655117595769
20
1.44593493023663
30
0
0
SPLINE
5
1CE
100
AcDbEntity
8
1
62
256
6
ByLayer
370
18
48
1
60
0
100
AcDbSpline
70
4
71
3
72
110
73
106
40
0
40
0
40
0
40
0
40
0.0082837678504303
40
0.0082837678504303
40
0.0277291841670929
40
0.0277291841670929
40
0.0374518923254241
40
0.0374518923254241
40
0.0471746004837554
40
0.0471746004837554
40
0.0666200168004179
40
0.0666200168004179
40
0.105510849433745
40
0.105510849433745
40
0.124956265750408
40
0.124956265750408
40
0.144401682067071
40
0.144401682067071
40
0.183292514700398
40
0.183292514700398
40
0.193015222858728
40
0.193015222858728
40
0.202737931017059
40
0.22218334733372
40
0.22218334733372
40
0.261074179967041
40
0.261074179967041
40
0.280519596283701
40
0.280519596283701
40
0.290242304442031
40
0.290242304442031
40
0.299965012600361
40
0.299965012600361
40
0.338855845233679
40
0.338855845233679
40
0.348578553392008
40
0.348578553392008
40
0.358301261550336
40
0.377746677866996
40
0.377746677866996
40
0.416637510500314
40
0.416637510500314
40
0.436082926816972
40
0.436082926816972
40
0.455528343133631
40
0.455528343133631
40
0.494419175766947
40
0.494419175766947
40
0.533310008400264
40
0.533310008400264
40
0.552755424716922
40
0.552755424716922
40
0.57220084103358
40
0.57220084103358
40
0.591646257350237
40
0.591646257350237
40
0.611091673666895
40
0.611091673666895
40
0.630537089983553
40
0.630537089983553
40
0.640259798141882
40
0.640259798141882
40
0.64998250630021
40
0.64998250630021
40
0.669427922616868
40
0.669427922616868
40
0.688873338933526
40
0.688873338933526
40
0.698596047091854
40
0.698596047091854
40
0.708318755250183
40
0.708318755250183
40
0.72776417156684
40
0.72776417156684
40
0.766655004200152
40
0.766655004200152
40
0.786100420516809
40
0.786100420516809
40
0.795823128675137
40
0.795823128675137
40
0.805545836833465
40
0.805545836833465
40
0.82499125315012
40
0.82499125315012
40
0.834713961308447
40
0.834713961308447
40
0.844436669466775
40
0.844436669466775
40
0.854159377625102
40
0.854159377625102
40
0.863882085783429
40
0.863882085783429
40
0.883327502100083
40
0.883327502100083
40
0.922218334733388
40
0.922218334733388
40
0.941663751050041
40
0.941663751050041
40
0.951386459208368
40
0.951386459208368
40
0.961109167366694
40
0.961109167366694
40
0.980554583683347
40
0.980554583683347
40
1
40
1
40
1
40
1
41
1
10
28.7401417681369
20
1.87999976059513
30
0
41
1
10
28.7671710545872
20
1.88000855414902
30
0
41
1
10
28.7941823920892
20
1.87970560274536
30
0
41
1
10
28.8846763391237
20
1.87763311292795
30
0
41
1
10
28.9483920357094
20
1.87444732718933
30
0
41
1
10
29.0444466649925
20
1.86708717670666
30
0
41
1
10
29.0765815750764
20
1.86419942221275
30
0
41
1
10
29.1408158349361
20
1.85758431698537
30
0
41
1
10
29.1728978502881
20
1.85385998628706
30
0
41
1
10
29.269043973213
20
1.84145826158053
30
0
41
1
10
29.3330037957856
20
1.83155118421951
30
0
41
1
10
29.5246239858612
20
1.79707757788114
30
0
41
1
10
29.6520909826641
20
1.76781528962627
30
0
41
1
10
29.8428157856085
20
1.71460799838306
30
0
41
1
10
29.9063086118458
20
1.69531082544711
30
0
41
1
10
30.0331851652159
20
1.65357864862423
30
0
41
1
10
30.0965962147225
20
1.63116704960137
30
0
41
1
10
30.2862817915914
20
1.55879621530883
30
0
41
1
10
30.4135014724629
20
1.50476700972354
30
0
41
1
10
30.5741401877932
20
1.43059866408194
30
0
41
1
10
30.6063650700782
20
1.41541677805452
30
0
41
1
10
30.6706709106479
20
1.38453227514378
30
0
41
1
10
30.7670182162804
20
1.33737881930782
30
0
41
1
10
30.8630502296088
20
1.28779796859456
30
0
41
1
10
31.0547495237182
20
1.18551028469912
30
0
41
1
10
31.1820629518898
20
1.11316491218585
30
0
41
1
10
31.3723574166171
20
0.998446509194963
30
0
41
1
10
31.4356710448035
20
0.959164614614508
30
0
41
1
10
31.530439115679
20
0.898608631904892
30
0
41
1
10
31.5619804861223
20
0.878132109265579
30
0
41
1
10
31.6252210632142
20
0.836910204531108
30
0
41
1
10
31.6568920704895
20
0.816130663204746
30
0
41
1
10
31.8154789844673
20
0.711368161830336
30
0
41
1
10
31.9430672098002
20
0.624760214700842
30
0
41
1
10
32.1040733654232
20
0.513822013957792
30
0
41
1
10
32.1363137096001
20
0.491518541335068
30
0
41
1
10
32.200643003229
20
0.446848071374944
30
0
41
1
10
32.2970121932265
20
0.379678487935536
30
0
41
1
10
32.3930099292605
20
0.31202074317531
30
0
41
1
10
32.5845095306217
20
0.176053030966983
30
0
41
1
10
32.7115316327422
20
0.0845617735713518
30
0
41
1
10
32.901182768427
20
-0.0538236082293224
30
0
41
1
10
32.9641935824442
20
-0.100226488384436
30
0
41
1
10
33.0906579773821
20
-0.192380146489569
30
0
41
1
10
33.1540641180934
20
-0.238197633694597
30
0
41
1
10
33.3448780843469
20
-0.374769132252311
30
0
41
1
10
33.472897376874
20
-0.464619987477562
30
0
41
1
10
33.7310120403979
20
-0.641287464146302
30
0
41
1
10
33.8592940043775
20
-0.726832099581088
30
0
41
1
10
34.0504357660118
20
-0.851113140980232
30
0
41
1
10
34.1139356326835
20
-0.891870577237682
30
0
41
1
10
34.2405168915183
20
-0.972005601591178
30
0
41
1
10
34.3035119492722
20
-1.01148119622343
30
0
41
1
10
34.4297115203836
20
-1.0882739536334
30
0
41
1
10
34.492987503706
20
-1.1255163415407
30
0
41
1
10
34.6198078191589
20
-1.19782579710312
30
0
41
1
10
34.6833692797307
20
-1.23287241445971
30
0
41
1
10
34.8108628757542
20
-1.30068760769322
30
0
41
1
10
34.8747931855329
20
-1.33345828479233
30
0
41
1
10
34.971002972452
20
-1.3808623780142
30
0
41
1
10
35.0031250627753
20
-1.39637184869628
30
0
41
1
10
35.0674772350575
20
-1.42680000691453
30
0
41
1
10
35.0997348158943
20
-1.44173108420367
30
0
41
1
10
35.1964771695011
20
-1.48554761504155
30
0
41
1
10
35.2607147508713
20
-1.51336549648144
30
0
41
1
10
35.3886255023667
20
-1.56627526045975
30
0
41
1
10
35.4523167580996
20
-1.59134733713728
30
0
41
1
10
35.5476403528811
20
-1.62674257108836
30
0
41
1
10
35.5794107368812
20
-1.63815190650053
30
0
41
1
10
35.6427011246708
20
-1.66035405793801
30
0
41
1
10
35.6741498159404
20
-1.67118860215751
30
0
41
1
10
35.7687749200863
20
-1.70231347226869
30
0
41
1
10
35.8320658960022
20
-1.72135394671702
30
0
41
1
10
36.0220836385812
20
-1.77376334176998
30
0
41
1
10
36.1491587440543
20
-1.80229921643357
30
0
41
1
10
36.3407522506902
20
-1.8354418485259
30
0
41
1
10
36.4047753385254
20
-1.84487866941836
30
0
41
1
10
36.5010597085115
20
-1.85658542702504
30
0
41
1
10
36.5331958547258
20
-1.86007934263893
30
0
41
1
10
36.597548792939
20
-1.86624101443556
30
0
41
1
10
36.6298035930929
20
-1.86891133733647
30
0
41
1
10
36.7263564792168
20
-1.87564026828457
30
0
41
1
10
36.7904237171686
20
-1.87842098458893
30
0
41
1
10
36.8860921715491
20
-1.88003140924988
30
0
41
1
10
36.9179104495272
20
-1.88014125655008
30
0
41
1
10
36.9813853735032
20
-1.87950106975109
30
0
41
1
10
37.0130207153271
20
-1.8787493072889
30
0
41
1
10
37.0762177392043
20
-1.87638104269638
30
0
41
1
10
37.1078637489258
20
-1.87477244313891
30
0
41
1
10
37.1711738748749
20
-1.87071824365273
30
0
41
1
10
37.2028145361845
20
-1.86826860571122
30
0
41
1
10
37.2977738862318
20
-1.85967425407637
30
0
41
1
10
37.361159275102
20
-1.85229244805549
30
0
41
1
10
37.551579613131
20
-1.82529556727258
30
0
41
1
10
37.6788852143745
20
-1.80084882204068
30
0
41
1
10
37.8705846874871
20
-1.7545886134601
30
0
41
1
10
37.9346063197706
20
-1.73756525167471
30
0
41
1
10
38.0308228474314
20
-1.70957242043966
30
0
41
1
10
38.0629262833065
20
-1.69983172779723
30
0
41
1
10
38.1271971051433
20
-1.67951729160467
30
0
41
1
10
38.159385931709
20
-1.66893579888014
30
0
41
1
10
38.2557640623505
20
-1.6360132415345
30
0
41
1
10
38.3197953369946
20
-1.61244854267235
30
0
41
1
10
38.447684395646
20
-1.56221071169571
30
0
41
1
10
38.5116736477781
20
-1.5356339375889
30
0
41
1
10
38.5758529767488
20
-1.50772793836936
30
0
0
SPLINE
5
1CF
100
AcDbEntity
8
1
62
256
6
ByLayer
370
18
48
1
60
0
100
AcDbSpline
70
4
71
3
72
8
73
4
40
0
40
0
40
0
40
0
40
1
40
1
40
1
40
1
41
1
10
47.0292755219101
20
1.80317263064086
30
0
41
1
10
47.0167639844182
20
1.81117489448516
30
0
41
1
10
47.0042524574534
20
1.81911977560478
30
0
41
1
10
46.9917405768974
20
1.82700678421659
30
0
0
SPLINE
5
1D0
100
AcDbEntity
8
1
62
256
6
ByLayer
370
18
48
1
60
0
100
AcDbSpline
70
4
71
3
72
8
73
4
40
0
40
0
40
0
40
0
40
1
40
1
40
1
40
1
41
1
10
47.0292755219101
20
1.80317263064086
30
0
41
1
10
47.0462117317172
20
1.7880551963369
30
0
41
1
10
47.0631895857506
20
1.77287127688339
30
0
41
1
10
47.0802107962429
20
1.75762231803765
30
0
0
SPLINE
5
1D1
100
AcDbEntity
8
1
62
256
6
ByLayer
370
18
48
1
60
0
100
AcDbSpline
70
4
71
3
72
14
73
10
40
0
40
0
40
0
40
0
40
0.25
40
0.25
40
0.5
40
0.5
40
0.75
40
0.75
40
1
40
1
40
1
40
1
41
1
10
47.688469708147
20
1.20623283950195
30
0
41
1
10
47.72570290691
20
1.17231768325345
30
0
41
1
10
47.7629319414956
20
1.13840557213473
30
0
41
1
10
47.8374267477087
20
1.07063941951685
30
0
41
1
10
47.8747077537475
20
1.0368031110649
30
0
41
1
10
47.9492847145601
20
0.969162742029283
30
0
41
1
10
47.98655667317
20
0.93533080639989
30
0
41
1
10
48.0614833502843
20
0.868126715218779
30
0
41
1
10
48.0991008922934
20
0.834711260935535
30
0
41
1
10
48.1368754618469
20
0.801485331035963
30
0
0
SPLINE
5
1D2
100
AcDbEntity
8
1
62
256
6
ByLayer
370
18
48
1
60
0
100
AcDbSpline
70
4
71
3
72
8
73
4
40
0
40
0
40
0
40
0
40
1
40
1
40
1
40
1
41
1
10
48.1368754618469
20
0.801485331035963
30
0
41
1
10
48.1503696025582
20
0.782749427017421
30
0
41
1
10
48.1639025007178
20
0.764261227707806
30
0
41
1
10
48.1774783882901
20
0.746024416766687
30
0
0
SPLINE
5
1D3
100
AcDbEntity
8
1
62
256
6
ByLayer
370
18
48
1
60
0
100
AcDbSpline
70
4
71
3
72
26
73
22
40
0
40
0
40
0
40
0
40
0.125000000000049
40
0.125000000000049
40
0.250000000000098
40
0.250000000000098
40
0.375000000000147
40
0.375000000000147
40
0.437500000000172
40
0.437500000000172
40
0.500000000000196
40
0.500000000000196
40
0.625000000000119
40
0.625000000000119
40
0.750000000000042
40
0.750000000000042
40
0.874999999999964
40
0.874999999999964
40
0.937499999999982
40
0.937499999999982
40
1
40
1
40
1
40
1
41
1
10
48.1774783882901
20
0.746024416766687
30
0
41
1
10
48.1828248340341
20
0.738842409718188
30
0
41
1
10
48.1890329558418
20
0.73154064040699
30
0
41
1
10
48.202781867927
20
0.716768361169528
30
0
41
1
10
48.2103869458233
20
0.709254378052606
30
0
41
1
10
48.2261006698232
20
0.694710178997326
30
0
41
1
10
48.2342844243306
20
0.687591907693644
30
0
41
1
10
48.246992630132
20
0.67711072906252
30
0
41
1
10
48.2513151931557
20
0.673640114260792
30
0
41
1
10
48.2599631626474
20
0.666870171992855
30
0
41
1
10
48.2643027902713
20
0.663558570764934
30
0
41
1
10
48.2773623044703
20
0.653830268539423
30
0
41
1
10
48.286122448373
20
0.647617891611532
30
0
41
1
10
48.303726648426
20
0.635721927089264
30
0
41
1
10
48.3124084130336
20
0.630150166581643
30
0
41
1
10
48.3293032573937
20
0.61986948258857
30
0
41
1
10
48.3375490204815
20
0.615137430962307
30
0
41
1
10
48.3495452323418
20
0.608726390199848
30
0
41
1
10
48.3534879680212
20
0.606703526190927
30
0
41
1
10
48.3610517461509
20
0.60300635770551
30
0
41
1
10
48.3646954123501
20
0.60131924726943
30
0
41
1
10
48.3681884836607
20
0.599807218867994
30
0
0
SPLINE
5
1D4
100
AcDbEntity
8
1
62
256
6
ByLayer
370
18
48
1
60
0
100
AcDbSpline
70
4
71
3
72
20
73
16
40
0
40
0
40
0
40
0
40
0.124999999999994
40
0.124999999999994
40
0.249999999999988
40
0.249999999999988
40
0.374999999999983
40
0.374999999999983
40
0.499999999999977
40
0.499999999999977
40
0.749999999999966
40
0.749999999999966
40
0.874999999999983
40
0.874999999999983
40
1
40
1
40
1
40
1
41
1
10
48.7500000000048
20
0.311605556282217
30
0
41
1
10
48.7331856382607
20
0.319339629204194
30
0
41
1
10
48.7163518072634
20
0.32766934608398
30
0
41
1
10
48.6829121323089
20
0.345282653025606
30
0
41
1
10
48.6663112656097
20
0.354514473866828
30
0
41
1
10
48.6333973297784
20
0.374032704879028
30
0
41
1
10
48.6170994976733
20
0.38436936659798
30
0
41
1
10
48.5848353317766
20
0.406304950956752
30
0
41
1
10
48.5688596760079
20
0.417873345937011
30
0
41
1
10
48.5213317786593
20
0.454244882220763
30
0
41
1
10
48.4901755296384
20
0.480702242737834
30
0
41
1
10
48.4440511752453
20
0.523498256575408
30
0
41
1
10
48.4287848653018
20
0.538308219107876
30
0
41
1
10
48.3983759311155
20
0.568746659661713
30
0
41
1
10
48.3832578778557
20
0.584216350613502
30
0
41
1
10
48.3681884836606
20
0.599807218876208
30
0
0
SPLINE
5
1D5
100
AcDbEntity
8
1
62
256
6
ByLayer
370
18
48
1
60
0
100
AcDbSpline
70
4
71
3
72
8
73
4
40
0
40
0
40
0
40
0
40
1
40
1
40
1
40
1
41
1
10
45.7055004138462
20
-2.45479431706144
30
0
41
1
10
45.7314659257323
20
-2.45538790181902
30
0
41
1
10
45.7574353024201
20
-2.45561160508976
30
0
41
1
10
45.7834134840437
20
-2.45546530297403
30
0
0
SPLINE
5
1D6
100
AcDbEntity
8
1
62
256
6
ByLayer
370
18
48
1
60
0
100
AcDbSpline
70
4
71
3
72
8
73
4
40
0
40
0
40
0
40
0
40
1
40
1
40
1
40
1
41
1
10
43.2022359487655
20
-1.34903389507136
30
0
41
1
10
43.2281593915132
20
-1.36954373119977
30
0
41
1
10
43.2540862294478
20
-1.38984998743794
30
0
41
1
10
43.2800252763023
20
-1.40994496920996
30
0
0
SPLINE
5
1D7
100
AcDbEntity
8
1
62
256
6
ByLayer
370
18
48
1
60
0
100
AcDbSpline
70
4
71
3
72
8
73
4
40
0
40
0
40
0
40
0
40
1
40
1
40
1
40
1
41
1
10
41.5333205933505
20
0.15187341252161
30
0
41
1
10
41.5592547163853
20
0.127293958576559
30
0
41
1
10
41.5851957595546
20
0.102696923255849
30
0
41
1
10
41.6111513012661
20
0.0780903344773094
30
0
0
SPLINE
5
1D8
100
AcDbEntity
8
1
62
256
6
ByLayer
370
18
48
1
60
0
100
AcDbSpline
70
4
71
3
72
8
73
4
40
0
40
0
40
0
40
0
40
1
40
1
40
1
40
1
41
1
10
40.6989084764084
20
0.918761763412419
30
0
41
1
10
40.7248364813353
20
0.896021398948477
30
0
41
1
10
40.7507706827344
20
0.873147880659019
30
0
41
1
10
40.7767183462349
20
0.850148508584653
30
0
0
SPLINE
5
1D9
100
AcDbEntity
8
1
62
256
6
ByLayer
370
18
48
1
60
0
100
AcDbSpline
70
4
71
3
72
8
73
4
40
0
40
0
40
0
40
0
40
1
40
1
40
1
40
1
41
1
10
39.8643884971513
20
1.59297504668419
30
0
41
1
10
39.890339769
20
1.57420218897983
30
0
41
1
10
39.9162696095239
20
1.55517706533021
30
0
41
1
10
39.9422014784733
20
1.53591834107152
30
0
0
SPLINE
5
1DA
100
AcDbEntity
8
1
62
256
6
ByLayer
370
18
48
1
60
0
100
AcDbSpline
70
4
71
3
72
10
73
6
40
0
40
0
40
0
40
0
40
0.5
40
0.5
40
1
40
1
40
1
40
1
41
1
10
39.2417672617571
20
1.83699598216441
30
0
41
1
10
39.1581725523735
20
1.8433230040946
30
0
41
1
10
39.0740732991505
20
1.84314214383801
30
0
41
1
10
38.9039340873798
20
1.82951648502561
30
0
41
1
10
38.817839954305
20
1.8160188032243
30
0
41
1
10
38.7303643992218
20
1.79573137386777
30
0
0
SPLINE
5
1DB
100
AcDbEntity
8
1
62
256
6
ByLayer
370
18
48
1
60
0
100
AcDbSpline
70
4
71
3
72
10
73
6
40
0
40
0
40
0
40
0
40
0.5
40
0.5
40
1
40
1
40
1
40
1
41
1
10
38.7303643992219
20
1.79573137386777
30
0
41
1
10
38.707227134231
20
1.79036535328572
30
0
41
1
10
38.6826694898181
20
1.7876496004227
30
0
41
1
10
38.6309355994162
20
1.78762754408555
30
0
41
1
10
38.6036471223287
20
1.79040900039144
30
0
41
1
10
38.5758529767488
20
1.79638517609609
30
0
0
SPLINE
5
1DC
100
AcDbEntity
8
1
62
256
6
ByLayer
370
18
48
1
60
0
100
AcDbSpline
70
4
71
3
72
30
73
26
40
0
40
0
40
0
40
0
40
0.0661157110337081
40
0.0661157110337081
40
0.132231422067416
40
0.132231422067416
40
0.264462844134832
40
0.264462844134832
40
0.396694266202248
40
0.396694266202248
40
0.528925688269664
40
0.528925688269664
40
0.561983543786517
40
0.561983543786517
40
0.59504139930337
40
0.59504139930337
40
0.628099254820223
40
0.628099254820223
40
0.661157110337075
40
0.661157110337075
40
0.793388532404486
40
0.793388532404486
40
0.925619954471897
40
0.925619954471897
40
1
40
1
40
1
40
1
41
1
10
38.5758529767488
20
1.79638517609609
30
0
41
1
10
38.5186841643073
20
1.80867736428357
30
0
41
1
10
38.461711719235
20
1.81960548295965
30
0
41
1
10
38.3478664826405
20
1.83869609486092
30
0
41
1
10
38.2908084536122
20
1.8468103298496
30
0
41
1
10
38.1200064329145
20
1.86723885676844
30
0
41
1
10
38.006712660151
20
1.87562631685697
30
0
41
1
10
37.7808076331304
20
1.88174736141295
30
0
41
1
10
37.6681512281675
20
1.87946063430377
30
0
41
1
10
37.4423525689769
20
1.86403675475398
30
0
41
1
10
37.3291562942068
20
1.85091222875195
30
0
41
1
10
37.1867243054927
20
1.82776858371008
30
0
41
1
10
37.1581928995755
20
1.82280262808194
30
0
41
1
10
37.1010290152518
20
1.8121960288191
30
0
41
1
10
37.0723839357964
20
1.80654333050742
30
0
41
1
10
37.015042522468
20
1.79468474873499
30
0
41
1
10
36.986338678098
20
1.78847289642599
30
0
41
1
10
36.9290493180071
20
1.77541494150898
30
0
41
1
10
36.900447923347
20
1.76857490505372
30
0
41
1
10
36.7576786798784
20
1.73281367274797
30
0
41
1
10
36.6442565468393
20
1.69918712135399
30
0
41
1
10
36.4181206725926
20
1.6223729012637
30
0
41
1
10
36.3053861101676
20
1.57919671537368
30
0
41
1
10
36.1289951807229
20
1.50480832464814
30
0
41
1
10
36.0654640657857
20
1.47661306791568
30
0
41
1
10
36.001838442888
20
1.44704346382556
30
0
0
SPLINE
5
1DD
100
AcDbEntity
8
1
62
256
6
ByLayer
370
18
48
1
60
0
100
AcDbSpline
70
4
71
3
72
32
73
28
40
0
40
0
40
0
40
0
40
0.0032070999600969
40
0.0032070999600969
40
0.0465459217009606
40
0.0465459217009606
40
0.13322356518269
40
0.13322356518269
40
0.306578852146155
40
0.306578852146155
40
0.349917673887021
40
0.349917673887021
40
0.393256495627887
40
0.393256495627887
40
0.436595317368753
40
0.436595317368753
40
0.479934139109619
40
0.479934139109619
40
0.653289426073084
40
0.653289426073084
40
0.739967069554816
40
0.739967069554816
40
0.783305891295679
40
0.783305891295679
40
0.826644713036542
40
0.826644713036542
40
1
40
1
40
1
40
1
41
1
10
29.6445639294726
20
-1.87999998373942
30
0
41
1
10
29.6424508744636
20
-1.87999978404909
30
0
41
1
10
29.6403376426084
20
-1.8799977100534
30
0
41
1
10
29.6096648518738
20
-1.87994038030109
30
0
41
1
10
29.5810475205788
20
-1.8795436552586
30
0
41
1
10
29.4952491982362
20
-1.87731820106165
30
0
41
1
10
29.438256011931
20
-1.87446030244678
30
0
41
1
10
29.2676959678003
20
-1.86184216159043
30
0
41
1
10
29.154554835785
20
-1.84804522430932
30
0
41
1
10
29.0134884045587
20
-1.82425515028538
30
0
41
1
10
28.9852931634349
20
-1.81916953778537
30
0
41
1
10
28.9289290336673
20
-1.80834675758246
30
0
41
1
10
28.9007818908969
20
-1.8025999797087
30
0
41
1
10
28.8443287369197
20
-1.79053307544416
30
0
41
1
10
28.815987374779
20
-1.78423093969167
30
0
41
1
10
28.7593178879011
20
-1.77099816347149
30
0
41
1
10
28.7309851503489
20
-1.76406787750199
30
0
41
1
10
28.5893326662794
20
-1.72784059387399
30
0
41
1
10
28.4757696469996
20
-1.6939849683437
30
0
41
1
10
28.3053266842672
20
-1.6355270380769
30
0
41
1
10
28.2484788796137
20
-1.61476376200176
30
0
41
1
10
28.1630068610877
20
-1.58176270416956
30
0
41
1
10
28.1344820003073
20
-1.57045391105427
30
0
41
1
10
28.0773429478162
20
-1.54722945539609
30
0
41
1
10
28.0487125294376
20
-1.53530484421708
30
0
41
1
10
27.9059295555888
20
-1.47442602621752
30
0
41
1
10
27.7924727672054
20
-1.42150068131781
30
0
41
1
10
27.6793705375013
20
-1.36481476168697
30
0
0
SPLINE
5
1DE
100
AcDbEntity
8
1
62
256
6
ByLayer
370
18
48
1
60
0
100
AcDbSpline
70
4
71
3
72
22
73
18
40
0
40
0
40
0
40
0
40
0.257300883636371
40
0.257300883636371
40
0.514601767272743
40
0.514601767272743
40
0.643252209090929
40
0.643252209090929
40
0.707577430000021
40
0.707577430000021
40
0.771902650909114
40
0.771902650909114
40
0.836227871818207
40
0.836227871818207
40
0.9005530927273
40
0.9005530927273
40
1
40
1
40
1
40
1
41
1
10
26.3371538698401
20
-1.86547356041973
30
0
41
1
10
26.4646478448496
20
-1.85398560325737
30
0
41
1
10
26.5919639076485
20
-1.83587593766276
30
0
41
1
10
26.8464624812633
20
-1.78701987597032
30
0
41
1
10
26.9737470452292
20
-1.75631657550966
30
0
41
1
10
27.1647316132021
20
-1.70078045425859
30
0
41
1
10
27.228385409829
20
-1.68067217917152
30
0
41
1
10
27.3238595242798
20
-1.6480436858977
30
0
41
1
10
27.3556830862716
20
-1.63675606972294
30
0
41
1
10
27.4193276760255
20
-1.61333970711541
30
0
41
1
10
27.4511498846652
20
-1.60121067867891
30
0
41
1
10
27.514923998069
20
-1.57619613830005
30
0
41
1
10
27.5468825581184
20
-1.56331652208871
30
0
41
1
10
27.6109837044296
20
-1.53684552910451
30
0
41
1
10
27.6430559435475
20
-1.52327660694289
30
0
41
1
10
27.7245753631428
20
-1.48797720325536
30
0
41
1
10
27.7740081971938
20
-1.46581587981021
30
0
41
1
10
27.8233927165497
20
-1.44296171676339
30
0
0
SPLINE
5
1DF
100
AcDbEntity
8
1
62
256
6
ByLayer
370
18
48
1
60
0
100
AcDbSpline
70
4
71
3
72
60
73
56
40
0
40
0
40
0
40
0
40
0.0408509960724771
40
0.0408509960724771
40
0.0844486780691857
40
0.0844486780691857
40
0.128046360065894
40
0.128046360065894
40
0.171644042062603
40
0.171644042062603
40
0.193442883060957
40
0.193442883060957
40
0.215241724059311
40
0.215241724059311
40
0.258839406056017
40
0.258839406056017
40
0.302437088052721
40
0.302437088052721
40
0.324235929051074
40
0.324235929051074
40
0.346034770049427
40
0.346034770049427
40
0.389632452046132
40
0.389632452046132
40
0.476827816039539
40
0.476827816039539
40
0.520425498036244
40
0.520425498036244
40
0.542224339034597
40
0.542224339034597
40
0.564023180032949
40
0.564023180032949
40
0.607620862029658
40
0.607620862029658
40
0.62941970302801
40
0.62941970302801
40
0.651218544026362
40
0.651218544026362
40
0.673017385024715
40
0.673017385024715
40
0.694816226023067
40
0.694816226023067
40
0.738413908019772
40
0.738413908019772
40
0.825609272013179
40
0.825609272013179
40
0.869206954009883
40
0.869206954009883
40
0.891005795008235
40
0.891005795008235
40
0.912804636006587
40
0.912804636006587
40
0.956402318003293
40
0.956402318003293
40
1
40
1
40
1
40
1
41
1
10
34.1891849108861
20
1.8799997922257
30
0
41
1
10
34.2484547768242
20
1.88001186054535
30
0
41
1
10
34.3074872820162
20
1.87852420315201
30
0
41
1
10
34.4297115203836
20
1.87235068943002
30
0
41
1
10
34.492987503706
20
1.86747868037057
30
0
41
1
10
34.6198078191589
20
1.85441913283458
30
0
41
1
10
34.6833692797307
20
1.84623236646817
30
0
41
1
10
34.8108628757542
20
1.82658280865135
30
0
41
1
10
34.8747931855329
20
1.81511979403322
30
0
41
1
10
34.971002972452
20
1.79546983263944
30
0
41
1
10
35.0031250627753
20
1.7885102794823
30
0
41
1
10
35.0674772350574
20
1.77376751497098
30
0
41
1
10
35.0997348158943
20
1.76597733782228
30
0
41
1
10
35.1964771695011
20
1.74140358490399
30
0
41
1
10
35.2607147508713
20
1.72347556385841
30
0
41
1
10
35.3886255023667
20
1.68451493698836
30
0
41
1
10
35.4523167580996
20
1.66348907053052
30
0
41
1
10
35.5476403528811
20
1.62975341951534
30
0
41
1
10
35.5794107368812
20
1.61816598650515
30
0
41
1
10
35.6427011246708
20
1.59412691904188
30
0
41
1
10
35.6741498159403
20
1.58161723548841
30
0
41
1
10
35.7687749200862
20
1.54326333067286
30
0
41
1
10
35.8320658960022
20
1.51648865591216
30
0
41
1
10
36.0220836385812
20
1.43227766195477
30
0
41
1
10
36.1491587440543
20
1.37111837624661
30
0
41
1
10
36.3407522506901
20
1.2723129976834
30
0
41
1
10
36.4047753385253
20
1.23819321835734
30
0
41
1
10
36.5010597085114
20
1.18522419765247
30
0
41
1
10
36.5331958547258
20
1.16726905654491
30
0
41
1
10
36.597548792939
20
1.13075023404903
30
0
41
1
10
36.629803593093
20
1.11216250908399
30
0
41
1
10
36.7263564792168
20
1.05566678445115
30
0
41
1
10
36.7904237171686
20
1.01705037642566
30
0
41
1
10
36.8860921715491
20
0.957720186894306
30
0
41
1
10
36.9179104495272
20
0.937710194249973
30
0
41
1
10
36.9813853735032
20
0.897197900545223
30
0
41
1
10
37.0130207153271
20
0.876668677811693
30
0
41
1
10
37.0762177392043
20
0.835225012116922
30
0
41
1
10
37.1078637489258
20
0.814417493417295
30
0
41
1
10
37.1711738748749
20
0.772540102922676
30
0
41
1
10
37.2028145361844
20
0.7514398652512
30
0
41
1
10
37.2977738862317
20
0.687761661677825
30
0
41
1
10
37.3611592751019
20
0.644845303471755
30
0
41
1
10
37.5515796131309
20
0.514772375920927
30
0
41
1
10
37.6788852143745
20
0.426306697289192
30
0
41
1
10
37.8705846874871
20
0.291261807864714
30
0
41
1
10
37.9346063197706
20
0.245851994770049
30
0
41
1
10
38.0308228474314
20
0.177128711587983
30
0
41
1
10
38.0629262833065
20
0.154120200379253
30
0
41
1
10
38.1271971051433
20
0.107898834846253
30
0
41
1
10
38.159385931709
20
0.0846703521212646
30
0
41
1
10
38.2557640623505
20
0.0148745921718501
30
0
41
1
10
38.3197953369945
20
-0.031901884851095
30
0
41
1
10
38.447684395646
20
-0.125576203442563
30
0
41
1
10
38.5116736477781
20
-0.172293735153488
30
0
41
1
10
38.5758529767488
20
-0.218693148878685
30
0
0
SPLINE
5
1E0
100
AcDbEntity
8
1
62
256
6
ByLayer
370
18
48
1
60
0
100
AcDbSpline
70
4
71
3
72
8
73
4
40
0
40
0
40
0
40
0
40
1
40
1
40
1
40
1
41
1
10
40.116246589757
20
-1.58574021377666
30
0
41
1
10
40.0902844504593
20
-1.56698960006406
30
0
41
1
10
40.0643564809332
20
-1.5479950749945
30
0
41
1
10
40.0384590085161
20
-1.52875902687845
30
0
0
SPLINE
5
1E1
100
AcDbEntity
8
1
62
256
6
ByLayer
370
18
48
1
60
0
100
AcDbSpline
70
4
71
3
72
8
73
4
40
0
40
0
40
0
40
0
40
1
40
1
40
1
40
1
41
1
10
40.9503934320252
20
-2.09419011364764
30
0
41
1
10
40.9244747568339
20
-2.08135080015035
30
0
41
1
10
40.8985445633956
20
-2.0682225319604
30
0
41
1
10
40.8726027016183
20
-2.05480856557756
30
0
0
SPLINE
5
1E2
100
AcDbEntity
8
1
62
256
6
ByLayer
370
18
48
1
60
0
100
AcDbSpline
70
4
71
3
72
8
73
4
40
0
40
0
40
0
40
0
40
1
40
1
40
1
40
1
41
1
10
41.7849734979486
20
-2.39263234491475
30
0
41
1
10
41.7590205861161
20
-2.38716450306958
30
0
41
1
10
41.7330923183213
20
-2.38134716761564
30
0
41
1
10
41.7071878792197
20
-2.37518104260266
30
0
0
SPLINE
5
1E3
100
AcDbEntity
8
1
62
256
6
ByLayer
370
18
48
1
60
0
100
AcDbSpline
70
4
71
3
72
35
73
31
40
0
40
0
40
0
40
0
40
0.0346068289380194
40
0.0346068289380194
40
0.0989663736754849
40
0.0989663736754849
40
0.131146146044218
40
0.131146146044218
40
0.16332591841295
40
0.195505690781683
40
0.195505690781683
40
0.227685463150415
40
0.227685463150415
40
0.292045007887881
40
0.292045007887881
40
0.356404552625346
40
0.356404552625346
40
0.485123642100277
40
0.485123642100277
40
0.549483186837742
40
0.549483186837742
40
0.613842731575208
40
0.613842731575208
40
0.742561821050138
40
0.742561821050138
40
0.871280910525069
40
0.871280910525069
40
0.935640455262535
40
0.935640455262535
40
1
40
1
40
1
40
1
41
1
10
48.75
20
-0.805070513439489
30
0
41
1
10
48.75
20
-0.795800384856165
30
0
41
1
10
48.75
20
-0.787444986664809
30
0
41
1
10
48.75
20
-0.766118666386575
30
0
41
1
10
48.75
20
-0.755353655475886
30
0
41
1
10
48.75
20
-0.744029701879498
30
0
41
1
10
48.75
20
-0.741071862423979
30
0
41
1
10
48.75
20
-0.73685497125382
30
0
41
1
10
48.7500000000001
20
-0.734303000317908
30
0
41
1
10
48.75
20
-0.735054185166149
30
0
41
1
10
48.75
20
-0.737485362482801
30
0
41
1
10
48.75
20
-0.739635153869926
30
0
41
1
10
48.75
20
-0.747461510446186
30
0
41
1
10
48.75
20
-0.754096464421281
30
0
41
1
10
48.75
20
-0.770341568475487
30
0
41
1
10
48.75
20
-0.779916473511776
30
0
41
1
10
48.75
20
-0.812876474916578
30
0
41
1
10
48.75
20
-0.840465901305464
30
0
41
1
10
48.75
20
-0.8903126768341
30
0
41
1
10
48.75
20
-0.908349691346729
30
0
41
1
10
48.75
20
-0.947310155385679
30
0
41
1
10
48.75
20
-0.968295955704605
30
0
41
1
10
48.75
20
-1.03471919176363
30
0
41
1
10
48.75
20
-1.08381379854515
30
0
41
1
10
48.75
20
-1.19140848847732
30
0
41
1
10
48.75
20
-1.24989583493192
30
0
41
1
10
48.75
20
-1.34488689221177
30
0
41
1
10
48.75
20
-1.37787377939045
30
0
41
1
10
48.75
20
-1.44521926699247
30
0
41
1
10
48.75
20
-1.47967419735451
30
0
41
1
10
48.75
20
-1.51491148717568
30
0
0
SPLINE
5
1E4
100
AcDbEntity
8
1
62
256
6
ByLayer
370
18
48
1
60
0
100
AcDbSpline
70
4
71
3
72
14
73
10
40
0
40
0
40
0
40
0
40
0.125
40
0.125
40
0.250000000000001
40
0.250000000000001
40
0.5
40
0.5
40
1
40
1
40
1
40
1
41
1
10
48.3999890897606
20
-0.814427747849123
30
0
41
1
10
48.4150160111482
20
-0.814464234614718
30
0
41
1
10
48.4300121561194
20
-0.814534516267628
30
0
41
1
10
48.4598760068786
20
-0.814947260600491
30
0
41
1
10
48.4747503693894
20
-0.815266605135122
30
0
41
1
10
48.5192012573597
20
-0.816521123118378
30
0
41
1
10
48.548607756785
20
-0.81774594532024
30
0
41
1
10
48.6361443982853
20
-0.8222521492157
30
0
41
1
10
48.6935991062417
20
-0.826360420131692
30
0
41
1
10
48.7499999999962
20
-0.831019103090085
30
0
0
SPLINE
5
1E5
100
AcDbEntity
8
1
62
256
6
ByLayer
370
18
48
1
60
0
100
AcDbSpline
70
4
71
3
72
20
73
16
40
0
40
0
40
0
40
0
40
0.124999999999876
40
0.124999999999876
40
0.249999999999751
40
0.249999999999751
40
0.499999999999702
40
0.499999999999702
40
0.624999999999776
40
0.624999999999776
40
0.749999999999851
40
0.749999999999851
40
0.874999999999925
40
0.874999999999925
40
1
40
1
40
1
40
1
41
1
10
48.3999890897644
20
-0.814427747849464
30
0
41
1
10
48.3946385592651
20
-0.810146767158727
30
0
41
1
10
48.3892016233977
20
-0.806032555528475
30
0
41
1
10
48.378151140116
20
-0.798151583586304
30
0
41
1
10
48.3725059164475
20
-0.794365993259419
30
0
41
1
10
48.3556199349985
20
-0.783788548425946
30
0
41
1
10
48.3443821270826
20
-0.777712011433238
30
0
41
1
10
48.3276047929084
20
-0.770380477360021
30
0
41
1
10
48.322044408432
20
-0.768252538685744
30
0
41
1
10
48.3113123125109
20
-0.764818714239084
30
0
41
1
10
48.3061002719091
20
-0.763492578831546
30
0
41
1
10
48.2960468781363
20
-0.761753789122565
30
0
41
1
10
48.2912417719059
20
-0.761358589970797
30
0
41
1
10
48.2824906063613
20
-0.761664836128176
30
0
41
1
10
48.2784919768359
20
-0.762353905909606
30
0
41
1
10
48.2749374329578
20
-0.763683219717905
30
0
0
SPLINE
5
1E6
100
AcDbEntity
8
1
62
256
6
ByLayer
370
18
48
1
60
0
100
AcDbSpline
70
4
71
3
72
8
73
4
40
0
40
0
40
0
40
0
40
1
40
1
40
1
40
1
41
1
10
48.2749374329578
20
-0.763683219717933
30
0
41
1
10
48.2603102108601
20
-0.769153448523127
30
0
41
1
10
48.2457062236461
20
-0.77420822297529
30
0
41
1
10
48.2311244378007
20
-0.778827107324872
30
0
0
SPLINE
5
1E7
100
AcDbEntity
8
1
62
256
6
ByLayer
370
18
48
1
60
0
100
AcDbSpline
70
4
71
3
72
16
73
12
40
0
40
0
40
0
40
0
40
0.25
40
0.25
40
0.500000000000001
40
0.500000000000001
40
0.625000000000001
40
0.625000000000001
40
0.750000000000001
40
0.750000000000001
40
1
40
1
40
1
40
1
41
1
10
48.2311244378007
20
-0.778827107324929
30
0
41
1
10
48.1946819944589
20
-0.760255087008545
30
0
41
1
10
48.1583810924295
20
-0.740960916912229
30
0
41
1
10
48.0858967228841
20
-0.701172734150106
30
0
41
1
10
48.0496581561295
20
-0.680710629477318
30
0
41
1
10
47.9955176074831
20
-0.649214853849571
30
0
41
1
10
47.977510187806
20
-0.638572794851825
30
0
41
1
10
47.9415878723611
20
-0.616977821894295
30
0
41
1
10
47.9236843312269
20
-0.606007676554981
30
0
41
1
10
47.8699935730019
20
-0.572803658712672
30
0
41
1
10
47.8342999196177
20
-0.550167791145356
30
0
41
1
10
47.7987832394287
20
-0.526900600767448
30
0
0
SPLINE
5
1E8
100
AcDbEntity
8
1
62
256
6
ByLayer
370
18
48
1
60
0
100
AcDbSpline
70
4
71
3
72
8
73
4
40
0
40
0
40
0
40
0
40
1
40
1
40
1
40
1
41
1
10
47.0962186727526
20
0.0282721818463472
30
0
41
1
10
47.1222473158932
20
0.0036337199529726
30
0
41
1
10
47.1482688215277
20
-0.0209985871774734
30
0
41
1
10
47.1742867428954
20
-0.0456210002493833
30
0
0
SPLINE
5
1E9
100
AcDbEntity
8
1
62
256
6
ByLayer
370
18
48
1
60
0
100
AcDbSpline
70
4
71
3
72
8
73
4
40
0
40
0
40
0
40
0
40
1
40
1
40
1
40
1
41
1
10
46.2617312766974
20
0.803868925770757
30
0
41
1
10
46.2877512382148
20
0.780693820497703
30
0
41
1
10
46.3137668163261
20
0.757410838913046
30
0
41
1
10
46.3397824632679
20
0.734024720666099
30
0
0
SPLINE
5
1EA
100
AcDbEntity
8
1
62
256
6
ByLayer
370
18
48
1
60
0
100
AcDbSpline
70
4
71
3
72
8
73
4
40
0
40
0
40
0
40
0
40
1
40
1
40
1
40
1
41
1
10
45.4272672333152
20
1.49630381725191
30
0
41
1
10
45.4532991740786
20
1.47667481776634
30
0
41
1
10
45.4793314747795
20
1.45683243637291
30
0
41
1
10
45.5053678034968
20
1.43678054443717
30
0
0
SPLINE
5
1EB
100
AcDbEntity
8
1
62
256
6
ByLayer
370
18
48
1
60
0
100
AcDbSpline
70
4
71
3
72
8
73
4
40
0
40
0
40
0
40
0
40
1
40
1
40
1
40
1
41
1
10
43.7583449123505
20
2.36537858446215
30
0
41
1
10
43.7843837805972
20
2.35878164763585
30
0
41
1
10
43.810412437837
20
2.35183131870906
30
0
41
1
10
43.8364351127758
20
2.34452919702301
30
0
0
SPLINE
5
1EC
100
AcDbEntity
8
1
62
256
6
ByLayer
370
18
48
1
60
0
100
AcDbSpline
70
4
71
3
72
89
73
85
40
0
40
0
40
0
40
0
40
0.033949719503969
40
0.033949719503969
40
0.0799521138133096
40
0.0799521138133096
40
0.10295331096798
40
0.10295331096798
40
0.12595450812265
40
0.12595450812265
40
0.137455106699986
40
0.137455106699986
40
0.148955705277321
40
0.148955705277321
40
0.171956902431991
40
0.171956902431991
40
0.263961691050674
40
0.263961691050674
40
0.286962888205346
40
0.286962888205346
40
0.29846348678268
40
0.29846348678268
40
0.309964085360015
40
0.309964085360015
40
0.332965282514685
40
0.332965282514685
40
0.344465881092018
40
0.344465881092018
40
0.355966479669352
40
0.401968873978691
40
0.401968873978691
40
0.44797126828803
40
0.44797126828803
40
0.470972465442699
40
0.470972465442699
40
0.482473064020032
40
0.482473064020032
40
0.493973662597366
40
0.493973662597366
40
0.51697485975203
40
0.51697485975203
40
0.539976056906695
40
0.539976056906695
40
0.56297725406136
40
0.56297725406136
40
0.585978451216025
40
0.585978451216025
40
0.631980845525355
40
0.631980845525355
40
0.65498204268002
40
0.65498204268002
40
0.666482641257352
40
0.666482641257352
40
0.677983239834685
40
0.677983239834685
40
0.70098443698935
40
0.70098443698935
40
0.723985634144014
40
0.723985634144014
40
0.735486232721348
40
0.735486232721348
40
0.746986831298681
40
0.746986831298681
40
0.769988028453348
40
0.769988028453348
40
0.815990422762679
40
0.815990422762679
40
0.827491021340012
40
0.827491021340012
40
0.838991619917345
40
0.838991619917345
40
0.850492218494678
40
0.850492218494678
40
0.861992817072011
40
0.861992817072011
40
0.907995211381343
40
0.907995211381343
40
0.930996408536008
40
0.930996408536008
40
0.94249700711334
40
0.94249700711334
40
0.953997605690672
40
0.953997605690672
40
1
40
1
40
1
40
1
41
1
10
35.0798490434457
20
-1.87999924364939
30
0
41
1
10
34.9964359522611
20
-1.88000370079595
30
0
41
1
10
34.9132150592332
20
-1.87708057465204
30
0
41
1
10
34.7172223011467
20
-1.86332227722727
30
0
41
1
10
34.6045542072655
20
-1.85002721831486
30
0
41
1
10
34.4348474419047
20
-1.82214371864882
30
0
41
1
10
34.3781628171434
20
-1.81152296440763
30
0
41
1
10
34.2641427114974
20
-1.78781680099868
30
0
41
1
10
34.2068764492625
20
-1.7747155265308
30
0
41
1
10
34.120875384586
20
-1.75303513176837
30
0
41
1
10
34.0921492109768
20
-1.74546618114169
30
0
41
1
10
34.0347877637271
20
-1.72970133155437
30
0
41
1
10
34.0061652783108
20
-1.72150979525858
30
0
41
1
10
33.9204573199225
20
-1.69601938274528
30
0
41
1
10
33.8635352083261
20
-1.67780199746483
30
0
41
1
10
33.5796980124076
20
-1.58081677740785
30
0
41
1
10
33.3548809693651
20
-1.48451502716927
30
0
41
1
10
33.0729633994831
20
-1.34380999634723
30
0
41
1
10
33.0165107693262
20
-1.31467091473562
30
0
41
1
10
32.9313719918365
20
-1.26984621949956
30
0
41
1
10
32.9029139636268
20
-1.25472275568165
30
0
41
1
10
32.846008779094
20
-1.22393537504613
30
0
41
1
10
32.8175431300275
20
-1.20828979717208
30
0
41
1
10
32.7320073550282
20
-1.16070029221507
30
0
41
1
10
32.6747769437967
20
-1.12813213964091
30
0
41
1
10
32.5887534284082
20
-1.07784249355009
30
0
41
1
10
32.560030618358
20
-1.06082686011314
30
0
41
1
10
32.5027516297931
20
-1.02646968384994
30
0
41
1
10
32.3598380926613
20
-0.939683373734965
30
0
41
1
10
32.2181556777525
20
-0.848670034922264
30
0
41
1
10
31.9922937344848
20
-0.698597223068589
30
0
41
1
10
31.8797879757151
20
-0.621315810403729
30
0
41
1
10
31.7106289277281
20
-0.503410370239038
30
0
41
1
10
31.6541591857107
20
-0.463801609133782
30
0
41
1
10
31.569223898865
20
-0.404079513640369
30
0
41
1
10
31.5408660731735
20
-0.384131224704305
30
0
41
1
10
31.4840783087699
20
-0.344126626651018
30
0
41
1
10
31.4557147036685
20
-0.323977976007342
30
0
41
1
10
31.3704218431827
20
-0.263498673944696
30
0
41
1
10
31.3133500606732
20
-0.223055533298066
30
0
41
1
10
31.1991697246981
20
-0.141369593447251
30
0
41
1
10
31.1420155373863
20
-0.100189510095646
30
0
41
1
10
31.0274532363703
20
-0.0173099289739014
30
0
41
1
10
30.9703202723657
20
0.0241914341584391
30
0
41
1
10
30.8565127759815
20
0.106917684475576
30
0
41
1
10
30.7997907923096
20
0.14817650896515
30
0
41
1
10
30.6299759888047
20
0.271372620126613
30
0
41
1
10
30.5172077502083
20
0.352690727593227
30
0
41
1
10
30.3479647591937
20
0.472444215539951
30
0
41
1
10
30.2915573470164
20
0.512021537231846
30
0
41
1
10
30.2068143505768
20
0.57068877256205
30
0
41
1
10
30.1785276393851
20
0.590105227847886
30
0
41
1
10
30.1218261293419
20
0.628595735612095
30
0
41
1
10
30.0934380666025
20
0.647705485862673
30
0
41
1
10
30.0082512629479
20
0.704746521777253
30
0
41
1
10
29.9514272979505
20
0.742385999572605
30
0
41
1
10
29.8377171186137
20
0.816880045084048
30
0
41
1
10
29.7808148044796
20
0.853713399090594
30
0
41
1
10
29.6953101055559
20
0.908227332182065
30
0
41
1
10
29.6667836094948
20
0.926276306459727
30
0
41
1
10
29.6096648518738
20
0.962107203115863
30
0
41
1
10
29.5810475205788
20
0.979904515947624
30
0
41
1
10
29.4952491982362
20
1.03274876907906
30
0
41
1
10
29.438256011931
20
1.06716089540404
30
0
41
1
10
29.2676959678004
20
1.16775455282425
30
0
41
1
10
29.154554835785
20
1.23130737933383
30
0
41
1
10
29.0134884045587
20
1.30606562955015
30
0
41
1
10
28.9852931634349
20
1.3207828827251
30
0
41
1
10
28.9289290336673
20
1.34973902769133
30
0
41
1
10
28.9007818908969
20
1.36399812161469
30
0
41
1
10
28.8443287369197
20
1.39186300929046
30
0
41
1
10
28.815987374779
20
1.40543782243679
30
0
41
1
10
28.7593178879011
20
1.43211046198661
30
0
41
1
10
28.7309851503489
20
1.44520267970833
30
0
41
1
10
28.5893326662795
20
1.50943975550365
30
0
41
1
10
28.4757696469996
20
1.55669194216779
30
0
41
1
10
28.3053266842672
20
1.62141394810706
30
0
41
1
10
28.2484788796137
20
1.64194150878382
30
0
41
1
10
28.1630068610877
20
1.67101863125282
30
0
41
1
10
28.1344820003074
20
1.680424998283
30
0
41
1
10
28.0773429478162
20
1.69864684069697
30
0
41
1
10
28.0487125294376
20
1.70746775242353
30
0
41
1
10
27.9059295555888
20
1.7498966643777
30
0
41
1
10
27.7924727672058
20
1.77864416025574
30
0
41
1
10
27.6793705375016
20
1.80212185324851
30
0
0
SPLINE
5
1ED
100
AcDbEntity
8
1
62
256
6
ByLayer
370
18
48
1
60
0
100
AcDbSpline
70
4
71
3
72
28
73
24
40
0
40
0
40
0
40
0
40
0.0269995925353869
40
0.0269995925353869
40
0.126164645320858
40
0.126164645320858
40
0.225329698106329
40
0.225329698106329
40
0.3244947508918
40
0.3244947508918
40
0.423659803677271
40
0.423659803677271
40
0.522824856462743
40
0.522824856462743
40
0.621989909248214
40
0.621989909248214
40
0.721154962033685
40
0.721154962033685
40
0.820320014819156
40
0.820320014819156
40
0.919485067604628
40
0.919485067604628
40
1
40
1
40
1
40
1
41
1
10
26.5676929641803
20
0.562465754660934
30
0
41
1
10
26.576019638874
20
0.564014678729791
30
0
41
1
10
26.5845621740941
20
0.565927433342551
30
0
41
1
10
26.6254390442422
20
0.57660884603149
30
0
41
1
10
26.6600881558439
20
0.589881980712505
30
0
41
1
10
26.734721029785
20
0.626753677341412
30
0
41
1
10
26.7750713221176
20
0.650653892562758
30
0
41
1
10
26.8579013330709
20
0.707183223893139
30
0
41
1
10
26.900701804652
20
0.739914940905834
30
0
41
1
10
26.9890067659188
20
0.814096731647595
30
0
41
1
10
27.0343406460055
20
0.855483146589108
30
0
41
1
10
27.1239347625501
20
0.943214762826045
30
0
41
1
10
27.1686703725397
20
0.989584552304933
30
0
41
1
10
27.2579678294658
20
1.08940487341152
30
0
41
1
10
27.3007500471292
20
1.14183026622226
30
0
41
1
10
27.3819278344175
20
1.2491990823579
30
0
41
1
10
27.4209928577861
20
1.30523777664305
30
0
41
1
10
27.4922143955493
20
1.4160092117931
30
0
41
1
10
27.5245256869099
20
1.47073874255901
30
0
41
1
10
27.5832322236416
20
1.57902124467637
30
0
41
1
10
27.6094066335418
20
1.63229162602511
30
0
41
1
10
27.649908817737
20
1.72401234564478
30
0
41
1
10
27.6650968897936
20
1.76335360712506
30
0
41
1
10
27.6792776849254
20
1.80209650890632
30
0
0
SPLINE
5
1EE
100
AcDbEntity
8
1
62
256
6
ByLayer
370
18
48
1
60
0
100
AcDbSpline
70
4
71
3
72
74
73
70
40
0
40
0
40
0
40
0
40
0.0551922080279397
40
0.0551922080279397
40
0.110384416055879
40
0.110384416055879
40
0.13798052006985
40
0.13798052006985
40
0.151778572076835
40
0.151778572076835
40
0.165576624083819
40
0.165576624083819
40
0.179374676090804
40
0.179374676090804
40
0.193172728097788
40
0.193172728097788
40
0.220768832111755
40
0.220768832111755
40
0.275961040139689
40
0.275961040139689
40
0.331153248167623
40
0.331153248167623
40
0.344951300174607
40
0.344951300174607
40
0.358749352181592
40
0.358749352181592
40
0.386345456195562
40
0.386345456195562
40
0.400143508202548
40
0.400143508202548
40
0.413941560209533
40
0.413941560209533
40
0.441537664223502
40
0.441537664223502
40
0.49672987225144
40
0.49672987225144
40
0.52432597626541
40
0.52432597626541
40
0.55192208027938
40
0.55192208027938
40
0.607114288307322
40
0.607114288307322
40
0.620912340314309
40
0.620912340314309
40
0.634710392321295
40
0.66230649633527
40
0.66230649633527
40
0.717498704363219
40
0.717498704363219
40
0.745094808377195
40
0.745094808377195
40
0.758892860384182
40
0.758892860384182
40
0.772690912391169
40
0.772690912391169
40
0.827883120419119
40
0.827883120419119
40
0.841681172426106
40
0.841681172426106
40
0.855479224433094
40
0.88307532844707
40
0.88307532844707
40
0.938267536475022
40
0.938267536475022
40
0.965863640488998
40
0.965863640488998
40
0.993459744502973
40
0.993459744502973
40
1
40
1
40
1
40
1
41
1
10
26.3371538698401
20
0.730731095806902
30
0
41
1
10
26.4646478448497
20
0.645420741112559
30
0
41
1
10
26.5919639076486
20
0.558465483314677
30
0
41
1
10
26.8464624812633
20
0.381679122309038
30
0
41
1
10
26.9737470452291
20
0.29198767905865
30
0
41
1
10
27.164731613202
20
0.155494649219946
30
0
41
1
10
27.228385409829
20
0.10964539106638
30
0
41
1
10
27.3238595242798
20
0.0403351779800687
30
0
41
1
10
27.3556830862715
20
0.0171422332542193
30
0
41
1
10
27.4193276760254
20
-0.0294269564420517
30
0
41
1
10
27.4511498846652
20
-0.0528017524996471
30
0
41
1
10
27.514923998069
20
-0.0995475204541663
30
0
41
1
10
27.5468825581184
20
-0.122908724107958
30
0
41
1
10
27.6109837044296
20
-0.169548293933985
30
0
41
1
10
27.6430559435475
20
-0.192786632983371
30
0
41
1
10
27.7391117510661
20
-0.262096856338133
30
0
41
1
10
27.8030351827223
20
-0.307823791813831
30
0
41
1
10
27.9945919041267
20
-0.443443703574388
30
0
41
1
10
28.1220158029727
20
-0.531777772985407
30
0
41
1
10
28.3766280340144
20
-0.703984295307123
30
0
41
1
10
28.5038118951117
20
-0.787867679888763
30
0
41
1
10
28.6625771553564
20
-0.889934876068708
30
0
41
1
10
28.6943212882032
20
-0.910205865257183
30
0
41
1
10
28.7577876748623
20
-0.950462357485605
30
0
41
1
10
28.7894864231337
20
-0.970476386863851
30
0
41
1
10
28.8846763391237
20
-1.0299258690375
30
0
41
1
10
28.9483920357094
20
-1.06861150408517
30
0
41
1
10
29.0444466649925
20
-1.12510544205014
30
0
41
1
10
29.0765815750764
20
-1.14370329876544
30
0
41
1
10
29.1408158349361
20
-1.18026993407426
30
0
41
1
10
29.1728978502881
20
-1.19822974639456
30
0
41
1
10
29.269043973213
20
-1.25115064018013
30
0
41
1
10
29.3330037957856
20
-1.28515814199008
30
0
41
1
10
29.5246239858612
20
-1.38330391575911
30
0
41
1
10
29.6520909826641
20
-1.44352799245405
30
0
41
1
10
29.8428157856085
20
-1.52622315402519
30
0
41
1
10
29.9063086118459
20
-1.55251039488178
30
0
41
1
10
30.033185165216
20
-1.60244252107108
30
0
41
1
10
30.0965962147225
20
-1.62607181736365
30
0
41
1
10
30.2862817915914
20
-1.69312601573171
30
0
41
1
10
30.4135014724629
20
-1.73167663991939
30
0
41
1
10
30.5741401877933
20
-1.77182392378796
30
0
41
1
10
30.6063650700782
20
-1.77945835420934
30
0
41
1
10
30.6706709106479
20
-1.79385783320163
30
0
41
1
10
30.7670182162805
20
-1.81417959383657
30
0
41
1
10
30.8630502296089
20
-1.83072350748344
30
0
41
1
10
31.0547495237182
20
-1.85885333867878
30
0
41
1
10
31.1820629518899
20
-1.8710220351181
30
0
41
1
10
31.3723574166171
20
-1.87933350409096
30
0
41
1
10
31.4356710448035
20
-1.88044216514876
30
0
41
1
10
31.530439115679
20
-1.87954148944465
30
0
41
1
10
31.5619804861223
20
-1.87881093113427
30
0
41
1
10
31.6252210632142
20
-1.8764977259801
30
0
41
1
10
31.6568920704896
20
-1.8749153747647
30
0
41
1
10
31.8154789844673
20
-1.86488333974288
30
0
41
1
10
31.9430672098002
20
-1.85006869863389
30
0
41
1
10
32.1040733654232
20
-1.82317793533579
30
0
41
1
10
32.1363137096002
20
-1.81738458875643
30
0
41
1
10
32.200643003229
20
-1.80501946393281
30
0
41
1
10
32.2970121932268
20
-1.78528722007741
30
0
41
1
10
32.3930099292599
20
-1.76204727464079
30
0
41
1
10
32.5845095306211
20
-1.71093839420794
30
0
41
1
10
32.7115316327422
20
-1.67072204059522
30
0
41
1
10
32.901182768427
20
-1.60103879934155
30
0
41
1
10
32.9641935824442
20
-1.5761917689619
30
0
41
1
10
33.0906579773821
20
-1.52388536233468
30
0
41
1
10
33.1540641180934
20
-1.49640016346834
30
0
41
1
10
33.232743028088
20
-1.46079849550765
30
0
41
1
10
33.2478286565566
20
-1.45390512333986
30
0
41
1
10
33.2629260384025
20
-1.44693964410436
30
0
0
SPLINE
5
1EF
100
AcDbEntity
8
1
62
256
6
ByLayer
370
18
48
1
60
0
100
AcDbSpline
70
4
71
3
72
8
73
4
40
0
40
0
40
0
40
0
40
1
40
1
40
1
40
1
41
1
10
41.5071215376581
20
1.85569487211581
30
0
41
1
10
41.481047156587
20
1.87182190231587
30
0
41
1
10
41.4550014230364
20
1.88767687578206
30
0
41
1
10
41.4289806375758
20
1.90325617226586
30
0
0
SPLINE
5
1F0
100
AcDbEntity
8
1
62
256
6
ByLayer
370
18
48
1
60
0
100
AcDbSpline
70
4
71
3
72
8
73
4
40
0
40
0
40
0
40
0
40
1
40
1
40
1
40
1
41
1
10
44.0101941755264
20
-0.261755764338261
30
0
41
1
10
43.9841320779766
20
-0.237017714299611
30
0
41
1
10
43.9581057302265
20
-0.212220514981169
30
0
41
1
10
43.9321103415557
20
-0.187369055319664
30
0
0
SPLINE
5
1F1
100
AcDbEntity
8
1
62
256
6
ByLayer
370
18
48
1
60
0
100
AcDbSpline
70
4
71
3
72
8
73
4
40
0
40
0
40
0
40
0
40
1
40
1
40
1
40
1
41
1
10
44.8443918445062
20
-1.0161742495749
30
0
41
1
10
44.8184112608676
20
-0.993949622708669
30
0
41
1
10
44.7924239328731
20
-0.97159679020038
30
0
41
1
10
44.7664294755873
20
-0.949116770259906
30
0
0
SPLINE
5
1F2
100
AcDbEntity
8
1
62
256
6
ByLayer
370
18
48
1
60
0
100
AcDbSpline
70
4
71
3
72
8
73
4
40
0
40
0
40
0
40
0
40
1
40
1
40
1
40
1
41
1
10
45.679000071626
20
-1.67329526872899
30
0
41
1
10
45.6529898888375
20
-1.65535315994501
30
0
41
1
10
45.627004600696
20
-1.63715474799412
30
0
41
1
10
45.6010402229874
20
-1.6187024761264
30
0
0
SPLINE
5
1F3
100
AcDbEntity
8
1
62
256
6
ByLayer
370
18
48
1
60
0
100
AcDbSpline
70
4
71
3
72
8
73
4
40
0
40
0
40
0
40
0
40
1
40
1
40
1
40
1
41
1
10
46.5131597415738
20
-2.15331491063378
30
0
41
1
10
46.487184258409
20
-2.14142620083166
30
0
41
1
10
46.4612053589502
20
-2.12922006938385
30
0
41
1
10
46.4352133768129
20
-2.11670318488839
30
0
0
SPLINE
5
1F4
100
AcDbEntity
8
1
62
256
6
ByLayer
370
18
48
1
60
0
100
AcDbSpline
70
4
71
3
72
8
73
4
40
0
40
0
40
0
40
0
40
1
40
1
40
1
40
1
41
1
10
47.831375083273
20
-2.00594421095968
30
0
41
1
10
47.8605187126339
20
-2.0537810554118
30
0
41
1
10
47.8894740457511
20
-2.10093482704556
30
0
41
1
10
47.9182623262286
20
-2.1473445604625
30
0
0
SPLINE
5
1F5
100
AcDbEntity
8
1
62
256
6
ByLayer
370
18
48
1
60
0
100
AcDbSpline
70
4
71
3
72
12
73
8
40
0
40
0
40
0
40
0
40
0.250000000000013
40
0.250000000000013
40
0.500000000000027
40
0.500000000000027
40
1
40
1
40
1
40
1
41
1
10
47.9182623262286
20
-2.14734456046247
30
0
41
1
10
47.9540603202862
20
-2.13364667396223
30
0
41
1
10
47.9898614743041
20
-2.1193121330513
30
0
41
1
10
48.0618129062555
20
-2.08929742382017
30
0
41
1
10
48.0979309942221
20
-2.0736313971216
30
0
41
1
10
48.2067189599231
20
-2.02474126392494
30
0
41
1
10
48.2798577637123
20
-1.98961231896186
30
0
41
1
10
48.3537820572377
20
-1.95213932615246
30
0
0
SPLINE
5
1F6
100
AcDbEntity
8
1
62
256
6
ByLayer
370
18
48
1
60
0
100
AcDbSpline
70
4
71
3
72
18
73
14
40
0
40
0
40
0
40
0
40
0.125
40
0.125
40
0.249999999999999
40
0.249999999999999
40
0.5
40
0.5
40
0.75
40
0.75
40
0.875
40
0.875
40
1
40
1
40
1
40
1
41
1
10
48.7500000000002
20
-1.51491148717497
30
0
41
1
10
48.7325149863763
20
-1.53298788480367
30
0
41
1
10
48.7150079015887
20
-1.55127677955528
30
0
41
1
10
48.6802559877061
20
-1.58789348149523
30
0
41
1
10
48.6630068883553
20
-1.60620861252877
30
0
41
1
10
48.6117426681961
20
-1.66116910061848
30
0
41
1
10
48.5783058528071
20
-1.69784150616257
30
0
41
1
10
48.5125830311192
20
-1.77104995709442
30
0
41
1
10
48.4802807159927
20
-1.80758458894954
30
0
41
1
10
48.4324674397467
20
-1.86213218128714
30
0
41
1
10
48.416623588297
20
-1.88029623083128
30
0
41
1
10
48.3851079802472
20
-1.91639292545528
30
0
41
1
10
48.3694117212692
20
-1.93432670845348
30
0
41
1
10
48.3537820572377
20
-1.95213932615249
30
0
0
SPLINE
5
1F7
100
AcDbEntity
8
1
62
256
6
ByLayer
370
18
48
1
60
0
100
AcDbSpline
70
4
71
3
72
94
73
90
40
0
40
0
40
0
40
0
40
0.031250000000011
40
0.031250000000011
40
0.046875000000015
40
0.046875000000015
40
0.0625000000000191
40
0.0625000000000191
40
0.125000000000032
40
0.125000000000032
40
0.187500000000045
40
0.187500000000045
40
0.203125000000048
40
0.203125000000048
40
0.21875000000005
40
0.21875000000005
40
0.250000000000055
40
0.250000000000055
40
0.28125000000006
40
0.28125000000006
40
0.296875000000061
40
0.296875000000061
40
0.312500000000061
40
0.312500000000061
40
0.328125000000062
40
0.328125000000062
40
0.343750000000063
40
0.343750000000063
40
0.375000000000067
40
0.375000000000067
40
0.406250000000072
40
0.406250000000072
40
0.437500000000077
40
0.437500000000077
40
0.453125000000079
40
0.453125000000079
40
0.468750000000082
40
0.468750000000082
40
0.484375000000084
40
0.484375000000084
40
0.500000000000087
40
0.500000000000087
40
0.515625000000089
40
0.515625000000089
40
0.523437500000089
40
0.523437500000089
40
0.531250000000089
40
0.531250000000089
40
0.546875000000086
40
0.546875000000086
40
0.554687500000085
40
0.554687500000085
40
0.562500000000084
40
0.562500000000084
40
0.578125000000081
40
0.578125000000081
40
0.585937500000079
40
0.585937500000079
40
0.593750000000077
40
0.593750000000077
40
0.609375000000073
40
0.609375000000073
40
0.617187500000071
40
0.617187500000071
40
0.625000000000069
40
0.625000000000069
40
0.656250000000063
40
0.656250000000063
40
0.664062500000061
40
0.664062500000061
40
0.671875000000059
40
0.671875000000059
40
0.687500000000057
40
0.687500000000057
40
0.71875000000005
40
0.71875000000005
40
0.750000000000044
40
0.750000000000044
40
0.76562500000004
40
0.76562500000004
40
0.781250000000037
40
0.781250000000037
40
0.812500000000031
40
0.812500000000031
40
0.87500000000002
40
0.87500000000002
40
0.93750000000001
40
0.93750000000001
40
1
40
1
40
1
40
1
41
1
10
27.679279554575
20
-1.36486361736016
30
0
41
1
10
27.6328007267303
20
-1.33943449499233
30
0
41
1
10
27.5862735385296
20
-1.31338874894516
30
0
41
1
10
27.5159106725646
20
-1.27407390132322
30
0
41
1
10
27.4923594901461
20
-1.26093084986499
30
0
41
1
10
27.4449659372632
20
-1.23471275040933
30
0
41
1
10
27.4211078873194
20
-1.22165790757299
30
0
41
1
10
27.3010410818936
20
-1.15668691818593
30
0
41
1
10
27.2027088035138
20
-1.10539882602379
30
0
41
1
10
26.9997416328965
20
-1.00819452726199
30
0
41
1
10
26.8951254430619
20
-0.962254214182394
30
0
41
1
10
26.7592065085071
20
-0.911050699303274
30
0
41
1
10
26.7317544734583
20
-0.901137685761512
30
0
41
1
10
26.6762963501378
20
-0.882022458167711
30
0
41
1
10
26.6482273166279
20
-0.872801084442955
30
0
41
1
10
26.5636931256237
20
-0.846478182364052
30
0
41
1
10
26.5069329779379
20
-0.830722386690724
30
0
41
1
10
26.3925377803152
20
-0.803281741486728
30
0
41
1
10
26.3349146404966
20
-0.791539221935722
30
0
41
1
10
26.2477506852862
20
-0.777431473151751
30
0
41
1
10
26.2185743063558
20
-0.773313942427109
30
0
41
1
10
26.1599598031808
20
-0.766351066460089
30
0
41
1
10
26.1305130625752
20
-0.763548117767499
30
0
41
1
10
26.0714152756358
20
-0.758941447013996
30
0
41
1
10
26.0417587239931
20
-0.75716459764115
30
0
41
1
10
25.9822346600308
20
-0.754647084490983
30
0
41
1
10
25.9523201023633
20
-0.753906291793498
30
0
41
1
10
25.8626146282531
20
-0.75319008205247
30
0
41
1
10
25.8030499911236
20
-0.754576113282724
30
0
41
1
10
25.6845013359707
20
-0.761859007257073
30
0
41
1
10
25.6255118996832
20
-0.767714755015305
30
0
41
1
10
25.5082249506999
20
-0.784732490124952
30
0
41
1
10
25.4499252002517
20
-0.795879865315641
30
0
41
1
10
25.3631524501453
20
-0.817674610180035
30
0
41
1
10
25.3344511574969
20
-0.825773197662073
30
0
41
1
10
25.2780169928401
20
-0.843713219412479
30
0
41
1
10
25.25022238231
20
-0.853574959860794
30
0
41
1
10
25.1956258716623
20
-0.875350288736826
30
0
41
1
10
25.1687635411317
20
-0.887274342696145
30
0
41
1
10
25.1164453932358
20
-0.913394205835402
30
0
41
1
10
25.0912815639523
20
-0.927438376892127
30
0
41
1
10
25.0433450393728
20
-0.957817347442273
30
0
41
1
10
25.0205450691634
20
-0.974123942826878
30
0
41
1
10
24.988481711007
20
-1.0005516839617
30
0
41
1
10
24.978151463263
20
-1.00968995898066
30
0
41
1
10
24.9582935022481
20
-1.02869034553291
30
0
41
1
10
24.948733566615
20
-1.03859660304897
30
0
41
1
10
24.9219803852156
20
-1.06884500768487
30
0
41
1
10
24.9065225914585
20
-1.08987080438348
30
0
41
1
10
24.8872388182513
20
-1.12270545206641
30
0
41
1
10
24.8814425471253
20
-1.13390312907347
30
0
41
1
10
24.8712873082858
20
-1.15656068658379
30
0
41
1
10
24.866977385884
20
-1.16789888279973
30
0
41
1
10
24.8562484218387
20
-1.20190881890426
30
0
41
1
10
24.8520374206811
20
-1.22457696228148
30
0
41
1
10
24.8497925347421
20
-1.25845049624016
30
0
41
1
10
24.8497320153213
20
-1.26970482501943
30
0
41
1
10
24.850864331181
20
-1.29170793522383
30
0
41
1
10
24.8520514897707
20
-1.30251699235208
30
0
41
1
10
24.8572758723361
20
-1.33440087457615
30
0
41
1
10
24.8629675156396
20
-1.35493392937863
30
0
41
1
10
24.8742159515843
20
-1.38475133717782
30
0
41
1
10
24.8784343586889
20
-1.3945529704209
30
0
41
1
10
24.8875930502513
20
-1.41363054357211
30
0
41
1
10
24.8925381540221
20
-1.42292579146792
30
0
41
1
10
24.918870200017
20
-1.46829808287433
30
0
41
1
10
24.9449702957033
20
-1.50111795671913
30
0
41
1
10
24.9816917690526
20
-1.53892102203844
30
0
41
1
10
24.9892467397438
20
-1.54631752719899
30
0
41
1
10
25.0047426844008
20
-1.56080032977133
30
0
41
1
10
25.0126956623619
20
-1.56789190746488
30
0
41
1
10
25.0369214706875
20
-1.58861517868084
30
0
41
1
10
25.0535796689493
20
-1.60174486467147
30
0
41
1
10
25.1049323109995
20
-1.63928079746825
30
0
41
1
10
25.1410010277403
20
-1.66184342046461
30
0
41
1
10
25.2160416625963
20
-1.70291395622093
30
0
41
1
10
25.2550115673984
20
-1.72141995912389
30
0
41
1
10
25.3151627198906
20
-1.74658260921586
30
0
41
1
10
25.3354925637065
20
-1.75453670562575
30
0
41
1
10
25.3766863059254
20
-1.76962087405335
30
0
41
1
10
25.3975747885403
20
-1.77676152989776
30
0
41
1
10
25.4605783596103
20
-1.79692974642043
30
0
41
1
10
25.5030794459834
20
-1.80873673381365
30
0
41
1
10
25.6315264663046
20
-1.83985068724874
30
0
41
1
10
25.7183837082137
20
-1.85488710538155
30
0
41
1
10
25.8933224523827
20
-1.87492851477376
30
0
41
1
10
25.9814330575104
20
-1.87990328011424
30
0
41
1
10
26.1586234557654
20
-1.88009394115957
30
0
41
1
10
26.2477068439225
20
-1.87529984869019
30
0
41
1
10
26.3373544143325
20
-1.86552891480127
30
0
0
SPLINE
5
1F8
100
AcDbEntity
8
SK1
62
256
6
ByLayer
370
18
48
1
60
0
100
AcDbSpline
70
4
71
3
72
21
73
17
40
0
40
0
40
0
40
0
40
0.124983575955296
40
0.124983575955296
40
0.249967151910593
40
0.249967151910593
40
0.499934303821186
40
0.499934303821186
40
0.749901455731778
40
0.749901455731778
40
0.812393243709426
40
0.812393243709426
40
0.874885031687074
40
0.874885031687074
40
0.99986860764237
40
1
40
1
40
1
40
1
41
1
10
-20.3499999999999
20
1.92999999999998
30
0
41
1
10
-20.3802708643587
20
1.92999999999998
30
0
41
1
10
-20.409734726061
20
1.92999999999998
30
0
41
1
10
-20.4667122476154
20
1.92999999999998
30
0
41
1
10
-20.49408653232
20
1.92999999999998
30
0
41
1
10
-20.5721562730024
20
1.92999999999998
30
0
41
1
10
-20.6188871939894
20
1.92999999999998
30
0
41
1
10
-20.6976840731071
20
1.92999999999998
30
0
41
1
10
-20.729744565594
20
1.92999999999998
30
0
41
1
10
-20.7573954507967
20
1.92999999999998
30
0
41
1
10
-20.7622853281599
20
1.92999999999998
30
0
41
1
10
-20.7706695789109
20
1.92999999999998
30
0
41
1
10
-20.7741762974263
20
1.92999999999998
30
0
41
1
10
-20.782606943609
20
1.92999999999998
30
0
41
1
10
-20.7854388566415
20
1.92999999999998
30
0
41
1
10
-20.7854409990996
20
1.92999999999998
30
0
41
1
10
-20.7854391411577
20
1.92999999999998
30
0
0
SPLINE
5
1F9
100
AcDbEntity
8
SK1
62
256
6
ByLayer
370
18
48
1
60
0
100
AcDbSpline
70
4
71
3
72
20
73
16
40
0
40
0
40
0
40
0
40
0.125011251861579
40
0.125011251861579
40
0.18751044815718
40
0.18751044815718
40
0.250009644452782
40
0.250009644452782
40
0.500006429635188
40
0.500006429635188
40
0.750003214817594
40
0.750003214817594
40
0.875001607408797
40
0.875001607408797
40
1
40
1
40
1
40
1
41
1
10
-20.7854400000034
20
-1.93000000000004
30
0
41
1
10
-20.7854370316968
20
-1.93000000000004
30
0
41
1
10
-20.7826069436089
20
-1.93000000000004
30
0
41
1
10
-20.7741762974263
20
-1.93000000000004
30
0
41
1
10
-20.7706695789109
20
-1.93000000000004
30
0
41
1
10
-20.7622853281598
20
-1.93000000000004
30
0
41
1
10
-20.7573954507966
20
-1.93000000000004
30
0
41
1
10
-20.7297445655939
20
-1.93000000000004
30
0
41
1
10
-20.697684073107
20
-1.93000000000004
30
0
41
1
10
-20.6188871939893
20
-1.93000000000004
30
0
41
1
10
-20.5721562730023
20
-1.93000000000004
30
0
41
1
10
-20.4940865323199
20
-1.93000000000004
30
0
41
1
10
-20.4667122476153
20
-1.93000000000004
30
0
41
1
10
-20.4097347260609
20
-1.93000000000004
30
0
41
1
10
-20.3802708643586
20
-1.93000000000004
30
0
41
1
10
-20.3499999999999
20
-1.93000000000004
30
0
0
SPLINE
5
1FA
100
AcDbEntity
8
SK1
62
256
6
ByLayer
370
18
48
1
60
0
100
AcDbSpline
70
4
71
3
72
33
73
29
40
0
40
0
40
0
40
0
40
0.0625
40
0.0625
40
0.125
40
0.125
40
0.25
40
0.25
40
0.375
40
0.375
40
0.40625
40
0.40625
40
0.4375
40
0.4375
40
0.5
40
0.5625
40
0.5625
40
0.59375
40
0.59375
40
0.625
40
0.625
40
0.75
40
0.75
40
0.875
40
0.875
40
0.9375
40
0.9375
40
1
40
1
40
1
40
1
41
1
10
-20.35
20
-1.36762801726206
30
0
41
1
10
-20.3802531336391
20
-1.3153024056688
30
0
41
1
10
-20.4097073719889
20
-1.26236765115104
30
0
41
1
10
-20.4666823385371
20
-1.15502387628382
30
0
41
1
10
-20.4940784190681
20
-1.10084223223109
30
0
41
1
10
-20.5721777761655
20
-0.936962298178599
30
0
41
1
10
-20.6189242378173
20
-0.825767749474295
30
0
41
1
10
-20.6977391300604
20
-0.598022437327018
30
0
41
1
10
-20.7298020669032
20
-0.481469669139926
30
0
41
1
10
-20.7574440821454
20
-0.331240402720397
30
0
41
1
10
-20.76232570638
20
-0.301072845836529
30
0
41
1
10
-20.7706995662742
20
-0.240841792729952
30
0
41
1
10
-20.7742017214744
20
-0.210725466008938
30
0
41
1
10
-20.7826199776383
20
-0.120374045747582
30
0
41
1
10
-20.7882665375512
20
0.000101032307299
30
0
41
1
10
-20.7826069436089
20
0.120589321741875
30
0
41
1
10
-20.7741762974263
20
0.210960430152653
30
0
41
1
10
-20.7706695789109
20
0.241084946828693
30
0
41
1
10
-20.7622853281598
20
0.30133558199347
30
0
41
1
10
-20.7573954507966
20
0.331526597775081
30
0
41
1
10
-20.7297445655939
20
0.481694106354496
30
0
41
1
10
-20.697684073107
20
0.598200246736951
30
0
41
1
10
-20.6188871939893
20
0.825856054694697
30
0
41
1
10
-20.5721562730023
20
0.937007717144866
30
0
41
1
10
-20.4940865323199
20
1.10082505888477
30
0
41
1
10
-20.4667122476153
20
1.15496580444841
30
0
41
1
10
-20.4097347260609
20
1.26231783452917
30
0
41
1
10
-20.3802708643586
20
1.31527173873846
30
0
41
1
10
-20.3499999999999
20
1.36762801726218
30
0
0
SPLINE
5
1FB
100
AcDbEntity
8
1
62
256
6
ByLayer
370
18
48
1
60
0
100
AcDbSpline
70
4
71
1
72
4
73
2
40
0
40
0
40
1
40
1
41
1
10
42.9207412474186
20
2.44883792938683
30
0
41
1
10
42.8406951648135
20
2.31078996370272
30
0
0
SPLINE
5
1FC
100
AcDbEntity
8
1
62
256
6
ByLayer
370
18
48
1
60
0
100
AcDbSpline
70
4
71
1
72
4
73
2
40
0
40
0
40
1
40
1
41
1
10
47.2692382146171
20
-2.39733378417429
30
0
41
1
10
47.4493502169405
20
-2.32792430673905
30
0
0
SPLINE
5
1FD
100
AcDbEntity
8
1
62
256
6
ByLayer
370
18
48
1
60
0
100
AcDbSpline
70
4
71
2
72
6
73
3
40
0
40
0
40
0
40
1
40
1
40
1
41
1
10
47.0239697802587
20
-1.99611917978993
30
0
41
1
10
47.1339538263391
20
-2.18540734513076
30
0
41
1
10
47.2438452524173
20
-2.37495823469359
30
0
0
SPLINE
5
1FE
100
AcDbEntity
8
1
62
256
6
ByLayer
370
18
48
1
60
0
100
AcDbSpline
70
4
71
1
72
4
73
2
40
0
40
0
40
1
40
1
41
1
10
39.893172932592
20
2.35509123350764
30
0
41
1
10
39.8387399554759
20
2.44885795656779
30
0
0
SPLINE
5
1FF
100
AcDbEntity
8
1
62
256
6
ByLayer
370
18
48
1
60
0
100
AcDbSpline
70
4
71
1
72
4
73
2
40
0
40
0
40
1
40
1
41
1
10
40.111920754974
20
-2.3961857923546
30
0
41
1
10
40.1424858502294
20
-2.4488927916492
30
0
0
SPLINE
5
200
100
AcDbEntity
8
1
62
256
6
ByLayer
370
18
48
1
60
0
100
AcDbSpline
70
4
71
2
72
6
73
3
40
0
40
0
40
0
40
1
40
1
40
1
41
1
10
47.6453446133995
20
-1.99154626768203
30
0
41
1
10
47.6828560440142
20
-1.92943659984016
30
0
41
1
10
47.7476440888049
20
-1.95931995502502
30
0
0
SPLINE
5
201
100
AcDbEntity
8
1
62
256
6
ByLayer
370
18
48
1
60
0
100
AcDbSpline
70
4
71
3
72
13
73
9
40
0
40
0
40
0
40
0
40
0.240829588430524
40
0.36933817868301
40
0.500568141896658
40
0.63171399857127
40
0.759981956525056
40
1
40
1
40
1
40
1
41
1
10
42.0867611740535
20
-1.99497451124967
30
0
41
1
10
42.0949377002505
20
-1.98039974906666
30
0
41
1
10
42.1124913062939
20
-1.96300754994817
30
0
41
1
10
42.1483694115752
20
-1.94780250780221
30
0
41
1
10
42.1794800226383
20
-1.94465574503292
30
0
41
1
10
42.2105914843744
20
-1.95045483073554
30
0
41
1
10
42.2464638208608
20
-1.96912642033382
30
0
41
1
10
42.2640242514451
20
-1.98932611959521
30
0
41
1
10
42.272219149577
20
-2.00580955285474
30
0
0
SPLINE
5
202
100
AcDbEntity
8
1
62
256
6
ByLayer
370
18
48
1
60
0
100
AcDbSpline
70
4
71
2
72
6
73
3
40
0
40
0
40
0
40
1
40
1
40
1
41
1
10
47.441567537057
20
-2.34219569131494
30
0
41
1
10
47.5419157059655
20
-2.16930394946365
30
0
41
1
10
47.6424072461673
20
-1.99658382039229
30
0
0
SPLINE
5
203
100
AcDbEntity
8
1
62
256
6
ByLayer
370
18
48
1
60
0
100
AcDbSpline
70
4
71
2
72
6
73
3
40
0
40
0
40
0
40
1
40
1
40
1
41
1
10
41.8220661811483
20
-2.45046332471597
30
0
41
1
10
41.9543158251653
20
-2.22257933238356
30
0
41
1
10
42.0873353133488
20
-1.99400926943184
30
0
0
SPLINE
5
204
100
AcDbEntity
8
1
62
256
6
ByLayer
370
18
48
1
60
0
100
AcDbSpline
70
4
71
2
72
6
73
3
40
0
40
0
40
0
40
1
40
1
40
1
41
1
10
43.7146287045629
20
2.44899018374855
30
0
41
1
10
43.5828685525859
20
2.22162383865444
30
0
41
1
10
43.4508254333416
20
1.99443729209304
30
0
0
SPLINE
5
205
100
AcDbEntity
8
1
62
256
6
ByLayer
370
18
48
1
60
0
100
AcDbSpline
70
4
71
2
72
6
73
3
40
0
40
0
40
0
40
1
40
1
40
1
41
1
10
41.4655872256392
20
-1.99294567213235
30
0
41
1
10
41.5971627381101
20
-2.21925770485652
30
0
41
1
10
41.7285778632493
20
-2.44598629496846
30
0
0
SPLINE
5
206
100
AcDbEntity
8
1
62
256
6
ByLayer
370
18
48
1
60
0
100
AcDbSpline
70
4
71
2
72
6
73
3
40
0
40
0
40
0
40
1
40
1
40
1
41
1
10
44.0728118971274
20
1.9926236691233
30
0
41
1
10
43.9409625013884
20
2.21904164874582
30
0
41
1
10
43.809338280871
20
2.44593882823588
30
0
0
SPLINE
5
207
100
AcDbEntity
8
1
62
256
6
ByLayer
370
18
48
1
60
0
100
AcDbSpline
70
4
71
3
72
10
73
6
40
0
40
0
40
0
40
0
40
0.273446950658754
40
0.535893391330585
40
1
40
1
40
1
40
1
41
1
10
46.8501637063153
20
-1.99427677030826
30
0
41
1
10
46.8600429385193
20
-1.97772598003499
30
0
41
1
10
46.8844567474881
20
-1.95411440875446
30
0
41
1
10
46.9738794103732
20
-1.9434766792325
30
0
41
1
10
47.005987857721
20
-1.96521774827306
30
0
41
1
10
47.0213261045276
20
-1.99150420051012
30
0
0
SPLINE
5
208
100
AcDbEntity
8
1
62
256
6
ByLayer
370
18
48
1
60
0
100
AcDbSpline
70
4
71
3
72
11
73
7
40
0
40
0
40
0
40
0
40
0.21679644118662
40
0.457894387361683
40
0.721820436453498
40
1
40
1
40
1
40
1
41
1
10
44.2439055668985
20
1.99301034954473
30
0
41
1
10
44.2393825432168
20
1.98368407289178
30
0
41
1
10
44.223723459165
20
1.96752651348436
30
0
41
1
10
44.1738694147458
20
1.94307080457872
30
0
41
1
10
44.106445326536
20
1.95512664567568
30
0
41
1
10
44.0816151097605
20
1.97769725703662
30
0
41
1
10
44.0718871401636
20
1.99427087940958
30
0
0
SPLINE
5
209
100
AcDbEntity
8
1
62
256
6
ByLayer
370
18
48
1
60
0
100
AcDbSpline
70
4
71
3
72
10
73
6
40
0
40
0
40
0
40
0
40
0.459151971753226
40
0.723075208104479
40
1
40
1
40
1
40
1
41
1
10
41.2944897179943
20
-1.99254400247304
30
0
41
1
10
41.3104720784744
20
-1.96577208900169
30
0
41
1
10
41.3431492245547
20
-1.94314245214682
30
0
41
1
10
41.4321607417128
20
-1.95405212499503
30
0
41
1
10
41.4564740528091
20
-1.97752747864064
30
0
41
1
10
41.4662487728912
20
-1.99411177991524
30
0
0
SPLINE
5
20A
100
AcDbEntity
8
1
62
256
6
ByLayer
370
18
48
1
60
0
100
AcDbSpline
70
4
71
2
72
6
73
3
40
0
40
0
40
0
40
1
40
1
40
1
41
1
10
46.5877256584996
20
-2.44576679285407
30
0
41
1
10
46.719528660265
20
-2.2184865807248
30
0
41
1
10
46.8516419271216
20
-1.99159513704473
30
0
0
SPLINE
5
20B
100
AcDbEntity
8
1
62
256
6
ByLayer
370
18
48
1
60
0
100
AcDbSpline
70
4
71
2
72
6
73
3
40
0
40
0
40
0
40
1
40
1
40
1
41
1
10
46.2290498935013
20
-1.99423401837231
30
0
41
1
10
46.3610493576578
20
-2.22139870705089
30
0
41
1
10
46.4927547190221
20
-2.44874416164245
30
0
0
SPLINE
5
20C
100
AcDbEntity
8
1
62
256
6
ByLayer
370
18
48
1
60
0
100
AcDbSpline
70
4
71
2
72
6
73
3
40
0
40
0
40
0
40
1
40
1
40
1
41
1
10
39.3082512456339
20
1.99542239920967
30
0
41
1
10
39.2525155307375
20
2.09115238840835
30
0
41
1
10
39.1969222485422
20
2.18677354419586
30
0
0
SPLINE
5
20D
100
AcDbEntity
8
1
62
256
6
ByLayer
370
18
48
1
60
0
100
AcDbSpline
70
4
71
2
72
6
73
3
40
0
40
0
40
0
40
1
40
1
40
1
41
1
10
41.0304762251074
20
-2.44686336613782
30
0
41
1
10
41.1619803345019
20
-2.22020577122765
30
0
41
1
10
41.293658931863
20
-1.99401928523054
30
0
0
SPLINE
5
20E
100
AcDbEntity
8
1
62
256
6
ByLayer
370
18
48
1
60
0
100
AcDbSpline
70
4
71
3
72
11
73
7
40
0
40
0
40
0
40
0
40
0.241352992876999
40
0.499399420763721
40
0.757794129767277
40
1
40
1
40
1
40
1
41
1
10
39.4922423923612
20
2.00538353922264
30
0
41
1
10
39.483810559033
20
1.98880898629025
30
0
41
1
10
39.460886797917
20
1.96245100905224
30
0
41
1
10
39.3999586208711
20
1.94015013901594
30
0
41
1
10
39.3390854150895
20
1.95810576728849
30
0
41
1
10
39.3161821678155
20
1.9812124350232
30
0
41
1
10
39.3077727654589
20
1.99618375786449
30
0
0
SPLINE
5
20F
100
AcDbEntity
8
1
62
256
6
ByLayer
370
18
48
1
60
0
100
AcDbSpline
70
4
71
3
72
13
73
9
40
0
40
0
40
0
40
0
40
0.24147468341559
40
0.369763026428957
40
0.500592505575398
40
0.631332475978243
40
0.759366080490585
40
1
40
1
40
1
40
1
41
1
10
46.045644614885
20
-2.00534584930585
30
0
41
1
10
46.0536934145946
20
-1.9891622002306
30
0
41
1
10
46.0711105834497
20
-1.96937898359857
30
0
41
1
10
46.1069100090054
20
-1.9509960478822
30
0
41
1
10
46.1379355777406
20
-1.94542060837617
30
0
41
1
10
46.1689622516717
20
-1.94875294472288
30
0
41
1
10
46.2047572449502
20
-1.96418500082788
30
0
41
1
10
46.222180755481
20
-1.98162147157996
30
0
41
1
10
46.230247905086
20
-1.99620280227171
30
0
0
SPLINE
5
210
100
AcDbEntity
8
1
62
256
6
ByLayer
370
18
48
1
60
0
100
AcDbSpline
70
4
71
2
72
6
73
3
40
0
40
0
40
0
40
1
40
1
40
1
41
1
10
40.6725276169127
20
-1.99431312580543
30
0
41
1
10
40.805200783575
20
-2.22259084367624
30
0
41
1
10
40.9372268416026
20
-2.45028213809493
30
0
0
SPLINE
5
211
100
AcDbEntity
8
1
62
256
6
ByLayer
370
18
48
1
60
0
100
AcDbSpline
70
4
71
2
72
6
73
3
40
0
40
0
40
0
40
1
40
1
40
1
41
1
10
44.5076925864695
20
2.44737367190464
30
0
41
1
10
44.3763257464617
20
2.22080669445404
30
0
41
1
10
44.2448240757695
20
1.99461888644163
30
0
0
SPLINE
5
212
100
AcDbEntity
8
1
62
256
6
ByLayer
370
18
48
1
60
0
100
AcDbSpline
70
4
71
2
72
6
73
3
40
0
40
0
40
0
40
1
40
1
40
1
41
1
10
44.9719827547976
20
1.95938831803997
30
0
41
1
10
44.9068462965052
20
1.92835930742601
30
0
41
1
10
44.8660022251175
20
1.9935427495067
30
0
0
SPLINE
5
213
100
AcDbEntity
8
1
62
256
6
ByLayer
370
18
48
1
60
0
100
AcDbSpline
70
4
71
2
72
6
73
3
40
0
40
0
40
0
40
1
40
1
40
1
41
1
10
40.5712128956854
20
-1.95843214381031
30
0
41
1
10
40.6333609043042
20
-1.92981010827361
30
0
41
1
10
40.6719009837885
20
-1.99321487804639
30
0
0
SPLINE
5
214
100
AcDbEntity
8
1
62
256
6
ByLayer
370
18
48
1
60
0
100
AcDbSpline
70
4
71
2
72
6
73
3
40
0
40
0
40
0
40
1
40
1
40
1
41
1
10
44.8647187195928
20
1.99569649737171
30
0
41
1
10
44.7320689800706
20
2.22360814779228
30
0
41
1
10
44.599913049406
20
2.45128657705965
30
0
0
SPLINE
5
215
100
AcDbEntity
8
1
62
256
6
ByLayer
370
18
48
1
60
0
100
AcDbSpline
70
4
71
1
72
4
73
2
40
0
40
0
40
1
40
1
41
1
10
45.5728867928699
20
-2.23118020320425
30
0
41
1
10
45.6989625418458
20
-2.44864391102988
30
0
0
SPLINE
5
216
100
AcDbEntity
8
1
62
256
6
ByLayer
370
18
48
1
60
0
100
AcDbSpline
70
4
71
1
72
4
73
2
40
0
40
0
40
1
40
1
41
1
10
43.4744244843839
20
0.187713720880993
30
0
41
1
10
43.4849571082522
20
0.181339942364645
30
0
0
LINE
5
7F
100
AcDbEntity
8
80
62
256
6
ByLayer
370
18
48
1
60
0
100
AcDbLine
10
0
20
0
30
0
11
-5
21
0
31
0
39
0
210
0
220
0
230
1
0
LINE
5
80
100
AcDbEntity
8
4
62
256
6
ByLayer
370
18
48
0.05
60
0
100
AcDbLine
10
0
20
0
30
0
11
48.75
21
0
31
0
39
0
210
0
220
0
230
1
0
LINE
5
82
100
AcDbEntity
8
81
62
256
6
ByLayer
370
18
48
1
60
0
100
AcDbLine
10
48.75
20
0
30
0
11
53.75
21
0
31
0
39
0
210
0
220
0
230
1
0
LINE
5
83
100
AcDbEntity
8
SK4
62
256
6
ByLayer
370
18
48
0.05
60
0
100
AcDbLine
10
-21.35
20
0
30
0
11
48.75
21
0
31
0
39
0
210
0
220
0
230
1
0
LINE
5
85
100
AcDbEntity
8
1
62
256
6
ByLayer
370
18
48
1
60
0
100
AcDbLine
10
0
20
2.464
30
0
11
0
21
-2.464
31
0
39
0
210
0
220
0
230
1
0
LINE
5
86
100
AcDbEntity
8
1
62
256
6
ByLayer
370
18
48
1
60
0
100
AcDbLine
10
42.918951
20
2.445748
30
0
11
42.924
21
2.452522
31
0
39
0
210
0
220
0
230
1
0
LINE
5
87
100
AcDbEntity
8
1
62
256
6
ByLayer
370
18
48
1
60
0
100
AcDbLine
10
43.265497
20
2.005977
30
0
11
43.268482
21
2.004965
31
0
39
0
210
0
220
0
230
1
0
LINE
5
88
100
AcDbEntity
8
1
62
256
6
ByLayer
370
18
48
1
60
0
100
AcDbLine
10
42.269107
20
-2.004607
30
0
11
42.272478
21
-2.005855
31
0
39
0
210
0
220
0
230
1
0
LINE
5
89
100
AcDbEntity
8
1
62
256
6
ByLayer
370
18
48
1
60
0
100
AcDbLine
10
47.644215
20
-1.993611
30
0
11
47.642233
21
-1.996849
31
0
39
0
210
0
220
0
230
1
0
LINE
5
8A
100
AcDbEntity
8
1
62
256
6
ByLayer
370
18
48
1
60
0
100
AcDbLine
10
47.451654
20
-2.32482
30
0
11
47.449936
21
-2.32704
31
0
39
0
210
0
220
0
230
1
0
LINE
5
8B
100
AcDbEntity
8
1
62
256
6
ByLayer
370
18
48
1
60
0
100
AcDbLine
10
47.260719
20
-2.397111
30
0
11
47.267167
21
-2.398133
31
0
39
0
210
0
220
0
230
1
0
LINE
5
8C
100
AcDbEntity
8
1
62
256
6
ByLayer
370
18
48
1
60
0
100
AcDbLine
10
47.021799
20
-1.992394
30
0
11
47.024141
21
-1.996389
31
0
39
0
210
0
220
0
230
1
0
LINE
5
8D
100
AcDbEntity
8
1
62
256
6
ByLayer
370
18
48
1
60
0
100
AcDbLine
10
44.070292
20
1.996861
30
0
11
44.072703
21
1.992824
31
0
39
0
210
0
220
0
230
1
0
LINE
5
8E
100
AcDbEntity
8
1
62
256
6
ByLayer
370
18
48
1
60
0
100
AcDbLine
10
46.849705
20
-1.995053
30
0
11
46.851663
21
-1.991556
31
0
39
0
210
0
220
0
230
1
0
LINE
5
8F
100
AcDbEntity
8
1
62
256
6
ByLayer
370
18
48
1
60
0
100
AcDbLine
10
46.045257
20
-2.005483
30
0
11
46.049893
21
-2.002599
31
0
39
0
210
0
220
0
230
1
0
LINE
5
90
100
AcDbEntity
8
1
62
256
6
ByLayer
370
18
48
1
60
0
100
AcDbLine
10
39.487969
20
2.002519
30
0
11
39.492555
21
2.005503
31
0
39
0
210
0
220
0
230
1
0
LINE
5
91
100
AcDbEntity
8
1
62
256
6
ByLayer
370
13
48
1
60
0
100
AcDbLine
10
38.730364
20
-0.336687
30
0
11
38.730364
21
-1.493286
31
0
39
0
210
0
220
0
230
1
0
LINE
5
92
100
AcDbEntity
8
1
62
256
6
ByLayer
370
18
48
1
60
0
100
AcDbLine
10
48.75
20
1.6
30
0
11
48.75
21
1.599594
31
0
39
0
210
0
220
0
230
1
0
LINE
5
93
100
AcDbEntity
8
1
62
256
6
ByLayer
370
18
48
1
60
0
100
AcDbLine
10
41.823709
20
-2.447636
30
0
11
41.82195
21
-2.450136
31
0
39
0
210
0
220
0
230
1
0
LINE
5
94
100
AcDbEntity
8
1
62
256
6
ByLayer
370
13
48
1
60
0
100
AcDbLine
10
38.730364
20
1.92285
30
0
11
38.730364
21
1.795731
31
0
39
0
210
0
220
0
230
1
0
LINE
5
95
100
AcDbEntity
8
1
62
256
6
ByLayer
370
13
48
1
60
0
100
AcDbLine
10
38.575853
20
1.88
30
0
11
38.575853
21
1.796385
31
0
39
0
210
0
220
0
230
1
0
LINE
5
96
100
AcDbEntity
8
1
62
256
6
ByLayer
370
13
48
1
60
0
100
AcDbLine
10
20.693744
20
-1.88
30
0
11
20.693744
21
1.88
31
0
39
0
210
0
220
0
230
1
0
LINE
5
97
100
AcDbEntity
8
1
62
256
6
ByLayer
370
13
48
1
60
0
100
AcDbLine
10
38.575853
20
-1.378349
30
0
11
38.575853
21
-0.218693
31
0
39
0
210
0
220
0
230
1
0
LINE
5
98
100
AcDbEntity
8
1
62
256
6
ByLayer
370
18
48
1
60
0
100
AcDbLine
10
48.75
20
0.311606
30
0
11
48.75
21
-0.831019
31
0
39
0
210
0
220
0
230
1
0
LINE
5
99
100
AcDbEntity
8
1
62
256
6
ByLayer
370
13
48
1
60
0
100
AcDbLine
10
20.60692
20
1.887596
30
0
11
20.60692
21
-1.887596
31
0
39
0
210
0
220
0
230
1
0
LINE
5
9A
100
AcDbEntity
8
1
62
256
6
ByLayer
370
18
48
1
60
0
100
AcDbLine
10
17.337971
20
2.464
30
0
11
17.337971
21
-2.464
31
0
39
0
210
0
220
0
230
1
0
LINE
5
9B
100
AcDbEntity
8
SK1
62
256
6
ByLayer
370
18
48
1
60
0
100
AcDbLine
10
-21.35
20
1.36544
30
0
11
-21.35
21
-1.36544
31
0
39
0
210
0
220
0
230
1
0
LINE
5
9D
100
AcDbEntity
8
SK1
62
256
6
ByLayer
370
18
48
1
60
0
100
AcDbLine
10
-15
20
1.367628
30
0
11
-15
21
-1.367628
31
0
39
0
210
0
220
0
230
1
0
LINE
5
9E
100
AcDbEntity
8
SK1
62
256
6
ByLayer
370
18
48
1
60
0
100
AcDbLine
10
-15
20
1.93
30
0
11
-14.56456
21
2.36544
31
0
39
0
210
0
220
0
230
1
0
LINE
5
9F
100
AcDbEntity
8
SK1
62
256
6
ByLayer
370
18
48
1
60
0
100
AcDbLine
10
-20.35
20
1.93
30
0
11
-15
21
1.93
31
0
39
0
210
0
220
0
230
1
0
LINE
5
A0
100
AcDbEntity
8
SK1
62
256
6
ByLayer
370
18
48
1
60
0
100
AcDbLine
10
-20.35
20
1.367628
30
0
11
-20.35
21
1.93
31
0
39
0
210
0
220
0
230
1
0
LINE
5
A1
100
AcDbEntity
8
SK1
62
256
6
ByLayer
370
18
48
1
60
0
100
AcDbLine
10
-15
20
1.367628
30
0
11
-20.35
21
1.367628
31
0
39
0
210
0
220
0
230
1
0
LINE
5
A2
100
AcDbEntity
8
SK1
62
256
6
ByLayer
370
18
48
1
60
0
100
AcDbLine
10
-20.35
20
-1.367628
30
0
11
-15
21
-1.367628
31
0
39
0
210
0
220
0
230
1
0
LINE
5
A3
100
AcDbEntity
8
SK1
62
256
6
ByLayer
370
18
48
1
60
0
100
AcDbLine
10
-20.35
20
-1.93
30
0
11
-20.35
21
-1.367628
31
0
39
0
210
0
220
0
230
1
0
LINE
5
A4
100
AcDbEntity
8
SK1
62
256
6
ByLayer
370
18
48
1
60
0
100
AcDbLine
10
-15
20
-1.93
30
0
11
-20.35
21
-1.93
31
0
39
0
210
0
220
0
230
1
0
LINE
5
A5
100
AcDbEntity
8
SK1
62
256
6
ByLayer
370
18
48
1
60
0
100
AcDbLine
10
-15
20
-1.93
30
0
11
-14.56456
21
-2.36544
31
0
39
0
210
0
220
0
230
1
0
LINE
5
A6
100
AcDbEntity
8
SK1
62
256
6
ByLayer
370
18
48
1
60
0
100
AcDbLine
10
-14.365
20
2.36544
30
0
11
-14.365
21
-2.36544
31
0
39
0
210
0
220
0
230
1
0
LINE
5
A7
100
AcDbEntity
8
SK1
62
256
6
ByLayer
370
18
48
1
60
0
100
AcDbLine
10
0
20
2.464
30
0
11
0
21
-2.464
31
0
39
0
210
0
220
0
230
1
0
LINE
5
A8
100
AcDbEntity
8
SK1
62
256
6
ByLayer
370
18
48
1
60
0
100
AcDbLine
10
-14.26644
20
-2.464
30
0
11
-14.26644
21
2.464
31
0
39
0
210
0
220
0
230
1
0
LINE
5
A9
100
AcDbEntity
8
1
62
256
6
ByLayer
370
18
48
1
60
0
100
AcDbLine
10
17.337971
20
2.464
30
0
11
0
21
2.464
31
0
39
0
210
0
220
0
230
1
0
LINE
5
AA
100
AcDbEntity
8
1
62
256
6
ByLayer
370
18
48
1
60
0
100
AcDbLine
10
0
20
-2.464
30
0
11
17.337971
21
-2.464
31
0
39
0
210
0
220
0
230
1
0
LINE
5
AB
100
AcDbEntity
8
1
62
256
6
ByLayer
370
18
48
1
60
0
100
AcDbLine
10
48.75
20
1.6
30
0
11
48.692369
21
1.657631
31
0
39
0
210
0
220
0
230
1
0
LINE
5
AC
100
AcDbEntity
8
1
62
256
6
ByLayer
370
18
48
1
60
0
100
AcDbLine
10
41.739662
20
-2.455509
30
0
11
41.813624
21
-2.455509
31
0
39
0
210
0
220
0
230
1
0
LINE
5
AD
100
AcDbEntity
8
1
62
256
6
ByLayer
370
18
48
1
60
0
100
AcDbLine
10
43.798277
20
2.455509
30
0
11
43.724029
21
2.455509
31
0
39
0
210
0
220
0
230
1
0
LINE
5
AE
100
AcDbEntity
8
1
62
256
6
ByLayer
370
18
48
1
60
0
100
AcDbLine
10
46.502283
20
-2.455509
30
0
11
46.576593
21
-2.455509
31
0
39
0
210
0
220
0
230
1
0
LINE
5
AF
100
AcDbEntity
8
1
62
256
6
ByLayer
370
18
48
1
60
0
100
AcDbLine
10
39.184313
20
2.195609
30
0
11
38.730364
21
1.92285
31
0
39
0
210
0
220
0
230
1
0
LINE
5
B0
100
AcDbEntity
8
1
62
256
6
ByLayer
370
18
48
1
60
0
100
AcDbLine
10
40.945795
20
-2.455509
30
0
11
41.019878
21
-2.455509
31
0
39
0
210
0
220
0
230
1
0
LINE
5
B1
100
AcDbEntity
8
1
62
256
6
ByLayer
370
18
48
1
60
0
100
AcDbLine
10
44.591955
20
2.455509
30
0
11
44.517939
21
2.455509
31
0
39
0
210
0
220
0
230
1
0
LINE
5
B2
100
AcDbEntity
8
1
62
256
6
ByLayer
370
18
48
1
60
0
100
AcDbLine
10
20.693744
20
-1.88
30
0
11
26.073919
21
-1.88
31
0
39
0
210
0
220
0
230
1
0
LINE
5
B3
100
AcDbEntity
8
1
62
256
6
ByLayer
370
18
48
1
60
0
100
AcDbLine
10
29.644984
20
-1.88
30
0
11
31.464967
21
-1.88
31
0
39
0
210
0
220
0
230
1
0
LINE
5
B4
100
AcDbEntity
8
1
62
256
6
ByLayer
370
18
48
1
60
0
100
AcDbLine
10
35.080734
20
-1.88
30
0
11
36.912243
21
-1.88
31
0
39
0
210
0
220
0
230
1
0
LINE
5
B5
100
AcDbEntity
8
1
62
256
6
ByLayer
370
18
48
1
60
0
100
AcDbLine
10
38.575853
20
1.88
30
0
11
37.797327
21
1.88
31
0
39
0
210
0
220
0
230
1
0
LINE
5
B6
100
AcDbEntity
8
1
62
256
6
ByLayer
370
18
48
1
60
0
100
AcDbLine
10
34.188068
20
1.88
30
0
11
32.364254
21
1.88
31
0
39
0
210
0
220
0
230
1
0
LINE
5
B7
100
AcDbEntity
8
1
62
256
6
ByLayer
370
18
48
1
60
0
100
AcDbLine
10
28.739212
20
1.88
30
0
11
26.802353
21
1.88
31
0
39
0
210
0
220
0
230
1
0
LINE
5
B8
100
AcDbEntity
8
1
62
256
6
ByLayer
370
18
48
1
60
0
100
AcDbLine
10
25.088558
20
1.88
30
0
11
20.693744
21
1.88
31
0
39
0
210
0
220
0
230
1
0
LINE
5
B9
100
AcDbEntity
8
1
62
256
6
ByLayer
370
18
48
1
60
0
100
AcDbLine
10
20.60692
20
1.887596
30
0
11
17.337971
21
2.464
31
0
39
0
210
0
220
0
230
1
0
LINE
5
BA
100
AcDbEntity
8
1
62
256
6
ByLayer
370
18
48
1
60
0
100
AcDbLine
10
17.337971
20
-2.464
30
0
11
20.60692
21
-1.887596
31
0
39
0
210
0
220
0
230
1
0
LINE
5
BB
100
AcDbEntity
8
SK1
62
256
6
ByLayer
370
18
48
1
60
0
100
AcDbLine
10
-21.35
20
-1.36544
30
0
11
-20.78544
21
-1.93
31
0
39
0
210
0
220
0
230
1
0
LINE
5
BC
100
AcDbEntity
8
SK1
62
256
6
ByLayer
370
18
48
1
60
0
100
AcDbLine
10
-20.78544
20
1.93
30
0
11
-21.35
21
1.36544
31
0
39
0
210
0
220
0
230
1
0
LINE
5
BD
100
AcDbEntity
8
SK1
62
256
6
ByLayer
370
18
48
1
60
0
100
AcDbLine
10
-14.365
20
2.36544
30
0
11
-14.56456
21
2.36544
31
0
39
0
210
0
220
0
230
1
0
LINE
5
BE
100
AcDbEntity
8
SK1
62
256
6
ByLayer
370
18
48
1
60
0
100
AcDbLine
10
-14.56456
20
-2.36544
30
0
11
-14.365
21
-2.36544
31
0
39
0
210
0
220
0
230
1
0
LINE
5
BF
100
AcDbEntity
8
SK1
62
256
6
ByLayer
370
18
48
1
60
0
100
AcDbLine
10
-14.365
20
-2.36544
30
0
11
-14.26644
21
-2.464
31
0
39
0
210
0
220
0
230
1
0
LINE
5
C0
100
AcDbEntity
8
SK1
62
256
6
ByLayer
370
18
48
1
60
0
100
AcDbLine
10
-14.26644
20
2.464
30
0
11
-14.365
21
2.36544
31
0
39
0
210
0
220
0
230
1
0
LINE
5
C1
100
AcDbEntity
8
SK1
62
256
6
ByLayer
370
18
48
1
60
0
100
AcDbLine
10
0
20
2.464
30
0
11
-14.26644
21
2.464
31
0
39
0
210
0
220
0
230
1
0
LINE
5
C2
100
AcDbEntity
8
SK1
62
256
6
ByLayer
370
18
48
1
60
0
100
AcDbLine
10
-14.26644
20
-2.464
30
0
11
0
21
-2.464
31
0
39
0
210
0
220
0
230
1
0
LINE
5
C3
100
AcDbEntity
8
SK2
62
256
6
ByLayer
370
18
48
1
60
0
100
AcDbLine
10
9.535766
20
23.562627
30
0
11
9.535766
21
-9.964
31
0
39
0
210
0
220
0
230
1
0
LINE
5
C5
100
AcDbEntity
8
1
62
256
6
ByLayer
370
18
48
1
60
1
100
AcDbLine
10
9.535766
20
2.464
30
0
11
9.074982
21
5.963998
31
0
39
0
210
0
220
0
230
1
0
LINE
5
C6
100
AcDbEntity
8
1
62
256
6
ByLayer
370
18
48
1
60
1
100
AcDbLine
10
9.074982
20
5.963998
30
0
11
9.996549
21
5.964002
31
0
39
0
210
0
220
0
230
1
0
LINE
5
C7
100
AcDbEntity
8
1
62
256
6
ByLayer
370
18
48
1
60
1
100
AcDbLine
10
9.996549
20
5.964002
30
0
11
9.535766
21
2.464
31
0
39
0
210
0
220
0
230
1
0
LINE
5
C8
100
AcDbEntity
8
1
62
256
6
ByLayer
370
18
48
1
60
1
100
AcDbLine
10
9.535766
20
-2.464
30
0
11
9.996549
21
-5.963998
31
0
39
0
210
0
220
0
230
1
0
LINE
5
C9
100
AcDbEntity
8
1
62
256
6
ByLayer
370
18
48
1
60
1
100
AcDbLine
10
9.996549
20
-5.963998
30
0
11
9.074982
21
-5.964002
31
0
39
0
210
0
220
0
230
1
0
LINE
5
CA
100
AcDbEntity
8
1
62
256
6
ByLayer
370
18
48
1
60
1
100
AcDbLine
10
9.074982
20
-5.964002
30
0
11
9.535766
21
-2.464
31
0
39
0
210
0
220
0
230
1
0
LINE
5
CB
100
AcDbEntity
8
2
62
256
6
ByLayer
370
18
48
1
60
0
100
AcDbLine
10
48.65
20
-39.955509
30
0
11
-21.35
21
-39.955509
31
0
39
0
210
0
220
0
230
1
0
LINE
5
CD
100
AcDbEntity
8
2
62
256
6
ByLayer
370
18
48
1
60
0
100
AcDbLine
10
-21.35
20
-2.95294
30
0
11
-21.35
21
-41.955509
31
0
39
0
210
0
220
0
230
1
0
LINE
5
CE
100
AcDbEntity
8
2
62
256
6
ByLayer
370
18
48
1
60
0
100
AcDbLine
10
48.65
20
-4.043009
30
0
11
48.65
21
-41.955509
31
0
39
0
210
0
220
0
230
1
0
LINE
5
CF
100
AcDbEntity
8
1
62
256
6
ByLayer
370
18
48
1
60
1
100
AcDbLine
10
-21.35
20
-39.955509
30
0
11
-17.850002
21
-39.494725
31
0
39
0
210
0
220
0
230
1
0
LINE
5
D0
100
AcDbEntity
8
1
62
256
6
ByLayer
370
18
48
1
60
1
100
AcDbLine
10
-17.850002
20
-39.494725
30
0
11
-17.849998
21
-40.416292
31
0
39
0
210
0
220
0
230
1
0
LINE
5
D1
100
AcDbEntity
8
1
62
256
6
ByLayer
370
18
48
1
60
1
100
AcDbLine
10
-17.849998
20
-40.416292
30
0
11
-21.35
21
-39.955509
31
0
39
0
210
0
220
0
230
1
0
LINE
5
D2
100
AcDbEntity
8
1
62
256
6
ByLayer
370
18
48
1
60
1
100
AcDbLine
10
48.65
20
-39.955509
30
0
11
45.150002
21
-40.416292
31
0
39
0
210
0
220
0
230
1
0
LINE
5
D3
100
AcDbEntity
8
1
62
256
6
ByLayer
370
18
48
1
60
1
100
AcDbLine
10
45.150002
20
-40.416292
30
0
11
45.149998
21
-39.494725
31
0
39
0
210
0
220
0
230
1
0
LINE
5
D4
100
AcDbEntity
8
1
62
256
6
ByLayer
370
18
48
1
60
1
100
AcDbLine
10
45.149998
20
-39.494725
30
0
11
48.65
21
-39.955509
31
0
39
0
210
0
220
0
230
1
0
LINE
5
21B
100
AcDbEntity
8
1
62
256
6
ByLayer
370
18
48
1
60
1
100
AcDbLine
10
9.535766
20
2.464
30
0
11
9.074982
21
5.963998
31
0
39
0
210
0
220
0
230
1
0
LINE
5
21C
100
AcDbEntity
8
1
62
256
6
ByLayer
370
18
48
1
60
1
100
AcDbLine
10
9.074982
20
5.963998
30
0
11
9.996549
21
5.964002
31
0
39
0
210
0
220
0
230
1
0
LINE
5
21D
100
AcDbEntity
8
1
62
256
6
ByLayer
370
18
48
1
60
1
100
AcDbLine
10
9.996549
20
5.964002
30
0
11
9.535766
21
2.464
31
0
39
0
210
0
220
0
230
1
0
LINE
5
21F
100
AcDbEntity
8
1
62
256
6
ByLayer
370
18
48
1
60
1
100
AcDbLine
10
9.535766
20
-2.464
30
0
11
9.996549
21
-5.963998
31
0
39
0
210
0
220
0
230
1
0
LINE
5
220
100
AcDbEntity
8
1
62
256
6
ByLayer
370
18
48
1
60
1
100
AcDbLine
10
9.996549
20
-5.963998
30
0
11
9.074982
21
-5.964002
31
0
39
0
210
0
220
0
230
1
0
LINE
5
221
100
AcDbEntity
8
1
62
256
6
ByLayer
370
18
48
1
60
1
100
AcDbLine
10
9.074982
20
-5.964002
30
0
11
9.535766
21
-2.464
31
0
39
0
210
0
220
0
230
1
0
LINE
5
224
100
AcDbEntity
8
1
62
256
6
ByLayer
370
18
48
1
60
1
100
AcDbLine
10
-21.35
20
-39.955509
30
0
11
-17.850002
21
-39.494725
31
0
39
0
210
0
220
0
230
1
0
LINE
5
225
100
AcDbEntity
8
1
62
256
6
ByLayer
370
18
48
1
60
1
100
AcDbLine
10
-17.850002
20
-39.494725
30
0
11
-17.849998
21
-40.416292
31
0
39
0
210
0
220
0
230
1
0
LINE
5
226
100
AcDbEntity
8
1
62
256
6
ByLayer
370
18
48
1
60
1
100
AcDbLine
10
-17.849998
20
-40.416292
30
0
11
-21.35
21
-39.955509
31
0
39
0
210
0
220
0
230
1
0
LINE
5
228
100
AcDbEntity
8
1
62
256
6
ByLayer
370
18
48
1
60
1
100
AcDbLine
10
48.65
20
-39.955509
30
0
11
45.150002
21
-40.416292
31
0
39
0
210
0
220
0
230
1
0
LINE
5
229
100
AcDbEntity
8
1
62
256
6
ByLayer
370
18
48
1
60
1
100
AcDbLine
10
45.150002
20
-40.416292
30
0
11
45.149998
21
-39.494725
31
0
39
0
210
0
220
0
230
1
0
LINE
5
22A
100
AcDbEntity
8
1
62
256
6
ByLayer
370
18
48
1
60
1
100
AcDbLine
10
45.149998
20
-39.494725
30
0
11
48.65
21
-39.955509
31
0
39
0
210
0
220
0
230
1
0
MTEXT
5
217
100
AcDbEntity
8
SK2
62
256
6
ByLayer
370
18
48
1
60
0
100
AcDbMText
10
8.194651
20
8.122437
30
0
210
0
220
0
230
1
1
%%c
40
3
41
0
44
1.084337
50
90
71
7
72
5
7
iso_b_vert
0
MTEXT
5
21A
100
AcDbEntity
8
SK2
62
256
6
ByLayer
370
18
48
1
60
0
100
AcDbMText
10
8.194651
20
14.099
30
0
210
0
220
0
230
1
1
\W0.7694;4.928
40
3
41
0
44
1.084337
50
90
71
7
72
5
7
iso_b_vert
0
MTEXT
5
223
100
AcDbEntity
8
2
62
256
6
ByLayer
370
18
48
1
60
0
100
AcDbMText
10
12.017172
20
-39.070394
30
0
210
0
220
0
230
1
1
\W0.6740;70
40
3
41
0
44
1.084337
50
0
71
7
72
5
7
iso_b_vert
0
MTEXT
5
22C
100
AcDbEntity
8
SK6
62
256
6
ByLayer
370
18
48
1
60
0
100
AcDbMText
10
-4.855557
20
-82.114886
30
0
210
0
220
0
230
1
1
\W0.7273;T300-XM102AF-10-32  C110
40
3
41
0
44
1.084337
50
0
71
7
72
5
7
iso_b_vert
0
HATCH
5
21E
100
AcDbEntity
8
SK2
62
256
6
ByLayer
370
13
48
1
60
0
100
AcDbHatch
10
0
20
0
30
0
210
0
220
0
230
1
2
ANSI31
70
0
71
0
91
1
92
5
93
3
72
1
10
9.53576570867162
20
2.46400000000003
11
9.07498196711884
21
5.96399830744684
72
1
10
9.07498196711884
20
5.96399830744684
11
9.99654945022439
21
5.96400169255321
72
1
10
9.99654945022439
20
5.96400169255321
11
9.53576570867162
21
2.46400000000003
97
0
75
0
76
1
52
0
41
0.0062
77
0
78
1
53
45
43
0
44
0
45
-0.0139193969876572
46
0.0139193969876572
79
0
47
0
98
1
10
0
20
0
0
HATCH
5
222
100
AcDbEntity
8
SK2
62
256
6
ByLayer
370
13
48
1
60
0
100
AcDbHatch
10
0
20
0
30
0
210
0
220
0
230
1
2
ANSI31
70
0
71
0
91
1
92
5
93
3
72
1
10
9.53576570867162
20
-2.464
11
9.99654945022439
21
-5.96399830744681
72
1
10
9.99654945022439
20
-5.96399830744681
11
9.07498196711884
21
-5.96400169255318
72
1
10
9.07498196711884
20
-5.96400169255318
11
9.53576570867162
21
-2.464
97
0
75
0
76
1
52
0
41
0.0062
77
0
78
1
53
45
43
0
44
0
45
-0.0139193969876572
46
0.0139193969876572
79
0
47
0
98
1
10
0
20
0
0
HATCH
5
227
100
AcDbEntity
8
2
62
256
6
ByLayer
370
13
48
1
60
0
100
AcDbHatch
10
0
20
0
30
0
210
0
220
0
230
1
2
ANSI31
70
0
71
0
91
1
92
5
93
3
72
1
10
-21.35
20
-39.9555086880554
11
-17.8500016925532
21
-39.4947249465026
72
1
10
-17.8500016925532
20
-39.4947249465026
11
-17.8499983074468
21
-40.4162924296082
72
1
10
-17.8499983074468
20
-40.4162924296082
11
-21.35
21
-39.9555086880554
97
0
75
0
76
1
52
0
41
0.0062
77
0
78
1
53
45
43
0
44
0
45
-0.0139193969876572
46
0.0139193969876572
79
0
47
0
98
1
10
0
20
0
0
HATCH
5
22B
100
AcDbEntity
8
2
62
256
6
ByLayer
370
13
48
1
60
0
100
AcDbHatch
10
0
20
0
30
0
210
0
220
0
230
1
2
ANSI31
70
0
71
0
91
1
92
5
93
3
72
1
10
48.65
20
-39.9555086880554
11
45.1500016925532
21
-40.4162924296082
72
1
10
45.1500016925532
20
-40.4162924296082
11
45.1499983074468
21
-39.4947249465026
72
1
10
45.1499983074468
20
-39.4947249465026
11
48.65
21
-39.9555086880554
97
0
75
0
76
1
52
0
41
0.0062
77
0
78
1
53
45
43
0
44
0
45
-0.0139193969876572
46
0.0139193969876572
79
0
47
0
98
1
10
0
20
0
0
DIMENSION
5
22F
100
AcDbEntity
8
2
62
256
6
ByLayer
370
18
48
1
60
0
100
AcDbDimension
2
_U0
10
67.314491
20
-2.455509
30
0
11
67.314491
21
21.817679
31
0
70
32
71
1
72
1
41
1
210
0
220
0
230
1
3
Standard
100
AcDbAlignedDimension
13
48.65
23
2.455509
33
0
14
48.65
24
-2.455509
34
0
50
90
100
AcDbRotatedDimension
1001
ACAD
1000
DSTYLE
1002
{
1070
   371
1070
    13
1070
   372
1070
    13
1070
     3
1000

1070
   170
1070
     0
1070
   144
1040
1.0
1070
   277
1070
     2
1070
   284
1070
     8
1070
   278
1070
    46
1070
   146
1040
1.166667
1070
   345
1005
16
1070
   347
1005
16
1070
   346
1005
16
1070
   344
1005
0
1070
   343
1005
0
1070
   172
1070
     1
1070
    76
1070
     0
1070
    75
1070
     0
1070
   282
1070
     0
1070
   281
1070
     0
1070
    71
1070
     0
1070
    74
1070
     0
1070
   279
1070
     0
1070
   173
1070
     1
1070
   340
1005
218
1070
   271
1070
     3
1070
   272
1070
     3
1070
    77
1070
     1
1070
    73
1070
     0
1070
   171
1070
     3
1070
   274
1070
     4
1070
   177
1070
     2
1070
   176
1070
     2
1070
   178
1070
     2
1070
    78
1070
     8
1070
    48
1040
-0.1
1070
    41
1040
3.5
1070
   147
1040
1.5
1070
    42
1040
1.5875
1070
    44
1040
2.0
1070
   140
1040
3.0
1002
}
1001
ACAD_DSTYLE_DIM_LINETYPE
1070
   380
1005
16
1001
ACAD_DSTYLE_DIM_EXT1_LINETYPE
1070
   381
1005
16
1001
ACAD_DSTYLE_DIM_EXT2_LINETYPE
1070
   382
1005
16
0
DIMENSION
5
24A
100
AcDbEntity
8
SK2
62
256
6
ByLayer
370
18
48
1
60
0
100
AcDbDimension
2
_U1
10
47.26
20
11.977312
30
0
11
47.955
21
11.977312
31
0
70
32
71
1
72
1
41
1
210
0
220
0
230
1
3
Standard
100
AcDbAlignedDimension
13
48.65
23
2.455509
33
0
14
47.26
24
0
34
0
50
0
100
AcDbRotatedDimension
1001
ACAD
1000
DSTYLE
1002
{
1070
   371
1070
    13
1070
   372
1070
    13
1070
   170
1070
     0
1070
   144
1040
1.0
1070
   277
1070
     2
1070
   284
1070
     8
1070
   278
1070
    46
1070
   146
1040
1.166667
1070
   345
1005
16
1070
   347
1005
16
1070
   346
1005
16
1070
   344
1005
0
1070
   343
1005
0
1070
   172
1070
     1
1070
    76
1070
     0
1070
    75
1070
     0
1070
   282
1070
     0
1070
   281
1070
     0
1070
    71
1070
     0
1070
    74
1070
     0
1070
   279
1070
     0
1070
   173
1070
     1
1070
   340
1005
218
1070
   271
1070
     3
1070
   272
1070
     3
1070
    77
1070
     1
1070
    73
1070
     1
1070
   171
1070
     3
1070
   274
1070
     4
1070
   177
1070
     2
1070
   176
1070
     2
1070
   178
1070
     2
1070
    78
1070
     8
1070
    48
1040
-0.1
1070
    41
1040
3.5
1070
   147
1040
1.5
1070
    42
1040
1.5875
1070
    44
1040
2.0
1070
   140
1040
3.0
1002
}
1001
ACAD_DSTYLE_DIM_LINETYPE
1070
   380
1005
16
1001
ACAD_DSTYLE_DIM_EXT1_LINETYPE
1070
   381
1005
16
1001
ACAD_DSTYLE_DIM_EXT2_LINETYPE
1070
   382
1005
16
0
DIMENSION
5
264
100
AcDbEntity
8
SK2
62
256
6
ByLayer
370
18
48
1
60
0
100
AcDbDimension
2
_U2
10
39.75
20
-9.455509
30
0
11
63.221429
21
-9.455509
31
0
70
32
71
1
72
1
41
1
210
0
220
0
230
1
3
Standard
100
AcDbAlignedDimension
13
48.65
23
-2.455509
33
0
14
39.75
24
-2.455509
34
0
50
0
100
AcDbRotatedDimension
1001
ACAD
1000
DSTYLE
1002
{
1070
   371
1070
    13
1070
   372
1070
    13
1070
   170
1070
     0
1070
   144
1040
1.0
1070
   277
1070
     2
1070
   284
1070
     8
1070
   278
1070
    46
1070
   146
1040
0.833333
1070
   345
1005
16
1070
   347
1005
16
1070
   346
1005
16
1070
   344
1005
0
1070
   343
1005
0
1070
   172
1070
     1
1070
    76
1070
     0
1070
    75
1070
     0
1070
   282
1070
     0
1070
   281
1070
     0
1070
    47
1040
0.5
1070
    72
1070
     0
1070
    71
1070
     1
1070
    74
1070
     0
1070
   279
1070
     0
1070
   173
1070
     1
1070
   340
1005
218
1070
   271
1070
     1
1070
   272
1070
     3
1070
    77
1070
     1
1070
    73
1070
     1
1070
   171
1070
     3
1070
   274
1070
     4
1070
   177
1070
     2
1070
   176
1070
     2
1070
   178
1070
     2
1070
    78
1070
     8
1070
    48
1040
0.5
1070
    41
1040
3.5
1070
   147
1040
1.5
1070
    42
1040
1.5875
1070
    44
1040
2.0
1070
   140
1040
3.0
1002
}
1001
ACAD_DSTYLE_DIM_LINETYPE
1070
   380
1005
16
1001
ACAD_DSTYLE_DIM_EXT1_LINETYPE
1070
   381
1005
16
1001
ACAD_DSTYLE_DIM_EXT2_LINETYPE
1070
   382
1005
16
0
DIMENSION
5
27F
100
AcDbEntity
8
SK2
62
256
6
ByLayer
370
18
48
1
60
0
100
AcDbDimension
2
_U3
10
20.65
20
-31.955509
30
0
11
34.65
21
-31.955509
31
0
70
32
71
1
72
1
41
1
210
0
220
0
230
1
3
Standard
100
AcDbAlignedDimension
13
48.65
23
-2.455509
33
0
14
20.65
24
-1.88
34
0
50
0
100
AcDbRotatedDimension
1001
ACAD
1000
DSTYLE
1002
{
1070
   371
1070
    13
1070
   372
1070
    13
1070
   170
1070
     0
1070
   144
1040
1.0
1070
   277
1070
     2
1070
   284
1070
     8
1070
   278
1070
    46
1070
   146
1040
1.166667
1070
   345
1005
16
1070
   347
1005
16
1070
   346
1005
16
1070
   344
1005
0
1070
   343
1005
0
1070
   172
1070
     1
1070
    76
1070
     0
1070
    75
1070
     0
1070
   282
1070
     0
1070
   281
1070
     0
1070
    71
1070
     0
1070
    74
1070
     0
1070
   279
1070
     0
1070
   173
1070
     1
1070
   340
1005
218
1070
   271
1070
     1
1070
   272
1070
     3
1070
    77
1070
     1
1070
    73
1070
     1
1070
   171
1070
     3
1070
   274
1070
     4
1070
   177
1070
     2
1070
   176
1070
     2
1070
   178
1070
     2
1070
    78
1070
     8
1070
    48
1040
-0.1
1070
    41
1040
3.5
1070
   147
1040
1.5
1070
    42
1040
1.5875
1070
    44
1040
2.0
1070
   140
1040
3.0
1002
}
1001
ACAD_DSTYLE_DIM_LINETYPE
1070
   380
1005
16
1001
ACAD_DSTYLE_DIM_EXT1_LINETYPE
1070
   381
1005
16
1001
ACAD_DSTYLE_DIM_EXT2_LINETYPE
1070
   382
1005
16
0
DIMENSION
5
297
100
AcDbEntity
8
2
62
256
6
ByLayer
370
18
48
1
60
0
100
AcDbDimension
2
_U4
10
24.85
20
-20.955509
30
0
11
36.75
21
-20.955509
31
0
70
32
71
1
72
1
41
1
210
0
220
0
230
1
3
Standard
100
AcDbAlignedDimension
13
48.65
23
-2.455509
33
0
14
24.85
24
0
34
0
50
0
100
AcDbRotatedDimension
1001
ACAD
1000
DSTYLE
1002
{
1070
   371
1070
    13
1070
   372
1070
    13
1070
   170
1070
     0
1070
   144
1040
1.0
1070
   277
1070
     2
1070
   284
1070
     8
1070
   278
1070
    46
1070
   146
1040
1.166667
1070
   345
1005
16
1070
   347
1005
16
1070
   346
1005
16
1070
   344
1005
0
1070
   343
1005
0
1070
   172
1070
     1
1070
    76
1070
     0
1070
    75
1070
     0
1070
   282
1070
     0
1070
   281
1070
     0
1070
    71
1070
     0
1070
    74
1070
     0
1070
   279
1070
     0
1070
   173
1070
     1
1070
   340
1005
218
1070
   271
1070
     1
1070
   272
1070
     3
1070
    77
1070
     1
1070
    73
1070
     1
1070
   171
1070
     3
1070
   274
1070
     4
1070
   177
1070
     2
1070
   176
1070
     2
1070
   178
1070
     2
1070
    78
1070
     8
1070
    48
1040
-0.1
1070
    41
1040
3.5
1070
   147
1040
1.5
1070
    42
1040
1.5875
1070
    44
1040
2.0
1070
   140
1040
3.0
1002
}
1001
ACAD_DSTYLE_DIM_LINETYPE
1070
   380
1005
16
1001
ACAD_DSTYLE_DIM_EXT1_LINETYPE
1070
   381
1005
16
1001
ACAD_DSTYLE_DIM_EXT2_LINETYPE
1070
   382
1005
16
0
ENDSEC
0
SECTION
2
OBJECTS
0
DICTIONARY
5
31f
330
0
100
AcDbDictionary
280
0
281
1
3
ACAD_GROUP
350
320
3
ACAD_MLINESTYLE
350
321
0
DICTIONARY
5
320
330
0
100
AcDbDictionary
280
0
281
1
0
DICTIONARY
5
321
330
0
100
AcDbDictionary
280
0
281
1
3
Standard
350
18
0
MLINESTYLE
5
18
330
321
100
AcDbMlineStyle
2
Standard
70
0
3

62
256
51
90
52
90
71
2
49
-0.5
62
256
6
ByLayer
49
0.5
62
256
6
ByLayer
0
RASTERVARIABLES
5
30d
330

100
AcDbRasterVariables
90
0
70
1
71
1
72
1
0
ENDSEC
0
EOF
