0
SECTION
2
HEADER
9
$ACADVER
1
AC1015
9
$DWGCODEPAGE
3
ANSI_1252
9
$HANDSEED
5
2f3
9
$ANGBASE
50
0
9
$ANGDIR
70
0
9
$ATTMODE
70
1
9
$AUNITS
70
0
9
$AUPREC
70
0
9
$CECOLOR
62
256
9
$CELTSCALE
40
1
9
$CELTYPE
6
ByLayer
9
$CELWEIGHT
370
18
9
$CLAYER
8
0
9
$CMLJUST
70
0
9
$CMLSCALE
40
1
9
$CMLSTYLE
2
Standard
9
$DIMSTYLE
2
Standard
9
$TEXTSIZE
40
0.2
9
$TEXTSTYLE
7
Standard
9
$LUNITS
70
2
9
$LUPREC
70
4
9
$EXTNAMES
290
1
9
$INSUNITS
70
4
9
$LTSCALE
40
1
9
$LWDISPLAY
290
1
9
$PDMODE
70
0
9
$PDSIZE
40
0
9
$PLINEGEN
70
0
0
ENDSEC
0
SECTION
2
CLASSES
0
CLASS
1
RASTERVARIABLES
2
AcDbRasterVariables
3
ISM
90
0
280
0
281
0
0
ENDSEC
0
SECTION
2
TABLES
0
TABLE
2
VPORT
5
2e9
100
AcDbSymbolTable
0
VPORT
5
1
100
AcDbSymbolTableRecord
100
AcDbViewportTableRecord
2
*Active
70
0
10
0
20
0
11
1
21
1
12
-1
22
1
13
0
23
0
14
0.5
24
0.5
15
10
25
10
16
0
26
0
36
1
17
0
27
0
37
0
0
ENDTAB
0
TABLE
2
LTYPE
5
2ea
100
AcDbSymbolTable
0
LTYPE
5
14
100
AcDbSymbolTableRecord
100
AcDbLinetypeTableRecord
70
0
2
ByBlock
3

72
65
73
0
40
0
0
LTYPE
5
15
100
AcDbSymbolTableRecord
100
AcDbLinetypeTableRecord
70
0
2
ByLayer
3

72
65
73
0
40
0
0
LTYPE
5
16
100
AcDbSymbolTableRecord
100
AcDbLinetypeTableRecord
70
0
2
Continuous
3
Solid line
72
65
73
0
40
0
0
LTYPE
5
6E
100
AcDbSymbolTableRecord
100
AcDbLinetypeTableRecord
70
0
2
CENTER
3
____ _ ____ _ ____ _ ____
72
65
73
4
40
47.5
49
22
74
0
49
-8.5
74
0
49
8.5
74
0
49
-8.5
74
0
0
LTYPE
5
6F
100
AcDbSymbolTableRecord
100
AcDbLinetypeTableRecord
70
0
2
DASHED
3
__ __ __ __ __ __ __ __ __
72
65
73
2
40
25.72
49
12.86
74
0
49
-12.86
74
0
0
ENDTAB
0
TABLE
2
LAYER
5
2eb
100
AcDbSymbolTable
0
LAYER
5
10
100
AcDbSymbolTableRecord
100
AcDbLayerTableRecord
2
0
70
0
62
7
6
Continuous
290
1
370
-3
390
0
0
LAYER
5
71
100
AcDbSymbolTableRecord
100
AcDbLayerTableRecord
2
81
70
0
62
-3
6
Continuous
290
1
370
-3
390
0
0
LAYER
5
73
100
AcDbSymbolTableRecord
100
AcDbLayerTableRecord
2
80
70
0
62
-6
6
Continuous
290
1
370
-3
390
0
0
LAYER
5
75
100
AcDbSymbolTableRecord
100
AcDbLayerTableRecord
2
1
70
0
62
4
6
Continuous
290
1
370
-3
390
0
0
LAYER
5
81
100
AcDbSymbolTableRecord
100
AcDbLayerTableRecord
2
4
70
0
62
-2
6
CENTER
290
1
370
-3
390
0
0
LAYER
5
BB
100
AcDbSymbolTableRecord
100
AcDbLayerTableRecord
2
2
70
0
62
7
6
Continuous
290
1
370
-3
390
0
0
LAYER
5
1FA
100
AcDbSymbolTableRecord
100
AcDbLayerTableRecord
2
Defpoints
70
0
62
7
6
Continuous
290
0
370
-3
390
0
0
LAYER
5
2d5
100
AcDbSymbolTableRecord
100
AcDbLayerTableRecord
2
SK4
70
0
62
2
6
CENTER
290
1
370
-3
390
0
0
LAYER
5
2d6
100
AcDbSymbolTableRecord
100
AcDbLayerTableRecord
2
SK1
70
0
62
4
6
Continuous
290
1
370
-3
390
0
0
LAYER
5
2d7
100
AcDbSymbolTableRecord
100
AcDbLayerTableRecord
2
SK2
70
0
62
7
6
Continuous
290
1
370
-3
390
0
0
LAYER
5
2d8
100
AcDbSymbolTableRecord
100
AcDbLayerTableRecord
2
SK6
70
0
62
5
6
Continuous
290
1
370
-3
390
0
0
ENDTAB
0
TABLE
2
STYLE
5
2ec
100
AcDbSymbolTable
0
STYLE
5
11
100
AcDbSymbolTableRecord
100
AcDbTextStyleTableRecord
2
Standard
3
txt
70
0
71
0
40
0
41
1
42
0
50
0
0
STYLE
5
1E0
100
AcDbSymbolTableRecord
100
AcDbTextStyleTableRecord
2
iso_b_vert
3
simplex.shx
70
0
71
0
40
0
41
1
42
0
50
0
0
STYLE
5
1E1
100
AcDbSymbolTableRecord
100
AcDbTextStyleTableRecord
2
DWGDirectTextStyle
3
simplex
70
0
71
0
40
0
41
1
42
0
50
0
0
ENDTAB
0
TABLE
2
DIMSTYLE
5
2ed
100
AcDbSymbolTable
100
AcDbDimStyleTable
0
DIMSTYLE
105
27
100
AcDbSymbolTableRecord
100
AcDbDimStyleTableRecord
2
Standard
70
0
3
<>
41
0.18
42
0.0625
44
0.18
140
0.18
147
0.09
73
0
74
0
77
1
271
2
275
0
278
52
280
0
340
11
0
ENDTAB
0
TABLE
2
VIEW
5
2ee
100
AcDbSymbolTable
0
ENDTAB
0
TABLE
2
UCS
5
2ef
100
AcDbSymbolTable
0
ENDTAB
0
TABLE
2
APPID
5
2f0
100
AcDbSymbolTable
0
APPID
5
12
100
AcDbSymbolTableRecord
100
AcDbRegAppTableRecord
2
ACAD
70
0
0
APPID
5
1F6
100
AcDbSymbolTableRecord
100
AcDbRegAppTableRecord
2
ACAD_DSTYLE_DIMBREAK
70
0
0
APPID
5
294
100
AcDbSymbolTableRecord
100
AcDbRegAppTableRecord
2
ACAD_DSTYLE_DIM_LINETYPE
70
0
0
APPID
5
295
100
AcDbSymbolTableRecord
100
AcDbRegAppTableRecord
2
ACAD_DSTYLE_DIM_EXT1_LINETYPE
70
0
0
APPID
5
296
100
AcDbSymbolTableRecord
100
AcDbRegAppTableRecord
2
ACAD_DSTYLE_DIM_EXT2_LINETYPE
70
0
0
APPID
5
2D1
100
AcDbSymbolTableRecord
100
AcDbRegAppTableRecord
2
ACAD_MLEADERVER
70
0
0
ENDTAB
0
TABLE
2
BLOCK_RECORD
5
2f1
100
AcDbSymbolTable
0
BLOCK_RECORD
5
1F
100
AcDbSymbolTableRecord
100
AcDbBlockTableRecord
2
*Model_Space
340
0
70
0
0
BLOCK_RECORD
5
1B
100
AcDbSymbolTableRecord
100
AcDbBlockTableRecord
2
*Paper_Space
340
0
70
0
0
BLOCK_RECORD
5
23
100
AcDbSymbolTableRecord
100
AcDbBlockTableRecord
2
*Paper_Space0
340
0
70
0
0
BLOCK_RECORD
5
1FB
100
AcDbSymbolTableRecord
100
AcDbBlockTableRecord
2
*D1
340
0
70
0
0
BLOCK_RECORD
5
209
100
AcDbSymbolTableRecord
100
AcDbBlockTableRecord
2
_U0
340
0
70
0
0
BLOCK_RECORD
5
215
100
AcDbSymbolTableRecord
100
AcDbBlockTableRecord
2
*D3
340
0
70
0
0
BLOCK_RECORD
5
222
100
AcDbSymbolTableRecord
100
AcDbBlockTableRecord
2
_U1
340
0
70
0
0
BLOCK_RECORD
5
22F
100
AcDbSymbolTableRecord
100
AcDbBlockTableRecord
2
*D5
340
0
70
0
0
BLOCK_RECORD
5
23C
100
AcDbSymbolTableRecord
100
AcDbBlockTableRecord
2
_U2
340
0
70
0
0
BLOCK_RECORD
5
249
100
AcDbSymbolTableRecord
100
AcDbBlockTableRecord
2
*D7
340
0
70
0
0
BLOCK_RECORD
5
255
100
AcDbSymbolTableRecord
100
AcDbBlockTableRecord
2
_U3
340
0
70
0
0
BLOCK_RECORD
5
261
100
AcDbSymbolTableRecord
100
AcDbBlockTableRecord
2
*D9
340
0
70
0
0
BLOCK_RECORD
5
26D
100
AcDbSymbolTableRecord
100
AcDbBlockTableRecord
2
_U4
340
0
70
0
0
ENDTAB
0
ENDSEC
0
SECTION
2
BLOCKS
0
BLOCK
5
20
100
AcDbEntity
8
0
100
AcDbBlockBegin
2
*Model_Space
70
0
10
0
20
0
30
0
3
*Model_Space
0
ENDBLK
5
21
100
AcDbEntity
8
0
100
AcDbBlockEnd
0
BLOCK
5
1C
100
AcDbEntity
8
0
100
AcDbBlockBegin
2
*Paper_Space
70
0
10
0
20
0
30
0
3
*Paper_Space
0
ENDBLK
5
1D
100
AcDbEntity
8
0
100
AcDbBlockEnd
0
BLOCK
5
24
100
AcDbEntity
8
0
100
AcDbBlockBegin
2
*Paper_Space0
70
0
10
0
20
0
30
0
3
*Paper_Space0
0
ENDBLK
5
25
100
AcDbEntity
8
0
100
AcDbBlockEnd
0
BLOCK
5
1FC
100
AcDbEntity
8
0
100
AcDbBlockBegin
2
*D1
70
1
10
0
20
0
30
0
3
*D1
0
LINE
5
1FE
100
AcDbEntity
8
0
62
256
6
ByLayer
370
-2
48
1
60
0
100
AcDbLine
10
81.8875
20
7.081949
30
0
11
101.8
21
7.081949
31
0
39
0
210
0
220
0
230
1
0
LINE
5
1FF
100
AcDbEntity
8
0
62
256
6
ByLayer
370
-2
48
1
60
0
100
AcDbLine
10
81.8875
20
-7.081949
30
0
11
101.8
21
-7.081949
31
0
39
0
210
0
220
0
230
1
0
LINE
5
200
100
AcDbEntity
8
0
62
256
6
ByLayer
370
-2
48
1
60
0
100
AcDbLine
10
99.8
20
7.081949
30
0
11
99.8
21
37.653377
31
0
39
0
210
0
220
0
230
1
0
LINE
5
201
100
AcDbEntity
8
0
62
256
6
ByLayer
370
-2
48
1
60
0
100
AcDbLine
10
99.8
20
10.581949
30
0
11
99.8
21
14.081949
31
0
39
0
210
0
220
0
230
1
0
LINE
5
202
100
AcDbEntity
8
0
62
256
6
ByLayer
370
-2
48
1
60
0
100
AcDbLine
10
99.8
20
-10.581949
30
0
11
99.8
21
-14.081949
31
0
39
0
210
0
220
0
230
1
0
SOLID
5
203
100
AcDbEntity
8
0
62
256
6
ByLayer
370
-1
48
1
60
0
100
AcDbTrace
10
99.216667
20
10.581949
30
0
11
100.383333
21
10.581949
31
0
12
99.8
22
7.081949
32
0
13
99.8
23
7.081949
33
0
39
0
210
0
220
0
230
1
0
SOLID
5
204
100
AcDbEntity
8
0
62
256
6
ByLayer
370
-1
48
1
60
0
100
AcDbTrace
10
100.383333
20
-10.581949
30
0
11
99.216667
21
-10.581949
31
0
12
99.8
22
-7.081949
32
0
13
99.8
23
-7.081949
33
0
39
0
210
0
220
0
230
1
0
MTEXT
5
205
100
AcDbEntity
8
0
62
256
6
ByLayer
370
18
48
1
60
0
100
AcDbMText
10
93.8
20
25.867663
30
0
210
0
220
0
230
1
1
\A1;14.164
40
3
41
0
44
1
50
90
71
5
72
5
7
iso_b_vert
0
POINT
5
206
100
AcDbEntity
8
Defpoints
62
0
6
ByLayer
370
-1
48
1
60
0
100
AcDbPoint
10
80.3
20
7.081949
30
0
39
0
210
0
220
0
230
1
50
360
0
POINT
5
207
100
AcDbEntity
8
Defpoints
62
0
6
ByLayer
370
-1
48
1
60
0
100
AcDbPoint
10
80.3
20
-7.081949
30
0
39
0
210
0
220
0
230
1
50
360
0
POINT
5
208
100
AcDbEntity
8
Defpoints
62
0
6
ByLayer
370
-1
48
1
60
0
100
AcDbPoint
10
99.8
20
-7.081949
30
0
39
0
210
0
220
0
230
1
50
360
0
ENDBLK
5
1FD
100
AcDbEntity
8
0
100
AcDbBlockEnd
0
BLOCK
5
210
100
AcDbEntity
8
0
100
AcDbBlockBegin
2
_U0
70
0
10
0
20
0
30
0
3
_U0
0
MTEXT
5
20A
100
AcDbEntity
8
2
62
256
6
ByLayer
370
18
48
1
60
0
100
AcDbMText
10
99.208886
20
17.216949
30
0
210
0
220
0
230
1
1
\W0.6827;M14
40
3
41
0
44
1.084337
50
90
71
7
72
5
7
iso_b_vert
0
LINE
5
20B
100
AcDbEntity
8
2
62
256
6
ByLayer
370
13
48
1
60
0
100
AcDbLine
10
81.8875
20
7.081949
30
0
11
101.8
21
7.081949
31
0
39
0
210
0
220
0
230
1
0
LINE
5
20C
100
AcDbEntity
8
2
62
256
6
ByLayer
370
13
48
1
60
0
100
AcDbLine
10
81.8875
20
-7.081949
30
0
11
101.8
21
-7.081949
31
0
39
0
210
0
220
0
230
1
0
LINE
5
20D
100
AcDbEntity
8
2
62
256
6
ByLayer
370
13
48
1
60
0
100
AcDbLine
10
99.8
20
-7.081949
30
0
11
99.8
21
23.144577
31
0
39
0
210
0
220
0
230
1
0
SOLID
5
20E
100
AcDbEntity
8
2
62
256
6
ByLayer
370
18
48
1
60
0
100
AcDbTrace
10
99.8
20
7.081949
30
0
11
100.260784
21
3.581951
31
0
12
99.339216
22
3.581947
32
0
13
99.339216
23
3.581947
33
0
39
0
210
0
220
0
230
1
0
SOLID
5
20F
100
AcDbEntity
8
2
62
256
6
ByLayer
370
18
48
1
60
0
100
AcDbTrace
10
99.8
20
-7.081949
30
0
11
99.339216
21
-3.581951
31
0
12
100.260784
22
-3.581947
32
0
13
100.260784
23
-3.581947
33
0
39
0
210
0
220
0
230
1
0
ENDBLK
5
211
100
AcDbEntity
8
0
100
AcDbBlockEnd
0
BLOCK
5
216
100
AcDbEntity
8
0
100
AcDbBlockBegin
2
*D3
70
1
10
0
20
0
30
0
3
*D3
0
LINE
5
218
100
AcDbEntity
8
0
62
256
6
ByLayer
370
-2
48
1
60
0
100
AcDbLine
10
80.3
20
8.669449
30
0
11
80.3
21
18.091455
31
0
39
0
210
0
220
0
230
1
0
LINE
5
219
100
AcDbEntity
8
0
62
256
6
ByLayer
370
-2
48
1
60
0
100
AcDbLine
10
74.8
20
1.5875
30
0
11
74.8
21
18.091455
31
0
39
0
210
0
220
0
230
1
0
LINE
5
21A
100
AcDbEntity
8
0
62
256
6
ByLayer
370
-2
48
1
60
0
100
AcDbLine
10
83.8
20
16.091455
30
0
11
87.3
21
16.091455
31
0
39
0
210
0
220
0
230
1
0
LINE
5
21B
100
AcDbEntity
8
0
62
256
6
ByLayer
370
-2
48
1
60
0
100
AcDbLine
10
71.3
20
16.091455
30
0
11
67.8
21
16.091455
31
0
39
0
210
0
220
0
230
1
0
SOLID
5
21C
100
AcDbEntity
8
0
62
256
6
ByLayer
370
-1
48
1
60
0
100
AcDbTrace
10
83.8
20
16.674789
30
0
11
83.8
21
15.508122
31
0
12
80.3
22
16.091455
32
0
13
80.3
23
16.091455
33
0
39
0
210
0
220
0
230
1
0
SOLID
5
21D
100
AcDbEntity
8
0
62
256
6
ByLayer
370
-1
48
1
60
0
100
AcDbTrace
10
71.3
20
15.508122
30
0
11
71.3
21
16.674789
31
0
12
74.8
22
16.091455
32
0
13
74.8
23
16.091455
33
0
39
0
210
0
220
0
230
1
0
MTEXT
5
21E
100
AcDbEntity
8
0
62
256
6
ByLayer
370
18
48
1
60
0
100
AcDbMText
10
77.55
20
22.091455
30
0
210
0
220
0
230
1
1
\A1;5.5
40
3
41
0
44
1
50
0
71
5
72
5
7
iso_b_vert
0
POINT
5
21F
100
AcDbEntity
8
Defpoints
62
0
6
ByLayer
370
-1
48
1
60
0
100
AcDbPoint
10
80.3
20
7.081949
30
0
39
0
210
0
220
0
230
1
50
360
0
POINT
5
220
100
AcDbEntity
8
Defpoints
62
0
6
ByLayer
370
-1
48
1
60
0
100
AcDbPoint
10
74.8
20
0
30
0
39
0
210
0
220
0
230
1
50
360
0
POINT
5
221
100
AcDbEntity
8
Defpoints
62
0
6
ByLayer
370
-1
48
1
60
0
100
AcDbPoint
10
74.8
20
16.091455
30
0
39
0
210
0
220
0
230
1
50
360
0
ENDBLK
5
217
100
AcDbEntity
8
0
100
AcDbBlockEnd
0
BLOCK
5
22A
100
AcDbEntity
8
0
100
AcDbBlockBegin
2
_U1
70
0
10
0
20
0
30
0
3
_U1
0
MTEXT
5
223
100
AcDbEntity
8
SK2
62
256
6
ByLayer
370
18
48
1
60
0
100
AcDbMText
10
75.335958
20
16.874089
30
0
210
0
220
0
230
1
1
\W0.6474;'C'
40
3.5
41
0
44
1.084337
50
0
71
7
72
5
7
iso_b_vert
0
MTEXT
5
224
100
AcDbEntity
8
SK2
62
256
6
ByLayer
370
18
48
1
60
0
100
AcDbMText
10
75.309458
20
23.97657
30
0
210
0
220
0
230
1
1
\W0.7121;5.5
40
3
41
0
44
1.084337
50
0
71
7
72
5
7
iso_b_vert
0
LINE
5
225
100
AcDbEntity
8
SK2
62
256
6
ByLayer
370
13
48
1
60
0
100
AcDbLine
10
80.3
20
8.669449
30
0
11
80.3
21
18.091455
31
0
39
0
210
0
220
0
230
1
0
LINE
5
226
100
AcDbEntity
8
SK2
62
256
6
ByLayer
370
13
48
1
60
0
100
AcDbLine
10
74.8
20
1.5875
30
0
11
74.8
21
18.091455
31
0
39
0
210
0
220
0
230
1
0
LINE
5
227
100
AcDbEntity
8
SK2
62
256
6
ByLayer
370
13
48
1
60
0
100
AcDbLine
10
87.8
20
16.091455
30
0
11
67.3
21
16.091455
31
0
39
0
210
0
220
0
230
1
0
SOLID
5
228
100
AcDbEntity
8
SK2
62
256
6
ByLayer
370
18
48
1
60
0
100
AcDbTrace
10
80.3
20
16.091455
30
0
11
83.799998
21
16.552239
31
0
12
83.800002
22
15.630672
32
0
13
83.800002
23
15.630672
33
0
39
0
210
0
220
0
230
1
0
SOLID
5
229
100
AcDbEntity
8
SK2
62
256
6
ByLayer
370
18
48
1
60
0
100
AcDbTrace
10
74.8
20
16.091455
30
0
11
71.300002
21
15.630672
31
0
12
71.299998
22
16.552239
32
0
13
71.299998
23
16.552239
33
0
39
0
210
0
220
0
230
1
0
ENDBLK
5
22B
100
AcDbEntity
8
0
100
AcDbBlockEnd
0
BLOCK
5
230
100
AcDbEntity
8
0
100
AcDbBlockBegin
2
*D5
70
1
10
0
20
0
30
0
3
*D5
0
LINE
5
232
100
AcDbEntity
8
0
62
256
6
ByLayer
370
-2
48
1
60
0
100
AcDbLine
10
80.3
20
-8.669449
30
0
11
80.3
21
-16.081949
31
0
39
0
210
0
220
0
230
1
0
LINE
5
233
100
AcDbEntity
8
0
62
256
6
ByLayer
370
-2
48
1
60
0
100
AcDbLine
10
60.2
20
-8.669449
30
0
11
60.2
21
-16.081949
31
0
39
0
210
0
220
0
230
1
0
LINE
5
234
100
AcDbEntity
8
0
62
256
6
ByLayer
370
-2
48
1
60
0
100
AcDbLine
10
80.3
20
-14.081949
30
0
11
102.962989
21
-14.081949
31
0
39
0
210
0
220
0
230
1
0
LINE
5
235
100
AcDbEntity
8
0
62
256
6
ByLayer
370
-2
48
1
60
0
100
AcDbLine
10
76.8
20
-14.081949
30
0
11
63.7
21
-14.081949
31
0
39
0
210
0
220
0
230
1
0
SOLID
5
236
100
AcDbEntity
8
0
62
256
6
ByLayer
370
-1
48
1
60
0
100
AcDbTrace
10
76.8
20
-14.665282
30
0
11
76.8
21
-13.498616
31
0
12
80.3
22
-14.081949
32
0
13
80.3
23
-14.081949
33
0
39
0
210
0
220
0
230
1
0
SOLID
5
237
100
AcDbEntity
8
0
62
256
6
ByLayer
370
-1
48
1
60
0
100
AcDbTrace
10
63.7
20
-13.498616
30
0
11
63.7
21
-14.665282
31
0
12
60.2
22
-14.081949
32
0
13
60.2
23
-14.081949
33
0
39
0
210
0
220
0
230
1
0
MTEXT
5
238
100
AcDbEntity
8
0
62
256
6
ByLayer
370
18
48
1
60
0
100
AcDbMText
10
94.320132
20
-8.081949
30
0
210
0
220
0
230
1
1
\A1;20.1
40
3
41
0
44
1
50
0
71
5
72
5
7
iso_b_vert
0
POINT
5
239
100
AcDbEntity
8
Defpoints
62
0
6
ByLayer
370
-1
48
1
60
0
100
AcDbPoint
10
80.3
20
-7.081949
30
0
39
0
210
0
220
0
230
1
50
360
0
POINT
5
23A
100
AcDbEntity
8
Defpoints
62
0
6
ByLayer
370
-1
48
1
60
0
100
AcDbPoint
10
60.2
20
-7.081949
30
0
39
0
210
0
220
0
230
1
50
360
0
POINT
5
23B
100
AcDbEntity
8
Defpoints
62
0
6
ByLayer
370
-1
48
1
60
0
100
AcDbPoint
10
60.2
20
-14.081949
30
0
39
0
210
0
220
0
230
1
50
360
0
ENDBLK
5
231
100
AcDbEntity
8
0
100
AcDbBlockEnd
0
BLOCK
5
244
100
AcDbEntity
8
0
100
AcDbBlockBegin
2
_U2
70
0
10
0
20
0
30
0
3
_U2
0
MTEXT
5
23D
100
AcDbEntity
8
SK2
62
256
6
ByLayer
370
18
48
1
60
0
100
AcDbMText
10
86.459
20
-13.196834
30
0
210
0
220
0
230
1
1
\W0.7208;20.1
40
3
41
0
44
1.084337
50
0
71
7
72
5
7
iso_b_vert
0
MTEXT
5
23E
100
AcDbEntity
8
SK2
62
256
6
ByLayer
370
18
48
1
60
0
100
AcDbMText
10
95.223527
20
-12.844354
30
0
210
0
220
0
230
1
1
\W0.8315;\W0.4158;%%p\W0.8315;0.5
40
2.5
41
0
44
1.084337
50
0
71
7
72
5
7
iso_b_vert
0
LINE
5
23F
100
AcDbEntity
8
SK2
62
256
6
ByLayer
370
13
48
1
60
0
100
AcDbLine
10
80.3
20
-8.669449
30
0
11
80.3
21
-16.081949
31
0
39
0
210
0
220
0
230
1
0
LINE
5
240
100
AcDbEntity
8
SK2
62
256
6
ByLayer
370
13
48
1
60
0
100
AcDbLine
10
60.2
20
-8.669449
30
0
11
60.2
21
-16.081949
31
0
39
0
210
0
220
0
230
1
0
LINE
5
241
100
AcDbEntity
8
SK2
62
256
6
ByLayer
370
13
48
1
60
0
100
AcDbLine
10
60.2
20
-14.081949
30
0
11
102.340264
21
-14.081949
31
0
39
0
210
0
220
0
230
1
0
SOLID
5
242
100
AcDbEntity
8
SK2
62
256
6
ByLayer
370
18
48
1
60
0
100
AcDbTrace
10
80.3
20
-14.081949
30
0
11
76.800002
21
-14.542733
31
0
12
76.799998
22
-13.621165
32
0
13
76.799998
23
-13.621165
33
0
39
0
210
0
220
0
230
1
0
SOLID
5
243
100
AcDbEntity
8
SK2
62
256
6
ByLayer
370
18
48
1
60
0
100
AcDbTrace
10
60.2
20
-14.081949
30
0
11
63.699998
21
-13.621165
31
0
12
63.700002
22
-14.542733
32
0
13
63.700002
23
-14.542733
33
0
39
0
210
0
220
0
230
1
0
ENDBLK
5
245
100
AcDbEntity
8
0
100
AcDbBlockEnd
0
BLOCK
5
24A
100
AcDbEntity
8
0
100
AcDbBlockBegin
2
*D7
70
1
10
0
20
0
30
0
3
*D7
0
LINE
5
24C
100
AcDbEntity
8
0
62
256
6
ByLayer
370
-2
48
1
60
0
100
AcDbLine
10
80.3
20
-8.669449
30
0
11
80.3
21
-38.581949
31
0
39
0
210
0
220
0
230
1
0
LINE
5
24D
100
AcDbEntity
8
0
62
256
6
ByLayer
370
-2
48
1
60
0
100
AcDbLine
10
25.3
20
-6.886
30
0
11
25.3
21
-38.581949
31
0
39
0
210
0
220
0
230
1
0
LINE
5
24E
100
AcDbEntity
8
0
62
256
6
ByLayer
370
-2
48
1
60
0
100
AcDbLine
10
76.8
20
-36.581949
30
0
11
28.8
21
-36.581949
31
0
39
0
210
0
220
0
230
1
0
SOLID
5
24F
100
AcDbEntity
8
0
62
256
6
ByLayer
370
-1
48
1
60
0
100
AcDbTrace
10
76.8
20
-37.165282
30
0
11
76.8
21
-35.998616
31
0
12
80.3
22
-36.581949
32
0
13
80.3
23
-36.581949
33
0
39
0
210
0
220
0
230
1
0
SOLID
5
250
100
AcDbEntity
8
0
62
256
6
ByLayer
370
-1
48
1
60
0
100
AcDbTrace
10
28.8
20
-35.998616
30
0
11
28.8
21
-37.165282
31
0
12
25.3
22
-36.581949
32
0
13
25.3
23
-36.581949
33
0
39
0
210
0
220
0
230
1
0
MTEXT
5
251
100
AcDbEntity
8
0
62
256
6
ByLayer
370
18
48
1
60
0
100
AcDbMText
10
52.8
20
-30.581949
30
0
210
0
220
0
230
1
1
\A1;55
40
3
41
0
44
1
50
0
71
5
72
5
7
iso_b_vert
0
POINT
5
252
100
AcDbEntity
8
Defpoints
62
0
6
ByLayer
370
-1
48
1
60
0
100
AcDbPoint
10
80.3
20
-7.081949
30
0
39
0
210
0
220
0
230
1
50
360
0
POINT
5
253
100
AcDbEntity
8
Defpoints
62
0
6
ByLayer
370
-1
48
1
60
0
100
AcDbPoint
10
25.3
20
-5.2985
30
0
39
0
210
0
220
0
230
1
50
360
0
POINT
5
254
100
AcDbEntity
8
Defpoints
62
0
6
ByLayer
370
-1
48
1
60
0
100
AcDbPoint
10
25.3
20
-36.581949
30
0
39
0
210
0
220
0
230
1
50
360
0
ENDBLK
5
24B
100
AcDbEntity
8
0
100
AcDbBlockEnd
0
BLOCK
5
25C
100
AcDbEntity
8
0
100
AcDbBlockBegin
2
_U3
70
0
10
0
20
0
30
0
3
_U3
0
MTEXT
5
256
100
AcDbEntity
8
SK2
62
256
6
ByLayer
370
18
48
1
60
0
100
AcDbMText
10
51.167172
20
-35.696834
30
0
210
0
220
0
230
1
1
\W0.6740;55
40
3
41
0
44
1.084337
50
0
71
7
72
5
7
iso_b_vert
0
LINE
5
257
100
AcDbEntity
8
SK2
62
256
6
ByLayer
370
13
48
1
60
0
100
AcDbLine
10
80.3
20
-8.669449
30
0
11
80.3
21
-38.581949
31
0
39
0
210
0
220
0
230
1
0
LINE
5
258
100
AcDbEntity
8
SK2
62
256
6
ByLayer
370
13
48
1
60
0
100
AcDbLine
10
25.3
20
-6.886
30
0
11
25.3
21
-38.581949
31
0
39
0
210
0
220
0
230
1
0
LINE
5
259
100
AcDbEntity
8
SK2
62
256
6
ByLayer
370
13
48
1
60
0
100
AcDbLine
10
80.3
20
-36.581949
30
0
11
25.3
21
-36.581949
31
0
39
0
210
0
220
0
230
1
0
SOLID
5
25A
100
AcDbEntity
8
SK2
62
256
6
ByLayer
370
18
48
1
60
0
100
AcDbTrace
10
80.3
20
-36.581949
30
0
11
76.800002
21
-37.042733
31
0
12
76.799998
22
-36.121165
32
0
13
76.799998
23
-36.121165
33
0
39
0
210
0
220
0
230
1
0
SOLID
5
25B
100
AcDbEntity
8
SK2
62
256
6
ByLayer
370
18
48
1
60
0
100
AcDbTrace
10
25.3
20
-36.581949
30
0
11
28.799998
21
-36.121165
31
0
12
28.800002
22
-37.042733
32
0
13
28.800002
23
-37.042733
33
0
39
0
210
0
220
0
230
1
0
ENDBLK
5
25D
100
AcDbEntity
8
0
100
AcDbBlockEnd
0
BLOCK
5
262
100
AcDbEntity
8
0
100
AcDbBlockBegin
2
*D9
70
1
10
0
20
0
30
0
3
*D9
0
LINE
5
264
100
AcDbEntity
8
0
62
256
6
ByLayer
370
-2
48
1
60
0
100
AcDbLine
10
80.3
20
-8.669449
30
0
11
80.3
21
-27.581949
31
0
39
0
210
0
220
0
230
1
0
LINE
5
265
100
AcDbEntity
8
0
62
256
6
ByLayer
370
-2
48
1
60
0
100
AcDbLine
10
33.55
20
-1.5875
30
0
11
33.55
21
-27.581949
31
0
39
0
210
0
220
0
230
1
0
LINE
5
266
100
AcDbEntity
8
0
62
256
6
ByLayer
370
-2
48
1
60
0
100
AcDbLine
10
76.8
20
-25.581949
30
0
11
37.05
21
-25.581949
31
0
39
0
210
0
220
0
230
1
0
SOLID
5
267
100
AcDbEntity
8
0
62
256
6
ByLayer
370
-1
48
1
60
0
100
AcDbTrace
10
76.8
20
-26.165282
30
0
11
76.8
21
-24.998616
31
0
12
80.3
22
-25.581949
32
0
13
80.3
23
-25.581949
33
0
39
0
210
0
220
0
230
1
0
SOLID
5
268
100
AcDbEntity
8
0
62
256
6
ByLayer
370
-1
48
1
60
0
100
AcDbTrace
10
37.05
20
-24.998616
30
0
11
37.05
21
-26.165282
31
0
12
33.55
22
-25.581949
32
0
13
33.55
23
-25.581949
33
0
39
0
210
0
220
0
230
1
0
MTEXT
5
269
100
AcDbEntity
8
0
62
256
6
ByLayer
370
18
48
1
60
0
100
AcDbMText
10
56.925
20
-19.581949
30
0
210
0
220
0
230
1
1
\A1;46.8
40
3
41
0
44
1
50
0
71
5
72
5
7
iso_b_vert
0
POINT
5
26A
100
AcDbEntity
8
Defpoints
62
0
6
ByLayer
370
-1
48
1
60
0
100
AcDbPoint
10
80.3
20
-7.081949
30
0
39
0
210
0
220
0
230
1
50
360
0
POINT
5
26B
100
AcDbEntity
8
Defpoints
62
0
6
ByLayer
370
-1
48
1
60
0
100
AcDbPoint
10
33.55
20
0
30
0
39
0
210
0
220
0
230
1
50
360
0
POINT
5
26C
100
AcDbEntity
8
Defpoints
62
0
6
ByLayer
370
-1
48
1
60
0
100
AcDbPoint
10
33.55
20
-25.581949
30
0
39
0
210
0
220
0
230
1
50
360
0
ENDBLK
5
263
100
AcDbEntity
8
0
100
AcDbBlockEnd
0
BLOCK
5
274
100
AcDbEntity
8
0
100
AcDbBlockBegin
2
_U4
70
0
10
0
20
0
30
0
3
_U4
0
MTEXT
5
26E
100
AcDbEntity
8
2
62
256
6
ByLayer
370
18
48
1
60
0
100
AcDbMText
10
53.405601
20
-24.696834
30
0
210
0
220
0
230
1
1
\W0.7640;46.8
40
3
41
0
44
1.084337
50
0
71
7
72
5
7
iso_b_vert
0
LINE
5
26F
100
AcDbEntity
8
2
62
256
6
ByLayer
370
13
48
1
60
0
100
AcDbLine
10
80.3
20
-8.669449
30
0
11
80.3
21
-27.581949
31
0
39
0
210
0
220
0
230
1
0
LINE
5
270
100
AcDbEntity
8
2
62
256
6
ByLayer
370
13
48
1
60
0
100
AcDbLine
10
33.55
20
-1.5875
30
0
11
33.55
21
-27.581949
31
0
39
0
210
0
220
0
230
1
0
LINE
5
271
100
AcDbEntity
8
2
62
256
6
ByLayer
370
13
48
1
60
0
100
AcDbLine
10
80.3
20
-25.581949
30
0
11
33.55
21
-25.581949
31
0
39
0
210
0
220
0
230
1
0
SOLID
5
272
100
AcDbEntity
8
2
62
256
6
ByLayer
370
18
48
1
60
0
100
AcDbTrace
10
80.3
20
-25.581949
30
0
11
76.800002
21
-26.042733
31
0
12
76.799998
22
-25.121165
32
0
13
76.799998
23
-25.121165
33
0
39
0
210
0
220
0
230
1
0
SOLID
5
273
100
AcDbEntity
8
2
62
256
6
ByLayer
370
18
48
1
60
0
100
AcDbTrace
10
33.55
20
-25.581949
30
0
11
37.049998
21
-25.121165
31
0
12
37.050002
22
-26.042733
32
0
13
37.050002
23
-26.042733
33
0
39
0
210
0
220
0
230
1
0
ENDBLK
5
275
100
AcDbEntity
8
0
100
AcDbBlockEnd
0
ENDSEC
0
SECTION
2
ENTITIES
0
ARC
5
C4
100
AcDbEntity
8
SK1
62
256
6
ByLayer
370
18
48
1
60
0
100
AcDbCircle
39
0
10
-21.09
20
0
30
0
40
5.23055999999994
210
0
220
0
230
1
100
AcDbArc
50
321.438824
51
38.561176
0
ARC
5
C5
100
AcDbEntity
8
1
62
256
6
ByLayer
370
18
48
1
60
0
100
AcDbCircle
39
0
10
58.07336
20
-6.6985
30
0
40
1.4
210
0
220
0
230
1
100
AcDbArc
50
30
51
90
0
ARC
5
C6
100
AcDbEntity
8
1
62
256
6
ByLayer
370
18
48
1
60
0
100
AcDbCircle
39
0
10
25.953835
20
-6.7985
30
0
40
1.5
210
0
220
0
230
1
100
AcDbArc
50
90
51
115.841933
0
ARC
5
C7
100
AcDbEntity
8
1
62
256
6
ByLayer
370
18
48
1
60
0
100
AcDbCircle
39
0
10
25.953835
20
6.7985
30
0
40
1.5
210
0
220
0
230
1
100
AcDbArc
50
244.158067
51
270
0
POINT
5
70
100
AcDbEntity
8
81
62
256
6
ByLayer
370
18
48
1
60
0
100
AcDbPoint
10
80.3
20
0
30
0
39
0
210
0
220
0
230
1
50
360
0
POINT
5
72
100
AcDbEntity
8
80
62
256
6
ByLayer
370
18
48
1
60
0
100
AcDbPoint
10
0
20
0
30
0
39
0
210
0
220
0
230
1
50
360
0
POINT
5
74
100
AcDbEntity
8
1
62
256
6
ByLayer
370
18
48
1
60
1
100
AcDbPoint
10
80.3
20
7.081949
30
0
39
0
210
0
220
0
230
1
50
360
0
POINT
5
76
100
AcDbEntity
8
1
62
256
6
ByLayer
370
18
48
1
60
1
100
AcDbPoint
10
80.3
20
-7.081949
30
0
39
0
210
0
220
0
230
1
50
360
0
POINT
5
77
100
AcDbEntity
8
1
62
256
6
ByLayer
370
18
48
1
60
1
100
AcDbPoint
10
80.3
20
7.081949
30
0
39
0
210
0
220
0
230
1
50
360
0
POINT
5
78
100
AcDbEntity
8
1
62
256
6
ByLayer
370
18
48
1
60
1
100
AcDbPoint
10
74.8
20
0
30
0
39
0
210
0
220
0
230
1
50
360
0
POINT
5
79
100
AcDbEntity
8
1
62
256
6
ByLayer
370
18
48
1
60
1
100
AcDbPoint
10
80.3
20
-7.081949
30
0
39
0
210
0
220
0
230
1
50
360
0
POINT
5
7A
100
AcDbEntity
8
1
62
256
6
ByLayer
370
18
48
1
60
1
100
AcDbPoint
10
60.2
20
-7.081949
30
0
39
0
210
0
220
0
230
1
50
360
0
POINT
5
7B
100
AcDbEntity
8
1
62
256
6
ByLayer
370
18
48
1
60
1
100
AcDbPoint
10
80.3
20
-7.081949
30
0
39
0
210
0
220
0
230
1
50
360
0
POINT
5
7C
100
AcDbEntity
8
1
62
256
6
ByLayer
370
18
48
1
60
1
100
AcDbPoint
10
25.3
20
-5.2985
30
0
39
0
210
0
220
0
230
1
50
360
0
POINT
5
7D
100
AcDbEntity
8
1
62
256
6
ByLayer
370
18
48
1
60
1
100
AcDbPoint
10
80.3
20
-7.081949
30
0
39
0
210
0
220
0
230
1
50
360
0
POINT
5
7E
100
AcDbEntity
8
1
62
256
6
ByLayer
370
18
48
1
60
1
100
AcDbPoint
10
33.55
20
0
30
0
39
0
210
0
220
0
230
1
50
360
0
SPLINE
5
C8
100
AcDbEntity
8
1
62
256
6
ByLayer
370
18
48
1
60
0
100
AcDbSpline
70
4
71
3
72
10
73
6
40
0
40
0
40
0
40
0
40
0.462003444837234
40
0.462003444837234
40
1
40
1
40
1
40
1
41
1
10
79.2070829090659
20
5.8559570291853
30
0
41
1
10
79.2114598028536
20
5.86813371086475
30
0
41
1
10
79.2158560144186
20
5.87865819919836
30
0
41
1
10
79.2253694451112
20
5.89770069796427
30
0
41
1
10
79.2304929536392
20
5.90562908300643
30
0
41
1
10
79.2356278994829
20
5.91123176232435
30
0
0
SPLINE
5
C9
100
AcDbEntity
8
1
62
256
6
ByLayer
370
18
48
1
60
0
100
AcDbSpline
70
4
71
3
72
8
73
4
40
0
40
0
40
0
40
0
40
1
40
1
40
1
40
1
41
1
10
63.9039315156877
20
7.06059861680887
30
0
41
1
10
63.9088904754425
20
7.06917515160194
30
0
41
1
10
63.9138406082453
20
7.07514952706885
30
0
41
1
10
63.9187933755311
20
7.0785580446321
30
0
0
SPLINE
5
CA
100
AcDbEntity
8
1
62
256
6
ByLayer
370
13
48
1
60
0
100
AcDbSpline
70
4
71
3
72
8
73
4
40
0
40
0
40
0
40
0
40
1
40
1
40
1
40
1
41
1
10
77.808282852202
20
-5.93345943239933
30
0
41
1
10
77.8039987234493
20
-5.94081040624079
30
0
41
1
10
77.7997145974416
20
-5.94655125070443
30
0
41
1
10
77.7954304750705
20
-5.95067352947459
30
0
0
SPLINE
5
CB
100
AcDbEntity
8
1
62
256
6
ByLayer
370
18
48
1
60
0
100
AcDbSpline
70
4
71
3
72
8
73
4
40
0
40
0
40
0
40
0
40
1
40
1
40
1
40
1
41
1
10
64.7805973775912
20
5.95842283419543
30
0
41
1
10
64.7850764741305
20
5.9580254524609
30
0
41
1
10
64.789555571304
20
5.95586362735119
30
0
41
1
10
64.7940346696826
20
5.9519372438395
30
0
0
SPLINE
5
CC
100
AcDbEntity
8
1
62
256
6
ByLayer
370
18
48
1
60
0
100
AcDbSpline
70
4
71
3
72
8
73
4
40
0
40
0
40
0
40
0
40
1
40
1
40
1
40
1
41
1
10
77.6156258989602
20
-6.26207945108683
30
0
41
1
10
77.6123418810073
20
-6.26567768017679
30
0
41
1
10
77.6090623102579
20
-6.26828312713806
30
0
41
1
10
77.6057840825261
20
-6.26989684615521
30
0
0
SPLINE
5
CD
100
AcDbEntity
8
1
62
256
6
ByLayer
370
18
48
1
60
0
100
AcDbSpline
70
4
71
3
72
8
73
4
40
0
40
0
40
0
40
0
40
1
40
1
40
1
40
1
41
1
10
76.5721095779415
20
-6.48412904794341
30
0
41
1
10
76.5756530371191
20
-6.49270812459247
30
0
41
1
10
76.5792008704201
20
-6.5000657858017
30
0
41
1
10
76.5827499101003
20
-6.50620395297955
30
0
0
SPLINE
5
CE
100
AcDbEntity
8
1
62
256
6
ByLayer
370
13
48
1
60
0
100
AcDbSpline
70
4
71
3
72
8
73
4
40
0
40
0
40
0
40
0
40
1
40
1
40
1
40
1
41
1
10
61.7601344312095
20
-5.94800010949118
30
0
41
1
10
61.7751360382307
20
-5.96467134541402
30
0
41
1
10
61.790137665216
20
-5.96149516444206
30
0
41
1
10
61.8051392808411
20
-5.93857207128636
30
0
0
SPLINE
5
CF
100
AcDbEntity
8
1
62
256
6
ByLayer
370
18
48
1
60
0
100
AcDbSpline
70
4
71
3
72
8
73
4
40
0
40
0
40
0
40
0
40
1
40
1
40
1
40
1
41
1
10
61.8051392639029
20
-5.93857209716856
30
0
41
1
10
61.8085675573528
20
-5.93333352546244
30
0
41
1
10
61.8119958502095
20
-5.92706366779419
30
0
41
1
10
61.815424142099
20
-5.91976372368046
30
0
0
SPLINE
5
D0
100
AcDbEntity
8
1
62
256
6
ByLayer
370
13
48
1
60
0
100
AcDbSpline
70
4
71
3
72
9
73
5
40
0
40
0
40
0
40
0
40
0.25224348831716
40
1
40
1
40
1
40
1
41
1
10
76.2505546379595
20
-5.93333625764649
30
0
41
1
10
76.2486273314007
20
-5.93001531146194
30
0
41
1
10
76.2409866721313
20
-5.91555330693791
30
0
41
1
10
76.2333460130801
20
-5.89595195134442
30
0
41
1
10
76.227632660599
20
-5.87845530939563
30
0
0
SPLINE
5
D1
100
AcDbEntity
8
1
62
256
6
ByLayer
370
13
48
1
60
0
100
AcDbSpline
70
4
71
3
72
8
73
4
40
0
40
0
40
0
40
0
40
1
40
1
40
1
40
1
41
1
10
65.2508078941823
20
5.93374949287542
30
0
41
1
10
65.2731472732264
20
5.9718725524744
30
0
41
1
10
65.2954866515026
20
5.96613227787287
30
0
41
1
10
65.3178260287256
20
5.91645770185031
30
0
0
SPLINE
5
D2
100
AcDbEntity
8
1
62
256
6
ByLayer
370
13
48
1
60
0
100
AcDbSpline
70
4
71
3
72
9
73
5
40
0
40
0
40
0
40
0
40
0.131965855141517
40
1
40
1
40
1
40
1
41
1
10
60.1922762814402
20
-5.73424406575992
30
0
41
1
10
60.1947313747436
20
-5.74674209768978
30
0
41
1
10
60.2133353787712
20
-5.83755903658488
30
0
41
1
10
60.2319393826025
20
-5.89863536780169
30
0
41
1
10
60.248088293249
20
-5.92882748316302
30
0
0
SPLINE
5
D3
100
AcDbEntity
8
1
62
256
6
ByLayer
370
18
48
1
60
0
100
AcDbSpline
70
4
71
3
72
8
73
4
40
0
40
0
40
0
40
0
40
1
40
1
40
1
40
1
41
1
10
60.2480885379693
20
-5.92882794069197
30
0
41
1
10
60.2506331981421
20
-5.93358541866746
30
0
41
1
10
60.2531778583171
20
-5.93777617576427
30
0
41
1
10
60.2557225184952
20
-5.94139858759004
30
0
0
SPLINE
5
D4
100
AcDbEntity
8
1
62
256
6
ByLayer
370
13
48
1
60
0
100
AcDbSpline
70
4
71
3
72
9
73
5
40
0
40
0
40
0
40
0
40
0.594215815278873
40
1
40
1
40
1
40
1
41
1
10
75.8059006021429
20
-5.93742478699542
30
0
41
1
10
75.7856908110601
20
-5.96923315505185
30
0
41
1
10
75.7516798977428
20
-5.96227520911725
30
0
41
1
10
75.7176689657602
20
-5.85344151092457
30
0
41
1
10
75.7038678888099
20
-5.79296996243977
30
0
0
SPLINE
5
D5
100
AcDbEntity
8
1
62
256
6
ByLayer
370
13
48
1
60
0
100
AcDbSpline
70
4
71
3
72
9
73
5
40
0
40
0
40
0
40
0
40
0.774197911503906
40
1
40
1
40
1
40
1
41
1
10
66.8108781696128
20
5.92881039361527
30
0
41
1
10
66.8302051618528
20
5.89268447859408
30
0
41
1
10
66.8551690473909
20
5.80374709957647
30
0
41
1
10
66.8801330040095
20
5.66170493958842
30
0
41
1
10
66.8857699197413
20
5.62698391952864
30
0
0
SPLINE
5
D6
100
AcDbEntity
8
1
62
256
6
ByLayer
370
18
48
1
60
0
100
AcDbSpline
70
4
71
3
72
16
73
12
40
0
40
0
40
0
40
0
40
0.0650535525717828
40
0.376702368381187
40
0.376702368381187
40
0.454614572333539
40
0.454614572333539
40
0.53252677628589
40
0.688351184190593
40
0.688351184190593
40
1
40
1
40
1
40
1
41
1
10
75.2469618735122
20
-6.88498750612357
30
0
41
1
10
75.2447130089156
20
-6.88556035593393
30
0
41
1
10
75.2317030115853
20
-6.88588940299428
30
0
41
1
10
75.2187391071062
20
-6.86894053579837
30
0
41
1
10
75.2050508861329
20
-6.83651215951704
30
0
41
1
10
75.2022955968857
20
-6.82927118367218
30
0
41
1
10
75.1967713887504
20
-6.81334465914955
30
0
41
1
10
75.1884669974029
20
-6.7872882448689
30
0
41
1
10
75.1801452845423
20
-6.75471574851974
30
0
41
1
10
75.1635350363929
20
-6.68082459942983
30
0
41
1
10
75.152518022591
20
-6.61991252482991
30
0
41
1
10
75.1415366109954
20
-6.5471134672313
30
0
0
SPLINE
5
D7
100
AcDbEntity
8
1
62
256
6
ByLayer
370
18
48
1
60
0
100
AcDbSpline
70
4
71
3
72
15
73
11
40
0
40
0
40
0
40
0
40
0.352530926779981
40
0.352530926779981
40
0.705061853559962
40
0.705061853559962
40
0.793194585254957
40
0.793194585254957
40
0.881327316949952
40
1
40
1
40
1
40
1
41
1
10
74.754689298339
20
-6.51373551355567
30
0
41
1
10
74.7654483935229
20
-6.59913199802119
30
0
41
1
10
74.7760976698967
20
-6.6730181366427
30
0
41
1
10
74.7973959940623
20
-6.79772542660422
30
0
41
1
10
74.8080457003136
20
-6.84854906283402
30
0
41
1
10
74.8215002799364
20
-6.89743551004986
30
0
41
1
10
74.824202520279
20
-6.90648841984742
30
0
41
1
10
74.8296019246554
20
-6.92303755066106
30
0
41
1
10
74.8359394691934
20
-6.94065708233632
30
0
41
1
10
74.8422779904181
20
-6.95409251323665
30
0
41
1
10
74.8459136554198
20
-6.96043034996785
30
0
0
SPLINE
5
D8
100
AcDbEntity
8
1
62
256
6
ByLayer
370
13
48
1
60
0
100
AcDbSpline
70
4
71
3
72
9
73
5
40
0
40
0
40
0
40
0
40
0.5195185690839
40
1
40
1
40
1
40
1
41
1
10
74.1360819460795
20
-5.36058869756818
30
0
41
1
10
74.1559588343686
20
-5.52301113590164
30
0
41
1
10
74.1942190412727
20
-5.7754028758149
30
0
41
1
10
74.2324792554321
20
-5.90240699195468
30
0
41
1
10
74.25086257771
20
-5.93380841511961
30
0
0
SPLINE
5
D9
100
AcDbEntity
8
1
62
256
6
ByLayer
370
13
48
1
60
0
100
AcDbSpline
70
4
71
3
72
10
73
6
40
0
40
0
40
0
40
0
40
0.201992223950302
40
0.740184904097558
40
1
40
1
40
1
40
1
41
1
10
67.2509888208953
20
5.93400632206974
30
0
41
1
10
67.2616655426914
20
5.95216369179269
30
0
41
1
10
67.3007895652729
20
5.98209488831554
30
0
41
1
10
67.3536466560164
20
5.83901931825849
30
0
41
1
10
67.3958270214522
20
5.57299032826222
30
0
41
1
10
67.4095600904273
20
5.47114633429806
30
0
0
SPLINE
5
DA
100
AcDbEntity
8
1
62
256
6
ByLayer
370
13
48
1
60
0
100
AcDbSpline
70
4
71
3
72
10
73
6
40
0
40
0
40
0
40
0
40
0.139182381386595
40
0.642985345474964
40
1
40
1
40
1
40
1
41
1
10
68.8081460415749
20
5.93369511844489
30
0
41
1
10
68.816004995394
20
5.92030572743181
30
0
41
1
10
68.852311244272
20
5.83341413456685
30
0
41
1
10
68.9087762141484
20
5.51878848499541
30
0
41
1
10
68.9573825189343
20
5.05774149617773
30
0
41
1
10
68.9775414325954
20
4.83746496306824
30
0
0
SPLINE
5
DB
100
AcDbEntity
8
1
62
256
6
ByLayer
370
13
48
1
60
0
100
AcDbSpline
70
4
71
3
72
10
73
6
40
0
40
0
40
0
40
0
40
0.444680419510183
40
0.897017425562148
40
1
40
1
40
1
40
1
41
1
10
73.6123136365252
20
-5.15931075607051
30
0
41
1
10
73.6402794592936
20
-5.42117339643696
30
0
41
1
10
73.6966927399283
20
-5.82824127965549
30
0
41
1
10
73.7595821296442
20
-5.97791844000238
30
0
41
1
10
73.7945059167353
20
-5.95277714169845
30
0
41
1
10
73.8009824447328
20
-5.94442400223744
30
0
0
SPLINE
5
DC
100
AcDbEntity
8
1
62
256
6
ByLayer
370
18
48
1
60
0
100
AcDbSpline
70
4
71
3
72
8
73
4
40
0
40
0
40
0
40
0
40
1
40
1
40
1
40
1
41
1
10
73.8009826795123
20
-5.94442369942763
30
0
41
1
10
73.8039294501799
20
-5.94062304432461
30
0
41
1
10
73.8068762213348
20
-5.93605833729055
30
0
41
1
10
73.8098229929471
20
-5.93073262909718
30
0
0
SPLINE
5
DD
100
AcDbEntity
8
1
62
256
6
ByLayer
370
13
48
1
60
0
100
AcDbSpline
70
4
71
3
72
11
73
7
40
0
40
0
40
0
40
0
40
0.0905022775835463
40
0.52820590939792
40
0.965909541212295
40
1
40
1
40
1
40
1
41
1
10
72.0445193892014
20
-4.40223671122766
30
0
41
1
10
72.0504013264904
20
-4.47645281286785
30
0
41
1
10
72.0847305618526
20
-4.89644154622488
30
0
41
1
10
72.1475070881388
20
-5.51624942994576
30
0
41
1
10
72.2066173063535
20
-5.82685830992361
30
0
41
1
10
72.2372802183424
20
-5.90545194668724
30
0
41
1
10
72.2394958305148
20
-5.91069986218983
30
0
0
SPLINE
5
DE
100
AcDbEntity
8
1
62
256
6
ByLayer
370
18
48
1
60
0
100
AcDbSpline
70
4
71
3
72
8
73
4
40
0
40
0
40
0
40
0
40
1
40
1
40
1
40
1
41
1
10
72.2394956647728
20
-5.91069946961119
30
0
41
1
10
72.2443260778217
20
-5.92214086882063
30
0
41
1
10
72.2491564907954
20
-5.93153351792753
30
0
41
1
10
72.2539869037101
20
-5.93887613489318
30
0
0
SPLINE
5
DF
100
AcDbEntity
8
1
62
256
6
ByLayer
370
13
48
1
60
0
100
AcDbSpline
70
4
71
3
72
10
73
6
40
0
40
0
40
0
40
0
40
0.253661591171395
40
0.628117419966541
40
1
40
1
40
1
40
1
41
1
10
69.2734127143219
20
5.95735476101282
30
0
41
1
10
69.2926833113939
20
5.96467563080267
30
0
41
1
10
69.3404012100392
20
5.90186209637054
30
0
41
1
10
69.4163709165839
20
5.48433956535416
30
0
41
1
10
69.4730700189046
20
4.91327664349532
30
0
41
1
10
69.5013218290858
20
4.57437473132484
30
0
0
SPLINE
5
E0
100
AcDbEntity
8
1
62
256
6
ByLayer
370
13
48
1
60
0
100
AcDbSpline
70
4
71
3
72
11
73
7
40
0
40
0
40
0
40
0
40
0.229576805163809
40
0.576739518685386
40
0.923902232206963
40
1
40
1
40
1
40
1
41
1
10
70.8234922572122
20
5.90059777068146
30
0
41
1
10
70.8423043225964
20
5.85159136305589
30
0
41
1
10
70.8895637126269
20
5.65098126938301
30
0
41
1
10
70.9652701353187
20
5.02783388992097
30
0
41
1
10
71.0284005671469
20
4.24253912688971
30
0
41
1
10
71.0630834852645
20
3.74085749739245
30
0
41
1
10
71.0693191051791
20
3.64855881627136
30
0
0
SPLINE
5
E1
100
AcDbEntity
8
1
62
256
6
ByLayer
370
13
48
1
60
0
100
AcDbSpline
70
4
71
3
72
11
73
7
40
0
40
0
40
0
40
0
40
0.170512444840402
40
0.51770885098319
40
0.864905257125978
40
1
40
1
40
1
40
1
41
1
10
71.5207510597062
20
-4.10159403559689
30
0
41
1
10
71.5347218820168
20
-4.29129674010306
30
0
41
1
10
71.5771400181162
20
-4.83138657043909
30
0
41
1
10
71.6480056863892
20
-5.52620092728768
30
0
41
1
10
71.7159689482949
20
-5.87824202429488
30
0
41
1
10
71.7554851081216
20
-5.94573957331301
30
0
41
1
10
71.7665539994029
20
-5.9538735749147
30
0
0
SPLINE
5
E2
100
AcDbEntity
8
1
62
256
6
ByLayer
370
13
48
1
60
0
100
AcDbSpline
70
4
71
3
72
11
73
7
40
0
40
0
40
0
40
0
40
0.248262316994599
40
0.595594782106853
40
0.942927247219106
40
1
40
1
40
1
40
1
41
1
10
69.9529599780286
20
-3.08213599085528
30
0
41
1
10
69.9732932128817
20
-3.40786457986641
30
0
41
1
10
70.0220737469755
20
-4.14411523087665
30
0
41
1
10
70.0993015680754
20
-5.08549604657512
30
0
41
1
10
70.16087055951
20
-5.57384614253166
30
0
41
1
10
70.1939922440945
20
-5.74352319908425
30
0
41
1
10
70.1986666291092
20
-5.76560235355748
30
0
0
SPLINE
5
E3
100
AcDbEntity
8
1
62
256
6
ByLayer
370
18
48
1
60
0
100
AcDbSpline
70
4
71
3
72
11
73
7
40
0
40
0
40
0
40
0
40
0.18803085211111
40
0.548792480740706
40
0.972016536055768
40
1
40
1
40
1
40
1
41
1
10
80.3
20
0.700830892087623
30
0
41
1
10
80.3
20
0.468972256803823
30
0
41
1
10
80.3
20
-0.215471163088665
30
0
41
1
10
80.3
20
-1.43585367579021
30
0
41
1
10
80.3
20
-2.38207247976553
30
0
41
1
10
80.3
20
-2.85759864165362
30
0
41
1
10
80.2999999999999
20
-2.88689258375288
30
0
0
SPLINE
5
E4
100
AcDbEntity
8
1
62
256
6
ByLayer
370
18
48
1
60
0
100
AcDbSpline
70
4
71
3
72
10
73
6
40
0
40
0
40
0
40
0
40
0.357513217181382
40
0.713961153176019
40
1
40
1
40
1
40
1
41
1
10
79.7000000634013
20
-2.9001107645006
30
0
41
1
10
79.7000000746363
20
-2.46054576134586
30
0
41
1
10
79.7000000101727
20
-1.51585129804718
30
0
41
1
10
79.6999999421267
20
-0.0983973415629578
30
0
41
1
10
79.6999999225965
20
0.80605497207344
30
0
41
1
10
79.6999999180535
20
1.19882341257704
30
0
0
SPLINE
5
E5
100
AcDbEntity
8
1
62
256
6
ByLayer
370
18
48
1
60
0
100
AcDbSpline
70
4
71
3
72
34
73
30
40
0
40
0
40
0
40
0
40
0.125
40
0.125
40
0.187499999999999
40
0.187499999999999
40
0.249999999999999
40
0.249999999999999
40
0.312499999999999
40
0.312499999999999
40
0.374999999999999
40
0.374999999999999
40
0.499999999999999
40
0.499999999999999
40
0.562499999999999
40
0.562499999999999
40
0.624999999999999
40
0.624999999999999
40
0.656249999999999
40
0.656249999999999
40
0.687499999999998
40
0.687499999999998
40
0.749999999999999
40
0.749999999999999
40
0.812499999999999
40
0.812499999999999
40
0.875
40
0.875
40
1
40
1
40
1
40
1
41
1
10
79.4320610820593
20
1.42255741974787
30
0
41
1
10
79.4411499014414
20
1.2422438148547
30
0
41
1
10
79.4506386323524
20
1.05975180136042
30
0
41
1
10
79.4651880737349
20
0.784320045469059
30
0
41
1
10
79.4700916907308
20
0.692179799048716
30
0
41
1
10
79.4799635026691
20
0.507234921567829
30
0
41
1
10
79.4849066442168
20
0.414896277083528
30
0
41
1
10
79.4947608683146
20
0.230525383938783
30
0
41
1
10
79.4996711221521
20
0.138485375849456
30
0
41
1
10
79.5091644027832
20
-0.0453250858888055
30
0
41
1
10
79.5137199969815
20
-0.137097028692551
30
0
41
1
10
79.5270060305972
20
-0.412006605194222
30
0
41
1
10
79.535373754127
20
-0.59473839062025
30
0
41
1
10
79.5481380638142
20
-0.867965398985206
30
0
41
1
10
79.552440958421
20
-0.958894789020519
30
0
41
1
10
79.5612299115846
20
-1.14045178197969
30
0
41
1
10
79.5656962872444
20
-1.23108069827651
30
0
41
1
10
79.572375254118
20
-1.36680329877552
30
0
41
1
10
79.5745969048471
20
-1.41199268024337
30
0
41
1
10
79.5789910050195
20
-1.50202757302731
30
0
41
1
10
79.5811608683199
20
-1.54690654231172
30
0
41
1
10
79.5875996706147
20
-1.68112729153228
30
0
41
1
10
79.5918007994244
20
-1.76995112939247
30
0
41
1
10
79.6002308162142
20
-1.94626785712265
30
0
41
1
10
79.6044572128503
20
-2.03371095998307
30
0
41
1
10
79.6131788762069
20
-2.20698512912915
30
0
41
1
10
79.6177047411308
20
-2.2927885766961
30
0
41
1
10
79.6316649207419
20
-2.54744243278893
30
0
41
1
10
79.6414653091676
20
-2.71352354792836
30
0
41
1
10
79.6508074283863
20
-2.87525206746463
30
0
0
SPLINE
5
E6
100
AcDbEntity
8
1
62
256
6
ByLayer
370
13
48
1
60
0
100
AcDbSpline
70
4
71
3
72
11
73
7
40
0
40
0
40
0
40
0
40
0.130723605636427
40
0.47792037517189
40
0.825117144707353
40
1
40
1
40
1
40
1
41
1
10
71.3472978119608
20
5.82556970323211
30
0
41
1
10
71.3580085501298
20
5.78345927935248
30
0
41
1
10
71.3971665889776
20
5.59342672243733
30
0
41
1
10
71.4647719258204
20
5.04182253746384
30
0
41
1
10
71.5359954067284
20
4.15997164816153
30
0
41
1
10
71.5787716003109
20
3.52304965146817
30
0
41
1
10
71.5931004929651
20
3.29969947601504
30
0
0
SPLINE
5
E7
100
AcDbEntity
8
1
62
256
6
ByLayer
370
13
48
1
60
0
100
AcDbSpline
70
4
71
3
72
11
73
7
40
0
40
0
40
0
40
0
40
0.0531631766895388
40
0.400039427017621
40
0.746915677345704
40
1
40
1
40
1
40
1
41
1
10
72.9150542194393
20
5.42313755608853
30
0
41
1
10
72.9194141291655
20
5.3893373807235
30
0
41
1
10
72.9522213346449
20
5.1234998136573
30
0
41
1
10
73.0134756593223
20
4.4679704383897
30
0
41
1
10
73.0911259283571
20
3.34661426451345
30
0
41
1
10
73.1403285852267
20
2.52071714854256
30
0
41
1
10
73.1610839822847
20
2.15858752363374
30
0
0
SPLINE
5
E8
100
AcDbEntity
8
1
62
256
6
ByLayer
370
13
48
1
60
0
100
AcDbSpline
70
4
71
3
72
12
73
8
40
0
40
0
40
0
40
0
40
0.0242716258590082
40
0.30970206395912
40
0.595132502059233
40
0.880562940159345
40
1
40
1
40
1
40
1
41
1
10
77.8683855270023
20
-1.63494101190554
30
0
41
1
10
77.8663919672972
20
-1.59905491893528
30
0
41
1
10
77.8409544642357
20
-1.13992432139654
30
0
41
1
10
77.7920730154238
20
-0.229416733646218
30
0
41
1
10
77.7217411850969
20
1.0917548801277
30
0
41
1
10
77.6650432899901
20
2.11403977908688
30
0
41
1
10
77.6317893334205
20
2.67513635992827
30
0
41
1
10
77.6219793218899
20
2.83662799924755
30
0
0
SPLINE
5
E9
100
AcDbEntity
8
1
62
256
6
ByLayer
370
18
48
1
60
0
100
AcDbSpline
70
4
71
3
72
26
73
22
40
0
40
0
40
0
40
0
40
0.125
40
0.125
40
0.25
40
0.25
40
0.375
40
0.375
40
0.40625
40
0.40625
40
0.437500000000001
40
0.500000000000001
40
0.500000000000001
40
0.750000000000001
40
0.750000000000001
40
0.812500000000001
40
0.812500000000001
40
0.843750000000001
40
0.843750000000001
40
0.875000000000001
40
1
40
1
40
1
40
1
41
1
10
77.7841436000703
20
2.84382636813982
30
0
41
1
10
77.7945445653692
20
2.66151046202981
30
0
41
1
10
77.8048189090411
20
2.47583172725663
30
0
41
1
10
77.8252826997325
20
2.09794256594003
30
0
41
1
10
77.8354715911928
20
1.9057418057119
30
0
41
1
10
77.8559495455755
20
1.51489452853852
30
0
41
1
10
77.8662383370666
20
1.31624849151709
30
0
41
1
10
77.8792788412798
20
1.06379670823398
30
0
41
1
10
77.8818991321356
20
1.01303187033608
30
0
41
1
10
77.8871317132145
20
0.91156735104974
30
0
41
1
10
77.8949732755414
20
0.759377886838195
30
0
41
1
10
77.9027900610771
20
0.607209981340986
30
0
41
1
10
77.9287787307416
20
0.100030322880201
30
0
41
1
10
77.9492112578695
20
-0.305571556413725
30
0
41
1
10
77.9750033421796
20
-0.812360128368169
30
0
41
1
10
77.9801759377527
20
-0.91370702609899
30
0
41
1
10
77.9879675762384
20
-1.06571027060977
30
0
41
1
10
77.990570378933
20
-1.1163775805949
30
0
41
1
10
77.9957666861962
20
-1.21728050390013
30
0
41
1
10
78.0087487244989
20
-1.46872590723501
30
0
41
1
10
78.0216965127537
20
-1.71611884630966
30
0
41
1
10
78.0320855623955
20
-1.9114366988187
30
0
0
SPLINE
5
EA
100
AcDbEntity
8
1
62
256
6
ByLayer
370
18
48
1
60
0
100
AcDbSpline
70
4
71
3
72
35
73
31
40
0
40
0
40
0
40
0
40
0.0624999999999994
40
0.0624999999999994
40
0.124999999999999
40
0.124999999999999
40
0.187499999999998
40
0.187499999999998
40
0.249999999999998
40
0.312499999999997
40
0.312499999999997
40
0.374999999999997
40
0.374999999999997
40
0.437499999999996
40
0.437499999999996
40
0.468749999999996
40
0.468749999999996
40
0.499999999999996
40
0.499999999999996
40
0.624999999999997
40
0.624999999999997
40
0.687499999999998
40
0.687499999999998
40
0.749999999999998
40
0.749999999999998
40
0.874999999999999
40
0.874999999999999
40
0.937499999999999
40
0.937499999999999
40
1
40
1
40
1
40
1
41
1
10
79.5893671231694
20
-2.84388520281613
30
0
41
1
10
79.5838403368611
20
-2.76133993282761
30
0
41
1
10
79.5784030603559
20
-2.67753644419508
30
0
41
1
10
79.5675202452117
20
-2.50871493786863
30
0
41
1
10
79.5620668867024
20
-2.42358287114607
30
0
41
1
10
79.5509313547766
20
-2.25193207622803
30
0
41
1
10
79.5452283179939
20
-2.16541622849829
30
0
41
1
10
79.5335801063286
20
-1.99101315124474
30
0
41
1
10
79.5217444686113
20
-1.81523108885622
30
0
41
1
10
79.5099521530504
20
-1.63663141319358
30
0
41
1
10
79.4983460878424
20
-1.45658499420716
30
0
41
1
10
79.4926530214725
20
-1.36583495618166
30
0
41
1
10
79.4812682865796
20
-1.18290277656021
30
0
41
1
10
79.4755740696637
20
-1.09072117907775
30
0
41
1
10
79.466895897363
20
-0.951377823012535
30
0
41
1
10
79.4639768347368
20
-0.90472736171759
30
0
41
1
10
79.458107291663
20
-0.811167151476837
30
0
41
1
10
79.4551665226887
20
-0.764397587126581
30
0
41
1
10
79.4404768082558
20
-0.530599551968294
30
0
41
1
10
79.428776392251
20
-0.343719582522994
30
0
41
1
10
79.4120522380231
20
-0.0635930578519606
30
0
41
1
10
79.4066380915171
20
0.0297512567321689
30
0
41
1
10
79.3960779641086
20
0.21637465814922
30
0
41
1
10
79.3908948075588
20
0.309651837012723
30
0
41
1
10
79.3752592382721
20
0.589359811108324
30
0
41
1
10
79.3647901073586
20
0.775671168595323
30
0
41
1
10
79.3486325658468
20
1.0548716949657
30
0
41
1
10
79.3431645132215
20
1.14799610454281
30
0
41
1
10
79.3320912276534
20
1.33291158728295
30
0
41
1
10
79.3264781149439
20
1.42484000714853
30
0
41
1
10
79.3207660502996
20
1.51623826886655
30
0
0
SPLINE
5
EB
100
AcDbEntity
8
1
62
256
6
ByLayer
370
13
48
1
60
0
100
AcDbSpline
70
4
71
3
72
10
73
6
40
0
40
0
40
0
40
0
40
0.34719430027238
40
0.694688615776661
40
1
40
1
40
1
40
1
41
1
10
69.4291897701029
20
-2.70694694663803
30
0
41
1
10
69.4576125227708
20
-3.18091962419427
30
0
41
1
10
69.5144825232092
20
-4.06409103589016
30
0
41
1
10
69.596346872934
20
-5.05692763290446
30
0
41
1
10
69.649788052084
20
-5.49087653536077
30
0
41
1
10
69.6747820400118
20
-5.64152229706048
30
0
0
SPLINE
5
EC
100
AcDbEntity
8
1
62
256
6
ByLayer
370
13
48
1
60
0
100
AcDbSpline
70
4
71
3
72
11
73
7
40
0
40
0
40
0
40
0
40
0.211072331935346
40
0.496494681340758
40
0.78191703074617
40
1
40
1
40
1
40
1
41
1
10
77.3445824794178
20
-1.21752445562183
30
0
41
1
10
77.3272455572216
20
-0.899786752184212
30
0
41
1
10
77.2864648784174
20
-0.139607934299534
30
0
41
1
10
77.2222399643774
20
1.06715548344104
30
0
41
1
10
77.1574388961517
20
2.23683651098384
30
0
41
1
10
77.1160821643035
20
2.92452140529991
30
0
41
1
10
77.0981693405465
20
3.20714200512038
30
0
0
SPLINE
5
ED
100
AcDbEntity
8
1
62
256
6
ByLayer
370
13
48
1
60
0
100
AcDbSpline
70
4
71
3
72
12
73
8
40
0
40
0
40
0
40
0
40
0.0983002273610638
40
0.383927071620339
40
0.669553915879614
40
0.955180760138889
40
1
40
1
40
1
40
1
41
1
10
75.7766550278353
20
0.0609797910579459
30
0
41
1
10
75.7685866506662
20
0.212012145434159
30
0
41
1
10
75.7370743288557
20
0.801660723315905
30
0
41
1
10
75.6821180672756
20
1.81676200602362
30
0
41
1
10
75.6117862379591
20
3.02751557793272
30
0
41
1
10
75.561219632774
20
3.79217532537322
30
0
41
1
10
75.5340969743952
20
4.15794459761273
30
0
41
1
10
75.5304182595202
20
4.20671141950461
30
0
0
SPLINE
5
EE
100
AcDbEntity
8
1
62
256
6
ByLayer
370
18
48
1
60
0
100
AcDbSpline
70
4
71
3
72
29
73
25
40
0
40
0
40
0
40
0
40
0.125
40
0.125
40
0.25
40
0.25
40
0.3125
40
0.3125
40
0.343749999999999
40
0.343749999999999
40
0.374999999999999
40
0.374999999999999
40
0.499999999999999
40
0.499999999999999
40
0.624999999999999
40
0.624999999999999
40
0.749999999999999
40
0.749999999999999
40
0.781249999999999
40
0.781249999999999
40
0.812499999999999
40
0.874999999999999
40
0.874999999999999
40
1
40
1
40
1
40
1
41
1
10
75.9664026412233
20
4.43113921503647
30
0
41
1
10
75.9769210045082
20
4.26319311682042
30
0
41
1
10
75.9874059881154
20
4.08867880595372
30
0
41
1
10
76.008551312826
20
3.72691234434294
30
0
41
1
10
76.0191668175266
20
3.5396136667697
30
0
41
1
10
76.0351497634303
20
3.24875398706717
30
0
41
1
10
76.0404875933739
20
3.15014680858331
30
0
41
1
10
76.0485029384072
20
2.99970023639466
30
0
41
1
10
76.0511788582635
20
2.94907926153033
30
0
41
1
10
76.0565224917815
20
2.84720396668544
30
0
41
1
10
76.0591843549763
20
2.79606204950667
30
0
41
1
10
76.0724478399782
20
2.53934312764906
30
0
41
1
10
76.0828972275874
20
2.33074047293766
30
0
41
1
10
76.1037970179193
20
1.90733747500789
30
0
41
1
10
76.1142654919333
20
1.6925395076388
30
0
41
1
10
76.1353516248239
20
1.25678006670955
30
0
41
1
10
76.1459669526155
20
1.03581930501971
30
0
41
1
10
76.1593877059564
20
0.755625233474717
30
0
41
1
10
76.1620798614928
20
0.699377417687629
30
0
41
1
10
76.1674551655422
20
0.587014714997622
30
0
41
1
10
76.1755153281599
20
0.418470359995467
30
0
41
1
10
76.1835574030133
20
0.249924643591385
30
0
41
1
10
76.1995871047144
20
-0.0871700443656778
30
0
41
1
10
76.2101716980979
20
-0.311905568248051
30
0
41
1
10
76.2207831013549
20
-0.536640713602878
30
0
0
SPLINE
5
EF
100
AcDbEntity
8
1
62
256
6
ByLayer
370
18
48
1
60
0
100
AcDbSpline
70
4
71
3
72
27
73
23
40
0
40
0
40
0
40
0
40
0.125
40
0.125
40
0.250000000000001
40
0.250000000000001
40
0.375000000000001
40
0.375000000000001
40
0.406250000000001
40
0.406250000000001
40
0.437500000000001
40
0.5
40
0.5
40
0.625
40
0.625
40
0.75
40
0.75
40
0.8125
40
0.8125
40
0.874999999999999
40
0.874999999999999
40
1
40
1
40
1
40
1
41
1
10
77.0415033187719
20
-1.1953934005507
30
0
41
1
10
77.0307098422349
20
-0.982965996022358
30
0
41
1
10
77.0199932075441
20
-0.770036394729999
30
0
41
1
10
76.9986139152118
20
-0.343201946161514
30
0
41
1
10
76.9879335233501
20
-0.129297849038181
30
0
41
1
10
76.9667053196713
20
0.299508208636411
30
0
41
1
10
76.9561465642763
20
0.514407634126286
30
0
41
1
10
76.9428134787093
20
0.783651572245958
30
0
41
1
10
76.9401384093686
20
0.83756431855258
30
0
41
1
10
76.9347990982941
20
0.944855863399766
30
0
41
1
10
76.9267971984446
20
1.10520679391851
30
0
41
1
10
76.918783537563
20
1.2638217448189
30
0
41
1
10
76.9027311031153
20
1.57877394769574
30
0
41
1
10
76.8919997964484
20
1.78571248185685
30
0
41
1
10
76.87049408242
20
2.19354051228885
30
0
41
1
10
76.8597203803395
20
2.39442907646557
30
0
41
1
10
76.843541668792
20
2.69105373230991
30
0
41
1
10
76.8381444283485
20
2.78918953489986
30
0
41
1
10
76.8273553495627
20
2.983663614189
30
0
41
1
10
76.8219945318365
20
3.0794430379182
30
0
41
1
10
76.8059789945105
20
3.36246742552476
30
0
41
1
10
76.7954007887396
20
3.54540401891944
30
0
41
1
10
76.7847138318171
20
3.7226801377355
30
0
0
SPLINE
5
F0
100
AcDbEntity
8
1
62
256
6
ByLayer
370
18
48
1
60
0
100
AcDbSpline
70
4
71
3
72
30
73
26
40
0
40
0
40
0
40
0
40
0.124999999999999
40
0.124999999999999
40
0.249999999999999
40
0.249999999999999
40
0.312499999999999
40
0.312499999999999
40
0.343749999999999
40
0.343749999999999
40
0.374999999999999
40
0.374999999999999
40
0.5
40
0.5
40
0.625000000000001
40
0.625000000000001
40
0.687500000000001
40
0.687500000000001
40
0.718750000000001
40
0.718750000000001
40
0.750000000000001
40
0.750000000000001
40
0.875000000000001
40
0.875000000000001
40
1
40
1
40
1
40
1
41
1
10
74.1165856030345
20
5.88367826354502
30
0
41
1
10
74.1274703919167
20
5.74887519477755
30
0
41
1
10
74.1382764669742
20
5.60441988403716
30
0
41
1
10
74.1599194779846
20
5.29645755073949
30
0
41
1
10
74.170785594768
20
5.13295173364068
30
0
41
1
10
74.1871857688739
20
4.87314078007591
30
0
41
1
10
74.1926664619247
20
4.78410695724421
30
0
41
1
10
74.2009133056431
20
4.6468325444732
30
0
41
1
10
74.2036636786884
20
4.60050106312937
30
0
41
1
10
74.2091435368064
20
4.50712703394527
30
0
41
1
10
74.2118766621966
20
4.46002414719129
30
0
41
1
10
74.2255143797131
20
4.22245238822217
30
0
41
1
10
74.2363301642201
20
4.02582777299784
30
0
41
1
10
74.2580141690844
20
3.61974013839574
30
0
41
1
10
74.2688752149224
20
3.41027650961016
30
0
41
1
10
74.2851974806484
20
3.08636109315276
30
0
41
1
10
74.2906445024108
20
2.97676620844669
30
0
41
1
10
74.2988355724241
20
2.80989900645648
30
0
41
1
10
74.3015694303731
20
2.75386391844998
30
0
41
1
10
74.3070469819817
20
2.64095905388271
30
0
41
1
10
74.3097919106425
20
2.58406260361332
30
0
41
1
10
74.323469875454
20
2.29914294746826
30
0
41
1
10
74.3343414361715
20
2.06852902719984
30
0
41
1
10
74.356088817223
20
1.60211667519101
30
0
41
1
10
74.3669362518417
20
1.36631658953843
30
0
41
1
10
74.3777846220355
20
1.12792313562352
30
0
0
SPLINE
5
F1
100
AcDbEntity
8
1
62
256
6
ByLayer
370
13
48
1
60
0
100
AcDbSpline
70
4
71
3
72
11
73
7
40
0
40
0
40
0
40
0
40
0.301313899015278
40
0.648227931267772
40
0.995141963520266
40
1
40
1
40
1
40
1
41
1
10
73.4388533171886
20
5.23113606373093
30
0
41
1
10
73.4635613604287
20
5.00961854224511
30
0
41
1
10
73.516716702344
20
4.43115233469305
30
0
41
1
10
73.5983193324448
20
3.25673526641378
30
0
41
1
10
73.6556123019916
20
2.27599381389641
30
0
41
1
10
73.6844579654915
20
1.76022794942412
30
0
41
1
10
73.6848563293691
20
1.75310098750327
30
0
0
SPLINE
5
F2
100
AcDbEntity
8
1
62
256
6
ByLayer
370
13
48
1
60
0
100
AcDbSpline
70
4
71
3
72
11
73
7
40
0
40
0
40
0
40
0
40
0.285178630807514
40
0.570822883602512
40
0.856467136397511
40
1
40
1
40
1
40
1
41
1
10
75.2528336432926
20
0.490722436555984
30
0
41
1
10
75.2294279671991
20
0.927398056047252
30
0
41
1
10
75.1825786432373
20
1.79356098196871
30
0
41
1
10
75.1122850448682
20
3.00587113628814
30
0
41
1
10
75.0536164935458
20
3.89564513222911
30
0
41
1
10
75.0183922536206
20
4.3554302927098
30
0
41
1
10
75.0066119587267
20
4.49997633529085
30
0
0
SPLINE
5
F3
100
AcDbEntity
8
1
62
256
6
ByLayer
370
18
48
1
60
0
100
AcDbSpline
70
4
71
3
72
30
73
26
40
0
40
0
40
0
40
0
40
0.124999999999999
40
0.124999999999999
40
0.249999999999999
40
0.249999999999999
40
0.312499999999998
40
0.312499999999998
40
0.343749999999998
40
0.343749999999998
40
0.374999999999998
40
0.374999999999998
40
0.499999999999997
40
0.499999999999997
40
0.624999999999996
40
0.624999999999996
40
0.687499999999996
40
0.687499999999996
40
0.718749999999996
40
0.718749999999996
40
0.749999999999997
40
0.749999999999997
40
0.874999999999998
40
0.874999999999998
40
1
40
1
40
1
40
1
41
1
10
74.5880109325276
20
0.924896074785607
30
0
41
1
10
74.577111707525
20
1.16496920303206
30
0
41
1
10
74.5662759732471
20
1.40232394978821
30
0
41
1
10
74.5446245886763
20
1.87165567556508
30
0
41
1
10
74.5337951843125
20
2.10363215141177
30
0
41
1
10
74.517421757023
20
2.44747748350275
30
0
41
1
10
74.5119472270486
20
2.5614049103043
30
0
41
1
10
74.5037051426889
20
2.73124146752659
30
0
41
1
10
74.5009609537696
20
2.78750626891937
30
0
41
1
10
74.4954882266536
20
2.89912121014038
30
0
41
1
10
74.4927579115761
20
2.95450796910461
30
0
41
1
10
74.4791305638003
20
3.22935944479619
30
0
41
1
10
74.4683055020816
20
3.4425937769623
30
0
41
1
10
74.4466098608284
20
3.85603684278587
30
0
41
1
10
74.435761053634
20
4.05624611608363
30
0
41
1
10
74.4194422791072
20
4.34668703476171
30
0
41
1
10
74.413993963255
20
4.4418519591423
30
0
41
1
10
74.4057921953601
20
4.58208288877927
30
0
41
1
10
74.4030533131674
20
4.62840690428698
30
0
41
1
10
74.3975619660902
20
4.72020571606805
30
0
41
1
10
74.3948118384323
20
4.76563745151839
30
0
41
1
10
74.3810974452591
20
4.9893742629767
30
0
41
1
10
74.3701940463261
20
5.1584455916979
30
0
41
1
10
74.3484862328723
20
5.47734168845102
30
0
41
1
10
74.3376817679839
20
5.62716488969736
30
0
41
1
10
74.3268313780299
20
5.76734717102778
30
0
0
SPLINE
5
F4
100
AcDbEntity
8
1
62
256
6
ByLayer
370
18
48
1
60
0
100
AcDbSpline
70
4
71
3
72
10
73
6
40
0
40
0
40
0
40
0
40
0.5
40
0.5
40
1
40
1
40
1
40
1
41
1
10
75.5304182595202
20
4.20671141950461
30
0
41
1
10
75.6038016843853
20
4.25091642908157
30
0
41
1
10
75.6767753109864
20
4.2916711692362
30
0
41
1
10
75.8220766796665
20
4.36646638762122
30
0
41
1
10
75.8944386351224
20
4.40050610686561
30
0
41
1
10
75.9664026412233
20
4.43113921503681
30
0
0
SPLINE
5
F5
100
AcDbEntity
8
1
62
256
6
ByLayer
370
18
48
1
60
0
100
AcDbSpline
70
4
71
3
72
10
73
6
40
0
40
0
40
0
40
0
40
0.5
40
0.5
40
1
40
1
40
1
40
1
41
1
10
75.9664026412233
20
4.43113921503681
30
0
41
1
10
76.1025051439023
20
4.31453947844449
30
0
41
1
10
76.2386974001222
20
4.19711998227785
30
0
41
1
10
76.5114247727642
20
3.96089737253598
30
0
41
1
10
76.6479630076768
20
3.84210088211429
30
0
41
1
10
76.784713831817
20
3.72268013773541
30
0
0
SPLINE
5
F6
100
AcDbEntity
8
1
62
256
6
ByLayer
370
18
48
1
60
0
100
AcDbSpline
70
4
71
3
72
8
73
4
40
0
40
0
40
0
40
0
40
1
40
1
40
1
40
1
41
1
10
76.7847138318171
20
3.72268013773538
30
0
41
1
10
76.8884952327106
20
3.54698345570063
30
0
41
1
10
76.9929070670193
20
3.3750896219785
30
0
41
1
10
77.0981693405465
20
3.20714200512046
30
0
0
SPLINE
5
F7
100
AcDbEntity
8
1
62
256
6
ByLayer
370
18
48
1
60
0
100
AcDbSpline
70
4
71
3
72
36
73
32
40
0
40
0
40
0
40
0
40
0.0624999999999923
40
0.0624999999999923
40
0.124999999999985
40
0.124999999999985
40
0.187499999999977
40
0.187499999999977
40
0.249999999999969
40
0.249999999999969
40
0.312499999999962
40
0.312499999999962
40
0.374999999999954
40
0.374999999999954
40
0.499999999999939
40
0.499999999999939
40
0.562499999999931
40
0.562499999999931
40
0.624999999999924
40
0.624999999999924
40
0.74999999999995
40
0.74999999999995
40
0.781249999999957
40
0.781249999999957
40
0.812499999999963
40
0.812499999999963
40
0.874999999999975
40
0.874999999999975
40
0.937499999999988
40
0.937499999999988
40
1
40
1
40
1
40
1
41
1
10
77.0981693405465
20
3.2071420051204
30
0
41
1
10
77.1057576097488
20
3.19503480198011
30
0
41
1
10
77.1140422471177
20
3.18302412976018
30
0
41
1
10
77.1317732688699
20
3.15916926665048
30
0
41
1
10
77.1412217956721
20
3.14732527674286
30
0
41
1
10
77.1611631095286
20
3.12378815293653
30
0
41
1
10
77.1717195527796
20
3.11203364393864
30
0
41
1
10
77.1932946465052
20
3.08920449405454
30
0
41
1
10
77.2043548799316
20
3.07807418725864
30
0
41
1
10
77.2269589769659
20
3.0563177018245
30
0
41
1
10
77.238503200634
20
3.04569189849642
30
0
41
1
10
77.2620416227089
20
3.02490927653159
30
0
41
1
10
77.2740892514036
20
3.01470993668343
30
0
41
1
10
77.3104752573219
20
2.98512367673547
30
0
41
1
10
77.334912367773
20
2.96683187370075
30
0
41
1
10
77.3717618442267
20
2.94136196809063
30
0
41
1
10
77.3840777147515
20
2.93320365291146
30
0
41
1
10
77.4087658257633
20
2.91756307682417
30
0
41
1
10
77.4209828578165
20
2.91017979017011
30
0
41
1
10
77.4571309007444
20
2.88938432410151
30
0
41
1
10
77.4806138901466
20
2.8772709530997
30
0
41
1
10
77.5090549229755
20
2.86456147456536
30
0
41
1
10
77.514696867237
20
2.86214322707806
30
0
41
1
10
77.5258815074072
20
2.85756961413648
30
0
41
1
10
77.5314419656113
20
2.85540789229438
30
0
41
1
10
77.5478134850997
20
2.84940182736295
30
0
41
1
10
77.558298222298
20
2.84603675986696
30
0
41
1
10
77.5783311122256
20
2.8406952153631
30
0
41
1
10
77.58788042056
20
2.83871684915621
30
0
41
1
10
77.6058966842841
20
2.83637039326777
30
0
41
1
10
77.6143602285424
20
2.83601348134118
30
0
41
1
10
77.6219793218849
20
2.83662799923755
30
0
0
SPLINE
5
F8
100
AcDbEntity
8
1
62
256
6
ByLayer
370
18
48
1
60
0
100
AcDbSpline
70
4
71
3
72
8
73
4
40
0
40
0
40
0
40
0
40
1
40
1
40
1
40
1
41
1
10
77.6219793218898
20
2.83662799924755
30
0
41
1
10
77.6762448168068
20
2.84100478219415
30
0
41
1
10
77.7302878250245
20
2.84338821699259
30
0
41
1
10
77.7841436000703
20
2.84382636813982
30
0
0
SPLINE
5
F9
100
AcDbEntity
8
1
62
256
6
ByLayer
370
18
48
1
60
0
100
AcDbSpline
70
4
71
3
72
14
73
10
40
0
40
0
40
0
40
0
40
0.499999999999993
40
0.499999999999993
40
0.749999999999996
40
0.749999999999996
40
0.874999999999998
40
0.874999999999998
40
1
40
1
40
1
40
1
41
1
10
77.7841436000703
20
2.84382636813982
30
0
41
1
10
78.0352496868082
20
2.62274796091694
30
0
41
1
10
78.2885306684206
20
2.40115973693006
30
0
41
1
10
78.6724835006894
20
2.0689876763432
30
0
41
1
10
78.8011319289502
20
1.95829212332981
30
0
41
1
10
78.9951767171171
20
1.79239058913515
30
0
41
1
10
79.0600371362275
20
1.73711375521933
30
0
41
1
10
79.1901273650065
20
1.62662195898596
30
0
41
1
10
79.2553876558365
20
1.57138147945167
30
0
41
1
10
79.3207660502996
20
1.51623826886646
30
0
0
SPLINE
5
FA
100
AcDbEntity
8
1
62
256
6
ByLayer
370
18
48
1
60
0
100
AcDbSpline
70
4
71
3
72
12
73
8
40
0
40
0
40
0
40
0
40
0.249999999999946
40
0.249999999999946
40
0.499999999999891
40
0.499999999999891
40
1
40
1
40
1
40
1
41
1
10
79.3207660502996
20
1.51623826886646
30
0
41
1
10
79.3296397911364
20
1.50825801839261
30
0
41
1
10
79.338653090481
20
1.50029873413763
30
0
41
1
10
79.3569457201583
20
1.48441610273295
30
0
41
1
10
79.366257192846
20
1.47646594346162
30
0
41
1
10
79.3943312180805
20
1.45287030801845
30
0
41
1
10
79.4131549480724
20
1.43753811926041
30
0
41
1
10
79.4320610820543
20
1.4225574197477
30
0
0
SPLINE
5
FB
100
AcDbEntity
8
1
62
256
6
ByLayer
370
18
48
1
60
0
100
AcDbSpline
70
4
71
3
72
8
73
4
40
0
40
0
40
0
40
0
40
1
40
1
40
1
40
1
41
1
10
79.4320610820543
20
1.42255741974782
30
0
41
1
10
79.5212005392217
20
1.34767896534041
30
0
41
1
10
79.6104452082187
20
1.27301761356927
30
0
41
1
10
79.6999999180535
20
1.1988234125771
30
0
0
SPLINE
5
FC
100
AcDbEntity
8
1
62
256
6
ByLayer
370
18
48
1
60
0
100
AcDbSpline
70
4
71
3
72
12
73
8
40
0
40
0
40
0
40
0
40
0.500000000000001
40
0.500000000000001
40
0.75
40
0.75
40
1
40
1
40
1
40
1
41
1
10
79.6999999180535
20
1.1988234125771
30
0
41
1
10
79.7966748943536
20
1.10388017495165
30
0
41
1
10
79.8948313369717
20
1.01449107290617
30
0
41
1
10
80.0449164701185
20
0.889455285471001
30
0
41
1
10
80.0953539396501
20
0.849419084262536
30
0
41
1
10
80.1971092064452
20
0.772635052356719
30
0
41
1
10
80.2483673533711
20
0.735944508267181
30
0
41
1
10
80.3
20
0.700830892087623
30
0
0
SPLINE
5
FD
100
AcDbEntity
8
1
62
256
6
ByLayer
370
18
48
1
60
0
100
AcDbSpline
70
4
71
3
72
55
73
51
40
0
40
0
40
0
40
0
40
0.0624999999999993
40
0.0624999999999993
40
0.124999999999999
40
0.124999999999999
40
0.156249999999998
40
0.156249999999998
40
0.187499999999998
40
0.187499999999998
40
0.249999999999997
40
0.249999999999997
40
0.312499999999997
40
0.312499999999997
40
0.343749999999996
40
0.343749999999996
40
0.359374999999996
40
0.359374999999996
40
0.374999999999996
40
0.374999999999996
40
0.437499999999996
40
0.437499999999996
40
0.499999999999996
40
0.499999999999996
40
0.562499999999995
40
0.593749999999995
40
0.593749999999995
40
0.609374999999995
40
0.609374999999995
40
0.624999999999995
40
0.687499999999995
40
0.687499999999995
40
0.749999999999995
40
0.749999999999995
40
0.812499999999995
40
0.812499999999995
40
0.828124999999995
40
0.828124999999995
40
0.835937499999995
40
0.835937499999995
40
0.843749999999995
40
0.874999999999996
40
0.874999999999996
40
0.937499999999998
40
0.937499999999998
40
0.953124999999999
40
0.953124999999999
40
0.968749999999999
40
0.968749999999999
40
1
40
1
40
1
40
1
41
1
10
80.3
20
0.700830892087652
30
0
41
1
10
80.3
20
0.703761265839773
30
0
41
1
10
80.3
20
0.713373109165673
30
0
41
1
10
80.3
20
0.746139683081253
30
0
41
1
10
80.3000000000001
20
0.769282200138321
30
0
41
1
10
80.3000000000001
20
0.814500888544359
30
0
41
1
10
80.3
20
0.831233269510847
30
0
41
1
10
80.3
20
0.867887787803738
30
0
41
1
10
80.3
20
0.887823105967442
30
0
41
1
10
80.3
20
0.952373736704061
30
0
41
1
10
80.3
20
1.0017295001355
30
0
41
1
10
80.3
20
1.11297075091221
30
0
41
1
10
80.3
20
1.17485293981085
30
0
41
1
10
80.3
20
1.27720804585468
30
0
41
1
10
80.3
20
1.31291469872463
30
0
41
1
10
80.3
20
1.36890201436771
30
0
41
1
10
80.3
20
1.38796960395223
30
0
41
1
10
80.3
20
1.42692196678445
30
0
41
1
10
80.3
20
1.44676148058011
30
0
41
1
10
80.3
20
1.54754372014176
30
0
41
1
10
80.3
20
1.63344769149978
30
0
41
1
10
80.3000000000001
20
1.81552102926457
30
0
41
1
10
80.3
20
1.91168888361398
30
0
41
1
10
80.3
20
2.1142477240887
30
0
41
1
10
80.3
20
2.27383060695814
30
0
41
1
10
80.3
20
2.44514164925261
30
0
41
1
10
80.3
20
2.53279430566937
30
0
41
1
10
80.3
20
2.56229353915211
30
0
41
1
10
80.3
20
2.62167584093765
30
0
41
1
10
80.3
20
2.77122370757371
30
0
41
1
10
80.3
20
2.92616844656843
30
0
41
1
10
80.3
20
3.18082763463443
30
0
41
1
10
80.3
20
3.31153034396715
30
0
41
1
10
80.3
20
3.57970146775801
30
0
41
1
10
80.3
20
3.71716394607645
30
0
41
1
10
80.3
20
3.89331150788226
30
0
41
1
10
80.3
20
3.92881351042951
30
0
41
1
10
80.3
20
3.98276819038756
30
0
41
1
10
80.3
20
4.00087506645733
30
0
41
1
10
80.3
20
4.03711733930072
30
0
41
1
10
80.3
20
4.12790486892467
30
0
41
1
10
80.2999999999999
20
4.21958563857598
30
0
41
1
10
80.3
20
4.44127994708867
30
0
41
1
10
80.3
20
4.59129732448355
30
0
41
1
10
80.3000000000001
20
4.78162843265028
30
0
41
1
10
80.3
20
4.8198434834882
30
0
41
1
10
80.3
20
4.89653715382118
30
0
41
1
10
80.3
20
4.9347419401671
30
0
41
1
10
80.3
20
5.04894105908338
30
0
41
1
10
80.3
20
5.12452160801536
30
0
41
1
10
80.3
20
5.19956044767514
30
0
0
SPLINE
5
FE
100
AcDbEntity
8
1
62
256
6
ByLayer
370
18
48
1
60
0
100
AcDbSpline
70
4
71
3
72
14
73
10
40
0
40
0
40
0
40
0
40
0.500000000000016
40
0.500000000000016
40
0.750000000000023
40
0.750000000000023
40
0.875000000000011
40
0.875000000000011
40
1
40
1
40
1
40
1
41
1
10
80.3
20
5.19956044767514
30
0
41
1
10
80.2017553690427
20
5.30077150001176
30
0
41
1
10
80.1026236489188
20
5.40166025739313
30
0
41
1
10
79.9526316731987
20
5.55289263954424
30
0
41
1
10
79.9024236287259
20
5.60328151443241
30
0
41
1
10
79.8267690546179
20
5.6789115409575
30
0
41
1
10
79.80149485309
20
5.70412830682537
30
0
41
1
10
79.7508289050558
20
5.75459043306296
30
0
41
1
10
79.7254260834193
20
5.77984763143181
30
0
41
1
10
79.7000000634013
20
5.80508614546488
30
0
0
SPLINE
5
FF
100
AcDbEntity
8
1
62
256
6
ByLayer
370
18
48
1
60
0
100
AcDbSpline
70
4
71
3
72
10
73
6
40
0
40
0
40
0
40
0
40
0.5
40
0.5
40
1
40
1
40
1
40
1
41
1
10
79.7000000634013
20
5.80508614546488
30
0
41
1
10
79.6221807523479
20
5.82455828887618
30
0
41
1
10
79.5444846198675
20
5.84317624387242
30
0
41
1
10
79.3896955381686
20
5.8785700745878
30
0
41
1
10
79.3125535341343
20
5.89535879159752
30
0
41
1
10
79.2356278994829
20
5.91123176232435
30
0
0
SPLINE
5
100
100
AcDbEntity
8
1
62
256
6
ByLayer
370
18
48
1
60
0
100
AcDbSpline
70
4
71
3
72
35
73
31
40
0
40
0
40
0
40
0
40
0.124999999999956
40
0.124999999999956
40
0.187499999999934
40
0.187499999999934
40
0.249999999999913
40
0.312499999999892
40
0.312499999999892
40
0.37499999999987
40
0.37499999999987
40
0.499999999999872
40
0.499999999999872
40
0.562499999999873
40
0.562499999999873
40
0.624999999999874
40
0.624999999999874
40
0.749999999999876
40
0.749999999999876
40
0.781249999999888
40
0.781249999999888
40
0.8124999999999
40
0.8124999999999
40
0.874999999999923
40
0.874999999999923
40
0.906249999999934
40
0.906249999999934
40
0.937499999999945
40
0.937499999999945
40
1
40
1
40
1
40
1
41
1
10
79.2356278994829
20
5.91123176232435
30
0
41
1
10
79.2202893429532
20
5.8924540402075
30
0
41
1
10
79.2032954485018
20
5.87582726930384
30
0
41
1
10
79.1756040214208
20
5.85374665238029
30
0
41
1
10
79.1660740838412
20
5.84692908328242
30
0
41
1
10
79.1465795474039
20
5.83439966083122
30
0
41
1
10
79.1266104022035
20
5.82294474740326
30
0
41
1
10
79.1057303665754
20
5.81356966663151
30
0
41
1
10
79.0843980336234
20
5.80523947015186
30
0
41
1
10
79.0734615455648
20
5.80158673802762
30
0
41
1
10
79.0404191246473
20
5.7923769748852
30
0
41
1
10
79.0180220242933
20
5.78850232367932
30
0
41
1
10
78.9839006408727
20
5.78624541920251
30
0
41
1
10
78.9724385260825
20
5.78609050256773
30
0
41
1
10
78.9493322748093
20
5.7870742421255
30
0
41
1
10
78.937646560649
20
5.78821897688243
30
0
41
1
10
78.9025774707139
20
5.79379969374267
30
0
41
1
10
78.8795704521469
20
5.80025853472864
30
0
41
1
10
78.8514291723915
20
5.8124790040371
30
0
41
1
10
78.8458322824752
20
5.81513400998949
30
0
41
1
10
78.8347075769396
20
5.82090179258645
30
0
41
1
10
78.8291785577422
20
5.82401766339595
30
0
41
1
10
78.8129387327822
20
5.83396641121189
30
0
41
1
10
78.8024959159156
20
5.84143381846584
30
0
41
1
10
78.7874799107078
20
5.85403975063005
30
0
41
1
10
78.7825830218053
20
5.85847681571053
30
0
41
1
10
78.7730248270151
20
5.86786178182186
30
0
41
1
10
78.7683456375409
20
5.87283142951452
30
0
41
1
10
78.7548704159184
20
5.88838392114801
30
0
41
1
10
78.7466164341719
20
5.8996066138007
30
0
41
1
10
78.7391786473565
20
5.9117889245093
30
0
0
SPLINE
5
101
100
AcDbEntity
8
1
62
256
6
ByLayer
370
18
48
1
60
0
100
AcDbSpline
70
4
71
3
72
8
73
4
40
0
40
0
40
0
40
0
40
1
40
1
40
1
40
1
41
1
10
78.7391786473565
20
5.91178892450932
30
0
41
1
10
78.7190303747828
20
5.9447896709448
30
0
41
1
10
78.6989000403848
20
5.97769953875016
30
0
41
1
10
78.6787872983728
20
6.01051568525679
30
0
0
SPLINE
5
102
100
AcDbEntity
8
1
62
256
6
ByLayer
370
18
48
1
60
0
100
AcDbSpline
70
4
71
3
72
14
73
10
40
0
40
0
40
0
40
0
40
0.50000000000001
40
0.50000000000001
40
0.625000000000012
40
0.625000000000012
40
0.750000000000015
40
0.750000000000015
40
1
40
1
40
1
40
1
41
1
10
78.6787872983728
20
6.01051568525676
30
0
41
1
10
78.4681777352722
20
6.04201096441969
30
0
41
1
10
78.2587473445346
20
6.0662941021431
30
0
41
1
10
77.9977206008862
20
6.08739504439731
30
0
41
1
10
77.9455555970229
20
6.0911507229026
30
0
41
1
10
77.841528672121
20
6.09771197100363
30
0
41
1
10
77.7896392787722
20
6.10051904868729
30
0
41
1
10
77.6343074871697
20
6.10752692475987
30
0
41
1
10
77.5311497109041
20
6.11034132928515
30
0
41
1
10
77.4283956640897
20
6.11127727111247
30
0
0
SPLINE
5
103
100
AcDbEntity
8
1
62
256
6
ByLayer
370
18
48
1
60
0
100
AcDbSpline
70
4
71
3
72
8
73
4
40
0
40
0
40
0
40
0
40
1
40
1
40
1
40
1
41
1
10
77.4283956640897
20
6.11127727111247
30
0
41
1
10
77.3430485158241
20
5.94742177540709
30
0
41
1
10
77.2573455577182
20
5.78176156248128
30
0
41
1
10
77.1711671914117
20
5.61431134401661
30
0
0
SPLINE
5
104
100
AcDbEntity
8
1
62
256
6
ByLayer
370
18
48
1
60
0
100
AcDbSpline
70
4
71
3
72
34
73
30
40
0
40
0
40
0
40
0
40
0.124999999999999
40
0.124999999999999
40
0.187499999999999
40
0.187499999999999
40
0.249999999999999
40
0.249999999999999
40
0.375000000000034
40
0.375000000000034
40
0.437500000000051
40
0.437500000000051
40
0.500000000000069
40
0.500000000000069
40
0.62500000000006
40
0.62500000000006
40
0.687500000000056
40
0.687500000000056
40
0.750000000000051
40
0.750000000000051
40
0.812500000000047
40
0.812500000000047
40
0.875000000000042
40
0.875000000000042
40
0.90625000000004
40
0.90625000000004
40
0.937500000000037
40
0.937500000000037
40
1
40
1
40
1
40
1
41
1
10
77.1711671914106
20
5.61431134401542
30
0
41
1
10
77.1571323863588
20
5.58704079720937
30
0
41
1
10
77.1408200185175
20
5.56232398382511
30
0
41
1
10
77.1136800742925
20
5.52822238321019
30
0
41
1
10
77.1041789028256
20
5.51736191283834
30
0
41
1
10
77.084308544897
20
5.4966094967065
30
0
41
1
10
77.074008822926
20
5.48679549627374
30
0
41
1
10
77.0423642967359
20
5.45918803533928
30
0
41
1
10
77.0201706312791
20
5.44308662561349
30
0
41
1
10
76.9853050389516
20
5.42230868342435
30
0
41
1
10
76.9734055193288
20
5.41595264242858
30
0
41
1
10
76.9494936131323
20
5.40461493090311
30
0
41
1
10
76.9374306222879
20
5.39960061398429
30
0
41
1
10
76.9009306647121
20
5.38655005658327
30
0
41
1
10
76.8761877214177
20
5.38046716471328
30
0
41
1
10
76.8384240227157
20
5.37596199290988
30
0
41
1
10
76.8257328640072
20
5.37525312205557
30
0
41
1
10
76.8007333061542
20
5.37559590378496
30
0
41
1
10
76.78835212561
20
5.37663487067601
30
0
41
1
10
76.7638665659539
20
5.38064423179716
30
0
41
1
10
76.7517210903384
20
5.3836258486611
30
0
41
1
10
76.7279440391381
20
5.39181781858218
30
0
41
1
10
76.716494268641
20
5.396959064296
30
0
41
1
10
76.70005869306
20
5.40642096594908
30
0
41
1
10
76.6947038521013
20
5.409867903719
30
0
41
1
10
76.6842631874713
20
5.41739899416788
30
0
41
1
10
76.6791597321636
20
5.42149912885793
30
0
41
1
10
76.6644242006328
20
5.43474627502215
30
0
41
1
10
76.6554453301121
20
5.44474354947351
30
0
41
1
10
76.6474170678408
20
5.45605904716189
30
0
0
SPLINE
5
105
100
AcDbEntity
8
1
62
256
6
ByLayer
370
18
48
1
60
0
100
AcDbSpline
70
4
71
3
72
10
73
6
40
0
40
0
40
0
40
0
40
0.5
40
0.5
40
1
40
1
40
1
40
1
41
1
10
76.6474170678383
20
5.45605904715876
30
0
41
1
10
76.5761759952835
20
5.55647033973509
30
0
41
1
10
76.5051523515214
20
5.65479301266214
30
0
41
1
10
76.3635377097342
20
5.84712707977437
30
0
41
1
10
76.2929784179651
20
5.94111155542149
30
0
41
1
10
76.2226961090959
20
6.03284365058096
30
0
0
SPLINE
5
106
100
AcDbEntity
8
1
62
256
6
ByLayer
370
18
48
1
60
0
100
AcDbSpline
70
4
71
3
72
8
73
4
40
0
40
0
40
0
40
0
40
1
40
1
40
1
40
1
41
1
10
76.2226961090959
20
6.03284365058093
30
0
41
1
10
76.0197221007643
20
6.00397611828669
30
0
41
1
10
75.8179696816034
20
5.96705412508936
30
0
41
1
10
75.6166961689701
20
5.92223273623958
30
0
0
SPLINE
5
107
100
AcDbEntity
8
1
62
256
6
ByLayer
370
18
48
1
60
0
100
AcDbSpline
70
4
71
3
72
12
73
8
40
0
40
0
40
0
40
0
40
0.25
40
0.25
40
0.5
40
0.5
40
1
40
1
40
1
40
1
41
1
10
75.6166961689701
20
5.92223273623958
30
0
41
1
10
75.5723698385806
20
5.83049396462508
30
0
41
1
10
75.5279300345709
20
5.73856971977517
30
0
41
1
10
75.4387894676093
20
5.55436280666248
30
0
41
1
10
75.39408419957
20
5.46206957430709
30
0
41
1
10
75.2597430481445
20
5.18507923886165
30
0
41
1
10
75.1698285621825
20
5.00013655162178
30
0
41
1
10
75.0793962332562
20
4.81497333711275
30
0
0
SPLINE
5
108
100
AcDbEntity
8
1
62
256
6
ByLayer
370
18
48
1
60
0
100
AcDbSpline
70
4
71
3
72
14
73
10
40
0
40
0
40
0
40
0
40
0.392907161517282
40
0.392907161517282
40
0.589360742275928
40
0.589360742275928
40
0.785814323034573
40
0.785814323034573
40
1
40
1
40
1
40
1
41
1
10
75.0793962332562
20
4.81497333711275
30
0
41
1
10
75.0653566275429
20
4.7862267754
30
0
41
1
10
75.0490391076476
20
4.75940349277025
30
0
41
1
10
75.021890016751
20
4.72141600808439
30
0
41
1
10
75.0123855755201
20
4.70913621684963
30
0
41
1
10
74.9925082936312
20
4.68530779164519
30
0
41
1
10
74.9822148438122
20
4.6738585791559
30
0
41
1
10
74.9601702733804
20
4.65101037421329
30
0
41
1
10
74.9483454067346
20
4.63966864999688
30
0
41
1
10
74.9362014139759
20
4.62889408515218
30
0
0
SPLINE
5
109
100
AcDbEntity
8
1
62
256
6
ByLayer
370
18
48
1
60
0
100
AcDbSpline
70
4
71
3
72
10
73
6
40
0
40
0
40
0
40
0
40
0.5
40
0.5
40
1
40
1
40
1
40
1
41
1
10
69.2557346062466
20
5.94146478144219
30
0
41
1
10
69.3703888579763
20
6.13785663072383
30
0
41
1
10
69.4840477881797
20
6.33116650396497
30
0
41
1
10
69.7099850324991
20
6.71160499422595
30
0
41
1
10
69.8219858238869
20
6.89826390463384
30
0
41
1
10
69.9332266210013
20
7.08123225119795
30
0
0
SPLINE
5
10A
100
AcDbEntity
8
1
62
256
6
ByLayer
370
18
48
1
60
0
100
AcDbSpline
70
4
71
3
72
8
73
4
40
0
40
0
40
0
40
0
40
1
40
1
40
1
40
1
41
1
10
70.1434644051531
20
7.07536452731259
30
0
41
1
10
70.0732628736689
20
7.07830934185998
30
0
41
1
10
70.003185798539
20
7.08026289209428
30
0
41
1
10
69.9332266210012
20
7.08123225119812
30
0
0
SPLINE
5
10B
100
AcDbEntity
8
1
62
256
6
ByLayer
370
18
48
1
60
0
100
AcDbSpline
70
4
71
3
72
10
73
6
40
0
40
0
40
0
40
0
40
0.13948423116984
40
0.13948423116984
40
1
40
1
40
1
40
1
41
1
10
70.4257323430977
20
6.59265813244622
30
0
41
1
10
70.4440597906068
20
6.56105494868063
30
0
41
1
10
70.4624130868093
20
6.52936108807808
30
0
41
1
10
70.5941844323717
20
6.30149544670331
30
0
41
1
10
70.7083227009671
20
6.10246517389118
30
0
41
1
10
70.8234922572122
20
5.90059777068146
30
0
0
SPLINE
5
10C
100
AcDbEntity
8
1
62
256
6
ByLayer
370
18
48
1
60
0
100
AcDbSpline
70
4
71
3
72
34
73
30
40
0
40
0
40
0
40
0
40
0.0624999999999715
40
0.0624999999999715
40
0.124999999999943
40
0.124999999999943
40
0.187499999999914
40
0.187499999999914
40
0.249999999999886
40
0.249999999999886
40
0.312499999999857
40
0.312499999999857
40
0.374999999999829
40
0.374999999999829
40
0.499999999999812
40
0.499999999999812
40
0.562499999999826
40
0.562499999999826
40
0.62499999999984
40
0.62499999999984
40
0.749999999999866
40
0.749999999999866
40
0.8124999999999
40
0.8124999999999
40
0.874999999999933
40
0.874999999999933
40
0.937499999999967
40
0.937499999999967
40
1
40
1
40
1
40
1
41
1
10
70.8234922572122
20
5.90059777068146
30
0
41
1
10
70.8310686910756
20
5.88731791548832
30
0
41
1
10
70.839338436551
20
5.87494576282478
30
0
41
1
10
70.8570350496447
20
5.8517095027585
30
0
41
1
10
70.8664640390793
20
5.84084829689707
30
0
41
1
10
70.8863621266725
20
5.82048011584391
30
0
41
1
10
70.8968965459644
20
5.81093024968885
30
0
41
1
10
70.9184364522297
20
5.79350233518122
30
0
41
1
10
70.9294791677695
20
5.78557402050149
30
0
41
1
10
70.952048396332
20
5.77112573321079
30
0
41
1
10
70.9635752678046
20
5.7646068069939
30
0
41
1
10
70.9870790654277
20
5.75290029492371
30
0
41
1
10
70.9991056414346
20
5.74769559349718
30
0
41
1
10
71.0354743600692
20
5.73418630193456
30
0
41
1
10
71.0599012622852
20
5.72800301131869
30
0
41
1
10
71.0967363413537
20
5.72272153807654
30
0
41
1
10
71.1090475967794
20
5.72163398501493
30
0
41
1
10
71.1337274332584
20
5.72085319147754
30
0
41
1
10
71.1459732034794
20
5.721167130206
30
0
41
1
10
71.1821596505875
20
5.72421373927122
30
0
41
1
10
71.2056662628015
20
5.72900875865284
30
0
41
1
10
71.2398303898063
20
5.74088336355717
30
0
41
1
10
71.2510682651787
20
5.74564781244658
30
0
41
1
10
71.2729661543314
20
5.75691788250384
30
0
41
1
10
71.283480724252
20
5.76334346190669
30
0
41
1
10
71.3035639428347
20
5.77791174571044
30
0
41
1
10
71.3131337416555
20
5.78605221600697
30
0
41
1
10
71.3311815180226
20
5.80431880871674
30
0
41
1
10
71.3396649989367
20
5.8144741191449
30
0
41
1
10
71.3472978119563
20
5.82556970322338
30
0
0
SPLINE
5
10D
100
AcDbEntity
8
1
62
256
6
ByLayer
370
18
48
1
60
0
100
AcDbSpline
70
4
71
3
72
10
73
6
40
0
40
0
40
0
40
0
40
0.5
40
0.5
40
1
40
1
40
1
40
1
41
1
10
71.3472978119608
20
5.82556970323208
30
0
41
1
10
71.4619677113426
20
5.99226178735589
30
0
41
1
10
71.5756457475477
20
6.15363965596009
30
0
41
1
10
71.8015968030692
20
6.46581072097868
30
0
41
1
10
71.9136040906941
20
6.61623762015819
30
0
41
1
10
72.0248579166626
20
6.76095931198253
30
0
0
SPLINE
5
10E
100
AcDbEntity
8
1
62
256
6
ByLayer
370
18
48
1
60
0
100
AcDbSpline
70
4
71
3
72
8
73
4
40
0
40
0
40
0
40
0
40
1
40
1
40
1
40
1
41
1
10
72.2350985871124
20
6.69723471725476
30
0
41
1
10
72.1649938015113
20
6.71940922020511
30
0
41
1
10
72.0949152718185
20
6.74065157807291
30
0
41
1
10
72.0248579166626
20
6.76095931198253
30
0
0
SPLINE
5
10F
100
AcDbEntity
8
1
62
256
6
ByLayer
370
18
48
1
60
0
100
AcDbSpline
70
4
71
3
72
10
73
6
40
0
40
0
40
0
40
0
40
0.5
40
0.5
40
1
40
1
40
1
40
1
41
1
10
72.2350985871124
20
6.69723471725476
30
0
41
1
10
72.3466459966091
20
6.48664779867511
30
0
41
1
10
72.459010226552
20
6.27489095442814
30
0
41
1
10
72.6857724203794
20
5.84955053111815
30
0
41
1
10
72.7999004659245
20
5.63647642626549
30
0
41
1
10
72.9150542194393
20
5.4231375560878
30
0
0
SPLINE
5
110
100
AcDbEntity
8
1
62
256
6
ByLayer
370
18
48
1
60
0
100
AcDbSpline
70
4
71
3
72
34
73
30
40
0
40
0
40
0
40
0
40
0.0625000000000262
40
0.0625000000000262
40
0.125000000000052
40
0.125000000000052
40
0.187500000000078
40
0.187500000000078
40
0.250000000000105
40
0.250000000000105
40
0.312500000000131
40
0.312500000000131
40
0.375000000000157
40
0.375000000000157
40
0.500000000000168
40
0.500000000000168
40
0.562500000000174
40
0.562500000000174
40
0.62500000000018
40
0.62500000000018
40
0.750000000000147
40
0.750000000000147
40
0.812500000000111
40
0.812500000000111
40
0.875000000000074
40
0.875000000000074
40
0.937500000000037
40
0.937500000000037
40
1
40
1
40
1
40
1
41
1
10
72.9150542194394
20
5.4231375560878
30
0
41
1
10
72.9226340234894
20
5.40909488024923
30
0
41
1
10
72.9309080378885
20
5.39574038430914
30
0
41
1
10
72.948614498353
20
5.37017679961988
30
0
41
1
10
72.9580490719912
20
5.35796987287472
30
0
41
1
10
72.977959468822
20
5.33458495059048
30
0
41
1
10
72.9885000938089
20
5.32335320878477
30
0
41
1
10
73.0100493343662
20
5.30234238889332
30
0
41
1
10
73.0210966180696
20
5.29250678187816
30
0
41
1
10
73.0436748256426
20
5.27403404925761
30
0
41
1
10
73.0552061083605
20
5.26539781540137
30
0
41
1
10
73.078718658107
20
5.24925535831218
30
0
41
1
10
73.0907508539168
20
5.24172143939714
30
0
41
1
10
73.1271219650315
20
5.22100112118366
30
0
41
1
10
73.1515504155756
20
5.20974594752454
30
0
41
1
10
73.1883886596345
20
5.19646096951271
30
0
41
1
10
73.2007011085847
20
5.19263893736772
30
0
41
1
10
73.2253837434585
20
5.18624746995741
30
0
41
1
10
73.2376214233687
20
5.18371481829203
30
0
41
1
10
73.2737985813982
20
5.17814074820782
30
0
41
1
10
73.2973014134352
20
5.17706284976339
30
0
41
1
10
73.3314589002075
20
5.17989575587546
30
0
41
1
10
73.3426993161009
20
5.18159879353124
30
0
41
1
10
73.3645778011103
20
5.186689015696
30
0
41
1
10
73.3750835178296
20
5.19003975751542
30
0
41
1
10
73.3951507537759
20
5.19849058144661
30
0
41
1
10
73.4047134522581
20
5.20358840535397
30
0
41
1
10
73.4227492372947
20
5.21580850271027
30
0
41
1
10
73.4312256569561
20
5.22295390586342
30
0
41
1
10
73.4388533171837
20
5.23113606372144
30
0
0
SPLINE
5
111
100
AcDbEntity
8
1
62
256
6
ByLayer
370
18
48
1
60
0
100
AcDbSpline
70
4
71
3
72
12
73
8
40
0
40
0
40
0
40
0
40
0.249999999999997
40
0.249999999999997
40
0.499999999999993
40
0.499999999999993
40
1
40
1
40
1
40
1
41
1
10
73.4388533171886
20
5.23113606373101
30
0
41
1
10
73.4962053945796
20
5.29265738701295
30
0
41
1
10
73.5532986913618
20
5.35234381932486
30
0
41
1
10
73.6670744998446
20
5.46822893972566
30
0
41
1
10
73.7237554100285
20
5.52442178319185
30
0
41
1
10
73.8932701538019
20
5.68773621596017
30
0
41
1
10
74.0053099794705
20
5.78933020102849
30
0
41
1
10
74.1165856030349
20
5.88367826354602
30
0
0
SPLINE
5
112
100
AcDbEntity
8
1
62
256
6
ByLayer
370
18
48
1
60
0
100
AcDbSpline
70
4
71
3
72
8
73
4
40
0
40
0
40
0
40
0
40
1
40
1
40
1
40
1
41
1
10
74.3268313780386
20
5.76734717102789
30
0
41
1
10
74.2568132993107
20
5.80687925687982
30
0
41
1
10
74.1867331043772
20
5.84565932437513
30
0
41
1
10
74.1165856030356
20
5.88367826354505
30
0
0
SPLINE
5
113
100
AcDbEntity
8
1
62
256
6
ByLayer
370
18
48
1
60
0
100
AcDbSpline
70
4
71
3
72
10
73
6
40
0
40
0
40
0
40
0
40
0.5
40
0.5
40
1
40
1
40
1
40
1
41
1
10
74.3268313780375
20
5.76734717101763
30
0
41
1
10
74.4383717475625
20
5.55275465508169
30
0
41
1
10
74.5506902492636
20
5.33958026189825
30
0
41
1
10
74.7774010438955
20
4.91644239196606
30
0
41
1
10
74.8914949105325
20
4.70704026673556
30
0
41
1
10
75.0066119587267
20
4.49997633529085
30
0
0
SPLINE
5
114
100
AcDbEntity
8
1
62
256
6
ByLayer
370
18
48
1
60
0
100
AcDbSpline
70
4
71
3
72
34
73
30
40
0
40
0
40
0
40
0
40
0.0625000000000004
40
0.0625000000000004
40
0.125000000000001
40
0.125000000000001
40
0.187500000000001
40
0.187500000000001
40
0.250000000000001
40
0.250000000000001
40
0.312500000000001
40
0.312500000000001
40
0.375000000000001
40
0.375000000000001
40
0.499999999999999
40
0.499999999999999
40
0.562499999999998
40
0.562499999999998
40
0.624999999999997
40
0.624999999999997
40
0.749999999999999
40
0.749999999999999
40
0.812499999999999
40
0.812499999999999
40
0.874999999999999
40
0.874999999999999
40
0.9375
40
0.9375
40
1
40
1
40
1
40
1
41
1
10
75.0066119587267
20
4.49997633529085
30
0
41
1
10
75.0141961502618
20
4.48633445912455
30
0
41
1
10
75.0224757129973
20
4.47310277566518
30
0
41
1
10
75.0401951236591
20
4.44732510484673
30
0
41
1
10
75.049637105717
20
4.43478035366041
30
0
41
1
10
75.069564034895
20
4.41030747624589
30
0
41
1
10
75.080113217079
20
4.39831933821458
30
0
41
1
10
75.1016766397957
20
4.375456365134
30
0
41
1
10
75.1127310724139
20
4.36452298416549
30
0
41
1
10
75.1353236021108
20
4.34354507878788
30
0
41
1
10
75.1468620590495
20
4.33350121657691
30
0
41
1
10
75.170388900494
20
4.31424819974075
30
0
41
1
10
75.1824296293611
20
4.30500250207089
30
0
41
1
10
75.218808996304
20
4.27877411229144
30
0
41
1
10
75.2432418478009
20
4.26337058442982
30
0
41
1
10
75.280084527417
20
4.24316816605202
30
0
41
1
10
75.2923980908404
20
4.23692324810403
30
0
41
1
10
75.3170820917915
20
4.22543958387598
30
0
41
1
10
75.3293078370754
20
4.22026960970567
30
0
41
1
10
75.3654669414661
20
4.20652460438015
30
0
41
1
10
75.3889579644829
20
4.19965043694586
30
0
41
1
10
75.4231005996751
20
4.19318531379088
30
0
41
1
10
75.434342491719
20
4.1916753685714
30
0
41
1
10
75.456195183057
20
4.19015840942802
30
0
41
1
10
75.4666903444082
20
4.19015394670816
30
0
41
1
10
75.4867408328139
20
4.19178304460232
30
0
41
1
10
75.4962973176277
20
4.19341442520965
30
0
41
1
10
75.5143245317272
20
4.19857434702362
30
0
41
1
10
75.5227947511077
20
4.20211913911598
30
0
41
1
10
75.5304182595158
20
4.20671141949478
30
0
0
SPLINE
5
115
100
AcDbEntity
8
1
62
256
6
ByLayer
370
18
48
1
60
0
100
AcDbSpline
70
4
71
3
72
22
73
18
40
0
40
0
40
0
40
0
40
0.0452530016578425
40
0.0452530016578425
40
0.236202401326268
40
0.236202401326268
40
0.331677101160483
40
0.331677101160483
40
0.427151800994698
40
0.427151800994698
40
0.618101200663127
40
0.618101200663127
40
0.713575900497346
40
0.713575900497346
40
0.809050600331564
40
0.809050600331564
40
1
40
1
40
1
40
1
41
1
10
71.9413361927699
20
-5.82446194854805
30
0
41
1
10
71.9383630513086
20
-5.82525095535328
30
0
41
1
10
71.9353961500697
20
-5.82608539274614
30
0
41
1
10
71.9199436591655
20
-5.83068198669548
30
0
41
1
10
71.9075654862583
20
-5.83521669603144
30
0
41
1
10
71.8891981475645
20
-5.84339340371318
30
0
41
1
10
71.8831091452427
20
-5.84634895509802
30
0
41
1
10
71.87100485623
20
-5.85275826037187
30
0
41
1
10
71.8649687741252
20
-5.85622522616652
30
0
41
1
10
71.847144358598
20
-5.8673482558616
30
0
41
1
10
71.8356932528179
20
-5.87567795184052
30
0
41
1
10
71.8192463870919
20
-5.88971049182547
30
0
41
1
10
71.8138862339701
20
-5.89464547443967
30
0
41
1
10
71.8034320739112
20
-5.90507654437874
30
0
41
1
10
71.79831785708
20
-5.91059682610239
30
0
41
1
10
71.7835771271956
20
-5.92790569673468
30
0
41
1
10
71.7745910854261
20
-5.94036765208767
30
0
41
1
10
71.766553999403
20
-5.95387357491475
30
0
0
SPLINE
5
116
100
AcDbEntity
8
1
62
256
6
ByLayer
370
18
48
1
60
0
100
AcDbSpline
70
4
71
3
72
14
73
10
40
0
40
0
40
0
40
0
40
0.25
40
0.25
40
0.5
40
0.5
40
0.75
40
0.75
40
1
40
1
40
1
40
1
41
1
10
71.7665539994026
20
-5.95387357491461
30
0
41
1
10
71.7105553313349
20
-6.04797654795379
30
0
41
1
10
71.6546958391953
20
-6.14155286393901
30
0
41
1
10
71.5432189585341
20
-6.32762771387547
30
0
41
1
10
71.4876444663727
20
-6.42005673889037
30
0
41
1
10
71.3768104346239
20
-6.60364638066517
30
0
41
1
10
71.321524107983
20
-6.69485213220628
30
0
41
1
10
71.2113434536992
20
-6.87578433846508
30
0
41
1
10
71.1564421712798
20
-6.96552143382814
30
0
41
1
10
71.1017050230121
20
-7.05452353045959
30
0
0
SPLINE
5
117
100
AcDbEntity
8
1
62
256
6
ByLayer
370
18
48
1
60
0
100
AcDbSpline
70
4
71
3
72
8
73
4
40
0
40
0
40
0
40
0
40
1
40
1
40
1
40
1
41
1
10
70.8914365707029
20
-7.03355289288851
30
0
41
1
10
70.9615233723421
20
-7.04152471583996
30
0
41
1
10
71.0316126349213
20
-7.04851537951859
30
0
41
1
10
71.1017050230121
20
-7.05452353045959
30
0
0
SPLINE
5
118
100
AcDbEntity
8
1
62
256
6
ByLayer
370
18
48
1
60
0
100
AcDbSpline
70
4
71
3
72
12
73
8
40
0
40
0
40
0
40
0
40
0.250000000000003
40
0.250000000000003
40
0.500000000000005
40
0.500000000000005
40
1
40
1
40
1
40
1
41
1
10
70.8914365707029
20
-7.03355289288851
30
0
41
1
10
70.8344153259229
20
-6.93243840562084
30
0
41
1
10
70.7772330899269
20
-6.83013404755343
30
0
41
1
10
70.6624886232316
20
-6.62316612709046
30
0
41
1
10
70.6049074261444
20
-6.51846733929421
30
0
41
1
10
70.431666671482
20
-6.20114476353507
30
0
41
1
10
70.3154993394365
20
-5.98527398075933
30
0
41
1
10
70.1986666291091
20
-5.76560235355691
30
0
0
SPLINE
5
119
100
AcDbEntity
8
1
62
256
6
ByLayer
370
18
48
1
60
0
100
AcDbSpline
70
4
71
3
72
36
73
32
40
0
40
0
40
0
40
0
40
0.125
40
0.125
40
0.187500000000001
40
0.187500000000001
40
0.250000000000003
40
0.250000000000003
40
0.374999999999969
40
0.374999999999969
40
0.437499999999971
40
0.437499999999971
40
0.499999999999974
40
0.499999999999974
40
0.625000000000023
40
0.625000000000023
40
0.687500000000047
40
0.687500000000047
40
0.750000000000071
40
0.750000000000071
40
0.781250000000062
40
0.781250000000062
40
0.812500000000054
40
0.812500000000054
40
0.875000000000036
40
0.875000000000036
40
0.906250000000027
40
0.906250000000027
40
0.937500000000019
40
0.937500000000019
40
1
40
1
40
1
40
1
41
1
10
70.1986666291091
20
-5.7656023535568
30
0
41
1
10
70.1846107656861
20
-5.73917418646892
30
0
41
1
10
70.1682714665299
20
-5.71545309423809
30
0
41
1
10
70.141083542478
20
-5.6830172972578
30
0
41
1
10
70.1315648805129
20
-5.67274155955869
30
0
41
1
10
70.1116569642717
20
-5.65321527780642
30
0
41
1
10
70.1013691324596
20
-5.6440667379604
30
0
41
1
10
70.069716228512
20
-5.61845751626507
30
0
41
1
10
70.047511644444
20
-5.60375082591057
30
0
41
1
10
70.0126204356192
20
-5.58516593828367
30
0
41
1
10
70.0007366954392
20
-5.57957134539564
30
0
41
1
10
69.9768494092242
20
-5.56975730267888
30
0
41
1
10
69.9647961664258
20
-5.56550988990202
30
0
41
1
10
69.9283165340086
20
-5.55478027710805
30
0
41
1
10
69.9035752113906
20
-5.55027069050365
30
0
41
1
10
69.8657893031072
20
-5.54819735887511
30
0
41
1
10
69.8531286669563
20
-5.54831121340189
30
0
41
1
10
69.8281609966586
20
-5.55028044728925
30
0
41
1
10
69.815788691206
20
-5.5521294231545
30
0
41
1
10
69.7974263363053
20
-5.55635241428496
30
0
41
1
10
69.7913383612048
20
-5.55800258938837
30
0
41
1
10
69.7792347211621
20
-5.56182821823416
30
0
41
1
10
69.7731972333441
20
-5.56401304593766
30
0
41
1
10
69.7553842057856
20
-5.57136029032571
30
0
41
1
10
69.7439365264532
20
-5.57728712904066
30
0
41
1
10
69.7274889262565
20
-5.58791012804517
30
0
41
1
10
69.7221275376551
20
-5.59174125596005
30
0
41
1
10
69.7116691601007
20
-5.60003626159249
30
0
41
1
10
69.7065511217752
20
-5.60452128857872
30
0
41
1
10
69.6918112394504
20
-5.61886145062428
30
0
41
1
10
69.6828229437403
20
-5.6295511197994
30
0
41
1
10
69.674782040012
20
-5.64152229706215
30
0
0
SPLINE
5
11A
100
AcDbEntity
8
1
62
256
6
ByLayer
370
18
48
1
60
0
100
AcDbSpline
70
4
71
3
72
12
73
8
40
0
40
0
40
0
40
0
40
0.500000000000008
40
0.500000000000008
40
0.750000000000004
40
0.750000000000004
40
1
40
1
40
1
40
1
41
1
10
69.6747820400106
20
-5.64152229706053
30
0
41
1
10
69.5627856583534
20
-5.80826083577682
30
0
41
1
10
69.451277027192
20
-5.97067207073297
30
0
41
1
10
69.2850006026401
20
-6.20701209003283
30
0
41
1
10
69.2297049820165
20
-6.2846295312805
30
0
41
1
10
69.1195164054113
20
-6.43727577830902
30
0
41
1
10
69.0646144926575
20
-6.51231009659367
30
0
41
1
10
69.0098772952029
20
-6.58607094211627
30
0
0
SPLINE
5
11B
100
AcDbEntity
8
1
62
256
6
ByLayer
370
18
48
1
60
0
100
AcDbSpline
70
4
71
3
72
12
73
8
40
0
40
0
40
0
40
0
40
0.249999999999997
40
0.249999999999997
40
0.499999999999994
40
0.499999999999994
40
1
40
1
40
1
40
1
41
1
10
68.7995985255343
20
-6.50789731230282
30
0
41
1
10
68.7425757122257
20
-6.39242943695498
30
0
41
1
10
68.6853939260778
20
-6.27642496292114
30
0
41
1
10
68.5706536497738
20
-6.04336244810781
30
0
41
1
10
68.5130759370439
20
-5.92626352892197
30
0
41
1
10
68.3398506607207
20
-5.57375827859002
30
0
41
1
10
68.2236972257647
20
-5.33711362786335
30
0
41
1
10
68.1068590534639
20
-5.09949716805841
30
0
0
SPLINE
5
11C
100
AcDbEntity
8
1
62
256
6
ByLayer
370
18
48
1
60
0
100
AcDbSpline
70
4
71
3
72
10
73
6
40
0
40
0
40
0
40
0
40
0.5
40
0.5
40
1
40
1
40
1
40
1
41
1
10
60.1922762814402
20
-5.73424406575995
30
0
41
1
10
60.3068843741865
20
-5.94129566860499
30
0
41
1
10
60.4204946205556
20
-6.14707526454495
30
0
41
1
10
60.6462731884089
20
-6.55584629917524
30
0
41
1
10
60.7581509353615
20
-6.75832329311493
30
0
41
1
10
60.8692120974181
20
-6.95867049633114
30
0
0
SPLINE
5
11D
100
AcDbEntity
8
1
62
256
6
ByLayer
370
18
48
1
60
0
100
AcDbSpline
70
4
71
3
72
10
73
6
40
0
40
0
40
0
40
0
40
0.5
40
0.5
40
1
40
1
40
1
40
1
41
1
10
61.0794937055747
20
-6.99397785403013
30
0
41
1
10
61.191078346245
20
-6.82992404324989
30
0
41
1
10
61.3035150259642
20
-6.66053544675373
30
0
41
1
10
61.5305119203864
20
-6.3113664594911
30
0
41
1
10
61.644785084837
20
-6.13202218798446
30
0
41
1
10
61.7601344312095
20
-5.94800010949118
30
0
0
SPLINE
5
11E
100
AcDbEntity
8
1
62
256
6
ByLayer
370
18
48
1
60
0
100
AcDbSpline
70
4
71
3
72
34
73
30
40
0
40
0
40
0
40
0
40
0.0624999999999849
40
0.0624999999999849
40
0.12499999999997
40
0.12499999999997
40
0.187499999999955
40
0.187499999999955
40
0.24999999999994
40
0.24999999999994
40
0.312499999999925
40
0.312499999999925
40
0.37499999999991
40
0.37499999999991
40
0.499999999999921
40
0.499999999999921
40
0.562499999999906
40
0.562499999999906
40
0.62499999999989
40
0.62499999999989
40
0.749999999999901
40
0.749999999999901
40
0.812499999999926
40
0.812499999999926
40
0.87499999999995
40
0.87499999999995
40
0.937499999999975
40
0.937499999999975
40
1
40
1
40
1
40
1
41
1
10
61.7601344312095
20
-5.94800010949118
30
0
41
1
10
61.7676821661895
20
-5.93595886328905
30
0
41
1
10
61.7759169429656
20
-5.92492329326774
30
0
41
1
10
61.7935347053064
20
-5.90452269312652
30
0
41
1
10
61.8029197760446
20
-5.8951608586361
30
0
41
1
10
61.8227228697854
20
-5.87793746958866
30
0
41
1
10
61.8332084220017
20
-5.8700404907558
30
0
41
1
10
61.8546688453835
20
-5.85596716508923
30
0
41
1
10
61.8656725715864
20
-5.84975231948735
30
0
41
1
10
61.8881662048301
20
-5.83879847406143
30
0
41
1
10
61.8996564654699
20
-5.83406055826595
30
0
41
1
10
61.9230901870552
20
-5.82598293940384
30
0
41
1
10
61.9350741565412
20
-5.82263530160637
30
0
41
1
10
61.9714080180779
20
-5.81472919920535
30
0
41
1
10
61.9958202842351
20
-5.81232343579984
30
0
41
1
10
62.0326473558956
20
-5.8127883744036
30
0
41
1
10
62.0449582734449
20
-5.81362977402506
30
0
41
1
10
62.0696423668356
20
-5.81673857137602
30
0
41
1
10
62.0819423428751
20
-5.81900293914725
30
0
41
1
10
62.1182263845667
20
-5.82785629613838
30
0
41
1
10
62.1417930102374
20
-5.83648953633971
30
0
41
1
10
62.1760340068324
20
-5.85406698022794
30
0
41
1
10
62.1872629159979
20
-5.86070641348189
30
0
41
1
10
62.2092776634418
20
-5.8757757966446
30
0
41
1
10
62.2198403583679
20
-5.88405424337634
30
0
41
1
10
62.2400004237439
20
-5.90222102683148
30
0
41
1
10
62.2495989303409
20
-5.91210734634592
30
0
41
1
10
62.2676857283704
20
-5.93373424693394
30
0
41
1
10
62.2761914726317
20
-5.94552092974916
30
0
41
1
10
62.2838383610933
20
-5.95813477905884
30
0
0
SPLINE
5
11F
100
AcDbEntity
8
1
62
256
6
ByLayer
370
18
48
1
60
0
100
AcDbSpline
70
4
71
3
72
10
73
6
40
0
40
0
40
0
40
0
40
0.5
40
0.5
40
1
40
1
40
1
40
1
41
1
10
62.2838383610932
20
-5.95813477905887
30
0
41
1
10
62.3984856331298
20
-6.14725005391651
30
0
41
1
10
62.5121263947448
20
-6.33261528468449
30
0
41
1
10
62.7379426543455
20
-6.69569228170442
30
0
41
1
10
62.8498283819299
20
-6.87292905763923
30
0
41
1
10
62.960909139134
20
-7.0457388995294
30
0
0
SPLINE
5
120
100
AcDbEntity
8
1
62
256
6
ByLayer
370
18
48
1
60
0
100
AcDbSpline
70
4
71
3
72
8
73
4
40
0
40
0
40
0
40
0
40
1
40
1
40
1
40
1
41
1
10
63.1711832613385
20
-7.02196846000152
30
0
41
1
10
63.1010399377468
20
-7.03088626073014
30
0
41
1
10
63.0309771559755
20
-7.03881200684867
30
0
41
1
10
62.960909139134
20
-7.0457388995294
30
0
0
SPLINE
5
121
100
AcDbEntity
8
1
62
256
6
ByLayer
370
18
48
1
60
0
100
AcDbSpline
70
4
71
3
72
10
73
6
40
0
40
0
40
0
40
0
40
0.5
40
0.5
40
1
40
1
40
1
40
1
41
1
10
63.1711832613385
20
-7.02196846000155
30
0
41
1
10
63.2827260331668
20
-6.82453677723569
30
0
41
1
10
63.3951316599914
20
-6.62406005446653
30
0
41
1
10
63.6220888807302
20
-6.21749242745713
30
0
41
1
10
63.7363520944138
20
-6.01191749263711
30
0
41
1
10
63.8516914691624
20
-5.80417552056977
30
0
0
SPLINE
5
122
100
AcDbEntity
8
1
62
256
6
ByLayer
370
18
48
1
60
0
100
AcDbSpline
70
4
71
3
72
34
73
30
40
0
40
0
40
0
40
0
40
0.0624999999999869
40
0.0624999999999869
40
0.124999999999974
40
0.124999999999974
40
0.187499999999961
40
0.187499999999961
40
0.249999999999947
40
0.249999999999947
40
0.312499999999934
40
0.312499999999934
40
0.374999999999921
40
0.374999999999921
40
0.499999999999937
40
0.499999999999937
40
0.562499999999945
40
0.562499999999945
40
0.624999999999953
40
0.624999999999953
40
0.749999999999969
40
0.749999999999969
40
0.812499999999976
40
0.812499999999976
40
0.874999999999984
40
0.874999999999984
40
0.937499999999992
40
0.937499999999992
40
1
40
1
40
1
40
1
41
1
10
63.8516914691624
20
-5.80417552056977
30
0
41
1
10
63.8592441300874
20
-5.79057214636777
30
0
41
1
10
63.8674851553702
20
-5.77781049271232
30
0
41
1
10
63.8851175038198
20
-5.75368747759816
30
0
41
1
10
63.8945109181833
20
-5.74232876499804
30
0
41
1
10
63.9143325776349
20
-5.72086950963003
30
0
41
1
10
63.9248279318951
20
-5.71071953648487
30
0
41
1
10
63.9463039010578
20
-5.69201939484978
30
0
41
1
10
63.9573153923592
20
-5.68342280324831
30
0
41
1
10
63.9798244284758
20
-5.66758086202196
30
0
41
1
10
63.9913223275777
20
-5.66033650558416
30
0
41
1
10
64.0147711182898
20
-5.64712530681547
30
0
41
1
10
64.0267651664194
20
-5.64114051476349
30
0
41
1
10
64.0631057953474
20
-5.62520946155576
30
0
41
1
10
64.0875213985898
20
-5.61735915944598
30
0
41
1
10
64.1243517508995
20
-5.60950076136879
30
0
41
1
10
64.1366634732828
20
-5.6075413637291
30
0
41
1
10
64.1613485897539
20
-5.60498990313818
30
0
41
1
10
64.1736364561255
20
-5.60441199406509
30
0
41
1
10
64.2098990606785
20
-5.60479939547369
30
0
41
1
10
64.2334532531641
20
-5.60782813780275
30
0
41
1
10
64.2676784718249
20
-5.61704896258442
30
0
41
1
10
64.278913008262
20
-5.62091545115931
30
0
41
1
10
64.3008973708593
20
-5.63044011957425
30
0
41
1
10
64.3114473028009
20
-5.63601091858595
30
0
41
1
10
64.3315863755045
20
-5.64890291591692
30
0
41
1
10
64.3411766537875
20
-5.65622187681345
30
0
41
1
10
64.3592513221703
20
-5.67287811070759
30
0
41
1
10
64.3677497680779
20
-5.68225219691848
30
0
41
1
10
64.375391125085
20
-5.69260760770177
30
0
0
SPLINE
5
123
100
AcDbEntity
8
1
62
256
6
ByLayer
370
18
48
1
60
0
100
AcDbSpline
70
4
71
3
72
10
73
6
40
0
40
0
40
0
40
0
40
0.5
40
0.5
40
1
40
1
40
1
40
1
41
1
10
64.3753911250849
20
-5.6926076077026
30
0
41
1
10
64.4900564870206
20
-5.8479997617865
30
0
41
1
10
64.6037176785615
20
-5.99745771076635
30
0
41
1
10
64.8295810230202
20
-6.284453277625
30
0
41
1
10
64.941492044479
20
-6.42160182417217
30
0
41
1
10
65.0525853156555
20
-6.5523248954444
30
0
0
SPLINE
5
124
100
AcDbEntity
8
1
62
256
6
ByLayer
370
18
48
1
60
0
100
AcDbSpline
70
4
71
3
72
8
73
4
40
0
40
0
40
0
40
0
40
1
40
1
40
1
40
1
41
1
10
65.2628769768701
20
-6.47141673626194
30
0
41
1
10
65.1927039529596
20
-6.49930406038311
30
0
41
1
10
65.1226383399773
20
-6.52628581089743
30
0
41
1
10
65.0525853156554
20
-6.55232489544437
30
0
0
SPLINE
5
125
100
AcDbEntity
8
1
62
256
6
ByLayer
370
18
48
1
60
0
100
AcDbSpline
70
4
71
3
72
10
73
6
40
0
40
0
40
0
40
0
40
0.5
40
0.5
40
1
40
1
40
1
40
1
41
1
10
65.26287697687
20
-6.47141673626194
30
0
41
1
10
65.3744209453415
20
-6.25709059656384
30
0
41
1
10
65.4868196785103
20
-6.04228672571844
30
0
41
1
10
65.7137296893241
20
-5.61228692117137
30
0
41
1
10
65.82795657787
20
-5.39763135475869
30
0
41
1
10
65.9432545895498
20
-5.18347885635629
30
0
0
SPLINE
5
126
100
AcDbEntity
8
1
62
256
6
ByLayer
370
18
48
1
60
0
100
AcDbSpline
70
4
71
3
72
33
73
29
40
0
40
0
40
0
40
0
40
0.0625000000000182
40
0.0625000000000182
40
0.125000000000036
40
0.125000000000036
40
0.187500000000055
40
0.187500000000055
40
0.250000000000073
40
0.312500000000091
40
0.312500000000091
40
0.375000000000109
40
0.375000000000109
40
0.500000000000147
40
0.500000000000147
40
0.562500000000144
40
0.562500000000144
40
0.625000000000142
40
0.625000000000142
40
0.750000000000094
40
0.750000000000094
40
0.812500000000071
40
0.812500000000071
40
0.875000000000047
40
0.875000000000047
40
0.937500000000024
40
0.937500000000024
40
1
40
1
40
1
40
1
41
1
10
65.9432545895498
20
-5.18347885635629
30
0
41
1
10
65.950810964103
20
-5.16944377920396
30
0
41
1
10
65.9590567235339
20
-5.15601493386006
30
0
41
1
10
65.9767000977845
20
-5.13016827381961
30
0
41
1
10
65.9860998084673
20
-5.11775233079115
30
0
41
1
10
66.0059354308326
20
-5.09382948947712
30
0
41
1
10
66.0164381047245
20
-5.08226321615126
30
0
41
1
10
66.0379257975607
20
-5.06047529901454
30
0
41
1
10
66.0599601437276
20
-5.03992999275539
30
0
41
1
10
66.0829674938061
20
-5.02161301818654
30
0
41
1
10
66.1064276968677
20
-5.00434540594767
30
0
41
1
10
66.1184291464978
20
-4.99620921750787
30
0
41
1
10
66.1547755747047
20
-4.9735459661739
30
0
41
1
10
66.1791941762046
20
-4.96088191905221
30
0
41
1
10
66.2160276321259
20
-4.94531996645418
30
0
41
1
10
66.2283401553308
20
-4.94071136155159
30
0
41
1
10
66.2530263742405
20
-4.93268890989563
30
0
41
1
10
66.2653054978131
20
-4.92931003617537
30
0
41
1
10
66.3015531394252
20
-4.92117460712393
30
0
41
1
10
66.3250983273163
20
-4.91833101230571
30
0
41
1
10
66.3593117326804
20
-4.91840441949401
30
0
41
1
10
66.3705495220502
20
-4.91916230116976
30
0
41
1
10
66.3925117004336
20
-4.92234663612584
30
0
41
1
10
66.4030522354163
20
-4.92474457340882
30
0
41
1
10
66.4231757540277
20
-4.93128505757181
30
0
41
1
10
66.4327598768704
20
-4.93542533997825
30
0
41
1
10
66.4508254167008
20
-4.94571911102176
30
0
41
1
10
66.4593183923708
20
-4.9518997507333
30
0
41
1
10
66.4669558113664
20
-4.95913485669121
30
0
0
SPLINE
5
127
100
AcDbEntity
8
1
62
256
6
ByLayer
370
18
48
1
60
0
100
AcDbSpline
70
4
71
3
72
8
73
4
40
0
40
0
40
0
40
0
40
1
40
1
40
1
40
1
41
1
10
67.0475341347274
20
-5.44960660897411
30
0
41
1
10
67.0798401303321
20
-5.47343295181469
30
0
41
1
10
67.1120722441759
20
-5.49659928713385
30
0
41
1
10
67.1442352101773
20
-5.519103952568
30
0
0
SPLINE
5
128
100
AcDbEntity
8
1
62
256
6
ByLayer
370
18
48
1
60
0
100
AcDbSpline
70
4
71
3
72
8
73
4
40
0
40
0
40
0
40
0
40
1
40
1
40
1
40
1
41
1
10
67.3545457030424
20
-5.3877310663255
30
0
41
1
10
67.2843616849092
20
-5.43228752620536
30
0
41
1
10
67.2142919296587
20
-5.47610039660168
30
0
41
1
10
67.1442352101773
20
-5.51910395256797
30
0
0
SPLINE
5
129
100
AcDbEntity
8
1
62
256
6
ByLayer
370
18
48
1
60
0
100
AcDbSpline
70
4
71
3
72
8
73
4
40
0
40
0
40
0
40
0
40
1
40
1
40
1
40
1
41
1
10
67.3545457030424
20
-5.38773106632553
30
0
41
1
10
67.4542152227585
20
-5.19703375584433
30
0
41
1
10
67.5545660959794
20
-5.00802269213298
30
0
41
1
10
67.6557465472118
20
-4.82092005903442
30
0
0
SPLINE
5
12A
100
AcDbEntity
8
1
62
256
6
ByLayer
370
18
48
1
60
0
100
AcDbSpline
70
4
71
3
72
10
73
6
40
0
40
0
40
0
40
0
40
0.5
40
0.5
40
1
40
1
40
1
40
1
41
1
10
79.650807428387
20
-2.875252067465
30
0
41
1
10
79.6406052325753
20
-2.86927408738433
30
0
41
1
10
79.6302898562828
20
-2.86360080176553
30
0
41
1
10
79.6097091100163
20
-2.85307851109485
30
0
41
1
10
79.5994952655399
20
-2.84825265979919
30
0
41
1
10
79.5893671231695
20
-2.84388520281419
30
0
0
SPLINE
5
12B
100
AcDbEntity
8
1
62
256
6
ByLayer
370
18
48
1
60
0
100
AcDbSpline
70
4
71
3
72
10
73
6
40
0
40
0
40
0
40
0
40
0.5
40
0.5
40
1
40
1
40
1
40
1
41
1
10
79.5893671231691
20
-2.84388520281618
30
0
41
1
10
79.32521194648
20
-2.7081793739236
30
0
41
1
10
79.0641110486505
20
-2.56195928232461
30
0
41
1
10
78.5457004141367
20
-2.2505622229381
30
0
41
1
10
78.2884439315567
20
-2.08531469575752
30
0
41
1
10
78.0320855623955
20
-1.9114366988187
30
0
0
SPLINE
5
12C
100
AcDbEntity
8
1
62
256
6
ByLayer
370
18
48
1
60
0
100
AcDbSpline
70
4
71
3
72
8
73
4
40
0
40
0
40
0
40
0
40
1
40
1
40
1
40
1
41
1
10
78.0320855623955
20
-1.9114366988187
30
0
41
1
10
77.9776803893727
20
-1.81797722484211
30
0
41
1
10
77.923129660943
20
-1.72578718635918
30
0
41
1
10
77.8683855270023
20
-1.63494101190548
30
0
0
SPLINE
5
12D
100
AcDbEntity
8
1
62
256
6
ByLayer
370
18
48
1
60
0
100
AcDbSpline
70
4
71
3
72
34
73
30
40
0
40
0
40
0
40
0
40
0.125000000000048
40
0.125000000000048
40
0.187500000000072
40
0.187500000000072
40
0.250000000000096
40
0.250000000000096
40
0.375000000000108
40
0.375000000000108
40
0.437500000000114
40
0.437500000000114
40
0.50000000000012
40
0.50000000000012
40
0.62500000000009
40
0.62500000000009
40
0.687500000000075
40
0.687500000000075
40
0.750000000000061
40
0.750000000000061
40
0.812500000000046
40
0.812500000000046
40
0.875000000000031
40
0.875000000000031
40
0.906250000000023
40
0.906250000000023
40
0.937500000000014
40
0.937500000000014
40
1
40
1
40
1
40
1
41
1
10
77.8683855270023
20
-1.63494101190548
30
0
41
1
10
77.8543546791266
20
-1.61165725961831
30
0
41
1
10
77.8380518731151
20
-1.58835725097407
30
0
41
1
10
77.8109360685221
20
-1.55341191427593
30
0
41
1
10
77.8014445515218
20
-1.54176347424115
30
0
41
1
10
77.7815968328263
20
-1.51846613737965
30
0
41
1
10
77.7713101499401
20
-1.50690161543776
30
0
41
1
10
77.7397049731804
20
-1.47274202898814
30
0
41
1
10
77.7175394693793
20
-1.45054427305919
30
0
41
1
10
77.6827100919801
20
-1.41806270325205
30
0
41
1
10
77.6708196869531
20
-1.40736403345258
30
0
41
1
10
77.6469205079905
20
-1.38661133468753
30
0
41
1
10
77.6348616769453
20
-1.37650900361984
30
0
41
1
10
77.598368785083
20
-1.34701873618783
30
0
41
1
10
77.5736232481651
20
-1.32843300044485
30
0
41
1
10
77.5358507979148
20
-1.30236082621826
30
0
41
1
10
77.5231458580538
20
-1.29397848748329
30
0
41
1
10
77.4981188321264
20
-1.27828221979266
30
0
41
1
10
77.4857234059641
20
-1.27091566386449
30
0
41
1
10
77.4612081373482
20
-1.25724211098844
30
0
41
1
10
77.4490505140741
20
-1.25091581652907
30
0
41
1
10
77.425232574956
20
-1.23958343526175
30
0
41
1
10
77.4137633378579
20
-1.23466527992338
30
0
41
1
10
77.3973008824728
20
-1.22853395527724
30
0
41
1
10
77.3919374681154
20
-1.22669879506336
30
0
41
1
10
77.3814805790828
20
-1.22348182250642
30
0
41
1
10
77.3763697360089
20
-1.22209607576929
30
0
41
1
10
77.3616108148129
20
-1.21872292222702
30
0
41
1
10
77.3526196729711
20
-1.21752718048958
30
0
41
1
10
77.3445824794178
20
-1.2175244556222
30
0
0
SPLINE
5
12E
100
AcDbEntity
8
1
62
256
6
ByLayer
370
18
48
1
60
0
100
AcDbSpline
70
4
71
3
72
10
73
6
40
0
40
0
40
0
40
0
40
0.5
40
0.5
40
1
40
1
40
1
40
1
41
1
10
77.3445824794177
20
-1.21752445562191
30
0
41
1
10
77.2938483903535
20
-1.21750725513232
30
0
41
1
10
77.2432279297688
20
-1.21567688340971
30
0
41
1
10
77.1421939256295
20
-1.20828154563506
30
0
41
1
10
77.0917761790334
20
-1.2027435990004
30
0
41
1
10
77.0415033187718
20
-1.1953934005507
30
0
0
SPLINE
5
12F
100
AcDbEntity
8
1
62
256
6
ByLayer
370
18
48
1
60
0
100
AcDbSpline
70
4
71
3
72
8
73
4
40
0
40
0
40
0
40
0
40
1
40
1
40
1
40
1
41
1
10
77.0415033187718
20
-1.19539340055078
30
0
41
1
10
76.7652425894362
20
-0.983729653703932
30
0
41
1
10
76.4919744275291
20
-0.763869300864314
30
0
41
1
10
76.2207831013548
20
-0.536640713602878
30
0
0
SPLINE
5
130
100
AcDbEntity
8
1
62
256
6
ByLayer
370
18
48
1
60
0
100
AcDbSpline
70
4
71
3
72
10
73
6
40
0
40
0
40
0
40
0
40
0.5
40
0.5
40
1
40
1
40
1
40
1
41
1
10
76.2207831013548
20
-0.536640713602907
30
0
41
1
10
76.1473222583393
20
-0.430829412130294
30
0
41
1
10
76.0735287029991
20
-0.327935291406135
30
0
41
1
10
75.925515160942
20
-0.128639440208701
30
0
41
1
10
75.8512626133174
20
-0.0321544653367027
30
0
41
1
10
75.7766550278354
20
0.0609797910567522
30
0
0
SPLINE
5
131
100
AcDbEntity
8
1
62
256
6
ByLayer
370
18
48
1
60
0
100
AcDbSpline
70
4
71
3
72
34
73
30
40
0
40
0
40
0
40
0
40
0.125000000000021
40
0.125000000000021
40
0.187500000000031
40
0.187500000000031
40
0.250000000000042
40
0.250000000000042
40
0.375000000000062
40
0.375000000000062
40
0.437500000000053
40
0.437500000000053
40
0.500000000000043
40
0.500000000000043
40
0.625000000000024
40
0.625000000000024
40
0.687500000000014
40
0.687500000000014
40
0.750000000000005
40
0.750000000000005
40
0.812499999999995
40
0.812499999999995
40
0.874999999999986
40
0.874999999999986
40
0.906249999999981
40
0.906249999999981
40
0.937499999999976
40
0.937499999999976
40
1
40
1
40
1
40
1
41
1
10
75.7766550278349
20
0.0609797910579459
30
0
41
1
10
75.7626209650055
20
0.0784988140548535
30
0
41
1
10
75.7463137414276
20
0.0969335944269005
30
0
41
1
10
75.7191868993655
20
0.125618566546393
30
0
41
1
10
75.7096909946189
20
0.135357311277289
30
0
41
1
10
75.6898327157257
20
0.155173459023871
30
0
41
1
10
75.6795471912318
20
0.16517287882462
30
0
41
1
10
75.6479344605742
20
0.195199167830168
30
0
41
1
10
75.6257604629897
20
0.215352104787712
30
0
41
1
10
75.5909156288397
20
0.245817324304767
30
0
41
1
10
75.5790254114245
20
0.256017616050741
30
0
41
1
10
75.5551277138092
20
0.276152167848323
30
0
41
1
10
75.5430694095296
20
0.286131301398228
30
0
41
1
10
75.5065759598402
20
0.315819241488015
30
0
41
1
10
75.4818269712954
20
0.33528152096045
30
0
41
1
10
75.4440408411528
20
0.363993792071369
30
0
41
1
10
75.4313411509382
20
0.373475604722898
30
0
41
1
10
75.4063217406294
20
0.39182020872903
30
0
41
1
10
75.3939291998048
20
0.400739107458122
30
0
41
1
10
75.3694187842945
20
0.418029174247295
30
0
41
1
10
75.3572582459658
20
0.426429630556811
30
0
41
1
10
75.333456807981
20
0.442472585580845
30
0
41
1
10
75.3219942655742
20
0.44999638327036
30
0
41
1
10
75.3055388915218
20
0.460452894670965
30
0
41
1
10
75.3001773448184
20
0.463799531827817
30
0
41
1
10
75.2897231269313
20
0.470190589813285
30
0
41
1
10
75.2846122852356
20
0.473245556916851
30
0
41
1
10
75.2698599417789
20
0.481828357750629
30
0
41
1
10
75.260870734338
20
0.486737318251414
30
0
41
1
10
75.2528336432927
20
0.490722436555984
30
0
0
SPLINE
5
132
100
AcDbEntity
8
1
62
256
6
ByLayer
370
18
48
1
60
0
100
AcDbSpline
70
4
71
3
72
14
73
10
40
0
40
0
40
0
40
0
40
0.25
40
0.25
40
0.5
40
0.5
40
0.75
40
0.75
40
1
40
1
40
1
40
1
41
1
10
75.2528336432926
20
0.490722436555984
30
0
41
1
10
75.1968391678546
20
0.518486786588113
30
0
41
1
10
75.1409854236763
20
0.54841459521873
30
0
41
1
10
75.0295222464707
20
0.612590566245615
30
0
41
1
10
74.9739328619787
20
0.646805632991118
30
0
41
1
10
74.8630769385613
20
0.719355768577316
30
0
41
1
10
74.8077975622232
20
0.75770019674539
30
0
41
1
10
74.6976437473495
20
0.838336493147352
30
0
41
1
10
74.6427493210283
20
0.880641778300429
30
0
41
1
10
74.5880109325279
20
0.924896074786091
30
0
0
SPLINE
5
133
100
AcDbEntity
8
1
62
256
6
ByLayer
370
18
48
1
60
0
100
AcDbSpline
70
4
71
3
72
8
73
4
40
0
40
0
40
0
40
0
40
1
40
1
40
1
40
1
41
1
10
74.3777846220359
20
1.12792313562358
30
0
41
1
10
74.4478712754476
20
1.06037304344432
30
0
41
1
10
74.517942343541
20
0.992692852837536
30
0
41
1
10
74.5880109325283
20
0.924896074785636
30
0
0
SPLINE
5
134
100
AcDbEntity
8
1
62
256
6
ByLayer
370
18
48
1
60
0
100
AcDbSpline
70
4
71
3
72
14
73
10
40
0
40
0
40
0
40
0
40
0.25
40
0.25
40
0.5
40
0.5
40
0.75
40
0.75
40
1
40
1
40
1
40
1
41
1
10
74.3777846220359
20
1.1279231356236
30
0
41
1
10
74.3207477177369
20
1.18891672723814
30
0
41
1
10
74.2635551395886
20
1.24775091333282
30
0
41
1
10
74.1487928033495
20
1.36104499431593
30
0
41
1
10
74.0912032360926
20
1.41552233573759
30
0
41
1
10
73.975689990439
20
1.51992169769375
30
0
41
1
10
73.9177584102547
20
1.56985195139077
30
0
41
1
10
73.8015507452336
20
1.66503285336952
30
0
41
1
10
73.7433037293025
20
1.7102933529404
30
0
41
1
10
73.6848563293692
20
1.75310098750327
30
0
0
SPLINE
5
135
100
AcDbEntity
8
1
62
256
6
ByLayer
370
18
48
1
60
0
100
AcDbSpline
70
4
71
3
72
34
73
30
40
0
40
0
40
0
40
0
40
0.125000000000017
40
0.125000000000017
40
0.187500000000009
40
0.187500000000009
40
0.250000000000002
40
0.250000000000002
40
0.374999999999987
40
0.374999999999987
40
0.43749999999998
40
0.43749999999998
40
0.499999999999974
40
0.499999999999974
40
0.624999999999962
40
0.624999999999962
40
0.687499999999955
40
0.687499999999955
40
0.749999999999949
40
0.749999999999949
40
0.812499999999942
40
0.812499999999942
40
0.874999999999936
40
0.874999999999936
40
0.906249999999951
40
0.906249999999951
40
0.937499999999967
40
0.937499999999967
40
1
40
1
40
1
40
1
41
1
10
73.6848563293692
20
1.75310098750327
30
0
41
1
10
73.6708273197141
20
1.76337601632034
30
0
41
1
10
73.6545251072407
20
1.77538427911097
30
0
41
1
10
73.6274011266325
20
1.79537405389661
30
0
41
1
10
73.6179053871764
20
1.80237549868332
30
0
41
1
10
73.5980452581383
20
1.81702498111454
30
0
41
1
10
73.5877595275206
20
1.82461502777807
30
0
41
1
10
73.5561408723765
20
1.84796074280916
30
0
41
1
10
73.5339578165054
20
1.86435391550418
30
0
41
1
10
73.4990945404375
20
1.89020708255961
30
0
41
1
10
73.4871987197629
20
1.89904364905692
30
0
41
1
10
73.4632910168916
20
1.91685063481526
30
0
41
1
10
73.4512281380086
20
1.92585877901934
30
0
41
1
10
73.4147227857783
20
1.95322284930583
30
0
41
1
10
73.3899682608582
20
1.9719097889263
30
0
41
1
10
73.3521788222903
20
2.00083243104996
30
0
41
1
10
73.3394842561283
20
2.01061571700882
30
0
41
1
10
73.3144753279311
20
2.03006291390707
30
0
41
1
10
73.3020885430362
20
2.03978175815459
30
0
41
1
10
73.2775897417675
20
2.05922481277796
30
0
41
1
10
73.2654326019827
20
2.06898548744635
30
0
41
1
10
73.2416489774718
20
2.08836857962712
30
0
41
1
10
73.2301946964834
20
2.09785003846503
30
0
41
1
10
73.2137506748944
20
2.11172505124901
30
0
41
1
10
73.2083927388868
20
2.11629188227326
30
0
41
1
10
73.1979453681207
20
2.12529888389688
30
0
41
1
10
73.1928373700211
20
2.12975544478218
30
0
41
1
10
73.1780973704946
20
2.14279197974631
30
0
41
1
10
73.1691153008298
20
2.15097775100503
30
0
41
1
10
73.1610839822847
20
2.15858752363371
30
0
0
SPLINE
5
136
100
AcDbEntity
8
1
62
256
6
ByLayer
370
18
48
1
60
0
100
AcDbSpline
70
4
71
3
72
14
73
10
40
0
40
0
40
0
40
0
40
0.25
40
0.25
40
0.5
40
0.5
40
0.75
40
0.75
40
1
40
1
40
1
40
1
41
1
10
73.1610839822847
20
2.15858752363374
30
0
41
1
10
73.1050789826299
20
2.21165294633491
30
0
41
1
10
73.0492152714757
20
2.2666339934286
30
0
41
1
10
72.937733553415
20
2.38042337545238
30
0
41
1
10
72.8821488030625
20
2.43917789736415
30
0
41
1
10
72.7713118994124
20
2.56022877550697
30
0
41
1
10
72.7160280459904
20
2.62256012222588
30
0
41
1
10
72.6058529614816
20
2.75054018942961
30
0
41
1
10
72.5509566936724
20
2.81619273717033
30
0
41
1
10
72.4962242576616
20
2.88346507574073
30
0
0
SPLINE
5
137
100
AcDbEntity
8
1
62
256
6
ByLayer
370
18
48
1
60
0
100
AcDbSpline
70
4
71
3
72
14
73
10
40
0
40
0
40
0
40
0
40
0.25
40
0.25
40
0.5
40
0.5
40
0.75
40
0.75
40
1
40
1
40
1
40
1
41
1
10
72.2859367427371
20
3.06973157580387
30
0
41
1
10
72.2289021016367
20
3.09862523009502
30
0
41
1
10
72.1717149549457
20
3.1251287917973
30
0
41
1
10
72.0569682755869
20
3.17331401608052
30
0
41
1
10
71.9993890203303
20
3.19500316320816
30
0
41
1
10
71.8838980654914
20
3.23345781729086
30
0
41
1
10
71.8259781840558
20
3.25022584455951
30
0
41
1
10
71.7097877827352
20
3.27874636639558
30
0
41
1
10
71.6515434297106
20
3.29051132414537
30
0
41
1
10
71.5931004929651
20
3.29969947601506
30
0
0
SPLINE
5
138
100
AcDbEntity
8
1
62
256
6
ByLayer
370
18
48
1
60
0
100
AcDbSpline
70
4
71
3
72
38
73
34
40
0
40
0
40
0
40
0
40
0.124999999999986
40
0.124999999999986
40
0.187499999999977
40
0.187499999999977
40
0.249999999999968
40
0.249999999999968
40
0.374999999999949
40
0.374999999999949
40
0.43749999999996
40
0.43749999999996
40
0.499999999999971
40
0.499999999999971
40
0.624999999999951
40
0.624999999999951
40
0.656249999999957
40
0.656249999999957
40
0.687499999999963
40
0.687499999999963
40
0.749999999999976
40
0.749999999999976
40
0.781250000000003
40
0.781250000000003
40
0.812500000000031
40
0.812500000000031
40
0.875000000000046
40
0.875000000000046
40
0.906250000000035
40
0.906250000000035
40
0.937500000000023
40
0.937500000000023
40
1
40
1
40
1
40
1
41
1
10
71.5931004929651
20
3.29969947601504
30
0
41
1
10
71.5790665069235
20
3.3019058400732
30
0
41
1
10
71.5627562887493
20
3.30652686974625
30
0
41
1
10
71.5356170849505
20
3.31623265615363
30
0
41
1
10
71.5261156350221
20
3.31994165881466
30
0
41
1
10
71.5062433544603
20
3.32826648278447
30
0
41
1
10
71.495961820252
20
3.33284595990213
30
0
41
1
10
71.4643430989675
20
3.34767140189166
30
0
41
1
10
71.4421611167017
20
3.3590222504279
30
0
41
1
10
71.4072989400463
20
3.37824342612814
30
0
41
1
10
71.3954124468619
20
3.38502211572481
30
0
41
1
10
71.3715210601929
20
3.39910136676659
30
0
41
1
10
71.359465273332
20
3.40642935968626
30
0
41
1
10
71.3229758645145
20
3.42931069513619
30
0
41
1
10
71.2982250544677
20
3.44574186643314
30
0
41
1
10
71.2667245150879
20
3.46810158650382
30
0
41
1
10
71.2603800387602
20
3.47267809590559
30
0
41
1
10
71.2477679336704
20
3.48193146804076
30
0
41
1
10
71.2414888263152
20
3.48661610580072
30
0
41
1
10
71.2227376954637
20
3.5008530112062
30
0
41
1
10
71.210351306197
20
3.51058710133253
30
0
41
1
10
71.1919730492614
20
3.52560665255405
30
0
41
1
10
71.1858806422553
20
3.53068316680222
30
0
41
1
10
71.1737701233229
20
3.54098936175075
30
0
41
1
10
71.1677312049455
20
3.5462376407819
30
0
41
1
10
71.1498991140524
20
3.56209471840373
30
0
41
1
10
71.1384450342828
20
3.57276154230274
30
0
41
1
10
71.1219968402014
20
3.58892719062103
30
0
41
1
10
71.1166367598176
20
3.59434336850262
30
0
41
1
10
71.1061837678629
20
3.6052359658789
30
0
41
1
10
71.1010707696427
20
3.61073498992707
30
0
41
1
10
71.0863336402496
20
3.62715692788748
30
0
41
1
10
71.0773515773485
20
3.63794846168958
30
0
41
1
10
71.0693191051792
20
3.64855881626994
30
0
0
SPLINE
5
139
100
AcDbEntity
8
1
62
256
6
ByLayer
370
18
48
1
60
0
100
AcDbSpline
70
4
71
3
72
12
73
8
40
0
40
0
40
0
40
0
40
0.5
40
0.5
40
0.75
40
0.75
40
1
40
1
40
1
40
1
41
1
10
71.0693191051785
20
3.64855881627125
30
0
41
1
10
70.9573156901298
20
3.79650778177444
30
0
41
1
10
70.8458114935874
20
3.95052093488661
30
0
41
1
10
70.6795657459399
20
4.18959897616418
30
0
41
1
10
70.6242851049891
20
4.27067949826824
30
0
41
1
10
70.5141239984218
20
4.43526963629071
30
0
41
1
10
70.4592366042155
20
4.51878704161697
30
0
41
1
10
70.404514110227
20
4.60348988321314
30
0
0
SPLINE
5
13A
100
AcDbEntity
8
1
62
256
6
ByLayer
370
18
48
1
60
0
100
AcDbSpline
70
4
71
3
72
12
73
8
40
0
40
0
40
0
40
0
40
0.249999999999997
40
0.249999999999997
40
0.499999999999994
40
0.499999999999994
40
1
40
1
40
1
40
1
41
1
10
70.194234552125
20
4.75758122783046
30
0
41
1
10
70.1371913204049
20
4.75202342961325
30
0
41
1
10
70.0799949335309
20
4.74407090176251
30
0
41
1
10
69.9652311491184
20
4.72333384107532
30
0
41
1
10
69.907644175216
20
4.71054373979382
30
0
41
1
10
69.7343921889271
20
4.66487093686854
30
0
41
1
10
69.6182362306061
20
4.62473789833899
30
0
41
1
10
69.5013218290859
20
4.57437473132481
30
0
0
SPLINE
5
13B
100
AcDbEntity
8
1
62
256
6
ByLayer
370
18
48
1
60
0
100
AcDbSpline
70
4
71
3
72
38
73
34
40
0
40
0
40
0
40
0
40
0.12500000000002
40
0.12500000000002
40
0.187500000000014
40
0.187500000000014
40
0.250000000000008
40
0.250000000000008
40
0.374999999999995
40
0.374999999999995
40
0.437499999999988
40
0.437499999999988
40
0.499999999999981
40
0.499999999999981
40
0.624999999999966
40
0.624999999999966
40
0.656249999999951
40
0.656249999999951
40
0.687499999999937
40
0.687499999999937
40
0.749999999999909
40
0.749999999999909
40
0.781249999999917
40
0.781249999999917
40
0.812499999999925
40
0.812499999999925
40
0.874999999999939
40
0.874999999999939
40
0.906249999999946
40
0.906249999999946
40
0.937499999999953
40
0.937499999999953
40
1
40
1
40
1
40
1
41
1
10
69.5013218290858
20
4.57437473132478
30
0
41
1
10
69.4872871666315
20
4.56832902574891
30
0
41
1
10
69.4709747065176
20
4.56517217327541
30
0
41
1
10
69.4438279823617
20
4.56376633605106
30
0
41
1
10
69.4343232360768
20
4.56386581296681
30
0
41
1
10
69.4144424175735
20
4.56515220108975
30
0
41
1
10
69.4041595990844
20
4.56633497034343
30
0
41
1
10
69.3725301191919
20
4.57137630512779
30
0
41
1
10
69.350338309871
20
4.576712013269
30
0
41
1
10
69.3154599515593
20
4.58765595323678
30
0
41
1
10
69.3035708751493
20
4.59180260767062
30
0
41
1
10
69.2796742452556
20
4.60096231433013
30
0
41
1
10
69.2676159068877
20
4.60599025066645
30
0
41
1
10
69.2311195213995
20
4.62245684017475
30
0
41
1
10
69.2063644023103
20
4.6352490921731
30
0
41
1
10
69.1748612013511
20
4.65399241347538
30
0
41
1
10
69.1685176254042
20
4.65789088235363
30
0
41
1
10
69.1559106213138
20
4.66590041163801
30
0
41
1
10
69.1496341233343
20
4.67001867581246
30
0
41
1
10
69.1308910171131
20
4.6827284830562
30
0
41
1
10
69.1185103089792
20
4.69167283115158
30
0
41
1
10
69.1001404933212
20
4.70588775384672
30
0
41
1
10
69.0940508792575
20
4.71075962772039
30
0
41
1
10
69.0819457754096
20
4.7207937508918
30
0
41
1
10
69.0759091148567
20
4.72597504126162
30
0
41
1
10
69.0580889821257
20
4.74185152171364
30
0
41
1
10
69.046641598065
20
4.75282820532038
30
0
41
1
10
69.0302011768088
20
4.76995609778621
30
0
41
1
10
69.0248433114145
20
4.77577632096424
30
0
41
1
10
69.014394096356
20
4.7876585671861
30
0
41
1
10
69.0092824221285
20
4.79374639619806
30
0
41
1
10
68.9945518607094
20
4.81221038963074
30
0
41
1
10
68.9855725310577
20
4.82472394673243
30
0
41
1
10
68.9775414325954
20
4.83746496306824
30
0
0
SPLINE
5
13C
100
AcDbEntity
8
1
62
256
6
ByLayer
370
18
48
1
60
0
100
AcDbSpline
70
4
71
3
72
12
73
8
40
0
40
0
40
0
40
0
40
0.5
40
0.5
40
0.75
40
0.75
40
1
40
1
40
1
40
1
41
1
10
68.9775414325954
20
4.83746496306824
30
0
41
1
10
68.8655197296061
20
5.01518291217081
30
0
41
1
10
68.7540041061732
20
5.19678286547679
30
0
41
1
10
68.5877348202987
20
5.47383617582918
30
0
41
1
10
68.5324442067636
20
5.56701851972522
30
0
41
1
10
68.4222666704493
20
5.75467332957587
30
0
41
1
10
68.3673697873824
20
5.8491616361035
30
0
41
1
10
68.3126373444956
20
5.94428511950588
30
0
0
SPLINE
5
13D
100
AcDbEntity
8
1
62
256
6
ByLayer
370
18
48
1
60
0
100
AcDbSpline
70
4
71
3
72
12
73
8
40
0
40
0
40
0
40
0
40
0.25
40
0.25
40
0.5
40
0.5
40
1
40
1
40
1
40
1
41
1
10
68.1023785558146
20
6.05335816467388
30
0
41
1
10
68.045346112873
20
6.01379568717127
30
0
41
1
10
67.9881621273648
20
5.97199842867656
30
0
41
1
10
67.8734206616501
20
5.88390501333362
30
0
41
1
10
67.8158433766644
20
5.83759193192034
30
0
41
1
10
67.6426094039314
20
5.69197282528253
30
0
41
1
10
67.5264438316354
20
5.58600426566426
30
0
41
1
10
67.4095600904273
20
5.47114633429806
30
0
0
SPLINE
5
13E
100
AcDbEntity
8
1
62
256
6
ByLayer
370
18
48
1
60
0
100
AcDbSpline
70
4
71
3
72
36
73
32
40
0
40
0
40
0
40
0
40
0.124999999999959
40
0.124999999999959
40
0.187499999999938
40
0.187499999999938
40
0.249999999999918
40
0.249999999999918
40
0.374999999999875
40
0.374999999999875
40
0.437499999999872
40
0.437499999999872
40
0.49999999999987
40
0.49999999999987
40
0.624999999999867
40
0.624999999999867
40
0.687499999999843
40
0.687499999999843
40
0.74999999999982
40
0.74999999999982
40
0.781249999999829
40
0.781249999999829
40
0.812499999999838
40
0.812499999999838
40
0.874999999999857
40
0.874999999999857
40
0.906249999999885
40
0.906249999999885
40
0.937499999999913
40
0.937499999999913
40
1
40
1
40
1
40
1
41
1
10
67.4095600904273
20
5.47114633429806
30
0
41
1
10
67.395522142359
20
5.45735168964444
30
0
41
1
10
67.3792045954864
20
5.4466867955343
30
0
41
1
10
67.3520481410069
20
5.43430715935094
30
0
41
1
10
67.3425398222612
20
5.43079768938964
30
0
41
1
10
67.3226505828235
20
5.42495901941547
30
0
41
1
10
67.3123720070718
20
5.42266187139916
30
0
41
1
10
67.2807413242959
20
5.41754038708552
30
0
41
1
10
67.2585460190773
20
5.41644500054045
30
0
41
1
10
67.2236550651367
20
5.41824109238701
30
0
41
1
10
67.2117686282573
20
5.41942481814826
30
0
41
1
10
67.1878740368933
20
5.42292952869934
30
0
41
1
10
67.175815868801
20
5.42525188071971
30
0
41
1
10
67.1393188330036
20
5.43397136931171
30
0
41
1
10
67.1145630342758
20
5.44208527150303
30
0
41
1
10
67.0767523629037
20
5.45840084233359
30
0
41
1
10
67.0640851061679
20
5.4645259183211
30
0
41
1
10
67.0391056917814
20
5.47804204855711
30
0
41
1
10
67.0267282779551
20
5.48545894908841
30
0
41
1
10
67.0083597044203
20
5.49769592341849
30
0
41
1
10
67.0022698954835
20
5.50196089350223
30
0
41
1
10
66.990163173369
20
5.51089455924313
30
0
41
1
10
66.9841241933082
20
5.51558166188349
30
0
41
1
10
66.966312763841
20
5.53015947996948
30
0
41
1
10
66.9548681708625
20
5.54053452259657
30
0
41
1
10
66.9384281777664
20
5.55720441645622
30
0
41
1
10
66.933069850911
20
5.56294640541464
30
0
41
1
10
66.9226186020574
20
5.5748344955889
30
0
41
1
10
66.9175046472473
20
5.58100828013852
30
0
41
1
10
66.9027790431141
20
5.5999772507468
30
0
41
1
10
66.8938010418987
20
5.61317140102159
30
0
41
1
10
66.8857699197413
20
5.62698391952836
30
0
0
SPLINE
5
13F
100
AcDbEntity
8
1
62
256
6
ByLayer
370
18
48
1
60
0
100
AcDbSpline
70
4
71
3
72
12
73
8
40
0
40
0
40
0
40
0
40
0.499999999999999
40
0.499999999999999
40
0.75
40
0.75
40
1
40
1
40
1
40
1
41
1
10
66.885769919741
20
5.62698391952856
30
0
41
1
10
66.7737609781326
20
5.81962519039647
30
0
41
1
10
66.6622574765313
20
6.01361964620938
30
0
41
1
10
66.495998700716
20
6.30555921213536
30
0
41
1
10
66.4407102934993
20
6.40309097544494
30
0
41
1
10
66.3305395652283
20
6.59821902511723
30
0
41
1
10
66.2756457878532
20
6.6958351402273
30
0
41
1
10
66.2209167009887
20
6.79348901426403
30
0
0
SPLINE
5
140
100
AcDbEntity
8
1
62
256
6
ByLayer
370
18
48
1
60
0
100
AcDbSpline
70
4
71
3
72
12
73
8
40
0
40
0
40
0
40
0
40
0.250000000000003
40
0.250000000000003
40
0.500000000000006
40
0.500000000000006
40
1
40
1
40
1
40
1
41
1
10
66.010669458726
20
6.84857082499818
30
0
41
1
10
65.9536252050551
20
6.77827797288171
30
0
41
1
10
65.8964268896109
20
6.70612036822817
30
0
41
1
10
65.7816592066623
20
6.55806198009938
30
0
41
1
10
65.7240703145852
20
6.48213460262627
30
0
41
1
10
65.5508149301326
20
6.24891616438373
30
0
41
1
10
65.4346503901594
20
6.08618373310094
30
0
41
1
10
65.3178260287256
20
5.91645770185031
30
0
0
SPLINE
5
141
100
AcDbEntity
8
1
62
256
6
ByLayer
370
18
48
1
60
0
100
AcDbSpline
70
4
71
3
72
36
73
32
40
0
40
0
40
0
40
0
40
0.124999999999958
40
0.124999999999958
40
0.187499999999953
40
0.187499999999953
40
0.249999999999949
40
0.249999999999949
40
0.374999999999976
40
0.374999999999976
40
0.43749999999997
40
0.43749999999997
40
0.499999999999965
40
0.499999999999965
40
0.624999999999953
40
0.624999999999953
40
0.687499999999947
40
0.687499999999947
40
0.749999999999941
40
0.749999999999941
40
0.781249999999938
40
0.781249999999938
40
0.812499999999935
40
0.812499999999935
40
0.874999999999969
40
0.874999999999969
40
0.906249999999969
40
0.906249999999969
40
0.937499999999968
40
0.937499999999968
40
1
40
1
40
1
40
1
41
1
10
65.3178260287256
20
5.91645770185031
30
0
41
1
10
65.3037920182442
20
5.89606865908294
30
0
41
1
10
65.2874816495998
20
5.87878777999489
30
0
41
1
10
65.2603406166802
20
5.8564637344071
30
0
41
1
10
65.2508382090171
20
5.84963581271586
30
0
41
1
10
65.230961777025
20
5.83715233115007
30
0
41
1
10
65.2206958019945
20
5.83156639151909
30
0
41
1
10
65.1890925311986
20
5.81669689632119
30
0
41
1
10
65.1669134045136
20
5.80924715451073
30
0
41
1
10
65.1320347103567
20
5.80171588210195
30
0
41
1
10
65.1201543140627
20
5.79983019750236
30
0
41
1
10
65.0962662394134
20
5.79736967148688
30
0
41
1
10
65.0842091138666
20
5.79678284448443
30
0
41
1
10
65.047708425103
20
5.79699614040058
30
0
41
1
10
65.0229404839137
20
5.79973024765405
30
0
41
1
10
64.9851011724019
20
5.80847721535483
30
0
41
1
10
64.9724264887696
20
5.81217441266267
30
0
41
1
10
64.9474308636954
20
5.8211300699239
30
0
41
1
10
64.9350453034408
20
5.82640087201406
30
0
41
1
10
64.9166650601277
20
5.83564023240484
30
0
41
1
10
64.9105714533739
20
5.83894305583829
30
0
41
1
10
64.8984572741095
20
5.84603223121715
30
0
41
1
10
64.8924144561485
20
5.84983409690005
30
0
41
1
10
64.8745965239424
20
5.86190952242163
30
0
41
1
10
64.8631479026575
20
5.87082581522628
30
0
41
1
10
64.8467024633625
20
5.88565840242228
30
0
41
1
10
64.8413424146853
20
5.89084668891834
30
0
41
1
10
64.8308879051853
20
5.90175525387099
30
0
41
1
10
64.8257722887404
20
5.90750198325131
30
0
41
1
10
64.8110451309364
20
5.92541117001764
30
0
41
1
10
64.8020663793359
20
5.93819609479067
30
0
41
1
10
64.7940346696827
20
5.9519372438395
30
0
0
SPLINE
5
142
100
AcDbEntity
8
1
62
256
6
ByLayer
370
18
48
1
60
0
100
AcDbSpline
70
4
71
3
72
12
73
8
40
0
40
0
40
0
40
0
40
0.500000000000001
40
0.500000000000001
40
0.75
40
0.75
40
1
40
1
40
1
40
1
41
1
10
64.7940346696827
20
5.9519372438395
30
0
41
1
10
64.681989809506
20
6.1436305682154
30
0
41
1
10
64.570458857308
20
6.33403946375392
30
0
41
1
10
64.4041741780303
20
6.61679778413969
30
0
41
1
10
64.3488786474158
20
6.71063465063264
30
0
41
1
10
64.2386998319354
20
6.89713285651052
30
0
41
1
10
64.1838030169214
20
6.9898173098459
30
0
41
1
10
64.1290711552063
20
7.08193531844836
30
0
0
SPLINE
5
143
100
AcDbEntity
8
1
62
256
6
ByLayer
370
18
48
1
60
0
100
AcDbSpline
70
4
71
3
72
8
73
4
40
0
40
0
40
0
40
0
40
1
40
1
40
1
40
1
41
1
10
63.9187933755315
20
7.0785580446321
30
0
41
1
10
63.9888914759436
20
7.08067623443964
30
0
41
1
10
64.0589795712305
20
7.08180130179702
30
0
41
1
10
64.1290711552063
20
7.08193531844836
30
0
0
SPLINE
5
144
100
AcDbEntity
8
1
62
256
6
ByLayer
370
18
48
1
60
0
100
AcDbSpline
70
4
71
3
72
12
73
8
40
0
40
0
40
0
40
0
40
0.25
40
0.25
40
0.5
40
0.5
40
1
40
1
40
1
40
1
41
1
10
63.9187933755315
20
7.0785580446327
30
0
41
1
10
63.8617591364498
20
6.98340744124215
30
0
41
1
10
63.8045752207863
20
6.88689887720525
30
0
41
1
10
63.6898395642751
20
6.69117092545318
30
0
41
1
10
63.6322682996751
20
6.5919173232495
30
0
41
1
10
63.459062614396
20
6.29037045009673
30
0
41
1
10
63.3429240048877
20
6.08426709714431
30
0
41
1
10
63.2260582409496
20
5.87351279883234
30
0
0
SPLINE
5
145
100
AcDbEntity
8
1
62
256
6
ByLayer
370
18
48
1
60
0
100
AcDbSpline
70
4
71
3
72
36
73
32
40
0
40
0
40
0
40
0
40
0.124999999999945
40
0.124999999999945
40
0.187499999999933
40
0.187499999999933
40
0.249999999999921
40
0.249999999999921
40
0.374999999999861
40
0.374999999999861
40
0.43749999999985
40
0.43749999999985
40
0.49999999999984
40
0.49999999999984
40
0.62499999999982
40
0.62499999999982
40
0.68749999999981
40
0.68749999999981
40
0.7499999999998
40
0.7499999999998
40
0.781249999999816
40
0.781249999999816
40
0.812499999999832
40
0.812499999999832
40
0.874999999999863
40
0.874999999999863
40
0.906249999999898
40
0.906249999999898
40
0.937499999999932
40
0.937499999999932
40
1
40
1
40
1
40
1
41
1
10
63.2260582409496
20
5.87351279883228
30
0
41
1
10
63.2120151553932
20
5.84818766901796
30
0
41
1
10
63.1956899557172
20
5.82569171812088
30
0
41
1
10
63.168518215932
20
5.79523500100672
30
0
41
1
10
63.159004166562
20
5.78564311296361
30
0
41
1
10
63.1391018664192
20
5.76753119680904
30
0
41
1
10
63.1288265204677
20
5.75911544311441
30
0
41
1
10
63.0971883247129
20
5.73572531537027
30
0
41
1
10
63.0749845874597
20
5.7225488983502
30
0
41
1
10
63.0400785160111
20
5.70634805040442
30
0
41
1
10
63.0281965261852
20
5.70156607546866
30
0
41
1
10
63.0043065469198
20
5.69337884870083
30
0
41
1
10
62.9922500703447
20
5.68994985721656
30
0
41
1
10
62.9557552698856
20
5.68169414884579
30
0
41
1
10
62.9309966433472
20
5.6788580393202
30
0
41
1
10
62.8931734623451
20
5.67935301359748
30
0
41
1
10
62.8805190062536
20
5.68032827077008
30
0
41
1
10
62.8555515185959
20
5.68399912380681
30
0
41
1
10
62.8431783423001
20
5.68669306544865
30
0
41
1
10
62.8248132359813
20
5.69217534217205
30
0
41
1
10
62.81872409641
20
5.69424392168204
30
0
41
1
10
62.8066176519011
20
5.69890367676459
30
0
41
1
10
62.8005779640628
20
5.70150621013624
30
0
41
1
10
62.7827789255713
20
5.71007872303716
30
0
41
1
10
62.7713395780602
20
5.71679596516566
30
0
41
1
10
62.754903695392
20
5.72855930242392
30
0
41
1
10
62.7495460987356
20
5.73276291407186
30
0
41
1
10
62.7390950980596
20
5.74178612378441
30
0
41
1
10
62.7339803097964
20
5.7466289433674
30
0
41
1
10
62.7192620251347
20
5.76198803683371
30
0
41
1
10
62.7102862915348
20
5.77330018361076
30
0
41
1
10
62.7022554789439
20
5.78582872841915
30
0
0
SPLINE
5
146
100
AcDbEntity
8
1
62
256
6
ByLayer
370
18
48
1
60
0
100
AcDbSpline
70
4
71
3
72
12
73
8
40
0
40
0
40
0
40
0
40
0.500000000000008
40
0.500000000000008
40
0.750000000000004
40
0.750000000000004
40
1
40
1
40
1
40
1
41
1
10
62.7022554789438
20
5.78582872841912
30
0
41
1
10
62.5902161816731
20
5.96061668919816
30
0
41
1
10
62.4786975043913
20
6.1315673031142
30
0
41
1
10
62.312418004429
20
6.38162121065784
30
0
41
1
10
62.257122679489
20
6.46396169611205
30
0
41
1
10
62.1469431941475
20
6.62633989849917
30
0
41
1
10
62.0920435529566
20
6.70640135284515
30
0
41
1
10
62.0373065889743
20
6.78534423848387
30
0
0
SPLINE
5
147
100
AcDbEntity
8
1
62
256
6
ByLayer
370
18
48
1
60
0
100
AcDbSpline
70
4
71
3
72
8
73
4
40
0
40
0
40
0
40
0
40
1
40
1
40
1
40
1
41
1
10
61.827018647672
20
6.72371941428986
30
0
41
1
10
61.8971288366534
20
6.74521170282128
30
0
41
1
10
61.9672200448513
20
6.76575428698635
30
0
41
1
10
62.0373065889743
20
6.7853442384839
30
0
0
SPLINE
5
148
100
AcDbEntity
8
1
62
256
6
ByLayer
370
18
48
1
60
0
100
AcDbSpline
70
4
71
3
72
12
73
8
40
0
40
0
40
0
40
0
40
0.25
40
0.25
40
0.5
40
0.5
40
1
40
1
40
1
40
1
41
1
10
61.8270186476733
20
6.72371941427573
30
0
41
1
10
61.7700027341645
20
6.61160549835708
30
0
41
1
10
61.7128299716885
20
6.49876022408452
30
0
41
1
10
61.5981045048126
20
6.27162067708966
30
0
41
1
10
61.5405320184229
20
6.15728692804643
30
0
41
1
10
61.3673098273436
20
5.8124596025431
30
0
41
1
10
61.251144260099
20
5.58011040863386
30
0
41
1
10
61.1342910196992
20
5.34591646836083
30
0
0
SPLINE
5
149
100
AcDbEntity
8
1
62
256
6
ByLayer
370
18
48
1
60
0
100
AcDbSpline
70
4
71
3
72
34
73
30
40
0
40
0
40
0
40
0
40
0.125000000000009
40
0.125000000000009
40
0.250000000000019
40
0.250000000000019
40
0.375000000000028
40
0.375000000000028
40
0.437500000000031
40
0.437500000000031
40
0.500000000000035
40
0.500000000000035
40
0.625000000000043
40
0.625000000000043
40
0.687500000000047
40
0.687500000000047
40
0.750000000000051
40
0.750000000000051
40
0.781250000000053
40
0.781250000000053
40
0.812500000000055
40
0.812500000000055
40
0.875000000000061
40
0.875000000000061
40
0.906250000000045
40
0.906250000000045
40
0.937500000000029
40
0.937500000000029
40
1
40
1
40
1
40
1
41
1
10
61.1342910196992
20
5.3459164683608
30
0
41
1
10
61.1202434958758
20
5.31776282072519
30
0
41
1
10
61.1039108145024
20
5.29192292565915
30
0
41
1
10
61.0676629755
20
5.24384199736335
30
0
41
1
10
61.0475662014963
20
5.2215076226602
30
0
41
1
10
61.0053721046205
20
5.18153565328706
30
0
41
1
10
60.9831626990423
20
5.16371189530307
30
0
41
1
10
60.9482468266918
20
5.14015177043581
30
0
41
1
10
60.9363678258503
20
5.1328599793857
30
0
41
1
10
60.9124804251473
20
5.11960113851637
30
0
41
1
10
60.9004248609722
20
5.11360120459429
30
0
41
1
10
60.8639316894978
20
5.09752016893174
30
0
41
1
10
60.8391727652704
20
5.08931983100112
30
0
41
1
10
60.8013460581697
20
5.08148051939546
30
0
41
1
10
60.788702101654
20
5.079645717874
30
0
41
1
10
60.7637454761717
20
5.07771050147136
30
0
41
1
10
60.7513765814604
20
5.07759626699399
30
0
41
1
10
60.7330158419509
20
5.07885544484168
30
0
41
1
10
60.7269278131937
20
5.07951451908798
30
0
41
1
10
60.7148228280591
20
5.08135112557113
30
0
41
1
10
60.7087836192588
20
5.08253476602377
30
0
41
1
10
60.6909942712672
20
5.08688782443232
30
0
41
1
10
60.6795593090158
20
5.09084512671089
30
0
41
1
10
60.6631270074428
20
5.09855798679465
30
0
41
1
10
60.6577701055895
20
5.10142642522729
30
0
41
1
10
60.6473195317559
20
5.10781222255113
30
0
41
1
10
60.6422043803544
20
5.11134743688993
30
0
41
1
10
60.6274913844921
20
5.12288069838644
30
0
41
1
10
60.6185173553233
20
5.131780555609
30
0
41
1
10
60.6104869133408
20
5.1420558789552
30
0
0
SPLINE
5
14A
100
AcDbEntity
8
1
62
256
6
ByLayer
370
18
48
1
60
0
100
AcDbSpline
70
4
71
3
72
12
73
8
40
0
40
0
40
0
40
0
40
0.500000000000001
40
0.500000000000001
40
0.75
40
0.75
40
1
40
1
40
1
40
1
41
1
10
60.6104869133408
20
5.14205587895523
30
0
41
1
10
60.4984316869573
20
5.28543574350414
30
0
41
1
10
60.386896685249
20
5.42278788437238
30
0
41
1
10
60.2205900459898
20
5.61945490114823
30
0
41
1
10
60.1652858086207
20
5.68348786504041
30
0
41
1
10
60.0550927779593
20
5.80830734373976
30
0
41
1
10
60.0001874711708
20
5.86911360633198
30
0
41
1
10
59.9454461691967
20
5.92833628662839
30
0
0
SPLINE
5
14B
100
AcDbEntity
8
1
62
256
6
ByLayer
370
18
48
1
60
0
100
AcDbSpline
70
4
71
3
72
8
73
4
40
0
40
0
40
0
40
0
40
1
40
1
40
1
40
1
41
1
10
59.9113248654047
20
5.91005375785139
30
0
41
1
10
59.9226990986738
20
5.91617017998081
30
0
41
1
10
59.9340728466319
20
5.92226436427114
30
0
41
1
10
59.9454461691967
20
5.92833628662839
30
0
0
SPLINE
5
14C
100
AcDbEntity
8
1
62
256
6
ByLayer
370
18
48
1
60
0
100
AcDbSpline
70
4
71
3
72
8
73
4
40
0
40
0
40
0
40
0
40
1
40
1
40
1
40
1
41
1
10
59.9113248654052
20
5.91005375785244
30
0
41
1
10
59.7167392050889
20
5.48265306425452
30
0
41
1
10
59.5212294633695
20
5.05545255502153
30
0
41
1
10
59.3236719969892
20
4.62895914701673
30
0
0
SPLINE
5
14D
100
AcDbEntity
8
1
62
256
6
ByLayer
370
18
48
1
60
0
100
AcDbSpline
70
4
71
3
72
10
73
6
40
0
40
0
40
0
40
0
40
0.5
40
0.5
40
1
40
1
40
1
40
1
41
1
10
67.8614008584661
20
-1.50881111952358
30
0
41
1
10
67.9760247336549
20
-1.64386425975556
30
0
41
1
10
68.0896605359661
20
-1.78581093457754
30
0
41
1
10
68.3155239445723
20
-2.08302837230141
30
0
41
1
10
68.4274808026796
20
-2.23795589898401
30
0
41
1
10
68.5386589839233
20
-2.398935720076
30
0
0
SPLINE
5
14E
100
AcDbEntity
8
1
62
256
6
ByLayer
370
18
48
1
60
0
100
AcDbSpline
70
4
71
3
72
10
73
6
40
0
40
0
40
0
40
0
40
0.5
40
0.5
40
1
40
1
40
1
40
1
41
1
10
68.7488994864383
20
-2.59048330848808
30
0
41
1
10
68.8605475329339
20
-2.62742596729399
30
0
41
1
10
68.9729842477463
20
-2.65576916032546
30
0
41
1
10
69.1998268860705
20
-2.69489612277633
30
0
41
1
10
69.3139509936964
20
-2.7057067734024
30
0
41
1
10
69.4291897701029
20
-2.70694694663803
30
0
0
SPLINE
5
14F
100
AcDbEntity
8
1
62
256
6
ByLayer
370
18
48
1
60
0
100
AcDbSpline
70
4
71
3
72
34
73
30
40
0
40
0
40
0
40
0
40
0.0625000000000002
40
0.0625000000000002
40
0.125
40
0.125
40
0.187500000000001
40
0.187500000000001
40
0.250000000000001
40
0.250000000000001
40
0.312500000000001
40
0.312500000000001
40
0.375000000000001
40
0.375000000000001
40
0.500000000000045
40
0.500000000000045
40
0.562500000000046
40
0.562500000000046
40
0.625000000000047
40
0.625000000000047
40
0.750000000000005
40
0.750000000000005
40
0.812500000000004
40
0.812500000000004
40
0.875000000000003
40
0.875000000000003
40
0.937500000000001
40
0.937500000000001
40
1
40
1
40
1
40
1
41
1
10
69.4291897701029
20
-2.70694694663803
30
0
41
1
10
69.4367556463968
20
-2.70702836886045
30
0
41
1
10
69.4450118070647
20
-2.70800942776603
30
0
41
1
10
69.4626764910877
20
-2.71145661994672
30
0
41
1
10
69.4720871313457
20
-2.7139257666723
30
0
41
1
10
69.4919445950426
20
-2.72019455085518
30
0
41
1
10
69.5024575821996
20
-2.72402499762899
30
0
41
1
10
69.5239607741642
20
-2.73273472803902
30
0
41
1
10
69.5349851938251
20
-2.73761964588425
30
0
41
1
10
69.557518710624
20
-2.74834573439719
30
0
41
1
10
69.5690281634485
20
-2.75418762076379
30
0
41
1
10
69.5924986323288
20
-2.7667845000561
30
0
41
1
10
69.6045058590938
20
-2.7735673272141
30
0
41
1
10
69.6408550351963
20
-2.79509061402928
30
0
41
1
10
69.6652740219412
20
-2.81083208936434
30
0
41
1
10
69.7021063531118
20
-2.83648921203437
30
0
41
1
10
69.7144182068247
20
-2.84538610434197
30
0
41
1
10
69.739102436812
20
-2.86390729274558
30
0
41
1
10
69.7513744647352
20
-2.87345863787792
30
0
41
1
10
69.7876092953536
20
-2.90272943377138
30
0
41
1
10
69.8111472838429
20
-2.92316369610259
30
0
41
1
10
69.8453504310556
20
-2.95543566703975
30
0
41
1
10
69.8565867033746
20
-2.96648725836545
30
0
41
1
10
69.87853786345
20
-2.98913588794045
30
0
41
1
10
69.8890737723006
20
-3.0005470630033
30
0
41
1
10
69.9091894873328
20
-3.02356102545519
30
0
41
1
10
69.9187704313642
20
-3.03516364761705
30
0
41
1
10
69.9368309168347
20
-3.05858860505239
30
0
41
1
10
69.9453225338897
20
-3.07043956032243
30
0
41
1
10
69.9529599780263
20
-3.08213599085568
30
0
0
SPLINE
5
150
100
AcDbEntity
8
1
62
256
6
ByLayer
370
18
48
1
60
0
100
AcDbSpline
70
4
71
3
72
10
73
6
40
0
40
0
40
0
40
0
40
0.5
40
0.5
40
1
40
1
40
1
40
1
41
1
10
69.9529599780286
20
-3.08213599085528
30
0
41
1
10
70.0676209398122
20
-3.2577345223043
30
0
41
1
10
70.1812890419976
20
-3.43835823847167
30
0
41
1
10
70.407200892349
20
-3.80919994159407
30
0
41
1
10
70.5191719324547
20
-3.9989838938956
30
0
41
1
10
70.6303587447226
20
-4.19284940518486
30
0
0
SPLINE
5
151
100
AcDbEntity
8
1
62
256
6
ByLayer
370
18
48
1
60
0
100
AcDbSpline
70
4
71
3
72
10
73
6
40
0
40
0
40
0
40
0
40
0.5
40
0.5
40
1
40
1
40
1
40
1
41
1
10
70.8406191090367
20
-4.35602154068283
30
0
41
1
10
70.9522474803971
20
-4.33067347480909
30
0
41
1
10
71.0646574250098
20
-4.29687208023216
30
0
41
1
10
71.2914209058498
20
-4.21228063288248
30
0
41
1
10
71.4055255906985
20
-4.16149088345972
30
0
41
1
10
71.5207510597062
20
-4.10159403559689
30
0
0
SPLINE
5
152
100
AcDbEntity
8
1
62
256
6
ByLayer
370
18
48
1
60
0
100
AcDbSpline
70
4
71
3
72
34
73
30
40
0
40
0
40
0
40
0
40
0.0624999999999787
40
0.0624999999999787
40
0.124999999999958
40
0.124999999999958
40
0.187499999999936
40
0.187499999999936
40
0.249999999999915
40
0.249999999999915
40
0.312499999999894
40
0.312499999999894
40
0.374999999999872
40
0.374999999999872
40
0.499999999999873
40
0.499999999999873
40
0.562499999999895
40
0.562499999999895
40
0.624999999999917
40
0.624999999999917
40
0.749999999999918
40
0.749999999999918
40
0.812499999999938
40
0.812499999999938
40
0.874999999999959
40
0.874999999999959
40
0.937499999999979
40
0.937499999999979
40
1
40
1
40
1
40
1
41
1
10
71.5207510597062
20
-4.10159403559686
30
0
41
1
10
71.5283215397344
20
-4.09765872603035
30
0
41
1
10
71.5365836294274
20
-4.09477330387011
30
0
41
1
10
71.5542623000691
20
-4.09073841330846
30
0
41
1
10
71.5636810027183
20
-4.08959242947455
30
0
41
1
10
71.5835565221389
20
-4.08885676573621
30
0
41
1
10
71.5940789505154
20
-4.08928047035496
30
0
41
1
10
71.6155971960186
20
-4.09153451228318
30
0
41
1
10
71.6266291239203
20
-4.09335544723311
30
0
41
1
10
71.6491775475123
20
-4.09824645186691
30
0
41
1
10
71.6606943995942
20
-4.10131745441029
30
0
41
1
10
71.684179556794
20
-4.10864819103307
30
0
41
1
10
71.6961962548687
20
-4.11292801869482
30
0
41
1
10
71.7325518627946
20
-4.12740250476432
30
0
41
1
10
71.7569742470239
20
-4.13910362313615
30
0
41
1
10
71.7938104045394
20
-4.15962306796038
30
0
41
1
10
71.8061233225042
20
-4.16696291882428
30
0
41
1
10
71.8308092746261
20
-4.18269058880804
30
0
41
1
10
71.8430683135365
20
-4.19100863707695
30
0
41
1
10
71.8792829372599
20
-4.21714206940513
30
0
41
1
10
71.9028094766792
20
-4.23619363018662
30
0
41
1
10
71.9369986804744
20
-4.26758266858556
30
0
41
1
10
71.9482398812964
20
-4.27855034304579
30
0
41
1
10
71.9701616059232
20
-4.30144858018375
30
0
41
1
10
71.9806852216268
20
-4.3132120794258
30
0
41
1
10
72.0007808722368
20
-4.33742367782136
30
0
41
1
10
72.0103540499989
20
-4.34987096394443
30
0
41
1
10
72.0284033026391
20
-4.37555467684302
30
0
41
1
10
72.0368874435594
20
-4.38882076420316
30
0
41
1
10
72.0445193891991
20
-4.40223671123391
30
0
0
SPLINE
5
153
100
AcDbEntity
8
1
62
256
6
ByLayer
370
18
48
1
60
0
100
AcDbSpline
70
4
71
3
72
10
73
6
40
0
40
0
40
0
40
0
40
0.5
40
0.5
40
1
40
1
40
1
40
1
41
1
10
72.044519389202
20
-4.40223671123533
30
0
41
1
10
72.1591864500421
20
-4.603806178193
30
0
41
1
10
72.2728601317906
20
-4.80810005973623
30
0
41
1
10
72.4987943361104
20
-5.22175159242414
30
0
41
1
10
72.6107829018844
20
-5.4306177012088
30
0
41
1
10
72.7219882571181
20
-5.64125815150013
30
0
0
SPLINE
5
154
100
AcDbEntity
8
1
62
256
6
ByLayer
370
18
48
1
60
0
100
AcDbSpline
70
4
71
3
72
10
73
6
40
0
40
0
40
0
40
0
40
0.5
40
0.5
40
1
40
1
40
1
40
1
41
1
10
72.9322607303257
20
-5.76265464518383
30
0
41
1
10
73.0438731338269
20
-5.67732035872115
30
0
41
1
10
73.1562673341039
20
-5.58438096405322
30
0
41
1
10
73.3830358708799
20
-5.38315208973461
30
0
41
1
10
73.4971261388797
20
-5.2751688337593
30
0
41
1
10
73.6123136365252
20
-5.15931075607051
30
0
0
SPLINE
5
155
100
AcDbEntity
8
1
62
256
6
ByLayer
370
18
48
1
60
0
100
AcDbSpline
70
4
71
3
72
34
73
30
40
0
40
0
40
0
40
0
40
0.0625000000000084
40
0.0625000000000084
40
0.125000000000017
40
0.125000000000017
40
0.187500000000025
40
0.187500000000025
40
0.250000000000033
40
0.250000000000033
40
0.312500000000042
40
0.312500000000042
40
0.37500000000005
40
0.37500000000005
40
0.500000000000067
40
0.500000000000067
40
0.562500000000076
40
0.562500000000076
40
0.625000000000084
40
0.625000000000084
40
0.750000000000056
40
0.750000000000056
40
0.812500000000042
40
0.812500000000042
40
0.875000000000028
40
0.875000000000028
40
0.937500000000014
40
0.937500000000014
40
1
40
1
40
1
40
1
41
1
10
73.6123136365252
20
-5.15931075607048
30
0
41
1
10
73.6198873401816
20
-5.15169296104457
30
0
41
1
10
73.6281534020248
20
-5.14518808991966
30
0
41
1
10
73.6458411258013
20
-5.13402002682878
30
0
41
1
10
73.6552649149013
20
-5.12936050606672
30
0
41
1
10
73.6751516445991
20
-5.12169272209255
30
0
41
1
10
73.6856798037567
20
-5.11867968959274
30
0
41
1
10
73.7072072834912
20
-5.1143015571603
30
0
41
1
10
73.7182438711467
20
-5.11291184647104
30
0
41
1
10
73.7408016732342
20
-5.11156924462108
30
0
41
1
10
73.7523232446384
20
-5.11161742839249
30
0
41
1
10
73.7758178212426
20
-5.11307819084971
30
0
41
1
10
73.7878403271826
20
-5.11450038082381
30
0
41
1
10
73.8242013072371
20
-5.12073563211487
30
0
41
1
10
73.8486264934968
20
-5.12743051951159
30
0
41
1
10
73.8854655371497
20
-5.1411144318881
30
0
41
1
10
73.8977792015317
20
-5.14628932957646
30
0
41
1
10
73.9224661722021
20
-5.15791977368016
30
0
41
1
10
73.9347180666389
20
-5.16432124788471
30
0
41
1
10
73.9709214988034
20
-5.18515908152591
30
0
41
1
10
73.9944411364607
20
-5.20125096898741
30
0
41
1
10
74.0286205745375
20
-5.22915365398271
30
0
41
1
10
74.039862844633
20
-5.23912172408805
30
0
41
1
10
74.061767146012
20
-5.26037893279369
30
0
41
1
10
74.0722831950725
20
-5.27152168535113
30
0
41
1
10
74.0923659005569
20
-5.29492458364834
30
0
41
1
10
74.1019337021513
20
-5.30718334203371
30
0
41
1
10
74.1199744024325
20
-5.33299018960915
30
0
41
1
10
74.1284535577442
20
-5.34656911560853
30
0
41
1
10
74.1360819460763
20
-5.36058869756471
30
0
0
SPLINE
5
156
100
AcDbEntity
8
1
62
256
6
ByLayer
370
18
48
1
60
0
100
AcDbSpline
70
4
71
3
72
12
73
8
40
0
40
0
40
0
40
0
40
0.5
40
0.5
40
0.75
40
0.75
40
1
40
1
40
1
40
1
41
1
10
74.1360819460795
20
-5.3605886975682
30
0
41
1
10
74.2406580169402
20
-5.55278038109466
30
0
41
1
10
74.3444041361215
20
-5.74513492175504
30
0
41
1
10
74.4991008317438
20
-6.03374582904223
30
0
41
1
10
74.5505022325154
20
-6.12994535468175
30
0
41
1
10
74.6528747770808
20
-6.3220262620892
30
0
41
1
10
74.7038668478463
20
-6.41794669979518
30
0
41
1
10
74.754689298339
20
-6.51373551355564
30
0
0
SPLINE
5
157
100
AcDbEntity
8
1
62
256
6
ByLayer
370
18
48
1
60
0
100
AcDbSpline
70
4
71
3
72
8
73
4
40
0
40
0
40
0
40
0
40
1
40
1
40
1
40
1
41
1
10
74.754689298339
20
-6.51373551355567
30
0
41
1
10
74.8831184678023
20
-6.52847668962517
30
0
41
1
10
75.0120530570135
20
-6.53960231290068
30
0
41
1
10
75.1415366109952
20
-6.54711346723133
30
0
0
SPLINE
5
158
100
AcDbEntity
8
1
62
256
6
ByLayer
370
18
48
1
60
0
100
AcDbSpline
70
4
71
3
72
12
73
8
40
0
40
0
40
0
40
0
40
0.249999999999996
40
0.249999999999996
40
0.499999999999993
40
0.499999999999993
40
1
40
1
40
1
40
1
41
1
10
75.1415366109952
20
-6.5471134672315
30
0
41
1
10
75.1877947696971
20
-6.48835309083177
30
0
41
1
10
75.2341949233253
20
-6.42855328193585
30
0
41
1
10
75.3273157436933
20
-6.30688012671484
30
0
41
1
10
75.3740508444951
20
-6.24498907535695
30
0
41
1
10
75.5146192425519
20
-6.05642138085011
30
0
41
1
10
75.6088672240949
20
-5.92674865355701
30
0
41
1
10
75.7038678888099
20
-5.79296996243977
30
0
0
SPLINE
5
159
100
AcDbEntity
8
1
62
256
6
ByLayer
370
18
48
1
60
0
100
AcDbSpline
70
4
71
3
72
34
73
30
40
0
40
0
40
0
40
0
40
0.0624999999999893
40
0.0624999999999893
40
0.124999999999979
40
0.124999999999979
40
0.187499999999968
40
0.187499999999968
40
0.249999999999957
40
0.249999999999957
40
0.312499999999947
40
0.312499999999947
40
0.374999999999936
40
0.374999999999936
40
0.499999999999915
40
0.499999999999915
40
0.562499999999925
40
0.562499999999925
40
0.624999999999936
40
0.624999999999936
40
0.749999999999957
40
0.749999999999957
40
0.812499999999968
40
0.812499999999968
40
0.874999999999979
40
0.874999999999979
40
0.937499999999989
40
0.937499999999989
40
1
40
1
40
1
40
1
41
1
10
75.7038678888099
20
-5.79296996243977
30
0
41
1
10
75.7114458784282
20
-5.78229873676494
30
0
41
1
10
75.7197175992542
20
-5.7727112090794
30
0
41
1
10
75.7374188703717
20
-5.75533191907556
30
0
41
1
10
75.746850552066
20
-5.74754369817387
30
0
41
1
10
75.7667551087796
20
-5.73357826352637
30
0
41
1
10
75.7772925606405
20
-5.7273790723624
30
0
41
1
10
75.7988349781841
20
-5.7167376476813
30
0
41
1
10
75.8098790684734
20
-5.71225654292448
30
0
41
1
10
75.8324518750395
20
-5.70480162465918
30
0
41
1
10
75.8439809489031
20
-5.7018289376104
30
0
41
1
10
75.8674905457965
20
-5.69731214726903
30
0
41
1
10
75.8795224527203
20
-5.69576593288576
30
0
41
1
10
75.9158904102518
20
-5.69327389391336
30
0
41
1
10
75.9403196972766
20
-5.69442751414979
30
0
41
1
10
75.9771639533278
20
-5.70017268689412
30
0
41
1
10
75.9894791899643
20
-5.70276424077184
30
0
41
1
10
76.0141689177516
20
-5.70935496987971
30
0
41
1
10
76.0264072243617
20
-5.7133203999876
30
0
41
1
10
76.0625914264234
20
-5.72716621528295
30
0
41
1
10
76.0861000313272
20
-5.73898302096686
30
0
41
1
10
76.1202656942785
20
-5.76111213766526
30
0
41
1
10
76.1315116923159
20
-5.76926473905095
30
0
41
1
10
76.1533858880914
20
-5.78712775844301
30
0
41
1
10
76.1638892648913
20
-5.79672932015919
30
0
41
1
10
76.1839511176974
20
-5.81738822605865
30
0
41
1
10
76.1935107451826
20
-5.8284437193216
30
0
41
1
10
76.2115394310501
20
-5.85223639657553
30
0
41
1
10
76.2200102234434
20
-5.86499936036046
30
0
41
1
10
76.227632660595
20
-5.87845530938927
30
0
0
SPLINE
5
15A
100
AcDbEntity
8
1
62
256
6
ByLayer
370
18
48
1
60
0
100
AcDbSpline
70
4
71
3
72
8
73
4
40
0
40
0
40
0
40
0
40
1
40
1
40
1
40
1
41
1
10
76.227632660599
20
-5.87845530939563
30
0
41
1
10
76.3433734656462
20
-6.08277347462004
30
0
41
1
10
76.4581038450517
20
-6.28470150491509
30
0
41
1
10
76.5721095779417
20
-6.4841290479437
30
0
0
SPLINE
5
15B
100
AcDbEntity
8
1
62
256
6
ByLayer
370
18
48
1
60
0
100
AcDbSpline
70
4
71
3
72
12
73
8
40
0
40
0
40
0
40
0
40
0.5
40
0.5
40
0.75
40
0.75
40
1
40
1
40
1
40
1
41
1
10
76.5721095779416
20
-6.48412904794341
30
0
41
1
10
76.7436778772404
20
-6.4597449642917
30
0
41
1
10
76.9155496431827
20
-6.4296157820767
30
0
41
1
10
77.1739171029545
20
-6.37600507175608
30
0
41
1
10
77.2601356252067
20
-6.35673030488533
30
0
41
1
10
77.4327994828024
20
-6.31539401467765
30
0
41
1
10
77.5192129329277
20
-6.29334088390871
30
0
41
1
10
77.6057840825261
20
-6.26989684615518
30
0
0
SPLINE
5
15C
100
AcDbEntity
8
1
62
256
6
ByLayer
370
18
48
1
60
0
100
AcDbSpline
70
4
71
3
72
8
73
4
40
0
40
0
40
0
40
0
40
1
40
1
40
1
40
1
41
1
10
77.6057840825261
20
-6.26989684615518
30
0
41
1
10
77.668704181157
20
-6.16461241791586
30
0
41
1
10
77.7318996497742
20
-6.05820442680493
30
0
41
1
10
77.7954304750705
20
-5.95067352947456
30
0
0
SPLINE
5
15D
100
AcDbEntity
8
1
62
256
6
ByLayer
370
18
48
1
60
0
100
AcDbSpline
70
4
71
3
72
34
73
30
40
0
40
0
40
0
40
0
40
0.0625000000000321
40
0.0625000000000321
40
0.125000000000064
40
0.125000000000064
40
0.187500000000096
40
0.187500000000096
40
0.250000000000128
40
0.250000000000128
40
0.31250000000016
40
0.31250000000016
40
0.375000000000192
40
0.375000000000192
40
0.500000000000215
40
0.500000000000215
40
0.562500000000204
40
0.562500000000204
40
0.625000000000193
40
0.625000000000193
40
0.75000000000013
40
0.75000000000013
40
0.812500000000097
40
0.812500000000097
40
0.875000000000065
40
0.875000000000065
40
0.937500000000032
40
0.937500000000032
40
1
40
1
40
1
40
1
41
1
10
77.7954304750705
20
-5.95067352947456
30
0
41
1
10
77.803012546359
20
-5.93784028001687
30
0
41
1
10
77.8112894651863
20
-5.92597095341984
30
0
41
1
10
77.8290028153063
20
-5.90383165397773
30
0
41
1
10
77.838441385314
20
-5.89356479708727
30
0
41
1
10
77.8583611719988
20
-5.8744665060232
30
0
41
1
10
77.8689063866694
20
-5.86559802680512
30
0
41
1
10
77.8904612142427
20
-5.84958133779827
30
0
41
1
10
77.9015114405582
20
-5.84238254278725
30
0
41
1
10
77.9240962964094
20
-5.82943640939666
30
0
41
1
10
77.9356312841656
20
-5.82369015617275
30
0
41
1
10
77.9591524434637
20
-5.81357068243159
30
0
41
1
10
77.9711912605258
20
-5.80918309920241
30
0
41
1
10
78.0075638218782
20
-5.79817336932453
30
0
41
1
10
78.031995247597
20
-5.79369000283796
30
0
41
1
10
78.0688416463487
20
-5.79101670160685
30
0
41
1
10
78.0811574190544
20
-5.79080835910295
30
0
41
1
10
78.1058479082309
20
-5.79180841824228
30
0
41
1
10
78.118075195724
20
-5.7930128133894
30
0
41
1
10
78.1542436629641
20
-5.7987192568919
30
0
41
1
10
78.1777433745907
20
-5.80527907390217
30
0
41
1
10
78.2118979617564
20
-5.81979265580321
30
0
41
1
10
78.2231455169541
20
-5.82544600836695
30
0
41
1
10
78.2449980523781
20
-5.83843894479622
30
0
41
1
10
78.2554923158723
20
-5.84570459162435
30
0
41
1
10
78.2755391474887
20
-5.86190675867638
30
0
41
1
10
78.2850928711155
20
-5.8708411251796
30
0
41
1
10
78.3031128342151
20
-5.8906414543427
30
0
41
1
10
78.3115776176208
20
-5.90152900569953
30
0
41
1
10
78.319195965485
20
-5.9133034814933
30
0
0
SPLINE
5
15E
100
AcDbEntity
8
1
62
256
6
ByLayer
370
18
48
1
60
0
100
AcDbSpline
70
4
71
3
72
8
73
4
40
0
40
0
40
0
40
0
40
1
40
1
40
1
40
1
41
1
10
78.3191959654895
20
-5.91330348150228
30
0
41
1
10
78.3428158143738
20
-5.9498089475066
30
0
41
1
10
78.3663930237076
20
-5.98611354484959
30
0
41
1
10
78.3899304218378
20
-6.02221791852739
30
0
0
SPLINE
5
15F
100
AcDbEntity
8
1
62
256
6
ByLayer
370
18
48
1
60
0
100
AcDbSpline
70
4
71
3
72
14
73
10
40
0
40
0
40
0
40
0
40
0.500000000000018
40
0.500000000000018
40
0.625000000000013
40
0.625000000000013
40
0.750000000000008
40
0.750000000000008
40
1
40
1
40
1
40
1
41
1
10
78.3899304218378
20
-6.02221791852742
30
0
41
1
10
78.6045521713205
20
-5.94515702739952
30
0
41
1
10
78.8210045041596
20
-5.86016834658597
30
0
41
1
10
79.0941498959899
20
-5.74440686861564
30
0
41
1
10
79.1489080809027
20
-5.72077731246506
30
0
41
1
10
79.2586893335875
20
-5.67256934794705
30
0
41
1
10
79.313733874801
20
-5.64798089219678
30
0
41
1
10
79.4789613697428
20
-5.57294143442957
30
0
41
1
10
79.5892556445889
20
-5.52117236464323
30
0
41
1
10
79.6999999180535
20
-5.46774314224743
30
0
0
SPLINE
5
160
100
AcDbEntity
8
1
62
256
6
ByLayer
370
18
48
1
60
0
100
AcDbSpline
70
4
71
3
72
12
73
8
40
0
40
0
40
0
40
0
40
0.499999999999986
40
0.499999999999986
40
0.749999999999993
40
0.749999999999993
40
1
40
1
40
1
40
1
41
1
10
79.6999999180535
20
-5.46774314224743
30
0
41
1
10
79.7966748943536
20
-5.35312964151535
30
0
41
1
10
79.8948313369717
20
-5.23757785841337
30
0
41
1
10
80.0449164701185
20
-5.06321514264604
30
0
41
1
10
80.0953539396502
20
-5.00502585964225
30
0
41
1
10
80.1971092064452
20
-4.88858147608317
30
0
41
1
10
80.248367353371
20
-4.8303996018775
30
0
41
1
10
80.3
20
-4.77227618420469
30
0
0
SPLINE
5
161
100
AcDbEntity
8
1
62
256
6
ByLayer
370
18
48
1
60
0
100
AcDbSpline
70
4
71
3
72
24
73
20
40
0
40
0
40
0
40
0
40
0.0847457528282199
40
0.12711862924233
40
0.12711862924233
40
0.16949150565644
40
0.16949150565644
40
0.338983011312879
40
0.338983011312879
40
0.508474516969317
40
0.508474516969317
40
0.677966022625756
40
0.677966022625756
40
0.720338899039866
40
0.720338899039866
40
0.762711775453976
40
0.762711775453976
40
0.847457528282195
40
1
40
1
40
1
40
1
41
1
10
80.3
20
-4.77227618420446
30
0
41
1
10
80.3
20
-4.70715077549181
30
0
41
1
10
80.3
20
-4.61077144384313
30
0
41
1
10
80.3
20
-4.5163705487827
30
0
41
1
10
80.3
20
-4.45387870948713
30
0
41
1
10
80.3
20
-4.42286274047345
30
0
41
1
10
80.3
20
-4.26943183832753
30
0
41
1
10
80.3
20
-4.1515144162687
30
0
41
1
10
80.3
20
-3.92509997792558
30
0
41
1
10
80.3
20
-3.81659994342058
30
0
41
1
10
80.3
20
-3.60900780815953
30
0
41
1
10
80.3
20
-3.50991251477785
30
0
41
1
10
80.3
20
-3.39205705901836
30
0
41
1
10
80.3
20
-3.36878684638123
30
0
41
1
10
80.3
20
-3.32285421524244
30
0
41
1
10
80.3000000000001
20
-3.30021793857628
30
0
41
1
10
80.3000000000001
20
-3.23354170981094
30
0
41
1
10
80.3
20
-3.11340797578384
30
0
41
1
10
80.3000000000001
20
-3.00514189457584
30
0
41
1
10
80.3000000000001
20
-2.94037518421914
30
0
0
SPLINE
5
162
100
AcDbEntity
8
1
62
256
6
ByLayer
370
18
48
1
60
0
100
AcDbSpline
70
4
71
3
72
14
73
10
40
0
40
0
40
0
40
0
40
0.500000000000002
40
0.500000000000002
40
0.750000000000017
40
0.750000000000017
40
0.875000000000009
40
0.875000000000009
40
1
40
1
40
1
40
1
41
1
10
80.3
20
-2.88689258375288
30
0
41
1
10
80.2017553690427
20
-2.88700622937208
30
0
41
1
10
80.1026236489189
20
-2.88779730973064
30
0
41
1
10
79.9526316731988
20
-2.89072221899488
30
0
41
1
10
79.9024236287259
20
-2.89198363571012
30
0
41
1
10
79.8267690546179
20
-2.89451284901662
30
0
41
1
10
79.80149485309
20
-2.89546257102668
30
0
41
1
10
79.7508289050557
20
-2.89761667527031
30
0
41
1
10
79.7254260834193
20
-2.89886461490104
30
0
41
1
10
79.7000000634013
20
-2.90011076450057
30
0
0
SPLINE
5
163
100
AcDbEntity
8
1
62
256
6
ByLayer
370
18
48
1
60
0
100
AcDbSpline
70
4
71
3
72
8
73
4
40
0
40
0
40
0
40
0
40
1
40
1
40
1
40
1
41
1
10
79.7000000634013
20
-2.9001107645006
30
0
41
1
10
79.6835977339944
20
-2.89185571514983
30
0
41
1
10
79.667199154327
20
-2.88357083135179
30
0
41
1
10
79.6508074283871
20
-2.875252067465
30
0
0
SPLINE
5
164
100
AcDbEntity
8
1
62
256
6
ByLayer
370
18
48
1
60
0
100
AcDbSpline
70
4
71
3
72
13
73
9
40
0
40
0
40
0
40
0
40
0.349385433277452
40
0.349385433277452
40
0.512039074958089
40
0.512039074958089
40
0.674692716638727
40
1
40
1
40
1
40
1
41
1
10
61.1296966619559
20
-7.08195525362888
30
0
41
1
10
61.1238741645787
20
-7.08194758622253
30
0
41
1
10
61.1180377654239
20
-7.07837157335703
30
0
41
1
10
61.1094429742522
20
-7.06780597867524
30
0
41
1
10
61.1067070689544
20
-7.06365835412336
30
0
41
1
10
61.101249738922
20
-7.0538336117468
30
0
41
1
10
61.0930715147755
20
-7.03678873762914
30
0
41
1
10
61.0849174068655
20
-7.01289954376281
30
0
41
1
10
61.0794937055747
20
-6.99397785403013
30
0
0
SPLINE
5
165
100
AcDbEntity
8
1
62
256
6
ByLayer
370
18
48
1
60
0
100
AcDbSpline
70
4
71
3
72
13
73
9
40
0
40
0
40
0
40
0
40
0.136883454321093
40
0.136883454321093
40
0.273766908642186
40
0.547533817284371
40
0.547533817284371
40
1
40
1
40
1
40
1
41
1
10
60.8692120974181
20
-6.95867049633117
30
0
41
1
10
60.8719569501663
20
-6.96998547787078
30
0
41
1
10
60.8747013544542
20
-6.98052687232985
30
0
41
1
10
60.8801720999613
20
-7.00000812915187
30
0
41
1
10
60.8883594089973
20
-7.02686089624888
30
0
41
1
10
60.8964946857726
20
-7.04668496396187
30
0
41
1
10
60.9108422631357
20
-7.07357787383819
30
0
41
1
10
60.9197377294366
20
-7.08194053910486
30
0
41
1
10
60.9286563703125
20
-7.08195084306365
30
0
0
SPLINE
5
166
100
AcDbEntity
8
1
62
256
6
ByLayer
370
18
48
1
60
0
100
AcDbSpline
70
4
71
3
72
14
73
10
40
0
40
0
40
0
40
0
40
0.0069546691216794
40
0.0069546691216794
40
0.205563735297344
40
0.205563735297344
40
0.602781867648672
40
0.602781867648672
40
1
40
1
40
1
40
1
41
1
10
65.9286744496931
20
7.08194886710368
30
0
41
1
10
65.9288659658331
20
7.08194916537525
30
0
41
1
10
65.9290574367153
20
7.08194560702484
30
0
41
1
10
65.9347154187601
20
7.08172646401479
30
0
41
1
10
65.9401556299072
20
7.0783805119425
30
0
41
1
10
65.9564318528001
20
7.05911677230114
30
0
41
1
10
65.9672331629501
20
7.03399668595924
30
0
41
1
10
65.9889233730145
20
6.95954632451941
30
0
41
1
10
65.9997818058076
20
6.91021615214885
30
0
41
1
10
66.0106694587256
20
6.84857082499764
30
0
0
SPLINE
5
167
100
AcDbEntity
8
1
62
256
6
ByLayer
370
18
48
1
60
0
100
AcDbSpline
70
4
71
3
72
16
73
12
40
0
40
0
40
0
40
0
40
0.357893708597814
40
0.357893708597814
40
0.536840562896721
40
0.536840562896721
40
0.626313990046175
40
0.626313990046175
40
0.715787417195628
40
0.715787417195628
40
1
40
1
40
1
40
1
41
1
10
66.2209167009887
20
6.79348901426403
30
0
41
1
10
66.2100929912284
20
6.86149845416813
30
0
41
1
10
66.199242987398
20
6.91770725064478
30
0
41
1
10
66.1829357206487
20
6.98412885897352
30
0
41
1
10
66.1774933831748
20
7.00328170993021
30
0
41
1
10
66.1693095173721
20
7.02745140011086
30
0
41
1
10
66.1665780867709
20
7.0347476419503
30
0
41
1
10
66.1611055037259
20
7.04780158110339
30
0
41
1
10
66.1583675380499
20
7.0535493015613
30
0
41
1
10
66.1469700238028
20
7.07421416297598
30
0
41
1
10
66.1383479414417
20
7.08196991381462
30
0
41
1
10
66.1297305176642
20
7.08195160634364
30
0
0
SPLINE
5
168
100
AcDbEntity
8
1
62
256
6
ByLayer
370
13
48
1
60
0
100
AcDbSpline
70
4
71
3
72
10
73
6
40
0
40
0
40
0
40
0
40
0.229390397010496
40
0.849510440113836
40
1
40
1
40
1
40
1
41
1
10
59.6685707811319
20
-5.60298800115831
30
0
41
1
10
59.6790937945043
20
-5.6700292061322
30
0
41
1
10
59.7180641085659
20
-5.88436905668203
30
0
41
1
10
59.7639381865298
20
-5.98291905328969
30
0
41
1
10
59.799289009211
20
-5.94796440676075
30
0
41
1
10
59.8061925388398
20
-5.93695126099115
30
0
0
SPLINE
5
169
100
AcDbEntity
8
1
62
256
6
ByLayer
370
18
48
1
60
0
100
AcDbSpline
70
4
71
3
72
17
73
13
40
0
40
0
40
0
40
0
40
0.221738682183091
40
0.481159121455394
40
0.481159121455394
40
0.610869341091545
40
0.610869341091545
40
0.675724450909621
40
0.675724450909621
40
0.740579560727696
40
0.740579560727696
40
1
40
1
40
1
40
1
41
1
10
59.5207113658498
20
-6.40538758246848
30
0
41
1
10
59.5163042834257
20
-6.39773688162427
30
0
41
1
10
59.506751303755
20
-6.36519400964588
30
0
41
1
10
59.4972129759675
20
-6.29865262822929
30
0
41
1
10
59.4894604136653
20
-6.22982115484814
30
0
41
1
10
59.4868693604957
20
-6.20436939297252
30
0
41
1
10
59.4829626605402
20
-6.16235751676376
30
0
41
1
10
59.4816569622062
20
-6.14771403085047
30
0
41
1
10
59.4790371746745
20
-6.11713252612338
30
0
41
1
10
59.4777224334905
20
-6.1011843335493
30
0
41
1
10
59.471137909994
20
-6.01828253615452
30
0
41
1
10
59.4659001285627
20
-5.94266890394232
30
0
41
1
10
59.4606806750091
20
-5.8580717903551
30
0
0
SPLINE
5
16A
100
AcDbEntity
8
1
62
256
6
ByLayer
370
18
48
1
60
0
100
AcDbSpline
70
4
71
3
72
25
73
21
40
0
40
0
40
0
40
0
40
0.0613390849052148
40
0.0613390849052148
40
0.155205176414693
40
0.155205176414693
40
0.202138222169432
40
0.202138222169432
40
0.249071267924171
40
0.249071267924171
40
0.436803450943128
40
0.436803450943128
40
0.624535633962085
40
0.624535633962085
40
0.812267816981043
40
0.812267816981043
40
0.859200862735782
40
0.859200862735782
40
0.906133908490521
40
1
40
1
40
1
40
1
41
1
10
67.9286239589964
20
7.08195353465237
30
0
41
1
10
67.9321594354209
20
7.08195910368718
30
0
41
1
10
67.9357006778268
20
7.08065178046147
30
0
41
1
10
67.9446845372787
20
7.07400982850808
30
0
41
1
10
67.9501340163543
20
7.06690131300337
30
0
41
1
10
67.9583328165212
20
7.05151963161606
30
0
41
1
10
67.9610699224579
20
7.04560551552851
30
0
41
1
10
67.9665534811524
20
7.03218484162019
30
0
41
1
10
67.9692949686702
20
7.02468850911023
30
0
41
1
10
67.9829545155355
20
6.98344563138008
30
0
41
1
10
67.9937722905107
20
6.93833055573887
30
0
41
1
10
68.0153804291606
20
6.82456756050689
30
0
41
1
10
68.0261997366501
20
6.75591833738153
30
0
41
1
10
68.0479105821103
20
6.59504270050732
30
0
41
1
10
68.0587855913191
20
6.5028182012822
30
0
41
1
10
68.0724583010738
20
6.37230488650067
30
0
41
1
10
68.0751979181822
20
6.34542890869383
30
0
41
1
10
68.0806569311552
20
6.29046160311557
30
0
41
1
10
68.0888271378084
20
6.20607551554863
30
0
41
1
10
68.0969581486308
20
6.11595131153624
30
0
41
1
10
68.1023785558228
20
6.05335816468562
30
0
0
SPLINE
5
16B
100
AcDbEntity
8
1
62
256
6
ByLayer
370
18
48
1
60
0
100
AcDbSpline
70
4
71
3
72
24
73
20
40
0
40
0
40
0
40
0
40
0.0445453974672916
40
0.0445453974672916
40
0.0890907949345832
40
0.178181589869167
40
0.178181589869167
40
0.356363179738334
40
0.356363179738334
40
0.534544769607501
40
0.534544769607501
40
0.579090167074794
40
0.579090167074794
40
0.623635564542086
40
0.623635564542086
40
0.71272635947667
40
0.71272635947667
40
0.890907949345839
40
1
40
1
40
1
40
1
41
1
10
68.3126373444954
20
5.94428511950591
30
0
41
1
10
68.3098948430612
20
5.97744871403563
30
0
41
1
10
68.3071561028285
20
6.00992061773326
30
0
41
1
10
68.3016947285692
20
6.07336764155423
30
0
41
1
10
68.2935215207202
20
6.16635503488274
30
0
41
1
10
68.2853932522351
20
6.25286450410238
30
0
41
1
10
68.2691544792469
20
6.41736954900594
30
0
41
1
10
68.2583283532972
20
6.51570903648582
30
0
41
1
10
68.2366387898078
20
6.68984582872469
30
0
41
1
10
68.2257898587699
20
6.76564456620102
30
0
41
1
10
68.21216341896
20
6.84593197024179
30
0
41
1
10
68.2094344615239
20
6.86126456746018
30
0
41
1
10
68.2039660309156
20
6.89046306180657
30
0
41
1
10
68.2012282408593
20
6.90431729739208
30
0
41
1
10
68.1930410198622
20
6.94344310972676
30
0
41
1
10
68.1876022395521
20
6.96636395788099
30
0
41
1
10
68.1712916127042
20
7.02581779551502
30
0
41
1
10
68.1537943287221
20
7.06974892412217
30
0
41
1
10
68.1363549201593
20
7.08194613616189
30
0
41
1
10
68.1297238117558
20
7.08195439615852
30
0
0
SPLINE
5
16C
100
AcDbEntity
8
1
62
256
6
ByLayer
370
18
48
1
60
0
100
AcDbSpline
70
4
71
3
72
27
73
23
40
0
40
0
40
0
40
0
40
0.0084889089716485
40
0.0084889089716485
40
0.173740757476374
40
0.338992605981099
40
0.338992605981099
40
0.421618530233461
40
0.421618530233461
40
0.462931492359642
40
0.462931492359642
40
0.504244454485824
40
0.504244454485824
40
0.669496302990549
40
0.669496302990549
40
0.834748151495274
40
0.834748151495274
40
0.917374075747637
40
0.917374075747637
40
0.958687037873819
40
0.958687037873819
40
1
40
1
40
1
40
1
41
1
10
73.1297674861296
20
-7.08194895083301
30
0
41
1
10
73.1292074442258
20
-7.08194974498136
30
0
41
1
10
73.1286474520533
20
-7.08191772452997
30
0
41
1
10
73.1171869529185
20
-7.08059213622872
30
0
41
1
10
73.0954534236588
20
-7.05329896338776
30
0
41
1
10
73.0738308036554
20
-6.97722898957139
30
0
41
1
10
73.0575309269446
20
-6.90159528735069
30
0
41
1
10
73.0520823392577
20
-6.87328122651812
30
0
41
1
10
73.0438606264674
20
-6.82606281870375
30
0
41
1
10
73.041108622046
20
-6.80950698584866
30
0
41
1
10
73.0356178865587
20
-6.77497230918593
30
0
41
1
10
73.0328772643217
20
-6.75698479771924
30
0
41
1
10
73.0191981561653
20
-6.66348674359378
30
0
41
1
10
73.0083373017857
20
-6.57732331969964
30
0
41
1
10
72.9866962834118
20
-6.38282604602824
30
0
41
1
10
72.9759161745709
20
-6.27449102571836
30
0
41
1
10
72.9596360069593
20
-6.09525311759344
30
0
41
1
10
72.9541875223435
20
-6.03271265993899
30
0
41
1
10
72.9459859417958
20
-5.93464634881948
30
0
41
1
10
72.9432472764182
20
-5.90124794685713
30
0
41
1
10
72.9377602776651
20
-5.8330167480301
30
0
41
1
10
72.9350081480133
20
-5.79813455015591
30
0
41
1
10
72.9322607303256
20
-5.76265464518386
30
0
0
SPLINE
5
16D
100
AcDbEntity
8
1
62
256
6
ByLayer
370
18
48
1
60
0
100
AcDbSpline
70
4
71
3
72
27
73
23
40
0
40
0
40
0
40
0
40
0.158106228622552
40
0.316212457245104
40
0.316212457245104
40
0.355739014400742
40
0.355739014400742
40
0.39526557155638
40
0.39526557155638
40
0.474318685867655
40
0.474318685867655
40
0.632424914490206
40
0.632424914490206
40
0.790531143112758
40
0.790531143112758
40
0.869584257424033
40
0.869584257424033
40
0.909110814579671
40
0.909110814579671
40
0.948637371735308
40
0.948637371735308
40
1
40
1
40
1
40
1
41
1
10
72.7219882571182
20
-5.64125815150013
30
0
41
1
10
72.7328854957659
20
-5.78756292654961
30
0
41
1
10
72.7545971424949
20
-6.05920257782572
30
0
41
1
10
72.776231141981
20
-6.28932371692989
30
0
41
1
10
72.7898553765644
20
-6.4198923560692
30
0
41
1
10
72.792585780942
20
-6.44534156624005
30
0
41
1
10
72.7980625411433
20
-6.4948970305646
30
0
41
1
10
72.8008113717599
20
-6.51902493822928
30
0
41
1
10
72.8090631981875
20
-6.5892231935714
30
0
41
1
10
72.8145456811286
20
-6.6328983422639
30
0
41
1
10
72.8309375058838
20
-6.75475406899363
30
0
41
1
10
72.8417868977849
20
-6.82378864082398
30
0
41
1
10
72.8634382289602
20
-6.93791626097382
30
0
41
1
10
72.8742434758152
20
-6.98300873808589
30
0
41
1
10
72.8905920446259
20
-7.03246952324147
30
0
41
1
10
72.8960610121515
20
-7.04592101233368
30
0
41
1
10
72.9042916026674
20
-7.06146229194778
30
0
41
1
10
72.9070397344608
20
-7.06586965781236
30
0
41
1
10
72.9125458424287
20
-7.07311942920234
30
0
41
1
10
72.9152930852476
20
-7.07594730249923
30
0
41
1
10
72.921593608962
20
-7.080633127384
30
0
41
1
10
72.9251424828195
20
-7.08195199275383
30
0
41
1
10
72.9286827428903
20
-7.08195383892044
30
0
0
SPLINE
5
16E
100
AcDbEntity
8
1
62
256
6
ByLayer
370
18
48
1
60
0
100
AcDbSpline
70
4
71
3
72
110
73
106
40
0
40
0
40
0
40
0
40
0.0379542635861084
40
0.0379542635861084
40
0.0759085271722168
40
0.0759085271722168
40
0.151817054344433
40
0.151817054344433
40
0.189771317930542
40
0.189771317930542
40
0.208748449723595
40
0.208748449723595
40
0.218237015620122
40
0.218237015620122
40
0.22772558151665
40
0.22772558151665
40
0.246702713309706
40
0.246702713309706
40
0.265679845102762
40
0.265679845102762
40
0.284656976895818
40
0.284656976895818
40
0.303634108688874
40
0.303634108688874
40
0.341588372274986
40
0.341588372274986
40
0.379542635861097
40
0.379542635861097
40
0.398519767654155
40
0.398519767654155
40
0.408008333550683
40
0.408008333550683
40
0.417496899447212
40
0.43647403124027
40
0.43647403124027
40
0.455451163033327
40
0.455451163033327
40
0.493405426619442
40
0.493405426619442
40
0.512382558412498
40
0.512382558412498
40
0.531359690205554
40
0.531359690205554
40
0.55033682199861
40
0.55033682199861
40
0.569313953791666
40
0.569313953791666
40
0.578802519688195
40
0.578802519688195
40
0.588291085584725
40
0.588291085584725
40
0.607268217377784
40
0.607268217377784
40
0.626245349170843
40
0.626245349170843
40
0.630989632119106
40
0.630989632119106
40
0.635733915067369
40
0.635733915067369
40
0.645222480963894
40
0.645222480963894
40
0.65471104686042
40
0.65471104686042
40
0.659455329808683
40
0.659455329808683
40
0.664199612756946
40
0.664199612756946
40
0.683176744549998
40
0.683176744549998
40
0.692665310446524
40
0.697409593394786
40
0.697409593394786
40
0.702153876343049
40
0.702153876343049
40
0.721131008136101
40
0.721131008136101
40
0.730619574032627
40
0.730619574032627
40
0.73536385698089
40
0.73536385698089
40
0.740108139929153
40
0.740108139929153
40
0.759085271722205
40
0.759085271722205
40
0.778062403515258
40
0.778062403515258
40
0.787550969411783
40
0.787550969411783
40
0.797039535308309
40
0.797039535308309
40
0.81601666710136
40
0.81601666710136
40
0.834993798894412
40
0.834993798894412
40
0.872948062480514
40
0.872948062480514
40
0.891925194273564
40
0.891925194273564
40
0.910902326066615
40
0.910902326066615
40
0.948856589652715
40
0.948856589652715
40
0.986810853238816
40
0.986810853238816
40
1
40
1
40
1
40
1
41
1
10
41.1631875774206
20
-5.27353635762799
30
0
41
1
10
41.0367229443649
20
-5.26439168142082
30
0
41
1
10
40.9091852147918
20
-5.25295047244396
30
0
41
1
10
40.6513759274483
20
-5.22633412170697
30
0
41
1
10
40.5211237971497
20
-5.21115602390481
30
0
41
1
10
40.1256453737322
20
-5.16137190305426
30
0
41
1
10
39.8556937712449
20
-5.12247391225546
30
0
41
1
10
39.4380730863965
20
-5.06189452421623
30
0
41
1
10
39.2967589523253
20
-5.04133527123182
30
0
41
1
10
39.0811923983193
20
-5.01082567275679
30
0
41
1
10
39.0087351661687
20
-5.0007125348159
30
0
41
1
10
38.8990920756434
20
-4.98574116776186
30
0
41
1
10
38.8623853325262
20
-4.98078348746665
30
0
41
1
10
38.7886436209019
20
-4.97095325046015
30
0
41
1
10
38.75163279544
20
-4.96608404860203
30
0
41
1
10
38.6404799020197
20
-4.95168546227097
30
0
41
1
10
38.5661021263321
20
-4.94234855653954
30
0
41
1
10
38.4167519450123
20
-4.92438240077703
30
0
41
1
10
38.3417720898181
20
-4.91576709361934
30
0
41
1
10
38.191270963147
20
-4.89925183349433
30
0
41
1
10
38.1157499979925
20
-4.89135126963478
30
0
41
1
10
37.9642458494131
20
-4.87619915384573
30
0
41
1
10
37.8882755613631
20
-4.86892321202555
30
0
41
1
10
37.6597013038326
20
-4.84810204301965
30
0
41
1
10
37.5063818247557
20
-4.83566342632605
30
0
41
1
10
37.1976846504264
20
-4.81446534065748
30
0
41
1
10
37.042315937859
20
-4.80568957927252
30
0
41
1
10
36.8075790967715
20
-4.79581019056772
30
0
41
1
10
36.729050755619
20
-4.79306774417654
30
0
41
1
10
36.6108067327155
20
-4.78985597957876
30
0
41
1
10
36.5712860774583
20
-4.78893514423913
30
0
41
1
10
36.4922431612048
20
-4.78740937456317
30
0
41
1
10
36.3737555163216
20
-4.78559515616243
30
0
41
1
10
36.2555020521729
20
-4.7852380040855
30
0
41
1
10
36.0980467735695
20
-4.78610848860976
30
0
41
1
10
36.0194261657164
20
-4.78721114265724
30
0
41
1
10
35.7839187180227
20
-4.79270858444303
30
0
41
1
10
35.6273720573442
20
-4.79921861628969
30
0
41
1
10
35.3933917144989
20
-4.81391928524911
30
0
41
1
10
35.3155378129266
20
-4.81963677187355
30
0
41
1
10
35.1601470719993
20
-4.83284372722272
30
0
41
1
10
35.0830843454876
20
-4.84029504368092
30
0
41
1
10
34.9307325710254
20
-4.8569178613746
30
0
41
1
10
34.855382510225
20
-4.866090472434
30
0
41
1
10
34.7065803605767
20
-4.88625588565631
30
0
41
1
10
34.6331274162342
20
-4.89724916820455
30
0
41
1
10
34.5246254612124
20
-4.91518729668852
30
0
41
1
10
34.4887385146417
20
-4.92140813344227
30
0
41
1
10
34.4175909956708
20
-4.93435838759089
30
0
41
1
10
34.3822850498127
20
-4.94109577421042
30
0
41
1
10
34.2784045686074
20
-4.96187772636705
30
0
41
1
10
34.2115376376218
20
-4.97654268913311
30
0
41
1
10
34.0835055726444
20
-5.00744747337316
30
0
41
1
10
34.022329166997
20
-5.02368659281231
30
0
41
1
10
33.9502291151434
20
-5.04488971266804
30
0
41
1
10
33.9360258496992
20
-5.04917721194548
30
0
41
1
10
33.9083177564915
20
-5.05776615364175
30
0
41
1
10
33.89478287982
20
-5.06207625513156
30
0
41
1
10
33.8551597934988
20
-5.07504176619551
30
0
41
1
10
33.8300472385364
20
-5.08373163632069
30
0
41
1
10
33.7826132908932
20
-5.10114339559937
30
0
41
1
10
33.7602868383408
20
-5.10986418881515
30
0
41
1
10
33.7289824141941
20
-5.12290299811741
30
0
41
1
10
33.7189123475059
20
-5.1272421992968
30
0
41
1
10
33.6995252445333
20
-5.1358954362675
30
0
41
1
10
33.690188126683
20
-5.14021922540761
30
0
41
1
10
33.6456950554529
20
-5.16163145907129
30
0
41
1
10
33.61757654423
20
-5.17787682754934
30
0
41
1
10
33.586075712735
20
-5.20048551401194
30
0
41
1
10
33.5730026992763
20
-5.21135047034443
30
0
41
1
10
33.5639013185952
20
-5.22147634092767
30
0
41
1
10
33.5587127828933
20
-5.22805359547814
30
0
41
1
10
33.556561158136
20
-5.2312545950241
30
0
41
1
10
33.5480491426128
20
-5.24665313374891
30
0
41
1
10
33.5482752534254
20
-5.25717154276575
30
0
41
1
10
33.5574519628341
20
-5.27029372735561
30
0
41
1
10
33.5619902481785
20
-5.27422493412729
30
0
41
1
10
33.5708503488031
20
-5.27946075839648
30
0
41
1
10
33.5741445170504
20
-5.28109371370016
30
0
41
1
10
33.5813349118844
20
-5.28412107161978
30
0
41
1
10
33.5852360586836
20
-5.2855185884394
30
0
41
1
10
33.6061743182015
20
-5.29194459794931
30
0
41
1
10
33.6274627882366
20
-5.29529467278894
30
0
41
1
10
33.6772590860846
20
-5.29879464479865
30
0
41
1
10
33.7057830589884
20
-5.29894265973741
30
0
41
1
10
33.7530514113581
20
-5.29695984446894
30
0
41
1
10
33.7695640918519
20
-5.29593019079317
30
0
41
1
10
33.8039394334286
20
-5.29316192085457
30
0
41
1
10
33.8217080730903
20
-5.29143124855693
30
0
41
1
10
33.876561540983
20
-5.28526452871458
30
0
41
1
10
33.9151858099562
20
-5.27985648707883
30
0
41
1
10
33.9957539929908
20
-5.26670991144081
30
0
41
1
10
34.0377012708565
20
-5.25897030047636
30
0
41
1
10
34.1676831106136
20
-5.23253425745983
30
0
41
1
10
34.2598134838884
20
-5.21063552574418
30
0
41
1
10
34.4040784384601
20
-5.17210109496389
30
0
41
1
10
34.4532279657445
20
-5.15829283006278
30
0
41
1
10
34.5531689073849
20
-5.12889707295019
30
0
41
1
10
34.603769807484
20
-5.11336687543181
30
0
41
1
10
34.7571839979117
20
-5.06442124388528
30
0
41
1
10
34.8615954210198
20
-5.02865817882326
30
0
41
1
10
35.0736429153698
20
-4.95138602342129
30
0
41
1
10
35.1812854845791
20
-4.90987365598619
30
0
41
1
10
35.3280569773491
20
-4.85027175130247
30
0
41
1
10
35.36606202294
20
-4.83457271939557
30
0
41
1
10
35.4042123143128
20
-4.81854897057778
30
0
0
SPLINE
5
16F
100
AcDbEntity
8
1
62
256
6
ByLayer
370
18
48
1
60
0
100
AcDbSpline
70
4
71
3
72
30
73
26
40
0
40
0
40
0
40
0
40
0.125
40
0.125
40
0.25
40
0.25
40
0.28125
40
0.28125
40
0.3125
40
0.3125
40
0.375
40
0.375
40
0.499999999999999
40
0.499999999999999
40
0.624999999999999
40
0.624999999999999
40
0.687499999999999
40
0.687499999999999
40
0.718749999999999
40
0.718749999999999
40
0.749999999999999
40
0.749999999999999
40
0.875
40
0.875
40
1
40
1
40
1
40
1
41
1
10
69.9332266210014
20
7.08123225119812
30
0
41
1
10
69.9440875439511
20
7.07779699850522
30
0
41
1
10
69.9548848119933
20
7.06205581762748
30
0
41
1
10
69.9765238480948
20
7.00606592814131
30
0
41
1
10
69.9873926227857
20
6.96581892190875
30
0
41
1
10
70.0010881805333
20
6.89977269125319
30
0
41
1
10
70.003831990568
20
6.88577456218391
30
0
41
1
10
70.0093296199888
20
6.85618166420565
30
0
41
1
10
70.0120769280231
20
6.84062043760011
30
0
41
1
10
70.0202919486926
20
6.79179952056933
30
0
41
1
10
70.0257425027466
20
6.75635064285405
30
0
41
1
10
70.0420410651425
20
6.64146037245663
30
0
41
1
10
70.0528318149904
20
6.5534970872842
30
0
41
1
10
70.0744996928788
20
6.35513823495396
30
0
41
1
10
70.0853788613559
20
6.2447431506767
30
0
41
1
10
70.1017514850883
20
6.06202230297231
30
0
41
1
10
70.1072192049504
20
5.99825513575937
30
0
41
1
10
70.1154458640122
20
5.89822312789872
30
0
41
1
10
70.1181914685139
20
5.8641567718004
30
0
41
1
10
70.1236617610022
20
5.79496090522684
30
0
41
1
10
70.1263904386353
20
5.75978341892369
30
0
41
1
10
70.140009623626
20
5.58102926248989
30
0
41
1
10
70.1508390436433
20
5.42887564491235
30
0
41
1
10
70.1725369960457
20
5.10668330078633
30
0
41
1
10
70.1833770274617
20
4.93664312310884
30
0
41
1
10
70.1942345521248
20
4.75758122783006
30
0
0
SPLINE
5
170
100
AcDbEntity
8
1
62
256
6
ByLayer
370
18
48
1
60
0
100
AcDbSpline
70
4
71
3
72
30
73
26
40
0
40
0
40
0
40
0
40
0.125000000000001
40
0.125000000000001
40
0.187500000000001
40
0.187500000000001
40
0.218750000000001
40
0.218750000000001
40
0.250000000000001
40
0.250000000000001
40
0.375000000000001
40
0.375000000000001
40
0.500000000000001
40
0.500000000000001
40
0.562500000000001
40
0.562500000000001
40
0.593750000000001
40
0.593750000000001
40
0.625000000000001
40
0.625000000000001
40
0.75
40
0.75
40
0.875
40
0.875
40
1
40
1
40
1
40
1
41
1
10
70.4045141102268
20
4.60348988321306
30
0
41
1
10
70.3936924447297
20
4.78652548014708
30
0
41
1
10
70.3828244637965
20
4.96170121024451
30
0
41
1
10
70.3664597085547
20
5.21244617240666
30
0
41
1
10
70.3609932958695
20
5.29402079942599
30
0
41
1
10
70.3527665048262
20
5.41330587392221
30
0
41
1
10
70.3500259030003
20
5.45246228417147
30
0
41
1
10
70.3445621245807
20
5.52933789452442
30
0
41
1
10
70.3418363687619
20
5.56709457165226
30
0
41
1
10
70.3282303527686
20
5.75250718297286
30
0
41
1
10
70.3174087378864
20
5.8900773645596
30
0
41
1
10
70.2957135571227
20
6.14414882646545
30
0
41
1
10
70.2848696564913
20
6.26065027284241
30
0
41
1
10
70.2685782807245
20
6.41944144571946
30
0
41
1
10
70.2631423506457
20
6.4697065237302
30
0
41
1
10
70.2549648721671
20
6.54103779566802
30
0
41
1
10
70.2522350326184
20
6.56413681379922
30
0
41
1
10
70.246763731598
20
6.6089629490601
30
0
41
1
10
70.24402282128
20
6.63068272056307
30
0
41
1
10
70.230358858766
20
6.73522068876125
30
0
41
1
10
70.219469817998
20
6.80642245587566
30
0
41
1
10
70.1977491219497
20
6.92472220478038
30
0
41
1
10
70.186928814596
20
6.97181834464905
30
0
41
1
10
70.1652712266087
20
7.04188291894408
30
0
41
1
10
70.1544326184731
20
7.06485335759984
30
0
41
1
10
70.1434644051532
20
7.07536452731259
30
0
0
SPLINE
5
171
100
AcDbEntity
8
1
62
256
6
ByLayer
370
18
48
1
60
0
100
AcDbSpline
70
4
71
3
72
29
73
25
40
0
40
0
40
0
40
0
40
0.125000000000001
40
0.125000000000001
40
0.250000000000001
40
0.250000000000001
40
0.375000000000002
40
0.375000000000002
40
0.406250000000002
40
0.406250000000002
40
0.437500000000002
40
0.500000000000002
40
0.500000000000002
40
0.625000000000002
40
0.625000000000002
40
0.750000000000001
40
0.750000000000001
40
0.781250000000001
40
0.781250000000001
40
0.812500000000001
40
0.812500000000001
40
0.875000000000001
40
0.875000000000001
40
1
40
1
40
1
40
1
41
1
10
71.1017050230121
20
-7.05452353045959
30
0
41
1
10
71.0907727447074
20
-7.03309262021631
30
0
41
1
10
71.0799012452962
20
-6.99932998949103
30
0
41
1
10
71.0581675674122
20
-6.90790090135644
30
0
41
1
10
71.0473308320798
20
-6.85023230590224
30
0
41
1
10
71.0256547790841
20
-6.71097868469948
30
0
41
1
10
71.014815952716
20
-6.62939558365292
30
0
41
1
10
71.0011277166934
20
-6.51198790504029
30
0
41
1
10
70.9983787835918
20
-6.48770017667962
30
0
41
1
10
70.9928928753473
20
-6.43782797159514
30
0
41
1
10
70.9846754262401
20
-6.36101583149559
30
0
41
1
10
70.9764956029839
20
-6.27826380393094
30
0
41
1
10
70.9601821172288
20
-6.10496827083222
30
0
41
1
10
70.9493724850921
20
-5.97906907494891
30
0
41
1
10
70.927754829089
20
-5.70671770772333
30
0
41
1
10
70.9169364237189
20
-5.56026649633253
30
0
41
1
10
70.9032727337343
20
-5.36406859165655
30
0
41
1
10
70.9005343767035
20
-5.324170632023
30
0
41
1
10
70.8950467651468
20
-5.24304381521995
30
0
41
1
10
70.8922935539827
20
-5.20175434155215
30
0
41
1
10
70.8840497935481
20
-5.07636359943652
30
0
41
1
10
70.878580275683
20
-4.99082358611014
30
0
41
1
10
70.8622358387904
20
-4.72848703052716
30
0
41
1
10
70.8514294504114
20
-4.54598848634353
30
0
41
1
10
70.8406191090367
20
-4.3560215406828
30
0
0
SPLINE
5
172
100
AcDbEntity
8
1
62
256
6
ByLayer
370
18
48
1
60
0
100
AcDbSpline
70
4
71
3
72
34
73
30
40
0
40
0
40
0
40
0
40
0.0624999999999996
40
0.0624999999999996
40
0.0937499999999994
40
0.0937499999999994
40
0.124999999999999
40
0.124999999999999
40
0.249999999999999
40
0.249999999999999
40
0.374999999999999
40
0.374999999999999
40
0.437499999999998
40
0.437499999999998
40
0.468749999999999
40
0.468749999999999
40
0.499999999999999
40
0.499999999999999
40
0.624999999999999
40
0.624999999999999
40
0.749999999999999
40
0.749999999999999
40
0.874999999999999
40
0.874999999999999
40
0.906249999999999
40
0.906249999999999
40
0.937499999999999
40
0.937499999999999
40
1
40
1
40
1
40
1
41
1
10
70.6303587447227
20
-4.19284940518486
30
0
41
1
10
70.6357853896448
20
-4.29031834641094
30
0
41
1
10
70.6412213549045
20
-4.3862017252749
30
0
41
1
10
70.6494095990762
20
-4.52760141366792
30
0
41
1
10
70.6521487408827
20
-4.57439616262022
30
0
41
1
10
70.6576214989995
20
-4.66680428824438
30
0
41
1
10
70.6603539188937
20
-4.71239769102095
30
0
41
1
10
70.6740067826789
20
-4.93734616590092
30
0
41
1
10
70.6848869678763
20
-5.10767046788274
30
0
41
1
10
70.7065576481484
20
-5.4295450823958
30
0
41
1
10
70.7173481218067
20
-5.58109428580892
30
0
41
1
10
70.7335781361238
20
-5.79425634415784
30
0
41
1
10
70.7389967262636
20
-5.86294551116134
30
0
41
1
10
70.747162725728
20
-5.96237956299845
30
0
41
1
10
70.7498916135785
20
-5.99492398342082
30
0
41
1
10
70.7553635153123
20
-6.05879989955099
30
0
41
1
10
70.7581083618959
20
-6.09015396710879
30
0
41
1
10
70.7718440237812
20
-6.24360923758985
30
0
41
1
10
70.7827405603362
20
-6.3544391922822
30
0
41
1
10
70.8044141283374
20
-6.55306242032367
30
0
41
1
10
70.815191258296
20
-6.64085318014375
30
0
41
1
10
70.8368283472775
20
-6.79347834558394
30
0
41
1
10
70.8477115681661
20
-6.85831399716372
30
0
41
1
10
70.8613964536669
20
-6.92461159283491
30
0
41
1
10
70.8641375081765
20
-6.93713188624832
30
0
41
1
10
70.8696288046325
20
-6.96067620851636
30
0
41
1
10
70.8723709010315
20
-6.97166422769237
30
0
41
1
10
70.8805718537552
20
-7.00223065298707
30
0
41
1
10
70.8860124224093
20
-7.01944465779582
30
0
41
1
10
70.891436570703
20
-7.03355289288851
30
0
0
SPLINE
5
173
100
AcDbEntity
8
1
62
256
6
ByLayer
370
18
48
1
60
0
100
AcDbSpline
70
4
71
3
72
28
73
24
40
0
40
0
40
0
40
0
40
0.125
40
0.125
40
0.249999999999999
40
0.249999999999999
40
0.374999999999999
40
0.374999999999999
40
0.406249999999999
40
0.406249999999999
40
0.437499999999999
40
0.437499999999999
40
0.499999999999999
40
0.499999999999999
40
0.624999999999999
40
0.75
40
0.75
40
0.875
40
0.875
40
0.90625
40
0.90625
40
0.9375
40
1
40
1
40
1
40
1
41
1
10
59.239766842386
20
1.15703263691711
30
0
41
1
10
59.2353084508982
20
1.33413302148765
30
0
41
1
10
59.231051367117
20
1.50841049865187
30
0
41
1
10
59.2228252757432
20
1.85135693372709
30
0
41
1
10
59.2188569002846
20
2.02002667811814
30
0
41
1
10
59.2112284213444
20
2.35173823852401
30
0
41
1
10
59.2075693646664
20
2.51478091190836
30
0
41
1
10
59.2031805412661
20
2.71495739352829
30
0
41
1
10
59.2023119008399
20
2.75481092576618
30
0
41
1
10
59.2005920686717
20
2.83414992785197
30
0
41
1
10
59.1997408279969
20
2.87363839121414
30
0
41
1
10
59.1972246313809
20
2.99093381811667
30
0
41
1
10
59.1955922103479
20
3.06777916761368
30
0
41
1
10
59.1908126595691
20
3.29431635695877
30
0
41
1
10
59.184769297793
20
3.58573348945686
30
0
41
1
10
59.1794989571913
20
3.8563274777681
30
0
41
1
10
59.174621890935
20
4.11642759732345
30
0
41
1
10
59.1723753814532
20
4.2412277587789
30
0
41
1
10
59.1697871359711
20
4.39042642402487
30
0
41
1
10
59.1692808772551
20
4.41995909396863
30
0
41
1
10
59.168298158043
20
4.47814047507006
30
0
41
1
10
59.1668686244841
20
4.56408903913587
30
0
41
1
10
59.165581571529
20
4.64610707746746
30
0
41
1
10
59.1647933439436
20
4.69906209041451
30
0
0
SPLINE
5
174
100
AcDbEntity
8
1
62
256
6
ByLayer
370
18
48
1
60
0
100
AcDbSpline
70
4
71
3
72
120
73
116
40
0
40
0
40
0
40
0
40
0.0312500000000012
40
0.0312500000000012
40
0.0625000000000024
40
0.0625000000000024
40
0.125000000000007
40
0.125000000000007
40
0.156250000000011
40
0.156250000000011
40
0.171875000000011
40
0.171875000000011
40
0.179687500000013
40
0.179687500000013
40
0.187500000000014
40
0.187500000000014
40
0.20312500000002
40
0.20312500000002
40
0.218750000000026
40
0.218750000000026
40
0.234375000000032
40
0.234375000000032
40
0.250000000000038
40
0.250000000000038
40
0.281250000000049
40
0.281250000000049
40
0.312500000000061
40
0.312500000000061
40
0.328125000000067
40
0.328125000000067
40
0.335937500000071
40
0.335937500000071
40
0.343750000000075
40
0.359375000000081
40
0.359375000000081
40
0.375000000000087
40
0.375000000000087
40
0.406250000000101
40
0.406250000000101
40
0.421875000000107
40
0.421875000000107
40
0.437500000000113
40
0.437500000000113
40
0.453125000000119
40
0.453125000000119
40
0.468750000000125
40
0.468750000000125
40
0.476562500000127
40
0.476562500000127
40
0.48437500000013
40
0.48437500000013
40
0.500000000000134
40
0.500000000000134
40
0.515625000000137
40
0.515625000000137
40
0.519531250000137
40
0.519531250000137
40
0.523437500000136
40
0.523437500000136
40
0.531250000000135
40
0.531250000000135
40
0.539062500000133
40
0.539062500000133
40
0.542968750000133
40
0.542968750000133
40
0.546875000000132
40
0.546875000000132
40
0.562500000000126
40
0.562500000000126
40
0.570312500000123
40
0.574218750000122
40
0.574218750000122
40
0.57812500000012
40
0.57812500000012
40
0.593750000000115
40
0.593750000000115
40
0.601562500000112
40
0.601562500000112
40
0.605468750000111
40
0.605468750000111
40
0.60937500000011
40
0.60937500000011
40
0.625000000000105
40
0.625000000000105
40
0.6406250000001
40
0.6406250000001
40
0.648437500000097
40
0.648437500000097
40
0.656250000000094
40
0.656250000000094
40
0.671875000000088
40
0.671875000000088
40
0.687500000000083
40
0.687500000000083
40
0.718750000000071
40
0.718750000000071
40
0.734375000000066
40
0.734375000000066
40
0.750000000000062
40
0.750000000000062
40
0.781250000000054
40
0.781250000000054
40
0.812500000000046
40
0.812500000000046
40
0.843750000000038
40
0.843750000000038
40
0.87500000000003
40
0.87500000000003
40
0.906250000000022
40
0.906250000000022
40
0.921875000000019
40
0.921875000000019
40
0.937500000000016
40
0.937500000000016
40
1
40
1
40
1
40
1
41
1
10
41.1631875774206
20
3.08166974217519
30
0
41
1
10
41.0367229443649
20
3.15839311040662
30
0
41
1
10
40.9091852147918
20
3.23184490418748
30
0
41
1
10
40.6513759274483
20
3.37189143146884
30
0
41
1
10
40.5211237971497
20
3.43851430698021
30
0
41
1
10
40.1256453737322
20
3.62807451314603
30
0
41
1
10
39.8556937712449
20
3.74066891176057
30
0
41
1
10
39.4380730863967
20
3.8882668186146
30
0
41
1
10
39.2967589523255
20
3.93393423798454
30
0
41
1
10
39.0811923983194
20
3.99707522875457
30
0
41
1
10
39.0087351661688
20
4.01722629002697
30
0
41
1
10
38.8990920756435
20
4.04610303140538
30
0
41
1
10
38.8623853325264
20
4.0555042086732
30
0
41
1
10
38.788643620902
20
4.07385566562951
30
0
41
1
10
38.7516327954401
20
4.08279944174575
30
0
41
1
10
38.6404799020198
20
4.10886011057997
30
0
41
1
10
38.5661021263323
20
4.12523731683458
30
0
41
1
10
38.4167519450125
20
4.15596655576502
30
0
41
1
10
38.3417720898182
20
4.17029760129688
30
0
41
1
10
38.1912709631472
20
4.1971770853944
30
0
41
1
10
38.1157499979926
20
4.20972635449959
30
0
41
1
10
37.9642458494132
20
4.23333611645052
30
0
41
1
10
37.8882755613631
20
4.24443271884863
30
0
41
1
10
37.6597013038327
20
4.27565068770593
30
0
41
1
10
37.5063818247558
20
4.29355547466122
30
0
41
1
10
37.1976846504264
20
4.32341711387414
30
0
41
1
10
37.0423159378591
20
4.33539972139386
30
0
41
1
10
36.8075790967716
20
4.34874476861356
30
0
41
1
10
36.7290507556191
20
4.3524151918767
30
0
41
1
10
36.6108067327156
20
4.3566978975816
30
0
41
1
10
36.5712860774584
20
4.35792223324941
30
0
41
1
10
36.4922431612049
20
4.3599479780184
30
0
41
1
10
36.3737555163216
20
4.36235095961254
30
0
41
1
10
36.255502052173
20
4.36282213674306
30
0
41
1
10
36.0980467735696
20
4.36167091858007
30
0
41
1
10
36.0194261657165
20
4.36021370518645
30
0
41
1
10
35.7839187180227
20
4.35290483788174
30
0
41
1
10
35.6273720573443
20
4.34424576820021
30
0
41
1
10
35.393391714499
20
4.32407067649825
30
0
41
1
10
35.3155378129267
20
4.31614856417687
30
0
41
1
10
35.1601470719993
20
4.29750794331338
30
0
41
1
10
35.0830843454877
20
4.2868433242659
30
0
41
1
10
34.9307325710255
20
4.26248645695284
30
0
41
1
10
34.8553825102251
20
4.24879507142117
30
0
41
1
10
34.7065803605767
20
4.21779760036878
30
0
41
1
10
34.6331274162342
20
4.20049426870497
30
0
41
1
10
34.5246254612124
20
4.17120577127025
30
0
41
1
10
34.4887385146418
20
4.16088526319734
30
0
41
1
10
34.4175909956708
20
4.13897167191394
30
0
41
1
10
34.3822850498127
20
4.12736334436912
30
0
41
1
10
34.2784045686074
20
4.09076158522794
30
0
41
1
10
34.2115376376218
20
4.06392607268785
30
0
41
1
10
34.0835055726444
20
4.0041480186417
30
0
41
1
10
34.022329166997
20
3.97121949682966
30
0
41
1
10
33.9502291151435
20
3.92513318789943
30
0
41
1
10
33.9360258496992
20
3.91566261168833
30
0
41
1
10
33.9083177564915
20
3.89635553683851
30
0
41
1
10
33.89478287982
20
3.88650046796647
30
0
41
1
10
33.8551597934989
20
3.85630589374449
30
0
41
1
10
33.8300472385363
20
3.83534039776029
30
0
41
1
10
33.7826132908931
20
3.79156889514422
30
0
41
1
10
33.7602868383409
20
3.76876545056376
30
0
41
1
10
33.7289824141941
20
3.73306898311205
30
0
41
1
10
33.7189123475059
20
3.72092125115196
30
0
41
1
10
33.6995252445332
20
3.69610401012196
30
0
41
1
10
33.690188126683
20
3.68340496133087
30
0
41
1
10
33.6456950554528
20
3.61888555061736
30
0
41
1
10
33.61757654423
20
3.56468935929769
30
0
41
1
10
33.5860757127349
20
3.47937266162739
30
0
41
1
10
33.5730026992763
20
3.4357068547468
30
0
41
1
10
33.5639013185952
20
3.39048734744219
30
0
41
1
10
33.5587127828934
20
3.35999051351544
30
0
41
1
10
33.5565611581359
20
3.34456741560027
30
0
41
1
10
33.5480491426127
20
3.26735889973094
30
0
41
1
10
33.5482752534253
20
3.20466634760558
30
0
41
1
10
33.557451962834
20
3.10922503432542
30
0
41
1
10
33.5619902481785
20
3.07717749910177
30
0
41
1
10
33.5708503488031
20
3.02875354316305
30
0
41
1
10
33.5741445170503
20
3.01256898416952
30
0
41
1
10
33.5813349118843
20
2.98030888868908
30
0
41
1
10
33.5852360586836
20
2.96420529619766
30
0
41
1
10
33.6061743182014
20
2.88380199968398
30
0
41
1
10
33.6274627882366
20
2.8198364433631
30
0
41
1
10
33.6772590860846
20
2.69229052114594
30
0
41
1
10
33.7057830589883
20
2.62871376293427
30
0
41
1
10
33.7530514113581
20
2.53347433462952
30
0
41
1
10
33.7695640918518
20
2.50173804267885
30
0
41
1
10
33.8039394334285
20
2.43833243108375
30
0
41
1
10
33.8217080730902
20
2.40683465552201
30
0
41
1
10
33.8765615409829
20
2.3128679133653
30
0
41
1
10
33.9151858099561
20
2.25092186355312
30
0
41
1
10
33.9957539929908
20
2.12806851385841
30
0
41
1
10
34.0377012708563
20
2.06716275335583
30
0
41
1
10
34.1676831106135
20
1.88562313409005
30
0
41
1
10
34.2598134838883
20
1.76614700107709
30
0
41
1
10
34.4040784384601
20
1.58829176438621
30
0
41
1
10
34.4532279657445
20
1.52919401215965
30
0
41
1
10
34.5531689073848
20
1.41153923817103
30
0
41
1
10
34.6037698074839
20
1.35320413776745
30
0
41
1
10
34.7571839979117
20
1.17943194611888
30
0
41
1
10
34.8615954210198
20
1.0652163982538
30
0
41
1
10
35.0736429153698
20
0.839138021323663
30
0
41
1
10
35.1812854845791
20
0.727280855151321
30
0
41
1
10
35.3991279743815
20
0.505334520244162
30
0
41
1
10
35.5093311138371
20
0.395248138978303
30
0
41
1
10
35.7318459284564
20
0.176447053725468
30
0
41
1
10
35.8441593022618
20
0.067733804651084
30
0
41
1
10
36.0705960581361
20
-0.14858768834668
30
0
41
1
10
36.1847293107038
20
-0.256186355453622
30
0
41
1
10
36.357154580443
20
-0.416875055350687
30
0
41
1
10
36.4148494681534
20
-0.470333445445277
30
0
41
1
10
36.5303197461883
20
-0.576743500504762
30
0
41
1
10
36.5881327059526
20
-0.629730348456491
30
0
41
1
10
36.8775590566314
20
-0.893612902387474
30
0
41
1
10
37.1102100945299
20
-1.10141124831918
30
0
41
1
10
37.3440096321275
20
-1.30591550402932
30
0
0
SPLINE
5
175
100
AcDbEntity
8
1
62
256
6
ByLayer
370
18
48
1
60
0
100
AcDbSpline
70
4
71
3
72
33
73
29
40
0
40
0
40
0
40
0
40
0.0625000000000007
40
0.0625000000000007
40
0.0937500000000009
40
0.0937500000000009
40
0.125000000000001
40
0.125000000000001
40
0.250000000000002
40
0.250000000000002
40
0.375000000000002
40
0.375000000000002
40
0.500000000000003
40
0.500000000000003
40
0.531250000000003
40
0.531250000000003
40
0.562500000000004
40
0.625000000000004
40
0.625000000000004
40
0.750000000000003
40
0.750000000000003
40
0.875000000000002
40
0.875000000000002
40
0.906250000000001
40
0.906250000000001
40
0.937500000000001
40
0.937500000000001
40
1
40
1
40
1
40
1
41
1
10
72.0248579166626
20
6.7609593119825
30
0
41
1
10
72.0302866595129
20
6.72499104785879
30
0
41
1
10
72.0357383815816
20
6.68598968630658
30
0
41
1
10
72.0439480474949
20
6.6228562224093
30
0
41
1
10
72.0466899311076
20
6.60103943155406
30
0
41
1
10
72.0521845847248
20
6.55584261849188
30
0
41
1
10
72.0549287724211
20
6.53253227566421
30
0
41
1
10
72.0686104340756
20
6.41267399725405
30
0
41
1
10
72.0794510063481
20
6.30601772555281
30
0
41
1
10
72.1010663001403
20
6.07178154623711
30
0
41
1
10
72.1118547130988
20
5.94420046067395
30
0
41
1
10
72.1335785707425
20
5.66806323030207
30
0
41
1
10
72.1444837261826
20
5.51950844768888
30
0
41
1
10
72.1581918711472
20
5.3202515113378
30
0
41
1
10
72.1609358359746
20
5.27974587046319
30
0
41
1
10
72.1664027101343
20
5.19784405599796
30
0
41
1
10
72.1745830952187
20
5.07348861429585
30
0
41
1
10
72.1827155773584
20
4.94467642626714
30
0
41
1
10
72.1989601657283
20
4.68120079089672
30
0
41
1
10
72.2097861492919
20
4.49776444798297
30
0
41
1
10
72.2314650477956
20
4.11542492868443
30
0
41
1
10
72.2423058337163
20
3.9165220181437
30
0
41
1
10
72.255923163567
20
3.65798739160496
30
0
41
1
10
72.2586503310115
20
3.60578393423731
30
0
41
1
10
72.2641152703806
20
3.50037287232436
30
0
41
1
10
72.2668553179741
20
3.44711973741113
30
0
41
1
10
72.2750503827861
20
3.28675610277293
30
0
41
1
10
72.2804949378633
20
3.17877092695508
30
0
41
1
10
72.2859367427453
20
3.06973157580899
30
0
0
SPLINE
5
176
100
AcDbEntity
8
1
62
256
6
ByLayer
370
18
48
1
60
0
100
AcDbSpline
70
4
71
3
72
29
73
25
40
0
40
0
40
0
40
0
40
0.125
40
0.125
40
0.25
40
0.25
40
0.375
40
0.375
40
0.40625
40
0.40625
40
0.4375
40
0.5
40
0.5
40
0.625
40
0.625
40
0.75
40
0.75
40
0.78125
40
0.78125
40
0.8125
40
0.8125
40
0.875
40
0.875
40
1
40
1
40
1
40
1
41
1
10
72.4962242576615
20
2.88346507574056
30
0
41
1
10
72.4852768124009
20
3.10583809082007
30
0
41
1
10
72.4744384047025
20
3.32146718310068
30
0
41
1
10
72.4527979480385
20
3.73960755198809
30
0
41
1
10
72.4419682289499
20
3.94211691762993
30
0
41
1
10
72.4202239212592
20
4.33397043183524
30
0
41
1
10
72.4093274807402
20
4.52331656961084
30
0
41
1
10
72.3956200096684
20
4.75147942821695
30
0
41
1
10
72.3928782301731
20
4.79660920979785
30
0
41
1
10
72.3874126944357
20
4.88551751246092
30
0
41
1
10
72.3792316923576
20
5.01701294566277
30
0
41
1
10
72.3710874624931
20
5.14296944927037
30
0
41
1
10
72.3547970982063
20
5.38760492947193
30
0
41
1
10
72.3439398570741
20
5.54101076952978
30
0
41
1
10
72.3222425337355
20
5.82856992583987
30
0
41
1
10
72.3114028141335
20
5.96272414380712
30
0
41
1
10
72.2977715796831
20
6.11807250133774
30
0
41
1
10
72.2950408441816
20
6.1485233834816
30
0
41
1
10
72.2895663875514
20
6.20817326391114
30
0
41
1
10
72.2868221909413
20
6.23737455074883
30
0
41
1
10
72.2786113993479
20
6.32258875699765
30
0
41
1
10
72.2731474201545
20
6.3763913938586
30
0
41
1
10
72.2567867180747
20
6.52895392213799
30
0
41
1
10
72.2459297995891
20
6.61889131277346
30
0
41
1
10
72.2350985871124
20
6.69723471725476
30
0
0
SPLINE
5
177
100
AcDbEntity
8
1
62
256
6
ByLayer
370
18
48
1
60
0
100
AcDbSpline
70
4
71
3
72
30
73
26
40
0
40
0
40
0
40
0
40
0.125000000000001
40
0.125000000000001
40
0.187500000000001
40
0.187500000000001
40
0.218750000000001
40
0.218750000000001
40
0.250000000000002
40
0.250000000000002
40
0.375000000000002
40
0.375000000000002
40
0.500000000000003
40
0.500000000000003
40
0.562500000000004
40
0.562500000000004
40
0.593750000000004
40
0.593750000000004
40
0.625000000000004
40
0.625000000000004
40
0.750000000000003
40
0.750000000000003
40
0.875000000000001
40
0.875000000000001
40
1
40
1
40
1
40
1
41
1
10
69.0098772952029
20
-6.58607094211627
30
0
41
1
10
68.9990319028227
20
-6.4975388465356
30
0
41
1
10
68.9882047272425
20
-6.39760053936647
30
0
41
1
10
68.9719047447038
20
-6.23030119943382
30
0
41
1
10
68.9664603322587
20
-6.1716305375511
30
0
41
1
10
68.9582546650742
20
-6.07917972007385
30
0
41
1
10
68.9555099622353
20
-6.04758619213385
30
0
41
1
10
68.9500330726343
20
-5.98326118969911
30
0
41
1
10
68.9472975111353
20
-5.95049568061191
30
0
41
1
10
68.9336360892191
20
-5.78368631964634
30
0
41
1
10
68.9227654962624
20
-5.64072085147941
30
0
41
1
10
68.9011086262569
20
-5.33620959899406
30
0
41
1
10
68.8903224116879
20
-5.17466289789104
30
0
41
1
10
68.8740723679419
20
-4.91830936402329
30
0
41
1
10
68.8686418592377
20
-4.83051485086477
30
0
41
1
10
68.8604522801617
20
-4.69525419147712
30
0
41
1
10
68.8577158645555
20
-4.64957216465703
30
0
41
1
10
68.8522306453021
20
-4.55700492386623
30
0
41
1
10
68.8494778062793
20
-4.51004963937879
30
0
41
1
10
68.8357433405195
20
-4.27327393127683
30
0
41
1
10
68.824856898073
20
-4.07750648281964
30
0
41
1
10
68.8031968325243
20
-3.67370059063597
30
0
41
1
10
68.79242312843
20
-3.46566093395128
30
0
41
1
10
68.7707534082428
20
-3.03734199650484
30
0
41
1
10
68.7598561717915
20
-2.81706374695534
30
0
41
1
10
68.7488994864383
20
-2.59048330848808
30
0
0
SPLINE
5
178
100
AcDbEntity
8
1
62
256
6
ByLayer
370
13
48
1
60
0
100
AcDbSpline
70
4
71
3
72
11
73
7
40
0
40
0
40
0
40
0
40
0.077452714619283
40
0.425136753560279
40
0.772820792501275
40
1
40
1
40
1
40
1
41
1
10
67.8614008584661
20
-1.50881111952358
30
0
41
1
10
67.8677379931987
20
-1.62358125577228
30
0
41
1
10
67.9025224279057
20
-2.24862183921454
30
0
41
1
10
67.965754163199
20
-3.32416779190152
30
0
41
1
10
68.0412364165727
20
-4.39805758033958
30
0
41
1
10
68.0882713858979
20
-4.91947305954733
30
0
41
1
10
68.1068590534639
20
-5.09949716805809
30
0
0
SPLINE
5
179
100
AcDbEntity
8
1
62
256
6
ByLayer
370
18
48
1
60
0
100
AcDbSpline
70
4
71
3
72
29
73
25
40
0
40
0
40
0
40
0
40
0.125000000000001
40
0.125000000000001
40
0.250000000000001
40
0.250000000000001
40
0.281250000000001
40
0.281250000000001
40
0.312500000000001
40
0.375000000000001
40
0.375000000000001
40
0.500000000000002
40
0.500000000000002
40
0.625000000000003
40
0.625000000000003
40
0.656250000000003
40
0.656250000000003
40
0.687500000000003
40
0.687500000000003
40
0.750000000000002
40
0.750000000000002
40
0.875000000000001
40
0.875000000000001
40
1
40
1
40
1
40
1
41
1
10
68.5386589839233
20
-2.39893572007597
30
0
41
1
10
68.5495209444807
20
-2.62596754905363
30
0
41
1
10
68.5603580181049
20
-2.84818844758942
30
0
41
1
10
68.5820276313271
20
-3.28302009460359
30
0
41
1
10
68.5928597288417
20
-3.49563154450985
30
0
41
1
10
68.6065219942855
20
-3.75520164494532
30
0
41
1
10
68.6092646076376
20
-3.80687305316999
30
0
41
1
10
68.6147491906148
20
-3.90924294147351
30
0
41
1
10
68.6229679048015
20
-4.06118196350729
30
0
41
1
10
68.6311566666898
20
-4.20833390370751
30
0
41
1
10
68.647490737247
20
-4.49636440659663
30
0
41
1
10
68.6583174432559
20
-4.68003644921779
30
0
41
1
10
68.6799431443625
20
-5.03085648757576
30
0
41
1
10
68.6907433182863
20
-5.19800480980641
30
0
41
1
10
68.7043804108496
20
-5.39639174623207
30
0
41
1
10
68.7071141512896
20
-5.43554041475704
30
0
41
1
10
68.7125936742106
20
-5.51276949829449
30
0
41
1
10
68.7153407315262
20
-5.55086730381694
30
0
41
1
10
68.7235919459883
20
-5.6634293054754
30
0
41
1
10
68.7290681128969
20
-5.73565094173557
30
0
41
1
10
68.745433098309
20
-5.94404057152084
30
0
41
1
10
68.756254208644
20
-6.07195469213869
30
0
41
1
10
68.77787746066
20
-6.30618719562696
30
0
41
1
10
68.7887022416731
20
-6.41250463640043
30
0
41
1
10
68.7995985255415
20
-6.50789731231367
30
0
0
SPLINE
5
17A
100
AcDbEntity
8
1
62
256
6
ByLayer
370
13
48
1
60
0
100
AcDbSpline
70
4
71
3
72
11
73
7
40
0
40
0
40
0
40
0
40
0.176379317656038
40
0.524164459740524
40
0.87194960182501
40
1
40
1
40
1
40
1
41
1
10
67.3376293637771
20
-1.08979982931106
30
0
41
1
10
67.3520564326122
20
-1.35531583910611
30
0
41
1
10
67.3949308310003
20
-2.13443070087032
30
0
41
1
10
67.4662524374332
20
-3.34511339654944
30
0
41
1
10
67.5336212187332
20
-4.2999569432009
30
0
41
1
10
67.5725424362804
20
-4.75013381025428
30
0
41
1
10
67.5830163805732
20
-4.86340194474184
30
0
0
SPLINE
5
17B
100
AcDbEntity
8
1
62
256
6
ByLayer
370
18
48
1
60
0
100
AcDbSpline
70
4
71
3
72
32
73
28
40
0
40
0
40
0
40
0
40
0.0312499999999998
40
0.0312499999999998
40
0.0624999999999997
40
0.125
40
0.125
40
0.25
40
0.375000000000001
40
0.375000000000001
40
0.406250000000001
40
0.406250000000001
40
0.437500000000001
40
0.437500000000001
40
0.500000000000001
40
0.500000000000001
40
0.625000000000001
40
0.625000000000001
40
0.750000000000001
40
0.750000000000001
40
0.812500000000001
40
0.812500000000001
40
0.843750000000001
40
0.843750000000001
40
0.875000000000001
40
0.875000000000001
40
1
40
1
40
1
40
1
41
1
10
66.9180959990021
20
-5.5736480959402
30
0
41
1
10
66.915363750255
20
-5.53607567305855
30
0
41
1
10
66.9126235066378
20
-5.49777693284213
30
0
41
1
10
66.9071582152506
20
-5.42022299963836
30
0
41
1
10
66.8989707007769
20
-5.30230996071137
30
0
41
1
10
66.8908045361925
20
-5.17970631842604
30
0
41
1
10
66.8745068508263
20
-4.92834342749788
30
0
41
1
10
66.8528777184428
20
-4.57680849252745
30
0
41
1
10
66.8312917630008
20
-4.19277467768325
30
0
41
1
10
66.817670576549
20
-3.94236387631213
30
0
41
1
10
66.8149390282038
20
-3.89176096546299
30
0
41
1
10
66.8094615443476
20
-3.78950228506159
30
0
41
1
10
66.8067117695847
20
-3.73777072901046
30
0
41
1
10
66.7984809625638
20
-3.58171836146923
30
0
41
1
10
66.7930151185676
20
-3.4764782776511
30
0
41
1
10
66.7766769656611
20
-3.15721663416284
30
0
41
1
10
66.7658685665059
20
-2.93966255904445
30
0
41
1
10
66.7442826954066
20
-2.49529611751171
30
0
41
1
10
66.7334915876923
20
-2.26848422027317
30
0
41
1
10
66.7171664772027
20
-1.92123244880415
30
0
41
1
10
66.7117077582918
20
-1.80430702873107
30
0
41
1
10
66.7034934560839
20
-1.62712310380255
30
0
41
1
10
66.7007477136907
20
-1.56769289878167
30
0
41
1
10
66.6952614555227
20
-1.44855601227306
30
0
41
1
10
66.6925254124311
20
-1.38894702152854
30
0
41
1
10
66.6788763642042
20
-1.09070187223378
30
0
41
1
10
66.6680620238809
20
-0.851466498403056
30
0
41
1
10
66.6572560947338
20
-0.611612985848154
30
0
0
SPLINE
5
17C
100
AcDbEntity
8
1
62
256
6
ByLayer
370
13
48
1
60
0
100
AcDbSpline
70
4
71
3
72
11
73
7
40
0
40
0
40
0
40
0
40
0.0889094076234552
40
0.437739918584922
40
0.786570429546389
40
1
40
1
40
1
40
1
41
1
10
59.4951545705563
20
4.64744668661476
30
0
41
1
10
59.5024051763
20
4.56251962953755
30
0
41
1
10
59.5381030809532
20
4.12660089664027
30
0
41
1
10
59.6022482814164
20
3.19390317899305
30
0
41
1
10
59.6765481688749
20
1.91474137739692
30
0
41
1
10
59.7224007555963
20
1.07203306681319
30
0
41
1
10
59.7398060416615
20
0.748801552356724
30
0
0
SPLINE
5
17D
100
AcDbEntity
8
1
62
256
6
ByLayer
370
13
48
1
60
0
100
AcDbSpline
70
4
71
3
72
11
73
7
40
0
40
0
40
0
40
0
40
0.26030429101368
40
0.608847037231421
40
0.957389783449161
40
1
40
1
40
1
40
1
41
1
10
61.5867173982897
20
3.39855667426417
30
0
41
1
10
61.607962866483
20
3.0718591300834
30
0
41
1
10
61.6576556324696
20
2.25462923212083
30
0
41
1
10
61.7357957024149
20
0.833117638237383
30
0
41
1
10
61.7961680556674
20
-0.307181306653206
30
0
41
1
10
61.8280931056888
20
-0.898513570517139
30
0
41
1
10
61.8315708584204
20
-0.96275802455213
30
0
0
SPLINE
5
17E
100
AcDbEntity
8
1
62
256
6
ByLayer
370
13
48
1
60
0
100
AcDbSpline
70
4
71
3
72
11
73
7
40
0
40
0
40
0
40
0
40
0.0831567670937859
40
0.431331294050314
40
0.779505821006843
40
1
40
1
40
1
40
1
41
1
10
63.6782765680441
20
1.87044616635285
30
0
41
1
10
63.6850708197717
20
1.74969825037601
30
0
41
1
10
63.7203123702468
20
1.11675732263845
30
0
41
1
10
63.7840012224331
20
-0.0774753052841675
30
0
41
1
10
63.8589111098752
20
-1.47713676916717
30
0
41
1
10
63.9053736903522
20
-2.29219070518732
30
0
41
1
10
63.9233889754991
20
-2.59577111163185
30
0
0
SPLINE
5
17F
100
AcDbEntity
8
1
62
256
6
ByLayer
370
18
48
1
60
0
100
AcDbSpline
70
4
71
3
72
29
73
25
40
0
40
0
40
0
40
0
40
0.125
40
0.125
40
0.187499999999999
40
0.187499999999999
40
0.218749999999999
40
0.218749999999999
40
0.25
40
0.25
40
0.375
40
0.375
40
0.5
40
0.5
40
0.625000000000001
40
0.625000000000001
40
0.656250000000001
40
0.656250000000001
40
0.687500000000001
40
0.750000000000001
40
0.750000000000001
40
0.875
40
0.875
40
1
40
1
40
1
40
1
41
1
10
64.3552797444436
20
1.61768524246804
30
0
41
1
10
64.3661214570878
20
1.38326677257066
30
0
41
1
10
64.3769622792989
20
1.14637685049263
30
0
41
1
10
64.3932434620746
20
0.787308787855665
30
0
41
1
10
64.3986750163986
20
0.666996092380032
30
0
41
1
10
64.406842742356
20
0.485578087009344
30
0
41
1
10
64.4095687957776
20
0.424947181592643
30
0
41
1
10
64.415031117482
20
0.303365615731991
30
0
41
1
10
64.4177714028023
20
0.242325442706232
30
0
41
1
10
64.4314479023511
20
-0.0623405501703189
30
0
41
1
10
64.4423328107769
20
-0.304369014501276
30
0
41
1
10
64.4640405311885
20
-0.78512794303586
30
0
41
1
10
64.4748486376671
20
-1.02385875327349
30
0
41
1
10
64.4964692461886
20
-1.49802536844382
30
0
41
1
10
64.5072816278689
20
-1.73346140148757
30
0
41
1
10
64.5209548396308
20
-2.02562897241958
30
0
41
1
10
64.5237000872324
20
-2.08401476870247
30
0
41
1
10
64.5291925977016
20
-2.20030108535474
30
0
41
1
10
64.5374173572734
20
-2.37364047006159
30
0
41
1
10
64.5455975348783
20
-2.5437507829825
30
0
41
1
10
64.5619051626367
20
-2.87974076842579
30
0
41
1
10
64.5727020017379
20
-3.098104221428
30
0
41
1
10
64.5942944241723
20
-3.52369152640918
30
0
41
1
10
64.6051096276542
20
-3.7309148486558
30
0
41
1
10
64.6160197427241
20
-3.93245239354056
30
0
0
SPLINE
5
180
100
AcDbEntity
8
1
62
256
6
ByLayer
370
13
48
1
60
0
100
AcDbSpline
70
4
71
3
72
11
73
7
40
0
40
0
40
0
40
0
40
0.0109302042176804
40
0.359541060778737
40
0.708151917339794
40
1
40
1
40
1
40
1
41
1
10
61.062934410106
20
3.74226084376869
30
0
41
1
10
61.0638263347467
20
3.72926913608603
30
0
41
1
10
61.0931655419277
20
3.30045993967258
30
0
41
1
10
61.1509519989872
20
2.362388482639
30
0
41
1
10
61.2316620643212
20
0.892498826359883
30
0
41
1
10
61.2839246893287
20
-0.0917590985123695
30
0
41
1
10
61.3077400552619
20
-0.535746241948658
30
0
0
SPLINE
5
181
100
AcDbEntity
8
1
62
256
6
ByLayer
370
13
48
1
60
0
100
AcDbSpline
70
4
71
3
72
11
73
7
40
0
40
0
40
0
40
0
40
0.254240477439785
40
0.602139444522384
40
0.950038411604984
40
1
40
1
40
1
40
1
41
1
10
65.7698398852274
20
0.188568157181436
30
0
41
1
10
65.7906288374033
20
-0.200408580645018
30
0
41
1
10
65.8398650899123
20
-1.12455646895106
30
0
41
1
10
65.9175486430285
20
-2.52703443212235
30
0
41
1
10
65.9785285341045
20
-3.49897922443367
30
0
41
1
10
66.0110611353931
20
-3.95696176991277
30
0
41
1
10
66.0151464372331
20
-4.01348023245706
30
0
0
SPLINE
5
182
100
AcDbEntity
8
1
62
256
6
ByLayer
370
18
48
1
60
0
100
AcDbSpline
70
4
71
3
72
29
73
25
40
0
40
0
40
0
40
0
40
0.0312500000000001
40
0.0312500000000001
40
0.0625000000000002
40
0.0625000000000002
40
0.125
40
0.125
40
0.250000000000001
40
0.375000000000002
40
0.375000000000002
40
0.437500000000002
40
0.437500000000002
40
0.468750000000002
40
0.468750000000002
40
0.500000000000002
40
0.500000000000002
40
0.625000000000002
40
0.625000000000002
40
0.750000000000001
40
0.750000000000001
40
0.875000000000001
40
0.875000000000001
40
1
40
1
40
1
40
1
41
1
10
66.4470180787277
20
-0.407483521879925
30
0
41
1
10
66.4497403164747
20
-0.46799809653777
30
0
41
1
10
66.4524657990172
20
-0.528567202115738
30
0
41
1
10
66.4579261150346
20
-0.649815540434219
30
0
41
1
10
66.4606648517494
20
-0.710581160628209
30
0
41
1
10
66.468860721816
20
-0.892166454208592
30
0
41
1
10
66.4743021083971
20
-1.01238268644011
30
0
41
1
10
66.4906101250974
20
-1.37055872117017
30
0
41
1
10
66.5123020750256
20
-1.84154622572555
30
0
41
1
10
66.5338819095097
20
-2.29959810193861
30
0
41
1
10
66.5501343449106
20
-2.63821306271686
30
0
41
1
10
66.5555642626811
20
-2.75026243469063
30
0
41
1
10
66.5637527154952
20
-2.91707851757636
30
0
41
1
10
66.5664932353708
20
-2.97254005434698
30
0
41
1
10
66.5719759154466
20
-3.08272122350823
30
0
41
1
10
66.5747135044508
20
-3.13735815324506
30
0
41
1
10
66.5883807672772
20
-3.40830110375336
30
0
41
1
10
66.5992424517378
20
-3.61790039264778
30
0
41
1
10
66.6208688771883
20
-4.02316453220007
30
0
41
1
10
66.6316335968366
20
-4.21882850752971
30
0
41
1
10
66.6532641117073
20
-4.59614834525743
30
0
41
1
10
66.6641570098307
20
-4.77780484382521
30
0
41
1
10
66.6861229644075
20
-5.1265932193393
30
0
41
1
10
66.696995766272
20
-5.29068345091221
30
0
41
1
10
66.7078139923501
20
-5.44481154615656
30
0
0
SPLINE
5
183
100
AcDbEntity
8
1
62
256
6
ByLayer
370
18
48
1
60
0
100
AcDbSpline
70
4
71
3
72
32
73
28
40
0
40
0
40
0
40
0
40
0.0312499999999999
40
0.0312499999999999
40
0.0624999999999998
40
0.125
40
0.125
40
0.25
40
0.25
40
0.375
40
0.375
40
0.40625
40
0.40625
40
0.437499999999999
40
0.437499999999999
40
0.499999999999999
40
0.499999999999999
40
0.624999999999999
40
0.749999999999999
40
0.749999999999999
40
0.812499999999999
40
0.812499999999999
40
0.84375
40
0.84375
40
0.875
40
0.875
40
1
40
1
40
1
40
1
41
1
10
62.2636501615765
20
3.50943483537418
30
0
41
1
10
62.2663807301813
20
3.45660352674966
30
0
41
1
10
62.2691187348244
20
3.40321512229201
30
0
41
1
10
62.2745765386575
20
3.29602358042976
30
0
41
1
10
62.2827446944602
20
3.13444962172551
30
0
41
1
10
62.2908721251057
20
2.97054421397425
30
0
41
1
10
62.3071233679343
20
2.63967683262487
30
0
41
1
10
62.3179573089941
20
2.41503117020457
30
0
41
1
10
62.339606755931
20
1.95767453662526
30
0
41
1
10
62.3504214132403
20
1.72496378586163
30
0
41
1
10
62.3640087070812
20
1.42892313182017
30
0
41
1
10
62.3667300021646
20
1.36945676438512
30
0
41
1
10
62.3721839005528
20
1.25000218343325
30
0
41
1
10
62.3749204289119
20
1.18992758441354
30
0
41
1
10
62.3831210937017
20
1.00962328312991
30
0
41
1
10
62.3885746657352
20
0.889423849107345
30
0
41
1
10
62.4049030915731
20
0.528835970749583
30
0
41
1
10
62.4265637330975
20
0.0480787622355763
30
0
41
1
10
62.4480955232712
20
-0.432622148313129
30
0
41
1
10
62.4643420145016
20
-0.793119820800001
30
0
41
1
10
62.4697773817566
20
-0.913280873379165
30
0
41
1
10
62.4779762054899
20
-1.09351436404665
30
0
41
1
10
62.4807176605237
20
-1.1536284989682
30
0
41
1
10
62.4862062848356
20
-1.27369324788449
30
0
41
1
10
62.4889450730628
20
-1.33346073449363
30
0
41
1
10
62.5026115887477
20
-1.63098948328712
30
0
41
1
10
62.51345127055
20
-1.86483554024869
30
0
41
1
10
62.5242468243795
20
-2.09461628238358
30
0
0
SPLINE
5
184
100
AcDbEntity
8
1
62
256
6
ByLayer
370
18
48
1
60
0
100
AcDbSpline
70
4
71
3
72
33
73
29
40
0
40
0
40
0
40
0
40
0.03125
40
0.03125
40
0.0624999999999999
40
0.0624999999999999
40
0.125
40
0.125
40
0.249999999999999
40
0.374999999999999
40
0.374999999999999
40
0.437499999999998
40
0.437499999999998
40
0.468749999999998
40
0.468749999999998
40
0.499999999999998
40
0.499999999999998
40
0.624999999999999
40
0.624999999999999
40
0.749999999999999
40
0.749999999999999
40
0.812499999999999
40
0.812499999999999
40
0.84375
40
0.84375
40
0.875
40
0.875
40
1
40
1
40
1
40
1
41
1
10
62.7345379475059
20
-2.28974523896417
30
0
41
1
10
62.7318198263122
20
-2.23240989122425
30
0
41
1
10
62.7290964003704
20
-2.17472727101932
30
0
41
1
10
62.7236345172034
20
-2.05865994562683
30
0
41
1
10
62.7208925343316
20
-2.00020756002016
30
0
41
1
10
62.7126844378838
20
-1.82474271448444
30
0
41
1
10
62.7072267024708
20
-1.70738135210414
30
0
41
1
10
62.6909016850991
20
-1.35416568592567
30
0
41
1
10
62.6692725450299
20
-0.88019931746615
30
0
41
1
10
62.6477479990848
20
-0.400314347929367
30
0
41
1
10
62.6314665761255
20
-0.0381563132675353
30
0
41
1
10
62.6260149499146
20
0.0829377307590846
30
0
41
1
10
62.6178045258212
20
0.265151969538124
30
0
41
1
10
62.6150582248986
20
0.326072584564116
30
0
41
1
10
62.6095756383518
20
0.447632023733519
30
0
41
1
10
62.6068406819491
20
0.50824146430466
30
0
41
1
10
62.5931953637795
20
0.810446955861181
30
0
41
1
10
62.5823787439577
20
1.04952488846243
30
0
41
1
10
62.5608010650912
20
1.52243949295598
30
0
41
1
10
62.5500234008677
20
1.75627513894992
30
0
41
1
10
62.533753709532
20
2.10307011437527
30
0
41
1
10
62.5283191410036
20
2.21800768774895
30
0
41
1
10
62.5201489940953
20
2.38940849348154
30
0
41
1
10
62.517422485534
20
2.44637441541443
30
0
41
1
10
62.5119620424892
20
2.55996740443783
30
0
41
1
10
62.5092265003711
20
2.61662762216915
30
0
41
1
10
62.4955427234785
20
2.89871826685123
30
0
41
1
10
62.4847189906202
20
3.11770436162476
30
0
41
1
10
62.4739125742755
20
3.330234258378
30
0
0
SPLINE
5
185
100
AcDbEntity
8
1
62
256
6
ByLayer
370
13
48
1
60
0
100
AcDbSpline
70
4
71
3
72
11
73
7
40
0
40
0
40
0
40
0
40
0.182266575190841
40
0.530564804349772
40
0.878863033508702
40
1
40
1
40
1
40
1
41
1
10
63.1544976379065
20
2.27299921447138
30
0
41
1
10
63.1693842723375
20
2.01540274851951
30
0
41
1
10
63.2127181949053
20
1.24391307845625
30
0
41
1
10
63.2844995446424
20
-0.102666984767922
30
0
41
1
10
63.3512879762239
20
-1.34979560556457
30
0
41
1
10
63.3896292228732
20
-2.02901842935992
30
0
41
1
10
63.39952311803
20
-2.20111032215212
30
0
0
SPLINE
5
186
100
AcDbEntity
8
1
62
256
6
ByLayer
370
18
48
1
60
0
100
AcDbSpline
70
4
71
3
72
29
73
25
40
0
40
0
40
0
40
0
40
0.125
40
0.125
40
0.25
40
0.25
40
0.28125
40
0.28125
40
0.3125
40
0.375
40
0.375
40
0.499999999999999
40
0.499999999999999
40
0.624999999999999
40
0.624999999999999
40
0.656249999999999
40
0.656249999999999
40
0.687499999999999
40
0.687499999999999
40
0.749999999999999
40
0.749999999999999
40
0.874999999999999
40
0.874999999999999
40
1
40
1
40
1
40
1
41
1
10
60.6427037536857
20
-0.289183021719992
30
0
41
1
10
60.631863868022
20
-0.0485314494558509
30
0
41
1
10
60.6210769291059
20
0.191976971193839
30
0
41
1
10
60.5994732695546
20
0.672701530019651
30
0
41
1
10
60.5886424080292
20
0.912917052718456
30
0
41
1
10
60.5749481063319
20
1.21299191306988
30
0
41
1
10
60.5721988803935
20
1.2730848461546
30
0
41
1
10
60.5667120293079
20
1.39272417776971
30
0
41
1
10
60.5584989624845
20
1.57136599161063
30
0
41
1
10
60.550336312581
20
1.74758603276092
30
0
41
1
10
60.534062469879
20
2.09685029467008
30
0
41
1
10
60.5232861450135
20
2.32546697504668
30
0
41
1
10
60.5016905071263
20
2.77432277835231
30
0
41
1
10
60.4908438715138
20
2.99456104563771
30
0
41
1
10
60.4772076088906
20
3.26450789802004
30
0
41
1
10
60.4744767818856
20
3.31822906508773
30
0
41
1
10
60.4690071932527
20
3.42512937697572
30
0
41
1
10
60.4662657873271
20
3.47835947500462
30
0
41
1
10
60.4580454406902
20
3.63688063258164
30
0
41
1
10
60.4525948797929
20
3.74053906539393
30
0
41
1
10
60.4363033303434
20
4.04557611745372
30
0
41
1
10
60.4255249333818
20
4.24103177730817
30
0
41
1
10
60.4038883427773
20
4.61643078581182
30
0
41
1
10
60.3930464242099
20
4.79637453267756
30
0
41
1
10
60.3821799068163
20
4.96846872199919
30
0
0
SPLINE
5
187
100
AcDbEntity
8
1
62
256
6
ByLayer
370
18
48
1
60
0
100
AcDbSpline
70
4
71
3
72
30
73
26
40
0
40
0
40
0
40
0
40
0.125
40
0.125
40
0.1875
40
0.1875
40
0.218750000000001
40
0.218750000000001
40
0.250000000000001
40
0.250000000000001
40
0.375
40
0.375
40
0.5
40
0.5
40
0.5625
40
0.5625
40
0.59375
40
0.59375
40
0.625
40
0.625
40
0.75
40
0.75
40
0.875
40
0.875
40
1
40
1
40
1
40
1
41
1
10
60.1719305475789
20
5.11220690684956
30
0
41
1
10
60.1827483146257
20
4.94584827674552
30
0
41
1
10
60.1935820624192
20
4.7706695224457
30
0
41
1
10
60.2098770426118
20
4.49445957442924
30
0
41
1
10
60.2153172870636
20
4.40014501519607
30
0
41
1
10
60.2235044344782
20
4.25523909741017
30
0
41
1
10
60.2262416412088
20
4.20629850488501
30
0
41
1
10
60.2317002263684
20
4.10777050286586
30
0
41
1
10
60.2344237291333
20
4.05814687231739
30
0
41
1
10
60.2480219788916
20
3.80825099297297
30
0
41
1
10
60.2588624793391
20
3.60266071306069
30
0
41
1
10
60.28053157808
20
3.18041341330561
30
0
41
1
10
60.2913415523691
20
2.96375511915173
30
0
41
1
10
60.3075783848626
20
2.63041370449582
30
0
41
1
10
60.3129954702599
20
2.51790495023766
30
0
41
1
10
60.3211465812473
20
2.3470184361986
30
0
41
1
10
60.3238679439047
20
2.2897021928531
30
0
41
1
10
60.3293233414547
20
2.17435422163274
30
0
41
1
10
60.3320610425857
20
2.11624433230401
30
0
41
1
10
60.3457463181165
20
1.82487855932888
30
0
41
1
10
60.3566372221416
20
1.59011076818541
30
0
41
1
10
60.3783025597518
20
1.11733791055897
30
0
41
1
10
60.3890770751402
20
0.879332513899016
30
0
41
1
10
60.4106546421777
20
0.400099392888478
30
0
41
1
10
60.4214743171998
20
0.158872631389329
30
0
41
1
10
60.4324121310681
20
-0.0840069696674561
30
0
0
SPLINE
5
188
100
AcDbEntity
8
1
62
256
6
ByLayer
370
18
48
1
60
0
100
AcDbSpline
70
4
71
3
72
29
73
25
40
0
40
0
40
0
40
0
40
0.124999999999999
40
0.124999999999999
40
0.187499999999999
40
0.187499999999999
40
0.218749999999999
40
0.218749999999999
40
0.249999999999999
40
0.249999999999999
40
0.374999999999999
40
0.374999999999999
40
0.5
40
0.5
40
0.625
40
0.625
40
0.65625
40
0.65625
40
0.6875
40
0.75
40
0.75
40
0.875
40
0.875
40
1
40
1
40
1
40
1
41
1
10
64.8262972949008
20
-4.10122668678278
30
0
41
1
10
64.8154623094416
20
-3.90493214420098
30
0
41
1
10
64.8046628100911
20
-3.70179446741994
30
0
41
1
10
64.7884197553521
20
-3.38674508225245
30
0
41
1
10
64.7829969499485
20
-3.2800015458169
30
0
41
1
10
64.7748270697963
20
-3.11725529938045
30
0
41
1
10
64.7720977180798
20
-3.06256784266023
30
0
41
1
10
64.7666223120148
20
-2.95230604682106
30
0
41
1
10
64.7638727884431
20
-2.89665504645535
30
0
41
1
10
64.7501567503754
20
-2.61757880169776
30
0
41
1
10
64.7392611742931
20
-2.39111192151674
30
0
41
1
10
64.7175881268398
20
-1.9319752586461
30
0
41
1
10
64.7068105724038
20
-1.69930488836388
30
0
41
1
10
64.6851877350807
20
-1.22777633503662
30
0
41
1
10
64.6743135279788
20
-0.988919929334713
30
0
41
1
10
64.6606103434465
20
-0.686367287058289
30
0
41
1
10
64.657861058172
20
-0.625575291150938
30
0
41
1
10
64.6523707490459
20
-0.504004522690735
30
0
41
1
10
64.6441555174962
20
-0.321845734449113
30
0
41
1
10
64.6359960410606
20
-0.140271910479896
30
0
41
1
10
64.6197261151889
20
0.222108005516247
30
0
41
1
10
64.6089486528561
20
0.46267310366494
30
0
41
1
10
64.5872979387318
20
0.941771313341576
30
0
41
1
10
64.5764334141737
20
1.18030488594738
30
0
41
1
10
64.565529619327
20
1.41780169239252
30
0
0
SPLINE
5
189
100
AcDbEntity
8
1
62
256
6
ByLayer
370
13
48
1
60
0
100
AcDbSpline
70
4
71
3
72
11
73
7
40
0
40
0
40
0
40
0
40
0.0052978681555289
40
0.353298476654628
40
0.701299085153727
40
1
40
1
40
1
40
1
41
1
10
65.2460638548588
20
0.616956778547745
30
0
41
1
10
65.246496929022
20
0.608893772637771
30
0
41
1
10
65.2753773089392
20
0.0710817527137237
30
0
41
1
10
65.3327050699034
20
-1.01112517760549
30
0
41
1
10
65.4140169129816
20
-2.47719907123152
30
0
41
1
10
65.466881663326
20
-3.32545578177775
30
0
41
1
10
65.4912989819298
20
-3.68468664147988
30
0
0
SPLINE
5
18A
100
AcDbEntity
8
1
62
256
6
ByLayer
370
18
48
1
60
0
100
AcDbSpline
70
4
71
3
72
103
73
99
40
0
40
0
40
0
40
0
40
0.0026595919500958
40
0.0026595919500958
40
0.0192819320842574
40
0.0192819320842574
40
0.027593102151339
40
0.027593102151339
40
0.0359042722184207
40
0.0359042722184207
40
0.0691489524867456
40
0.0691489524867456
40
0.102393632755071
40
0.102393632755071
40
0.135638313023395
40
0.135638313023395
40
0.152260653157559
40
0.152260653157559
40
0.168882993291722
40
0.168882993291722
40
0.185505333425885
40
0.185505333425885
40
0.193816503492967
40
0.193816503492967
40
0.202127673560049
40
0.202127673560049
40
0.235372353828379
40
0.235372353828379
40
0.251994693962543
40
0.251994693962543
40
0.268617034096707
40
0.268617034096707
40
0.285239374230871
40
0.285239374230871
40
0.301861714365036
40
0.301861714365036
40
0.3184840544992
40
0.3184840544992
40
0.335106394633364
40
0.368351074901693
40
0.368351074901693
40
0.401595755170021
40
0.401595755170021
40
0.418218095304184
40
0.418218095304184
40
0.434840435438348
40
0.434840435438348
40
0.451462775572511
40
0.451462775572511
40
0.468085115706674
40
0.468085115706674
40
0.501329795974999
40
0.501329795974999
40
0.534574476243324
40
0.534574476243324
40
0.542885646310407
40
0.542885646310407
40
0.551196816377489
40
0.551196816377489
40
0.567819156511655
40
0.567819156511655
40
0.601063836779987
40
0.601063836779987
40
0.634308517048319
40
0.634308517048319
40
0.650930857182486
40
0.650930857182486
40
0.667553197316652
40
0.667553197316652
40
0.684175537450819
40
0.684175537450819
40
0.700797877584986
40
0.700797877584986
40
0.717420217719153
40
0.717420217719153
40
0.725731387786237
40
0.725731387786237
40
0.73404255785332
40
0.767287238121655
40
0.767287238121655
40
0.783909578255824
40
0.783909578255824
40
0.800531918389992
40
0.800531918389992
40
0.817154258524161
40
0.817154258524161
40
0.83377659865833
40
0.867021278926665
40
0.867021278926665
40
0.933510639463334
40
0.933510639463334
40
0.950132979597501
40
0.950132979597501
40
0.966755319731667
40
0.966755319731667
40
0.983377659865834
40
0.983377659865834
40
1
40
1
40
1
40
1
41
1
10
57.0562734739995
20
-5.29849999571204
30
0
41
1
10
57.0422045559455
20
-5.29849974743306
30
0
41
1
10
57.0281360286978
20
-5.29846948677022
30
0
41
1
10
56.9261417847387
20
-5.29803299167548
30
0
41
1
10
56.8382629706304
20
-5.29648646421813
30
0
41
1
10
56.7064578310358
20
-5.29243011214584
30
0
41
1
10
56.6625404302916
20
-5.29078737998881
30
0
41
1
10
56.5746539011567
20
-5.28693048418918
30
0
41
1
10
56.5306727572088
20
-5.28471820471839
30
0
41
1
10
56.3108852045916
20
-5.27221659004971
30
0
41
1
10
56.1353843205854
20
-5.25760340707029
30
0
41
1
10
55.7846832905833
20
-5.21912841856624
30
0
41
1
10
55.609503071655
20
-5.19526031957966
30
0
41
1
10
55.2589891482957
20
-5.13827867586028
30
0
41
1
10
55.0835864322876
20
-5.10518286698235
30
0
41
1
10
54.819737178342
20
-5.04879124753859
30
0
41
1
10
54.7316802499235
20
-5.02886318327026
30
0
41
1
10
54.5552313366791
20
-4.98679634294047
30
0
41
1
10
54.4668200597032
20
-4.96466949870248
30
0
41
1
10
54.2898522119049
20
-4.91810419464315
30
0
41
1
10
54.2012205652073
20
-4.89370198161066
30
0
41
1
10
54.0680255204407
20
-4.85542194919609
30
0
41
1
10
54.0235890559382
20
-4.8423807353422
30
0
41
1
10
53.9346473055163
20
-4.81572825729833
30
0
41
1
10
53.8901304626777
20
-4.80211304073023
30
0
41
1
10
53.6679225837806
20
-4.73275695764735
30
0
41
1
10
53.4909665465801
20
-4.6730500159114
30
0
41
1
10
53.2263963482983
20
-4.57742997844301
30
0
41
1
10
53.138350240558
20
-4.54454694287477
30
0
41
1
10
52.9624880796144
20
-4.47680926195576
30
0
41
1
10
52.8747006667898
20
-4.44193179334567
30
0
41
1
10
52.6990945399433
20
-4.37041510625681
30
0
41
1
10
52.6112013313384
20
-4.33383735233704
30
0
41
1
10
52.4354715665171
20
-4.25888299676757
30
0
41
1
10
52.3476676074784
20
-4.22047741137106
30
0
41
1
10
52.1720442354043
20
-4.14193213968957
30
0
41
1
10
52.0842350902905
20
-4.10178517017445
30
0
41
1
10
51.9087190626748
20
-4.01965897846952
30
0
41
1
10
51.645565938434
20
-3.89374730820683
30
0
41
1
10
51.3826082093061
20
-3.75979387602757
30
0
41
1
10
51.0318828991823
20
-3.57423377445383
30
0
41
1
10
50.8564885230415
20
-3.47794121025151
30
0
41
1
10
50.5926135400621
20
-3.32895116305227
30
0
41
1
10
50.5045138505032
20
-3.27854199369182
30
0
41
1
10
50.3278453376585
20
-3.17644611527391
30
0
41
1
10
50.239307600743
20
-3.1247277847153
30
0
41
1
10
50.0621272102496
20
-3.01959260236166
30
0
41
1
10
49.9734409731645
20
-2.96622411585221
30
0
41
1
10
49.7958345505786
20
-2.85790867522931
30
0
41
1
10
49.7068707341583
20
-2.80292777221172
30
0
41
1
10
49.4407862351459
20
-2.63653049782138
30
0
41
1
10
49.2640309855751
20
-2.52345925901807
30
0
41
1
10
48.9113874386872
20
-2.29358059908361
30
0
41
1
10
48.7355572906771
20
-2.17669889160712
30
0
41
1
10
48.5160000119639
20
-2.02867827930328
30
0
41
1
10
48.4721049722129
20
-1.99897192872055
30
0
41
1
10
48.384282342094
20
-1.93944017563263
30
0
41
1
10
48.3403393141693
20
-1.90963495034822
30
0
41
1
10
48.2085603181123
20
-1.81991437838505
30
0
41
1
10
48.1207895714287
20
-1.75967363010741
30
0
41
1
10
47.8574430653056
20
-1.57803918525852
30
0
41
1
10
47.6818986237892
20
-1.45565145376443
30
0
41
1
10
47.3311696225491
20
-1.20784395947089
30
0
41
1
10
47.1559276705753
20
-1.08249776387137
30
0
41
1
10
46.8929084391877
20
-0.892749541763692
30
0
41
1
10
46.8052104708434
20
-0.829210437278107
30
0
41
1
10
46.6296978852784
20
-0.701640246691767
30
0
41
1
10
46.5418546099512
20
-0.63764825617028
30
0
41
1
10
46.3656757822128
20
-0.509696966420648
30
0
41
1
10
46.277397663646
20
-0.445658515140479
30
0
41
1
10
46.1006583865987
20
-0.317180986929827
30
0
41
1
10
46.0121976222143
20
-0.252740772947419
30
0
41
1
10
45.8350440671145
20
-0.123520605747956
30
0
41
1
10
45.7463329082214
20
-0.0587669280661771
30
0
41
1
10
45.6130374950556
20
0.0385453236542617
30
0
41
1
10
45.568555729566
20
0.0710232236203581
30
0
41
1
10
45.4797278773856
20
0.135884787785983
30
0
41
1
10
45.2578744872819
20
0.297898399553134
30
0
41
1
10
45.0370541988044
20
0.459148557855542
30
0
41
1
10
44.7727051522305
20
0.651439236774337
30
0
41
1
10
44.6846979572822
20
0.715339271814798
30
0
41
1
10
44.508863410431
20
0.842695714042662
30
0
41
1
10
44.4210720952898
20
0.906201130456253
30
0
41
1
10
44.2452953422817
20
1.03225908801011
30
0
41
1
10
44.157243994591
20
1.09472357409965
30
0
41
1
10
43.981358809965
20
1.21927521608046
30
0
41
1
10
43.7178402876025
20
1.40550930625628
30
0
41
1
10
43.4549814927141
20
1.58958391069035
30
0
41
1
10
42.9294269916203
20
1.95385886017311
30
0
41
1
10
42.5792604812175
20
2.19150675839862
30
0
41
1
10
42.1387053205837
20
2.47799589641224
30
0
41
1
10
42.050407050013
20
2.53471053908874
30
0
41
1
10
41.8735520635405
20
2.64711750359317
30
0
41
1
10
41.7849548915923
20
2.7027595371469
30
0
41
1
10
41.6074727339789
20
2.81298053874374
30
0
41
1
10
41.5185854723329
20
2.86755672959632
30
0
41
1
10
41.3405679551279
20
2.97569158213244
30
0
41
1
10
41.2517770897748
20
3.02904782508495
30
0
41
1
10
41.1631813097212
20
3.08166423001111
30
0
0
SPLINE
5
18B
100
AcDbEntity
8
1
62
256
6
ByLayer
370
18
48
1
60
0
100
AcDbSpline
70
4
71
3
72
40
73
36
40
0
40
0
40
0
40
0
40
0.0074490309872204
40
0.0074490309872204
40
0.105355730605339
40
0.105355730605339
40
0.203262430223458
40
0.203262430223458
40
0.301169129841577
40
0.301169129841577
40
0.350122479650636
40
0.350122479650636
40
0.399075829459695
40
0.399075829459695
40
0.448029179268754
40
0.448029179268754
40
0.496982529077814
40
0.496982529077814
40
0.545935878886873
40
0.545935878886873
40
0.594889228695932
40
0.594889228695932
40
0.692795928314051
40
0.692795928314051
40
0.741749278123109
40
0.741749278123109
40
0.790702627932168
40
0.790702627932168
40
0.839655977741226
40
0.839655977741226
40
0.888609327550285
40
0.888609327550285
40
0.986516027168402
40
0.986516027168402
40
1
40
1
40
1
40
1
41
1
10
37.344010268478
20
-1.30591348964492
30
0
41
1
10
37.3455863895654
20
-1.3009242624785
30
0
41
1
10
37.3472530198859
20
-1.2958384682818
30
0
41
1
10
37.372122820162
20
-1.22252270058399
30
0
41
1
10
37.4086422110915
20
-1.14012767442108
30
0
41
1
10
37.5101736961018
20
-0.947531650072079
30
0
41
1
10
37.575420887123
20
-0.836780934781785
30
0
41
1
10
37.7426122484824
20
-0.578655367691567
30
0
41
1
10
37.8425744816323
20
-0.434444281153247
30
0
41
1
10
38.019388183023
20
-0.194263710418539
30
0
41
1
10
38.0832691055671
20
-0.109643748711477
30
0
41
1
10
38.217603577943
20
0.0639856455876213
30
0
41
1
10
38.288384677748
20
0.153459730061513
30
0
41
1
10
38.4374024043332
20
0.337894308025199
30
0
41
1
10
38.5162405003049
20
0.433571250147565
30
0
41
1
10
38.6789324486045
20
0.627306472389193
30
0
41
1
10
38.7619431711735
20
0.724393786492357
30
0
41
1
10
38.9310809336064
20
0.918979686573465
30
0
41
1
10
39.0172116387652
20
1.01647875627393
30
0
41
1
10
39.1925556248594
20
1.21188371455727
30
0
41
1
10
39.2822266732157
20
1.31026188060054
30
0
41
1
10
39.5475771744965
20
1.59703466282357
30
0
41
1
10
39.7221472574683
20
1.78008136507609
30
0
41
1
10
39.9806763580941
20
2.04303991875042
30
0
41
1
10
40.0648796070603
20
2.12728193560491
30
0
41
1
10
40.2289362481166
20
2.28880481357518
30
0
41
1
10
40.3092268238146
20
2.36671733952329
30
0
41
1
10
40.4639999588167
20
2.51302054832044
30
0
41
1
10
40.5390050321732
20
2.58194349701944
30
0
41
1
10
40.679313983829
20
2.70717426124463
30
0
41
1
10
40.7451477440553
20
2.76398785274148
30
0
41
1
10
40.9308189262736
20
2.91854335253106
30
0
41
1
10
41.0394557861672
20
3.00065811741231
30
0
41
1
10
41.13991897451
20
3.06690087544547
30
0
41
1
10
41.1517282247325
20
3.07449590000627
30
0
41
1
10
41.163187752074
20
3.08166985151263
30
0
0
SPLINE
5
18C
100
AcDbEntity
8
1
62
256
6
ByLayer
370
18
48
1
60
0
100
AcDbSpline
70
4
71
3
72
77
73
73
40
0
40
0
40
0
40
0
40
0.0441598585704395
40
0.0441598585704395
40
0.0662397878556593
40
0.0662397878556593
40
0.0883197171408791
40
0.0883197171408791
40
0.132479575711319
40
0.132479575711319
40
0.176639434281758
40
0.176639434281758
40
0.198719363566977
40
0.198719363566977
40
0.220799292852196
40
0.220799292852196
40
0.242879222137415
40
0.253919186780025
40
0.253919186780025
40
0.264959151422635
40
0.264959151422635
40
0.309119009993079
40
0.309119009993079
40
0.331198939278299
40
0.331198939278299
40
0.35327886856352
40
0.35327886856352
40
0.397438727133963
40
0.397438727133963
40
0.441598585704407
40
0.441598585704407
40
0.463678514989629
40
0.463678514989629
40
0.485758444274851
40
0.485758444274851
40
0.529918302845295
40
0.529918302845295
40
0.540958267487906
40
0.540958267487906
40
0.551998232130517
40
0.551998232130517
40
0.57407816141574
40
0.57407816141574
40
0.596158090700963
40
0.596158090700963
40
0.618238019986185
40
0.618238019986185
40
0.66239787855663
40
0.66239787855663
40
0.706557737127075
40
0.706557737127075
40
0.750717595697521
40
0.750717595697521
40
0.761757560340131
40
0.761757560340131
40
0.772797524982742
40
0.772797524982742
40
0.794877454267964
40
0.816957383553185
40
0.827997348195796
40
0.827997348195796
40
0.839037312838407
40
0.839037312838407
40
0.883197171408852
40
0.883197171408852
40
0.905277100694075
40
0.905277100694075
40
0.927357029979297
40
0.927357029979297
40
0.971516888549742
40
0.971516888549742
40
1
40
1
40
1
40
1
41
1
10
37.3441169657179
20
-1.30600986117875
30
0
41
1
10
37.5611927135745
20
-1.45883741728184
30
0
41
1
10
37.7773299359221
20
-1.60964591611196
30
0
41
1
10
38.1003598418085
20
-1.8325321991521
30
0
41
1
10
38.2078929761668
20
-1.90620108734913
30
0
41
1
10
38.4230907766808
20
-2.05175524234954
30
0
41
1
10
38.530697471101
20
-2.12371782151132
30
0
41
1
10
38.8535202973183
20
-2.33721298644264
30
0
41
1
10
39.0687271262992
20
-2.4763722050757
30
0
41
1
10
39.4991713063129
20
-2.74830218941958
30
0
41
1
10
39.7143908402673
20
-2.88109365684761
30
0
41
1
10
40.0373410858038
20
-3.07527730259997
30
0
41
1
10
40.145019279839
20
-3.13915908306316
30
0
41
1
10
40.3608755511446
20
-3.26471586545711
30
0
41
1
10
40.46902523753
20
-3.32642494842736
30
0
41
1
10
40.6857796288328
20
-3.44768802614107
30
0
41
1
10
40.8486824864118
20
-3.53702354621831
30
0
41
1
10
41.0121201808746
20
-3.62389590983779
30
0
41
1
10
41.1211993943301
20
-3.68125891739152
30
0
41
1
10
41.1757662772239
20
-3.70964659619156
30
0
41
1
10
41.4481241452443
20
-3.84980115012934
30
0
41
1
10
41.6650047687982
20
-3.95656790629408
30
0
41
1
10
41.9890994882531
20
-4.10852521830853
30
0
41
1
10
42.0969087373907
20
-4.15782703798209
30
0
41
1
10
42.3121692991517
20
-4.25365277739974
30
0
41
1
10
42.4197953198672
20
-4.30002831956492
30
0
41
1
10
42.7426275373674
20
-4.43463628834391
30
0
41
1
10
42.9578004734249
20
-4.51834530435133
30
0
41
1
10
43.3882007498344
20
-4.67373952914122
30
0
41
1
10
43.6034046742938
20
-4.74544258720601
30
0
41
1
10
43.926259409016
20
-4.8438911115328
30
0
41
1
10
44.033884179163
20
-4.87518876813311
30
0
41
1
10
44.2491300848464
20
-4.93471362226902
30
0
41
1
10
44.3567427001317
20
-4.96293936055309
30
0
41
1
10
44.680499327402
20
-5.04250731637831
30
0
41
1
10
44.8972726748906
20
-5.08891101884063
30
0
41
1
10
45.1694092822867
20
-5.13854592920734
30
0
41
1
10
45.2238962411347
20
-5.14805324259206
30
0
41
1
10
45.3329911650685
20
-5.16622337372698
30
0
41
1
10
45.3875471160448
20
-5.17487701366056
30
0
41
1
10
45.5509449303658
20
-5.19950204031386
30
0
41
1
10
45.6596329170663
20
-5.21415861458061
30
0
41
1
10
45.8765671701064
20
-5.23997027595035
30
0
41
1
10
45.9848277685495
20
-5.25112322140504
30
0
41
1
10
46.200866418021
20
-5.26994914153278
30
0
41
1
10
46.3085797455294
20
-5.27762682570935
30
0
41
1
10
46.6315753888095
20
-5.29536025645876
30
0
41
1
10
46.8468082813497
20
-5.30013586151222
30
0
41
1
10
47.2772293978727
20
-5.29588402813545
30
0
41
1
10
47.4924154055809
20
-5.28685907475065
30
0
41
1
10
47.9227379101819
20
-5.25500383695382
30
0
41
1
10
48.1379003306723
20
-5.23217568716711
30
0
41
1
10
48.4069186781144
20
-5.19484085912063
30
0
41
1
10
48.4607175823909
20
-5.18693008485923
30
0
41
1
10
48.5684912028055
20
-5.17027271147486
30
0
41
1
10
48.6224391169427
20
-5.16151928066409
30
0
41
1
10
48.7844151042007
20
-5.13396910326196
30
0
41
1
10
49.0007803498533
20
-5.09380919184315
30
0
41
1
10
49.2723497152659
20
-5.03505343877677
30
0
41
1
10
49.4358216638933
20
-4.99592967257325
30
0
41
1
10
49.5449228946917
20
-4.96898227315015
30
0
41
1
10
49.599460098007
20
-4.95509412942295
30
0
41
1
10
49.8717433819232
20
-4.8836828859429
30
0
41
1
10
50.0886509993675
20
-4.82018736649147
30
0
41
1
10
50.4125955283191
20
-4.71546331524206
30
0
41
1
10
50.5202856721929
20
-4.67893331300306
30
0
41
1
10
50.7356402535645
20
-4.60300681895112
30
0
41
1
10
50.8432987857446
20
-4.56361096311863
30
0
41
1
10
51.1662370475304
20
-4.44119555168484
30
0
41
1
10
51.3814584928432
20
-4.35394068669086
30
0
41
1
10
51.7354186364662
20
-4.20123293320941
30
0
41
1
10
51.8741908555362
20
-4.13904096231448
30
0
41
1
10
52.012958063868
20
-4.07452344657389
30
0
0
SPLINE
5
18D
100
AcDbEntity
8
1
62
256
6
ByLayer
370
18
48
1
60
0
100
AcDbSpline
70
4
71
3
72
8
73
4
40
0
40
0
40
0
40
0
40
1
40
1
40
1
40
1
41
1
10
68.799598525533
20
-6.50789731231481
30
0
41
1
10
68.8696884444958
20
-6.53486530005279
30
0
41
1
10
68.9397766271487
20
-6.56092535833261
30
0
41
1
10
69.0098772952029
20
-6.58607094211627
30
0
0
SPLINE
5
18E
100
AcDbEntity
8
1
62
256
6
ByLayer
370
18
48
1
60
0
100
AcDbSpline
70
4
71
3
72
36
73
32
40
0
40
0
40
0
40
0
40
0.125000000000063
40
0.125000000000063
40
0.187500000000096
40
0.187500000000096
40
0.250000000000129
40
0.250000000000129
40
0.375000000000195
40
0.375000000000195
40
0.437500000000228
40
0.437500000000228
40
0.500000000000262
40
0.500000000000262
40
0.62500000000033
40
0.62500000000033
40
0.687500000000342
40
0.687500000000342
40
0.750000000000355
40
0.750000000000355
40
0.781250000000339
40
0.781250000000339
40
0.812500000000324
40
0.812500000000324
40
0.875000000000251
40
0.875000000000251
40
0.906250000000196
40
0.906250000000196
40
0.937500000000141
40
0.937500000000141
40
1
40
1
40
1
40
1
41
1
10
68.1068590534636
20
-5.09949716805806
30
0
41
1
10
68.0928099660515
20
-5.07092521808124
30
0
41
1
10
68.0764777401876
20
-5.04447874032266
30
0
41
1
10
68.0492979061943
20
-5.00729028581856
30
0
41
1
10
68.0397815347301
20
-4.99531681442389
30
0
41
1
10
68.0198764934272
20
-4.97217804500218
30
0
41
1
10
68.0095935308003
20
-4.96113762885312
30
0
41
1
10
67.9779470950053
20
-4.9296180209376
30
0
41
1
10
67.9557435625506
20
-4.91065947973129
30
0
41
1
10
67.9208478430094
20
-4.88522924679475
30
0
41
1
10
67.9089648388861
20
-4.87727860895342
30
0
41
1
10
67.8850769932459
20
-4.86267121971434
30
0
41
1
10
67.8730227854258
20
-4.85597715657784
30
0
41
1
10
67.836538138142
20
-4.83775028436278
30
0
41
1
10
67.8117906961561
20
-4.82803637475715
30
0
41
1
10
67.7739905338432
20
-4.81776555064695
30
0
41
1
10
67.7613321346558
20
-4.8150924985716
30
0
41
1
10
67.7363644040924
20
-4.81146541577047
30
0
41
1
10
67.7239915978074
20
-4.81049162950069
30
0
41
1
10
67.7056277255465
20
-4.81043623783265
30
0
41
1
10
67.6995391119708
20
-4.81065289243887
30
0
41
1
10
67.6874339591869
20
-4.81159502161233
30
0
41
1
10
67.6813952435294
20
-4.81232464926401
30
0
41
1
10
67.6635874866866
20
-4.81532017960143
30
0
41
1
10
67.6521429582986
20
-4.81837392034529
30
0
41
1
10
67.6356996610073
20
-4.82473296544521
30
0
41
1
10
67.6303396633024
20
-4.82715037477271
30
0
41
1
10
67.6198840078742
20
-4.83263430400203
30
0
41
1
10
67.6147670986048
20
-4.83571626295563
30
0
41
1
10
67.6000360518156
20
-4.84591887072995
30
0
41
1
10
67.5910529984169
20
-4.85395794378468
30
0
41
1
10
67.5830163805732
20
-4.86340194474184
30
0
0
SPLINE
5
18F
100
AcDbEntity
8
1
62
256
6
ByLayer
370
18
48
1
60
0
100
AcDbSpline
70
4
71
3
72
12
73
8
40
0
40
0
40
0
40
0
40
0.5
40
0.5
40
0.75
40
0.75
40
1
40
1
40
1
40
1
41
1
10
67.5830163805731
20
-4.86340194474184
30
0
41
1
10
67.4710006829116
20
-4.99503397907435
30
0
41
1
10
67.3594939108716
20
-5.12013389660919
30
0
41
1
10
67.1932172071242
20
-5.2977866232176
30
0
41
1
10
67.13792087144
20
-5.35537372646789
30
0
41
1
10
67.0277368424271
20
-5.46706908102101
30
0
41
1
10
66.9728348130384
20
-5.52120467194251
30
0
41
1
10
66.9180959990021
20
-5.5736480959402
30
0
0
SPLINE
5
190
100
AcDbEntity
8
1
62
256
6
ByLayer
370
18
48
1
60
0
100
AcDbSpline
70
4
71
3
72
8
73
4
40
0
40
0
40
0
40
0
40
1
40
1
40
1
40
1
41
1
10
66.70781399235
20
-5.44481154615656
30
0
41
1
10
66.7779127335195
20
-5.48851269949859
30
0
41
1
10
66.8480021066383
20
-5.5314616536503
30
0
41
1
10
66.9180959990021
20
-5.5736480959402
30
0
0
SPLINE
5
191
100
AcDbEntity
8
1
62
256
6
ByLayer
370
18
48
1
60
0
100
AcDbSpline
70
4
71
3
72
12
73
8
40
0
40
0
40
0
40
0
40
0.25
40
0.25
40
0.499999999999999
40
0.499999999999999
40
1
40
1
40
1
40
1
41
1
10
66.70781399235
20
-5.44481154615656
30
0
41
1
10
66.6508167327123
20
-5.32458917712844
30
0
41
1
10
66.5936561124022
20
-5.204533108958
30
0
41
1
10
66.4789446637718
20
-4.96478468069418
30
0
41
1
10
66.4213739423587
20
-4.84505130325007
30
0
41
1
10
66.2481517760263
20
-4.48679335100428
30
0
41
1
10
66.1319809754546
20
-4.24917410954112
30
0
41
1
10
66.0151464372333
20
-4.01348023245959
30
0
0
SPLINE
5
192
100
AcDbEntity
8
1
62
256
6
ByLayer
370
18
48
1
60
0
100
AcDbSpline
70
4
71
3
72
36
73
32
40
0
40
0
40
0
40
0
40
0.125000000000029
40
0.125000000000029
40
0.187500000000027
40
0.187500000000027
40
0.250000000000025
40
0.250000000000025
40
0.37500000000002
40
0.37500000000002
40
0.437500000000018
40
0.437500000000018
40
0.500000000000016
40
0.500000000000016
40
0.625000000000011
40
0.625000000000011
40
0.687500000000009
40
0.687500000000009
40
0.750000000000007
40
0.750000000000007
40
0.781249999999985
40
0.781249999999985
40
0.812499999999963
40
0.812499999999963
40
0.874999999999961
40
0.874999999999961
40
0.906249999999979
40
0.906249999999979
40
0.937499999999997
40
0.937499999999997
40
1
40
1
40
1
40
1
41
1
10
66.0151464372321
20
-4.01348023245686
30
0
41
1
10
66.0010899380739
20
-3.98512362802094
30
0
41
1
10
65.984746455147
20
-3.95814009056923
30
0
41
1
10
65.9575456607719
20
-3.91927940811453
30
0
41
1
10
65.9480216472744
20
-3.90660059933481
30
0
41
1
10
65.9280999003911
20
-3.88176813574131
30
0
41
1
10
65.9178148593111
20
-3.86975620501562
30
0
41
1
10
65.8861519135451
20
-3.83494858045305
30
0
41
1
10
65.8639361246863
20
-3.81331636947942
30
0
41
1
10
65.8290215155598
20
-3.78315456675494
30
0
41
1
10
65.8171395900773
20
-3.7735126674182
30
0
41
1
10
65.7932512189155
20
-3.75532903577292
30
0
41
1
10
65.7811966792808
20
-3.7467447668117
30
0
41
1
10
65.7447108998273
20
-3.72253084929852
30
0
41
1
10
65.719962583853
20
-3.70841034395821
30
0
41
1
10
65.6821603118142
20
-3.69076870163701
30
0
41
1
10
65.6695159076379
20
-3.68552602638553
30
0
41
1
10
65.6445652915571
20
-3.67658519173406
30
0
41
1
10
65.6322000243254
20
-3.67285755595705
30
0
41
1
10
65.613845624689
20
-3.66850681315714
30
0
41
1
10
65.6077598610171
20
-3.66726415415752
30
0
41
1
10
65.5956597175317
20
-3.6652278313486
30
0
41
1
10
65.5896230235398
20
-3.66443257609808
30
0
41
1
10
65.5718313869109
20
-3.66280399404968
30
0
41
1
10
65.5603950813029
20
-3.66271383320884
30
0
41
1
10
65.5439607082255
20
-3.66425408243458
30
0
41
1
10
65.5386031165791
20
-3.66504799337028
30
0
41
1
10
65.5281511485792
20
-3.66724765071854
30
0
41
1
10
65.5230353374369
20
-3.66866168277005
30
0
41
1
10
65.5083135863277
20
-3.67385683345316
30
0
41
1
10
65.4993341090643
20
-3.67856414131774
30
0
41
1
10
65.4912989819298
20
-3.68468664147986
30
0
0
SPLINE
5
193
100
AcDbEntity
8
1
62
256
6
ByLayer
370
18
48
1
60
0
100
AcDbSpline
70
4
71
3
72
14
73
10
40
0
40
0
40
0
40
0
40
0.25
40
0.25
40
0.499999999999999
40
0.499999999999999
40
0.75
40
0.75
40
1
40
1
40
1
40
1
41
1
10
65.4912989819298
20
-3.68468664147988
30
0
41
1
10
65.4352863200333
20
-3.72736643058551
30
0
41
1
10
65.3794068538752
20
-3.76801015022883
30
0
41
1
10
65.2679182329819
20
-3.84525378417854
30
0
41
1
10
65.212346201258
20
-3.88185300882344
30
0
41
1
10
65.1014841810175
20
-3.95124293797736
30
0
41
1
10
65.0461759679957
20
-3.98404933706109
30
0
41
1
10
64.9359642607323
20
-4.04564567001063
30
0
41
1
10
64.8810480642346
20
-4.07443668906154
30
0
41
1
10
64.8262972949008
20
-4.10122668678278
30
0
0
SPLINE
5
194
100
AcDbEntity
8
1
62
256
6
ByLayer
370
18
48
1
60
0
100
AcDbSpline
70
4
71
3
72
8
73
4
40
0
40
0
40
0
40
0
40
1
40
1
40
1
40
1
41
1
10
64.6160197427151
20
-3.9324523935434
30
0
41
1
10
64.6861035288723
20
-3.98926397114266
30
0
41
1
10
64.756193433298
20
-4.04552439778655
30
0
41
1
10
64.8262972949008
20
-4.10122668678278
30
0
0
SPLINE
5
195
100
AcDbEntity
8
1
62
256
6
ByLayer
370
18
48
1
60
0
100
AcDbSpline
70
4
71
3
72
12
73
8
40
0
40
0
40
0
40
0
40
0.25
40
0.25
40
0.5
40
0.5
40
1
40
1
40
1
40
1
41
1
10
64.6160197427165
20
-3.93245239353476
30
0
41
1
10
64.5590034402295
20
-3.81738800711196
30
0
41
1
10
64.5018287757038
20
-3.70317082818792
30
0
41
1
10
64.3871054447455
20
-3.47646464519988
30
0
41
1
10
64.329537556944
20
-3.36393790853686
30
0
41
1
10
64.1563395969326
20
-3.02934360134625
30
0
41
1
10
64.0402004585318
20
-2.81022912659006
30
0
41
1
10
63.9233889754991
20
-2.59577111163182
30
0
0
SPLINE
5
196
100
AcDbEntity
8
1
62
256
6
ByLayer
370
18
48
1
60
0
100
AcDbSpline
70
4
71
3
72
36
73
32
40
0
40
0
40
0
40
0
40
0.125000000000006
40
0.125000000000006
40
0.187500000000008
40
0.187500000000008
40
0.25000000000001
40
0.25000000000001
40
0.375000000000014
40
0.375000000000014
40
0.437500000000017
40
0.437500000000017
40
0.500000000000019
40
0.500000000000019
40
0.625000000000024
40
0.625000000000024
40
0.687500000000004
40
0.687500000000004
40
0.749999999999985
40
0.749999999999985
40
0.781249999999975
40
0.781249999999975
40
0.812499999999965
40
0.812499999999965
40
0.874999999999988
40
0.874999999999988
40
0.906249999999999
40
0.906249999999999
40
0.937500000000011
40
0.937500000000011
40
1
40
1
40
1
40
1
41
1
10
63.9233889754991
20
-2.59577111163185
30
0
41
1
10
63.9093301909653
20
-2.56996013016342
30
0
41
1
10
63.8929836925303
20
-2.54465212360162
30
0
41
1
10
63.8657773044808
20
-2.50729999341243
30
0
41
1
10
63.8562512378415
20
-2.49495261649639
30
0
41
1
10
63.8363249113323
20
-2.47045513589254
30
0
41
1
10
63.8260432408121
20
-2.45845153861967
30
0
41
1
10
63.794380552924
20
-2.42319345346536
30
0
41
1
10
63.7721632525638
20
-2.40064775473215
30
0
41
1
10
63.737243407426
20
-2.36820419849235
30
0
41
1
10
63.7253645944255
20
-2.35765311052927
30
0
41
1
10
63.7014792103411
20
-2.33736759474897
30
0
41
1
10
63.6894256339823
20
-2.32758883058202
30
0
41
1
10
63.6529410678117
20
-2.29934933560463
30
0
41
1
10
63.628191387622
20
-2.28196478620714
30
0
41
1
10
63.5903826787576
20
-2.2583769310717
30
0
41
1
10
63.5777447190377
20
-2.25098961843355
30
0
41
1
10
63.5527986820822
20
-2.23745955812484
30
0
41
1
10
63.5404345290014
20
-2.23128050244227
30
0
41
1
10
63.5220797165297
20
-2.22298791700703
30
0
41
1
10
63.5159934671806
20
-2.22038702477562
30
0
41
1
10
63.5038915923524
20
-2.21553810692546
30
0
41
1
10
63.4978537130549
20
-2.21328281957281
30
0
41
1
10
63.4800651163531
20
-2.20716820373056
30
0
41
1
10
63.4686289863818
20
-2.20394583215474
30
0
41
1
10
63.4521926505902
20
-2.20054835485993
30
0
41
1
10
63.4468340243442
20
-2.19965630937216
30
0
41
1
10
63.4363792955589
20
-2.19839677787178
30
0
41
1
10
63.4312616697434
20
-2.19802957108328
30
0
41
1
10
63.4165401796863
20
-2.1978046766975
30
0
41
1
10
63.4075597722008
20
-2.19880335709675
30
0
41
1
10
63.39952311803
20
-2.20111032215212
30
0
0
SPLINE
5
197
100
AcDbEntity
8
1
62
256
6
ByLayer
370
18
48
1
60
0
100
AcDbSpline
70
4
71
3
72
12
73
8
40
0
40
0
40
0
40
0
40
0.5
40
0.5
40
0.75
40
0.75
40
1
40
1
40
1
40
1
41
1
10
63.39952311803
20
-2.20111032215212
30
0
41
1
10
63.2874915233478
20
-2.23326959745884
30
0
41
1
10
63.175974881074
20
-2.2565637703392
30
0
41
1
10
63.0096802949288
20
-2.27864401315671
30
0
41
1
10
62.9543786527331
20
-2.28385270744022
30
0
41
1
10
62.8441862982422
20
-2.28999162538997
30
0
41
1
10
62.7892801308862
20
-2.29092435198379
30
0
41
1
10
62.7345379475059
20
-2.28974523896417
30
0
0
SPLINE
5
198
100
AcDbEntity
8
1
62
256
6
ByLayer
370
18
48
1
60
0
100
AcDbSpline
70
4
71
3
72
8
73
4
40
0
40
0
40
0
40
0
40
1
40
1
40
1
40
1
41
1
10
62.5242468243697
20
-2.09461628238492
30
0
41
1
10
62.5943389057257
20
-2.15995402395919
30
0
41
1
10
62.6644319974016
20
-2.22500095696327
30
0
41
1
10
62.7345379475059
20
-2.28974523896417
30
0
0
SPLINE
5
199
100
AcDbEntity
8
1
62
256
6
ByLayer
370
18
48
1
60
0
100
AcDbSpline
70
4
71
3
72
12
73
8
40
0
40
0
40
0
40
0
40
0.250000000000003
40
0.250000000000003
40
0.500000000000006
40
0.500000000000006
40
1
40
1
40
1
40
1
41
1
10
62.5242468243713
20
-2.09461628237918
30
0
41
1
10
62.4672423696959
20
-1.99417084862733
30
0
41
1
10
62.4100779975559
20
-1.89518498459916
30
0
41
1
10
62.2953651214519
20
-1.70017600348643
30
0
41
1
10
62.2377968933506
20
-1.60412066692797
30
0
41
1
10
62.0645840451511
20
-1.32076055201779
30
0
41
1
10
61.9484164532912
20
-1.13823374492799
30
0
41
1
10
61.8315708584204
20
-0.962758024551363
30
0
0
SPLINE
5
19A
100
AcDbEntity
8
1
62
256
6
ByLayer
370
18
48
1
60
0
100
AcDbSpline
70
4
71
3
72
34
73
30
40
0
40
0
40
0
40
0
40
0.125000000000012
40
0.125000000000012
40
0.250000000000023
40
0.250000000000023
40
0.375000000000035
40
0.375000000000035
40
0.437500000000041
40
0.437500000000041
40
0.500000000000047
40
0.500000000000047
40
0.625000000000102
40
0.625000000000102
40
0.687500000000108
40
0.687500000000108
40
0.750000000000114
40
0.750000000000114
40
0.781250000000095
40
0.781250000000095
40
0.812500000000077
40
0.812500000000077
40
0.87500000000004
40
0.87500000000004
40
0.906250000000022
40
0.906250000000022
40
0.937500000000004
40
0.937500000000004
40
1
40
1
40
1
40
1
41
1
10
61.8315708584203
20
-0.962758024551334
30
0
41
1
10
61.8175168950024
20
-0.941652142402802
30
0
41
1
10
61.8011757347417
20
-0.920139845945386
30
0
41
1
10
61.7649097271528
20
-0.876526405675264
30
0
41
1
10
61.7448038421037
20
-0.85427127071938
30
0
41
1
10
61.7025957854872
20
-0.810608509138831
30
0
41
1
10
61.6803806689335
20
-0.789047706291399
30
0
41
1
10
61.6454600505461
20
-0.757060126474641
30
0
41
1
10
61.6335823120751
20
-0.746488659494531
30
0
41
1
10
61.6096972319745
20
-0.725814201077668
30
0
41
1
10
61.5976432742569
20
-0.715668126279525
30
0
41
1
10
61.561155902822
20
-0.685796098675127
30
0
41
1
10
61.5364021799048
20
-0.666626585388741
30
0
41
1
10
61.498583345762
20
-0.639108930330849
30
0
41
1
10
61.4859455724424
20
-0.63020942495163
30
0
41
1
10
61.4609969667059
20
-0.613254581777767
30
0
41
1
10
61.448631303114
20
-0.605158591976817
30
0
41
1
10
61.4302740167905
20
-0.593645220817223
30
0
41
1
10
61.424186907523
20
-0.58991294751425
30
0
41
1
10
61.4120832556409
20
-0.582675750842839
30
0
41
1
10
61.4060445399612
20
-0.579158545798322
30
0
41
1
10
61.3882580749633
20
-0.569099253766041
30
0
41
1
10
61.3768236071657
20
-0.563033886704289
30
0
41
1
10
61.3603901719161
20
-0.555011012315532
30
0
41
1
10
61.3550325783236
20
-0.552516756535198
30
0
41
1
10
61.3445800376592
20
-0.547920848718576
30
0
41
1
10
61.3394635865061
20
-0.54581137455483
30
0
41
1
10
61.3247487600212
20
-0.540211894740139
30
0
41
1
10
61.3157727486343
20
-0.537434446487424
30
0
41
1
10
61.3077400552621
20
-0.535746241952864
30
0
0
SPLINE
5
19B
100
AcDbEntity
8
1
62
256
6
ByLayer
370
18
48
1
60
0
100
AcDbSpline
70
4
71
3
72
12
73
8
40
0
40
0
40
0
40
0
40
0.500000000000007
40
0.500000000000007
40
0.750000000000003
40
0.750000000000003
40
1
40
1
40
1
40
1
41
1
10
61.3077400552621
20
-0.535746241952893
30
0
41
1
10
61.1956892558885
20
-0.512196896939997
30
0
41
1
10
61.0841575517758
20
-0.479562142246891
30
0
41
1
10
60.9178516396705
20
-0.417710507693556
30
0
41
1
10
60.8625468697394
20
-0.394929106826481
30
0
41
1
10
60.7523524701022
20
-0.345181233707905
30
0
41
1
10
60.6974463306058
20
-0.318209133466212
30
0
41
1
10
60.6427037536857
20
-0.289183021719964
30
0
0
SPLINE
5
19C
100
AcDbEntity
8
1
62
256
6
ByLayer
370
18
48
1
60
0
100
AcDbSpline
70
4
71
3
72
8
73
4
40
0
40
0
40
0
40
0
40
1
40
1
40
1
40
1
41
1
10
60.432412131068
20
-0.0840069696674561
30
0
41
1
10
60.5025267701053
20
-0.152419903051822
30
0
41
1
10
60.5726190238008
20
-0.220817004514629
30
0
41
1
10
60.6427037536857
20
-0.289183021719992
30
0
0
SPLINE
5
19D
100
AcDbEntity
8
1
62
256
6
ByLayer
370
18
48
1
60
0
100
AcDbSpline
70
4
71
3
72
12
73
8
40
0
40
0
40
0
40
0
40
0.25
40
0.25
40
0.5
40
0.5
40
1
40
1
40
1
40
1
41
1
10
60.432412131068
20
-0.0840069696674846
30
0
41
1
10
60.3754055342246
20
-0.0065383496206266
30
0
41
1
10
60.3182393182322
20
0.0689713390649729
30
0
41
1
10
60.2035285568286
20
0.216031615569193
30
0
41
1
10
60.1459645626922
20
0.287605439873687
30
0
41
1
10
59.9727721494166
20
0.496110009302498
30
0
41
1
10
59.8566292111459
20
0.626848704359134
30
0
41
1
10
59.7398060416615
20
0.748801552356724
30
0
0
SPLINE
5
19E
100
AcDbEntity
8
1
62
256
6
ByLayer
370
18
48
1
60
0
100
AcDbSpline
70
4
71
3
72
34
73
30
40
0
40
0
40
0
40
0
40
0.125000000000034
40
0.125000000000034
40
0.18750000000005
40
0.18750000000005
40
0.250000000000065
40
0.250000000000065
40
0.375000000000097
40
0.375000000000097
40
0.437500000000091
40
0.437500000000091
40
0.500000000000085
40
0.500000000000085
40
0.625000000000074
40
0.625000000000074
40
0.687500000000068
40
0.687500000000068
40
0.750000000000062
40
0.750000000000062
40
0.812500000000057
40
0.812500000000057
40
0.875000000000051
40
0.875000000000051
40
0.937500000000045
40
0.937500000000045
40
0.968750000000023
40
0.968750000000023
40
1
40
1
40
1
40
1
41
1
10
59.7398060416611
20
0.748801552357662
30
0
41
1
10
59.726536542523
20
0.762653712152115
30
0
41
1
10
59.7112229480289
20
0.777654080008972
30
0
41
1
10
59.6858310096572
20
0.801472198947636
30
0
41
1
10
59.6769556836004
20
0.809636323432414
30
0
41
1
10
59.6584209866445
20
0.826392675728584
30
0
41
1
10
59.6488009069738
20
0.834948379199119
30
0
41
1
10
59.6192748314199
20
0.860832050068126
30
0
41
1
10
59.5985835510242
20
0.87848758167101
30
0
41
1
10
59.5661239674749
20
0.905584205507211
30
0
41
1
10
59.5550200037003
20
0.914756144074801
30
0
41
1
10
59.5326425444301
20
0.933063567477262
30
0
41
1
10
59.5213521103093
20
0.942213980481824
30
0
41
1
10
59.4871873784913
20
0.969670613900433
30
0
41
1
10
59.4640232271313
20
0.987981008471337
30
0
41
1
10
59.4286819163302
20
1.01553158440282
30
0
41
1
10
59.4167407761753
20
1.02477610788975
30
0
41
1
10
59.3929563004477
20
1.04307089371474
30
0
41
1
10
59.381152873769
20
1.05209123207555
30
0
41
1
10
59.3577473569012
20
1.06987121607361
30
0
41
1
10
59.3461450781693
20
1.07863107651744
30
0
41
1
10
59.3231773445685
20
1.09586749728888
30
0
41
1
10
59.3117389980918
20
1.1043977978961
30
0
41
1
10
59.2897112653294
20
1.12071742149462
30
0
41
1
10
59.2790810204626
20
1.12853825276233
30
0
41
1
10
59.2637903617723
20
1.13969811061992
30
0
41
1
10
59.2588030398565
20
1.14332239099542
30
0
41
1
10
59.2490680383973
20
1.15036198795298
30
0
41
1
10
59.2443135643331
20
1.15378199878299
30
0
41
1
10
59.2397668423861
20
1.15703263691711
30
0
0
SPLINE
5
19F
100
AcDbEntity
8
1
62
256
6
ByLayer
370
18
48
1
60
0
100
AcDbSpline
70
4
71
3
72
25
73
21
40
0
40
0
40
0
40
0
40
0.0624999999999945
40
0.0624999999999945
40
0.124999999999989
40
0.124999999999989
40
0.187499999999983
40
0.187499999999983
40
0.249999999999978
40
0.249999999999978
40
0.499999999999956
40
0.499999999999956
40
0.562499999999954
40
0.562499999999954
40
0.624999999999952
40
0.749999999999968
40
0.749999999999968
40
0.874999999999984
40
0.874999999999984
40
1
40
1
40
1
40
1
41
1
10
59.239766842386
20
1.15703263691711
30
0
41
1
10
59.2232657706902
20
1.17202777787864
30
0
41
1
10
59.2060933030465
20
1.18732582817827
30
0
41
1
10
59.1704558707612
20
1.21846941714028
30
0
41
1
10
59.1520082097432
20
1.23429719203458
30
0
41
1
10
59.1141451482523
20
1.26626535529192
30
0
41
1
10
59.0947063701325
20
1.282445286409
30
0
41
1
10
59.0548289421916
20
1.31509024175199
30
0
41
1
10
59.034363643307
20
1.33149731629769
30
0
41
1
10
58.9291551851033
20
1.41335409466635
30
0
41
1
10
58.8359494066596
20
1.47862140643076
30
0
41
1
10
58.7095840808591
20
1.56303141127691
30
0
41
1
10
58.6837692154832
20
1.58009314335232
30
0
41
1
10
58.6314320265097
20
1.61443289907288
30
0
41
1
10
58.552041772594
20
1.66615091111436
30
0
41
1
10
58.470257815793
20
1.71881440597511
30
0
41
1
10
58.3594790312491
20
1.79040180921916
30
0
41
1
10
58.3032232246957
20
1.82687992353044
30
0
41
1
10
58.1892988744495
20
1.90170041414856
30
0
41
1
10
58.1316301376973
20
1.940040581592
30
0
41
1
10
58.0733597803235
20
1.97953793162171
30
0
0
SPLINE
5
1A0
100
AcDbEntity
8
1
62
256
6
ByLayer
370
18
48
1
60
0
100
AcDbSpline
70
4
71
3
72
92
73
88
40
0
40
0
40
0
40
0
40
0.0386839705899838
40
0.0386839705899838
40
0.0580259558849756
40
0.0580259558849756
40
0.0773679411799675
40
0.0773679411799675
40
0.0967099264749594
40
0.0967099264749594
40
0.106380919122456
40
0.106380919122456
40
0.116051911769953
40
0.116051911769953
40
0.154735882359939
40
0.154735882359939
40
0.193419852949925
40
0.193419852949925
40
0.23210382353991
40
0.23210382353991
40
0.251445808834903
40
0.251445808834903
40
0.270787794129896
40
0.270787794129896
40
0.290129779424889
40
0.290129779424889
40
0.299800772072385
40
0.299800772072385
40
0.309471764719882
40
0.309471764719882
40
0.348155735309871
40
0.348155735309871
40
0.367497720604865
40
0.367497720604865
40
0.386839705899859
40
0.386839705899859
40
0.406181691194853
40
0.406181691194853
40
0.425523676489846
40
0.425523676489846
40
0.44486566178484
40
0.44486566178484
40
0.464207647079834
40
0.502891617669822
40
0.502891617669822
40
0.541575588259809
40
0.541575588259809
40
0.560917573554803
40
0.560917573554803
40
0.580259558849797
40
0.580259558849797
40
0.599601544144791
40
0.599601544144791
40
0.618943529439784
40
0.618943529439784
40
0.657627500029772
40
0.657627500029772
40
0.69631147061976
40
0.69631147061976
40
0.705982463267257
40
0.705982463267257
40
0.715653455914753
40
0.715653455914753
40
0.734995441209745
40
0.734995441209745
40
0.773679411799729
40
0.773679411799729
40
0.812363382389713
40
0.812363382389713
40
0.831705367684705
40
0.831705367684705
40
0.851047352979698
40
0.851047352979698
40
0.870389338274691
40
0.870389338274691
40
0.889731323569684
40
0.889731323569684
40
0.909073308864677
40
0.909073308864677
40
0.918744301512173
40
0.918744301512173
40
0.928415294159669
40
0.967099264749657
40
0.967099264749657
40
0.986441250044651
40
0.986441250044651
40
1
40
1
40
1
40
1
41
1
10
58.0733597803234
20
1.97953793162179
30
0
41
1
10
57.8955539969628
20
2.10005988445025
30
0
41
1
10
57.718568774142
20
2.21859065246068
30
0
41
1
10
57.4539398214347
20
2.39294756315749
30
0
41
1
10
57.3658817864979
20
2.45050609211629
30
0
41
1
10
57.1899305328814
20
2.56433765608628
30
0
41
1
10
57.1019937696339
20
2.62055711016689
30
0
41
1
10
56.9261417847387
20
2.73155550521022
30
0
41
1
10
56.8382629706304
20
2.78637833566418
30
0
41
1
10
56.7064578310357
20
2.8675397851037
30
0
41
1
10
56.6625404302917
20
2.89443283241889
30
0
41
1
10
56.5746539011568
20
2.94779789095037
30
0
41
1
10
56.5306727572089
20
2.97425649663131
30
0
41
1
10
56.3108852045916
20
3.10579008389053
30
0
41
1
10
56.1353843205854
20
3.20852528134122
30
0
41
1
10
55.7846832905833
20
3.40856266302239
30
0
41
1
10
55.609503071655
20
3.50588509301957
30
0
41
1
10
55.2589891482957
20
3.69454750912189
30
0
41
1
10
55.0835864322875
20
3.78581483482935
30
0
41
1
10
54.8197371783419
20
3.91758081564413
30
0
41
1
10
54.7316802499235
20
3.96066374505131
30
0
41
1
10
54.5552313366791
20
4.0450369194202
30
0
41
1
10
54.4668200597032
20
4.08631122417418
30
0
41
1
10
54.2898522119049
20
4.16723426069598
30
0
41
1
10
54.2012205652073
20
4.20681457487061
30
0
41
1
10
54.0680255204407
20
4.26483333573412
30
0
41
1
10
54.0235890559382
20
4.28395035941222
30
0
41
1
10
53.9346473055163
20
4.32174348488746
30
0
41
1
10
53.8901304626777
20
4.34042409555002
30
0
41
1
10
53.6679225837806
20
4.43251731991231
30
0
41
1
10
53.4909665465801
20
4.5021795651877
30
0
41
1
10
53.2263963482983
20
4.60043736872126
30
0
41
1
10
53.1383502405581
20
4.63215099187278
30
0
41
1
10
52.9624880796144
20
4.69346801559772
30
0
41
1
10
52.8747006667898
20
4.72308841957644
30
0
41
1
10
52.6990945399433
20
4.78006583662378
30
0
41
1
10
52.6112013313383
20
4.80738126234027
30
0
41
1
10
52.4354715665171
20
4.85984239042136
30
0
41
1
10
52.3476676074784
20
4.88500366684403
30
0
41
1
10
52.1720442354043
20
4.93312284179981
30
0
41
1
10
52.0842350902905
20
4.95608796599677
30
0
41
1
10
51.9087190626749
20
4.99987926483425
30
0
41
1
10
51.6455659384339
20
5.06233865336247
30
0
41
1
10
51.3826082093062
20
5.11500598107102
30
0
41
1
10
51.0318828991824
20
5.1763067177464
30
0
41
1
10
50.8564885230415
20
5.20249336022005
30
0
41
1
10
50.5926135400621
20
5.23480570267984
30
0
41
1
10
50.5045138505033
20
5.24441397382537
30
0
41
1
10
50.3278453376586
20
5.26127718810329
30
0
41
1
10
50.2393076007432
20
5.26854198161956
30
0
41
1
10
50.0621272102496
20
5.28077020888372
30
0
41
1
10
49.9734409731645
20
5.28572489747594
30
0
41
1
10
49.7958345505787
20
5.29327795755688
30
0
41
1
10
49.7068707341583
20
5.29587391939845
30
0
41
1
10
49.4407862351459
20
5.30006515051159
30
0
41
1
10
49.2640309855751
20
5.29808697038152
30
0
41
1
10
48.9113874386872
20
5.28474650808107
30
0
41
1
10
48.7355572906772
20
5.27337621892542
30
0
41
1
10
48.5160000119639
20
5.25340733193877
30
0
41
1
10
48.4721049722128
20
5.24912490311047
30
0
41
1
10
48.3842823420941
20
5.23999836240898
30
0
41
1
10
48.3403393141694
20
5.235157981952
30
0
41
1
10
48.2085603181123
20
5.21978085445281
30
0
41
1
10
48.1207895714287
20
5.20838190670426
30
0
41
1
10
47.8574430653056
20
5.17082041878967
30
0
41
1
10
47.6818986237892
20
5.14129107371002
30
0
41
1
10
47.3311696225492
20
5.07311675742883
30
0
41
1
10
47.1559276705753
20
5.03448056305538
30
0
41
1
10
46.8929084391877
20
4.96975035849195
30
0
41
1
10
46.8052104708434
20
4.94704392931567
30
0
41
1
10
46.6296978852784
20
4.899387903557
30
0
41
1
10
46.5418546099512
20
4.87445100997846
30
0
41
1
10
46.3656757822128
20
4.82254369116728
30
0
41
1
10
46.277397663646
20
4.79554498668398
30
0
41
1
10
46.1006583865987
20
4.73933660512836
30
0
41
1
10
46.0121976222143
20
4.71012464068522
30
0
41
1
10
45.8350440671145
20
4.64949051308699
30
0
41
1
10
45.7463329082213
20
4.61808078309124
30
0
41
1
10
45.6130374950556
20
4.56932750833323
30
0
41
1
10
45.568555729566
20
4.55279772620716
30
0
41
1
10
45.4797278773855
20
4.51926997293651
30
0
41
1
10
45.2578744872818
20
4.43423349210153
30
0
41
1
10
45.0370541988044
20
4.34316474806997
30
0
41
1
10
44.7727051522305
20
4.22844512617741
30
0
41
1
10
44.6846979572822
20
4.18929664523131
30
0
41
1
10
44.5351505921699
20
4.12119497900269
30
0
41
1
10
44.4735823966768
20
4.09267667524358
30
0
41
1
10
44.4119992730205
20
4.06377736480437
30
0
0
SPLINE
5
1A1
100
AcDbEntity
8
1
62
256
6
ByLayer
370
18
48
1
60
0
100
AcDbSpline
70
4
71
3
72
94
73
90
40
0
40
0
40
0
40
0
40
0.0314769921183912
40
0.0314769921183912
40
0.0487720458305619
40
0.0487720458305619
40
0.0660670995427327
40
0.0660670995427327
40
0.0833621532549034
40
0.0920096801109888
40
0.0920096801109888
40
0.100657206967074
40
0.100657206967074
40
0.135247314391418
40
0.135247314391418
40
0.152542368103591
40
0.152542368103591
40
0.169837421815763
40
0.169837421815763
40
0.204427529240107
40
0.204427529240107
40
0.239017636664452
40
0.239017636664452
40
0.256312690376624
40
0.256312690376624
40
0.273607744088796
40
0.273607744088796
40
0.308197851513141
40
0.308197851513141
40
0.316845378369227
40
0.316845378369227
40
0.325492905225313
40
0.325492905225313
40
0.342787958937486
40
0.342787958937486
40
0.360083012649659
40
0.360083012649659
40
0.377378066361832
40
0.377378066361832
40
0.411968173786178
40
0.411968173786178
40
0.446558281210524
40
0.446558281210524
40
0.48114838863487
40
0.48114838863487
40
0.489795915490956
40
0.489795915490956
40
0.498443442347041
40
0.498443442347041
40
0.515738496059213
40
0.533033549771385
40
0.541681076627471
40
0.541681076627471
40
0.550328603483556
40
0.550328603483556
40
0.584918710907896
40
0.584918710907896
40
0.602213764620067
40
0.602213764620067
40
0.619508818332237
40
0.619508818332237
40
0.654098925756579
40
0.654098925756579
40
0.688689033180921
40
0.688689033180921
40
0.705984086893092
40
0.705984086893092
40
0.723279140605264
40
0.723279140605264
40
0.757869248029605
40
0.757869248029605
40
0.775164301741776
40
0.775164301741776
40
0.792459355453947
40
0.809754409166117
40
0.809754409166117
40
0.827049462878288
40
0.827049462878288
40
0.86163957030263
40
0.86163957030263
40
0.896229677726971
40
0.896229677726971
40
0.913524731439143
40
0.913524731439143
40
0.930819785151314
40
0.930819785151314
40
0.965409892575657
40
0.965409892575657
40
1
40
1
40
1
40
1
41
1
10
39.3420592843741
20
5.29850020337008
30
0
41
1
10
39.5379115456843
20
5.29851016552968
30
0
41
1
10
39.733767890091
20
5.29279516832818
30
0
41
1
10
40.0373410858039
20
5.27491295011075
30
0
41
1
10
40.1450192798392
20
5.26680730684993
30
0
41
1
10
40.3608755511449
20
5.24711320779195
30
0
41
1
10
40.4690252375303
20
5.23552430801715
30
0
41
1
10
40.6857796288332
20
5.20885828805922
30
0
41
1
10
40.8486824864122
20
5.18624142636182
30
0
41
1
10
41.012120180875
20
5.15967646627106
30
0
41
1
10
41.1211993943304
20
5.14108426781959
30
0
41
1
10
41.1757662772243
20
5.13135214739339
30
0
41
1
10
41.4481241452446
20
5.08062842200442
30
0
41
1
10
41.6650047687986
20
5.03334044591301
30
0
41
1
10
41.9890994882533
20
4.95258039823023
30
0
41
1
10
42.096908737391
20
4.92401219221415
30
0
41
1
10
42.312169299152
20
4.86362365113939
30
0
41
1
10
42.4197953198674
20
4.83189851308993
30
0
41
1
10
42.7426275373676
20
4.73217719893441
30
0
41
1
10
42.9578004734251
20
4.65964786643101
30
0
41
1
10
43.3882007498346
20
4.50273762332299
30
0
41
1
10
43.603404674294
20
4.41834193241905
30
0
41
1
10
43.9262594090161
20
4.28278337585181
30
0
41
1
10
44.0338841791633
20
4.23609994392561
30
0
41
1
10
44.2491300848466
20
4.13968228549254
30
0
41
1
10
44.356742700132
20
4.08993479093689
30
0
41
1
10
44.6804993274023
20
3.93689882882089
30
0
41
1
10
44.8972726748909
20
3.82958469109687
30
0
41
1
10
45.169409282287
20
3.68876273804574
30
0
41
1
10
45.2238962411351
20
3.66026479336861
30
0
41
1
10
45.3329911650689
20
3.60259908132073
30
0
41
1
10
45.3875471160452
20
3.57345844392256
30
0
41
1
10
45.5509449303662
20
3.48527426773015
30
0
41
1
10
45.6596329170666
20
3.42540281691294
30
0
41
1
10
45.8765671701066
20
3.30355996216974
30
0
41
1
10
45.9848277685498
20
3.24160492272725
30
0
41
1
10
46.2008664180213
20
3.11555516891647
30
0
41
1
10
46.3085797455297
20
3.05138433347307
30
0
41
1
10
46.6315753888098
20
2.85632706863311
30
0
41
1
10
46.8468082813499
20
2.7230193127545
30
0
41
1
10
47.277229397873
20
2.45017627536083
30
0
41
1
10
47.4924154055811
20
2.31063942662632
30
0
41
1
10
47.9227379101822
20
2.02533132784853
30
0
41
1
10
48.1379003306725
20
1.87959236483618
30
0
41
1
10
48.4069186781146
20
1.69356189182909
30
0
41
1
10
48.4607175823911
20
1.65615154032307
30
0
41
1
10
48.5684912028058
20
1.5811695002694
30
0
41
1
10
48.622439116943
20
1.54356236221366
30
0
41
1
10
48.784415104201
20
1.43032387162396
30
0
41
1
10
49.0007803498536
20
1.27828690248319
30
0
41
1
10
49.2723497152663
20
1.08575898755805
30
0
41
1
10
49.4358216638937
20
0.969152182480485
30
0
41
1
10
49.5449228946922
20
0.891172437365412
30
0
41
1
10
49.5994600980073
20
0.852114504185295
30
0
41
1
10
49.8717433819235
20
0.656744552586645
30
0
41
1
10
50.0886509993678
20
0.499974633849348
30
0
41
1
10
50.4125955283194
20
0.26404133314324
30
0
41
1
10
50.5202856721932
20
0.185190176523776
30
0
41
1
10
50.7356402535647
20
0.027857431899065
30
0
41
1
10
50.8432987857449
20
-0.0506331176831907
30
0
41
1
10
51.1662370475306
20
-0.285558810707442
30
0
41
1
10
51.3814584928433
20
-0.441478405912989
30
0
41
1
10
51.8118051561892
20
-0.751873948484359
30
0
41
1
10
52.0269434109375
20
-0.9063317931695
30
0
41
1
10
52.3496517418708
20
-1.13682034930977
30
0
41
1
10
52.4572314444789
20
-1.21343597791952
30
0
41
1
10
52.6724940902239
20
-1.36612186657234
30
0
41
1
10
52.7801947974285
20
-1.44216741621335
30
0
41
1
10
53.1042420519954
20
-1.66841003431892
30
0
41
1
10
53.3211398118396
20
-1.81725071335271
30
0
41
1
10
53.6478095955552
20
-2.03748257691359
30
0
41
1
10
53.7570621817737
20
-2.11046695231141
30
0
41
1
10
53.9748266086146
20
-2.25459454449569
30
0
41
1
10
54.192065440674
20
-2.39703679513099
30
0
41
1
10
54.4083143185301
20
-2.53606234887343
30
0
41
1
10
54.624103605043
20
-2.67334161646355
30
0
41
1
10
54.7317581408605
20
-2.74111788808773
30
0
41
1
10
55.0547027375851
20
-2.94103576130024
30
0
41
1
10
55.2698391245382
20
-3.0699453442426
30
0
41
1
10
55.6999214245643
20
-3.31905611975355
30
0
41
1
10
55.9148563486026
20
-3.4392697265053
30
0
41
1
10
56.2371668908731
20
-3.61299550750238
30
0
41
1
10
56.3445881523269
20
-3.66980400319858
30
0
41
1
10
56.5593935300103
20
-3.78120644488939
30
0
41
1
10
56.6667400500786
20
-3.83583582382588
30
0
41
1
10
56.9890437790856
20
-3.99604754954859
30
0
41
1
10
57.2046852407341
20
-4.09756394121985
30
0
41
1
10
57.6377462355647
20
-4.28980206053356
30
0
41
1
10
57.855108705612
20
-4.38057611568902
30
0
41
1
10
58.0733597803234
20
-4.46585124957679
30
0
0
SPLINE
5
1A2
100
AcDbEntity
8
1
62
256
6
ByLayer
370
18
48
1
60
0
100
AcDbSpline
70
4
71
3
72
26
73
22
40
0
40
0
40
0
40
0
40
0.124999999999993
40
0.124999999999993
40
0.249999999999987
40
0.249999999999987
40
0.37499999999998
40
0.37499999999998
40
0.437499999999985
40
0.437499999999985
40
0.499999999999991
40
0.499999999999991
40
0.625000000000001
40
0.625000000000001
40
0.75000000000001
40
0.75000000000001
40
0.812500000000008
40
0.812500000000008
40
0.875000000000005
40
0.875000000000005
40
1
40
1
40
1
40
1
41
1
10
58.0733597803234
20
-4.46585124957679
30
0
41
1
10
58.1323219652368
20
-4.48888897445147
30
0
41
1
10
58.1907384597089
20
-4.51460360957668
30
0
41
1
10
58.3062984993455
20
-4.57131275614509
30
0
41
1
10
58.3634414179068
20
-4.60230663493098
30
0
41
1
10
58.4763147463648
20
-4.66965788327511
30
0
41
1
10
58.5320475131284
20
-4.70601160528921
30
0
41
1
10
58.6145039237732
20
-4.76479066253242
30
0
41
1
10
58.6418510851242
20
-4.78513687390267
30
0
41
1
10
58.6957000613938
20
-4.8269596646214
30
0
41
1
10
58.7222419415631
20
-4.84846149794177
30
0
41
1
10
58.8007043852564
20
-4.9147719303738
30
0
41
1
10
58.851465049985
20
-4.96137484714876
30
0
41
1
10
58.9497669396717
20
-5.05975772974151
30
0
41
1
10
58.9973112334673
20
-5.11153109395551
30
0
41
1
10
59.0659866390763
20
-5.1936724220048
30
0
41
1
10
59.088512243382
20
-5.22189101093878
30
0
41
1
10
59.1321129547004
20
-5.27936154770882
30
0
41
1
10
59.1531945593626
20
-5.30865104049423
30
0
41
1
10
59.2141186725271
20
-5.39827611484108
30
0
41
1
10
59.2516802690368
20
-5.46034827787506
30
0
41
1
10
59.2857953456216
20
-5.525058616411
30
0
0
SPLINE
5
1A3
100
AcDbEntity
8
1
62
256
6
ByLayer
370
18
48
1
60
0
100
AcDbSpline
70
4
71
3
72
8
73
4
40
0
40
0
40
0
40
0
40
1
40
1
40
1
40
1
41
1
10
59.2857953456204
20
-5.52505861640864
30
0
41
1
10
59.3443240019483
20
-5.63607724934698
30
0
41
1
10
59.4026060918902
20
-5.74708779313968
30
0
41
1
10
59.4606806750091
20
-5.85807179035524
30
0
0
SPLINE
5
1A4
100
AcDbEntity
8
1
62
256
6
ByLayer
370
18
48
1
60
0
100
AcDbSpline
70
4
71
3
72
8
73
4
40
0
40
0
40
0
40
0
40
1
40
1
40
1
40
1
41
1
10
59.4606806750088
20
-5.85807179035538
30
0
41
1
10
59.5296270560428
20
-5.77552403636312
30
0
41
1
10
59.5989022733669
20
-5.69049304363659
30
0
41
1
10
59.6685707811319
20
-5.60298800115831
30
0
0
SPLINE
5
1A5
100
AcDbEntity
8
1
62
256
6
ByLayer
370
18
48
1
60
0
100
AcDbSpline
70
4
71
3
72
34
73
30
40
0
40
0
40
0
40
0
40
0.0625000000000199
40
0.0625000000000199
40
0.12500000000004
40
0.12500000000004
40
0.187500000000059
40
0.187500000000059
40
0.250000000000077
40
0.250000000000077
40
0.312500000000096
40
0.312500000000096
40
0.375000000000115
40
0.375000000000115
40
0.500000000000152
40
0.500000000000152
40
0.562500000000149
40
0.562500000000149
40
0.625000000000147
40
0.625000000000147
40
0.750000000000098
40
0.750000000000098
40
0.812500000000073
40
0.812500000000073
40
0.875000000000049
40
0.875000000000049
40
0.937500000000025
40
0.937500000000025
40
1
40
1
40
1
40
1
41
1
10
59.6685707811319
20
-5.60298800115831
30
0
41
1
10
59.6761150577729
20
-5.59351223844834
30
0
41
1
10
59.6843454518162
20
-5.58512244178786
30
0
41
1
10
59.7019530646828
20
-5.5701448710183
30
0
41
1
10
59.7113323627509
20
-5.56356057172334
30
0
41
1
10
59.7311227104611
20
-5.55200990017221
30
0
41
1
10
59.7416015618649
20
-5.54702546835088
30
0
41
1
10
59.7630515204661
20
-5.5387581775785
30
0
41
1
10
59.7740500417605
20
-5.53544672309067
30
0
41
1
10
59.7965333652404
20
-5.53030219571596
30
0
41
1
10
59.8080185203846
20
-5.52847020789969
30
0
41
1
10
59.8314421549328
20
-5.52620944476411
30
0
41
1
10
59.8434192448891
20
-5.52578227778923
30
0
41
1
10
59.8797485142095
20
-5.52658411796762
30
0
41
1
10
59.9041583869995
20
-5.5298398375609
30
0
41
1
10
59.9409828694762
20
-5.53861403466413
30
0
41
1
10
59.9532930928325
20
-5.54219433315944
30
0
41
1
10
59.977976159411
20
-5.55072067676417
30
0
41
1
10
59.9902837046687
20
-5.55565046125901
30
0
41
1
10
60.0265816156877
20
-5.57226111134938
30
0
41
1
10
60.0501563932831
20
-5.58579613494425
30
0
41
1
10
60.0844080880992
20
-5.61028734548617
30
0
41
1
10
60.0956385325713
20
-5.61915620487267
30
0
41
1
10
60.1176629232736
20
-5.63852086640065
30
0
41
1
10
60.1282398773258
20
-5.64882843429538
30
0
41
1
10
60.1484146486132
20
-5.67076691118305
30
0
41
1
10
60.1580190460076
20
-5.68240096304714
30
0
41
1
10
60.1761147497558
20
-5.70720304994998
30
0
41
1
10
60.1846255662167
20
-5.72042224208292
30
0
41
1
10
60.1922762814403
20
-5.73424406576049
30
0
0
SPLINE
5
1A6
100
AcDbEntity
8
1
62
256
6
ByLayer
370
18
48
1
60
0
100
AcDbSpline
70
4
71
3
72
8
73
4
40
0
40
0
40
0
40
0
40
1
40
1
40
1
40
1
41
1
10
61.0794937055747
20
-6.99397785403016
30
0
41
1
10
61.0093452166799
20
-6.98319327454695
30
0
41
1
10
60.9392787273057
20
-6.97141918250117
30
0
41
1
10
60.869212097418
20
-6.95867049633117
30
0
0
SPLINE
5
1A7
100
AcDbEntity
8
1
62
256
6
ByLayer
370
18
48
1
60
0
100
AcDbSpline
70
4
71
3
72
8
73
4
40
0
40
0
40
0
40
0
40
1
40
1
40
1
40
1
41
1
10
72.2859367427358
20
3.06973157580822
30
0
41
1
10
72.3560493416887
20
3.00804829805301
30
0
41
1
10
72.4261418117937
20
2.94595616550728
30
0
41
1
10
72.4962242576619
20
2.88346507574056
30
0
0
SPLINE
5
1A8
100
AcDbEntity
8
1
62
256
6
ByLayer
370
18
48
1
60
0
100
AcDbSpline
70
4
71
3
72
8
73
4
40
0
40
0
40
0
40
0
40
1
40
1
40
1
40
1
41
1
10
70.1942345521251
20
4.75758122783014
30
0
41
1
10
70.2643309251715
20
4.70685379986682
30
0
41
1
10
70.3344190817861
20
4.65548560662313
30
0
41
1
10
70.4045141102273
20
4.60348988321306
30
0
0
SPLINE
5
1A9
100
AcDbEntity
8
1
62
256
6
ByLayer
370
18
48
1
60
0
100
AcDbSpline
70
4
71
3
72
8
73
4
40
0
40
0
40
0
40
0
40
1
40
1
40
1
40
1
41
1
10
68.1023785558133
20
6.05335816468499
30
0
41
1
10
68.1724756159213
20
6.01783091645987
30
0
41
1
10
68.2425568616164
20
5.98146998606038
30
0
41
1
10
68.312637344496
20
5.94428511950593
30
0
0
SPLINE
5
1AA
100
AcDbEntity
8
1
62
256
6
ByLayer
370
18
48
1
60
0
100
AcDbSpline
70
4
71
3
72
8
73
4
40
0
40
0
40
0
40
0
40
1
40
1
40
1
40
1
41
1
10
66.010669458726
20
6.84857082499767
30
0
41
1
10
66.0807546064879
20
6.83115695892522
30
0
41
1
10
66.1508328128999
20
6.8127943908427
30
0
41
1
10
66.2209167009887
20
6.79348901426403
30
0
0
SPLINE
5
1AB
100
AcDbEntity
8
1
62
256
6
ByLayer
370
18
48
1
60
0
100
AcDbSpline
70
4
71
3
72
12
73
8
40
0
40
0
40
0
40
0
40
0.245283010814919
40
0.245283010814919
40
0.622641505407459
40
0.622641505407459
40
1
40
1
40
1
40
1
41
1
10
41.8690694294094
20
-5.29850010504671
30
0
41
1
10
41.8115164095734
20
-5.29849586655268
30
0
41
1
10
41.7538955115008
20
-5.29799462398893
30
0
41
1
10
41.6074727339789
20
-5.2954562464119
30
0
41
1
10
41.5185854723329
20
-5.29273752525583
30
0
41
1
10
41.3405679551278
20
-5.28490672107375
30
0
41
1
10
41.2517770897748
20
-5.27980828816646
30
0
41
1
10
41.1631813097212
20
-5.27353701461951
30
0
0
SPLINE
5
1AC
100
AcDbEntity
8
1
62
256
6
ByLayer
370
18
48
1
60
0
100
AcDbSpline
70
4
71
3
72
20
73
16
40
0
40
0
40
0
40
0
40
0.0727001746401607
40
0.0727001746401607
40
0.258160139712132
40
0.258160139712132
40
0.443620104784103
40
0.443620104784103
40
0.536350087320088
40
0.536350087320088
40
0.629080069856073
40
0.629080069856073
40
0.814540034928037
40
0.814540034928037
40
1
40
1
40
1
40
1
41
1
10
54.5860938983331
20
5.29849965139869
30
0
41
1
10
54.6706103745765
20
5.29850164285716
30
0
41
1
10
54.7550103046752
20
5.29742287012618
30
0
41
1
10
55.0547027375851
20
5.28978905968029
30
0
41
1
10
55.2698391245382
20
5.27735610570116
30
0
41
1
10
55.6999214245643
20
5.23887952793007
30
0
41
1
10
55.9148563486026
20
5.21283426737284
30
0
41
1
10
56.2371668908731
20
5.16355728243443
30
0
41
1
10
56.3445881523269
20
5.14542807284067
30
0
41
1
10
56.5593935300104
20
5.10572954976578
30
0
41
1
10
56.6667400500786
20
5.0841439226619
30
0
41
1
10
56.9890437790856
20
5.01428485933843
30
0
41
1
10
57.2046852407341
20
4.96110121681943
30
0
41
1
10
57.6377462355647
20
4.84162585720267
30
0
41
1
10
57.855108705612
20
4.77530716890612
30
0
41
1
10
58.0733597803234
20
4.70227901180897
30
0
0
SPLINE
5
1AD
100
AcDbEntity
8
1
62
256
6
ByLayer
370
18
48
1
60
0
100
AcDbSpline
70
4
71
3
72
24
73
20
40
0
40
0
40
0
40
0
40
0.249999999999977
40
0.249999999999977
40
0.374999999999965
40
0.374999999999965
40
0.437499999999958
40
0.437499999999958
40
0.499999999999952
40
0.499999999999952
40
0.62499999999996
40
0.62499999999996
40
0.749999999999968
40
0.749999999999968
40
0.874999999999975
40
0.874999999999975
40
0.937499999999988
40
0.937499999999988
40
1
40
1
40
1
40
1
41
1
10
58.0733597803234
20
4.702279011809
30
0
41
1
10
58.1754956264476
20
4.6681037271014
30
0
41
1
10
58.2759840800175
20
4.6424110740135
30
0
41
1
10
58.4235944411479
20
4.61546639061481
30
0
41
1
10
58.4722814864153
20
4.60843659297217
30
0
41
1
10
58.5444809959709
20
4.60087924267495
30
0
41
1
10
58.5684090200986
20
4.59885948299919
30
0
41
1
10
58.6159785777959
20
4.5958484696707
30
0
41
1
10
58.6396604020093
20
4.59485768142639
30
0
41
1
10
58.7097607625022
20
4.59349751268721
30
0
41
1
10
58.7553476767905
20
4.59471641377067
30
0
41
1
10
58.8441717237094
20
4.6016483526692
30
0
41
1
10
58.8874123597438
20
4.60736156210791
30
0
41
1
10
58.9714446812189
20
4.62386674230066
30
0
41
1
10
59.0122370857045
20
4.63465049180527
30
0
41
1
10
59.0714291457457
20
4.6553991236799
30
0
41
1
10
59.0908776947335
20
4.66312695060486
30
0
41
1
10
59.1286611721191
20
4.68005487963728
30
0
41
1
10
59.1470158004155
20
4.68922089634722
30
0
41
1
10
59.1647933439442
20
4.69906209041352
30
0
0
SPLINE
5
1AE
100
AcDbEntity
8
1
62
256
6
ByLayer
370
18
48
1
60
0
100
AcDbSpline
70
4
71
3
72
27
73
23
40
0
40
0
40
0
40
0
40
0.0625000000000308
40
0.0625000000000308
40
0.125000000000062
40
0.125000000000062
40
0.250000000000055
40
0.375000000000049
40
0.375000000000049
40
0.437500000000045
40
0.437500000000045
40
0.500000000000041
40
0.500000000000041
40
0.62500000000003
40
0.62500000000003
40
0.75000000000002
40
0.75000000000002
40
0.812500000000016
40
0.812500000000016
40
0.875000000000012
40
0.875000000000012
40
1
40
1
40
1
40
1
41
1
10
59.1647933439436
20
4.69906209041449
30
0
41
1
10
59.1721759174154
20
4.69421315582386
30
0
41
1
10
59.1796139272574
20
4.6895537926448
30
0
41
1
10
59.194598537407
20
4.68061273821544
30
0
41
1
10
59.2021662333362
20
4.67631993905459
30
0
41
1
10
59.224865304273
20
4.66410273817937
30
0
41
1
10
59.2550272946529
20
4.64960741530689
30
0
41
1
10
59.284948383964
20
4.63859069309507
30
0
41
1
10
59.3072803714985
20
4.63167769240096
30
0
41
1
10
59.3147061649063
20
4.62959917340024
30
0
41
1
10
59.329517276516
20
4.62591361581477
30
0
41
1
10
59.3369258082453
20
4.62430289340909
30
0
41
1
10
59.3588528997557
20
4.62026166638287
30
0
41
1
10
59.3730988338715
20
4.61860372648067
30
0
41
1
10
59.4007768132981
20
4.6175016635612
30
0
41
1
10
59.4142101661597
20
4.61805396707828
30
0
41
1
10
59.4336429267972
20
4.62080799479256
30
0
41
1
10
59.4400115633466
20
4.62205517013308
30
0
41
1
10
59.452272376758
20
4.62520789548915
30
0
41
1
10
59.4581904850989
20
4.62711544186826
30
0
41
1
10
59.4752672205422
20
4.63389604058702
30
0
41
1
10
59.4857585575268
20
4.63980968308974
30
0
41
1
10
59.4951545705563
20
4.64744668661476
30
0
0
SPLINE
5
1AF
100
AcDbEntity
8
1
62
256
6
ByLayer
370
18
48
1
60
0
100
AcDbSpline
70
4
71
3
72
10
73
6
40
0
40
0
40
0
40
0
40
0.5
40
0.5
40
1
40
1
40
1
40
1
41
1
10
59.4951545705563
20
4.64744668661476
30
0
41
1
10
59.609680912191
20
4.74053277238608
30
0
41
1
10
59.7232294505122
20
4.8257952150729
30
0
41
1
10
59.9489304320375
20
4.98086786850717
30
0
41
1
10
60.0608149170037
20
5.05048229491916
30
0
41
1
10
60.1719305475789
20
5.11220690684951
30
0
0
SPLINE
5
1B0
100
AcDbEntity
8
1
62
256
6
ByLayer
370
18
48
1
60
0
100
AcDbSpline
70
4
71
3
72
8
73
4
40
0
40
0
40
0
40
0
40
1
40
1
40
1
40
1
41
1
10
60.3821799068163
20
4.96846872199919
30
0
41
1
10
60.3121132540234
20
5.01709485428339
30
0
41
1
10
60.2420313034619
20
5.06500807292014
30
0
41
1
10
60.1719305475788
20
5.11220690684959
30
0
0
SPLINE
5
1B1
100
AcDbEntity
8
1
62
256
6
ByLayer
370
18
48
1
60
0
100
AcDbSpline
70
4
71
3
72
10
73
6
40
0
40
0
40
0
40
0
40
0.5
40
0.5
40
1
40
1
40
1
40
1
41
1
10
60.3821799068163
20
4.96846872199919
30
0
41
1
10
60.4938929593636
20
4.75800465010497
30
0
41
1
10
60.6064053999664
20
4.55026789660707
30
0
41
1
10
60.8334054266424
20
4.14082407547971
30
0
41
1
10
60.9476122122018
20
3.93957068338855
30
0
41
1
10
61.062934410106
20
3.74226084376869
30
0
0
SPLINE
5
1B2
100
AcDbEntity
8
1
62
256
6
ByLayer
370
18
48
1
60
0
100
AcDbSpline
70
4
71
3
72
34
73
30
40
0
40
0
40
0
40
0
40
0.0624999999999888
40
0.0624999999999888
40
0.124999999999978
40
0.124999999999978
40
0.187499999999966
40
0.187499999999966
40
0.249999999999955
40
0.249999999999955
40
0.312499999999944
40
0.312499999999944
40
0.374999999999933
40
0.374999999999933
40
0.49999999999991
40
0.49999999999991
40
0.562499999999921
40
0.562499999999921
40
0.624999999999932
40
0.624999999999932
40
0.749999999999954
40
0.749999999999954
40
0.812499999999966
40
0.812499999999966
40
0.874999999999977
40
0.874999999999977
40
0.937499999999989
40
0.937499999999989
40
1
40
1
40
1
40
1
41
1
10
61.062934410106
20
3.74226084376869
30
0
41
1
10
61.070484925983
20
3.7293423328158
30
0
41
1
10
61.0787214212236
20
3.71665356514626
30
0
41
1
10
61.0963399297744
20
3.6916637780061
30
0
41
1
10
61.1057240400665
20
3.67936340463587
30
0
41
1
10
61.1255221723988
20
3.65511242254362
30
0
41
1
10
61.1360038337963
20
3.64309449375332
30
0
41
1
10
61.1574571467798
20
3.61989726194025
30
0
41
1
10
61.1684565032154
20
3.6086748610154
30
0
41
1
10
61.1909399445486
20
3.5869007553307
30
0
41
1
10
61.2024243827034
20
3.57634954128062
30
0
41
1
10
61.225845104902
20
3.55587530785181
30
0
41
1
10
61.2378190854133
20
3.54592300918699
30
0
41
1
10
61.2741441291058
20
3.51718655548658
30
0
41
1
10
61.2985503966866
20
3.49976448842838
30
0
41
1
10
61.3353686588215
20
3.4760374646504
30
0
41
1
10
61.3476766657086
20
3.46853395592197
30
0
41
1
10
61.3723549765769
20
3.45435822308457
30
0
41
1
10
61.3846652579089
20
3.44772458793193
30
0
41
1
10
61.4209666873834
20
3.4294681765935
30
0
41
1
10
61.4445436119358
20
3.41934103567786
30
0
41
1
10
61.4787972169499
20
3.40755503954773
30
0
41
1
10
61.4900280729659
20
3.40419972610278
30
0
41
1
10
61.5120525864768
20
3.39880311500616
30
0
41
1
10
61.5226446456767
20
3.39681349468651
30
0
41
1
10
61.5428315745793
20
3.39438443577745
30
0
41
1
10
61.552440857857
20
3.39393974469402
30
0
41
1
10
61.5705439387229
20
3.39482750769622
30
0
41
1
10
61.5790606198277
20
3.39617554724739
30
0
41
1
10
61.5867173982898
20
3.39855667426281
30
0
0
SPLINE
5
1B3
100
AcDbEntity
8
1
62
256
6
ByLayer
370
18
48
1
60
0
100
AcDbSpline
70
4
71
3
72
10
73
6
40
0
40
0
40
0
40
0
40
0.5
40
0.5
40
1
40
1
40
1
40
1
41
1
10
61.5867173982897
20
3.39855667426417
30
0
41
1
10
61.7012784978594
20
3.43418321491015
30
0
41
1
10
61.8148615419997
20
3.46115113559449
30
0
41
1
10
62.0406187050417
20
3.49807911085551
30
0
41
1
10
62.1525228722297
20
3.50798083981033
30
0
41
1
10
62.2636501615765
20
3.50943483537415
30
0
0
SPLINE
5
1B4
100
AcDbEntity
8
1
62
256
6
ByLayer
370
18
48
1
60
0
100
AcDbSpline
70
4
71
3
72
8
73
4
40
0
40
0
40
0
40
0
40
1
40
1
40
1
40
1
41
1
10
62.4739125742755
20
3.33023425837797
30
0
41
1
10
62.4038281012082
20
3.39047263910163
30
0
41
1
10
62.3337408119385
20
3.45020584703701
30
0
41
1
10
62.2636501615765
20
3.50943483537418
30
0
0
SPLINE
5
1B5
100
AcDbEntity
8
1
62
256
6
ByLayer
370
18
48
1
60
0
100
AcDbSpline
70
4
71
3
72
10
73
6
40
0
40
0
40
0
40
0
40
0.5
40
0.5
40
1
40
1
40
1
40
1
41
1
10
62.4739125742755
20
3.33023425837797
30
0
41
1
10
62.5856006907262
20
3.14346381778094
30
0
41
1
10
62.6980751616224
20
2.96164585473284
30
0
41
1
10
62.9250144927086
20
2.60855777807234
30
0
41
1
10
63.0392079037995
20
2.43769449219775
30
0
41
1
10
63.1544976379065
20
2.27299921447138
30
0
0
SPLINE
5
1B6
100
AcDbEntity
8
1
62
256
6
ByLayer
370
18
48
1
60
0
100
AcDbSpline
70
4
71
3
72
34
73
30
40
0
40
0
40
0
40
0
40
0.0624999999999921
40
0.0624999999999921
40
0.124999999999984
40
0.124999999999984
40
0.187499999999976
40
0.187499999999976
40
0.249999999999968
40
0.249999999999968
40
0.31249999999996
40
0.31249999999996
40
0.374999999999952
40
0.374999999999952
40
0.499999999999936
40
0.499999999999936
40
0.562499999999927
40
0.562499999999927
40
0.624999999999919
40
0.624999999999919
40
0.749999999999946
40
0.749999999999946
40
0.812499999999959
40
0.812499999999959
40
0.874999999999973
40
0.874999999999973
40
0.937499999999986
40
0.937499999999986
40
1
40
1
40
1
40
1
41
1
10
63.1544976379065
20
2.27299921447138
30
0
41
1
10
63.1620513686858
20
2.26220845501484
30
0
41
1
10
63.1702918486046
20
2.25133112720414
30
0
41
1
10
63.1879196076276
20
2.22944078656727
30
0
41
1
10
63.1973089963136
20
2.2184274072275
30
0
41
1
10
63.2171191597169
20
2.19628154603015
30
0
41
1
10
63.2276072726035
20
2.18508374174536
30
0
41
1
10
63.2490707764359
20
2.16306487417933
30
0
41
1
10
63.260075390954
20
2.15220533257695
30
0
41
1
10
63.2825697200281
20
2.13074999960082
30
0
41
1
10
63.2940597881131
20
2.12015439741188
30
0
41
1
10
63.3174921717718
20
2.09920487110398
30
0
41
1
10
63.3294744038597
20
2.08881771801717
30
0
41
1
10
63.3658065373673
20
2.05822865081427
30
0
41
1
10
63.3902174370436
20
2.03885095168385
30
0
41
1
10
63.427042052226
20
2.01115567629972
30
0
41
1
10
63.4393520731929
20
2.00215504970663
30
0
41
1
10
63.4640340772469
20
1.9846209295736
30
0
41
1
10
63.476336881487
20
1.97613877922782
30
0
41
1
10
63.512625393786
20
1.95187282102043
30
0
41
1
10
63.5361945990374
20
1.93711049027289
30
0
41
1
10
63.57043740843
20
1.91729723451814
30
0
41
1
10
63.5816648018865
20
1.91108530553692
30
0
41
1
10
63.6036826223992
20
1.89955779314559
30
0
41
1
10
63.6142547237094
20
1.89435715933379
30
0
41
1
10
63.6344228881024
20
1.88518487373239
30
0
41
1
10
63.6440244591179
20
1.88120931589924
30
0
41
1
10
63.6621154498769
20
1.8746689551223
30
0
41
1
10
63.6706252898616
20
1.87210463416574
30
0
41
1
10
63.6782765680448
20
1.87044616633955
30
0
0
SPLINE
5
1B7
100
AcDbEntity
8
1
62
256
6
ByLayer
370
18
48
1
60
0
100
AcDbSpline
70
4
71
3
72
10
73
6
40
0
40
0
40
0
40
0
40
0.5
40
0.5
40
1
40
1
40
1
40
1
41
1
10
63.6782765680447
20
1.87044616634137
30
0
41
1
10
63.7928511112306
20
1.84561133626099
30
0
41
1
10
63.906439802392
20
1.81197172747369
30
0
41
1
10
64.13221562094
20
1.72750199252954
30
0
41
1
10
64.2441333375131
20
1.67675572843629
30
0
41
1
10
64.3552797444436
20
1.61768524246799
30
0
0
SPLINE
5
1B8
100
AcDbEntity
8
1
62
256
6
ByLayer
370
18
48
1
60
0
100
AcDbSpline
70
4
71
3
72
8
73
4
40
0
40
0
40
0
40
0
40
1
40
1
40
1
40
1
41
1
10
64.565529619327
20
1.41780169239252
30
0
41
1
10
64.495449856735
20
1.48467329182085
30
0
41
1
10
64.4253668470763
20
1.55130119084433
30
0
41
1
10
64.3552797444435
20
1.61768524246804
30
0
0
SPLINE
5
1B9
100
AcDbEntity
8
1
62
256
6
ByLayer
370
18
48
1
60
0
100
AcDbSpline
70
4
71
3
72
10
73
6
40
0
40
0
40
0
40
0
40
0.5
40
0.5
40
1
40
1
40
1
40
1
41
1
10
64.565529619327
20
1.41780169239252
30
0
41
1
10
64.677215757656
20
1.27020860223354
30
0
41
1
10
64.7896928956623
20
1.1293835666479
30
0
41
1
10
65.016617153612
20
0.861830296273098
30
0
41
1
10
65.1307823956301
20
0.735353373126344
30
0
41
1
10
65.2460638548588
20
0.616956778547745
30
0
0
SPLINE
5
1BA
100
AcDbEntity
8
1
62
256
6
ByLayer
370
18
48
1
60
0
100
AcDbSpline
70
4
71
3
72
34
73
30
40
0
40
0
40
0
40
0
40
0.062500000000011
40
0.062500000000011
40
0.125000000000022
40
0.125000000000022
40
0.187500000000033
40
0.187500000000033
40
0.250000000000044
40
0.250000000000044
40
0.312500000000055
40
0.312500000000055
40
0.375000000000066
40
0.375000000000066
40
0.50000000000013
40
0.50000000000013
40
0.56250000000014
40
0.56250000000014
40
0.625000000000151
40
0.625000000000151
40
0.750000000000128
40
0.750000000000128
40
0.812500000000096
40
0.812500000000096
40
0.875000000000064
40
0.875000000000064
40
0.937500000000032
40
0.937500000000032
40
1
40
1
40
1
40
1
41
1
10
65.2460638548588
20
0.616956778547745
30
0
41
1
10
65.253621816237
20
0.609194585953048
30
0
41
1
10
65.2618678286865
20
0.601035503811573
30
0
41
1
10
65.279508694699
20
0.584067168298958
30
0
41
1
10
65.2889056550157
20
0.575256523276721
30
0
41
1
10
65.3087325809272
20
0.557054239946893
30
0
41
1
10
65.3192295374368
20
0.547604636498363
30
0
41
1
10
65.3407071898344
20
0.528586198600294
30
0
41
1
10
65.3517188222189
20
0.518986888138869
30
0
41
1
10
65.3742268860306
20
0.499620776933881
30
0
41
1
10
65.3857236720437
20
0.489853846415485
30
0
41
1
10
65.4091690186162
20
0.470152603888664
30
0
41
1
10
65.4211597366428
20
0.460183694260905
30
0
41
1
10
65.4574971124914
20
0.43025187960464
30
0
41
1
10
65.4819100220349
20
0.410503574028212
30
0
41
1
10
65.5187357947849
20
0.381098674430319
30
0
41
1
10
65.5310458924663
20
0.371333774547367
30
0
41
1
10
65.5557274966361
20
0.351866651813907
30
0
41
1
10
65.568019758121
20
0.342227281468382
30
0
41
1
10
65.60428861698
20
0.313923879355656
30
0
41
1
10
65.6278464200226
20
0.295722514080808
30
0
41
1
10
65.6620750497925
20
0.269482536586423
30
0
41
1
10
65.6733025204997
20
0.260911600693873
30
0
41
1
10
65.695304184987
20
0.244187325496142
30
0
41
1
10
65.7058614393997
20
0.236198787063216
30
0
41
1
10
65.7260124875189
20
0.221026524076592
30
0
41
1
10
65.7356074142238
20
0.213841699748144
30
0
41
1
10
65.7536887430895
20
0.200400487574797
30
0
41
1
10
65.7621929559135
20
0.194131535106834
30
0
41
1
10
65.7698398852275
20
0.188568157179191
30
0
0
SPLINE
5
1BB
100
AcDbEntity
8
1
62
256
6
ByLayer
370
18
48
1
60
0
100
AcDbSpline
70
4
71
3
72
10
73
6
40
0
40
0
40
0
40
0
40
0.5
40
0.5
40
1
40
1
40
1
40
1
41
1
10
65.7698398852274
20
0.188568157181436
30
0
41
1
10
65.8844527939009
20
0.105183716166039
30
0
41
1
10
65.9980803067984
20
0.0136125063537236
30
0
41
1
10
66.223919186273
20
-0.18544912101089
30
0
41
1
10
66.3358585971192
20
-0.292717747194871
30
0
41
1
10
66.4470180787276
20
-0.407483521879982
30
0
0
SPLINE
5
1BC
100
AcDbEntity
8
1
62
256
6
ByLayer
370
18
48
1
60
0
100
AcDbSpline
70
4
71
3
72
8
73
4
40
0
40
0
40
0
40
0
40
1
40
1
40
1
40
1
41
1
10
66.6572560947338
20
-0.611612985848183
30
0
41
1
10
66.587180992056
20
-0.543607006724244
30
0
41
1
10
66.5171023226703
20
-0.475563123707474
30
0
41
1
10
66.4470180787276
20
-0.407483521879925
30
0
0
SPLINE
5
1BD
100
AcDbEntity
8
1
62
256
6
ByLayer
370
18
48
1
60
0
100
AcDbSpline
70
4
71
3
72
10
73
6
40
0
40
0
40
0
40
0
40
0.5
40
0.5
40
1
40
1
40
1
40
1
41
1
10
66.6572560947338
20
-0.611612985848154
30
0
41
1
10
66.7689150544739
20
-0.707833222326457
30
0
41
1
10
66.8813564083165
20
-0.796040261804535
30
0
41
1
10
67.1082313478439
20
-0.95585821577626
30
0
41
1
10
67.2223643355782
20
-1.02744986399088
30
0
41
1
10
67.3376293637771
20
-1.089799829311
30
0
0
SPLINE
5
1BE
100
AcDbEntity
8
1
62
256
6
ByLayer
370
18
48
1
60
0
100
AcDbSpline
70
4
71
3
72
34
73
30
40
0
40
0
40
0
40
0
40
0.062499999999987
40
0.062499999999987
40
0.124999999999974
40
0.124999999999974
40
0.187499999999961
40
0.187499999999961
40
0.249999999999948
40
0.249999999999948
40
0.312499999999935
40
0.312499999999935
40
0.374999999999922
40
0.374999999999922
40
0.499999999999938
40
0.499999999999938
40
0.562499999999946
40
0.562499999999946
40
0.624999999999953
40
0.624999999999953
40
0.749999999999969
40
0.749999999999969
40
0.812499999999977
40
0.812499999999977
40
0.874999999999985
40
0.874999999999985
40
0.937499999999992
40
0.937499999999992
40
1
40
1
40
1
40
1
41
1
10
67.3376293637771
20
-1.08979982931103
30
0
41
1
10
67.3451914353143
20
-1.0938903579428
30
0
41
1
10
67.3534428112247
20
-1.09865653140145
30
0
41
1
10
67.3710964317249
20
-1.1093020593803
30
0
41
1
10
67.380500773351
20
-1.11518375360632
30
0
41
1
10
67.4003442388573
20
-1.12794408985937
30
0
41
1
10
67.410849929973
20
-1.13486880769111
30
0
41
1
10
67.4323414071722
20
-1.14932626474055
30
0
41
1
10
67.4433599617159
20
-1.15687838860376
30
0
41
1
10
67.4658818420773
20
-1.17256866305414
30
0
41
1
10
67.4773855229586
20
-1.18070725347465
30
0
41
1
10
67.5008446563311
20
-1.19754784339904
30
0
41
1
10
67.512844680259
20
-1.20628288622873
30
0
41
1
10
67.5491883248809
20
-1.23310928875045
30
0
41
1
10
67.5736046503228
20
-1.25161251483519
30
0
41
1
10
67.6104344174151
20
-1.28032078916729
30
0
41
1
10
67.6227456565495
20
-1.29005080214733
30
0
41
1
10
67.6474291540156
20
-1.30985764376891
30
0
41
1
10
67.6597100138023
20
-1.31986232199327
30
0
41
1
10
67.6959597887722
20
-1.34987996464022
30
0
41
1
10
67.719506717105
20
-1.37002490367212
30
0
41
1
10
67.7537218728706
20
-1.40053514220585
30
0
41
1
10
67.7649555281538
20
-1.41076789727847
30
0
41
1
10
67.7869283432468
20
-1.43129864791661
30
0
41
1
10
67.7974735102646
20
-1.44141519316716
30
0
41
1
10
67.8176047579254
20
-1.46132965213764
30
0
41
1
10
67.8271919745185
20
-1.47112805707457
30
0
41
1
10
67.8452620672954
20
-1.4903561692006
30
0
41
1
10
67.8537592939886
20
-1.4998076088938
30
0
41
1
10
67.8614008584662
20
-1.50881111952623
30
0
0
SPLINE
5
1BF
100
AcDbEntity
8
1
62
256
6
ByLayer
370
18
48
1
60
0
100
AcDbSpline
70
4
71
3
72
8
73
4
40
0
40
0
40
0
40
0
40
1
40
1
40
1
40
1
41
1
10
68.7488994864383
20
-2.59048330848808
30
0
41
1
10
68.6788243933898
20
-2.52694912000774
30
0
41
1
10
68.608744907953
20
-2.46309893842263
30
0
41
1
10
68.5386589839233
20
-2.39893572007597
30
0
0
SPLINE
5
1C0
100
AcDbEntity
8
1
62
256
6
ByLayer
370
18
48
1
60
0
100
AcDbSpline
70
4
71
3
72
8
73
4
40
0
40
0
40
0
40
0
40
1
40
1
40
1
40
1
41
1
10
70.8406191090367
20
-4.3560215406828
30
0
41
1
10
70.7705382169838
20
-4.3021978929749
30
0
41
1
10
70.700450774554
20
-4.24780712760295
30
0
41
1
10
70.6303587447226
20
-4.19284940518489
30
0
0
SPLINE
5
1C1
100
AcDbEntity
8
1
62
256
6
ByLayer
370
18
48
1
60
0
100
AcDbSpline
70
4
71
3
72
8
73
4
40
0
40
0
40
0
40
0
40
1
40
1
40
1
40
1
41
1
10
72.9322607303257
20
-5.76265464518383
30
0
41
1
10
72.8621789719599
20
-5.72296090302925
30
0
41
1
10
72.792087692029
20
-5.6824948044783
30
0
41
1
10
72.7219882571181
20
-5.64125815150013
30
0
0
SPLINE
5
1C2
100
AcDbEntity
8
SK1
62
256
6
ByLayer
370
18
48
1
60
0
100
AcDbSpline
70
4
71
3
72
26
73
22
40
0
40
0
40
0
40
0
40
0.125011294936089
40
0.125011294936089
40
0.187516942404134
40
0.187516942404134
40
0.250022589872178
40
0.250022589872178
40
0.375033884808267
40
0.375033884808267
40
0.500045179744356
40
0.625056474680445
40
0.625056474680445
40
0.687562122148489
40
0.718814945882512
40
0.718814945882512
40
0.750067769616534
40
0.750067769616534
40
0.875079064552623
40
0.875079064552623
40
1
40
1
40
1
40
1
41
1
10
-28.1000000000001
20
4.08999999999998
30
0
41
1
10
-28.177064927247
20
4.08999999999998
30
0
41
1
10
-28.2523196653273
20
4.08999999999998
30
0
41
1
10
-28.361864669168
20
4.08999999999998
30
0
41
1
10
-28.3978541757351
20
4.08999999999998
30
0
41
1
10
-28.4683833245976
20
4.08999999999998
30
0
41
1
10
-28.5029289156647
20
4.08999999999998
30
0
41
1
10
-28.6042002089548
20
4.08999999999998
30
0
41
1
10
-28.6685686038475
20
4.08999999999998
30
0
41
1
10
-28.7897192388801
20
4.08999999999998
30
0
41
1
10
-28.9032855461124
20
4.08999999999998
30
0
41
1
10
-28.9985450025662
20
4.08999999999998
30
0
41
1
10
-29.0617195714632
20
4.08999999999998
30
0
41
1
10
-29.0912356905217
20
4.08999999999998
30
0
41
1
10
-29.1173492879462
20
4.08999999999998
30
0
41
1
10
-29.1339672528625
20
4.08999999999998
30
0
41
1
10
-29.1418886385633
20
4.08999999999998
30
0
41
1
10
-29.1793365077625
20
4.08999999999998
30
0
41
1
10
-29.2021930705542
20
4.08999999999998
30
0
41
1
10
-29.2328014859367
20
4.08999999999998
30
0
41
1
10
-29.2405616889173
20
4.08999999999998
30
0
41
1
10
-29.2405598443172
20
4.08999999999998
30
0
0
SPLINE
5
1C3
100
AcDbEntity
8
SK1
62
256
6
ByLayer
370
18
48
1
60
0
100
AcDbSpline
70
4
71
3
72
26
73
22
40
0
40
0
40
0
40
0
40
0.124923326807644
40
0.124923326807644
40
0.249934280120838
40
0.249934280120838
40
0.281187018449136
40
0.281187018449136
40
0.312439756777435
40
0.374945233434031
40
0.374945233434031
40
0.499956186747225
40
0.624967140060419
40
0.624967140060419
40
0.749978093373612
40
0.749978093373612
40
0.812483570030209
40
0.812483570030209
40
0.874989046686806
40
0.874989046686806
40
1
40
1
40
1
40
1
41
1
10
-29.2405599998606
20
-4.09000000000006
30
0
41
1
10
-29.240561028291
20
-4.09000000000003
30
0
41
1
10
-29.2328018206072
20
-4.09000000000003
30
0
41
1
10
-29.2021930705542
20
-4.09000000000003
30
0
41
1
10
-29.1793365077625
20
-4.09000000000003
30
0
41
1
10
-29.1418886385633
20
-4.09000000000003
30
0
41
1
10
-29.1339672528625
20
-4.09000000000003
30
0
41
1
10
-29.1173492879462
20
-4.09000000000003
30
0
41
1
10
-29.0912356905216
20
-4.09000000000003
30
0
41
1
10
-29.0617195714632
20
-4.09000000000003
30
0
41
1
10
-28.9985450025662
20
-4.09000000000003
30
0
41
1
10
-28.9032855461124
20
-4.09000000000003
30
0
41
1
10
-28.7897192388801
20
-4.09000000000003
30
0
41
1
10
-28.6685686038475
20
-4.09000000000003
30
0
41
1
10
-28.6042002089548
20
-4.09000000000003
30
0
41
1
10
-28.5029289156647
20
-4.09000000000003
30
0
41
1
10
-28.4683833245975
20
-4.09000000000003
30
0
41
1
10
-28.3978541757351
20
-4.09000000000003
30
0
41
1
10
-28.361864669168
20
-4.09000000000003
30
0
41
1
10
-28.2523196653272
20
-4.09000000000003
30
0
41
1
10
-28.177064927247
20
-4.09000000000003
30
0
41
1
10
-28.1
20
-4.09000000000003
30
0
0
SPLINE
5
1C4
100
AcDbEntity
8
SK1
62
256
6
ByLayer
370
18
48
1
60
0
100
AcDbSpline
70
4
71
3
72
47
73
43
40
0
40
0
40
0
40
0
40
0.0625000000000003
40
0.0625000000000003
40
0.125000000000001
40
0.125000000000001
40
0.156250000000001
40
0.156250000000001
40
0.187500000000001
40
0.187500000000001
40
0.250000000000001
40
0.312500000000001
40
0.312500000000001
40
0.375000000000001
40
0.375000000000001
40
0.406250000000001
40
0.406250000000001
40
0.421875000000001
40
0.421875000000001
40
0.437500000000001
40
0.437500000000001
40
0.500000000000001
40
0.500000000000001
40
0.562500000000002
40
0.562500000000002
40
0.625000000000002
40
0.625000000000002
40
0.640625000000002
40
0.640625000000002
40
0.656250000000002
40
0.687500000000002
40
0.687500000000002
40
0.750000000000001
40
0.812500000000001
40
0.812500000000001
40
0.875000000000001
40
0.875000000000001
40
0.906250000000001
40
0.906250000000001
40
0.9375
40
0.9375
40
1
40
1
40
1
40
1
41
1
10
-28.1000000000001
20
-3.26046897142123
30
0
41
1
10
-28.1766296314293
20
-3.13753699798994
30
0
41
1
10
-28.2514434068516
20
-3.01328689345618
30
0
41
1
10
-28.3966233438245
20
-2.76155815847358
30
0
41
1
10
-28.4669920736455
20
-2.63408139233405
30
0
41
1
10
-28.5684162519063
20
-2.43986905986836
30
0
41
1
10
-28.6015340028646
20
-2.37463052033414
30
0
41
1
10
-28.6662258256406
20
-2.24303288353437
30
0
41
1
10
-28.6977129455766
20
-2.17684645920363
30
0
41
1
10
-28.7891430981226
20
-1.97745345981372
30
0
41
1
10
-28.9031526966269
20
-1.70903140077578
30
0
41
1
10
-28.9983223631755
20
-1.43449086490233
30
0
41
1
10
-29.0823138821436
20
-1.15632010163765
30
0
41
1
10
-29.1187186791818
20
-1.01541899294782
30
0
41
1
10
-29.1634749672321
20
-0.800868138454604
30
0
41
1
10
-29.1767505567972
20
-0.728817548264118
30
0
41
1
10
-29.1940077535095
20
-0.619879036586894
30
0
41
1
10
-29.1993239634747
20
-0.583371110190086
30
0
41
1
10
-29.2090048939489
20
-0.510320639338744
30
0
41
1
10
-29.2133664364437
20
-0.473813498427773
30
0
41
1
10
-29.2327638180649
20
-0.291368860266829
30
0
41
1
10
-29.2405480626294
20
-0.145705340577109
30
0
41
1
10
-29.2405719098543
20
0.145034395826741
30
0
41
1
10
-29.2328125519795
20
0.29011065181362
30
0
41
1
10
-29.2021930705542
20
0.57969263120961
30
0
41
1
10
-29.1793365077625
20
0.724198489150268
30
0
41
1
10
-29.1418886385633
20
0.904495417176605
30
0
41
1
10
-29.1339672528625
20
0.940479883623681
30
0
41
1
10
-29.1173492879462
20
1.01205544825282
30
0
41
1
10
-29.0912356905217
20
1.11894377559744
30
0
41
1
10
-29.0617195714632
20
1.22447006325564
30
0
41
1
10
-28.9985450025662
20
1.43386445105
30
0
41
1
10
-28.9032855461124
20
1.70864294762677
30
0
41
1
10
-28.7897192388801
20
1.97609315654611
30
0
41
1
10
-28.6685686038475
20
2.24050733614061
30
0
41
1
10
-28.6042002089548
20
2.37119604560812
30
0
41
1
10
-28.5029289156647
20
2.56534019956712
30
0
41
1
10
-28.4683833245976
20
2.62973928130253
30
0
41
1
10
-28.3978541757351
20
2.75796182234905
30
0
41
1
10
-28.361864669168
20
2.8217924803121
30
0
41
1
10
-28.2523196653273
20
3.01183381712113
30
0
41
1
10
-28.177064927247
20
3.13683868099528
30
0
41
1
10
-28.1
20
3.26046897142109
30
0
0
SPLINE
5
1C5
100
AcDbEntity
8
1
62
256
6
ByLayer
370
18
48
1
60
0
100
AcDbSpline
70
4
71
1
72
4
73
2
40
0
40
0
40
1
40
1
41
1
10
63.9079761855378
20
7.06757525451764
30
0
41
1
10
63.6513991604037
20
6.62468104689523
30
0
0
SPLINE
5
1C6
100
AcDbEntity
8
1
62
256
6
ByLayer
370
18
48
1
60
0
100
AcDbSpline
70
4
71
1
72
4
73
2
40
0
40
0
40
1
40
1
41
1
10
70.4262535224653
20
6.59179705991633
30
0
41
1
10
70.1504297582202
20
7.06755006560692
30
0
0
SPLINE
5
1C7
100
AcDbEntity
8
1
62
256
6
ByLayer
370
18
48
1
60
0
100
AcDbSpline
70
4
71
2
72
6
73
3
40
0
40
0
40
0
40
1
40
1
40
1
41
1
10
77.6247044958888
20
-6.24966785016031
30
0
41
1
10
77.7165158210542
20
-6.09146622000148
30
0
41
1
10
77.8083846961523
20
-5.93328437892868
30
0
0
SPLINE
5
1C8
100
AcDbEntity
8
1
62
256
6
ByLayer
370
18
48
1
60
0
100
AcDbSpline
70
4
71
1
72
4
73
2
40
0
40
0
40
1
40
1
41
1
10
80.3
20
5.20573183413802
30
0
41
1
10
79.8564954496275
20
5.64919546996001
30
0
0
SPLINE
5
1C9
100
AcDbEntity
8
1
62
256
6
ByLayer
370
18
48
1
60
0
100
AcDbSpline
70
4
71
3
72
9
73
5
40
0
40
0
40
0
40
0
40
0.495673291367943
40
1
40
1
40
1
40
1
41
1
10
61.8156186221775
20
-5.91934850763124
30
0
41
1
10
61.837465515097
20
-5.88898100850588
30
0
41
1
10
61.8845223765967
20
-5.83987440883556
30
0
41
1
10
61.9416294205093
20
-5.81983233859538
30
0
41
1
10
61.9708388823761
20
-5.81470334264935
30
0
0
SPLINE
5
1CA
100
AcDbEntity
8
1
62
256
6
ByLayer
370
18
48
1
60
0
100
AcDbSpline
70
4
71
3
72
13
73
9
40
0
40
0
40
0
40
0
40
0.231292477521893
40
0.484296370846752
40
0.6166597834935
40
0.74866539754869
40
0.877194962622897
40
1
40
1
40
1
40
1
41
1
10
65.250757951588
20
5.93366419072845
30
0
41
1
10
65.2330594498355
20
5.90050434210431
30
0
41
1
10
65.1815873689211
20
5.84659222358687
30
0
41
1
10
65.0622422511627
20
5.80265758371482
30
0
41
1
10
64.9561064848374
20
5.81472134678103
30
0
41
1
10
64.8808033189605
20
5.84652624576754
30
0
41
1
10
64.8200460570294
20
5.89720368673682
30
0
41
1
10
64.7921812569363
20
5.93692926310564
30
0
41
1
10
64.7811066255829
20
5.95837005149218
30
0
0
SPLINE
5
1CB
100
AcDbEntity
8
1
62
256
6
ByLayer
370
18
48
1
60
0
100
AcDbSpline
70
4
71
1
72
4
73
2
40
0
40
0
40
1
40
1
41
1
10
76.6299033060892
20
-6.51863313940962
30
0
41
1
10
77.6181204179802
20
-6.26142245009333
30
0
0
SPLINE
5
1CC
100
AcDbEntity
8
1
62
256
6
ByLayer
370
18
48
1
60
0
100
AcDbSpline
70
4
71
2
72
6
73
3
40
0
40
0
40
0
40
1
40
1
40
1
41
1
10
76.2505485167837
20
-5.93332570913552
30
0
41
1
10
76.4177633055131
20
-6.22152467789914
30
0
41
1
10
76.5848465339774
20
-6.50981650123552
30
0
0
SPLINE
5
1CD
100
AcDbEntity
8
1
62
256
6
ByLayer
370
18
48
1
60
0
100
AcDbSpline
70
4
71
2
72
6
73
3
40
0
40
0
40
0
40
1
40
1
40
1
41
1
10
61.1485863603926
20
-7.07057231382518
30
0
41
1
10
61.4766942876954
20
-6.50433627393326
30
0
41
1
10
61.8051222360325
20
-5.9385981079659
30
0
0
SPLINE
5
1CE
100
AcDbEntity
8
1
62
256
6
ByLayer
370
18
48
1
60
0
100
AcDbSpline
70
4
71
3
72
14
73
10
40
0
40
0
40
0
40
0
40
0.255147768765298
40
0.448825582730475
40
0.582982335435607
40
0.616390043516535
40
0.696676145323115
40
0.826856001632289
40
1
40
1
40
1
40
1
41
1
10
75.808345136133
20
-5.9334020237925
30
0
41
1
10
75.8160231561349
20
-5.91320871577375
30
0
41
1
10
75.8477101586801
20
-5.87972861815334
30
0
41
1
10
75.9222799770263
20
-5.83074911520833
30
0
41
1
10
75.9958151301788
20
-5.81316348594072
30
0
41
1
10
76.0607960885169
20
-5.81459346322825
30
0
41
1
10
76.1188227223285
20
-5.82529803853618
30
0
41
1
10
76.2012955471703
20
-5.86778932795511
30
0
41
1
10
76.2418529144992
20
-5.91340865531657
30
0
41
1
10
76.258401456116
20
-5.94505031754045
30
0
0
SPLINE
5
1CF
100
AcDbEntity
8
1
62
256
6
ByLayer
370
18
48
1
60
0
100
AcDbSpline
70
4
71
2
72
6
73
3
40
0
40
0
40
0
40
1
40
1
40
1
41
1
10
60.2555956171401
20
-5.94121746797182
30
0
41
1
10
60.5832228473654
20
-6.50631780100386
30
0
41
1
10
60.9106834852844
20
-7.07189059175994
30
0
0
SPLINE
5
1D0
100
AcDbEntity
8
1
62
256
6
ByLayer
370
18
48
1
60
0
100
AcDbSpline
70
4
71
2
72
6
73
3
40
0
40
0
40
0
40
1
40
1
40
1
41
1
10
65.9093755967776
20
7.0698821978981
30
0
41
1
10
65.580552399302
20
6.50215595363085
30
0
41
1
10
65.2506586986184
20
5.93349423242009
30
0
0
SPLINE
5
1D1
100
AcDbEntity
8
1
62
256
6
ByLayer
370
18
48
1
60
0
100
AcDbSpline
70
4
71
2
72
6
73
3
40
0
40
0
40
0
40
1
40
1
40
1
41
1
10
66.8108761291213
20
5.92881420756999
30
0
41
1
10
66.4823358710183
20
6.49434073638588
30
0
41
1
10
66.1541456584586
20
7.06064380979174
30
0
0
SPLINE
5
1D2
100
AcDbEntity
8
1
62
256
6
ByLayer
370
18
48
1
60
0
100
AcDbSpline
70
4
71
3
72
15
73
11
40
0
40
0
40
0
40
0
40
0.20764588680689
40
0.357896922709209
40
0.447570984362898
40
0.499032971881942
40
0.548324694646863
40
0.605943665725481
40
0.778360991350002
40
1
40
1
40
1
40
1
41
1
10
59.8083854056942
20
-5.93331222881301
30
0
41
1
10
59.8222462673435
20
-5.90624451377352
30
0
41
1
10
59.8589915959074
20
-5.8669825464475
30
0
41
1
10
59.9393373589143
20
-5.82620387270663
30
0
41
1
10
59.9967883700147
20
-5.81452220809064
30
0
41
1
10
60.0473706515055
20
-5.81386713921057
30
0
41
1
10
60.0844286564772
20
-5.81905589213423
30
0
41
1
10
60.1411168463244
20
-5.83440586877418
30
0
41
1
10
60.2069399713742
20
-5.87526863815813
30
0
41
1
10
60.2384471501869
20
-5.9069840080015
30
0
41
1
10
60.2467458404833
20
-5.92626505713639
30
0
0
SPLINE
5
1D3
100
AcDbEntity
8
1
62
256
6
ByLayer
370
18
48
1
60
0
100
AcDbSpline
70
4
71
2
72
6
73
3
40
0
40
0
40
0
40
1
40
1
40
1
41
1
10
75.2641474696452
20
-6.87136430050271
30
0
41
1
10
75.5360685938203
20
-6.40224414423409
30
0
41
1
10
75.8083746200415
20
-5.93335136494085
30
0
0
SPLINE
5
1D4
100
AcDbEntity
8
1
62
256
6
ByLayer
370
18
48
1
60
0
100
AcDbSpline
70
4
71
2
72
6
73
3
40
0
40
0
40
0
40
1
40
1
40
1
41
1
10
59.5381949679956
20
-6.39879581425893
30
0
41
1
10
59.6721629140626
20
-6.16785340027056
30
0
41
1
10
59.806141828773
20
-5.93703208305033
30
0
0
SPLINE
5
1D5
100
AcDbEntity
8
1
62
256
6
ByLayer
370
18
48
1
60
0
100
AcDbSpline
70
4
71
3
72
11
73
7
40
0
40
0
40
0
40
0
40
0.229799728874957
40
0.476511042457549
40
0.7358858896966
40
1
40
1
40
1
40
1
41
1
10
67.2505055077275
20
5.93317755251471
30
0
41
1
10
67.2351738915855
20
5.90340508710949
30
0
41
1
10
67.1882144561054
20
5.85498714452686
30
0
41
1
10
67.0491127291579
20
5.79834380988007
30
0
41
1
10
66.8881979381266
20
5.8391077686712
30
0
41
1
10
66.8300093458958
20
5.89454623451988
30
0
41
1
10
66.8084546425292
20
5.93316882594453
30
0
0
SPLINE
5
1D6
100
AcDbEntity
8
1
62
256
6
ByLayer
370
18
48
1
60
0
100
AcDbSpline
70
4
71
1
72
4
73
2
40
0
40
0
40
1
40
1
41
1
10
74.8752152731429
20
-6.98185445506442
30
0
41
1
10
75.2506458822525
20
-6.88402550422907
30
0
0
SPLINE
5
1D7
100
AcDbEntity
8
1
62
256
6
ByLayer
370
18
48
1
60
0
100
AcDbSpline
70
4
71
2
72
6
73
3
40
0
40
0
40
0
40
1
40
1
40
1
41
1
10
74.2504777082103
20
-5.93314667372942
30
0
41
1
10
74.5507209241387
20
-6.45068253077028
30
0
41
1
10
74.8505726467399
20
-6.96847587105049
30
0
0
SPLINE
5
1D8
100
AcDbEntity
8
1
62
256
6
ByLayer
370
18
48
1
60
0
100
AcDbSpline
70
4
71
3
72
16
73
12
40
0
40
0
40
0
40
0
40
0.202874343488298
40
0.356998531360516
40
0.460151241723554
40
0.492234582703401
40
0.511289925629735
40
0.561138587610126
40
0.660293766773409
40
0.807435510451084
40
1
40
1
40
1
40
1
41
1
10
73.810564110462
20
-5.92937716204665
30
0
41
1
10
73.8226538655007
20
-5.90636323180735
30
0
41
1
10
73.8557346408999
20
-5.87103231334032
30
0
41
1
10
73.9266953383523
20
-5.83035833148466
30
0
41
1
10
73.981834427597
20
-5.81728595256541
30
0
41
1
10
74.0131626767743
20
-5.81452268470989
30
0
41
1
10
74.0371286407433
20
-5.81393720812662
30
0
41
1
10
74.0747650210097
20
-5.81655376565291
30
0
41
1
10
74.132615453584
20
-5.83075530869948
30
0
41
1
10
74.2047853411916
20
-5.87243941208055
30
0
41
1
10
74.238148265287
20
-5.90930524756467
30
0
41
1
10
74.2506093875
20
-5.93337405601369
30
0
0
SPLINE
5
1D9
100
AcDbEntity
8
1
62
256
6
ByLayer
370
18
48
1
60
0
100
AcDbSpline
70
4
71
2
72
6
73
3
40
0
40
0
40
0
40
1
40
1
40
1
41
1
10
67.9035822808556
20
7.05926535677031
30
0
41
1
10
67.5753993275241
20
6.49252978005592
30
0
41
1
10
67.2468498586877
20
5.92646726261259
30
0
0
SPLINE
5
1DA
100
AcDbEntity
8
1
62
256
6
ByLayer
370
18
48
1
60
0
100
AcDbSpline
70
4
71
2
72
6
73
3
40
0
40
0
40
0
40
1
40
1
40
1
41
1
10
68.8083139294608
20
5.93340826150211
30
0
41
1
10
68.4784367464374
20
6.50147477257767
30
0
41
1
10
68.1494258145081
20
7.06920011273104
30
0
0
SPLINE
5
1DB
100
AcDbEntity
8
1
62
256
6
ByLayer
370
18
48
1
60
0
100
AcDbSpline
70
4
71
3
72
12
73
8
40
0
40
0
40
0
40
0
40
0.209334916279478
40
0.455181333000208
40
0.58890699881559
40
0.725956808314204
40
1
40
1
40
1
40
1
41
1
10
69.2727017288736
20
5.9570698266142
30
0
41
1
10
69.2529725654565
20
5.91998878828926
30
0
41
1
10
69.1988986912023
20
5.8555964877049
30
0
41
1
10
69.0808701886004
20
5.8076388005465
30
0
41
1
10
68.976859420694
20
5.81297117602116
30
0
41
1
10
68.8765849028532
20
5.85022054346081
30
0
41
1
10
68.8279317789354
20
5.89662876514069
30
0
41
1
10
68.8056981523758
20
5.9376903417824
30
0
0
SPLINE
5
1DC
100
AcDbEntity
8
1
62
256
6
ByLayer
370
18
48
1
60
0
100
AcDbSpline
70
4
71
2
72
6
73
3
40
0
40
0
40
0
40
1
40
1
40
1
41
1
10
73.1457125726623
20
-7.07488678295204
30
0
41
1
10
73.4732483110849
20
-6.50943217285223
30
0
41
1
10
73.8009571633577
20
-5.94445659029108
30
0
0
SPLINE
5
1DD
100
AcDbEntity
8
1
62
256
6
ByLayer
370
18
48
1
60
0
100
AcDbSpline
70
4
71
2
72
6
73
3
40
0
40
0
40
0
40
1
40
1
40
1
41
1
10
72.2539859226843
20
-5.93887464362663
30
0
41
1
10
72.5821513612949
20
-6.50471369709973
30
0
41
1
10
72.910036349111
20
-7.07096079050564
30
0
0
SPLINE
5
1DE
100
AcDbEntity
8
1
62
256
6
ByLayer
370
18
48
1
60
0
100
AcDbSpline
70
4
71
3
72
10
73
6
40
0
40
0
40
0
40
0
40
0.347894674882835
40
0.701140685676375
40
1
40
1
40
1
40
1
41
1
10
71.9412474795788
20
-5.82657809220785
30
0
41
1
10
71.9635661448159
20
-5.81131592303939
30
0
41
1
10
72.0169579263492
20
-5.79818767779392
30
0
41
1
10
72.1454602605992
20
-5.80959092429558
30
0
41
1
10
72.2100032318382
20
-5.87250358671525
30
0
41
1
10
72.2393033676646
20
-5.91024290909254
30
0
0
LINE
5
7F
100
AcDbEntity
8
80
62
256
6
ByLayer
370
18
48
1
60
0
100
AcDbLine
10
0
20
0
30
0
11
-5
21
0
31
0
39
0
210
0
220
0
230
1
0
LINE
5
80
100
AcDbEntity
8
4
62
256
6
ByLayer
370
18
48
0.05
60
0
100
AcDbLine
10
0
20
0
30
0
11
80.3
21
0
31
0
39
0
210
0
220
0
230
1
0
LINE
5
82
100
AcDbEntity
8
81
62
256
6
ByLayer
370
18
48
1
60
0
100
AcDbLine
10
80.3
20
0
30
0
11
85.3
21
0
31
0
39
0
210
0
220
0
230
1
0
LINE
5
83
100
AcDbEntity
8
SK4
62
256
6
ByLayer
370
18
48
0.05
60
0
100
AcDbLine
10
-29.7
20
0
30
0
11
80.3
21
0
31
0
39
0
210
0
220
0
230
1
0
LINE
5
85
100
AcDbEntity
8
1
62
256
6
ByLayer
370
18
48
1
60
0
100
AcDbLine
10
0
20
5.4485
30
0
11
0
21
-5.4485
31
0
39
0
210
0
220
0
230
1
0
LINE
5
86
100
AcDbEntity
8
1
62
256
6
ByLayer
370
18
48
1
60
0
100
AcDbLine
10
80.3
20
5.205732
30
0
11
80.3
21
5.19956
31
0
39
0
210
0
220
0
230
1
0
LINE
5
87
100
AcDbEntity
8
1
62
256
6
ByLayer
370
18
48
1
60
0
100
AcDbLine
10
75.808405
20
-5.933299
30
0
11
75.8059
21
-5.937425
31
0
39
0
210
0
220
0
230
1
0
LINE
5
88
100
AcDbEntity
8
1
62
256
6
ByLayer
370
18
48
1
60
0
100
AcDbLine
10
66.808091
20
5.933794
30
0
11
66.810878
21
5.92881
31
0
39
0
210
0
220
0
230
1
0
LINE
5
89
100
AcDbEntity
8
1
62
256
6
ByLayer
370
18
48
1
60
0
100
AcDbLine
10
67.246986
20
5.926731
30
0
11
67.250989
21
5.934006
31
0
39
0
210
0
220
0
230
1
0
LINE
5
8A
100
AcDbEntity
8
1
62
256
6
ByLayer
370
18
48
1
60
0
100
AcDbLine
10
68.805529
20
5.937954
30
0
11
68.808146
21
5.933695
31
0
39
0
210
0
220
0
230
1
0
LINE
5
8B
100
AcDbEntity
8
1
62
256
6
ByLayer
370
13
48
1
60
0
100
AcDbLine
10
59.285795
20
-5.9985
30
0
11
59.285795
21
-5.525059
31
0
39
0
210
0
220
0
230
1
0
LINE
5
8C
100
AcDbEntity
8
1
62
256
6
ByLayer
370
13
48
1
60
0
100
AcDbLine
10
58.07336
20
-5.2985
30
0
11
58.07336
21
-4.465851
31
0
39
0
210
0
220
0
230
1
0
LINE
5
8D
100
AcDbEntity
8
1
62
256
6
ByLayer
370
13
48
1
60
0
100
AcDbLine
10
25.953835
20
-5.2985
30
0
11
25.953835
21
5.2985
31
0
39
0
210
0
220
0
230
1
0
LINE
5
8E
100
AcDbEntity
8
1
62
256
6
ByLayer
370
18
48
1
60
0
100
AcDbLine
10
25.3
20
5.4485
30
0
11
25.3
21
-5.4485
31
0
39
0
210
0
220
0
230
1
0
LINE
5
8F
100
AcDbEntity
8
1
62
256
6
ByLayer
370
13
48
1
60
0
100
AcDbLine
10
58.07336
20
1.979538
30
0
11
58.07336
21
4.702279
31
0
39
0
210
0
220
0
230
1
0
LINE
5
90
100
AcDbEntity
8
SK1
62
256
6
ByLayer
370
18
48
1
60
0
100
AcDbLine
10
-29.7
20
3.63056
30
0
11
-29.7
21
-3.63056
31
0
39
0
210
0
220
0
230
1
0
LINE
5
92
100
AcDbEntity
8
SK1
62
256
6
ByLayer
370
18
48
1
60
0
100
AcDbLine
10
-17
20
4.09
30
0
11
-15.85944
21
5.23056
31
0
39
0
210
0
220
0
230
1
0
LINE
5
93
100
AcDbEntity
8
SK1
62
256
6
ByLayer
370
18
48
1
60
0
100
AcDbLine
10
-28.1
20
4.09
30
0
11
-17
21
4.09
31
0
39
0
210
0
220
0
230
1
0
LINE
5
94
100
AcDbEntity
8
SK1
62
256
6
ByLayer
370
18
48
1
60
0
100
AcDbLine
10
-28.1
20
3.260469
30
0
11
-28.1
21
4.09
31
0
39
0
210
0
220
0
230
1
0
LINE
5
95
100
AcDbEntity
8
SK1
62
256
6
ByLayer
370
18
48
1
60
0
100
AcDbLine
10
-17
20
3.260469
30
0
11
-28.1
21
3.260469
31
0
39
0
210
0
220
0
230
1
0
LINE
5
96
100
AcDbEntity
8
SK1
62
256
6
ByLayer
370
18
48
1
60
0
100
AcDbLine
10
-28.1
20
-3.260469
30
0
11
-17
21
-3.260469
31
0
39
0
210
0
220
0
230
1
0
LINE
5
97
100
AcDbEntity
8
SK1
62
256
6
ByLayer
370
18
48
1
60
0
100
AcDbLine
10
-28.1
20
-4.09
30
0
11
-28.1
21
-3.260469
31
0
39
0
210
0
220
0
230
1
0
LINE
5
98
100
AcDbEntity
8
SK1
62
256
6
ByLayer
370
18
48
1
60
0
100
AcDbLine
10
-17
20
-4.09
30
0
11
-28.1
21
-4.09
31
0
39
0
210
0
220
0
230
1
0
LINE
5
99
100
AcDbEntity
8
SK1
62
256
6
ByLayer
370
18
48
1
60
0
100
AcDbLine
10
-17
20
-4.09
30
0
11
-15.85944
21
-5.23056
31
0
39
0
210
0
220
0
230
1
0
LINE
5
9A
100
AcDbEntity
8
SK1
62
256
6
ByLayer
370
18
48
1
60
0
100
AcDbLine
10
-17
20
3.260469
30
0
11
-17
21
-3.260469
31
0
39
0
210
0
220
0
230
1
0
LINE
5
9B
100
AcDbEntity
8
SK1
62
256
6
ByLayer
370
18
48
1
60
0
100
AcDbLine
10
0
20
5.4485
30
0
11
0
21
-5.4485
31
0
39
0
210
0
220
0
230
1
0
LINE
5
9C
100
AcDbEntity
8
SK1
62
256
6
ByLayer
370
18
48
1
60
0
100
AcDbLine
10
-14.46
20
5.23056
30
0
11
-14.46
21
-5.23056
31
0
39
0
210
0
220
0
230
1
0
LINE
5
9D
100
AcDbEntity
8
SK1
62
256
6
ByLayer
370
18
48
1
60
0
100
AcDbLine
10
-14.24206
20
-5.4485
30
0
11
-14.24206
21
5.4485
31
0
39
0
210
0
220
0
230
1
0
LINE
5
9E
100
AcDbEntity
8
1
62
256
6
ByLayer
370
18
48
1
60
0
100
AcDbLine
10
25.3
20
5.4485
30
0
11
0
21
5.4485
31
0
39
0
210
0
220
0
230
1
0
LINE
5
9F
100
AcDbEntity
8
1
62
256
6
ByLayer
370
18
48
1
60
0
100
AcDbLine
10
0
20
-5.4485
30
0
11
25.3
21
-5.4485
31
0
39
0
210
0
220
0
230
1
0
LINE
5
A0
100
AcDbEntity
8
1
62
256
6
ByLayer
370
18
48
1
60
0
100
AcDbLine
10
60.928681
20
-7.081949
30
0
11
61.129734
21
-7.081949
31
0
39
0
210
0
220
0
230
1
0
LINE
5
A1
100
AcDbEntity
8
1
62
256
6
ByLayer
370
18
48
1
60
0
100
AcDbLine
10
66.129708
20
7.081949
30
0
11
65.928684
21
7.081949
31
0
39
0
210
0
220
0
230
1
0
LINE
5
A2
100
AcDbEntity
8
1
62
256
6
ByLayer
370
18
48
1
60
0
100
AcDbLine
10
59.285795
20
-5.9985
30
0
11
59.51137
21
-6.389207
31
0
39
0
210
0
220
0
230
1
0
LINE
5
A3
100
AcDbEntity
8
1
62
256
6
ByLayer
370
18
48
1
60
0
100
AcDbLine
10
68.129725
20
7.081949
30
0
11
67.928673
21
7.081949
31
0
39
0
210
0
220
0
230
1
0
LINE
5
A4
100
AcDbEntity
8
1
62
256
6
ByLayer
370
18
48
1
60
0
100
AcDbLine
10
72.928666
20
-7.081949
30
0
11
73.12972
21
-7.081949
31
0
39
0
210
0
220
0
230
1
0
LINE
5
A5
100
AcDbEntity
8
1
62
256
6
ByLayer
370
18
48
1
60
0
100
AcDbLine
10
25.953835
20
-5.2985
30
0
11
33.702964
21
-5.2985
31
0
39
0
210
0
220
0
230
1
0
LINE
5
A6
100
AcDbEntity
8
1
62
256
6
ByLayer
370
18
48
1
60
0
100
AcDbLine
10
41.868726
20
-5.2985
30
0
11
46.963928
21
-5.2985
31
0
39
0
210
0
220
0
230
1
0
LINE
5
A7
100
AcDbEntity
8
1
62
256
6
ByLayer
370
18
48
1
60
0
100
AcDbLine
10
57.056449
20
-5.2985
30
0
11
58.07336
21
-5.2985
31
0
39
0
210
0
220
0
230
1
0
LINE
5
A8
100
AcDbEntity
8
1
62
256
6
ByLayer
370
18
48
1
60
0
100
AcDbLine
10
54.585901
20
5.2985
30
0
11
49.462491
21
5.2985
31
0
39
0
210
0
220
0
230
1
0
LINE
5
A9
100
AcDbEntity
8
1
62
256
6
ByLayer
370
18
48
1
60
0
100
AcDbLine
10
39.341924
20
5.2985
30
0
11
25.953835
21
5.2985
31
0
39
0
210
0
220
0
230
1
0
LINE
5
AA
100
AcDbEntity
8
SK1
62
256
6
ByLayer
370
18
48
1
60
0
100
AcDbLine
10
-29.7
20
-3.63056
30
0
11
-29.24056
21
-4.09
31
0
39
0
210
0
220
0
230
1
0
LINE
5
AB
100
AcDbEntity
8
SK1
62
256
6
ByLayer
370
18
48
1
60
0
100
AcDbLine
10
-29.24056
20
4.09
30
0
11
-29.7
21
3.63056
31
0
39
0
210
0
220
0
230
1
0
LINE
5
AC
100
AcDbEntity
8
SK1
62
256
6
ByLayer
370
18
48
1
60
0
100
AcDbLine
10
-14.46
20
5.23056
30
0
11
-15.85944
21
5.23056
31
0
39
0
210
0
220
0
230
1
0
LINE
5
AD
100
AcDbEntity
8
SK1
62
256
6
ByLayer
370
18
48
1
60
0
100
AcDbLine
10
-15.85944
20
-5.23056
30
0
11
-14.46
21
-5.23056
31
0
39
0
210
0
220
0
230
1
0
LINE
5
AE
100
AcDbEntity
8
SK1
62
256
6
ByLayer
370
18
48
1
60
0
100
AcDbLine
10
0
20
5.4485
30
0
11
-14.24206
21
5.4485
31
0
39
0
210
0
220
0
230
1
0
LINE
5
AF
100
AcDbEntity
8
SK1
62
256
6
ByLayer
370
18
48
1
60
0
100
AcDbLine
10
-14.24206
20
-5.4485
30
0
11
0
21
-5.4485
31
0
39
0
210
0
220
0
230
1
0
LINE
5
B0
100
AcDbEntity
8
SK1
62
256
6
ByLayer
370
18
48
1
60
0
100
AcDbLine
10
-14.46
20
-5.23056
30
0
11
-14.24206
21
-5.4485
31
0
39
0
210
0
220
0
230
1
0
LINE
5
B1
100
AcDbEntity
8
SK1
62
256
6
ByLayer
370
18
48
1
60
0
100
AcDbLine
10
-14.24206
20
5.4485
30
0
11
-14.46
21
5.23056
31
0
39
0
210
0
220
0
230
1
0
LINE
5
B2
100
AcDbEntity
8
SK2
62
256
6
ByLayer
370
18
48
1
60
0
100
AcDbLine
10
13.52897
20
-5.4485
30
0
11
13.52897
21
27.723183
31
0
39
0
210
0
220
0
230
1
0
LINE
5
B4
100
AcDbEntity
8
1
62
256
6
ByLayer
370
18
48
1
60
1
100
AcDbLine
10
13.52897
20
5.4485
30
0
11
13.989754
21
1.948502
31
0
39
0
210
0
220
0
230
1
0
LINE
5
B5
100
AcDbEntity
8
1
62
256
6
ByLayer
370
18
48
1
60
1
100
AcDbLine
10
13.989754
20
1.948502
30
0
11
13.068186
21
1.948498
31
0
39
0
210
0
220
0
230
1
0
LINE
5
B6
100
AcDbEntity
8
1
62
256
6
ByLayer
370
18
48
1
60
1
100
AcDbLine
10
13.068186
20
1.948498
30
0
11
13.52897
21
5.4485
31
0
39
0
210
0
220
0
230
1
0
LINE
5
B7
100
AcDbEntity
8
1
62
256
6
ByLayer
370
18
48
1
60
1
100
AcDbLine
10
13.52897
20
-5.4485
30
0
11
13.068186
21
-1.948502
31
0
39
0
210
0
220
0
230
1
0
LINE
5
B8
100
AcDbEntity
8
1
62
256
6
ByLayer
370
18
48
1
60
1
100
AcDbLine
10
13.068186
20
-1.948502
30
0
11
13.989754
21
-1.948498
31
0
39
0
210
0
220
0
230
1
0
LINE
5
B9
100
AcDbEntity
8
1
62
256
6
ByLayer
370
18
48
1
60
1
100
AcDbLine
10
13.989754
20
-1.948498
30
0
11
13.52897
21
-5.4485
31
0
39
0
210
0
220
0
230
1
0
LINE
5
BA
100
AcDbEntity
8
2
62
256
6
ByLayer
370
18
48
1
60
0
100
AcDbLine
10
80.3
20
-44.581949
30
0
11
-29.7
21
-44.581949
31
0
39
0
210
0
220
0
230
1
0
LINE
5
BC
100
AcDbEntity
8
2
62
256
6
ByLayer
370
18
48
1
60
0
100
AcDbLine
10
-29.7
20
-5.21806
30
0
11
-29.7
21
-46.581949
31
0
39
0
210
0
220
0
230
1
0
LINE
5
BD
100
AcDbEntity
8
2
62
256
6
ByLayer
370
18
48
1
60
0
100
AcDbLine
10
80.3
20
-8.669449
30
0
11
80.3
21
-46.581949
31
0
39
0
210
0
220
0
230
1
0
LINE
5
BE
100
AcDbEntity
8
1
62
256
6
ByLayer
370
18
48
1
60
1
100
AcDbLine
10
-29.7
20
-44.581949
30
0
11
-26.200002
21
-44.121165
31
0
39
0
210
0
220
0
230
1
0
LINE
5
BF
100
AcDbEntity
8
1
62
256
6
ByLayer
370
18
48
1
60
1
100
AcDbLine
10
-26.200002
20
-44.121165
30
0
11
-26.199998
21
-45.042733
31
0
39
0
210
0
220
0
230
1
0
LINE
5
C0
100
AcDbEntity
8
1
62
256
6
ByLayer
370
18
48
1
60
1
100
AcDbLine
10
-26.199998
20
-45.042733
30
0
11
-29.7
21
-44.581949
31
0
39
0
210
0
220
0
230
1
0
LINE
5
C1
100
AcDbEntity
8
1
62
256
6
ByLayer
370
18
48
1
60
1
100
AcDbLine
10
80.3
20
-44.581949
30
0
11
76.800002
21
-45.042733
31
0
39
0
210
0
220
0
230
1
0
LINE
5
C2
100
AcDbEntity
8
1
62
256
6
ByLayer
370
18
48
1
60
1
100
AcDbLine
10
76.800002
20
-45.042733
30
0
11
76.799998
21
-44.121165
31
0
39
0
210
0
220
0
230
1
0
LINE
5
C3
100
AcDbEntity
8
1
62
256
6
ByLayer
370
18
48
1
60
1
100
AcDbLine
10
76.799998
20
-44.121165
30
0
11
80.3
21
-44.581949
31
0
39
0
210
0
220
0
230
1
0
LINE
5
1E3
100
AcDbEntity
8
1
62
256
6
ByLayer
370
18
48
1
60
1
100
AcDbLine
10
13.52897
20
5.4485
30
0
11
13.989754
21
1.948502
31
0
39
0
210
0
220
0
230
1
0
LINE
5
1E4
100
AcDbEntity
8
1
62
256
6
ByLayer
370
18
48
1
60
1
100
AcDbLine
10
13.989754
20
1.948502
30
0
11
13.068186
21
1.948498
31
0
39
0
210
0
220
0
230
1
0
LINE
5
1E5
100
AcDbEntity
8
1
62
256
6
ByLayer
370
18
48
1
60
1
100
AcDbLine
10
13.068186
20
1.948498
30
0
11
13.52897
21
5.4485
31
0
39
0
210
0
220
0
230
1
0
LINE
5
1E7
100
AcDbEntity
8
1
62
256
6
ByLayer
370
18
48
1
60
1
100
AcDbLine
10
13.52897
20
-5.4485
30
0
11
13.068186
21
-1.948502
31
0
39
0
210
0
220
0
230
1
0
LINE
5
1E8
100
AcDbEntity
8
1
62
256
6
ByLayer
370
18
48
1
60
1
100
AcDbLine
10
13.068186
20
-1.948502
30
0
11
13.989754
21
-1.948498
31
0
39
0
210
0
220
0
230
1
0
LINE
5
1E9
100
AcDbEntity
8
1
62
256
6
ByLayer
370
18
48
1
60
1
100
AcDbLine
10
13.989754
20
-1.948498
30
0
11
13.52897
21
-5.4485
31
0
39
0
210
0
220
0
230
1
0
LINE
5
1EC
100
AcDbEntity
8
1
62
256
6
ByLayer
370
18
48
1
60
1
100
AcDbLine
10
-29.7
20
-44.581949
30
0
11
-26.200002
21
-44.121165
31
0
39
0
210
0
220
0
230
1
0
LINE
5
1ED
100
AcDbEntity
8
1
62
256
6
ByLayer
370
18
48
1
60
1
100
AcDbLine
10
-26.200002
20
-44.121165
30
0
11
-26.199998
21
-45.042733
31
0
39
0
210
0
220
0
230
1
0
LINE
5
1EE
100
AcDbEntity
8
1
62
256
6
ByLayer
370
18
48
1
60
1
100
AcDbLine
10
-26.199998
20
-45.042733
30
0
11
-29.7
21
-44.581949
31
0
39
0
210
0
220
0
230
1
0
LINE
5
1F0
100
AcDbEntity
8
1
62
256
6
ByLayer
370
18
48
1
60
1
100
AcDbLine
10
80.3
20
-44.581949
30
0
11
76.800002
21
-45.042733
31
0
39
0
210
0
220
0
230
1
0
LINE
5
1F1
100
AcDbEntity
8
1
62
256
6
ByLayer
370
18
48
1
60
1
100
AcDbLine
10
76.800002
20
-45.042733
30
0
11
76.799998
21
-44.121165
31
0
39
0
210
0
220
0
230
1
0
LINE
5
1F2
100
AcDbEntity
8
1
62
256
6
ByLayer
370
18
48
1
60
1
100
AcDbLine
10
76.799998
20
-44.121165
30
0
11
80.3
21
-44.581949
31
0
39
0
210
0
220
0
230
1
0
MTEXT
5
1DF
100
AcDbEntity
8
SK2
62
256
6
ByLayer
370
18
48
1
60
0
100
AcDbMText
10
12.187856
20
11.106938
30
0
210
0
220
0
230
1
1
%%c
40
3
41
0
44
1.084337
50
90
71
7
72
5
7
iso_b_vert
0
MTEXT
5
1E2
100
AcDbEntity
8
SK2
62
256
6
ByLayer
370
18
48
1
60
0
100
AcDbMText
10
12.187856
20
17.0835
30
0
210
0
220
0
230
1
1
\W0.7022;10.897
40
3
41
0
44
1.084337
50
90
71
7
72
5
7
iso_b_vert
0
MTEXT
5
1EB
100
AcDbEntity
8
2
62
256
6
ByLayer
370
18
48
1
60
0
100
AcDbMText
10
23.296143
20
-43.696834
30
0
210
0
220
0
230
1
1
\W0.5296;110
40
3
41
0
44
1.084337
50
0
71
7
72
5
7
iso_b_vert
0
MTEXT
5
1F4
100
AcDbEntity
8
SK6
62
256
6
ByLayer
370
18
48
1
60
0
100
AcDbMText
10
9.339724
20
-82.114886
30
0
210
0
220
0
230
1
1
\W0.7280;T300-XM101AA-M14    C110
40
3
41
0
44
1.084337
50
0
71
7
72
5
7
iso_b_vert
0
HATCH
5
1E6
100
AcDbEntity
8
SK2
62
256
6
ByLayer
370
13
48
1
60
0
100
AcDbHatch
10
0
20
0
30
0
210
0
220
0
230
1
2
ANSI31
70
0
71
0
91
1
92
5
93
3
72
1
10
13.52897
20
5.44850000000005
11
13.9897537415528
21
1.94850169255324
72
1
10
13.9897537415528
20
1.94850169255324
11
13.0681862584472
21
1.94849830744687
72
1
10
13.0681862584472
20
1.94849830744687
11
13.52897
21
5.44850000000005
97
0
75
0
76
1
52
0
41
0.0062
77
0
78
1
53
45
43
0
44
0
45
-0.0139193969876572
46
0.0139193969876572
79
0
47
0
98
1
10
0
20
0
0
HATCH
5
1EA
100
AcDbEntity
8
SK2
62
256
6
ByLayer
370
13
48
1
60
0
100
AcDbHatch
10
0
20
0
30
0
210
0
220
0
230
1
2
ANSI31
70
0
71
0
91
1
92
5
93
3
72
1
10
13.52897
20
-5.44849999999997
11
13.0681862584472
21
-1.94850169255315
72
1
10
13.0681862584472
20
-1.94850169255315
11
13.9897537415528
21
-1.94849830744678
72
1
10
13.9897537415528
20
-1.94849830744678
11
13.52897
21
-5.44849999999997
97
0
75
0
76
1
52
0
41
0.0062
77
0
78
1
53
45
43
0
44
0
45
-0.0139193969876572
46
0.0139193969876572
79
0
47
0
98
1
10
0
20
0
0
HATCH
5
1EF
100
AcDbEntity
8
2
62
256
6
ByLayer
370
13
48
1
60
0
100
AcDbHatch
10
0
20
0
30
0
210
0
220
0
230
1
2
ANSI31
70
0
71
0
91
1
92
5
93
3
72
1
10
-29.7
20
-44.5819489098992
11
-26.2000016925532
21
-44.1211651683465
72
1
10
-26.2000016925532
20
-44.1211651683465
11
-26.1999983074468
21
-45.042732651452
72
1
10
-26.1999983074468
20
-45.042732651452
11
-29.7
21
-44.5819489098992
97
0
75
0
76
1
52
0
41
0.0062
77
0
78
1
53
45
43
0
44
0
45
-0.0139193969876572
46
0.0139193969876572
79
0
47
0
98
1
10
0
20
0
0
HATCH
5
1F3
100
AcDbEntity
8
2
62
256
6
ByLayer
370
13
48
1
60
0
100
AcDbHatch
10
0
20
0
30
0
210
0
220
0
230
1
2
ANSI31
70
0
71
0
91
1
92
5
93
3
72
1
10
80.3
20
-44.5819489098992
11
76.8000016925533
21
-45.042732651452
72
1
10
76.8000016925533
20
-45.042732651452
11
76.7999983074468
21
-44.1211651683465
72
1
10
76.7999983074468
20
-44.1211651683465
11
80.3
21
-44.5819489098992
97
0
75
0
76
1
52
0
41
0.0062
77
0
78
1
53
45
43
0
44
0
45
-0.0139193969876572
46
0.0139193969876572
79
0
47
0
98
1
10
0
20
0
0
DIMENSION
5
1F7
100
AcDbEntity
8
2
62
256
6
ByLayer
370
18
48
1
60
0
100
AcDbDimension
2
_U0
10
99.8
20
-7.081949
30
0
11
99.8
21
25.867663
31
0
70
32
71
1
72
1
41
1
210
0
220
0
230
1
3
Standard
100
AcDbAlignedDimension
13
80.3
23
7.081949
33
0
14
80.3
24
-7.081949
34
0
50
90
100
AcDbRotatedDimension
1001
ACAD
1000
DSTYLE
1002
{
1070
   371
1070
    13
1070
   372
1070
    13
1070
     3
1000

1070
   170
1070
     0
1070
   144
1040
1.0
1070
   277
1070
     2
1070
   284
1070
     8
1070
   278
1070
    46
1070
   146
1040
1.166667
1070
   345
1005
16
1070
   347
1005
16
1070
   346
1005
16
1070
   344
1005
0
1070
   343
1005
0
1070
   172
1070
     1
1070
    76
1070
     0
1070
    75
1070
     0
1070
   282
1070
     0
1070
   281
1070
     0
1070
    71
1070
     0
1070
    74
1070
     0
1070
   279
1070
     0
1070
   173
1070
     1
1070
   340
1005
1E0
1070
   271
1070
     3
1070
   272
1070
     3
1070
    77
1070
     1
1070
    73
1070
     0
1070
   171
1070
     3
1070
   274
1070
     4
1070
   177
1070
     2
1070
   176
1070
     2
1070
   178
1070
     2
1070
    78
1070
     8
1070
    48
1040
-0.1
1070
    41
1040
3.5
1070
   147
1040
1.5
1070
    42
1040
1.5875
1070
    44
1040
2.0
1070
   140
1040
3.0
1002
}
1001
ACAD_DSTYLE_DIM_LINETYPE
1070
   380
1005
16
1001
ACAD_DSTYLE_DIM_EXT1_LINETYPE
1070
   381
1005
16
1001
ACAD_DSTYLE_DIM_EXT2_LINETYPE
1070
   382
1005
16
0
DIMENSION
5
212
100
AcDbEntity
8
SK2
62
256
6
ByLayer
370
18
48
1
60
0
100
AcDbDimension
2
_U1
10
74.8
20
16.091455
30
0
11
77.55
21
16.091455
31
0
70
32
71
1
72
1
41
1
210
0
220
0
230
1
3
Standard
100
AcDbAlignedDimension
13
80.3
23
7.081949
33
0
14
74.8
24
0
34
0
50
0
100
AcDbRotatedDimension
1001
ACAD
1000
DSTYLE
1002
{
1070
   371
1070
    13
1070
   372
1070
    13
1070
   170
1070
     0
1070
   144
1040
1.0
1070
   277
1070
     2
1070
   284
1070
     8
1070
   278
1070
    46
1070
   146
1040
1.166667
1070
   345
1005
16
1070
   347
1005
16
1070
   346
1005
16
1070
   344
1005
0
1070
   343
1005
0
1070
   172
1070
     1
1070
    76
1070
     0
1070
    75
1070
     0
1070
   282
1070
     0
1070
   281
1070
     0
1070
    71
1070
     0
1070
    74
1070
     0
1070
   279
1070
     0
1070
   173
1070
     1
1070
   340
1005
1E0
1070
   271
1070
     3
1070
   272
1070
     3
1070
    77
1070
     1
1070
    73
1070
     1
1070
   171
1070
     3
1070
   274
1070
     4
1070
   177
1070
     2
1070
   176
1070
     2
1070
   178
1070
     2
1070
    78
1070
     8
1070
    48
1040
-0.1
1070
    41
1040
3.5
1070
   147
1040
1.5
1070
    42
1040
1.5875
1070
    44
1040
2.0
1070
   140
1040
3.0
1002
}
1001
ACAD_DSTYLE_DIM_LINETYPE
1070
   380
1005
16
1001
ACAD_DSTYLE_DIM_EXT1_LINETYPE
1070
   381
1005
16
1001
ACAD_DSTYLE_DIM_EXT2_LINETYPE
1070
   382
1005
16
0
DIMENSION
5
22C
100
AcDbEntity
8
SK2
62
256
6
ByLayer
370
18
48
1
60
0
100
AcDbDimension
2
_U2
10
60.2
20
-14.081949
30
0
11
94.320132
21
-14.081949
31
0
70
32
71
1
72
1
41
1
210
0
220
0
230
1
3
Standard
100
AcDbAlignedDimension
13
80.3
23
-7.081949
33
0
14
60.2
24
-7.081949
34
0
50
0
100
AcDbRotatedDimension
1001
ACAD
1000
DSTYLE
1002
{
1070
   371
1070
    13
1070
   372
1070
    13
1070
   170
1070
     0
1070
   144
1040
1.0
1070
   277
1070
     2
1070
   284
1070
     8
1070
   278
1070
    46
1070
   146
1040
0.833333
1070
   345
1005
16
1070
   347
1005
16
1070
   346
1005
16
1070
   344
1005
0
1070
   343
1005
0
1070
   172
1070
     1
1070
    76
1070
     0
1070
    75
1070
     0
1070
   282
1070
     0
1070
   281
1070
     0
1070
    47
1040
0.5
1070
    72
1070
     0
1070
    71
1070
     1
1070
    74
1070
     0
1070
   279
1070
     0
1070
   173
1070
     1
1070
   340
1005
1E0
1070
   271
1070
     1
1070
   272
1070
     3
1070
    77
1070
     1
1070
    73
1070
     1
1070
   171
1070
     3
1070
   274
1070
     4
1070
   177
1070
     2
1070
   176
1070
     2
1070
   178
1070
     2
1070
    78
1070
     8
1070
    48
1040
0.5
1070
    41
1040
3.5
1070
   147
1040
1.5
1070
    42
1040
1.5875
1070
    44
1040
2.0
1070
   140
1040
3.0
1002
}
1001
ACAD_DSTYLE_DIM_LINETYPE
1070
   380
1005
16
1001
ACAD_DSTYLE_DIM_EXT1_LINETYPE
1070
   381
1005
16
1001
ACAD_DSTYLE_DIM_EXT2_LINETYPE
1070
   382
1005
16
0
DIMENSION
5
246
100
AcDbEntity
8
SK2
62
256
6
ByLayer
370
18
48
1
60
0
100
AcDbDimension
2
_U3
10
25.3
20
-36.581949
30
0
11
52.8
21
-36.581949
31
0
70
32
71
1
72
1
41
1
210
0
220
0
230
1
3
Standard
100
AcDbAlignedDimension
13
80.3
23
-7.081949
33
0
14
25.3
24
-5.2985
34
0
50
0
100
AcDbRotatedDimension
1001
ACAD
1000
DSTYLE
1002
{
1070
   371
1070
    13
1070
   372
1070
    13
1070
   170
1070
     0
1070
   144
1040
1.0
1070
   277
1070
     2
1070
   284
1070
     8
1070
   278
1070
    46
1070
   146
1040
1.166667
1070
   345
1005
16
1070
   347
1005
16
1070
   346
1005
16
1070
   344
1005
0
1070
   343
1005
0
1070
   172
1070
     1
1070
    76
1070
     0
1070
    75
1070
     0
1070
   282
1070
     0
1070
   281
1070
     0
1070
    71
1070
     0
1070
    74
1070
     0
1070
   279
1070
     0
1070
   173
1070
     1
1070
   340
1005
1E0
1070
   271
1070
     1
1070
   272
1070
     3
1070
    77
1070
     1
1070
    73
1070
     1
1070
   171
1070
     3
1070
   274
1070
     4
1070
   177
1070
     2
1070
   176
1070
     2
1070
   178
1070
     2
1070
    78
1070
     8
1070
    48
1040
-0.1
1070
    41
1040
3.5
1070
   147
1040
1.5
1070
    42
1040
1.5875
1070
    44
1040
2.0
1070
   140
1040
3.0
1002
}
1001
ACAD_DSTYLE_DIM_LINETYPE
1070
   380
1005
16
1001
ACAD_DSTYLE_DIM_EXT1_LINETYPE
1070
   381
1005
16
1001
ACAD_DSTYLE_DIM_EXT2_LINETYPE
1070
   382
1005
16
0
DIMENSION
5
25E
100
AcDbEntity
8
2
62
256
6
ByLayer
370
18
48
1
60
0
100
AcDbDimension
2
_U4
10
33.55
20
-25.581949
30
0
11
56.925
21
-25.581949
31
0
70
32
71
1
72
1
41
1
210
0
220
0
230
1
3
Standard
100
AcDbAlignedDimension
13
80.3
23
-7.081949
33
0
14
33.55
24
0
34
0
50
0
100
AcDbRotatedDimension
1001
ACAD
1000
DSTYLE
1002
{
1070
   371
1070
    13
1070
   372
1070
    13
1070
   170
1070
     0
1070
   144
1040
1.0
1070
   277
1070
     2
1070
   284
1070
     8
1070
   278
1070
    46
1070
   146
1040
1.166667
1070
   345
1005
16
1070
   347
1005
16
1070
   346
1005
16
1070
   344
1005
0
1070
   343
1005
0
1070
   172
1070
     1
1070
    76
1070
     0
1070
    75
1070
     0
1070
   282
1070
     0
1070
   281
1070
     0
1070
    71
1070
     0
1070
    74
1070
     0
1070
   279
1070
     0
1070
   173
1070
     1
1070
   340
1005
1E0
1070
   271
1070
     1
1070
   272
1070
     3
1070
    77
1070
     1
1070
    73
1070
     1
1070
   171
1070
     3
1070
   274
1070
     4
1070
   177
1070
     2
1070
   176
1070
     2
1070
   178
1070
     2
1070
    78
1070
     8
1070
    48
1040
-0.1
1070
    41
1040
3.5
1070
   147
1040
1.5
1070
    42
1040
1.5875
1070
    44
1040
2.0
1070
   140
1040
3.0
1002
}
1001
ACAD_DSTYLE_DIM_LINETYPE
1070
   380
1005
16
1001
ACAD_DSTYLE_DIM_EXT1_LINETYPE
1070
   381
1005
16
1001
ACAD_DSTYLE_DIM_EXT2_LINETYPE
1070
   382
1005
16
0
ENDSEC
0
SECTION
2
OBJECTS
0
DICTIONARY
5
2e6
330
0
100
AcDbDictionary
280
0
281
1
3
ACAD_GROUP
350
2e7
3
ACAD_MLINESTYLE
350
2e8
0
DICTIONARY
5
2e7
330
0
100
AcDbDictionary
280
0
281
1
0
DICTIONARY
5
2e8
330
0
100
AcDbDictionary
280
0
281
1
3
Standard
350
18
0
MLINESTYLE
5
18
330
2e8
100
AcDbMlineStyle
2
Standard
70
0
3

62
256
51
90
52
90
71
2
49
-0.5
62
256
6
ByLayer
49
0.5
62
256
6
ByLayer
0
RASTERVARIABLES
5
2d4
330

100
AcDbRasterVariables
90
0
70
1
71
1
72
1
0
ENDSEC
0
EOF
