0
SECTION
2
HEADER
9
$ACADVER
1
AC1015
9
$DWGCODEPAGE
3
ANSI_1252
9
$HANDSEED
5
2f9
9
$ANGBASE
50
0
9
$ANGDIR
70
0
9
$ATTMODE
70
1
9
$AUNITS
70
0
9
$AUPREC
70
0
9
$CECOLOR
62
256
9
$CELTSCALE
40
1
9
$CELTYPE
6
ByLayer
9
$CELWEIGHT
370
18
9
$CLAYER
8
0
9
$CMLJUST
70
0
9
$CMLSCALE
40
1
9
$CMLSTYLE
2
Standard
9
$DIMSTYLE
2
Standard
9
$TEXTSIZE
40
0.2
9
$TEXTSTYLE
7
Standard
9
$LUNITS
70
2
9
$LUPREC
70
4
9
$EXTNAMES
290
1
9
$INSUNITS
70
4
9
$LTSCALE
40
1
9
$LWDISPLAY
290
1
9
$PDMODE
70
0
9
$PDSIZE
40
0
9
$PLINEGEN
70
0
0
ENDSEC
0
SECTION
2
CLASSES
0
CLASS
1
RASTERVARIABLES
2
AcDbRasterVariables
3
ISM
90
0
280
0
281
0
0
ENDSEC
0
SECTION
2
TABLES
0
TABLE
2
VPORT
5
2ef
100
AcDbSymbolTable
0
VPORT
5
1
100
AcDbSymbolTableRecord
100
AcDbViewportTableRecord
2
*Active
70
0
10
0
20
0
11
1
21
1
12
-1
22
1
13
0
23
0
14
0.5
24
0.5
15
10
25
10
16
0
26
0
36
1
17
0
27
0
37
0
0
ENDTAB
0
TABLE
2
LTYPE
5
2f0
100
AcDbSymbolTable
0
LTYPE
5
14
100
AcDbSymbolTableRecord
100
AcDbLinetypeTableRecord
70
0
2
ByBlock
3

72
65
73
0
40
0
0
LTYPE
5
15
100
AcDbSymbolTableRecord
100
AcDbLinetypeTableRecord
70
0
2
ByLayer
3

72
65
73
0
40
0
0
LTYPE
5
16
100
AcDbSymbolTableRecord
100
AcDbLinetypeTableRecord
70
0
2
Continuous
3
Solid line
72
65
73
0
40
0
0
LTYPE
5
6E
100
AcDbSymbolTableRecord
100
AcDbLinetypeTableRecord
70
0
2
CENTER
3
____ _ ____ _ ____ _ ____
72
65
73
4
40
47.5
49
22
74
0
49
-8.5
74
0
49
8.5
74
0
49
-8.5
74
0
0
LTYPE
5
6F
100
AcDbSymbolTableRecord
100
AcDbLinetypeTableRecord
70
0
2
DASHED
3
__ __ __ __ __ __ __ __ __
72
65
73
2
40
25.72
49
12.86
74
0
49
-12.86
74
0
0
ENDTAB
0
TABLE
2
LAYER
5
2f1
100
AcDbSymbolTable
0
LAYER
5
10
100
AcDbSymbolTableRecord
100
AcDbLayerTableRecord
2
0
70
0
62
7
6
Continuous
290
1
370
-3
390
0
0
LAYER
5
71
100
AcDbSymbolTableRecord
100
AcDbLayerTableRecord
2
80
70
0
62
-6
6
Continuous
290
1
370
-3
390
0
0
LAYER
5
73
100
AcDbSymbolTableRecord
100
AcDbLayerTableRecord
2
81
70
0
62
-3
6
Continuous
290
1
370
-3
390
0
0
LAYER
5
75
100
AcDbSymbolTableRecord
100
AcDbLayerTableRecord
2
1
70
0
62
4
6
Continuous
290
1
370
-3
390
0
0
LAYER
5
81
100
AcDbSymbolTableRecord
100
AcDbLayerTableRecord
2
4
70
0
62
-2
6
CENTER
290
1
370
-3
390
0
0
LAYER
5
BE
100
AcDbSymbolTableRecord
100
AcDbLayerTableRecord
2
2
70
0
62
7
6
Continuous
290
1
370
-3
390
0
0
LAYER
5
201
100
AcDbSymbolTableRecord
100
AcDbLayerTableRecord
2
Defpoints
70
0
62
7
6
Continuous
290
0
370
-3
390
0
0
LAYER
5
2db
100
AcDbSymbolTableRecord
100
AcDbLayerTableRecord
2
SK4
70
0
62
2
6
CENTER
290
1
370
-3
390
0
0
LAYER
5
2dc
100
AcDbSymbolTableRecord
100
AcDbLayerTableRecord
2
SK1
70
0
62
4
6
Continuous
290
1
370
-3
390
0
0
LAYER
5
2dd
100
AcDbSymbolTableRecord
100
AcDbLayerTableRecord
2
SK2
70
0
62
7
6
Continuous
290
1
370
-3
390
0
0
LAYER
5
2de
100
AcDbSymbolTableRecord
100
AcDbLayerTableRecord
2
SK6
70
0
62
5
6
Continuous
290
1
370
-3
390
0
0
ENDTAB
0
TABLE
2
STYLE
5
2f2
100
AcDbSymbolTable
0
STYLE
5
11
100
AcDbSymbolTableRecord
100
AcDbTextStyleTableRecord
2
Standard
3
txt
70
0
71
0
40
0
41
1
42
0
50
0
0
STYLE
5
1E7
100
AcDbSymbolTableRecord
100
AcDbTextStyleTableRecord
2
iso_b_vert
3
simplex.shx
70
0
71
0
40
0
41
1
42
0
50
0
0
STYLE
5
1E8
100
AcDbSymbolTableRecord
100
AcDbTextStyleTableRecord
2
DWGDirectTextStyle
3
simplex
70
0
71
0
40
0
41
1
42
0
50
0
0
ENDTAB
0
TABLE
2
DIMSTYLE
5
2f3
100
AcDbSymbolTable
100
AcDbDimStyleTable
0
DIMSTYLE
105
27
100
AcDbSymbolTableRecord
100
AcDbDimStyleTableRecord
2
Standard
70
0
3
<>
41
0.18
42
0.0625
44
0.18
140
0.18
147
0.09
73
0
74
0
77
1
271
2
275
0
278
52
280
0
340
11
0
ENDTAB
0
TABLE
2
VIEW
5
2f4
100
AcDbSymbolTable
0
ENDTAB
0
TABLE
2
UCS
5
2f5
100
AcDbSymbolTable
0
ENDTAB
0
TABLE
2
APPID
5
2f6
100
AcDbSymbolTable
0
APPID
5
12
100
AcDbSymbolTableRecord
100
AcDbRegAppTableRecord
2
ACAD
70
0
0
APPID
5
1FD
100
AcDbSymbolTableRecord
100
AcDbRegAppTableRecord
2
ACAD_DSTYLE_DIMBREAK
70
0
0
APPID
5
29A
100
AcDbSymbolTableRecord
100
AcDbRegAppTableRecord
2
ACAD_DSTYLE_DIM_LINETYPE
70
0
0
APPID
5
29B
100
AcDbSymbolTableRecord
100
AcDbRegAppTableRecord
2
ACAD_DSTYLE_DIM_EXT1_LINETYPE
70
0
0
APPID
5
29C
100
AcDbSymbolTableRecord
100
AcDbRegAppTableRecord
2
ACAD_DSTYLE_DIM_EXT2_LINETYPE
70
0
0
APPID
5
2D7
100
AcDbSymbolTableRecord
100
AcDbRegAppTableRecord
2
ACAD_MLEADERVER
70
0
0
ENDTAB
0
TABLE
2
BLOCK_RECORD
5
2f7
100
AcDbSymbolTable
0
BLOCK_RECORD
5
1F
100
AcDbSymbolTableRecord
100
AcDbBlockTableRecord
2
*Model_Space
340
0
70
0
0
BLOCK_RECORD
5
1B
100
AcDbSymbolTableRecord
100
AcDbBlockTableRecord
2
*Paper_Space
340
0
70
0
0
BLOCK_RECORD
5
23
100
AcDbSymbolTableRecord
100
AcDbBlockTableRecord
2
*Paper_Space0
340
0
70
0
0
BLOCK_RECORD
5
202
100
AcDbSymbolTableRecord
100
AcDbBlockTableRecord
2
*D1
340
0
70
0
0
BLOCK_RECORD
5
210
100
AcDbSymbolTableRecord
100
AcDbBlockTableRecord
2
_U0
340
0
70
0
0
BLOCK_RECORD
5
21C
100
AcDbSymbolTableRecord
100
AcDbBlockTableRecord
2
*D3
340
0
70
0
0
BLOCK_RECORD
5
229
100
AcDbSymbolTableRecord
100
AcDbBlockTableRecord
2
_U1
340
0
70
0
0
BLOCK_RECORD
5
236
100
AcDbSymbolTableRecord
100
AcDbBlockTableRecord
2
*D5
340
0
70
0
0
BLOCK_RECORD
5
242
100
AcDbSymbolTableRecord
100
AcDbBlockTableRecord
2
_U2
340
0
70
0
0
BLOCK_RECORD
5
24F
100
AcDbSymbolTableRecord
100
AcDbBlockTableRecord
2
*D7
340
0
70
0
0
BLOCK_RECORD
5
25B
100
AcDbSymbolTableRecord
100
AcDbBlockTableRecord
2
_U3
340
0
70
0
0
BLOCK_RECORD
5
267
100
AcDbSymbolTableRecord
100
AcDbBlockTableRecord
2
*D9
340
0
70
0
0
BLOCK_RECORD
5
273
100
AcDbSymbolTableRecord
100
AcDbBlockTableRecord
2
_U4
340
0
70
0
0
ENDTAB
0
ENDSEC
0
SECTION
2
BLOCKS
0
BLOCK
5
20
100
AcDbEntity
8
0
100
AcDbBlockBegin
2
*Model_Space
70
0
10
0
20
0
30
0
3
*Model_Space
0
ENDBLK
5
21
100
AcDbEntity
8
0
100
AcDbBlockEnd
0
BLOCK
5
1C
100
AcDbEntity
8
0
100
AcDbBlockBegin
2
*Paper_Space
70
0
10
0
20
0
30
0
3
*Paper_Space
0
ENDBLK
5
1D
100
AcDbEntity
8
0
100
AcDbBlockEnd
0
BLOCK
5
24
100
AcDbEntity
8
0
100
AcDbBlockBegin
2
*Paper_Space0
70
0
10
0
20
0
30
0
3
*Paper_Space0
0
ENDBLK
5
25
100
AcDbEntity
8
0
100
AcDbBlockEnd
0
BLOCK
5
203
100
AcDbEntity
8
0
100
AcDbBlockBegin
2
*D1
70
1
10
0
20
0
30
0
3
*D1
0
LINE
5
205
100
AcDbEntity
8
0
62
256
6
ByLayer
370
-2
48
1
60
0
100
AcDbLine
10
83.4075
20
6.076498
30
0
11
103.32
21
6.076498
31
0
39
0
210
0
220
0
230
1
0
LINE
5
206
100
AcDbEntity
8
0
62
256
6
ByLayer
370
-2
48
1
60
0
100
AcDbLine
10
83.4075
20
-6.076498
30
0
11
103.32
21
-6.076498
31
0
39
0
210
0
220
0
230
1
0
LINE
5
207
100
AcDbEntity
8
0
62
256
6
ByLayer
370
-2
48
1
60
0
100
AcDbLine
10
101.32
20
6.076498
30
0
11
101.32
21
36.50507
31
0
39
0
210
0
220
0
230
1
0
LINE
5
208
100
AcDbEntity
8
0
62
256
6
ByLayer
370
-2
48
1
60
0
100
AcDbLine
10
101.32
20
9.576498
30
0
11
101.32
21
13.076498
31
0
39
0
210
0
220
0
230
1
0
LINE
5
209
100
AcDbEntity
8
0
62
256
6
ByLayer
370
-2
48
1
60
0
100
AcDbLine
10
101.32
20
-9.576498
30
0
11
101.32
21
-13.076498
31
0
39
0
210
0
220
0
230
1
0
SOLID
5
20A
100
AcDbEntity
8
0
62
256
6
ByLayer
370
-1
48
1
60
0
100
AcDbTrace
10
100.736667
20
9.576498
30
0
11
101.903333
21
9.576498
31
0
12
101.32
22
6.076498
32
0
13
101.32
23
6.076498
33
0
39
0
210
0
220
0
230
1
0
SOLID
5
20B
100
AcDbEntity
8
0
62
256
6
ByLayer
370
-1
48
1
60
0
100
AcDbTrace
10
101.903333
20
-9.576498
30
0
11
100.736667
21
-9.576498
31
0
12
101.32
22
-6.076498
32
0
13
101.32
23
-6.076498
33
0
39
0
210
0
220
0
230
1
0
MTEXT
5
20C
100
AcDbEntity
8
0
62
256
6
ByLayer
370
18
48
1
60
0
100
AcDbMText
10
95.32
20
24.790784
30
0
210
0
220
0
230
1
1
\A1;12.153
40
3
41
0
44
1
50
90
71
5
72
5
7
iso_b_vert
0
POINT
5
20D
100
AcDbEntity
8
Defpoints
62
0
6
ByLayer
370
-1
48
1
60
0
100
AcDbPoint
10
81.82
20
6.076498
30
0
39
0
210
0
220
0
230
1
50
360
0
POINT
5
20E
100
AcDbEntity
8
Defpoints
62
0
6
ByLayer
370
-1
48
1
60
0
100
AcDbPoint
10
81.82
20
-6.076498
30
0
39
0
210
0
220
0
230
1
50
360
0
POINT
5
20F
100
AcDbEntity
8
Defpoints
62
0
6
ByLayer
370
-1
48
1
60
0
100
AcDbPoint
10
101.32
20
-6.076498
30
0
39
0
210
0
220
0
230
1
50
360
0
ENDBLK
5
204
100
AcDbEntity
8
0
100
AcDbBlockEnd
0
BLOCK
5
217
100
AcDbEntity
8
0
100
AcDbBlockBegin
2
_U0
70
0
10
0
20
0
30
0
3
_U0
0
MTEXT
5
211
100
AcDbEntity
8
2
62
256
6
ByLayer
370
18
48
1
60
0
100
AcDbMText
10
100.728886
20
16.211498
30
0
210
0
220
0
230
1
1
\W0.6563;M12
40
3
41
0
44
1.084337
50
90
71
7
72
5
7
iso_b_vert
0
LINE
5
212
100
AcDbEntity
8
2
62
256
6
ByLayer
370
13
48
1
60
0
100
AcDbLine
10
83.4075
20
6.076498
30
0
11
103.32
21
6.076498
31
0
39
0
210
0
220
0
230
1
0
LINE
5
213
100
AcDbEntity
8
2
62
256
6
ByLayer
370
13
48
1
60
0
100
AcDbLine
10
83.4075
20
-6.076498
30
0
11
103.32
21
-6.076498
31
0
39
0
210
0
220
0
230
1
0
LINE
5
214
100
AcDbEntity
8
2
62
256
6
ByLayer
370
13
48
1
60
0
100
AcDbLine
10
101.32
20
-6.076498
30
0
11
101.32
21
21.82324
31
0
39
0
210
0
220
0
230
1
0
SOLID
5
215
100
AcDbEntity
8
2
62
256
6
ByLayer
370
18
48
1
60
0
100
AcDbTrace
10
101.32
20
6.076498
30
0
11
101.780784
21
2.5765
31
0
12
100.859216
22
2.576497
32
0
13
100.859216
23
2.576497
33
0
39
0
210
0
220
0
230
1
0
SOLID
5
216
100
AcDbEntity
8
2
62
256
6
ByLayer
370
18
48
1
60
0
100
AcDbTrace
10
101.32
20
-6.076498
30
0
11
100.859216
21
-2.5765
31
0
12
101.780784
22
-2.576497
32
0
13
101.780784
23
-2.576497
33
0
39
0
210
0
220
0
230
1
0
ENDBLK
5
218
100
AcDbEntity
8
0
100
AcDbBlockEnd
0
BLOCK
5
21D
100
AcDbEntity
8
0
100
AcDbBlockBegin
2
*D3
70
1
10
0
20
0
30
0
3
*D3
0
LINE
5
21F
100
AcDbEntity
8
0
62
256
6
ByLayer
370
-2
48
1
60
0
100
AcDbLine
10
81.82
20
7.663998
30
0
11
81.82
21
17.061121
31
0
39
0
210
0
220
0
230
1
0
LINE
5
220
100
AcDbEntity
8
0
62
256
6
ByLayer
370
-2
48
1
60
0
100
AcDbLine
10
77.01
20
1.5875
30
0
11
77.01
21
17.061121
31
0
39
0
210
0
220
0
230
1
0
LINE
5
221
100
AcDbEntity
8
0
62
256
6
ByLayer
370
-2
48
1
60
0
100
AcDbLine
10
85.32
20
15.061121
30
0
11
88.82
21
15.061121
31
0
39
0
210
0
220
0
230
1
0
LINE
5
222
100
AcDbEntity
8
0
62
256
6
ByLayer
370
-2
48
1
60
0
100
AcDbLine
10
73.51
20
15.061121
30
0
11
70.01
21
15.061121
31
0
39
0
210
0
220
0
230
1
0
SOLID
5
223
100
AcDbEntity
8
0
62
256
6
ByLayer
370
-1
48
1
60
0
100
AcDbTrace
10
85.32
20
15.644454
30
0
11
85.32
21
14.477787
31
0
12
81.82
22
15.061121
32
0
13
81.82
23
15.061121
33
0
39
0
210
0
220
0
230
1
0
SOLID
5
224
100
AcDbEntity
8
0
62
256
6
ByLayer
370
-1
48
1
60
0
100
AcDbTrace
10
73.51
20
14.477787
30
0
11
73.51
21
15.644454
31
0
12
77.01
22
15.061121
32
0
13
77.01
23
15.061121
33
0
39
0
210
0
220
0
230
1
0
MTEXT
5
225
100
AcDbEntity
8
0
62
256
6
ByLayer
370
18
48
1
60
0
100
AcDbMText
10
79.415
20
21.061121
30
0
210
0
220
0
230
1
1
\A1;4.81
40
3
41
0
44
1
50
0
71
5
72
5
7
iso_b_vert
0
POINT
5
226
100
AcDbEntity
8
Defpoints
62
0
6
ByLayer
370
-1
48
1
60
0
100
AcDbPoint
10
81.82
20
6.076498
30
0
39
0
210
0
220
0
230
1
50
360
0
POINT
5
227
100
AcDbEntity
8
Defpoints
62
0
6
ByLayer
370
-1
48
1
60
0
100
AcDbPoint
10
77.01
20
0
30
0
39
0
210
0
220
0
230
1
50
360
0
POINT
5
228
100
AcDbEntity
8
Defpoints
62
0
6
ByLayer
370
-1
48
1
60
0
100
AcDbPoint
10
77.01
20
15.061121
30
0
39
0
210
0
220
0
230
1
50
360
0
ENDBLK
5
21E
100
AcDbEntity
8
0
100
AcDbBlockEnd
0
BLOCK
5
231
100
AcDbEntity
8
0
100
AcDbBlockBegin
2
_U1
70
0
10
0
20
0
30
0
3
_U1
0
MTEXT
5
22A
100
AcDbEntity
8
SK2
62
256
6
ByLayer
370
18
48
1
60
0
100
AcDbMText
10
76.297044
20
15.843754
30
0
210
0
220
0
230
1
1
\W0.6474;'C'
40
3.5
41
0
44
1.084337
50
0
71
7
72
5
7
iso_b_vert
0
MTEXT
5
22B
100
AcDbEntity
8
SK2
62
256
6
ByLayer
370
18
48
1
60
0
100
AcDbMText
10
76.270544
20
22.946235
30
0
210
0
220
0
230
1
1
\W0.7531;4.81
40
3
41
0
44
1.084337
50
0
71
7
72
5
7
iso_b_vert
0
LINE
5
22C
100
AcDbEntity
8
SK2
62
256
6
ByLayer
370
13
48
1
60
0
100
AcDbLine
10
81.82
20
7.663998
30
0
11
81.82
21
17.061121
31
0
39
0
210
0
220
0
230
1
0
LINE
5
22D
100
AcDbEntity
8
SK2
62
256
6
ByLayer
370
13
48
1
60
0
100
AcDbLine
10
77.01
20
1.5875
30
0
11
77.01
21
17.061121
31
0
39
0
210
0
220
0
230
1
0
LINE
5
22E
100
AcDbEntity
8
SK2
62
256
6
ByLayer
370
13
48
1
60
0
100
AcDbLine
10
89.32
20
15.061121
30
0
11
69.51
21
15.061121
31
0
39
0
210
0
220
0
230
1
0
SOLID
5
22F
100
AcDbEntity
8
SK2
62
256
6
ByLayer
370
18
48
1
60
0
100
AcDbTrace
10
81.82
20
15.061121
30
0
11
85.319998
21
15.521904
31
0
12
85.320002
22
14.600337
32
0
13
85.320002
23
14.600337
33
0
39
0
210
0
220
0
230
1
0
SOLID
5
230
100
AcDbEntity
8
SK2
62
256
6
ByLayer
370
18
48
1
60
0
100
AcDbTrace
10
77.01
20
15.061121
30
0
11
73.510002
21
14.600337
31
0
12
73.509998
22
15.521904
32
0
13
73.509998
23
15.521904
33
0
39
0
210
0
220
0
230
1
0
ENDBLK
5
232
100
AcDbEntity
8
0
100
AcDbBlockEnd
0
BLOCK
5
237
100
AcDbEntity
8
0
100
AcDbBlockBegin
2
*D5
70
1
10
0
20
0
30
0
3
*D5
0
LINE
5
239
100
AcDbEntity
8
0
62
256
6
ByLayer
370
-2
48
1
60
0
100
AcDbLine
10
81.82
20
-7.663998
30
0
11
81.82
21
-15.076498
31
0
39
0
210
0
220
0
230
1
0
LINE
5
23A
100
AcDbEntity
8
0
62
256
6
ByLayer
370
-2
48
1
60
0
100
AcDbLine
10
63.82
20
-7.663998
30
0
11
63.82
21
-15.076498
31
0
39
0
210
0
220
0
230
1
0
LINE
5
23B
100
AcDbEntity
8
0
62
256
6
ByLayer
370
-2
48
1
60
0
100
AcDbLine
10
78.32
20
-13.076498
30
0
11
67.32
21
-13.076498
31
0
39
0
210
0
220
0
230
1
0
SOLID
5
23C
100
AcDbEntity
8
0
62
256
6
ByLayer
370
-1
48
1
60
0
100
AcDbTrace
10
78.32
20
-13.659832
30
0
11
78.32
21
-12.493165
31
0
12
81.82
22
-13.076498
32
0
13
81.82
23
-13.076498
33
0
39
0
210
0
220
0
230
1
0
SOLID
5
23D
100
AcDbEntity
8
0
62
256
6
ByLayer
370
-1
48
1
60
0
100
AcDbTrace
10
67.32
20
-12.493165
30
0
11
67.32
21
-13.659832
31
0
12
63.82
22
-13.076498
32
0
13
63.82
23
-13.076498
33
0
39
0
210
0
220
0
230
1
0
MTEXT
5
23E
100
AcDbEntity
8
0
62
256
6
ByLayer
370
18
48
1
60
0
100
AcDbMText
10
73.248571
20
-7.076498
30
0
210
0
220
0
230
1
1
\A1;18
40
3
41
0
44
1
50
0
71
5
72
5
7
iso_b_vert
0
POINT
5
23F
100
AcDbEntity
8
Defpoints
62
0
6
ByLayer
370
-1
48
1
60
0
100
AcDbPoint
10
81.82
20
-6.076498
30
0
39
0
210
0
220
0
230
1
50
360
0
POINT
5
240
100
AcDbEntity
8
Defpoints
62
0
6
ByLayer
370
-1
48
1
60
0
100
AcDbPoint
10
63.82
20
-6.076498
30
0
39
0
210
0
220
0
230
1
50
360
0
POINT
5
241
100
AcDbEntity
8
Defpoints
62
0
6
ByLayer
370
-1
48
1
60
0
100
AcDbPoint
10
63.82
20
-13.076498
30
0
39
0
210
0
220
0
230
1
50
360
0
ENDBLK
5
238
100
AcDbEntity
8
0
100
AcDbBlockEnd
0
BLOCK
5
24A
100
AcDbEntity
8
0
100
AcDbBlockBegin
2
_U2
70
0
10
0
20
0
30
0
3
_U2
0
MTEXT
5
243
100
AcDbEntity
8
SK2
62
256
6
ByLayer
370
18
48
1
60
0
100
AcDbMText
10
67.116068
20
-12.191384
30
0
210
0
220
0
230
1
1
\W0.5321;18
40
3
41
0
44
1.084337
50
0
71
7
72
5
7
iso_b_vert
0
MTEXT
5
244
100
AcDbEntity
8
SK2
62
256
6
ByLayer
370
18
48
1
60
0
100
AcDbMText
10
72.423338
20
-11.838903
30
0
210
0
220
0
230
1
1
\W0.8315;\W0.4158;%%p\W0.8315;0.5
40
2.5
41
0
44
1.084337
50
0
71
7
72
5
7
iso_b_vert
0
LINE
5
245
100
AcDbEntity
8
SK2
62
256
6
ByLayer
370
13
48
1
60
0
100
AcDbLine
10
81.82
20
-7.663998
30
0
11
81.82
21
-15.076498
31
0
39
0
210
0
220
0
230
1
0
LINE
5
246
100
AcDbEntity
8
SK2
62
256
6
ByLayer
370
13
48
1
60
0
100
AcDbLine
10
63.82
20
-7.663998
30
0
11
63.82
21
-15.076498
31
0
39
0
210
0
220
0
230
1
0
LINE
5
247
100
AcDbEntity
8
SK2
62
256
6
ByLayer
370
13
48
1
60
0
100
AcDbLine
10
81.82
20
-13.076498
30
0
11
63.82
21
-13.076498
31
0
39
0
210
0
220
0
230
1
0
SOLID
5
248
100
AcDbEntity
8
SK2
62
256
6
ByLayer
370
18
48
1
60
0
100
AcDbTrace
10
81.82
20
-13.076498
30
0
11
78.320002
21
-13.537282
31
0
12
78.319998
22
-12.615715
32
0
13
78.319998
23
-12.615715
33
0
39
0
210
0
220
0
230
1
0
SOLID
5
249
100
AcDbEntity
8
SK2
62
256
6
ByLayer
370
18
48
1
60
0
100
AcDbTrace
10
63.82
20
-13.076498
30
0
11
67.319998
21
-12.615715
31
0
12
67.320002
22
-13.537282
32
0
13
67.320002
23
-13.537282
33
0
39
0
210
0
220
0
230
1
0
ENDBLK
5
24B
100
AcDbEntity
8
0
100
AcDbBlockEnd
0
BLOCK
5
250
100
AcDbEntity
8
0
100
AcDbBlockBegin
2
*D7
70
1
10
0
20
0
30
0
3
*D7
0
LINE
5
252
100
AcDbEntity
8
0
62
256
6
ByLayer
370
-2
48
1
60
0
100
AcDbLine
10
81.82
20
-7.663998
30
0
11
81.82
21
-37.576498
31
0
39
0
210
0
220
0
230
1
0
LINE
5
253
100
AcDbEntity
8
0
62
256
6
ByLayer
370
-2
48
1
60
0
100
AcDbLine
10
26.82
20
-6.0985
30
0
11
26.82
21
-37.576498
31
0
39
0
210
0
220
0
230
1
0
LINE
5
254
100
AcDbEntity
8
0
62
256
6
ByLayer
370
-2
48
1
60
0
100
AcDbLine
10
78.32
20
-35.576498
30
0
11
30.32
21
-35.576498
31
0
39
0
210
0
220
0
230
1
0
SOLID
5
255
100
AcDbEntity
8
0
62
256
6
ByLayer
370
-1
48
1
60
0
100
AcDbTrace
10
78.32
20
-36.159832
30
0
11
78.32
21
-34.993165
31
0
12
81.82
22
-35.576498
32
0
13
81.82
23
-35.576498
33
0
39
0
210
0
220
0
230
1
0
SOLID
5
256
100
AcDbEntity
8
0
62
256
6
ByLayer
370
-1
48
1
60
0
100
AcDbTrace
10
30.32
20
-34.993165
30
0
11
30.32
21
-36.159832
31
0
12
26.82
22
-35.576498
32
0
13
26.82
23
-35.576498
33
0
39
0
210
0
220
0
230
1
0
MTEXT
5
257
100
AcDbEntity
8
0
62
256
6
ByLayer
370
18
48
1
60
0
100
AcDbMText
10
54.32
20
-29.576498
30
0
210
0
220
0
230
1
1
\A1;55
40
3
41
0
44
1
50
0
71
5
72
5
7
iso_b_vert
0
POINT
5
258
100
AcDbEntity
8
Defpoints
62
0
6
ByLayer
370
-1
48
1
60
0
100
AcDbPoint
10
81.82
20
-6.076498
30
0
39
0
210
0
220
0
230
1
50
360
0
POINT
5
259
100
AcDbEntity
8
Defpoints
62
0
6
ByLayer
370
-1
48
1
60
0
100
AcDbPoint
10
26.82
20
-4.511
30
0
39
0
210
0
220
0
230
1
50
360
0
POINT
5
25A
100
AcDbEntity
8
Defpoints
62
0
6
ByLayer
370
-1
48
1
60
0
100
AcDbPoint
10
26.82
20
-35.576498
30
0
39
0
210
0
220
0
230
1
50
360
0
ENDBLK
5
251
100
AcDbEntity
8
0
100
AcDbBlockEnd
0
BLOCK
5
262
100
AcDbEntity
8
0
100
AcDbBlockBegin
2
_U3
70
0
10
0
20
0
30
0
3
_U3
0
MTEXT
5
25C
100
AcDbEntity
8
SK2
62
256
6
ByLayer
370
18
48
1
60
0
100
AcDbMText
10
52.687172
20
-34.691384
30
0
210
0
220
0
230
1
1
\W0.6740;55
40
3
41
0
44
1.084337
50
0
71
7
72
5
7
iso_b_vert
0
LINE
5
25D
100
AcDbEntity
8
SK2
62
256
6
ByLayer
370
13
48
1
60
0
100
AcDbLine
10
81.82
20
-7.663998
30
0
11
81.82
21
-37.576498
31
0
39
0
210
0
220
0
230
1
0
LINE
5
25E
100
AcDbEntity
8
SK2
62
256
6
ByLayer
370
13
48
1
60
0
100
AcDbLine
10
26.82
20
-6.0985
30
0
11
26.82
21
-37.576498
31
0
39
0
210
0
220
0
230
1
0
LINE
5
25F
100
AcDbEntity
8
SK2
62
256
6
ByLayer
370
13
48
1
60
0
100
AcDbLine
10
81.82
20
-35.576498
30
0
11
26.82
21
-35.576498
31
0
39
0
210
0
220
0
230
1
0
SOLID
5
260
100
AcDbEntity
8
SK2
62
256
6
ByLayer
370
18
48
1
60
0
100
AcDbTrace
10
81.82
20
-35.576498
30
0
11
78.320002
21
-36.037282
31
0
12
78.319998
22
-35.115715
32
0
13
78.319998
23
-35.115715
33
0
39
0
210
0
220
0
230
1
0
SOLID
5
261
100
AcDbEntity
8
SK2
62
256
6
ByLayer
370
18
48
1
60
0
100
AcDbTrace
10
26.82
20
-35.576498
30
0
11
30.319998
21
-35.115715
31
0
12
30.320002
22
-36.037282
32
0
13
30.320002
23
-36.037282
33
0
39
0
210
0
220
0
230
1
0
ENDBLK
5
263
100
AcDbEntity
8
0
100
AcDbBlockEnd
0
BLOCK
5
268
100
AcDbEntity
8
0
100
AcDbBlockBegin
2
*D9
70
1
10
0
20
0
30
0
3
*D9
0
LINE
5
26A
100
AcDbEntity
8
0
62
256
6
ByLayer
370
-2
48
1
60
0
100
AcDbLine
10
81.82
20
-7.663998
30
0
11
81.82
21
-26.576498
31
0
39
0
210
0
220
0
230
1
0
LINE
5
26B
100
AcDbEntity
8
0
62
256
6
ByLayer
370
-2
48
1
60
0
100
AcDbLine
10
35.07
20
-1.5875
30
0
11
35.07
21
-26.576498
31
0
39
0
210
0
220
0
230
1
0
LINE
5
26C
100
AcDbEntity
8
0
62
256
6
ByLayer
370
-2
48
1
60
0
100
AcDbLine
10
78.32
20
-24.576498
30
0
11
38.57
21
-24.576498
31
0
39
0
210
0
220
0
230
1
0
SOLID
5
26D
100
AcDbEntity
8
0
62
256
6
ByLayer
370
-1
48
1
60
0
100
AcDbTrace
10
78.32
20
-25.159832
30
0
11
78.32
21
-23.993165
31
0
12
81.82
22
-24.576498
32
0
13
81.82
23
-24.576498
33
0
39
0
210
0
220
0
230
1
0
SOLID
5
26E
100
AcDbEntity
8
0
62
256
6
ByLayer
370
-1
48
1
60
0
100
AcDbTrace
10
38.57
20
-23.993165
30
0
11
38.57
21
-25.159832
31
0
12
35.07
22
-24.576498
32
0
13
35.07
23
-24.576498
33
0
39
0
210
0
220
0
230
1
0
MTEXT
5
26F
100
AcDbEntity
8
0
62
256
6
ByLayer
370
18
48
1
60
0
100
AcDbMText
10
58.445
20
-18.576498
30
0
210
0
220
0
230
1
1
\A1;46.8
40
3
41
0
44
1
50
0
71
5
72
5
7
iso_b_vert
0
POINT
5
270
100
AcDbEntity
8
Defpoints
62
0
6
ByLayer
370
-1
48
1
60
0
100
AcDbPoint
10
81.82
20
-6.076498
30
0
39
0
210
0
220
0
230
1
50
360
0
POINT
5
271
100
AcDbEntity
8
Defpoints
62
0
6
ByLayer
370
-1
48
1
60
0
100
AcDbPoint
10
35.07
20
0
30
0
39
0
210
0
220
0
230
1
50
360
0
POINT
5
272
100
AcDbEntity
8
Defpoints
62
0
6
ByLayer
370
-1
48
1
60
0
100
AcDbPoint
10
35.07
20
-24.576498
30
0
39
0
210
0
220
0
230
1
50
360
0
ENDBLK
5
269
100
AcDbEntity
8
0
100
AcDbBlockEnd
0
BLOCK
5
27A
100
AcDbEntity
8
0
100
AcDbBlockBegin
2
_U4
70
0
10
0
20
0
30
0
3
_U4
0
MTEXT
5
274
100
AcDbEntity
8
2
62
256
6
ByLayer
370
18
48
1
60
0
100
AcDbMText
10
54.925601
20
-23.691384
30
0
210
0
220
0
230
1
1
\W0.7640;46.8
40
3
41
0
44
1.084337
50
0
71
7
72
5
7
iso_b_vert
0
LINE
5
275
100
AcDbEntity
8
2
62
256
6
ByLayer
370
13
48
1
60
0
100
AcDbLine
10
81.82
20
-7.663998
30
0
11
81.82
21
-26.576498
31
0
39
0
210
0
220
0
230
1
0
LINE
5
276
100
AcDbEntity
8
2
62
256
6
ByLayer
370
13
48
1
60
0
100
AcDbLine
10
35.07
20
-1.5875
30
0
11
35.07
21
-26.576498
31
0
39
0
210
0
220
0
230
1
0
LINE
5
277
100
AcDbEntity
8
2
62
256
6
ByLayer
370
13
48
1
60
0
100
AcDbLine
10
81.82
20
-24.576498
30
0
11
35.07
21
-24.576498
31
0
39
0
210
0
220
0
230
1
0
SOLID
5
278
100
AcDbEntity
8
2
62
256
6
ByLayer
370
18
48
1
60
0
100
AcDbTrace
10
81.82
20
-24.576498
30
0
11
78.320002
21
-25.037282
31
0
12
78.319998
22
-24.115715
32
0
13
78.319998
23
-24.115715
33
0
39
0
210
0
220
0
230
1
0
SOLID
5
279
100
AcDbEntity
8
2
62
256
6
ByLayer
370
18
48
1
60
0
100
AcDbTrace
10
35.07
20
-24.576498
30
0
11
38.569998
21
-24.115715
31
0
12
38.570002
22
-25.037282
32
0
13
38.570002
23
-25.037282
33
0
39
0
210
0
220
0
230
1
0
ENDBLK
5
27B
100
AcDbEntity
8
0
100
AcDbBlockEnd
0
ENDSEC
0
SECTION
2
ENTITIES
0
ARC
5
C7
100
AcDbEntity
8
SK1
62
256
6
ByLayer
370
18
48
1
60
0
100
AcDbCircle
39
0
10
-20.495
20
0
30
0
40
4.47456000000013
210
0
220
0
230
1
100
AcDbArc
50
321.359785
51
38.640215
0
ARC
5
C8
100
AcDbEntity
8
1
62
256
6
ByLayer
370
18
48
1
60
0
100
AcDbCircle
39
0
10
27.473835
20
-6.011
30
0
40
1.5
210
0
220
0
230
1
100
AcDbArc
50
90
51
115.841933
0
ARC
5
C9
100
AcDbEntity
8
1
62
256
6
ByLayer
370
18
48
1
60
0
100
AcDbCircle
39
0
10
27.473835
20
6.011
30
0
40
1.5
210
0
220
0
230
1
100
AcDbArc
50
244.158067
51
270
0
POINT
5
70
100
AcDbEntity
8
80
62
256
6
ByLayer
370
18
48
1
60
0
100
AcDbPoint
10
0
20
0
30
0
39
0
210
0
220
0
230
1
50
360
0
POINT
5
72
100
AcDbEntity
8
81
62
256
6
ByLayer
370
18
48
1
60
0
100
AcDbPoint
10
81.82
20
0
30
0
39
0
210
0
220
0
230
1
50
360
0
POINT
5
74
100
AcDbEntity
8
1
62
256
6
ByLayer
370
18
48
1
60
1
100
AcDbPoint
10
81.82
20
6.076498
30
0
39
0
210
0
220
0
230
1
50
360
0
POINT
5
76
100
AcDbEntity
8
1
62
256
6
ByLayer
370
18
48
1
60
1
100
AcDbPoint
10
81.82
20
-6.076498
30
0
39
0
210
0
220
0
230
1
50
360
0
POINT
5
77
100
AcDbEntity
8
1
62
256
6
ByLayer
370
18
48
1
60
1
100
AcDbPoint
10
81.82
20
6.076498
30
0
39
0
210
0
220
0
230
1
50
360
0
POINT
5
78
100
AcDbEntity
8
1
62
256
6
ByLayer
370
18
48
1
60
1
100
AcDbPoint
10
77.01
20
0
30
0
39
0
210
0
220
0
230
1
50
360
0
POINT
5
79
100
AcDbEntity
8
1
62
256
6
ByLayer
370
18
48
1
60
1
100
AcDbPoint
10
81.82
20
-6.076498
30
0
39
0
210
0
220
0
230
1
50
360
0
POINT
5
7A
100
AcDbEntity
8
1
62
256
6
ByLayer
370
18
48
1
60
1
100
AcDbPoint
10
63.82
20
-6.076498
30
0
39
0
210
0
220
0
230
1
50
360
0
POINT
5
7B
100
AcDbEntity
8
1
62
256
6
ByLayer
370
18
48
1
60
1
100
AcDbPoint
10
81.82
20
-6.076498
30
0
39
0
210
0
220
0
230
1
50
360
0
POINT
5
7C
100
AcDbEntity
8
1
62
256
6
ByLayer
370
18
48
1
60
1
100
AcDbPoint
10
26.82
20
-4.511
30
0
39
0
210
0
220
0
230
1
50
360
0
POINT
5
7D
100
AcDbEntity
8
1
62
256
6
ByLayer
370
18
48
1
60
1
100
AcDbPoint
10
81.82
20
-6.076498
30
0
39
0
210
0
220
0
230
1
50
360
0
POINT
5
7E
100
AcDbEntity
8
1
62
256
6
ByLayer
370
18
48
1
60
1
100
AcDbPoint
10
35.07
20
0
30
0
39
0
210
0
220
0
230
1
50
360
0
SPLINE
5
CA
100
AcDbEntity
8
1
62
256
6
ByLayer
370
18
48
1
60
0
100
AcDbSpline
70
4
71
3
72
10
73
6
40
0
40
0
40
0
40
0
40
0.431741450471543
40
0.431741450471543
40
1
40
1
40
1
40
1
41
1
10
80.8614710006193
20
4.98222092420153
30
0
41
1
10
80.8648415474968
20
4.99083817135613
30
0
41
1
10
80.8682258891338
20
4.99834342650618
30
0
41
1
10
80.8760727053318
20
5.01305192423814
30
0
41
1
10
80.8805467742102
20
5.01943158420468
30
0
41
1
10
80.8850299684783
20
5.02382801471774
30
0
0
SPLINE
5
CB
100
AcDbEntity
8
1
62
256
6
ByLayer
370
13
48
1
60
0
100
AcDbSpline
70
4
71
3
72
8
73
4
40
0
40
0
40
0
40
0
40
1
40
1
40
1
40
1
41
1
10
79.6612162836977
20
-5.06864415769942
30
0
41
1
10
79.6561750628334
20
-5.07729254278516
30
0
41
1
10
79.651133840446
20
-5.08345438576302
30
0
41
1
10
79.6460926151784
20
-5.08711351385534
30
0
0
SPLINE
5
CC
100
AcDbEntity
8
1
62
256
6
ByLayer
370
13
48
1
60
0
100
AcDbSpline
70
4
71
3
72
8
73
4
40
0
40
0
40
0
40
0
40
1
40
1
40
1
40
1
41
1
10
68.664371317867
20
5.05339187469895
30
0
41
1
10
68.6675248810246
20
5.06039734363119
30
0
41
1
10
68.6706784441921
20
5.06643395727554
30
0
41
1
10
68.6738320073564
20
5.07149824552747
30
0
0
SPLINE
5
CD
100
AcDbEntity
8
1
62
256
6
ByLayer
370
13
48
1
60
0
100
AcDbSpline
70
4
71
3
72
8
73
4
40
0
40
0
40
0
40
0
40
1
40
1
40
1
40
1
41
1
10
67.3844343243584
20
-5.09104394957987
30
0
41
1
10
67.3936703400758
20
-5.09141458160343
30
0
41
1
10
67.4029063592652
20
-5.08341346797655
30
0
41
1
10
67.4121423866396
20
-5.06705113927217
30
0
0
SPLINE
5
CE
100
AcDbEntity
8
1
62
256
6
ByLayer
370
18
48
1
60
0
100
AcDbSpline
70
4
71
3
72
10
73
6
40
0
40
0
40
0
40
0
40
0.957743955482657
40
0.957743955482657
40
1
40
1
40
1
40
1
41
1
10
78.5621176558896
20
-5.5142879272675
30
0
41
1
10
78.5713070445381
20
-5.54196461519192
30
0
41
1
10
78.5805227484294
20
-5.56039479440591
30
0
41
1
10
78.5901537126797
20
-5.57001898399591
30
0
41
1
10
78.5905607090221
20
-5.570407698557
30
0
41
1
10
78.5909677331964
20
-5.57077843138407
30
0
0
SPLINE
5
CF
100
AcDbEntity
8
1
62
256
6
ByLayer
370
18
48
1
60
0
100
AcDbSpline
70
4
71
3
72
9
73
5
40
0
40
0
40
0
40
0
40
0.989160183190981
40
1
40
1
40
1
40
1
41
1
10
70.0280798412739
20
5.0804783773674
30
0
41
1
10
70.0307674930201
20
5.07730810478355
30
0
41
1
10
70.0334845979494
20
5.07338367361734
30
0
41
1
10
70.0362017032955
20
5.06873100625987
30
0
41
1
10
70.0362311562197
20
5.06868048663534
30
0
0
SPLINE
5
D0
100
AcDbEntity
8
1
62
256
6
ByLayer
370
13
48
1
60
0
100
AcDbSpline
70
4
71
3
72
8
73
4
40
0
40
0
40
0
40
0
40
1
40
1
40
1
40
1
41
1
10
70.0362311562175
20
5.06868048663915
30
0
41
1
10
70.041679074094
20
5.05933585371989
30
0
41
1
10
70.0471269936444
20
5.04706377602889
30
0
41
1
10
70.0525749145122
20
5.03190377566517
30
0
0
SPLINE
5
D1
100
AcDbEntity
8
1
62
256
6
ByLayer
370
13
48
1
60
0
100
AcDbSpline
70
4
71
3
72
9
73
5
40
0
40
0
40
0
40
0
40
0.373072217871011
40
1
40
1
40
1
40
1
41
1
10
66.0057783725565
20
-4.94224479085162
30
0
41
1
10
66.0109102982492
20
-4.96478651744437
30
0
41
1
10
66.0246661487525
20
-5.01845958812521
30
0
41
1
10
66.0384219986879
20
-5.05371176576128
30
0
41
1
10
66.0470459230092
20
-5.06853871243879
30
0
0
SPLINE
5
D2
100
AcDbEntity
8
1
62
256
6
ByLayer
370
18
48
1
60
0
100
AcDbSpline
70
4
71
3
72
8
73
4
40
0
40
0
40
0
40
0
40
1
40
1
40
1
40
1
41
1
10
66.0470458199162
20
-5.06853853519254
30
0
41
1
10
66.0501527595538
20
-5.07388025744368
30
0
41
1
10
66.0532596991694
20
-5.07827790462528
30
0
41
1
10
66.0563666387654
20
-5.08172991007027
30
0
0
SPLINE
5
D3
100
AcDbEntity
8
1
62
256
6
ByLayer
370
13
48
1
60
0
100
AcDbSpline
70
4
71
3
72
10
73
6
40
0
40
0
40
0
40
0
40
0.289049887366267
40
0.869656268555413
40
1
40
1
40
1
40
1
41
1
10
77.9112265810696
20
-5.06863905786031
30
0
41
1
10
77.9011760725375
20
-5.08587093563909
30
0
41
1
10
77.8709374241413
20
-5.10799563522974
30
0
41
1
10
77.8361666229984
20
-5.02955338412619
30
0
41
1
10
77.8114462577608
20
-4.91500312869124
30
0
41
1
10
77.8069140906659
20
-4.89205863000961
30
0
0
SPLINE
5
D4
100
AcDbEntity
8
1
62
256
6
ByLayer
370
18
48
1
60
0
100
AcDbSpline
70
4
71
3
72
17
73
13
40
0
40
0
40
0
40
0
40
0.192003333545896
40
0.192003333545896
40
0.461335555697265
40
0.461335555697265
40
0.528668611235107
40
0.528668611235107
40
0.59600166677295
40
0.730667777848633
40
0.730667777848633
40
1
40
1
40
1
40
1
41
1
10
77.4240774434089
20
-5.89394275542585
30
0
41
1
10
77.4172996772564
20
-5.89575462349313
30
0
41
1
10
77.4105429981323
20
-5.89235529775084
30
0
41
1
10
77.3942387912369
20
-5.87177860351201
30
0
41
1
10
77.3846563771803
20
-5.84964560173492
30
0
41
1
10
77.3724434133266
20
-5.80907169190948
30
0
41
1
10
77.3699914730614
20
-5.80030029398051
30
0
41
1
10
77.365095890317
20
-5.78152296035088
30
0
41
1
10
77.3577572400834
20
-5.75147752163207
30
0
41
1
10
77.3504302980083
20
-5.71580112525845
30
0
41
1
10
77.3358225576154
20
-5.63692924640941
30
0
41
1
10
77.326163938033
20
-5.57432372365454
30
0
41
1
10
77.3165494334395
20
-5.50158039304839
30
0
0
SPLINE
5
D5
100
AcDbEntity
8
1
62
256
6
ByLayer
370
18
48
1
60
0
100
AcDbSpline
70
4
71
3
72
17
73
13
40
0
40
0
40
0
40
0
40
0.295115543981563
40
0.295115543981563
40
0.590231087963126
40
0.590231087963126
40
0.664009973958517
40
0.664009973958517
40
0.737788859953907
40
0.885346631944688
40
0.885346631944688
40
1
40
1
40
1
40
1
41
1
10
76.970459664617
20
-5.44371633044267
30
0
41
1
10
76.9799244581135
20
-5.52851866582259
30
0
41
1
10
76.9894022413045
20
-5.60367046846139
30
0
41
1
10
77.008264435161
20
-5.73442104306582
30
0
41
1
10
77.0176455378903
20
-5.79002462494458
30
0
41
1
10
77.0294242240354
20
-5.84695876423993
30
0
41
1
10
77.0317804869294
20
-5.85770043870295
30
0
41
1
10
77.0364785994164
20
-5.87781006707633
30
0
41
1
10
77.0435125997745
20
-5.90595815386038
30
0
41
1
10
77.0505448899833
20
-5.92815888549245
30
0
41
1
10
77.0589234402857
20
-5.9498781970733
30
0
41
1
10
77.0625974921492
20
-5.95781617108156
30
0
41
1
10
77.066276477872
20
-5.96418962886855
30
0
0
SPLINE
5
D6
100
AcDbEntity
8
1
62
256
6
ByLayer
370
13
48
1
60
0
100
AcDbSpline
70
4
71
3
72
10
73
6
40
0
40
0
40
0
40
0
40
0.270434893469789
40
0.916735239930345
40
1
40
1
40
1
40
1
41
1
10
76.4282471794283
20
-4.41604024022686
30
0
41
1
10
76.4389533719969
20
-4.51344190654453
30
0
41
1
10
76.4752458189011
20
-4.81053389456477
30
0
41
1
10
76.5148346145284
20
-5.00378953952173
30
0
41
1
10
76.5437172205841
20
-5.06284276389343
30
0
41
1
10
76.5470135724229
20
-5.06851545850569
30
0
0
SPLINE
5
D7
100
AcDbEntity
8
1
62
256
6
ByLayer
370
13
48
1
60
0
100
AcDbSpline
70
4
71
3
72
10
73
6
40
0
40
0
40
0
40
0
40
0.31600890911945
40
0.751917740571153
40
1
40
1
40
1
40
1
41
1
10
75.9676804820445
20
-4.19910699007457
30
0
41
1
10
75.986229044526
20
-4.39077826408791
30
0
41
1
10
76.0303638480019
20
-4.78048187544959
30
0
41
1
10
76.0890601351839
20
-5.0624046009942
30
0
41
1
10
76.129207943001
20
-5.09686071826636
30
0
41
1
10
76.143769474665
20
-5.08855772470008
30
0
0
SPLINE
5
D8
100
AcDbEntity
8
1
62
256
6
ByLayer
370
18
48
1
60
0
100
AcDbSpline
70
4
71
3
72
8
73
4
40
0
40
0
40
0
40
0
40
1
40
1
40
1
40
1
41
1
10
76.1437693137416
20
-5.08855781645781
30
0
41
1
10
76.1476297241133
20
-5.08635664891386
30
0
41
1
10
76.1514901343877
20
-5.0826935750751
30
0
41
1
10
76.1553505443668
20
-5.07756923318445
30
0
0
SPLINE
5
D9
100
AcDbEntity
8
1
62
256
6
ByLayer
370
13
48
1
60
0
100
AcDbSpline
70
4
71
3
72
11
73
7
40
0
40
0
40
0
40
0
40
0.158996844843908
40
0.57687669068358
40
0.994756536523252
40
1
40
1
40
1
40
1
41
1
10
74.5889499444192
20
-3.39259578902355
30
0
41
1
10
74.5986851191653
20
-3.52529347633586
30
0
41
1
10
74.6340065465261
20
-3.98425019217567
30
0
41
1
10
74.6949142395232
20
-4.61781783263899
30
0
41
1
10
74.7464077946656
20
-4.9196116427014
30
0
41
1
10
74.7723150980802
20
-5.00610233041036
30
0
41
1
10
74.7726361486966
20
-5.00716411048401
30
0
0
SPLINE
5
DA
100
AcDbEntity
8
1
62
256
6
ByLayer
370
18
48
1
60
0
100
AcDbSpline
70
4
71
3
72
8
73
4
40
0
40
0
40
0
40
0
40
1
40
1
40
1
40
1
41
1
10
74.7726361405571
20
-5.0071640835653
30
0
41
1
10
74.7791444839028
20
-5.02868851001966
30
0
41
1
10
74.7856528272827
20
-5.04608820906594
30
0
41
1
10
74.7921611707041
20
-5.05934913801519
30
0
0
SPLINE
5
DB
100
AcDbEntity
8
1
62
256
6
ByLayer
370
18
48
1
60
0
100
AcDbSpline
70
4
71
3
72
11
73
7
40
0
40
0
40
0
40
0
40
0.162015252067956
40
0.521478381540349
40
0.943197284582961
40
1
40
1
40
1
40
1
41
1
10
81.82
20
0.506040110736592
30
0
41
1
10
81.82
20
0.338291708789029
30
0
41
1
10
81.82
20
-0.206443973606753
30
0
41
1
10
81.82
20
-1.19834165006603
30
0
41
1
10
81.8200000000001
20
-2.01661352059941
30
0
41
1
10
81.82
20
-2.43647505375782
30
0
41
1
10
81.82
20
-2.48561590181924
30
0
0
SPLINE
5
DC
100
AcDbEntity
8
1
62
256
6
ByLayer
370
13
48
1
60
0
100
AcDbSpline
70
4
71
3
72
11
73
7
40
0
40
0
40
0
40
0
40
0.130214708436845
40
0.485475348299366
40
0.840735988161886
40
1
40
1
40
1
40
1
41
1
10
73.9759507691585
20
5.06612394824515
30
0
41
1
10
73.9853289728816
20
5.04916204419274
30
0
41
1
10
74.0202934304749
20
4.95388248912312
30
0
41
1
10
74.0808441333365
20
4.58332048036152
30
0
41
1
10
74.1434870157487
20
3.91763691758243
30
0
41
1
10
74.1805436356944
20
3.4244714755026
30
0
41
1
10
74.1920140012013
20
3.2635403908572
30
0
0
SPLINE
5
DD
100
AcDbEntity
8
1
62
256
6
ByLayer
370
13
48
1
60
0
100
AcDbSpline
70
4
71
3
72
11
73
7
40
0
40
0
40
0
40
0
40
0.243852618850828
40
0.599056788031429
40
0.95426095721203
40
1
40
1
40
1
40
1
41
1
10
74.1284200162973
20
-3.07844061141043
30
0
41
1
10
74.1459853618499
20
-3.3341272693765
30
0
41
1
10
74.1891370284543
20
-3.91722486660257
30
0
41
1
10
74.2578746645805
20
-4.62773136544814
30
0
41
1
10
74.3123418710524
20
-4.94275450939548
30
0
41
1
10
74.341222847327
20
-5.02853649997462
30
0
41
1
10
74.3445175489904
20
-5.03726318963444
30
0
0
SPLINE
5
DE
100
AcDbEntity
8
1
62
256
6
ByLayer
370
13
48
1
60
0
100
AcDbSpline
70
4
71
3
72
11
73
7
40
0
40
0
40
0
40
0
40
0.253337822770849
40
0.608209453618362
40
0.963081084465874
40
1
40
1
40
1
40
1
41
1
10
75.3544591473235
20
4.80144655831234
30
0
41
1
10
75.3727248189602
20
4.69039293263106
30
0
41
1
10
75.4165768021997
20
4.34950745453241
30
0
41
1
10
75.4860148809753
20
3.55027603210749
30
0
41
1
10
75.5398491691689
20
2.74276553252844
30
0
41
1
10
75.5680973166812
20
2.28226694361433
30
0
41
1
10
75.5707591756348
20
2.23856585111105
30
0
0
SPLINE
5
DF
100
AcDbEntity
8
1
62
256
6
ByLayer
370
18
48
1
60
0
100
AcDbSpline
70
4
71
3
72
34
73
30
40
0
40
0
40
0
40
0
40
0.125
40
0.125
40
0.15625
40
0.15625
40
0.1875
40
0.1875
40
0.25
40
0.25
40
0.375
40
0.375
40
0.500000000000001
40
0.500000000000001
40
0.562500000000001
40
0.562500000000001
40
0.593750000000001
40
0.593750000000001
40
0.625000000000001
40
0.625000000000001
40
0.75
40
0.75
40
0.875
40
0.875
40
0.9375
40
0.9375
40
0.96875
40
0.96875
40
1
40
1
40
1
40
1
41
1
10
74.5731118264381
20
5.95507844617569
30
0
41
1
10
74.5826520096321
20
5.91368991030862
30
0
41
1
10
74.5922429709733
20
5.86177546872756
30
0
41
1
10
74.6042911885556
20
5.78335412059832
30
0
41
1
10
74.6067041528326
20
5.76699169494395
30
0
41
1
10
74.6115380500222
20
5.73289404023683
30
0
41
1
10
74.6139507845741
20
5.71521599244386
30
0
41
1
10
74.6211681819321
20
5.66039478710226
30
0
41
1
10
74.6259565757668
20
5.62143227505149
30
0
41
1
10
74.6402840836883
20
5.49743252790196
30
0
41
1
10
74.649796713274
20
5.40530167637212
30
0
41
1
10
74.6688960926906
20
5.20235469777225
30
0
41
1
10
74.6784566930771
20
5.09153837012028
30
0
41
1
10
74.6928431842606
20
4.91103173941281
30
0
41
1
10
74.6976473199391
20
4.84847786295131
30
0
41
1
10
74.7048801116388
20
4.75099145445296
30
0
41
1
10
74.7072908418512
20
4.71794858834187
30
0
41
1
10
74.7120979276341
20
4.65100978340863
30
0
41
1
10
74.7144968674342
20
4.6170791369413
30
0
41
1
10
74.7264774380266
20
4.44514393728147
30
0
41
1
10
74.7360373997921
20
4.3003125681675
30
0
41
1
10
74.7551359465338
20
3.99639460643923
30
0
41
1
10
74.7646632000526
20
3.83730717378415
30
0
41
1
10
74.7789852522906
20
3.58787539304558
30
0
41
1
10
74.7837655235343
20
3.50292789539961
30
0
41
1
10
74.7909633480741
20
3.37275516471573
30
0
41
1
10
74.7933672647773
20
3.32890543892415
30
0
41
1
10
74.7981882889775
20
3.24027772636259
30
0
41
1
10
74.8006035872776
20
3.19553240728936
30
0
41
1
10
74.8030135796382
20
3.15058301114556
30
0
0
SPLINE
5
E0
100
AcDbEntity
8
1
62
256
6
ByLayer
370
18
48
1
60
0
100
AcDbSpline
70
4
71
3
72
28
73
24
40
0
40
0
40
0
40
0
40
0.125000000000001
40
0.250000000000001
40
0.250000000000001
40
0.312500000000001
40
0.312500000000001
40
0.343750000000001
40
0.343750000000001
40
0.375000000000001
40
0.375000000000001
40
0.500000000000001
40
0.500000000000001
40
0.625000000000001
40
0.625000000000001
40
0.75
40
0.75
40
0.78125
40
0.78125
40
0.8125
40
0.875
40
0.875
40
1
40
1
40
1
40
1
41
1
10
74.9849849575117
20
2.9841351455768
30
0
41
1
10
74.975360995938
20
3.16666929955676
30
0
41
1
10
74.9562161360116
20
3.51894469891411
30
0
41
1
10
74.9372022370181
20
3.84612884260986
30
0
41
1
10
74.9228610312933
20
4.08198829360151
30
0
41
1
10
74.918064503856
20
4.15901681951681
30
0
41
1
10
74.9108275092981
20
4.27212844014909
30
0
41
1
10
74.9084089199821
20
4.30942693372731
30
0
41
1
10
74.9035597481642
20
4.3832032394975
30
0
41
1
10
74.9011391593664
20
4.41952886632731
30
0
41
1
10
74.8890618889025
20
4.59829352296157
30
0
41
1
10
74.8794812437629
20
4.73225643955334
30
0
41
1
10
74.8604024579668
20
4.98258964285392
30
0
41
1
10
74.85090432793
20
5.09895867258336
30
0
41
1
10
74.8317845080499
20
5.31403481157426
30
0
41
1
10
74.8221617209004
20
5.41274389770939
30
0
41
1
10
74.810056697413
20
5.5246935276335
30
0
41
1
10
74.8076382552768
20
5.54644678489848
30
0
41
1
10
74.8028167705725
20
5.5885882942992
30
0
41
1
10
74.7956020145889
20
5.64980349000464
30
0
41
1
10
74.7884319950865
20
5.70509364278593
30
0
41
1
10
74.7741205346544
20
5.80788774431861
30
0
41
1
10
74.7646086802679
20
5.86605556024406
30
0
41
1
10
74.755042536192
20
5.91391361992024
30
0
0
SPLINE
5
E1
100
AcDbEntity
8
1
62
256
6
ByLayer
370
13
48
1
60
0
100
AcDbSpline
70
4
71
3
72
11
73
7
40
0
40
0
40
0
40
0
40
0.121733713369287
40
0.4768660213898
40
0.831998329410313
40
1
40
1
40
1
40
1
41
1
10
72.7496335058622
20
-2.02308541971479
30
0
41
1
10
72.7584040679396
20
-2.17021362522661
30
0
41
1
10
72.7927608855903
20
-2.73478735921472
30
0
41
1
10
72.8527039486386
20
-3.62143867123621
30
0
41
1
10
72.9159804937907
20
-4.33211103995214
30
0
41
1
10
72.9536707795378
20
-4.63301674689211
30
0
41
1
10
72.9657748126179
20
-4.7163321324656
30
0
0
SPLINE
5
E2
100
AcDbEntity
8
1
62
256
6
ByLayer
370
13
48
1
60
0
100
AcDbSpline
70
4
71
3
72
11
73
7
40
0
40
0
40
0
40
0
40
0.275641980995528
40
0.555148829639941
40
0.834655678284353
40
1
40
1
40
1
40
1
41
1
10
79.7102607346158
20
-1.34469031816289
30
0
41
1
10
79.6903517158384
20
-0.993687294577001
30
0
41
1
10
79.6502545237747
20
-0.265922292821784
30
0
41
1
10
79.5899691714895
20
0.840875110052878
30
0
41
1
10
79.5376503717646
20
1.76720736058465
30
0
41
1
10
79.5055197440994
20
2.2980489222353
30
0
41
1
10
79.4935772853006
20
2.48850276997968
30
0
0
SPLINE
5
E3
100
AcDbEntity
8
1
62
256
6
ByLayer
370
18
48
1
60
0
100
AcDbSpline
70
4
71
3
72
10
73
6
40
0
40
0
40
0
40
0
40
0.357459844558152
40
0.714293193438207
40
1
40
1
40
1
40
1
41
1
10
81.2200000628786
20
-2.46903420435609
30
0
41
1
10
81.2200000738813
20
-2.09489272103582
30
0
41
1
10
81.2200000053847
20
-1.29053791015556
30
0
41
1
10
81.219999914702
20
-0.0845746133651915
30
0
41
1
10
81.2199998952591
20
0.684840240891816
30
0
41
1
10
81.21999989144
20
1.01855447923367
30
0
0
SPLINE
5
E4
100
AcDbEntity
8
1
62
256
6
ByLayer
370
18
48
1
60
0
100
AcDbSpline
70
4
71
3
72
28
73
24
40
0
40
0
40
0
40
0
40
0.125
40
0.125
40
0.250000000000001
40
0.250000000000001
40
0.375000000000001
40
0.375000000000001
40
0.406250000000001
40
0.406250000000001
40
0.437500000000001
40
0.500000000000001
40
0.500000000000001
40
0.625000000000001
40
0.625000000000001
40
0.750000000000001
40
0.750000000000001
40
0.8125
40
0.8125
40
0.84375
40
0.84375
40
0.875
40
1
40
1
40
1
40
1
41
1
10
79.6232782411805
20
2.48914576508432
30
0
41
1
10
79.6324023929459
20
2.3344480201838
30
0
41
1
10
79.6414120479494
20
2.1767507040434
30
0
41
1
10
79.6593351540403
20
1.85551523332973
30
0
41
1
10
79.6682627329479
20
1.69198213244587
30
0
41
1
10
79.6861980932275
20
1.35915152927433
30
0
41
1
10
79.6952050791112
20
1.18985446528495
30
0
41
1
10
79.7066054330977
20
0.97453042502616
30
0
41
1
10
79.708895203731
20
0.931230697270479
30
0
41
1
10
79.7134677941068
20
0.844701364905717
30
0
41
1
10
79.7203231683775
20
0.714889965381275
30
0
41
1
10
79.7271649417653
20
0.58502675497104
30
0
41
1
10
79.7408216745732
20
0.325231627796711
30
0
41
1
10
79.7498897892073
20
0.151943439688409
30
0
41
1
10
79.7679137769387
20
-0.194818648241977
30
0
41
1
10
79.7768891497016
20
-0.368291420289893
30
0
41
1
10
79.7904487587788
20
-0.628631247869151
30
0
41
1
10
79.7949817661125
20
-0.715433172090627
30
0
41
1
10
79.8018103492654
20
-0.845669183351703
30
0
41
1
10
79.804089535682
20
-0.889051279208701
30
0
41
1
10
79.8086398830597
20
-0.975463972076994
30
0
41
1
10
79.8200078360908
20
-1.19082547765851
30
0
41
1
10
79.8313381822626
20
-1.40285028851625
30
0
41
1
10
79.8404303143766
20
-1.57032425306235
30
0
0
SPLINE
5
E5
100
AcDbEntity
8
1
62
256
6
ByLayer
370
13
48
1
60
0
100
AcDbSpline
70
4
71
3
72
11
73
7
40
0
40
0
40
0
40
0
40
0.167192653164486
40
0.446605461155782
40
0.726018269147079
40
1
40
1
40
1
40
1
41
1
10
79.2497342682581
20
-0.948256440005679
30
0
41
1
10
79.2376542267362
20
-0.731307641206939
30
0
41
1
10
79.2053860305676
20
-0.144636139577727
30
0
41
1
10
79.1529299560486
20
0.818742612702096
30
0
41
1
10
79.0927576482282
20
1.88531589928263
30
0
41
1
10
79.0527739355995
20
2.53590294439155
30
0
41
1
10
79.0329782610174
20
2.83642834764873
30
0
0
SPLINE
5
E6
100
AcDbEntity
8
1
62
256
6
ByLayer
370
13
48
1
60
0
100
AcDbSpline
70
4
71
3
72
11
73
7
40
0
40
0
40
0
40
0
40
0.108283913637656
40
0.463771831466164
40
0.819259749294672
40
1
40
1
40
1
40
1
41
1
10
70.9103536916789
20
-0.447943984774128
30
0
41
1
10
70.9181474297021
20
-0.589863634349683
30
0
41
1
10
70.9515274217959
20
-1.1954370414177
30
0
41
1
10
71.0104936719102
20
-2.23176212078769
30
0
41
1
10
71.0746749545738
20
-3.21891419890665
30
0
41
1
10
71.1132699969129
20
-3.71487505859721
30
0
41
1
10
71.1262787832879
20
-3.86942030252641
30
0
0
SPLINE
5
E7
100
AcDbEntity
8
1
62
256
6
ByLayer
370
18
48
1
60
0
100
AcDbSpline
70
4
71
3
72
29
73
25
40
0
40
0
40
0
40
0
40
0.125000000000001
40
0.125000000000001
40
0.250000000000001
40
0.250000000000001
40
0.375000000000002
40
0.375000000000002
40
0.406250000000002
40
0.406250000000002
40
0.437500000000002
40
0.500000000000002
40
0.500000000000002
40
0.625000000000003
40
0.625000000000003
40
0.750000000000003
40
0.750000000000003
40
0.781250000000003
40
0.781250000000003
40
0.812500000000003
40
0.812500000000003
40
0.875000000000002
40
0.875000000000002
40
1
40
1
40
1
40
1
41
1
10
78.996467798435
20
-0.902633086983599
30
0
41
1
10
78.9869461240354
20
-0.720031711637375
30
0
41
1
10
78.9774873559851
20
-0.537165992474144
30
0
41
1
10
78.9586056996841
20
-0.170921241707475
30
0
41
1
10
78.9491995828203
20
0.0124596591981856
30
0
41
1
10
78.9305191316174
20
0.379748132880877
30
0
41
1
10
78.9212084993376
20
0.563652043581726
30
0
41
1
10
78.9094117272914
20
0.793852302970265
30
0
41
1
10
78.9070469908681
20
0.83985631544607
30
0
41
1
10
78.9023226529927
20
0.931394282905416
30
0
41
1
10
78.8952356807256
20
1.06816896826302
30
0
41
1
10
78.8881454586653
20
1.20336569306528
30
0
41
1
10
78.8739570696978
20
1.47168456811892
30
0
41
1
10
78.864487281048
20
1.64780456638925
30
0
41
1
10
78.8455153329388
20
1.99451300819433
30
0
41
1
10
78.8360062619355
20
2.16509676986385
30
0
41
1
10
78.8241420552256
20
2.3747363708074
30
0
41
1
10
78.8217699337784
20
2.41648473717217
30
0
41
1
10
78.8170259411353
20
2.49961860857505
30
0
41
1
10
78.8146513269465
20
2.54105161482966
30
0
41
1
10
78.807548879696
20
2.66437498158794
30
0
41
1
10
78.8028431441392
20
2.74528900276815
30
0
41
1
10
78.7887648872552
20
2.98418703489116
30
0
41
1
10
78.7794241617173
20
3.13833346866434
30
0
41
1
10
78.7699583288969
20
3.28745317938083
30
0
0
SPLINE
5
E8
100
AcDbEntity
8
1
62
256
6
ByLayer
370
18
48
1
60
0
100
AcDbSpline
70
4
71
3
72
27
73
23
40
0
40
0
40
0
40
0
40
0.125
40
0.125
40
0.25
40
0.25
40
0.3125
40
0.3125
40
0.34375
40
0.34375
40
0.375
40
0.5
40
0.5
40
0.625
40
0.625
40
0.6875
40
0.6875
40
0.75
40
0.75
40
0.875
40
0.875
40
1
40
1
40
1
40
1
41
1
10
78.0318048878921
20
3.9618194517592
30
0
41
1
10
78.0410317110958
20
3.8229660927899
30
0
41
1
10
78.050170250551
20
3.67803370937472
30
0
41
1
10
78.0685850115724
20
3.37640422021826
30
0
41
1
10
78.0779014072297
20
3.2197343682129
30
0
41
1
10
78.0919521557252
20
2.97565029911496
30
0
41
1
10
78.0966467731276
20
2.89277316360747
30
0
41
1
10
78.1037006384321
20
2.76612517479228
30
0
41
1
10
78.1060568805387
20
2.72346749837777
30
0
41
1
10
78.1107490944428
20
2.6378221919156
30
0
41
1
10
78.1224401317756
20
2.42268683845981
30
0
41
1
10
78.1339527765865
20
2.20249870876734
30
0
41
1
10
78.152305122375
20
1.84391979948074
30
0
41
1
10
78.1614492403719
20
1.66150154625143
30
0
41
1
10
78.1752600562027
20
1.38320564059168
30
0
41
1
10
78.1798793841297
20
1.28966029288028
30
0
41
1
10
78.1891732048446
20
1.10098951771511
30
0
41
1
10
78.1938523052635
20
1.00580959769118
30
0
41
1
10
78.2079720561747
20
0.718182278343221
30
0
41
1
10
78.2173725852994
20
0.526031903718348
30
0
41
1
10
78.2361114125693
20
0.140941194260364
30
0
41
1
10
78.2454310639033
20
-0.052001516249959
30
0
41
1
10
78.2547563058089
20
-0.245344879664458
30
0
0
SPLINE
5
E9
100
AcDbEntity
8
1
62
256
6
ByLayer
370
13
48
1
60
0
100
AcDbSpline
70
4
71
3
72
11
73
7
40
0
40
0
40
0
40
0
40
0.171930905046551
40
0.451796907777449
40
0.731662910508347
40
1
40
1
40
1
40
1
41
1
10
77.8708052237565
20
0.274230520694943
30
0
41
1
10
77.8584029654744
20
0.500609435750533
30
0
41
1
10
77.8258125361269
20
1.0933490885711
30
0
41
1
10
77.7730339441711
20
2.02157750468595
30
0
41
1
10
77.7133010726288
20
2.97821370879518
30
0
41
1
10
77.6737563757693
20
3.52142335806462
30
0
41
1
10
77.6543998470645
20
3.75999181850096
30
0
0
SPLINE
5
EA
100
AcDbEntity
8
1
62
256
6
ByLayer
370
13
48
1
60
0
100
AcDbSpline
70
4
71
3
72
11
73
7
40
0
40
0
40
0
40
0
40
0.23045360765633
40
0.58570832090695
40
0.94096303415757
40
1
40
1
40
1
40
1
41
1
10
72.2891123813889
20
-1.64348171432127
30
0
41
1
10
72.3057101508192
20
-1.93063361130481
30
0
41
1
10
72.3478940827081
20
-2.63827424773743
30
0
41
1
10
72.4156644193924
20
-3.63737280208102
30
0
41
1
10
72.4710888718443
20
-4.25631300140117
30
0
41
1
10
72.5009270779254
20
-4.51260783797014
30
0
41
1
10
72.5051790512103
20
-4.54753848869791
30
0
0
SPLINE
5
EB
100
AcDbEntity
8
1
62
256
6
ByLayer
370
13
48
1
60
0
100
AcDbSpline
70
4
71
3
72
12
73
8
40
0
40
0
40
0
40
0
40
0.0629239367578198
40
0.342689016794034
40
0.622454096830247
40
0.902219176866461
40
1
40
1
40
1
40
1
41
1
10
77.4101809620365
20
0.681084400487663
30
0
41
1
10
77.4056403007458
20
0.763340140670437
30
0
41
1
10
77.3809114928883
20
1.20983620745375
30
0
41
1
10
77.3359946564524
20
2.00089345352379
30
0
41
1
10
77.2754299335149
20
2.97314020829719
30
0
41
1
10
77.2279979950643
20
3.62506384719626
30
0
41
1
10
77.2007539282634
20
3.94507474168148
30
0
41
1
10
77.193697963258
20
4.0240841091076
30
0
0
SPLINE
5
EC
100
AcDbEntity
8
1
62
256
6
ByLayer
370
13
48
1
60
0
100
AcDbSpline
70
4
71
3
72
11
73
7
40
0
40
0
40
0
40
0
40
0.143779360883476
40
0.498631259943098
40
0.85348315900272
40
1
40
1
40
1
40
1
41
1
10
75.8151944470738
20
4.64943132696862
30
0
41
1
10
75.8255615186488
20
4.57223397596394
30
0
41
1
10
75.8615148425275
20
4.27109679787142
30
0
41
1
10
75.9230544242817
20
3.56665450170777
30
0
41
1
10
75.9847913861082
20
2.64353620675226
30
0
41
1
10
76.020942096247
20
2.04220131969734
30
0
41
1
10
76.0315065520462
20
1.86246085687196
30
0
0
SPLINE
5
ED
100
AcDbEntity
8
1
62
256
6
ByLayer
370
18
48
1
60
0
100
AcDbSpline
70
4
71
3
72
25
73
21
40
0
40
0
40
0
40
0
40
0.125000000000001
40
0.250000000000001
40
0.250000000000001
40
0.312500000000001
40
0.312500000000001
40
0.343750000000001
40
0.343750000000001
40
0.375000000000001
40
0.375000000000001
40
0.500000000000001
40
0.500000000000001
40
0.625000000000001
40
0.625000000000001
40
0.750000000000001
40
0.750000000000001
40
0.875
40
0.875
40
1
40
1
40
1
40
1
41
1
10
76.412511751167
20
5.26945947046909
30
0
41
1
10
76.4221102519134
20
5.1651107931221
30
0
41
1
10
76.4412754887165
20
4.93887734324346
30
0
41
1
10
76.4603482227451
20
4.67822058813221
30
0
41
1
10
76.4747033095356
20
4.46965134628294
30
0
41
1
10
76.4794977883152
20
4.3979445948053
30
0
41
1
10
76.4867241354484
20
4.2870479315242
30
0
41
1
10
76.4891407123617
20
4.24949547107587
30
0
41
1
10
76.4939812848814
20
4.17339782575496
30
0
41
1
10
76.4963986173263
20
4.1349554315085
30
0
41
1
10
76.5084684126986
20
3.94079903445498
30
0
41
1
10
76.5180650567044
20
3.7792675934333
30
0
41
1
10
76.5371711488205
20
3.44412879383421
30
0
41
1
10
76.5466805884775
20
3.27052063521694
30
0
41
1
10
76.5657756463137
20
2.91117834547723
30
0
41
1
10
76.5753898060332
20
2.72539720439949
30
0
41
1
10
76.5948019669175
20
2.34146188700768
30
0
41
1
10
76.6044154033748
20
2.14660625868487
30
0
41
1
10
76.6235295075764
20
1.75132745876803
30
0
41
1
10
76.6330302690619
20
1.55090365925974
30
0
41
1
10
76.6425748161029
20
1.34771112561376
30
0
0
SPLINE
5
EE
100
AcDbEntity
8
1
62
256
6
ByLayer
370
18
48
1
60
0
100
AcDbSpline
70
4
71
3
72
29
73
25
40
0
40
0
40
0
40
0
40
0.125
40
0.249999999999999
40
0.249999999999999
40
0.312499999999999
40
0.312499999999999
40
0.343749999999999
40
0.343749999999999
40
0.374999999999999
40
0.374999999999999
40
0.499999999999999
40
0.499999999999999
40
0.624999999999999
40
0.624999999999999
40
0.687499999999999
40
0.687499999999999
40
0.718749999999999
40
0.718749999999999
40
0.749999999999999
40
0.749999999999999
40
0.875
40
0.875
40
1
40
1
40
1
40
1
41
1
10
76.8244944692164
20
1.15919096051641
30
0
41
1
10
76.8148868242426
20
1.3648122999607
30
0
41
1
10
76.7957648042411
20
1.76964629574107
30
0
41
1
10
76.7767286967792
20
2.1618784758985
30
0
41
1
10
76.7623442884587
20
2.45125195036252
30
0
41
1
10
76.7575312908507
20
2.54690809656108
30
0
41
1
10
76.7502838721128
20
2.68916627149807
30
0
41
1
10
76.7478598502404
20
2.73644877352413
30
0
41
1
10
76.7430205786344
20
2.83022987830961
30
0
41
1
10
76.7406065109866
20
2.87670663419396
30
0
41
1
10
76.7285604790304
20
3.10704524071352
30
0
41
1
10
76.719005820544
20
3.28478848815754
30
0
41
1
10
76.6998991445776
20
3.62754876820128
30
0
41
1
10
76.6903393722176
20
3.79256489080723
30
0
41
1
10
76.6759787973803
20
4.03048613362427
30
0
41
1
10
76.671187539838
20
4.10818956069829
30
0
41
1
10
76.6639827694177
20
4.22230255734598
30
0
41
1
10
76.6615781246898
20
4.2599329876335
30
0
41
1
10
76.6567599266915
20
4.33437063346051
30
0
41
1
10
76.6543433244745
20
4.37122352995857
30
0
41
1
10
76.6422667294892
20
4.55284444209764
30
0
41
1
10
76.6326657786559
20
4.6889435910179
30
0
41
1
10
76.6135468818611
20
4.94337510235513
30
0
41
1
10
76.6040327404005
20
5.06170570626236
30
0
41
1
10
76.5944928079418
20
5.17117265501997
30
0
0
SPLINE
5
EF
100
AcDbEntity
8
1
62
256
6
ByLayer
370
18
48
1
60
0
100
AcDbSpline
70
4
71
3
72
10
73
6
40
0
40
0
40
0
40
0
40
0.5
40
0.5
40
1
40
1
40
1
40
1
41
1
10
77.6543998470645
20
3.75999181850096
30
0
41
1
10
77.7180082969819
20
3.79998033178293
30
0
41
1
10
77.7812230835194
20
3.83679660132483
30
0
41
1
10
77.9069988432366
20
3.90407655475823
30
0
41
1
10
77.9695975552146
20
3.93454679988932
30
0
41
1
10
78.0318048878921
20
3.96181945175923
30
0
0
SPLINE
5
F0
100
AcDbEntity
8
1
62
256
6
ByLayer
370
18
48
1
60
0
100
AcDbSpline
70
4
71
3
72
8
73
4
40
0
40
0
40
0
40
0
40
1
40
1
40
1
40
1
41
1
10
78.0318048878922
20
3.9618194517592
30
0
41
1
10
78.2764586854498
20
3.74183424897541
30
0
41
1
10
78.5222778834087
20
3.51666918595518
30
0
41
1
10
78.7699583288967
20
3.28745317938069
30
0
0
SPLINE
5
F1
100
AcDbEntity
8
1
62
256
6
ByLayer
370
18
48
1
60
0
100
AcDbSpline
70
4
71
3
72
8
73
4
40
0
40
0
40
0
40
0
40
1
40
1
40
1
40
1
41
1
10
78.7699583288968
20
3.28745317938066
30
0
41
1
10
78.8569644763178
20
3.1340132322189
30
0
41
1
10
78.9445702902244
20
2.98362509709534
30
0
41
1
10
79.0329782610174
20
2.83642834764871
30
0
0
SPLINE
5
F2
100
AcDbEntity
8
1
62
256
6
ByLayer
370
18
48
1
60
0
100
AcDbSpline
70
4
71
3
72
36
73
32
40
0
40
0
40
0
40
0
40
0.0625000000000271
40
0.0625000000000271
40
0.125000000000054
40
0.125000000000054
40
0.187500000000081
40
0.187500000000081
40
0.250000000000108
40
0.250000000000108
40
0.312500000000135
40
0.312500000000135
40
0.375000000000162
40
0.375000000000162
40
0.500000000000171
40
0.500000000000171
40
0.562500000000151
40
0.562500000000151
40
0.625000000000132
40
0.625000000000132
40
0.750000000000092
40
0.750000000000092
40
0.812500000000071
40
0.812500000000071
40
0.843750000000059
40
0.843750000000059
40
0.875000000000047
40
0.875000000000047
40
0.937500000000023
40
0.937500000000023
40
1
40
1
40
1
40
1
41
1
10
79.0329782610174
20
2.83642834764873
30
0
41
1
10
79.0397606973905
20
2.82513578456317
30
0
41
1
10
79.0471540128665
20
2.81395403120436
30
0
41
1
10
79.0629400884149
20
2.79177653227072
30
0
41
1
10
79.071335088145
20
2.78078115412066
30
0
41
1
10
79.0890098915935
20
2.75895566610478
30
0
41
1
10
79.0983433552003
20
2.74807127077221
30
0
41
1
10
79.117382439547
20
2.7269407082095
30
0
41
1
10
79.1271257225764
20
2.71664272769925
30
0
41
1
10
79.1470049162441
20
2.69651695620999
30
0
41
1
10
79.1571411276049
20
2.68668953194461
30
0
41
1
10
79.1777755556273
20
2.66746968995241
30
0
41
1
10
79.1883058472218
20
2.65805011642655
30
0
41
1
10
79.2201978910196
20
2.63060505016802
30
0
41
1
10
79.2415833592698
20
2.61360676243402
30
0
41
1
10
79.273773860183
20
2.58987576003321
30
0
41
1
10
79.2845230809083
20
2.58226320833865
30
0
41
1
10
79.3060506187104
20
2.56764290458892
30
0
41
1
10
79.3168040611584
20
2.56065540093493
30
0
41
1
10
79.348496833987
20
2.5409993110876
30
0
41
1
10
79.3690694271174
20
2.52948331879426
30
0
41
1
10
79.3989365718963
20
2.5148348494717
30
0
41
1
10
79.4087253817698
20
2.51039393483416
30
0
41
1
10
79.4231168318882
20
2.50448866407808
30
0
41
1
10
79.427880518362
20
2.50264172591014
30
0
41
1
10
79.4371779437163
20
2.49926790221792
30
0
41
1
10
79.4417214381453
20
2.49773627000837
30
0
41
1
10
79.4550224021678
20
2.4936277528395
30
0
41
1
10
79.4634529114585
20
2.49153336208082
30
0
41
1
10
79.4793170979566
20
2.48882333071637
30
0
41
1
10
79.4867531304255
20
2.48820372255872
30
0
41
1
10
79.4935772853006
20
2.48850276997936
30
0
0
SPLINE
5
F3
100
AcDbEntity
8
1
62
256
6
ByLayer
370
18
48
1
60
0
100
AcDbSpline
70
4
71
3
72
8
73
4
40
0
40
0
40
0
40
0
40
1
40
1
40
1
40
1
41
1
10
79.4935772853006
20
2.48850276997968
30
0
41
1
10
79.5370104552872
20
2.49040609393586
30
0
41
1
10
79.5802349388236
20
2.49061367798745
30
0
41
1
10
79.6232782411805
20
2.48914576508432
30
0
0
SPLINE
5
F4
100
AcDbEntity
8
1
62
256
6
ByLayer
370
18
48
1
60
0
100
AcDbSpline
70
4
71
3
72
18
73
14
40
0
40
0
40
0
40
0
40
0.124999999999996
40
0.124999999999996
40
0.249999999999993
40
0.249999999999993
40
0.374999999999989
40
0.374999999999989
40
0.499999999999986
40
0.499999999999986
40
0.749999999999993
40
0.749999999999993
40
1
40
1
40
1
40
1
41
1
10
79.6232782411805
20
2.48914576508434
30
0
41
1
10
79.6879821164322
20
2.42802607555265
30
0
41
1
10
79.7528431109618
20
2.36666851002531
30
0
41
1
10
79.8832050649858
20
2.24374781030963
30
0
41
1
10
79.9487022180605
20
2.18218227176666
30
0
41
1
10
80.0803236392823
20
2.05884594519398
30
0
41
1
10
80.1464751652408
20
1.99704430976908
30
0
41
1
10
80.2793105026232
20
1.87339320351609
30
0
41
1
10
80.3458467909199
20
1.81168162962743
30
0
41
1
10
80.5458586490511
20
1.62694156295081
30
0
41
1
10
80.6797431959754
20
1.50431431196543
30
0
41
1
10
80.9487656438703
20
1.26031279958494
30
0
41
1
10
81.0838858196485
20
1.13891909404924
30
0
41
1
10
81.21999989144
20
1.0185544792337
30
0
0
SPLINE
5
F5
100
AcDbEntity
8
1
62
256
6
ByLayer
370
18
48
1
60
0
100
AcDbSpline
70
4
71
3
72
14
73
10
40
0
40
0
40
0
40
0
40
0.25
40
0.25
40
0.5
40
0.5
40
0.75
40
0.75
40
1
40
1
40
1
40
1
41
1
10
81.21999989144
20
1.0185544792337
30
0
41
1
10
81.2680416948135
20
0.968974472428556
30
0
41
1
10
81.3165181616439
20
0.920995785982797
30
0
41
1
10
81.4144410407462
20
0.828284000094015
30
0
41
1
10
81.4638927428933
20
0.783555053906525
30
0
41
1
10
81.5639478981416
20
0.697611804318626
30
0
41
1
10
81.6144485148216
20
0.656525076650297
30
0
41
1
10
81.7165181844748
20
0.578232367054966
30
0
41
1
10
81.7679810086773
20
0.541033881894549
30
0
41
1
10
81.82
20
0.506040110736592
30
0
0
SPLINE
5
F6
100
AcDbEntity
8
1
62
256
6
ByLayer
370
18
48
1
60
0
100
AcDbSpline
70
4
71
3
72
54
73
50
40
0
40
0
40
0
40
0
40
0.0625000000000004
40
0.0625000000000004
40
0.0937500000000006
40
0.0937500000000006
40
0.125000000000001
40
0.187500000000001
40
0.187500000000001
40
0.250000000000002
40
0.250000000000002
40
0.312500000000002
40
0.312500000000002
40
0.343750000000002
40
0.343750000000002
40
0.375000000000002
40
0.437500000000002
40
0.500000000000002
40
0.500000000000002
40
0.562500000000002
40
0.562500000000002
40
0.578125000000002
40
0.578125000000002
40
0.593750000000002
40
0.625000000000002
40
0.625000000000002
40
0.687500000000002
40
0.687500000000002
40
0.750000000000002
40
0.750000000000002
40
0.781250000000002
40
0.781250000000002
40
0.796875000000002
40
0.796875000000002
40
0.812500000000002
40
0.812500000000002
40
0.828125000000002
40
0.828125000000002
40
0.843750000000001
40
0.843750000000001
40
0.875000000000001
40
0.875000000000001
40
0.937500000000001
40
0.937500000000001
40
0.953125000000001
40
0.953125000000001
40
0.968750000000001
40
0.968750000000001
40
1
40
1
40
1
40
1
41
1
10
81.82
20
0.506040110736592
30
0
41
1
10
81.82
20
0.515476631845615
30
0
41
1
10
81.82
20
0.5301526392536
30
0
41
1
10
81.82
20
0.560339632211395
30
0
41
1
10
81.82
20
0.571804970801992
30
0
41
1
10
81.82
20
0.597261711055779
30
0
41
1
10
81.82
20
0.639274840864118
30
0
41
1
10
81.82
20
0.69259518554
30
0
41
1
10
81.82
20
0.773558986445721
30
0
41
1
10
81.82
20
0.818987865158874
30
0
41
1
10
81.82
20
0.919770564624429
30
0
41
1
10
81.82
20
0.975135838601801
30
0
41
1
10
81.82
20
1.0658339707374
30
0
41
1
10
81.82
20
1.09739675137158
30
0
41
1
10
81.82
20
1.16250302321552
30
0
41
1
10
81.82
20
1.26330913386616
30
0
41
1
10
81.8199999999999
20
1.44678692049445
30
0
41
1
10
81.82
20
1.60980351783573
30
0
41
1
10
81.82
20
1.78098996383991
30
0
41
1
10
81.82
20
1.87066302689442
30
0
41
1
10
81.82
20
1.98800508815862
30
0
41
1
10
81.82
20
2.01176228636467
30
0
41
1
10
81.82
20
2.05967550168802
30
0
41
1
10
81.82
20
2.13207638548573
30
0
41
1
10
81.82
20
2.2060585396305
30
0
41
1
10
81.8199999999999
20
2.35609562701626
30
0
41
1
10
81.8200000000001
20
2.45887708219621
30
0
41
1
10
81.8200000000001
20
2.66988203904296
30
0
41
1
10
81.82
20
2.77809886979037
30
0
41
1
10
81.82
20
2.94453363984556
30
0
41
1
10
81.82
20
3.00069982153127
30
0
41
1
10
81.82
20
3.08598239185668
30
0
41
1
10
81.82
20
3.11458147822162
30
0
41
1
10
81.82
20
3.17212369448319
30
0
41
1
10
81.82
20
3.2010454755725
30
0
41
1
10
81.82
20
3.25932300545617
30
0
41
1
10
81.82
20
3.2888005206685
30
0
41
1
10
81.82
20
3.34804719845511
30
0
41
1
10
81.82
20
3.37780251167763
30
0
41
1
10
81.82
20
3.46745397178503
30
0
41
1
10
81.82
20
3.5277371711878
30
0
41
1
10
81.82
20
3.71010986868217
30
0
41
1
10
81.82
20
3.83369225382557
30
0
41
1
10
81.82
20
3.99076755299075
30
0
41
1
10
81.82
20
4.0223864232309
30
0
41
1
10
81.82
20
4.08549139728353
30
0
41
1
10
81.82
20
4.11695009518064
30
0
41
1
10
81.82
20
4.21104997234673
30
0
41
1
10
81.82
20
4.27341577743368
30
0
41
1
10
81.82
20
4.33541626930426
30
0
0
SPLINE
5
F7
100
AcDbEntity
8
1
62
256
6
ByLayer
370
18
48
1
60
0
100
AcDbSpline
70
4
71
3
72
16
73
12
40
0
40
0
40
0
40
0
40
0.249999999999993
40
0.249999999999993
40
0.499999999999987
40
0.499999999999987
40
0.74999999999998
40
0.74999999999998
40
0.87499999999999
40
0.87499999999999
40
1
40
1
40
1
40
1
41
1
10
81.82
20
4.3354162693054
30
0
41
1
10
81.7710085747545
20
4.38671386292742
30
0
41
1
10
81.7217318442613
20
4.4378541419579
30
0
41
1
10
81.6226938015669
20
4.53984305904939
30
0
41
1
10
81.5729311546716
20
4.59069185727449
30
0
41
1
10
81.472919561396
20
4.69218580383591
30
0
41
1
10
81.4226723593323
20
4.74282954138965
30
0
41
1
10
81.3469428732044
20
4.81870670547121
30
0
41
1
10
81.3216422932209
20
4.84398194132592
30
0
41
1
10
81.2709170496323
20
4.89451901273068
30
0
41
1
10
81.2454817368397
20
4.91979204518535
30
0
41
1
10
81.2200000628787
20
4.94504803733258
30
0
0
SPLINE
5
F8
100
AcDbEntity
8
1
62
256
6
ByLayer
370
18
48
1
60
0
100
AcDbSpline
70
4
71
3
72
8
73
4
40
0
40
0
40
0
40
0
40
1
40
1
40
1
40
1
41
1
10
81.2200000628786
20
4.94504803733253
30
0
41
1
10
81.1078023986226
20
4.97385908993277
30
0
41
1
10
80.9961208216154
20
5.00014882833966
30
0
41
1
10
80.8850299684783
20
5.02382801471774
30
0
0
SPLINE
5
F9
100
AcDbEntity
8
1
62
256
6
ByLayer
370
18
48
1
60
0
100
AcDbSpline
70
4
71
3
72
32
73
28
40
0
40
0
40
0
40
0
40
0.0624999999999712
40
0.0624999999999712
40
0.124999999999942
40
0.124999999999942
40
0.249999999999885
40
0.249999999999885
40
0.312499999999881
40
0.312499999999881
40
0.374999999999878
40
0.374999999999878
40
0.49999999999987
40
0.49999999999987
40
0.624999999999862
40
0.624999999999862
40
0.687499999999885
40
0.687499999999885
40
0.749999999999908
40
0.749999999999908
40
0.812499999999931
40
0.812499999999931
40
0.874999999999954
40
0.874999999999954
40
0.937499999999977
40
0.937499999999977
40
1
40
1
40
1
40
1
41
1
10
80.8850299684783
20
5.02382801471717
30
0
41
1
10
80.8779655874294
20
5.01733953715026
30
0
41
1
10
80.8705952495036
20
5.01120590336126
30
0
41
1
10
80.8554675885078
20
4.99977210106394
30
0
41
1
10
80.8477291846549
20
4.99448101460391
30
0
41
1
10
80.8240283897374
20
4.97979736220106
30
0
41
1
10
80.8075842908517
20
4.97158305110568
30
0
41
1
10
80.7820155013348
20
4.96152583092257
30
0
41
1
10
80.7733410737703
20
4.95855381713173
30
0
41
1
10
80.7556873382162
20
4.9533897096245
30
0
41
1
10
80.7466740757547
20
4.95119284668718
30
0
41
1
10
80.7195519623456
20
4.94590337763515
30
0
41
1
10
80.7012921895772
20
4.94406428401737
30
0
41
1
10
80.6644488740309
20
4.94396398216324
30
0
41
1
10
80.645865749608
20
4.94569255739384
30
0
41
1
10
80.6177421035356
20
4.95152776920293
30
0
41
1
10
80.6083006147148
20
4.95403311867003
30
0
41
1
10
80.5897362940689
20
4.96016583149597
30
0
41
1
10
80.5805677622561
20
4.96379888859209
30
0
41
1
10
80.5624903954772
20
4.97232731566078
30
0
41
1
10
80.553581281267
20
4.97722115430403
30
0
41
1
10
80.5360728666077
20
4.9884849312991
30
0
41
1
10
80.5275507731442
20
4.9948158138582
30
0
41
1
10
80.5113306953597
20
5.00882222027693
30
0
41
1
10
80.5035880862877
20
5.01652312034213
30
0
41
1
10
80.4889606751359
20
5.0335547401271
30
0
41
1
10
80.4820937766955
20
5.04288770966863
30
0
41
1
10
80.4759242832065
20
5.05290736546684
30
0
0
SPLINE
5
FA
100
AcDbEntity
8
1
62
256
6
ByLayer
370
18
48
1
60
0
100
AcDbSpline
70
4
71
3
72
8
73
4
40
0
40
0
40
0
40
0
40
1
40
1
40
1
40
1
41
1
10
80.4759242832021
20
5.05290736547616
30
0
41
1
10
80.4653222805763
20
5.07012570232726
30
0
41
1
10
80.4547283799365
20
5.08730784841549
30
0
41
1
10
80.4441422879591
20
5.10445403002291
30
0
0
SPLINE
5
FB
100
AcDbEntity
8
1
62
256
6
ByLayer
370
18
48
1
60
0
100
AcDbSpline
70
4
71
3
72
14
73
10
40
0
40
0
40
0
40
0
40
0.25
40
0.25
40
0.5
40
0.5
40
0.75
40
0.75
40
1
40
1
40
1
40
1
41
1
10
80.4441422879591
20
5.10445403002291
30
0
41
1
10
80.3485735131613
20
5.11897140653494
30
0
41
1
10
80.2533007945255
20
5.13147770921952
30
0
41
1
10
80.0631812556871
20
5.15241098381466
30
0
41
1
10
79.9682857966077
20
5.16082385269985
30
0
41
1
10
79.779463156106
20
5.17355078692032
30
0
41
1
10
79.6853170227218
20
5.17794939206672
30
0
41
1
10
79.4979433228096
20
5.18255379741802
30
0
41
1
10
79.4047791520141
20
5.1827198296653
30
0
41
1
10
79.312067915555
20
5.18075164929417
30
0
0
SPLINE
5
FC
100
AcDbEntity
8
1
62
256
6
ByLayer
370
18
48
1
60
0
100
AcDbSpline
70
4
71
3
72
8
73
4
40
0
40
0
40
0
40
0
40
1
40
1
40
1
40
1
41
1
10
79.3120679155551
20
5.18075164929402
30
0
41
1
10
79.2408071615248
20
5.04203601531256
30
0
41
1
10
79.169210512657
20
4.90165738760098
30
0
41
1
10
79.097270274757
20
4.75981672184585
30
0
0
SPLINE
5
FD
100
AcDbEntity
8
1
62
256
6
ByLayer
370
18
48
1
60
0
100
AcDbSpline
70
4
71
3
72
32
73
28
40
0
40
0
40
0
40
0
40
0.124999999999978
40
0.124999999999978
40
0.187499999999952
40
0.187499999999952
40
0.249999999999925
40
0.249999999999925
40
0.374999999999913
40
0.374999999999913
40
0.437499999999908
40
0.437499999999908
40
0.499999999999902
40
0.499999999999902
40
0.624999999999891
40
0.624999999999891
40
0.687499999999909
40
0.687499999999909
40
0.749999999999927
40
0.749999999999927
40
0.812499999999945
40
0.812499999999945
40
0.874999999999964
40
0.874999999999964
40
0.937499999999982
40
0.937499999999982
40
1
40
1
40
1
40
1
41
1
10
79.097270274757
20
4.75981672184585
30
0
41
1
10
79.0847631016346
20
4.73515700686323
30
0
41
1
10
79.0702568388727
20
4.7127887674138
30
0
41
1
10
79.0462079127455
20
4.68183596576625
30
0
41
1
10
79.0377992775731
20
4.67196021486805
30
0
41
1
10
79.0202510307363
20
4.6530570861313
30
0
41
1
10
79.0112318841302
20
4.64415866729996
30
0
41
1
10
78.9835070127636
20
4.61897853280655
30
0
41
1
10
78.9641406937305
20
4.60419305892918
30
0
41
1
10
78.9338596019455
20
4.58487883660115
30
0
41
1
10
78.9235586878897
20
4.57892314589176
30
0
41
1
10
78.9025345344115
20
4.56801465393548
30
0
41
1
10
78.8919072388003
20
4.56311463748125
30
0
41
1
10
78.8599209173633
20
4.55018931968564
30
0
41
1
10
78.838364535577
20
4.543859179636
30
0
41
1
10
78.8057037048969
20
4.53823650847349
30
0
41
1
10
78.7947618691262
20
4.53701395461809
30
0
41
1
10
78.772763954825
20
4.53606214430766
30
0
41
1
10
78.761753246763
20
4.5363454701249
30
0
41
1
10
78.7401787765719
20
4.53859488296564
30
0
41
1
10
78.729553265262
20
4.54055477312843
30
0
41
1
10
78.7086879400233
20
4.54640782334522
30
0
41
1
10
78.6983727345652
20
4.55034520470707
30
0
41
1
10
78.6787912084036
20
4.56030683500097
30
0
41
1
10
78.6694836500555
20
4.56632242000615
30
0
41
1
10
78.6520063999298
20
4.58078948554248
30
0
41
1
10
78.6438210452943
20
4.58929182395116
30
0
41
1
10
78.6365913807
20
4.59898766117092
30
0
0
SPLINE
5
FE
100
AcDbEntity
8
1
62
256
6
ByLayer
370
18
48
1
60
0
100
AcDbSpline
70
4
71
3
72
10
73
6
40
0
40
0
40
0
40
0
40
0.5
40
0.5
40
1
40
1
40
1
40
1
41
1
10
78.6365913806957
20
4.59898766118189
30
0
41
1
10
78.5753608553639
20
4.6811050538798
30
0
41
1
10
78.5144017770259
20
4.76106985923997
30
0
41
1
10
78.3929213933334
20
4.91679333447621
30
0
41
1
10
78.3324397664262
20
4.99249824898857
30
0
41
1
10
78.2722408899489
20
5.06599080615493
30
0
0
SPLINE
5
FF
100
AcDbEntity
8
1
62
256
6
ByLayer
370
18
48
1
60
0
100
AcDbSpline
70
4
71
3
72
10
73
6
40
0
40
0
40
0
40
0
40
0.5
40
0.5
40
1
40
1
40
1
40
1
41
1
10
78.2722408899488
20
5.06599080615484
30
0
41
1
10
78.1809112079032
20
5.04757087517646
30
0
41
1
10
78.0897445230977
20
5.02695890318554
30
0
41
1
10
77.9076246233221
20
4.9812820811151
30
0
41
1
10
77.8166919151936
20
4.95619652361756
30
0
41
1
10
77.7257710903961
20
4.92891530018844
30
0
0
SPLINE
5
100
100
AcDbEntity
8
1
62
256
6
ByLayer
370
18
48
1
60
0
100
AcDbSpline
70
4
71
3
72
12
73
8
40
0
40
0
40
0
40
0
40
0.499999999999992
40
0.499999999999992
40
0.749999999999996
40
0.749999999999996
40
1
40
1
40
1
40
1
41
1
10
77.7257710903964
20
4.92891530018827
30
0
41
1
10
77.6487408322332
20
4.76576180835076
30
0
41
1
10
77.5711518580629
20
4.6018642755233
30
0
41
1
10
77.4541296599084
20
4.35571087586837
30
0
41
1
10
77.4149971710495
20
4.27357388873645
30
0
41
1
10
77.3365342022655
20
4.10933350462292
30
0
41
1
10
77.2971971516519
20
4.02721679729231
30
0
41
1
10
77.2577378023438
20
3.94511133584632
30
0
0
SPLINE
5
101
100
AcDbEntity
8
1
62
256
6
ByLayer
370
18
48
1
60
0
100
AcDbSpline
70
4
71
3
72
24
73
20
40
0
40
0
40
0
40
0
40
0.103983813558022
40
0.103983813558022
40
0.283187050846456
40
0.283187050846456
40
0.372788669490674
40
0.372788669490674
40
0.462390288134891
40
0.462390288134891
40
0.641593525423261
40
0.641593525423261
40
0.731195144067445
40
0.731195144067445
40
0.82079676271163
40
0.82079676271163
40
0.910398381355815
40
0.910398381355815
40
1
40
1
40
1
40
1
41
1
10
73.6444125591617
20
4.97948075864878
30
0
41
1
10
73.6562889408968
20
4.9744026001494
30
0
41
1
10
73.6684095352545
20
4.97014849715475
30
0
41
1
10
73.701967601609
20
4.96071545499299
30
0
41
1
10
73.7233313495183
20
4.95721938651576
30
0
41
1
10
73.7554990344327
20
4.95545454203429
30
0
41
1
10
73.7662422385376
20
4.955452589316
30
0
41
1
10
73.7877611225092
20
4.95665921320642
30
0
41
1
10
73.7985464999669
20
4.95787641494718
30
0
41
1
10
73.830322669195
20
4.96333648281171
30
0
41
1
10
73.8509456996201
20
4.96935861078134
30
0
41
1
10
73.8808785847861
20
4.98239634262364
30
0
41
1
10
73.8906877383583
20
4.98741629937621
30
0
41
1
10
73.9099132176717
20
4.99899996320801
30
0
41
1
10
73.9193546000285
20
5.00559867403024
30
0
41
1
10
73.9372065386023
20
5.02016819625985
30
0
41
1
10
73.9456874838249
20
5.0281727109946
30
0
41
1
10
73.9616348366077
20
5.04582456420007
30
0
41
1
10
73.9691036352213
20
5.05546781420725
30
0
41
1
10
73.9759507691585
20
5.06612394824512
30
0
0
SPLINE
5
102
100
AcDbEntity
8
1
62
256
6
ByLayer
370
18
48
1
60
0
100
AcDbSpline
70
4
71
3
72
10
73
6
40
0
40
0
40
0
40
0
40
0.5
40
0.5
40
1
40
1
40
1
40
1
41
1
10
73.9759507691585
20
5.06612394824515
30
0
41
1
10
74.077283014056
20
5.22382642549996
30
0
41
1
10
74.1775845474006
20
5.37688210395487
30
0
41
1
10
74.3767444383564
20
5.67366552563797
30
0
41
1
10
74.4753178585097
20
5.81696859231067
30
0
41
1
10
74.5731118264381
20
5.95507844617578
30
0
0
SPLINE
5
103
100
AcDbEntity
8
1
62
256
6
ByLayer
370
18
48
1
60
0
100
AcDbSpline
70
4
71
3
72
8
73
4
40
0
40
0
40
0
40
0
40
1
40
1
40
1
40
1
41
1
10
74.7550425362018
20
5.91391361992035
30
0
41
1
10
74.6944496651708
20
5.92861406341444
30
0
41
1
10
74.6338065588032
20
5.94233697203146
30
0
41
1
10
74.5731118264381
20
5.95507844617572
30
0
0
SPLINE
5
104
100
AcDbEntity
8
1
62
256
6
ByLayer
370
18
48
1
60
0
100
AcDbSpline
70
4
71
3
72
10
73
6
40
0
40
0
40
0
40
0
40
0.5
40
0.5
40
1
40
1
40
1
40
1
41
1
10
74.7550425362011
20
5.91391361990492
30
0
41
1
10
74.8531828978621
20
5.73243777447283
30
0
41
1
10
74.9521229957683
20
5.54871415595261
30
0
41
1
10
75.1520321831808
20
5.17724493524426
30
0
41
1
10
75.2527249741052
20
4.9900225009477
30
0
41
1
10
75.3544591473235
20
4.80144655831234
30
0
0
SPLINE
5
105
100
AcDbEntity
8
1
62
256
6
ByLayer
370
18
48
1
60
0
100
AcDbSpline
70
4
71
3
72
34
73
30
40
0
40
0
40
0
40
0
40
0.0624999999999949
40
0.0624999999999949
40
0.12499999999999
40
0.12499999999999
40
0.187499999999985
40
0.187499999999985
40
0.24999999999998
40
0.24999999999998
40
0.312499999999975
40
0.312499999999975
40
0.37499999999997
40
0.37499999999997
40
0.49999999999996
40
0.49999999999996
40
0.562499999999955
40
0.562499999999955
40
0.62499999999995
40
0.62499999999995
40
0.749999999999939
40
0.749999999999939
40
0.812499999999954
40
0.812499999999954
40
0.874999999999969
40
0.874999999999969
40
0.937499999999985
40
0.937499999999985
40
1
40
1
40
1
40
1
41
1
10
75.3544591473235
20
4.80144655831234
30
0
41
1
10
75.3612409059254
20
4.78887579196504
30
0
41
1
10
75.3686302460276
20
4.77702132803279
30
0
41
1
10
75.3844008825921
20
4.75447741879455
30
0
41
1
10
75.3927843657226
20
4.74379067189665
30
0
41
1
10
75.4104279735776
20
4.72344615995306
30
0
41
1
10
75.4197428898503
20
4.71374504679852
30
0
41
1
10
75.4387469531277
20
4.69569946367861
30
0
41
1
10
75.4484705655044
20
4.68730590337233
30
0
41
1
10
75.4683067196359
20
4.67163359130305
30
0
41
1
10
75.478419566909
20
4.66435577783892
30
0
41
1
10
75.4990037134204
20
4.65084260645244
30
0
41
1
10
75.509499320669
20
4.64459482080645
30
0
41
1
10
75.541344716948
20
4.62746472745789
30
0
41
1
10
75.5627010407145
20
4.61834714510977
30
0
41
1
10
75.5948589415035
20
4.60789074914291
30
0
41
1
10
75.6055991934532
20
4.60494801553097
30
0
41
1
10
75.6271132665235
20
4.60018009306128
30
0
41
1
10
75.6378874715249
20
4.59836192431837
30
0
41
1
10
75.6696344511147
20
4.59473587579018
30
0
41
1
10
75.6902440704293
20
4.59467293510252
30
0
41
1
10
75.7201641955715
20
4.59852120763995
30
0
41
1
10
75.7299703711167
20
4.60046766611487
30
0
41
1
10
75.7491922947623
20
4.60587911910093
30
0
41
1
10
75.7586250402777
20
4.60936667498046
30
0
41
1
10
75.7764618467053
20
4.61787027140377
30
0
41
1
10
75.7849375676084
20
4.62289921593128
30
0
41
1
10
75.800878679414
20
4.63473307287958
30
0
41
1
10
75.8083464719392
20
4.64153348362638
30
0
41
1
10
75.8151944470738
20
4.64943132696851
30
0
0
SPLINE
5
106
100
AcDbEntity
8
1
62
256
6
ByLayer
370
18
48
1
60
0
100
AcDbSpline
70
4
71
3
72
10
73
6
40
0
40
0
40
0
40
0
40
0.5
40
0.5
40
1
40
1
40
1
40
1
41
1
10
75.8151944470738
20
4.64943132696862
30
0
41
1
10
75.9165520696534
20
4.76632816273911
30
0
41
1
10
76.0168753889103
20
4.87646390060627
30
0
41
1
10
76.216081162205
20
5.08339084611492
30
0
41
1
10
76.3146811799254
20
5.17989168559214
30
0
41
1
10
76.412511751167
20
5.26945947046906
30
0
0
SPLINE
5
107
100
AcDbEntity
8
1
62
256
6
ByLayer
370
18
48
1
60
0
100
AcDbSpline
70
4
71
3
72
8
73
4
40
0
40
0
40
0
40
0
40
1
40
1
40
1
40
1
41
1
10
76.5944928079417
20
5.17117265501997
30
0
41
1
10
76.5338852996378
20
5.204762685378
30
0
41
1
10
76.473109033918
20
5.23758936888402
30
0
41
1
10
76.412511751167
20
5.26945947046909
30
0
0
SPLINE
5
108
100
AcDbEntity
8
1
62
256
6
ByLayer
370
18
48
1
60
0
100
AcDbSpline
70
4
71
3
72
10
73
6
40
0
40
0
40
0
40
0
40
0.5
40
0.5
40
1
40
1
40
1
40
1
41
1
10
76.5944928079417
20
5.17117265502011
30
0
41
1
10
76.6925777691894
20
4.9783748309097
30
0
41
1
10
76.7914493433743
20
4.78611198246676
30
0
41
1
10
76.9913077319193
20
4.4030295318621
30
0
41
1
10
77.0919787998392
20
4.21280867238829
30
0
41
1
10
77.193697963258
20
4.02408410910758
30
0
0
SPLINE
5
109
100
AcDbEntity
8
1
62
256
6
ByLayer
370
18
48
1
60
0
100
AcDbSpline
70
4
71
3
72
36
73
32
40
0
40
0
40
0
40
0
40
0.0625000000000144
40
0.0625000000000144
40
0.125000000000029
40
0.125000000000029
40
0.187500000000043
40
0.187500000000043
40
0.250000000000058
40
0.250000000000058
40
0.312500000000072
40
0.312500000000072
40
0.375000000000086
40
0.375000000000086
40
0.500000000000115
40
0.500000000000115
40
0.562500000000107
40
0.562500000000107
40
0.625000000000099
40
0.625000000000099
40
0.750000000000038
40
0.750000000000038
40
0.812500000000029
40
0.812500000000029
40
0.843750000000024
40
0.843750000000024
40
0.875000000000019
40
0.875000000000019
40
0.93750000000001
40
0.93750000000001
40
1
40
1
40
1
40
1
41
1
10
77.193697963258
20
4.0240841091076
30
0
41
1
10
77.2004849497045
20
4.01149187958006
30
0
41
1
10
77.207882187562
20
3.99933628247777
30
0
41
1
10
77.2236740871784
20
3.97573857862557
30
0
41
1
10
77.2320709818133
20
3.96429807164807
30
0
41
1
10
77.2497470601274
20
3.94204817002836
30
0
41
1
10
77.2590802748413
20
3.93118761217303
30
0
41
1
10
77.2781190269197
20
3.91052113818412
30
0
41
1
10
77.2878612660083
20
3.90066141572416
30
0
41
1
10
77.3077364489441
20
3.88177916713661
30
0
41
1
10
77.3178696645275
20
3.87275731406748
30
0
41
1
10
77.3384956605656
20
3.85549378643586
30
0
41
1
10
77.3490180015937
20
3.84723097578663
30
0
41
1
10
77.3809030587221
20
3.82372542529924
30
0
41
1
10
77.4022815450368
20
3.80995407635473
30
0
41
1
10
77.4344593169486
20
3.79192299631157
30
0
41
1
10
77.4452039169568
20
3.78635523610347
30
0
41
1
10
77.46672155797
20
3.77612586005529
30
0
41
1
10
77.4774792077862
20
3.77147684882334
30
0
41
1
10
77.5091794784952
20
3.75917783088173
30
0
41
1
10
77.5297558644967
20
3.75304999582627
30
0
41
1
10
77.5596273803909
20
3.74731047946139
30
0
41
1
10
77.5694175497252
20
3.74597852226188
30
0
41
1
10
77.5838110063175
20
3.74497736946407
30
0
41
1
10
77.5885771727658
20
3.74481107458897
30
0
41
1
10
77.5978926756244
20
3.74484247789198
30
0
41
1
10
77.6024449790748
20
3.74503844392231
30
0
41
1
10
77.6157717598356
20
3.74619145591399
30
0
41
1
10
77.6242186728437
20
3.74770908414592
30
0
41
1
10
77.6401133700711
20
3.75246262423443
30
0
41
1
10
77.6475635505376
20
3.75569406663252
30
0
41
1
10
77.6543998470645
20
3.75999181850074
30
0
0
SPLINE
5
10A
100
AcDbEntity
8
1
62
256
6
ByLayer
370
18
48
1
60
0
100
AcDbSpline
70
4
71
3
72
30
73
26
40
0
40
0
40
0
40
0
40
0.0555075424104833
40
0.0555075424104833
40
0.128160808378885
40
0.128160808378885
40
0.273467340315687
40
0.273467340315687
40
0.346120606284113
40
0.346120606284113
40
0.41877387225254
40
0.41877387225254
40
0.564080404189446
40
0.564080404189446
40
0.636733670157871
40
0.636733670157871
40
0.709386936126297
40
0.709386936126297
40
0.782040202094723
40
0.782040202094723
40
0.854693468063149
40
0.854693468063149
40
0.927346734031574
40
0.927346734031574
40
1
40
1
40
1
40
1
41
1
10
74.7564008407629
20
-5.01880505204991
30
0
41
1
10
74.7501366035783
20
-5.01274881825404
30
0
41
1
10
74.743647071462
20
-5.00699488670142
30
0
41
1
10
74.72817030703
20
-4.99438305711655
30
0
41
1
10
74.7191516031805
20
-4.9878309094556
30
0
41
1
10
74.6914279962271
20
-4.96981226628458
30
0
41
1
10
74.6720631152518
20
-4.95996290184539
30
0
41
1
10
74.6417847390707
20
-4.94829596087348
30
0
41
1
10
74.6314847196429
20
-4.94493037559585
30
0
41
1
10
74.6104618735368
20
-4.93929066188889
30
0
41
1
10
74.599835134513
20
-4.93704530213472
30
0
41
1
10
74.5678493769944
20
-4.93209359410824
30
0
41
1
10
74.5462919541684
20
-4.93111523871821
30
0
41
1
10
74.5136277209662
20
-4.93360700727777
30
0
41
1
10
74.5026844684373
20
-4.93510387120429
30
0
41
1
10
74.4806836239138
20
-4.93962848818236
30
0
41
1
10
74.4696721117905
20
-4.94265743669317
30
0
41
1
10
74.4480966381886
20
-4.95030323764354
30
0
41
1
10
74.4374709998116
20
-4.95492919903364
30
0
41
1
10
74.4166056446165
20
-4.96604412790018
30
0
41
1
10
74.4062906365368
20
-4.97259664143115
30
0
41
1
10
74.3867105586836
20
-4.98755860274932
30
0
41
1
10
74.3774040165916
20
-4.99596972179631
30
0
41
1
10
74.3599293670802
20
-5.01498096703438
30
0
41
1
10
74.3517456306967
20
-5.02563663423399
30
0
41
1
10
74.3445175489947
20
-5.03726318962512
30
0
0
SPLINE
5
10B
100
AcDbEntity
8
1
62
256
6
ByLayer
370
18
48
1
60
0
100
AcDbSpline
70
4
71
3
72
14
73
10
40
0
40
0
40
0
40
0
40
0.25
40
0.25
40
0.5
40
0.5
40
0.75
40
0.75
40
1
40
1
40
1
40
1
41
1
10
74.3445175489904
20
-5.03726318963444
30
0
41
1
10
74.2950116486097
20
-5.11689470415681
30
0
41
1
10
74.2456810621801
20
-5.19569301717453
30
0
41
1
10
74.1473171462791
20
-5.35163258867613
30
0
41
1
10
74.0982748525626
20
-5.42878668934253
30
0
41
1
10
74.0006012343688
20
-5.58117141389062
30
0
41
1
10
73.9519316995979
20
-5.65646182119667
30
0
41
1
10
73.8549916206992
20
-5.80505293526539
30
0
41
1
10
73.8067370905764
20
-5.87832855808125
30
0
41
1
10
73.7586661086724
20
-5.95059408205705
30
0
0
SPLINE
5
10C
100
AcDbEntity
8
1
62
256
6
ByLayer
370
18
48
1
60
0
100
AcDbSpline
70
4
71
3
72
14
73
10
40
0
40
0
40
0
40
0
40
0.25
40
0.25
40
0.5
40
0.5
40
0.75
40
0.75
40
1
40
1
40
1
40
1
41
1
10
73.576670544098
20
-5.90840588719044
30
0
41
1
10
73.5265566851292
20
-5.8128104885983
30
0
41
1
10
73.4762664490088
20
-5.7162109298863
30
0
41
1
10
73.3752321470452
20
-5.52099848971514
30
0
41
1
10
73.3244784567837
20
-5.42235753942669
30
0
41
1
10
73.2226276955152
20
-5.22339786006637
30
0
41
1
10
73.1715112831724
20
-5.12304473309931
30
0
41
1
10
73.0689094808095
20
-4.92078715419535
30
0
41
1
10
73.0174445803723
20
-4.8189234649013
30
0
41
1
10
72.9657748126179
20
-4.7163321324656
30
0
0
SPLINE
5
10D
100
AcDbEntity
8
1
62
256
6
ByLayer
370
18
48
1
60
0
100
AcDbSpline
70
4
71
3
72
32
73
28
40
0
40
0
40
0
40
0
40
0.125000000000083
40
0.125000000000083
40
0.187500000000107
40
0.187500000000107
40
0.250000000000132
40
0.250000000000132
40
0.37500000000014
40
0.37500000000014
40
0.437500000000145
40
0.437500000000145
40
0.500000000000149
40
0.500000000000149
40
0.625000000000112
40
0.625000000000112
40
0.687500000000093
40
0.687500000000093
40
0.750000000000074
40
0.750000000000074
40
0.812500000000056
40
0.812500000000056
40
0.875000000000037
40
0.875000000000037
40
0.937500000000019
40
0.937500000000019
40
1
40
1
40
1
40
1
41
1
10
72.9657748126179
20
-4.71633213246554
30
0
41
1
10
72.9532751780598
20
-4.69151386406577
30
0
41
1
10
72.9387766439841
20
-4.66894182626555
30
0
41
1
10
72.9147360494531
20
-4.63763487660458
30
0
41
1
10
72.9063308109313
20
-4.62763398767046
30
0
41
1
10
72.8887833034004
20
-4.60846040439918
30
0
41
1
10
72.8797640513964
20
-4.5994215402194
30
0
41
1
10
72.85203735572
20
-4.57380608145718
30
0
41
1
10
72.8326683954691
20
-4.55871199510506
30
0
41
1
10
72.8023809032561
20
-4.53890844097671
30
0
41
1
10
72.7920773730332
20
-4.53278518517013
30
0
41
1
10
72.7710464128212
20
-4.52153244742857
30
0
41
1
10
72.7604175078262
20
-4.51645857640622
30
0
41
1
10
72.7284226934652
20
-4.50300532813409
30
0
41
1
10
72.7068590513458
20
-4.49631538192807
30
0
41
1
10
72.674186610114
20
-4.490138035716
30
0
41
1
10
72.6632408248268
20
-4.48872804493442
30
0
41
1
10
72.6412357264691
20
-4.48739452373181
30
0
41
1
10
72.6302296175692
20
-4.48748437100062
30
0
41
1
10
72.6086630203521
20
-4.48934516841115
30
0
41
1
10
72.5980425335849
20
-4.49110912272042
30
0
41
1
10
72.5771889855868
20
-4.49656595470682
30
0
41
1
10
72.5668815674065
20
-4.50030136300421
30
0
41
1
10
72.5473214608395
20
-4.50986000230657
30
0
41
1
10
72.538025263485
20
-4.51567490011334
30
0
41
1
10
72.520571166525
20
-4.52974000999197
30
0
41
1
10
72.5123981918696
20
-4.53803990553305
30
0
41
1
10
72.5051790512145
20
-4.54753848868691
30
0
0
SPLINE
5
10E
100
AcDbEntity
8
1
62
256
6
ByLayer
370
18
48
1
60
0
100
AcDbSpline
70
4
71
3
72
14
73
10
40
0
40
0
40
0
40
0
40
0.25
40
0.25
40
0.5
40
0.5
40
0.75
40
0.75
40
1
40
1
40
1
40
1
41
1
10
72.5051790512103
20
-4.54753848869791
30
0
41
1
10
72.455664540525
20
-4.61268719816331
30
0
41
1
10
72.4063276736407
20
-4.676380761346
30
0
41
1
10
72.307954856529
20
-4.80089954604378
30
0
41
1
10
72.2589106826311
20
-4.86173314140925
30
0
41
1
10
72.1612375787471
20
-4.98035436443996
30
0
41
1
10
72.1125695559022
20
-5.03819028672777
30
0
41
1
10
72.0156354157168
20
-5.15080126527195
30
0
41
1
10
71.9673841651741
20
-5.20556010948329
30
0
41
1
10
71.9193174251145
20
-5.25879207089096
30
0
0
SPLINE
5
10F
100
AcDbEntity
8
1
62
256
6
ByLayer
370
18
48
1
60
0
100
AcDbSpline
70
4
71
3
72
8
73
4
40
0
40
0
40
0
40
0
40
1
40
1
40
1
40
1
41
1
10
71.7372868015582
20
-5.15913104823747
30
0
41
1
10
71.7979323617264
20
-5.19323767981405
30
0
41
1
10
71.8586048395724
20
-5.22645986362767
30
0
41
1
10
71.9193174251145
20
-5.25879207089093
30
0
0
SPLINE
5
110
100
AcDbEntity
8
1
62
256
6
ByLayer
370
18
48
1
60
0
100
AcDbSpline
70
4
71
3
72
14
73
10
40
0
40
0
40
0
40
0
40
0.25
40
0.25
40
0.5
40
0.5
40
0.75
40
0.75
40
1
40
1
40
1
40
1
41
1
10
71.7372868015581
20
-5.15913104823747
30
0
41
1
10
71.6871254497026
20
-5.0523219531328
30
0
41
1
10
71.6368145425797
20
-4.94526700501166
30
0
41
1
10
71.5358227106579
20
-4.73069081662698
30
0
41
1
10
71.4851199800717
20
-4.62312289347187
30
0
41
1
10
71.3833319226004
20
-4.40784177095992
30
0
41
1
10
71.332222519728
20
-4.30009450960242
30
0
41
1
10
71.2295555554061
20
-4.08464755874675
30
0
41
1
10
71.1780234173952
20
-3.97699485811177
30
0
41
1
10
71.1262787832878
20
-3.86942030252644
30
0
0
SPLINE
5
111
100
AcDbEntity
8
1
62
256
6
ByLayer
370
18
48
1
60
0
100
AcDbSpline
70
4
71
3
72
10
73
6
40
0
40
0
40
0
40
0
40
0.5
40
0.5
40
1
40
1
40
1
40
1
41
1
10
66.0057783725585
20
-4.94224479085153
30
0
41
1
10
66.1070388738149
20
-5.12501932219183
30
0
41
1
10
66.2072710770576
20
-5.30595601092026
30
0
41
1
10
66.4062877904992
20
-5.66392764368783
30
0
41
1
10
66.5047831011785
20
-5.84044077841648
30
0
41
1
10
66.6024754066408
20
-6.01428011994415
30
0
0
SPLINE
5
112
100
AcDbEntity
8
1
62
256
6
ByLayer
370
18
48
1
60
0
100
AcDbSpline
70
4
71
3
72
10
73
6
40
0
40
0
40
0
40
0
40
0.5
40
0.5
40
1
40
1
40
1
40
1
41
1
10
66.7844148775375
20
-6.0387356307414
30
0
41
1
10
66.882658117435
20
-5.89025797534384
30
0
41
1
10
66.981684417369
20
-5.73687405149929
30
0
41
1
10
67.18172892032
20
-5.42061182720266
30
0
41
1
10
67.2824789239254
20
-5.2581339728778
30
0
41
1
10
67.3844343243584
20
-5.09104394957987
30
0
0
SPLINE
5
113
100
AcDbEntity
8
1
62
256
6
ByLayer
370
18
48
1
60
0
100
AcDbSpline
70
4
71
3
72
34
73
30
40
0
40
0
40
0
40
0
40
0.0625000000000419
40
0.0625000000000419
40
0.125000000000084
40
0.125000000000084
40
0.187500000000126
40
0.187500000000126
40
0.250000000000167
40
0.250000000000167
40
0.375000000000208
40
0.375000000000208
40
0.437500000000206
40
0.437500000000206
40
0.500000000000204
40
0.500000000000204
40
0.625000000000153
40
0.625000000000153
40
0.687500000000127
40
0.687500000000127
40
0.750000000000102
40
0.750000000000102
40
0.812500000000076
40
0.812500000000076
40
0.875000000000051
40
0.875000000000051
40
0.937500000000025
40
0.937500000000025
40
1
40
1
40
1
40
1
41
1
10
67.3844343243584
20
-5.09104394957984
30
0
41
1
10
67.3911972337929
20
-5.07996052790557
30
0
41
1
10
67.3985465297438
20
-5.06982781140636
30
0
41
1
10
67.4141925039062
20
-5.05108655545158
30
0
41
1
10
67.4224914941304
20
-5.04248195596961
30
0
41
1
10
67.4399200022908
20
-5.0266055958557
30
0
41
1
10
67.4490504736511
20
-5.01933534724182
30
0
41
1
10
67.4680803066334
20
-5.00603219669023
30
0
41
1
10
67.4778332624421
20
-5.00010388468499
30
0
41
1
10
67.5075578417496
20
-4.98432222709104
30
0
41
1
10
67.5280608859785
20
-4.9763955577229
30
0
41
1
10
67.5596937368686
20
-4.96798478982868
30
0
41
1
10
67.5704305405996
20
-4.96576502424892
30
0
41
1
10
67.5918624739361
20
-4.9625520047357
30
0
41
1
10
67.60257993175
20
-4.96154757932052
30
0
41
1
10
67.6347214390636
20
-4.96029657183985
30
0
41
1
10
67.6561352351987
20
-4.96178551524605
30
0
41
1
10
67.6881692151798
20
-4.96778703120356
30
0
41
1
10
67.69877844237
20
-4.97041774822978
30
0
41
1
10
67.7195764262273
20
-4.97692344955831
30
0
41
1
10
67.7298045613741
20
-4.98080471494052
30
0
41
1
10
67.749885149399
20
-4.98991650567288
30
0
41
1
10
67.7597378946682
20
-4.99514574480298
30
0
41
1
10
67.7790116416812
20
-5.0071309438643
30
0
41
1
10
67.7884520838327
20
-5.01391694317601
30
0
41
1
10
67.806312196946
20
-5.02885409937858
30
0
41
1
10
67.8147968022726
20
-5.03703774388865
30
0
41
1
10
67.8307502690014
20
-5.05503765435
30
0
41
1
10
67.8382215365074
20
-5.06484983958251
30
0
41
1
10
67.8450701346028
20
-5.07566903140489
30
0
0
SPLINE
5
114
100
AcDbEntity
8
1
62
256
6
ByLayer
370
18
48
1
60
0
100
AcDbSpline
70
4
71
3
72
10
73
6
40
0
40
0
40
0
40
0
40
0.5
40
0.5
40
1
40
1
40
1
40
1
41
1
10
67.8450701346027
20
-5.07566903140491
30
0
41
1
10
67.9463367174729
20
-5.23564667500753
30
0
41
1
10
68.0465771512117
20
-5.39119219547129
30
0
41
1
10
68.245621243229
20
-5.69335290844853
30
0
41
1
10
68.3441420193646
20
-5.83953383618172
30
0
41
1
10
68.4418793393384
20
-5.98071441035989
30
0
0
SPLINE
5
115
100
AcDbEntity
8
1
62
256
6
ByLayer
370
18
48
1
60
0
100
AcDbSpline
70
4
71
3
72
8
73
4
40
0
40
0
40
0
40
0
40
1
40
1
40
1
40
1
41
1
10
68.6237950656711
20
-5.94375747591417
30
0
41
1
10
68.5631260912953
20
-5.95708211835239
30
0
41
1
10
68.5024881657444
20
-5.96939933425398
30
0
41
1
10
68.4418793393384
20
-5.98071441035989
30
0
0
SPLINE
5
116
100
AcDbEntity
8
1
62
256
6
ByLayer
370
18
48
1
60
0
100
AcDbSpline
70
4
71
3
72
10
73
6
40
0
40
0
40
0
40
0
40
0.5
40
0.5
40
1
40
1
40
1
40
1
41
1
10
68.6237950656717
20
-5.94375747589925
30
0
41
1
10
68.7220090569147
20
-5.76351183643911
30
0
41
1
10
68.82101979732
20
-5.5807814432878
30
0
41
1
10
69.0210688186832
20
-5.21083709892847
30
0
41
1
10
69.1218215218431
20
-5.02414381251378
30
0
41
1
10
69.2236197540006
20
-4.83584439358845
30
0
0
SPLINE
5
117
100
AcDbEntity
8
1
62
256
6
ByLayer
370
18
48
1
60
0
100
AcDbSpline
70
4
71
3
72
34
73
30
40
0
40
0
40
0
40
0
40
0.0624999999999944
40
0.0624999999999944
40
0.124999999999989
40
0.124999999999989
40
0.187499999999983
40
0.187499999999983
40
0.249999999999978
40
0.249999999999978
40
0.374999999999966
40
0.374999999999966
40
0.437499999999983
40
0.437499999999983
40
0.5
40
0.5
40
0.625000000000033
40
0.625000000000033
40
0.687500000000028
40
0.687500000000028
40
0.750000000000022
40
0.750000000000022
40
0.812500000000016
40
0.812500000000016
40
0.875000000000011
40
0.875000000000011
40
0.937500000000005
40
0.937500000000005
40
1
40
1
40
1
40
1
41
1
10
69.2236197540006
20
-4.83584439358845
30
0
41
1
10
69.2303932772834
20
-4.82331519272529
30
0
41
1
10
69.2377536705419
20
-4.81154871090919
30
0
41
1
10
69.2534209340389
20
-4.78923915556393
30
0
41
1
10
69.2617301370146
20
-4.77869922263886
30
0
41
1
10
69.2791776634718
20
-4.75868855400009
30
0
41
1
10
69.2883169452142
20
-4.7492190430161
30
0
41
1
10
69.3073633400068
20
-4.73127098416575
30
0
41
1
10
69.3171211178281
20
-4.72293504964517
30
0
41
1
10
69.3468620407131
20
-4.69973024802985
30
0
41
1
10
69.3673734421729
20
-4.68657848475354
30
0
41
1
10
69.3990130662651
20
-4.66994153454255
30
0
41
1
10
69.4097507536485
20
-4.66490234919758
30
0
41
1
10
69.4311818411164
20
-4.65600199067938
30
0
41
1
10
69.4418981222116
20
-4.6521238763865
30
0
41
1
10
69.474034059959
20
-4.64215791500396
30
0
41
1
10
69.4954414498437
20
-4.63771328578571
30
0
41
1
10
69.5274626623318
20
-4.63458926378109
30
0
41
1
10
69.5380674444101
20
-4.63415518733282
30
0
41
1
10
69.5588571974746
20
-4.63455725115625
30
0
41
1
10
69.569081395247
20
-4.63538856735047
30
0
41
1
10
69.5891545242521
20
-4.63840146053514
30
0
41
1
10
69.5990037498788
20
-4.64058173603723
30
0
41
1
10
69.6182708469574
20
-4.64646769498441
30
0
41
1
10
69.6277102212176
20
-4.65019652422518
30
0
41
1
10
69.6455714218102
20
-4.65918980202653
30
0
41
1
10
69.6540574185429
20
-4.6644663234909
30
0
41
1
10
69.6700149369604
20
-4.67680091767417
30
0
41
1
10
69.6774888700111
20
-4.68385447968291
30
0
41
1
10
69.6843405441367
20
-4.6920085405165
30
0
0
SPLINE
5
118
100
AcDbEntity
8
1
62
256
6
ByLayer
370
18
48
1
60
0
100
AcDbSpline
70
4
71
3
72
10
73
6
40
0
40
0
40
0
40
0
40
0.5
40
0.5
40
1
40
1
40
1
40
1
41
1
10
69.6843405441367
20
-4.69200854051655
30
0
41
1
10
69.7856215185153
20
-4.81254130538792
30
0
41
1
10
69.8858800113557
20
-4.92651039626224
30
0
41
1
10
70.0849672755239
20
-5.14143700720385
30
0
41
1
10
70.1835166675006
20
-5.24209349438192
30
0
41
1
10
70.2812940876662
20
-5.3359573253
30
0
0
SPLINE
5
119
100
AcDbEntity
8
1
62
256
6
ByLayer
370
18
48
1
60
0
100
AcDbSpline
70
4
71
3
72
8
73
4
40
0
40
0
40
0
40
0
40
1
40
1
40
1
40
1
41
1
10
70.4632394698218
20
-5.24143829430227
30
0
41
1
10
70.4025430379897
20
-5.27384676458689
30
0
41
1
10
70.3418953608397
20
-5.30535222719664
30
0
41
1
10
70.2812940876662
20
-5.33595732530006
30
0
0
SPLINE
5
11A
100
AcDbEntity
8
1
62
256
6
ByLayer
370
18
48
1
60
0
100
AcDbSpline
70
4
71
3
72
10
73
6
40
0
40
0
40
0
40
0
40
0.5
40
0.5
40
1
40
1
40
1
40
1
41
1
10
70.4632394698218
20
-5.2414382943023
30
0
41
1
10
70.56139225807
20
-5.04821547521374
30
0
41
1
10
70.6603555079716
20
-4.85522177178831
30
0
41
1
10
70.8603247166083
20
-4.47028817842198
30
0
41
1
10
70.9610455182914
20
-4.27888768780616
30
0
41
1
10
71.0628372042725
20
-4.08874866838974
30
0
0
SPLINE
5
11B
100
AcDbEntity
8
1
62
256
6
ByLayer
370
18
48
1
60
0
100
AcDbSpline
70
4
71
3
72
16
73
12
40
0
40
0
40
0
40
0
40
0.248601441747699
40
0.248601441747699
40
0.497202883495398
40
0.497202883495398
40
0.745804325243096
40
0.745804325243096
40
0.994405766990795
40
0.994405766990795
40
1
40
1
40
1
40
1
41
1
10
71.0628372042726
20
-4.08874866838971
30
0
41
1
10
71.0696113786694
20
-4.07609503302908
30
0
41
1
10
71.0769920705134
20
-4.06389967243643
30
0
41
1
10
71.0927451574348
20
-4.04025769160378
30
0
41
1
10
71.1011197462061
20
-4.0288127386666
30
0
41
1
10
71.1187463710891
20
-4.00658521085532
30
0
41
1
10
71.1280543911555
20
-3.99574915928613
30
0
41
1
10
71.1470534738205
20
-3.97514640268301
30
0
41
1
10
71.1567761284348
20
-3.96533128429249
30
0
41
1
10
71.1669177129319
20
-3.9557352109625
30
0
41
1
10
71.1671410085434
20
-3.95552423644537
30
0
41
1
10
71.1673644076494
20
-3.95531347371801
30
0
0
SPLINE
5
11C
100
AcDbEntity
8
1
62
256
6
ByLayer
370
18
48
1
60
0
100
AcDbSpline
70
4
71
3
72
10
73
6
40
0
40
0
40
0
40
0
40
0.5
40
0.5
40
1
40
1
40
1
40
1
41
1
10
79.2497342682581
20
-0.948256440005679
30
0
41
1
10
79.2072796707645
20
-0.94393667528368
30
0
41
1
10
79.1649578343121
20
-0.937948397509018
30
0
41
1
10
79.0805442287564
20
-0.922716375414524
30
0
41
1
10
79.038437217761
20
-0.91346797747002
30
0
41
1
10
78.996467798435
20
-0.90263308698357
30
0
0
SPLINE
5
11D
100
AcDbEntity
8
1
62
256
6
ByLayer
370
18
48
1
60
0
100
AcDbSpline
70
4
71
3
72
8
73
4
40
0
40
0
40
0
40
0
40
1
40
1
40
1
40
1
41
1
10
78.996467798435
20
-0.902633086983627
30
0
41
1
10
78.7469687473196
20
-0.69206754431292
30
0
41
1
10
78.5002630056901
20
-0.472487288603674
30
0
41
1
10
78.2547563058087
20
-0.245344879664458
30
0
0
SPLINE
5
11E
100
AcDbEntity
8
1
62
256
6
ByLayer
370
18
48
1
60
0
100
AcDbSpline
70
4
71
3
72
10
73
6
40
0
40
0
40
0
40
0
40
0.5
40
0.5
40
1
40
1
40
1
40
1
41
1
10
78.2547563058088
20
-0.245344879664458
30
0
41
1
10
78.1913386064543
20
-0.152756452462825
30
0
41
1
10
78.1276238220417
20
-0.0630161971390919
30
0
41
1
10
77.9996300189246
20
0.110327230385281
30
0
41
1
10
77.9353708156202
20
0.193903753414901
30
0
41
1
10
77.8708052237565
20
0.274230520694943
30
0
0
SPLINE
5
11F
100
AcDbEntity
8
1
62
256
6
ByLayer
370
18
48
1
60
0
100
AcDbSpline
70
4
71
3
72
32
73
28
40
0
40
0
40
0
40
0
40
0.124999999999929
40
0.124999999999929
40
0.187499999999911
40
0.187499999999911
40
0.249999999999892
40
0.249999999999892
40
0.374999999999857
40
0.374999999999857
40
0.437499999999839
40
0.437499999999839
40
0.499999999999821
40
0.499999999999821
40
0.62499999999983
40
0.62499999999983
40
0.687499999999859
40
0.687499999999859
40
0.749999999999887
40
0.749999999999887
40
0.812499999999915
40
0.812499999999915
40
0.874999999999943
40
0.874999999999943
40
0.937499999999972
40
0.937499999999972
40
1
40
1
40
1
40
1
41
1
10
77.8708052237565
20
0.274230520694914
30
0
41
1
10
77.8583243083313
20
0.289758165681548
30
0
41
1
10
77.8438545064743
20
0.306290331785306
30
0
41
1
10
77.8198689125146
20
0.332195495657999
30
0
41
1
10
77.8114833579608
20
0.341021796931443
30
0
41
1
10
77.793981716776
20
0.359027264912669
30
0
41
1
10
77.7849859902374
20
0.368082999345802
30
0
41
1
10
77.7573295585468
20
0.395397841369203
30
0
41
1
10
77.7380072104736
20
0.413801533701076
30
0
41
1
10
77.7077742803661
20
0.441710544608753
30
0
41
1
10
77.6974863684419
20
0.45106492968111
30
0
41
1
10
77.6764783167646
20
0.469888677134321
30
0
41
1
10
77.6658466994357
20
0.479277714792033
30
0
41
1
10
77.6338464893306
20
0.507163609236073
30
0
41
1
10
77.6122661023553
20
0.525478897869903
30
0
41
1
10
77.5795594673703
20
0.552582853962321
30
0
41
1
10
77.5686009253456
20
0.561555674218511
30
0
41
1
10
77.5465683234694
20
0.579375685639889
30
0
41
1
10
77.5355257227762
20
0.588195547614703
30
0
41
1
10
77.5139012858134
20
0.60524309531084
30
0
41
1
10
77.5032537260508
20
0.613524634575327
30
0
41
1
10
77.4823507339621
20
0.6295404523309
30
0
41
1
10
77.4720176449478
20
0.637331545753995
30
0
41
1
10
77.4524031934058
20
0.651834839489482
30
0
41
1
10
77.4430850055099
20
0.658577902937793
30
0
41
1
10
77.425597364672
20
0.670871994555114
30
0
41
1
10
77.4174096021838
20
0.676431829300356
30
0
41
1
10
77.4101809620404
20
0.681084400491585
30
0
0
SPLINE
5
120
100
AcDbEntity
8
1
62
256
6
ByLayer
370
18
48
1
60
0
100
AcDbSpline
70
4
71
3
72
14
73
10
40
0
40
0
40
0
40
0
40
0.25
40
0.25
40
0.5
40
0.5
40
0.75
40
0.75
40
1
40
1
40
1
40
1
41
1
10
77.4101809620367
20
0.681084400485474
30
0
41
1
10
77.3606912259853
20
0.712937489813612
30
0
41
1
10
77.3113775086803
20
0.746866678871584
30
0
41
1
10
77.2130497447113
20
0.81878590956876
30
0
41
1
10
77.1640194646153
20
0.856792935685945
30
0
41
1
10
77.0663655652731
20
0.936676422232239
30
0
41
1
10
77.0177086883517
20
0.978578273982492
30
0
41
1
10
76.9207972359199
20
1.06612022773862
30
0
41
1
10
76.8725549966727
20
1.11174984403331
30
0
41
1
10
76.8244944692165
20
1.15919096051638
30
0
0
SPLINE
5
121
100
AcDbEntity
8
1
62
256
6
ByLayer
370
18
48
1
60
0
100
AcDbSpline
70
4
71
3
72
14
73
10
40
0
40
0
40
0
40
0
40
0.25
40
0.25
40
0.5
40
0.5
40
0.75
40
0.75
40
1
40
1
40
1
40
1
41
1
10
76.6425748161029
20
1.34771112561373
30
0
41
1
10
76.5923642127522
20
1.39946777971633
30
0
41
1
10
76.5419992596539
20
1.44907055139606
30
0
41
1
10
76.4408878155698
20
1.54391837336976
30
0
41
1
10
76.3901205529245
20
1.58918033542963
30
0
41
1
10
76.2882572494331
20
1.67516349779376
30
0
41
1
10
76.2371460591226
20
1.71589954517694
30
0
41
1
10
76.1345767687547
20
1.79271525737803
30
0
41
1
10
76.0831384811387
20
1.82878090167648
30
0
41
1
10
76.0315065520462
20
1.86246085687193
30
0
0
SPLINE
5
122
100
AcDbEntity
8
1
62
256
6
ByLayer
370
18
48
1
60
0
100
AcDbSpline
70
4
71
3
72
32
73
28
40
0
40
0
40
0
40
0
40
0.125000000000102
40
0.125000000000102
40
0.187500000000135
40
0.187500000000135
40
0.250000000000169
40
0.250000000000169
40
0.375000000000234
40
0.375000000000234
40
0.437500000000244
40
0.437500000000244
40
0.500000000000254
40
0.500000000000254
40
0.625000000000227
40
0.625000000000227
40
0.687500000000189
40
0.687500000000189
40
0.750000000000151
40
0.750000000000151
40
0.812500000000113
40
0.812500000000113
40
0.875000000000076
40
0.875000000000076
40
0.937500000000038
40
0.937500000000038
40
1
40
1
40
1
40
1
41
1
10
76.0315065520461
20
1.86246085687208
30
0
41
1
10
76.0189971689215
20
1.87062083598897
30
0
41
1
10
76.0044924006004
20
1.88060617961131
30
0
41
1
10
75.9804525577795
20
1.89761948519708
30
0
41
1
10
75.9720471091153
20
1.90364102391041
30
0
41
1
10
75.9545114507675
20
1.91633445351701
30
0
41
1
10
75.9454991913323
20
1.92292093638275
30
0
41
1
10
75.917796300682
20
1.94334131037385
30
0
41
1
10
75.8984470947069
20
1.95782685059788
30
0
41
1
10
75.8681925274142
20
1.98084107742875
30
0
41
1
10
75.8579005321634
20
1.98872931256022
30
0
41
1
10
75.8368936535076
20
2.00496705543486
30
0
41
1
10
75.826269726374
20
2.01324670866481
30
0
41
1
10
75.7942961371573
20
2.03839514732684
30
0
41
1
10
75.772744165827
20
2.05564529239291
30
0
41
1
10
75.740082198599
20
2.08242414428159
30
0
41
1
10
75.7291387125555
20
2.09150254560592
30
0
41
1
10
75.707135049028
20
2.11002289448891
30
0
41
1
10
75.6961080808493
20
2.11943898311657
30
0
41
1
10
75.6745064874298
20
2.13821134844557
30
0
41
1
10
75.6638672660572
20
2.14762125635599
30
0
41
1
10
75.6429742278854
20
2.16650879242087
30
0
41
1
10
75.6326433863652
20
2.17606088855166
30
0
41
1
10
75.6130265232875
20
2.19472272951813
30
0
41
1
10
75.6037028504227
20
2.20386236143861
30
0
41
1
10
75.5861976464465
20
2.22169384262205
30
0
41
1
10
75.5779988947252
20
2.23041153469382
30
0
41
1
10
75.5707591756389
20
2.23856585111469
30
0
0
SPLINE
5
123
100
AcDbEntity
8
1
62
256
6
ByLayer
370
18
48
1
60
0
100
AcDbSpline
70
4
71
3
72
14
73
10
40
0
40
0
40
0
40
0
40
0.25
40
0.25
40
0.5
40
0.5
40
0.75
40
0.75
40
1
40
1
40
1
40
1
41
1
10
75.5707591756348
20
2.23856585111108
30
0
41
1
10
75.5212694802422
20
2.29430760448653
30
0
41
1
10
75.4719518365787
20
2.35171874201043
30
0
41
1
10
75.3736127569438
20
2.4698379489634
30
0
41
1
10
75.3245768657758
20
2.53056244701546
30
0
41
1
10
75.2269102000211
20
2.65504235675468
30
0
41
1
10
75.1782459148434
20
2.71884064786221
30
0
41
1
10
75.0813084071442
20
2.84936075102235
30
0
41
1
10
75.0330549527
20
2.9160533664629
30
0
41
1
10
74.9849849575117
20
2.98413514557686
30
0
0
SPLINE
5
124
100
AcDbEntity
8
1
62
256
6
ByLayer
370
18
48
1
60
0
100
AcDbSpline
70
4
71
3
72
14
73
10
40
0
40
0
40
0
40
0
40
0.25
40
0.25
40
0.5
40
0.5
40
0.75
40
0.75
40
1
40
1
40
1
40
1
41
1
10
74.8030135796382
20
3.15058301114553
30
0
41
1
10
74.75282045805
20
3.1696392109877
30
0
41
1
10
74.7024705504117
20
3.18632216293975
30
0
41
1
10
74.601384419172
20
3.21490678171168
30
0
41
1
10
74.5506270419812
20
3.22681103714675
30
0
41
1
10
74.4487771246092
20
3.24574272438147
30
0
41
1
10
74.3976693256422
20
3.25277496013825
30
0
41
1
10
74.2950986200246
20
3.26189098038893
30
0
41
1
10
74.2436555768669
20
3.26397328575644
30
0
41
1
10
74.1920140012012
20
3.26354039085723
30
0
0
SPLINE
5
125
100
AcDbEntity
8
1
62
256
6
ByLayer
370
18
48
1
60
0
100
AcDbSpline
70
4
71
3
72
14
73
10
40
0
40
0
40
0
40
0
40
0.25
40
0.25
40
0.5
40
0.5
40
0.75
40
0.75
40
1
40
1
40
1
40
1
41
1
10
70.0525749145122
20
5.03190377566517
30
0
41
1
10
70.0030588703222
20
5.11778330160308
30
0
41
1
10
69.9537206228247
20
5.20346547305641
30
0
41
1
10
69.8553448108433
20
5.37441733407817
30
0
41
1
10
69.806301855409
20
5.45969653007998
30
0
41
1
10
69.7086259145995
20
5.62953193343262
30
0
41
1
10
69.6599534808632
20
5.71415621764555
30
0
41
1
10
69.5629967926841
20
5.88259642870801
30
0
41
1
10
69.5147244291165
20
5.96639179545843
30
0
41
1
10
69.4666332325858
20
6.04974679370349
30
0
0
SPLINE
5
126
100
AcDbEntity
8
1
62
256
6
ByLayer
370
18
48
1
60
0
100
AcDbSpline
70
4
71
3
72
14
73
10
40
0
40
0
40
0
40
0
40
0.25
40
0.25
40
0.5
40
0.5
40
0.75
40
0.75
40
1
40
1
40
1
40
1
41
1
10
69.2846141415836
20
6.06480064113291
30
0
41
1
10
69.2345134352073
20
5.98829126404152
30
0
41
1
10
69.1842373723084
20
5.91017487334557
30
0
41
1
10
69.0832363410515
20
5.75066922555209
30
0
41
1
10
69.032490609626
20
5.66924897088435
30
0
41
1
10
68.9306401603368
20
5.50342838748145
30
0
41
1
10
68.8795235819122
20
5.41901038354638
30
0
41
1
10
68.7769349517365
20
5.2473355325852
30
0
41
1
10
68.7254816681373
20
5.16011024356894
30
0
41
1
10
68.6738320073564
20
5.07149824552747
30
0
0
SPLINE
5
127
100
AcDbEntity
8
1
62
256
6
ByLayer
370
18
48
1
60
0
100
AcDbSpline
70
4
71
3
72
32
73
28
40
0
40
0
40
0
40
0
40
0.125000000000057
40
0.125000000000057
40
0.187500000000069
40
0.187500000000069
40
0.25000000000008
40
0.25000000000008
40
0.375000000000103
40
0.375000000000103
40
0.437500000000093
40
0.437500000000093
40
0.500000000000083
40
0.500000000000083
40
0.625000000000062
40
0.625000000000062
40
0.687500000000052
40
0.687500000000052
40
0.750000000000042
40
0.750000000000042
40
0.812500000000031
40
0.812500000000031
40
0.875000000000021
40
0.875000000000021
40
0.93750000000001
40
0.93750000000001
40
1
40
1
40
1
40
1
41
1
10
68.6738320073561
20
5.0714982455269
30
0
41
1
10
68.6613178391234
20
5.05002849269306
30
0
41
1
10
68.6468008318551
20
5.03125652158121
30
0
41
1
10
68.6227310518041
20
5.00615046114783
30
0
41
1
10
68.6143154307708
20
4.99830222578723
30
0
41
1
10
68.596748794104
20
4.98359678791306
30
0
41
1
10
68.5877204793393
20
4.97684166097693
30
0
41
1
10
68.5599687310985
20
4.95821411721164
30
0
41
1
10
68.5405859143491
20
4.94795890122597
30
0
41
1
10
68.5102841190608
20
4.93568077225228
30
0
41
1
10
68.4999769024697
20
4.93211104555132
30
0
41
1
10
68.4789411701243
20
4.92606153465158
30
0
41
1
10
68.4683134334024
20
4.92361348359665
30
0
41
1
10
68.4363215438295
20
4.91805774415377
30
0
41
1
10
68.4147634782935
20
4.91668264366092
30
0
41
1
10
68.3821050056484
20
4.91858409830991
30
0
41
1
10
68.3711648263123
20
4.91988497850105
30
0
41
1
10
68.3491727890424
20
4.92401830806335
30
0
41
1
10
68.3381778655306
20
4.92685007545978
30
0
41
1
10
68.3166297673983
20
4.93411018892101
30
0
41
1
10
68.3060180426966
20
4.93854621584185
30
0
41
1
10
68.2851805944808
20
4.94928754298178
30
0
41
1
10
68.274880912304
20
4.95565445635094
30
0
41
1
10
68.2553329481628
20
4.97025940439838
30
0
41
1
10
68.2460410008222
20
4.97849998530347
30
0
41
1
10
68.2285918190959
20
4.99718942849563
30
0
41
1
10
68.220419003315
20
5.00769328367664
30
0
41
1
10
68.2131982939835
20
5.01918640794006
30
0
0
SPLINE
5
128
100
AcDbEntity
8
1
62
256
6
ByLayer
370
18
48
1
60
0
100
AcDbSpline
70
4
71
3
72
14
73
10
40
0
40
0
40
0
40
0
40
0.25
40
0.25
40
0.5
40
0.5
40
0.75
40
0.75
40
1
40
1
40
1
40
1
41
1
10
68.2131982939767
20
5.0191864079477
30
0
41
1
10
68.1636693483249
20
5.09802109037736
30
0
41
1
10
68.1143196091311
20
5.17596129256816
30
0
41
1
10
68.0159232550041
20
5.33006847186235
30
0
41
1
10
67.966871604542
20
5.4062416532897
30
0
41
1
10
67.8691822284785
20
5.5565711285397
30
0
41
1
10
67.8205047163714
20
5.63078905098672
30
0
41
1
10
67.723550238433
20
5.77715821693292
30
0
41
1
10
67.675285750804
20
5.84929122304192
30
0
41
1
10
67.6272017802964
20
5.92038365077534
30
0
0
SPLINE
5
129
100
AcDbEntity
8
1
62
256
6
ByLayer
370
18
48
1
60
0
100
AcDbSpline
70
4
71
3
72
8
73
4
40
0
40
0
40
0
40
0
40
1
40
1
40
1
40
1
41
1
10
67.4452472080955
20
5.87381223672884
30
0
41
1
10
67.5059279248219
20
5.89033454892609
30
0
41
1
10
67.5665743778942
20
5.90585921257673
30
0
41
1
10
67.6272017802964
20
5.92038365077528
30
0
0
SPLINE
5
12A
100
AcDbEntity
8
1
62
256
6
ByLayer
370
18
48
1
60
0
100
AcDbSpline
70
4
71
3
72
14
73
10
40
0
40
0
40
0
40
0
40
0.25
40
0.25
40
0.5
40
0.5
40
0.75
40
0.75
40
1
40
1
40
1
40
1
41
1
10
67.4452472080955
20
5.87381223672881
30
0
41
1
10
67.3951152627884
20
5.77705648585345
30
0
41
1
10
67.3448201438523
20
5.67937130088154
30
0
41
1
10
67.2438253571043
20
5.48214047516802
30
0
41
1
10
67.1931075600545
20
5.38255276804307
30
0
41
1
10
67.0912621755584
20
5.18174147828213
30
0
41
1
10
67.0401242173813
20
5.08049396235688
30
0
41
1
10
66.9374869941848
20
4.87656742105241
30
0
41
1
10
66.886003385011
20
4.77392538408253
30
0
41
1
10
66.8343175085724
20
4.6706159688415
30
0
0
SPLINE
5
12B
100
AcDbEntity
8
1
62
256
6
ByLayer
370
18
48
1
60
0
100
AcDbSpline
70
4
71
3
72
32
73
28
40
0
40
0
40
0
40
0
40
0.125000000000056
40
0.125000000000056
40
0.187500000000083
40
0.187500000000083
40
0.250000000000111
40
0.250000000000111
40
0.375000000000128
40
0.375000000000128
40
0.437500000000115
40
0.437500000000115
40
0.500000000000103
40
0.500000000000103
40
0.625000000000078
40
0.625000000000078
40
0.687500000000065
40
0.687500000000065
40
0.750000000000052
40
0.750000000000052
40
0.812500000000039
40
0.812500000000039
40
0.875000000000026
40
0.875000000000026
40
0.937500000000013
40
0.937500000000013
40
1
40
1
40
1
40
1
41
1
10
66.8343175085724
20
4.67061596884153
30
0
41
1
10
66.8218072192298
20
4.64561047864714
30
0
41
1
10
66.8072953139994
20
4.62281274720004
30
0
41
1
10
66.7832334341413
20
4.59112244252421
30
0
41
1
10
66.7748206272815
20
4.58098585093416
30
0
41
1
10
66.7572589819299
20
4.56152736899261
30
0
41
1
10
66.7482330087426
20
4.55234097674924
30
0
41
1
10
66.7204877162871
20
4.52626826513853
30
0
41
1
10
66.7011084766887
20
4.5108500135895
30
0
41
1
10
66.6708105545034
20
4.4905288556549
30
0
41
1
10
66.6605043724898
20
4.48422778371176
30
0
41
1
10
66.6394700765985
20
4.47260768105286
30
0
41
1
10
66.6288421468697
20
4.46734676867939
30
0
41
1
10
66.5968498397319
20
4.45332060047389
30
0
41
1
10
66.5752905352273
20
4.44623349827339
30
0
41
1
10
66.5426285722595
20
4.43943089348065
30
0
41
1
10
66.5316869573319
20
4.43780750428263
30
0
41
1
10
66.5096914709029
20
4.4360352353458
30
0
41
1
10
66.4986936376467
20
4.43590074011595
30
0
41
1
10
66.4771406748704
20
4.43730965299952
30
0
41
1
10
66.4665266236212
20
4.43884504480025
30
0
41
1
10
66.4456848781909
20
4.44383901451891
30
0
41
1
10
66.4353831369089
20
4.44733820109525
30
0
41
1
10
66.4158321710313
20
4.45643168072354
30
0
41
1
10
66.4065392413337
20
4.46201698469483
30
0
41
1
10
66.3890892430977
20
4.47563103746154
30
0
41
1
10
66.3809167134104
20
4.48370900583689
30
0
41
1
10
66.3736967238138
20
4.49299916570007
30
0
0
SPLINE
5
12C
100
AcDbEntity
8
1
62
256
6
ByLayer
370
18
48
1
60
0
100
AcDbSpline
70
4
71
3
72
14
73
10
40
0
40
0
40
0
40
0
40
0.25
40
0.25
40
0.5
40
0.5
40
0.75
40
0.75
40
1
40
1
40
1
40
1
41
1
10
66.3736967238095
20
4.49299916571107
30
0
41
1
10
66.3241779052952
20
4.55671639606635
30
0
41
1
10
66.2748362971594
20
4.61894525998562
30
0
41
1
10
66.1764525190148
20
4.74047672791932
30
0
41
1
10
66.1274056334899
20
4.79978268951672
30
0
41
1
10
66.0297237555343
20
4.91530248044589
30
0
41
1
10
65.9810489831662
20
4.97156393702062
30
0
41
1
10
65.8841026628183
20
5.0809788076599
30
0
41
1
10
65.8358434566036
20
5.13411957084682
30
0
41
1
10
65.7877669416164
20
5.18571264224403
30
0
0
SPLINE
5
12D
100
AcDbEntity
8
1
62
256
6
ByLayer
370
18
48
1
60
0
100
AcDbSpline
70
4
71
3
72
8
73
4
40
0
40
0
40
0
40
0
40
1
40
1
40
1
40
1
41
1
10
65.6057717552245
20
5.08237890417195
30
0
41
1
10
65.6664458803005
20
5.11770314450325
30
0
41
1
10
65.72710738638
20
5.15214876647249
30
0
41
1
10
65.7877669416164
20
5.185712642244
30
0
0
SPLINE
5
12E
100
AcDbEntity
8
1
62
256
6
ByLayer
370
18
48
1
60
0
100
AcDbSpline
70
4
71
3
72
14
73
10
40
0
40
0
40
0
40
0
40
0.292911440998516
40
0.292911440998516
40
0.585822881997031
40
0.585822881997031
40
0.878734322995547
40
0.878734322995547
40
1
40
1
40
1
40
1
41
1
10
65.6057717552245
20
5.08237890417195
30
0
41
1
10
65.5556009196147
20
4.97526463390506
30
0
41
1
10
65.5052737006161
20
4.86796610952462
30
0
41
1
10
65.4042374541818
20
4.65302629106611
30
0
41
1
10
65.3535103623166
20
4.54533910846356
30
0
41
1
10
65.2517128208859
20
4.32993159565098
30
0
41
1
10
65.2006239387806
20
4.22217730279183
30
0
41
1
10
65.1280899295532
20
4.06992498977849
30
0
41
1
10
65.1068206157398
20
4.02536921104985
30
0
41
1
10
65.0855166850742
20
3.98083624690224
30
0
0
SPLINE
5
12F
100
AcDbEntity
8
1
62
256
6
ByLayer
370
18
48
1
60
0
100
AcDbSpline
70
4
71
3
72
10
73
6
40
0
40
0
40
0
40
0
40
0.5
40
0.5
40
1
40
1
40
1
40
1
41
1
10
68.010810139331
20
2.48168593518437
30
0
41
1
10
68.1089166951474
20
2.3179352641188
30
0
41
1
10
68.2078587166975
20
2.15939936361559
30
0
41
1
10
68.4078658401625
20
1.853418065781
30
0
41
1
10
68.5086383903667
20
1.70641603053596
30
0
41
1
10
68.6104965971714
20
1.56561381172364
30
0
0
SPLINE
5
130
100
AcDbEntity
8
1
62
256
6
ByLayer
370
18
48
1
60
0
100
AcDbSpline
70
4
71
3
72
32
73
28
40
0
40
0
40
0
40
0
40
0.06249999999998
40
0.06249999999998
40
0.12499999999996
40
0.12499999999996
40
0.18749999999994
40
0.18749999999994
40
0.24999999999992
40
0.24999999999992
40
0.37499999999988
40
0.37499999999988
40
0.49999999999984
40
0.49999999999984
40
0.562499999999843
40
0.562499999999843
40
0.624999999999846
40
0.624999999999846
40
0.749999999999897
40
0.749999999999897
40
0.812499999999923
40
0.812499999999923
40
0.874999999999949
40
0.874999999999949
40
0.937499999999974
40
0.937499999999974
40
1
40
1
40
1
40
1
41
1
10
68.6104965971714
20
1.56561381172367
30
0
41
1
10
68.617255986818
20
1.55627006721923
30
0
41
1
10
68.6246204386316
20
1.54675819391545
30
0
41
1
10
68.640340220234
20
1.52746745746975
30
0
41
1
10
68.6486977118115
20
1.51768785409891
30
0
41
1
10
68.6662903560638
20
1.49789363779141
30
0
41
1
10
68.6755821984882
20
1.48782247836695
30
0
41
1
10
68.694554930274
20
1.46789939043845
30
0
41
1
10
68.7042654044728
20
1.45801030494982
30
0
41
1
10
68.7339870054023
20
1.42852813958112
30
0
41
1
10
68.7546197337702
20
1.40908408235373
30
0
41
1
10
68.7971006342466
20
1.37072237665313
30
0
41
1
10
68.8184698887667
20
1.35223430203246
30
0
41
1
10
68.8506446419229
20
1.32541052464035
30
0
41
1
10
68.8613900170104
20
1.31662243001188
30
0
41
1
10
68.8829126338498
20
1.29935102657944
30
0
41
1
10
68.8937009876747
20
1.29086097765472
30
0
41
1
10
68.9254838803059
20
1.26633281228044
30
0
41
1
10
68.9461082186409
20
1.25105539910854
30
0
41
1
10
68.9760411633872
20
1.2298866163982
30
0
41
1
10
68.9858500456697
20
1.22312465614846
30
0
41
1
10
69.0050751758959
20
1.21026870917012
30
0
41
1
10
69.0145152912387
20
1.20416323976997
30
0
41
1
10
69.0323637302258
20
1.1930938049604
30
0
41
1
10
69.0408429268215
20
1.18808031580329
30
0
41
1
10
69.0567874022276
20
1.1792469213315
30
0
41
1
10
69.064255087006
20
1.17542386740007
30
0
41
1
10
69.071101515812
20
1.17234249769086
30
0
0
SPLINE
5
131
100
AcDbEntity
8
1
62
256
6
ByLayer
370
18
48
1
60
0
100
AcDbSpline
70
4
71
3
72
12
73
8
40
0
40
0
40
0
40
0
40
0.25
40
0.25
40
0.500000000000001
40
0.500000000000001
40
1
40
1
40
1
40
1
41
1
10
69.071101515812
20
1.17234249769095
30
0
41
1
10
69.1218032354825
20
1.14952319325894
30
0
41
1
10
69.172222335569
20
1.12446548370849
30
0
41
1
10
69.2725813155434
20
1.06993803791363
30
0
41
1
10
69.3225314585613
20
1.04052266726748
30
0
41
1
10
69.4718624220554
20
0.946196131450534
30
0
41
1
10
69.5704235465217
20
0.875283830129831
30
0
41
1
10
69.6682360787314
20
0.79673260228833
30
0
0
SPLINE
5
132
100
AcDbEntity
8
1
62
256
6
ByLayer
370
18
48
1
60
0
100
AcDbSpline
70
4
71
3
72
10
73
6
40
0
40
0
40
0
40
0
40
0.5
40
0.5
40
1
40
1
40
1
40
1
41
1
10
69.8501958713647
20
0.605061337607282
30
0
41
1
10
69.9482578528108
20
0.482431769106142
30
0
41
1
10
70.0471705628451
20
0.367010043191385
30
0
41
1
10
70.2471562721808
20
0.151168811752086
30
0
41
1
10
70.3479312218413
20
0.0510653429854528
30
0
41
1
10
70.4498052116063
20
-0.0410452170514759
30
0
0
SPLINE
5
133
100
AcDbEntity
8
1
62
256
6
ByLayer
370
18
48
1
60
0
100
AcDbSpline
70
4
71
3
72
32
73
28
40
0
40
0
40
0
40
0
40
0.0625000000000085
40
0.0625000000000085
40
0.125000000000017
40
0.125000000000017
40
0.187500000000026
40
0.187500000000026
40
0.250000000000034
40
0.250000000000034
40
0.375000000000051
40
0.375000000000051
40
0.500000000000068
40
0.500000000000068
40
0.562500000000077
40
0.562500000000077
40
0.625000000000085
40
0.625000000000085
40
0.750000000000057
40
0.750000000000057
40
0.812500000000042
40
0.812500000000042
40
0.875000000000028
40
0.875000000000028
40
0.937500000000014
40
0.937500000000014
40
1
40
1
40
1
40
1
41
1
10
70.4498052116063
20
-0.0410452170514759
30
0
41
1
10
70.4565637741505
20
-0.0471560504685158
30
0
41
1
10
70.4639280048929
20
-0.053750275297233
30
0
41
1
10
70.4796487375098
20
-0.0677183478402696
30
0
41
1
10
70.4880073999464
20
-0.075094121231416
30
0
41
1
10
70.5056040051619
20
-0.0905340665198366
30
0
41
1
10
70.5148983268977
20
-0.0986469757995678
30
0
41
1
10
70.533874395383
20
-0.115146056684495
30
0
41
1
10
70.5435868618738
20
-0.123559694305101
30
0
41
1
10
70.5733156439889
20
-0.149246467778823
30
0
41
1
10
70.5939610680306
20
-0.166997027339136
30
0
41
1
10
70.6364446094483
20
-0.203489927157591
30
0
41
1
10
70.6578160506412
20
-0.221832686880219
30
0
41
1
10
70.6899953100623
20
-0.249552490020818
30
0
41
1
10
70.7007423935499
20
-0.258826978187642
30
0
41
1
10
70.7222688769995
20
-0.277459310771405
30
0
41
1
10
70.7330533199156
20
-0.286821948913314
30
0
41
1
10
70.7648245400758
20
-0.31451995370162
30
0
41
1
10
70.785443203548
20
-0.332648108484165
30
0
41
1
10
70.815370817335
20
-0.359335073100112
30
0
41
1
10
70.8251784663761
20
-0.368145477149397
30
0
41
1
10
70.8444020531996
20
-0.385577794526597
30
0
41
1
10
70.8538315586979
20
-0.394213945794689
30
0
41
1
10
70.8716577098059
20
-0.410738412666546
30
0
41
1
10
70.8801268904
20
-0.41869185025962
30
0
41
1
10
70.8960536474192
20
-0.433890784203271
30
0
41
1
10
70.9035136185328
20
-0.441138203077856
30
0
41
1
10
70.9103536916789
20
-0.447943984774213
30
0
0
SPLINE
5
134
100
AcDbEntity
8
1
62
256
6
ByLayer
370
18
48
1
60
0
100
AcDbSpline
70
4
71
3
72
12
73
8
40
0
40
0
40
0
40
0
40
0.5
40
0.5
40
0.75
40
0.75
40
1
40
1
40
1
40
1
41
1
10
70.9103536916789
20
-0.447943984774128
30
0
41
1
10
71.0118118965362
20
-0.548893547566792
30
0
41
1
10
71.1121877204188
20
-0.657474060100981
30
0
41
1
10
71.2615787224729
20
-0.831592069904787
30
0
41
1
10
71.3110986093327
20
-0.891488657626013
30
0
41
1
10
71.4096305909268
20
-1.01472910076345
30
0
41
1
10
71.4586737996663
20
-1.07800416296951
30
0
41
1
10
71.5075382936025
20
-1.14286381263039
30
0
0
SPLINE
5
135
100
AcDbEntity
8
1
62
256
6
ByLayer
370
18
48
1
60
0
100
AcDbSpline
70
4
71
3
72
12
73
8
40
0
40
0
40
0
40
0
40
0.25
40
0.25
40
0.5
40
0.5
40
1
40
1
40
1
40
1
41
1
10
71.6895673685259
20
-1.33250746664675
30
0
41
1
10
71.7385792430683
20
-1.36707417823942
30
0
41
1
10
71.7878014656611
20
-1.39951688367665
30
0
41
1
10
71.8867413976923
20
-1.46011682747755
30
0
41
1
10
71.9364722838448
20
-1.48828106931742
30
0
41
1
10
72.0864475369009
20
-1.56622671141801
30
0
41
1
10
72.187223139154
20
-1.60934660414458
30
0
41
1
10
72.2891123813889
20
-1.6434817143213
30
0
0
SPLINE
5
136
100
AcDbEntity
8
1
62
256
6
ByLayer
370
18
48
1
60
0
100
AcDbSpline
70
4
71
3
72
34
73
30
40
0
40
0
40
0
40
0
40
0.0624999999999657
40
0.0624999999999657
40
0.124999999999931
40
0.124999999999931
40
0.187499999999897
40
0.187499999999897
40
0.249999999999863
40
0.249999999999863
40
0.312499999999829
40
0.312499999999829
40
0.374999999999795
40
0.374999999999795
40
0.499999999999773
40
0.499999999999773
40
0.562499999999785
40
0.562499999999785
40
0.624999999999797
40
0.624999999999797
40
0.749999999999865
40
0.749999999999865
40
0.812499999999899
40
0.812499999999899
40
0.874999999999933
40
0.874999999999933
40
0.937499999999967
40
0.937499999999967
40
1
40
1
40
1
40
1
41
1
10
72.2891123813889
20
-1.6434817143213
30
0
41
1
10
72.2958718202583
20
-1.64574627322347
30
0
41
1
10
72.3032372940626
20
-1.64876088450797
30
0
41
1
10
72.3189611213097
20
-1.65600360653261
30
0
41
1
10
72.3273216396911
20
-1.66023464096591
30
0
41
1
10
72.3449226365915
20
-1.669768728441
30
0
41
1
10
72.354219176836
20
-1.67510804337724
30
0
41
1
10
72.3731978255464
20
-1.68652586760823
30
0
41
1
10
72.3829116047934
20
-1.6926187368592
30
0
41
1
10
72.4027336650978
20
-1.70549200872995
30
0
41
1
10
72.4128422859382
20
-1.71227296008016
30
0
41
1
10
72.4334232341302
20
-1.72648756010619
30
0
41
1
10
72.4439184242598
20
-1.733937863486
30
0
41
1
10
72.4757805745201
20
-1.75715677495646
30
0
41
1
10
72.4971523889787
20
-1.77351064361162
30
0
41
1
10
72.5293336624912
20
-1.79933892755713
30
0
41
1
10
72.5400816666783
20
-1.80816689396715
30
0
41
1
10
72.5616106039413
20
-1.82628546122527
30
0
41
1
10
72.5723925328737
20
-1.83557975146274
30
0
41
1
10
72.6041573995995
20
-1.86366289936799
30
0
41
1
10
72.6247736931128
20
-1.88281730394544
30
0
41
1
10
72.6546990909304
20
-1.91233669978413
30
0
41
1
10
72.6645062288538
20
-1.92230891992082
30
0
41
1
10
72.6837289485531
20
-1.9425638470066
30
0
41
1
10
72.6931515649452
20
-1.95286186872372
30
0
41
1
10
72.7109641512828
20
-1.97317827888125
30
0
41
1
10
72.719427116134
20
-1.98327063726552
30
0
41
1
10
72.7353426578222
20
-2.00330290297328
30
0
41
1
10
72.7427976201517
20
-2.01324332916872
30
0
41
1
10
72.7496335058622
20
-2.02308541971505
30
0
0
SPLINE
5
137
100
AcDbEntity
8
1
62
256
6
ByLayer
370
18
48
1
60
0
100
AcDbSpline
70
4
71
3
72
10
73
6
40
0
40
0
40
0
40
0
40
0.5
40
0.5
40
1
40
1
40
1
40
1
41
1
10
72.7496335058622
20
-2.02308541971482
30
0
41
1
10
72.8510695975183
20
-2.16912987408583
30
0
41
1
10
72.9514367845106
20
-2.32089339773333
30
0
41
1
10
73.150635247396
20
-2.6355107749587
30
0
41
1
10
73.2491574557371
20
-2.79789046055788
30
0
41
1
10
73.346819855543
20
-2.96509143239231
30
0
0
SPLINE
5
138
100
AcDbEntity
8
1
62
256
6
ByLayer
370
18
48
1
60
0
100
AcDbSpline
70
4
71
3
72
12
73
8
40
0
40
0
40
0
40
0
40
0.25
40
0.25
40
0.500000000000001
40
0.500000000000001
40
1
40
1
40
1
40
1
41
1
10
73.5288634913709
20
-3.13326053551154
30
0
41
1
10
73.5778620474432
20
-3.13765440674263
30
0
41
1
10
73.627081328632
20
-3.13979407014347
30
0
41
1
10
73.7260121090565
20
-3.13964965338727
30
0
41
1
10
73.7757391766441
20
-3.13735252184981
30
0
41
1
10
73.9257130853292
20
-3.12370038003888
30
0
41
1
10
74.0264994241798
20
-3.10561349065497
30
0
41
1
10
74.1284200162973
20
-3.07844061141043
30
0
0
SPLINE
5
139
100
AcDbEntity
8
1
62
256
6
ByLayer
370
18
48
1
60
0
100
AcDbSpline
70
4
71
3
72
33
73
29
40
0
40
0
40
0
40
0
40
0.0624999999999927
40
0.0624999999999927
40
0.124999999999985
40
0.124999999999985
40
0.187499999999978
40
0.187499999999978
40
0.249999999999971
40
0.312499999999966
40
0.312499999999966
40
0.374999999999961
40
0.374999999999961
40
0.499999999999951
40
0.499999999999951
40
0.562499999999946
40
0.562499999999946
40
0.624999999999941
40
0.624999999999941
40
0.749999999999932
40
0.749999999999932
40
0.812499999999949
40
0.812499999999949
40
0.874999999999966
40
0.874999999999966
40
0.937499999999983
40
0.937499999999983
40
1
40
1
40
1
40
1
41
1
10
74.1284200162973
20
-3.07844061141043
30
0
41
1
10
74.1351822910701
20
-3.07663773260055
30
0
41
1
10
74.142550954947
20
-3.07577587395085
30
0
41
1
10
74.1582815027504
20
-3.07557651469435
30
0
41
1
10
74.1666455602871
20
-3.07624265131304
30
0
41
1
10
74.1842539025123
20
-3.07892159903372
30
0
41
1
10
74.1935539303594
20
-3.08095479436545
30
0
41
1
10
74.2125375438287
20
-3.08615185966644
30
0
41
1
10
74.2319694513559
20
-3.09247728635859
30
0
41
1
10
74.2521910590741
20
-3.10082030736081
30
0
41
1
10
74.2727763022831
20
-3.11011515175269
30
0
41
1
10
74.2832748881635
20
-3.11525138413376
30
0
41
1
10
74.3151379464688
20
-3.13199119096373
30
0
41
1
10
74.3365105272878
20
-3.14471369560732
30
0
41
1
10
74.3686935371506
20
-3.16605337605819
30
0
41
1
10
74.3794422036237
20
-3.17354668311904
30
0
41
1
10
74.400972566696
20
-3.18932792121771
30
0
41
1
10
74.4117524307406
20
-3.19761943924999
30
0
41
1
10
74.4435120518339
20
-3.22326329380866
30
0
41
1
10
74.4641257266186
20
-3.24151600014542
30
0
41
1
10
74.4940476256524
20
-3.27089353684511
30
0
41
1
10
74.5038536683117
20
-3.28102229496429
30
0
41
1
10
74.5230741632725
20
-3.302056567801
30
0
41
1
10
74.5324919655875
20
-3.31297864802485
30
0
41
1
10
74.5502959546519
20
-3.33503771073791
30
0
41
1
10
74.558755124975
20
-3.34624985521614
30
0
41
1
10
74.5746640798709
20
-3.36908961792656
30
0
41
1
10
74.58211624406
20
-3.38071631572211
30
0
41
1
10
74.5889499444192
20
-3.39259578902372
30
0
0
SPLINE
5
13A
100
AcDbEntity
8
1
62
256
6
ByLayer
370
18
48
1
60
0
100
AcDbSpline
70
4
71
3
72
10
73
6
40
0
40
0
40
0
40
0
40
0.5
40
0.5
40
1
40
1
40
1
40
1
41
1
10
74.5889499444192
20
-3.39259578902355
30
0
41
1
10
74.6903502416895
20
-3.56886663218023
30
0
41
1
10
74.7906921591146
20
-3.74839688023843
30
0
41
1
10
74.9898714309847
20
-4.11358142859973
30
0
41
1
10
75.088410949499
20
-4.29868916340786
30
0
41
1
10
75.186123153419
20
-4.48602469232077
30
0
0
SPLINE
5
13B
100
AcDbEntity
8
1
62
256
6
ByLayer
370
18
48
1
60
0
100
AcDbSpline
70
4
71
3
72
12
73
8
40
0
40
0
40
0
40
0
40
0.25
40
0.25
40
0.500000000000001
40
0.500000000000001
40
1
40
1
40
1
40
1
41
1
10
75.3681289228567
20
-4.61417215862318
30
0
41
1
10
75.4171713847823
20
-4.58767448212757
30
0
41
1
10
75.4663915936424
20
-4.55927074830373
30
0
41
1
10
75.5653070395847
20
-4.49840631215599
30
0
41
1
10
75.6150182552688
20
-4.46592338508492
30
0
41
1
10
75.7649674209007
20
-4.36213170408797
30
0
41
1
10
75.8657488374008
20
-4.28473663610714
30
0
41
1
10
75.9676804820445
20
-4.19910699007457
30
0
0
SPLINE
5
13C
100
AcDbEntity
8
1
62
256
6
ByLayer
370
18
48
1
60
0
100
AcDbSpline
70
4
71
3
72
34
73
30
40
0
40
0
40
0
40
0
40
0.0624999999999917
40
0.0624999999999917
40
0.124999999999983
40
0.124999999999983
40
0.187499999999975
40
0.187499999999975
40
0.249999999999967
40
0.249999999999967
40
0.312499999999958
40
0.312499999999958
40
0.37499999999995
40
0.37499999999995
40
0.499999999999933
40
0.499999999999933
40
0.562499999999924
40
0.562499999999924
40
0.624999999999915
40
0.624999999999915
40
0.749999999999943
40
0.749999999999943
40
0.812499999999957
40
0.812499999999957
40
0.874999999999971
40
0.874999999999971
40
0.937499999999986
40
0.937499999999986
40
1
40
1
40
1
40
1
41
1
10
75.9676804820445
20
-4.19910699007454
30
0
41
1
10
75.9744486308291
20
-4.19342127601837
30
0
41
1
10
75.9818238419922
20
-4.18877289719873
30
0
41
1
10
75.9975680054464
20
-4.18115760517975
30
0
41
1
10
76.005939146253
20
-4.17819468861384
30
0
41
1
10
76.023561817084
20
-4.17375419164321
30
0
41
1
10
76.0328685972793
20
-4.17227949628062
30
0
41
1
10
76.0518624708407
20
-4.17073909866099
30
0
41
1
10
76.0615832966017
20
-4.1706569661149
30
0
41
1
10
76.0814185502348
20
-4.17171800523792
30
0
41
1
10
76.0915332933131
20
-4.17286221517975
30
0
41
1
10
76.1121257618081
20
-4.17630472451177
30
0
41
1
10
76.122629149097
20
-4.17861031251741
30
0
41
1
10
76.1544946033904
20
-4.18718944560055
30
0
41
1
10
76.1758679178014
20
-4.1949997068767
30
0
41
1
10
76.2080505925611
20
-4.20969868140074
30
0
41
1
10
76.2187989095949
20
-4.21510105602525
30
0
41
1
10
76.2403280838878
20
-4.22695088572451
30
0
41
1
10
76.2511038875533
20
-4.23340197881643
30
0
41
1
10
76.2828529194389
20
-4.25401347297068
30
0
41
1
10
76.3034606588368
20
-4.26951572953419
30
0
41
1
10
76.3333747448468
20
-4.29577086056386
30
0
41
1
10
76.3431783588141
20
-4.3050277393221
30
0
41
1
10
76.3623942300485
20
-4.32470378272404
30
0
41
1
10
76.3718069741967
20
-4.33513993440454
30
0
41
1
10
76.3896029885338
20
-4.35669811915923
30
0
41
1
10
76.3980590483896
20
-4.36788874252946
30
0
41
1
10
76.4139634280651
20
-4.39120890596629
30
0
41
1
10
76.4214141226658
20
-4.40333618735201
30
0
41
1
10
76.4282471794283
20
-4.41604024022701
30
0
0
SPLINE
5
13D
100
AcDbEntity
8
1
62
256
6
ByLayer
370
18
48
1
60
0
100
AcDbSpline
70
4
71
3
72
12
73
8
40
0
40
0
40
0
40
0
40
0.5
40
0.5
40
0.75
40
0.75
40
1
40
1
40
1
40
1
41
1
10
76.4282471794283
20
-4.41604024022686
30
0
41
1
10
76.5201330562778
20
-4.58687491620441
30
0
41
1
10
76.6111596546006
20
-4.75810812228102
30
0
41
1
10
76.7467554194733
20
-5.01537406567294
30
0
41
1
10
76.7917879758263
20
-5.10118393042271
30
0
41
1
10
76.8814095150285
20
-5.27256864299181
30
0
41
1
10
76.9260210422944
20
-5.35818623364443
30
0
41
1
10
76.970459664617
20
-5.44371633044267
30
0
0
SPLINE
5
13E
100
AcDbEntity
8
1
62
256
6
ByLayer
370
18
48
1
60
0
100
AcDbSpline
70
4
71
3
72
8
73
4
40
0
40
0
40
0
40
0
40
1
40
1
40
1
40
1
41
1
10
76.970459664617
20
-5.44371633044267
30
0
41
1
10
77.0852645787152
20
-5.46683583518055
30
0
41
1
10
77.2006206817476
20
-5.48613797225426
30
0
41
1
10
77.3165494334396
20
-5.5015803930483
30
0
0
SPLINE
5
13F
100
AcDbEntity
8
1
62
256
6
ByLayer
370
18
48
1
60
0
100
AcDbSpline
70
4
71
3
72
14
73
10
40
0
40
0
40
0
40
0
40
0.25
40
0.25
40
0.5
40
0.5
40
0.75
40
0.75
40
1
40
1
40
1
40
1
41
1
10
77.3165494334393
20
-5.50158039304876
30
0
41
1
10
77.3568092178324
20
-5.45503493878346
30
0
41
1
10
77.3972086672647
20
-5.40742377810281
30
0
41
1
10
77.4783296014452
20
-5.31005151377809
30
0
41
1
10
77.5190663602132
20
-5.26026998052436
30
0
41
1
10
77.6007778639302
20
-5.15868910316021
30
0
41
1
10
77.6417607384226
20
-5.10688843805315
30
0
41
1
10
77.7240645044868
20
-5.00112182797275
30
0
41
1
10
77.7653923107015
20
-4.94713336160171
30
0
41
1
10
77.8069140906659
20
-4.89205863000961
30
0
0
SPLINE
5
140
100
AcDbEntity
8
1
62
256
6
ByLayer
370
18
48
1
60
0
100
AcDbSpline
70
4
71
3
72
34
73
30
40
0
40
0
40
0
40
0
40
0.0625000000000142
40
0.0625000000000142
40
0.125000000000028
40
0.125000000000028
40
0.187500000000043
40
0.187500000000043
40
0.250000000000057
40
0.250000000000057
40
0.312500000000071
40
0.312500000000071
40
0.375000000000085
40
0.375000000000085
40
0.500000000000069
40
0.500000000000069
40
0.562500000000061
40
0.562500000000061
40
0.625000000000053
40
0.625000000000053
40
0.750000000000037
40
0.750000000000037
40
0.812500000000028
40
0.812500000000028
40
0.875000000000018
40
0.875000000000018
40
0.937500000000009
40
0.937500000000009
40
1
40
1
40
1
40
1
41
1
10
77.8069140906659
20
-4.89205863000961
30
0
41
1
10
77.8136901991695
20
-4.8830707600917
30
0
41
1
10
77.8210740408366
20
-4.87511110317973
30
0
41
1
10
77.8368356000979
20
-4.86085915001854
30
0
41
1
10
77.8452155318699
20
-4.85457078981867
30
0
41
1
10
77.8628553661299
20
-4.84346643863685
30
0
41
1
10
77.8721699868063
20
-4.83863593193303
30
0
41
1
10
77.8911758889448
20
-4.83051949714419
30
0
41
1
10
77.9009020619638
20
-4.82720237293614
30
0
41
1
10
77.920746686799
20
-4.8218855299391
30
0
41
1
10
77.9308654409126
20
-4.81988694037813
30
0
41
1
10
77.951464589568
20
-4.81712758514578
30
0
41
1
10
77.9619716431456
20
-4.81636700287945
30
0
41
1
10
77.9938383272048
20
-4.81591342509051
30
0
41
1
10
78.0152108732007
20
-4.81801407573795
30
0
41
1
10
78.0473902041925
20
-4.82456693749515
30
0
41
1
10
78.0581370399358
20
-4.82732446225683
30
0
41
1
10
78.0796625033607
20
-4.83402658044523
30
0
41
1
10
78.0904343117518
20
-4.83797628978593
30
0
41
1
10
78.1221729478286
20
-4.85144104525554
30
0
41
1
10
78.142774647465
20
-4.86259988981814
30
0
41
1
10
78.1726805301994
20
-4.88303078697734
30
0
41
1
10
78.1824815532633
20
-4.89046259553785
30
0
41
1
10
78.2016924571526
20
-4.90675294201645
30
0
41
1
10
78.2111038292956
20
-4.91563120683142
30
0
41
1
10
78.2288990300871
20
-4.93447343393907
30
0
41
1
10
78.2373553804279
20
-4.94449220216688
30
0
41
1
10
78.2532614415292
20
-4.96589467541349
30
0
41
1
10
78.2607135296801
20
-4.97727501105115
30
0
41
1
10
78.2675483929852
20
-4.98949635723349
30
0
0
SPLINE
5
141
100
AcDbEntity
8
1
62
256
6
ByLayer
370
18
48
1
60
0
100
AcDbSpline
70
4
71
3
72
8
73
4
40
0
40
0
40
0
40
0
40
1
40
1
40
1
40
1
41
1
10
78.2675483929852
20
-4.98949635723341
30
0
41
1
10
78.366627858381
20
-5.16665929262683
30
0
41
1
10
78.4647228823308
20
-5.34161809315628
30
0
41
1
10
78.5621176558896
20
-5.51428792726747
30
0
0
SPLINE
5
142
100
AcDbEntity
8
1
62
256
6
ByLayer
370
18
48
1
60
0
100
AcDbSpline
70
4
71
3
72
10
73
6
40
0
40
0
40
0
40
0
40
0.5
40
0.5
40
1
40
1
40
1
40
1
41
1
10
78.5621176558896
20
-5.5142879272675
30
0
41
1
10
78.7163612833112
20
-5.497472554236
30
0
41
1
10
78.8712542124187
20
-5.47423662792559
30
0
41
1
10
79.1825446720631
20
-5.41514020441437
30
0
41
1
10
79.3389459701794
20
-5.37926840184821
30
0
41
1
10
79.4961400117964
20
-5.33710314407077
30
0
0
SPLINE
5
143
100
AcDbEntity
8
1
62
256
6
ByLayer
370
18
48
1
60
0
100
AcDbSpline
70
4
71
3
72
8
73
4
40
0
40
0
40
0
40
0
40
1
40
1
40
1
40
1
41
1
10
79.4961400117964
20
-5.3371031440708
30
0
41
1
10
79.5458993185526
20
-5.25470609579477
30
0
41
1
10
79.5958680796993
20
-5.17137909544084
30
0
41
1
10
79.6460926151784
20
-5.08711351385534
30
0
0
SPLINE
5
144
100
AcDbEntity
8
1
62
256
6
ByLayer
370
18
48
1
60
0
100
AcDbSpline
70
4
71
3
72
34
73
30
40
0
40
0
40
0
40
0
40
0.0624999999999973
40
0.0624999999999973
40
0.124999999999995
40
0.124999999999995
40
0.187499999999992
40
0.187499999999992
40
0.249999999999989
40
0.249999999999989
40
0.312499999999986
40
0.312499999999986
40
0.374999999999984
40
0.374999999999984
40
0.500000000000024
40
0.500000000000024
40
0.562500000000021
40
0.562500000000021
40
0.625000000000018
40
0.625000000000018
40
0.750000000000011
40
0.750000000000011
40
0.812500000000009
40
0.812500000000009
40
0.875000000000006
40
0.875000000000006
40
0.937500000000003
40
0.937500000000003
40
1
40
1
40
1
40
1
41
1
10
79.6460926151784
20
-5.08711351385534
30
0
41
1
10
79.6528793646218
20
-5.07572686023136
30
0
41
1
10
79.6602744640721
20
-5.06525477210621
30
0
41
1
10
79.6760576675631
20
-5.04579392847319
30
0
41
1
10
79.6844480178194
20
-5.03680866870525
30
0
41
1
10
79.7021066036157
20
-5.02014715749996
30
0
41
1
10
79.7114286733024
20
-5.01244106115794
30
0
41
1
10
79.7304431077061
20
-4.99855310450945
30
0
41
1
10
79.7401720561318
20
-4.99232731945867
30
0
41
1
10
79.7600199000424
20
-4.98114960312992
30
0
41
1
10
79.7701390667459
20
-4.97619876620212
30
0
41
1
10
79.7907378893128
20
-4.9674907990597
30
0
41
1
10
79.8012451858317
20
-4.96372613875346
30
0
41
1
10
79.8331044729876
20
-4.95424217991987
30
0
41
1
10
79.8544736847283
20
-4.95038684944913
30
0
41
1
10
79.8866492007733
20
-4.94807666978423
30
0
41
1
10
79.8973949614655
20
-4.94789180691763
30
0
41
1
10
79.9189184230404
20
-4.94873023944152
30
0
41
1
10
79.9296882179951
20
-4.94976056789238
30
0
41
1
10
79.9614225633886
20
-4.9546598401293
30
0
41
1
10
79.9820229257178
20
-4.96030730489195
30
0
41
1
10
80.0119268780479
20
-4.97278449657571
30
0
41
1
10
80.0217272544299
20
-4.97761783261174
30
0
41
1
10
80.0409366175168
20
-4.98882916678994
30
0
41
1
10
80.0503495874188
20
-4.99522809123985
30
0
41
1
10
80.0681493972878
20
-5.00940037522543
30
0
41
1
10
80.0766084805878
20
-5.01720904540704
30
0
41
1
10
80.0925206723722
20
-5.03447752137501
30
0
41
1
10
80.0999761572498
20
-5.04393317808783
30
0
41
1
10
80.1068145887342
20
-5.05440801639398
30
0
0
SPLINE
5
145
100
AcDbEntity
8
1
62
256
6
ByLayer
370
18
48
1
60
0
100
AcDbSpline
70
4
71
3
72
8
73
4
40
0
40
0
40
0
40
0
40
1
40
1
40
1
40
1
41
1
10
80.1068145887342
20
-5.05440801639401
30
0
41
1
10
80.1225178774202
20
-5.07846169160186
30
0
41
1
10
80.1381962657036
20
-5.10239830134515
30
0
41
1
10
80.1538510155561
20
-5.1262180401209
30
0
0
SPLINE
5
146
100
AcDbEntity
8
1
62
256
6
ByLayer
370
18
48
1
60
0
100
AcDbSpline
70
4
71
3
72
13
73
9
40
0
40
0
40
0
40
0
40
0.125
40
0.125
40
0.25
40
0.5
40
0.5
40
1
40
1
40
1
40
1
41
1
10
80.1538510155561
20
-5.1262180401209
30
0
41
1
10
80.1977026333337
20
-5.10996050082662
30
0
41
1
10
80.2417118715108
20
-5.09322503656588
30
0
41
1
10
80.3297829114362
20
-5.05891528111195
30
0
41
1
10
80.4620521660473
20
-5.00616196096928
30
0
41
1
10
80.5948493168953
20
-4.94961970635106
30
0
41
1
10
80.8612401182224
20
-4.83165383468258
30
0
41
1
10
81.0397717302806
20
-4.746496210114
30
0
41
1
10
81.21999989144
20
-4.65519981695056
30
0
0
SPLINE
5
147
100
AcDbEntity
8
1
62
256
6
ByLayer
370
18
48
1
60
0
100
AcDbSpline
70
4
71
3
72
14
73
10
40
0
40
0
40
0
40
0
40
0.25
40
0.25
40
0.5
40
0.5
40
0.75
40
0.75
40
1
40
1
40
1
40
1
41
1
10
81.21999989144
20
-4.65519981695059
30
0
41
1
10
81.2680416948135
20
-4.59751960164303
30
0
41
1
10
81.3165181616438
20
-4.5395093197468
30
0
41
1
10
81.4144410407461
20
-4.42291285680852
30
0
41
1
10
81.4638927428932
20
-4.36432256989812
30
0
41
1
10
81.5639478981415
20
-4.24665515729441
30
0
41
1
10
81.6144485148215
20
-4.18771314185028
30
0
41
1
10
81.7165181844747
20
-4.06971946228796
30
0
41
1
10
81.7679810086773
20
-4.01076241713469
30
0
41
1
10
81.82
20
-3.95191906122108
30
0
0
SPLINE
5
148
100
AcDbEntity
8
1
62
256
6
ByLayer
370
18
48
1
60
0
100
AcDbSpline
70
4
71
3
72
22
73
18
40
0
40
0
40
0
40
0
40
0.174871013321706
40
0.174871013321706
40
0.262306519982559
40
0.262306519982559
40
0.349742026643412
40
0.349742026643412
40
0.524613039965118
40
0.524613039965118
40
0.699484053286824
40
0.699484053286824
40
0.87435506660853
40
0.87435506660853
40
0.961790573269384
40
0.961790573269384
40
1
40
1
40
1
40
1
41
1
10
81.82
20
-3.9519190612215
30
0
41
1
10
81.82
20
-3.85028233550304
30
0
41
1
10
81.82
20
-3.75126797275772
30
0
41
1
10
81.82
20
-3.60678967788769
30
0
41
1
10
81.82
20
-3.55930755679196
30
0
41
1
10
81.82
20
-3.465724100963
30
0
41
1
10
81.82
20
-3.41959654772793
30
0
41
1
10
81.82
20
-3.28350492997603
30
0
41
1
10
81.82
20
-3.19719801305288
30
0
41
1
10
81.82
20
-3.03312937144941
30
0
41
1
10
81.82
20
-2.95537847406629
30
0
41
1
10
81.82
20
-2.80833784389299
30
0
41
1
10
81.82
20
-2.73905820970867
30
0
41
1
10
81.82
20
-2.64155914073101
30
0
41
1
10
81.82
20
-2.61013122138939
30
0
41
1
10
81.82
20
-2.56653538878325
30
0
41
1
10
81.8199999999999
20
-2.55348557130813
30
0
41
1
10
81.8199999999999
20
-2.54064506121779
30
0
0
SPLINE
5
149
100
AcDbEntity
8
1
62
256
6
ByLayer
370
18
48
1
60
0
100
AcDbSpline
70
4
71
3
72
16
73
12
40
0
40
0
40
0
40
0
40
0.249999999999992
40
0.249999999999992
40
0.499999999999984
40
0.499999999999984
40
0.749999999999978
40
0.749999999999978
40
0.874999999999989
40
0.874999999999989
40
1
40
1
40
1
40
1
41
1
10
81.82
20
-2.48561590184545
30
0
41
1
10
81.7710085747545
20
-2.48378769219403
30
0
41
1
10
81.7217318442613
20
-2.48204922413996
30
0
41
1
10
81.6226938015668
20
-2.4786780792881
30
0
41
1
10
81.5729311546716
20
-2.47704752573242
30
0
41
1
10
81.472919561396
20
-2.47406241917065
30
0
41
1
10
81.4226723593323
20
-2.47271241272728
30
0
41
1
10
81.3469428732044
20
-2.4710242742529
30
0
41
1
10
81.321642293221
20
-2.47051171983037
30
0
41
1
10
81.2709170496323
20
-2.4696411830179
30
0
41
1
10
81.2454817368397
20
-2.46932055700569
30
0
41
1
10
81.2200000628787
20
-2.46903420435618
30
0
0
SPLINE
5
14A
100
AcDbEntity
8
1
62
256
6
ByLayer
370
18
48
1
60
0
100
AcDbSpline
70
4
71
3
72
16
73
12
40
0
40
0
40
0
40
0
40
0.25
40
0.25
40
0.5
40
0.5
40
0.75
40
0.75
40
0.875
40
0.875
40
1
40
1
40
1
40
1
41
1
10
81.2200000628786
20
-2.46903420435609
30
0
41
1
10
81.102930624229
20
-2.40399518039286
30
0
41
1
10
80.9864268404346
20
-2.33650227934655
30
0
41
1
10
80.7546970153253
20
-2.1963233954659
30
0
41
1
10
80.6394241981117
20
-2.12369372463414
30
0
41
1
10
80.4097868244865
20
-1.97357544950631
30
0
41
1
10
80.2954266614895
20
-1.89608099938724
30
0
41
1
10
80.1243607849537
20
-1.77635614984186
30
0
41
1
10
80.0674032416568
20
-1.73585679292987
30
0
41
1
10
79.9536734833196
20
-1.65376757118071
30
0
41
1
10
79.8969940541822
20
-1.61224579960518
30
0
41
1
10
79.8404303143767
20
-1.57032425306227
30
0
0
SPLINE
5
14B
100
AcDbEntity
8
1
62
256
6
ByLayer
370
18
48
1
60
0
100
AcDbSpline
70
4
71
3
72
8
73
4
40
0
40
0
40
0
40
0
40
1
40
1
40
1
40
1
41
1
10
79.8404303143766
20
-1.57032425306227
30
0
41
1
10
79.7971889113188
20
-1.49401930591336
30
0
41
1
10
79.7538072069235
20
-1.41880189561314
30
0
41
1
10
79.7102607346158
20
-1.34469031816286
30
0
0
SPLINE
5
14C
100
AcDbEntity
8
1
62
256
6
ByLayer
370
18
48
1
60
0
100
AcDbSpline
70
4
71
3
72
30
73
26
40
0
40
0
40
0
40
0
40
0.125000000000023
40
0.125000000000023
40
0.250000000000045
40
0.250000000000045
40
0.375000000000067
40
0.375000000000067
40
0.437500000000057
40
0.437500000000057
40
0.500000000000047
40
0.500000000000047
40
0.62500000000007
40
0.62500000000007
40
0.687500000000059
40
0.687500000000059
40
0.750000000000047
40
0.750000000000047
40
0.812500000000035
40
0.812500000000035
40
0.875000000000023
40
0.875000000000023
40
0.937500000000012
40
0.937500000000012
40
1
40
1
40
1
40
1
41
1
10
79.7102607346158
20
-1.34469031816289
30
0
41
1
10
79.6977817873261
20
-1.32345244470147
30
0
41
1
10
79.6833060059286
20
-1.30212713185321
30
0
41
1
10
79.6512900015183
20
-1.25938190752916
30
0
41
1
10
79.6335885274665
20
-1.23782047156132
30
0
41
1
10
79.5966343059181
20
-1.19603481976006
30
0
41
1
10
79.5772661031826
20
-1.17564223153667
30
0
41
1
10
79.5469738964906
20
-1.14572995468103
30
0
41
1
10
79.5366678273211
20
-1.1358729893372
30
0
41
1
10
79.5156303318091
20
-1.11638636996679
30
0
41
1
10
79.5049980267109
20
-1.10684991261309
30
0
41
1
10
79.472993105738
20
-1.07904454465265
30
0
41
1
10
79.4514230749859
20
-1.06148254435291
30
0
41
1
10
79.4187406984259
20
-1.03672208091157
30
0
41
1
10
79.4077914940447
20
-1.02873489736899
30
0
41
1
10
79.3857784653744
20
-1.01335914738712
30
0
41
1
10
79.374771120205
20
-1.00601452373434
30
0
41
1
10
79.3532007523446
20
-0.992368456911066
30
0
41
1
10
79.3425783144369
20
-0.986024141855211
30
0
41
1
10
79.3217213164037
20
-0.974432589588076
30
0
41
1
10
79.3114132350492
20
-0.969154414099421
30
0
41
1
10
79.2918571957412
20
-0.960201710431562
30
0
41
1
10
79.2825635097731
20
-0.956493254989027
30
0
41
1
10
79.2651150865338
20
-0.950881730491915
30
0
41
1
10
79.256947579993
20
-0.948990396066165
30
0
41
1
10
79.2497342682628
20
-0.948256439995362
30
0
0
SPLINE
5
14D
100
AcDbEntity
8
1
62
256
6
ByLayer
370
18
48
1
60
0
100
AcDbSpline
70
4
71
3
72
10
73
6
40
0
40
0
40
0
40
0
40
0.502944810356277
40
0.502944810356277
40
1
40
1
40
1
40
1
41
1
10
69.2350574576919
20
6.03564310338217
30
0
41
1
10
69.2372053209229
20
6.04106768140676
30
0
41
1
10
69.2393553380642
20
6.04596143153401
30
0
41
1
10
69.2436355385997
20
6.05462736497537
30
0
41
1
10
69.2457672985405
20
6.05841399008173
30
0
41
1
10
69.2478996366917
20
6.06166757816032
30
0
0
SPLINE
5
14E
100
AcDbEntity
8
1
62
256
6
ByLayer
370
18
48
1
60
0
100
AcDbSpline
70
4
71
3
72
8
73
4
40
0
40
0
40
0
40
0
40
1
40
1
40
1
40
1
41
1
10
69.2673265098484
20
6.07650336780131
30
0
41
1
10
69.2730947762007
20
6.07650535262718
30
0
41
1
10
69.2788511157296
20
6.07258287140044
30
0
41
1
10
69.2846141415835
20
6.06480064113291
30
0
0
SPLINE
5
14F
100
AcDbEntity
8
1
62
256
6
ByLayer
370
18
48
1
60
0
100
AcDbSpline
70
4
71
3
72
12
73
8
40
0
40
0
40
0
40
0
40
0.552409889825942
40
0.552409889825942
40
0.828614834738914
40
0.828614834738914
40
1
40
1
40
1
40
1
41
1
10
69.4666332325858
20
6.04974679370346
30
0
41
1
10
69.4618443822893
20
6.0595366122412
30
0
41
1
10
69.4570329201548
20
6.06667506076076
30
0
41
1
10
69.449785136806
20
6.07332074291566
30
0
41
1
10
69.4473652232366
20
6.07485507364902
30
0
41
1
10
69.4434581276547
20
6.07623064292989
30
0
41
1
10
69.4419641497975
20
6.07649484773384
30
0
41
1
10
69.440472150284
20
6.07649827591217
30
0
0
SPLINE
5
150
100
AcDbEntity
8
1
62
256
6
ByLayer
370
18
48
1
60
0
100
AcDbSpline
70
4
71
3
72
10
73
6
40
0
40
0
40
0
40
0
40
0.0751456027568832
40
0.0751456027568832
40
1
40
1
40
1
40
1
41
1
10
66.8154284770057
20
-6.07649787458277
30
0
41
1
10
66.8146453291072
20
-6.07649832142138
30
0
41
1
10
66.8138625411359
20
-6.07642667610875
30
0
41
1
10
66.8034571468911
20
-6.07451279069582
30
0
41
1
10
66.7939367394421
20
-6.06188026064677
30
0
41
1
10
66.7844148775375
20
-6.03873563074137
30
0
0
SPLINE
5
151
100
AcDbEntity
8
1
62
256
6
ByLayer
370
18
48
1
60
0
100
AcDbSpline
70
4
71
3
72
14
73
10
40
0
40
0
40
0
40
0
40
0.18034200415123
40
0.18034200415123
40
0.360684008302459
40
0.360684008302459
40
0.721368016604918
40
0.721368016604918
40
1
40
1
40
1
40
1
41
1
10
66.6024754066408
20
-6.01428011994417
30
0
41
1
10
66.6048780368037
20
-6.02174803688143
30
0
41
1
10
66.6072848338042
20
-6.02855955742194
30
0
41
1
10
66.6121069122917
20
-6.04085539571616
30
0
41
1
10
66.6145256644261
20
-6.04634572854678
30
0
41
1
10
66.6217605942161
20
-6.06073530487208
30
0
41
1
10
66.626559357571
20
-6.06757424190636
30
0
41
1
10
66.6350326267318
20
-6.07491461456095
30
0
41
1
10
66.6387139861889
20
-6.07650696009969
30
0
41
1
10
66.6423892951965
20
-6.07650308430087
30
0
0
SPLINE
5
152
100
AcDbEntity
8
1
62
256
6
ByLayer
370
13
48
1
60
0
100
AcDbSpline
70
4
71
3
72
9
73
5
40
0
40
0
40
0
40
0
40
0.560819233083858
40
1
40
1
40
1
40
1
41
1
10
70.4219890885441
20
5.06844095166616
30
0
41
1
10
70.4390535046662
20
5.09784358358607
30
0
41
1
10
70.4694811633167
20
5.09949169468075
30
0
41
1
10
70.4999088179014
20
5.00977631171239
30
0
41
1
10
70.5132720587619
20
4.95332490560176
30
0
0
SPLINE
5
153
100
AcDbEntity
8
1
62
256
6
ByLayer
370
18
48
1
60
0
100
AcDbSpline
70
4
71
3
72
18
73
14
40
0
40
0
40
0
40
0
40
0.0574907135111373
40
0.0574907135111373
40
0.124812805403199
40
0.124812805403199
40
0.19213489729526
40
0.19213489729526
40
0.461423264863507
40
0.461423264863507
40
0.730711632431753
40
0.730711632431753
40
1
40
1
40
1
40
1
41
1
10
71.0174023063515
20
6.0764986140984
30
0
41
1
10
71.019443894511
20
6.07649563615499
30
0
41
1
10
71.0214874704883
20
6.07600059250348
30
0
41
1
10
71.0259302147877
20
6.07385039941735
30
0
41
1
10
71.0283304990018
20
6.07201099077295
30
0
41
1
10
71.033142470269
20
6.06695795637842
30
0
41
1
10
71.035557595505
20
6.06373782811792
30
0
41
1
10
71.0476123646119
20
6.04426249000551
30
0
41
1
10
71.0572196911653
20
6.01792614689998
30
0
41
1
10
71.0763460086335
20
5.94444427426325
30
0
41
1
10
71.085863088293
20
5.89729671040891
30
0
41
1
10
71.1049118008082
20
5.7822138372259
30
0
41
1
10
71.1144494136331
20
5.71428017290964
30
0
41
1
10
71.1241024326894
20
5.6356315990206
30
0
0
SPLINE
5
154
100
AcDbEntity
8
1
62
256
6
ByLayer
370
18
48
1
60
0
100
AcDbSpline
70
4
71
3
72
18
73
14
40
0
40
0
40
0
40
0
40
0.248523736542471
40
0.497047473084941
40
0.497047473084941
40
0.559178407220559
40
0.559178407220559
40
0.621309341356176
40
0.621309341356176
40
0.745571209627412
40
0.745571209627412
40
0.994094946169882
40
1
40
1
40
1
40
1
41
1
10
71.306041485253
20
5.56075725705131
30
0
41
1
10
71.2964680198421
20
5.64488488822693
30
0
41
1
10
71.2773581339233
20
5.79284701186756
30
0
41
1
10
71.258297790153
20
5.9005537273261
30
0
41
1
10
71.246307911057
20
5.95498777988422
30
0
41
1
10
71.243905730417
20
5.96522881728188
30
0
41
1
10
71.2390892122328
20
5.9844049941247
30
0
41
1
10
71.2366716077871
20
5.99335016670318
30
0
41
1
10
71.2294315646822
20
6.01807945234211
30
0
41
1
10
71.2246138816706
20
6.03179508713814
30
0
41
1
10
71.2101967513877
20
6.06479961697386
30
0
41
1
10
71.2004104967875
20
6.07623268900053
30
0
41
1
10
71.1906526107516
20
6.07649813500058
30
0
41
1
10
71.1904261534017
20
6.07649827803638
30
0
0
SPLINE
5
155
100
AcDbEntity
8
1
62
256
6
ByLayer
370
13
48
1
60
0
100
AcDbSpline
70
4
71
3
72
10
73
6
40
0
40
0
40
0
40
0
40
0.335123003136225
40
0.995875569732483
40
1
40
1
40
1
40
1
41
1
10
65.5452037445125
20
-4.82840469737812
30
0
41
1
10
65.5581806805112
20
-4.90361575763669
30
0
41
1
10
65.5967438738741
20
-5.08054555130264
30
0
41
1
10
65.6354667320398
20
-5.11268869394826
30
0
41
1
10
65.6612127005061
20
-5.06868911671091
30
0
41
1
10
65.6613724104267
20
-5.06841365967031
30
0
0
SPLINE
5
156
100
AcDbEntity
8
1
62
256
6
ByLayer
370
13
48
1
60
0
100
AcDbSpline
70
4
71
3
72
10
73
6
40
0
40
0
40
0
40
0
40
0.154107958422134
40
0.872260398472962
40
1
40
1
40
1
40
1
41
1
10
71.7851227226894
20
5.07048753468663
30
0
41
1
10
71.7906132582051
20
5.06148647820851
30
0
41
1
10
71.8216900326595
20
4.99381231700869
30
0
41
1
10
71.8573180152709
20
4.80775299056029
30
0
41
1
10
71.887455353272
20
4.56837172529146
30
0
41
1
10
71.8920064425862
20
4.53040607209022
30
0
0
SPLINE
5
157
100
AcDbEntity
8
1
62
256
6
ByLayer
370
18
48
1
60
0
100
AcDbSpline
70
4
71
3
72
19
73
15
40
0
40
0
40
0
40
0
40
0.0471115214715187
40
0.0471115214715187
40
0.285333641103638
40
0.285333641103638
40
0.344889171011668
40
0.344889171011668
40
0.404444700919698
40
0.523555760735758
40
0.523555760735758
40
0.761777880367879
40
0.761777880367879
40
1
40
1
40
1
40
1
41
1
10
65.0654563710816
20
-6.07650037425228
30
0
41
1
10
65.063569499228
20
-6.07650380360744
30
0
41
1
10
65.0616825491339
20
-6.07609011729545
30
0
41
1
10
65.0502534144905
20
-6.07105717469221
30
0
41
1
10
65.0407088000345
20
-6.0561872451496
30
0
41
1
10
65.0286798478816
20
-6.02380001517383
30
0
41
1
10
65.0262703516248
20
-6.01663267651182
30
0
41
1
10
65.0214650838725
20
-6.00099981936586
30
0
41
1
10
65.0142678984069
20
-5.97557633098097
30
0
41
1
10
65.0070813878378
20
-5.94429798215378
30
0
41
1
10
64.9927308530689
20
-5.87405300291428
30
0
41
1
10
64.9831980359888
20
-5.81699178724492
30
0
41
1
10
64.9641511170798
20
-5.68253944429853
30
0
41
1
10
64.9546373331188
20
-5.60514922797327
30
0
41
1
10
64.945041755042
20
-5.51733651304249
30
0
0
SPLINE
5
158
100
AcDbEntity
8
1
62
256
6
ByLayer
370
18
48
1
60
0
100
AcDbSpline
70
4
71
3
72
19
73
15
40
0
40
0
40
0
40
0
40
0.221847130826239
40
0.221847130826239
40
0.443694261652478
40
0.443694261652478
40
0.499156044359037
40
0.499156044359037
40
0.554617827065597
40
0.665541392478715
40
0.665541392478715
40
0.887388523304952
40
0.887388523304952
40
1
40
1
40
1
40
1
41
1
10
64.7630659801863
20
-5.43356297425177
30
0
41
1
10
64.7726275020868
20
-5.52675549977084
30
0
41
1
10
64.7821554290459
20
-5.61012029718853
30
0
41
1
10
64.8012078674331
20
-5.75724715396464
30
0
41
1
10
64.810732003706
20
-5.82101050093317
30
0
41
1
10
64.8227574978463
20
-5.88810135118905
30
0
41
1
10
64.8251711017201
20
-5.9008960871007
30
0
41
1
10
64.8300054900851
20
-5.92516665767047
30
0
41
1
10
64.8372464723862
20
-5.95949347588336
30
0
41
1
10
64.8444521670297
20
-5.98766268281165
30
0
41
1
10
64.8588190537972
20
-6.0359361623355
30
0
41
1
10
64.8683336213358
20
-6.05738608130258
30
0
41
1
10
64.8826668046889
20
-6.07372835900804
30
0
41
1
10
64.8874924076266
20
-6.07649701870889
30
0
41
1
10
64.8923309757206
20
-6.07650367541908
30
0
0
SPLINE
5
159
100
AcDbEntity
8
1
62
256
6
ByLayer
370
13
48
1
60
0
100
AcDbSpline
70
4
71
3
72
10
73
6
40
0
40
0
40
0
40
0
40
0.0957647183121129
40
0.683614554364036
40
1
40
1
40
1
40
1
41
1
10
64.1664593421866
20
-4.30492696865406
30
0
41
1
10
64.1706275159715
20
-4.34561300512348
30
0
41
1
10
64.2003819425479
20
-4.62571336659664
30
0
41
1
10
64.2439070966371
20
-4.92401923649143
30
0
41
1
10
64.2832640748699
20
-5.04477914625483
30
0
41
1
10
64.2970347995719
20
-5.0685039432818
30
0
0
SPLINE
5
15A
100
AcDbEntity
8
1
62
256
6
ByLayer
370
18
48
1
60
0
100
AcDbSpline
70
4
71
3
72
29
73
25
40
0
40
0
40
0
40
0
40
0.023026621587429
40
0.023026621587429
40
0.162594247074939
40
0.162594247074939
40
0.30216187256245
40
0.30216187256245
40
0.337053778934327
40
0.337053778934327
40
0.371945685306204
40
0.371945685306204
40
0.441729498049959
40
0.441729498049959
40
0.581297123537469
40
0.720864749024978
40
0.720864749024978
40
0.790648561768733
40
0.790648561768733
40
0.825540468140611
40
0.825540468140611
40
0.860432374512489
40
0.860432374512489
40
1
40
1
40
1
40
1
41
1
10
63.4234140614952
20
-5.8895925968198
30
0
41
1
10
63.4226637368631
20
-5.88828753979575
30
0
41
1
10
63.4219134757293
20
-5.88672693756061
30
0
41
1
10
63.4166157795857
20
-5.87391180168871
30
0
41
1
10
63.4120755828517
20
-5.85358093184431
30
0
41
1
10
63.4029812576678
20
-5.7942670320511
30
0
41
1
10
63.3984273435483
20
-5.7552856977855
30
0
41
1
10
63.3926731342772
20
-5.69450446244562
30
0
41
1
10
63.3915190324795
20
-5.68174377415741
30
0
41
1
10
63.3892024749844
20
-5.65499675306489
30
0
41
1
10
63.3880397230864
20
-5.64100347943386
30
0
41
1
10
63.38455982733
20
-5.59742577991065
30
0
41
1
10
63.3822445585936
20
-5.5661714565133
30
0
41
1
10
63.3753129405668
20
-5.46592996411817
30
0
41
1
10
63.3661118322275
20
-5.31503490783047
30
0
41
1
10
63.3569151481345
20
-5.13010983171202
30
0
41
1
10
63.3499482201276
20
-4.97837665532265
30
0
41
1
10
63.3476140683724
20
-4.92562130549337
30
0
41
1
10
63.344096089277
20
-4.84316440493592
30
0
41
1
10
63.3429206097501
20
-4.81512447420883
30
0
41
1
10
63.3405638272264
20
-4.75792244617898
30
0
41
1
10
63.3393861163208
20
-4.72884689811184
30
0
41
1
10
63.333511553334
20
-4.58140272607162
30
0
41
1
10
63.3288469542633
20
-4.45656826391959
30
0
41
1
10
63.324187928274
20
-4.32502037852458
30
0
0
SPLINE
5
15B
100
AcDbEntity
8
1
62
256
6
ByLayer
370
13
48
1
60
0
100
AcDbSpline
70
4
71
3
72
11
73
7
40
0
40
0
40
0
40
0
40
0.185188214767882
40
0.580073942597309
40
0.974959670426736
40
1
40
1
40
1
40
1
41
1
10
63.7059270607703
20
-4.07388885492503
30
0
41
1
10
63.7179261704567
20
-4.20542597423238
30
0
41
1
10
63.7555115647001
20
-4.58202901979806
30
0
41
1
10
63.8186830805762
20
-5.01028832314799
30
0
41
1
10
63.8714779833927
20
-5.10802221035109
30
0
41
1
10
63.8986867363158
20
-5.08512020090606
30
0
41
1
10
63.9003092034544
20
-5.08349479428347
30
0
0
SPLINE
5
15C
100
AcDbEntity
8
1
62
256
6
ByLayer
370
18
48
1
60
0
100
AcDbSpline
70
4
71
3
72
8
73
4
40
0
40
0
40
0
40
0
40
1
40
1
40
1
40
1
41
1
10
63.9003092861569
20
-5.08349471143097
30
0
41
1
10
63.9039441462466
20
-5.07985324615504
30
0
41
1
10
63.9075790073922
20
-5.07490806533531
30
0
41
1
10
63.9112138691544
20
-5.06866796210193
30
0
0
SPLINE
5
15D
100
AcDbEntity
8
1
62
256
6
ByLayer
370
18
48
1
60
0
100
AcDbSpline
70
4
71
3
72
8
73
4
40
0
40
0
40
0
40
0
40
1
40
1
40
1
40
1
41
1
10
72.1729503337226
20
5.07010886689247
30
0
41
1
10
72.1767107998788
20
5.07635026173878
30
0
41
1
10
72.1804712660973
20
5.08120305929879
30
0
41
1
10
72.1842317323547
20
5.08466763879383
30
0
0
SPLINE
5
15E
100
AcDbEntity
8
1
62
256
6
ByLayer
370
13
48
1
60
0
100
AcDbSpline
70
4
71
3
72
10
73
6
40
0
40
0
40
0
40
0
40
0.322927660942443
40
0.778562963340939
40
1
40
1
40
1
40
1
41
1
10
72.1842317323547
20
5.08466763879372
30
0
41
1
10
72.2023657744054
20
5.1013748303892
30
0
41
1
10
72.2460860744302
20
5.06382416490715
30
0
41
1
10
72.3022411860585
20
4.77489441730998
30
0
41
1
10
72.3402622629823
20
4.44851537515214
30
0
41
1
10
72.3526970859404
20
4.32887231590021
30
0
0
SPLINE
5
15F
100
AcDbEntity
8
1
62
256
6
ByLayer
370
18
48
1
60
0
100
AcDbSpline
70
4
71
3
72
27
73
23
40
0
40
0
40
0
40
0
40
0.121263617704005
40
0.121263617704005
40
0.267719681420005
40
0.267719681420005
40
0.304333697349005
40
0.304333697349005
40
0.340947713278005
40
0.414175745136004
40
0.414175745136004
40
0.560631808852004
40
0.560631808852004
40
0.707087872568003
40
0.707087872568003
40
0.743701888497003
40
0.743701888497003
40
0.780315904426002
40
0.780315904426002
40
0.853543936284001
40
0.853543936284001
40
1
40
1
40
1
40
1
41
1
10
72.7673939297129
20
6.07649997222143
30
0
41
1
10
72.7752908493428
20
6.07648750939333
30
0
41
1
10
72.7831653059116
20
6.06914811692221
30
0
41
1
10
72.8005892520351
20
6.03674647970985
30
0
41
1
10
72.8101668087507
20
6.00832122001813
30
0
41
1
10
72.8222691151189
20
5.95895712448541
30
0
41
1
10
72.824695031702
20
5.94838776400056
30
0
41
1
10
72.8295290128525
20
5.92598632929392
30
0
41
1
10
72.8367640762199
20
5.89044767860787
30
0
41
1
10
72.8439533108287
20
5.84916668400001
30
0
41
1
10
72.8582874696563
20
5.75906646749812
30
0
41
1
10
72.8677804376896
20
5.68896808096952
30
0
41
1
10
72.8868281649303
20
5.5288508139883
30
0
41
1
10
72.8964060891565
20
5.43883342356955
30
0
41
1
10
72.9084513417942
20
5.31355062788131
30
0
41
1
10
72.9108639665685
20
5.28785438108892
30
0
41
1
10
72.9156971855301
20
5.23516795616104
30
0
41
1
10
72.9181195321719
20
5.20815606462241
30
0
41
1
10
72.9253586258942
20
5.12564231134536
30
0
41
1
10
72.9301603415875
20
5.06852419634319
30
0
41
1
10
72.9445180837579
20
4.89096867848849
30
0
41
1
10
72.9540253925829
20
4.76434611079651
30
0
41
1
10
72.9635723186114
20
4.6296026361947
30
0
0
SPLINE
5
160
100
AcDbEntity
8
1
62
256
6
ByLayer
370
18
48
1
60
0
100
AcDbSpline
70
4
71
3
72
8
73
4
40
0
40
0
40
0
40
0
40
1
40
1
40
1
40
1
41
1
10
73.5394709524935
20
5.06271448999991
30
0
41
1
10
73.5433625979503
20
5.05522407011233
30
0
41
1
10
73.5472542431949
20
5.04625461820228
30
0
41
1
10
73.5511458885345
20
5.03581031467252
30
0
0
SPLINE
5
161
100
AcDbEntity
8
1
62
256
6
ByLayer
370
13
48
1
60
0
100
AcDbSpline
70
4
71
3
72
11
73
7
40
0
40
0
40
0
40
0
40
0.0882595454212179
40
0.514341836382566
40
0.940424127343913
40
1
40
1
40
1
40
1
41
1
10
73.5511458885345
20
5.03581031467249
30
0
41
1
10
73.5564458688914
20
5.02158635572462
30
0
41
1
10
73.5873320660403
20
4.92275354899465
30
0
41
1
10
73.6438045389026
20
4.57284637578195
30
0
41
1
10
73.6985545953521
20
3.98745002286202
30
0
41
1
10
73.7277183684458
20
3.61431331092152
30
0
41
1
10
73.7312958994342
20
3.56765577689239
30
0
0
SPLINE
5
162
100
AcDbEntity
8
1
62
256
6
ByLayer
370
18
48
1
60
0
100
AcDbSpline
70
4
71
3
72
29
73
25
40
0
40
0
40
0
40
0
40
0.0700145586033331
40
0.0700145586033331
40
0.105021837905
40
0.105021837905
40
0.140029117206667
40
0.140029117206667
40
0.280058234413334
40
0.280058234413334
40
0.42008735162
40
0.42008735162
40
0.560116468826667
40
0.560116468826667
40
0.595123748128334
40
0.595123748128334
40
0.630131027430001
40
0.700145586033334
40
0.700145586033334
40
0.84017470324
40
0.84017470324
40
0.980203820446666
40
0.980203820446666
40
1
40
1
40
1
40
1
41
1
10
73.1455510992844
20
4.50249098219425
30
0
41
1
10
73.1407677219702
20
4.57246680878859
30
0
41
1
10
73.1359701386793
20
4.64058781565294
30
0
41
1
10
73.1287535616865
20
4.73994455786175
30
0
41
1
10
73.1263446033569
20
4.77259243352091
30
0
41
1
10
73.1215191886595
20
4.83693597824248
30
0
41
1
10
73.1190993149067
20
4.86867539215106
30
0
41
1
10
73.1070236487105
20
5.02437835374422
30
0
41
1
10
73.0974692235678
20
5.13908395081054
30
0
41
1
10
73.0784146295165
20
5.34944193153717
30
0
41
1
10
73.0688910360517
20
5.44509195990452
30
0
41
1
10
73.0497801835915
20
5.61737601299461
30
0
41
1
10
73.0402113428661
20
5.69401178101489
30
0
41
1
10
73.0281885472669
20
5.77756536447447
30
0
41
1
10
73.0257779134315
20
5.79367918123216
30
0
41
1
10
73.0209594349062
20
5.82458598624501
30
0
41
1
10
73.0137494142434
20
5.86888151699688
30
0
41
1
10
73.0065791483393
20
5.90706084778478
30
0
41
1
10
72.9922465791397
20
5.97540627726852
30
0
41
1
10
72.9826918336464
20
6.0103063226428
30
0
41
1
10
72.96360094153
20
6.05901257596804
30
0
41
1
10
72.9540667085177
20
6.07281924432007
30
0
41
1
10
72.9431358293968
20
6.07628759607147
30
0
41
1
10
72.9417807731988
20
6.07650139239294
30
0
41
1
10
72.9404244394865
20
6.07649814199544
30
0
0
SPLINE
5
163
100
AcDbEntity
8
1
62
256
6
ByLayer
370
18
48
1
60
0
100
AcDbSpline
70
4
71
3
72
32
73
28
40
0
40
0
40
0
40
0
40
0.0177007952180889
40
0.0177007952180889
40
0.0527829096745855
40
0.0527829096745855
40
0.087865024131082
40
0.158029253044076
40
0.158029253044076
40
0.298357710870063
40
0.298357710870063
40
0.438686168696049
40
0.438686168696049
40
0.473768283152546
40
0.473768283152546
40
0.508850397609043
40
0.508850397609043
40
0.579014626522037
40
0.579014626522037
40
0.719343084348025
40
0.859671542174012
40
0.859671542174012
40
0.929835771087006
40
0.929835771087006
40
0.964917885543503
40
0.964917885543503
40
1
40
1
40
1
40
1
41
1
10
75.5729887996257
20
-6.07426005721373
30
0
41
1
10
75.5717739544129
20
-6.07497836842754
30
0
41
1
10
75.570558345025
20
-6.07552440989662
30
0
41
1
10
75.5669310585707
20
-6.07663700985998
30
0
41
1
10
75.5645131575253
20
-6.07669397583385
30
0
41
1
10
75.5596881234284
20
-6.07543547994033
30
0
41
1
10
75.5524689741449
20
-6.07149664404898
30
0
41
1
10
75.5452941645191
20
-6.06148031419863
30
0
41
1
10
75.5309649890289
20
-6.03348131440208
30
0
41
1
10
75.5214183515674
20
-6.00421431002823
30
0
41
1
10
75.5023124194493
20
-5.92468756783617
30
0
41
1
10
75.4927642887174
20
-5.87442835361534
30
0
41
1
10
75.4807802503147
20
-5.7981946444086
30
0
41
1
10
75.47838064802
20
-5.78227572420943
30
0
41
1
10
75.4735730367508
20
-5.74907929930365
30
0
41
1
10
75.4711620014292
20
-5.73177903216535
30
0
41
1
10
75.4639333023133
20
-5.67798093739768
30
0
41
1
10
75.4591333164098
20
-5.63969256606799
30
0
41
1
10
75.4447422037266
20
-5.51771404991726
30
0
41
1
10
75.4255957524774
20
-5.33614424389475
30
0
41
1
10
75.4065518846172
20
-5.11740683971794
30
0
41
1
10
75.3922151533732
20
-4.93923345130042
30
0
41
1
10
75.3874262295961
20
-4.87748437552318
30
0
41
1
10
75.3802063794141
20
-4.78125784373793
30
0
41
1
10
75.3777913580845
20
-4.74855433315201
30
0
41
1
10
75.3729547551773
20
-4.68205035883784
30
0
41
1
10
75.3705399432667
20
-4.64833847157212
30
0
41
1
10
75.3681289228474
20
-4.61417215863412
30
0
0
SPLINE
5
164
100
AcDbEntity
8
1
62
256
6
ByLayer
370
18
48
1
60
0
100
AcDbSpline
70
4
71
3
72
28
73
24
40
0
40
0
40
0
40
0
40
0.139484670406884
40
0.278969340813768
40
0.278969340813768
40
0.34871167601721
40
0.34871167601721
40
0.383582843618931
40
0.383582843618931
40
0.418454011220652
40
0.418454011220652
40
0.557938681627535
40
0.557938681627535
40
0.697423352034419
40
0.697423352034419
40
0.836908022441302
40
0.836908022441302
40
0.871779190043023
40
0.871779190043023
40
0.906650357644744
40
0.976392692848186
40
0.976392692848186
40
1
40
1
40
1
40
1
41
1
10
75.1861231534191
20
-4.4860246923208
30
0
41
1
10
75.1957371883895
20
-4.62754866652776
30
0
41
1
10
75.2149109419759
20
-4.89276243146554
30
0
41
1
10
75.2339642964716
20
-5.12310523154403
30
0
41
1
10
75.2483007293523
20
-5.28266264586824
30
0
41
1
10
75.2530882783072
20
-5.33364419235153
30
0
41
1
10
75.260303623913
20
-5.4067542703468
30
0
41
1
10
75.2627146620027
20
-5.43056362792785
30
0
41
1
10
75.2675516482613
20
-5.47704808179608
30
0
41
1
10
75.2699782568856
20
-5.49973081202199
30
0
41
1
10
75.2820735683787
20
-5.60964348954087
30
0
41
1
10
75.2916795590567
20
-5.68694790836932
30
0
41
1
10
75.3107894147944
20
-5.82096260389858
30
0
41
1
10
75.3202933288246
20
-5.87767107008742
30
0
41
1
10
75.3393703841015
20
-5.97047604100482
30
0
41
1
10
75.3489701583991
20
-6.00657420915368
30
0
41
1
10
75.3610741251687
20
-6.03838928365991
30
0
41
1
10
75.3635019065493
20
-6.04408824076503
30
0
41
1
10
75.3683398542045
20
-6.05408398691679
30
0
41
1
10
75.3755794731362
20
-6.0670012661505
30
0
41
1
10
75.3827711430017
20
-6.07376323155859
30
0
41
1
10
75.3891695694548
20
-6.0761937847349
30
0
41
1
10
75.3907859480895
20
-6.0765005945668
30
0
41
1
10
75.3924011016997
20
-6.07649996503142
30
0
0
SPLINE
5
165
100
AcDbEntity
8
1
62
256
6
ByLayer
370
18
48
1
60
0
100
AcDbSpline
70
4
71
3
72
11
73
7
40
0
40
0
40
0
40
0
40
0.119718576365308
40
0.119718576365308
40
0.413145717576873
40
1
40
1
40
1
40
1
41
1
10
37.4593409739285
20
4.51099981218945
30
0
41
1
10
37.4777113253828
20
4.51099975887078
30
0
41
1
10
37.496094158224
20
4.51088720193948
30
0
41
1
10
37.5595447631771
20
4.51011145042222
30
0
41
1
10
37.6948806390683
20
4.50643785991792
30
0
41
1
10
37.8306081260555
20
4.49675565845075
30
0
41
1
10
37.9212620413089
20
4.48764977933882
30
0
0
SPLINE
5
166
100
AcDbEntity
8
1
62
256
6
ByLayer
370
18
48
1
60
0
100
AcDbSpline
70
4
71
3
72
32
73
28
40
0
40
0
40
0
40
0
40
0.0146868148500173
40
0.0146868148500173
40
0.10159042373439
40
0.10159042373439
40
0.275397641503134
40
0.275397641503134
40
0.362301250387505
40
0.362301250387505
40
0.405753054829691
40
0.405753054829691
40
0.449204859271877
40
0.449204859271877
40
0.536108468156249
40
0.536108468156249
40
0.623012077040621
40
0.623012077040621
40
0.796819294809384
40
0.796819294809384
40
0.883722903693766
40
0.883722903693766
40
0.927174708135956
40
0.927174708135956
40
0.970626512578147
40
0.970626512578147
40
1
40
1
40
1
40
1
41
1
10
38.4147428362213
20
-4.51099992802193
30
0
41
1
10
38.4043208542085
20
-4.51099938498058
30
0
41
1
10
38.3938930687596
20
-4.51099689198267
30
0
41
1
10
38.321723423014
20
-4.51096706640448
30
0
41
1
10
38.259764584117
20
-4.51087762177281
30
0
41
1
10
38.0731770777048
20
-4.5104957875179
30
0
41
1
10
37.9478290115614
20
-4.51009386184828
30
0
41
1
10
37.7582343115219
20
-4.50953686272086
30
0
41
1
10
37.6947799965477
20
-4.50935736214583
30
0
41
1
10
37.5991782669645
20
-4.50912436150958
30
0
41
1
10
37.5672100158781
20
-4.50905264704161
30
0
41
1
10
37.5032987773521
20
-4.50892564970232
30
0
41
1
10
37.4713623670782
20
-4.50887036735554
30
0
41
1
10
37.3756137302854
20
-4.50873427577329
30
0
41
1
10
37.3118640477642
20
-4.50868477593878
30
0
41
1
10
37.1845175768515
20
-4.50866988315732
30
0
41
1
10
37.1209230974765
20
-4.50870576147022
30
0
41
1
10
36.930393041453
20
-4.50894320846851
30
0
41
1
10
36.803709431715
20
-4.50928563086271
30
0
41
1
10
36.6142770558315
20
-4.50991201536945
30
0
41
1
10
36.5512320758545
20
-4.51013715242149
30
0
41
1
10
36.456828268149
20
-4.51044958999222
30
0
41
1
10
36.4253459089001
20
-4.51054930624187
30
0
41
1
10
36.3627426044452
20
-4.51072768490747
30
0
41
1
10
36.3316059580792
20
-4.51080652718315
30
0
41
1
10
36.2797065655182
20
-4.51090936042263
30
0
41
1
10
36.258850818912
20
-4.51094305764269
30
0
41
1
10
36.2380757313588
20
-4.51096608733312
30
0
0
SPLINE
5
167
100
AcDbEntity
8
1
62
256
6
ByLayer
370
18
48
1
60
0
100
AcDbSpline
70
4
71
3
72
8
73
4
40
0
40
0
40
0
40
0
40
1
40
1
40
1
40
1
41
1
10
63.0316291951141
20
4.93575633782976
30
0
41
1
10
63.0296823133627
20
4.95591394647008
30
0
41
1
10
63.0277321587816
20
4.97454715656701
30
0
41
1
10
63.0257776388034
20
4.99168143958977
30
0
0
SPLINE
5
168
100
AcDbEntity
8
1
62
256
6
ByLayer
370
18
48
1
60
0
100
AcDbSpline
70
4
71
3
72
29
73
25
40
0
40
0
40
0
40
0
40
0.125000000000001
40
0.125000000000001
40
0.250000000000002
40
0.250000000000002
40
0.281250000000003
40
0.281250000000003
40
0.312500000000003
40
0.312500000000003
40
0.375000000000003
40
0.375000000000003
40
0.500000000000003
40
0.500000000000003
40
0.625000000000003
40
0.625000000000003
40
0.750000000000003
40
0.750000000000003
40
0.781250000000003
40
0.781250000000003
40
0.812500000000002
40
0.875000000000001
40
0.875000000000001
40
1
40
1
40
1
40
1
41
1
10
63.1328175651493
20
2.66321192178501
30
0
41
1
10
63.1287010856561
20
2.79843744296517
30
0
41
1
10
63.1245868006561
20
2.92964223780979
30
0
41
1
10
63.1162950623031
20
3.18393264805795
30
0
41
1
10
63.1121225971343
20
3.30702378103237
30
0
41
1
10
63.1068715261193
20
3.45568750122942
30
0
41
1
10
63.1058194496393
20
3.48515963627224
30
0
41
1
10
63.1037111507011
20
3.54357689126167
30
0
41
1
10
63.1026542742315
20
3.57253887802636
30
0
41
1
10
63.0994928979381
20
3.65818637205112
30
0
41
1
10
63.0973925790636
20
3.71377816129467
30
0
41
1
10
63.0911044422795
20
3.87610443851693
30
0
41
1
10
63.0869301977024
20
3.97839991396833
30
0
41
1
10
63.0785476411246
20
4.1712635351806
30
0
41
1
10
63.074342465193
20
4.26183609347584
30
0
41
1
10
63.0659015694032
20
4.43118451440651
30
0
41
1
10
63.0616660255073
20
4.50996165519987
30
0
41
1
10
63.056327480081
20
4.60079009432206
30
0
41
1
10
63.0552566593912
20
4.61858509862572
30
0
41
1
10
63.0531174683843
20
4.6532693488756
30
0
41
1
10
63.0499099246704
20
4.70397996782046
30
0
41
1
10
63.0467011166197
20
4.75075510918936
30
0
41
1
10
63.0402666228455
20
4.83905484952652
30
0
41
1
10
63.0359579099303
20
4.89093772513257
30
0
41
1
10
63.0316291951143
20
4.93575633782649
30
0
0
SPLINE
5
169
100
AcDbEntity
8
1
62
256
6
ByLayer
370
13
48
1
60
0
100
AcDbSpline
70
4
71
3
72
11
73
7
40
0
40
0
40
0
40
0
40
0.162976635734045
40
0.519771405111204
40
0.876566174488363
40
1
40
1
40
1
40
1
41
1
10
63.092792391255
20
4.86809485094915
30
0
41
1
10
63.1044796687916
20
4.80557055690002
30
0
41
1
10
63.1417531788717
20
4.56528776603881
30
0
41
1
10
63.2046128994471
20
3.94839391429767
30
0
41
1
10
63.2646370443423
20
3.12629237629628
30
0
41
1
10
63.2990748980543
20
2.5886270456316
30
0
41
1
10
63.307926507934
20
2.44673051786128
30
0
0
SPLINE
5
16A
100
AcDbEntity
8
1
62
256
6
ByLayer
370
18
48
1
60
0
100
AcDbSpline
70
4
71
3
72
29
73
25
40
0
40
0
40
0
40
0
40
0.124999999999999
40
0.249999999999998
40
0.249999999999998
40
0.312499999999997
40
0.312499999999997
40
0.343749999999997
40
0.343749999999997
40
0.374999999999997
40
0.374999999999997
40
0.499999999999998
40
0.499999999999998
40
0.624999999999998
40
0.624999999999998
40
0.687499999999998
40
0.687499999999998
40
0.718749999999998
40
0.718749999999998
40
0.749999999999999
40
0.749999999999999
40
0.874999999999999
40
0.874999999999999
40
1
40
1
40
1
40
1
41
1
10
73.7586661086724
20
-5.95059408205705
30
0
41
1
10
73.749062866929
20
-5.90823880758416
30
0
41
1
10
73.7299376844664
20
-5.80288459667869
30
0
41
1
10
73.7109171134352
20
-5.65689100518998
30
0
41
1
10
73.696567393476
20
-5.53191310981276
30
0
41
1
10
73.691768346541
20
-5.48766836017396
30
0
41
1
10
73.6845237750374
20
-5.41734477254906
30
0
41
1
10
73.6820988490531
20
-5.39321155367028
30
0
41
1
10
73.6772615721126
20
-5.34387716813046
30
0
41
1
10
73.6748469994854
20
-5.31865596255153
30
0
41
1
10
73.6627949772834
20
-5.18981085910281
30
0
41
1
10
73.6532251215092
20
-5.07799193722968
30
0
41
1
10
73.6341597550214
20
-4.83729397769773
30
0
41
1
10
73.6246643067201
20
-4.70841407013708
30
0
41
1
10
73.6103280488291
20
-4.50220879888684
30
0
41
1
10
73.6055304133061
20
-4.43132208349428
30
0
41
1
10
73.5983078316347
20
-4.32171368670075
30
0
41
1
10
73.5958959890843
20
-4.28463088382881
30
0
41
1
10
73.5910635648413
20
-4.20935994785901
30
0
41
1
10
73.5886394568402
20
-4.17111487293874
30
0
41
1
10
73.5765529599819
20
-3.97801587445673
30
0
41
1
10
73.5669848120423
20
-3.81738688424062
30
0
41
1
10
73.5479259190852
20
-3.48423754143431
30
0
41
1
10
73.538426468078
20
-3.31171637092967
30
0
41
1
10
73.5288634913709
20
-3.13326053551151
30
0
0
SPLINE
5
16B
100
AcDbEntity
8
1
62
256
6
ByLayer
370
18
48
1
60
0
100
AcDbSpline
70
4
71
3
72
34
73
30
40
0
40
0
40
0
40
0
40
0.124999999999999
40
0.124999999999999
40
0.156249999999999
40
0.156249999999999
40
0.187499999999999
40
0.187499999999999
40
0.249999999999999
40
0.249999999999999
40
0.374999999999999
40
0.374999999999999
40
0.5
40
0.5
40
0.5625
40
0.5625
40
0.593750000000001
40
0.593750000000001
40
0.625000000000001
40
0.625000000000001
40
0.75
40
0.75
40
0.875
40
0.875
40
0.9375
40
0.9375
40
0.96875
40
0.96875
40
1
40
1
40
1
40
1
41
1
10
73.3468198555431
20
-2.96509143239226
30
0
41
1
10
73.356361318643
20
-3.14663475971349
30
0
41
1
10
73.3659427071135
20
-3.32321933016979
30
0
41
1
10
73.3779690292263
20
-3.53760184485731
30
0
41
1
10
73.3803771174583
20
-3.58016011534284
30
0
41
1
10
73.385200353308
20
-3.66463305105802
30
0
41
1
10
73.3876186001685
20
-3.7066002708612
30
0
41
1
10
73.3948485646667
20
-3.83086798902394
30
0
41
1
10
73.3996437389413
20
-3.91168789785041
30
0
41
1
10
73.4139884640803
20
-4.14819373675076
30
0
41
1
10
73.4235118847835
20
-4.29794072667949
30
0
41
1
10
73.4426078988555
20
-4.58184489273475
30
0
41
1
10
73.4521558682639
20
-4.71600282534439
30
0
41
1
10
73.4665145911813
20
-4.90536939604507
30
0
41
1
10
73.4713079962781
20
-4.96650930518703
30
0
41
1
10
73.4785233297897
20
-5.05518628461579
30
0
41
1
10
73.4809362619539
20
-5.08428076799885
30
0
41
1
10
73.485751707536
20
-5.14118425104243
30
0
41
1
10
73.4881546851361
20
-5.16900101222177
30
0
41
1
10
73.5001551980988
20
-5.30494591735138
30
0
41
1
10
73.5097290897739
20
-5.4036825616966
30
0
41
1
10
73.5288328487104
20
-5.58162055425396
30
0
41
1
10
73.538354893074
20
-5.66082100364449
30
0
41
1
10
73.5526623180956
20
-5.76487352039368
30
0
41
1
10
73.5574365698138
20
-5.79709486700818
30
0
41
1
10
73.5646241286578
20
-5.84167593034084
30
0
41
1
10
73.5670244161341
20
-5.85591080495504
30
0
41
1
10
73.5718378287935
20
-5.88311614533902
30
0
41
1
10
73.5742545609375
20
-5.89610346595859
30
0
41
1
10
73.576670544098
20
-5.90840588719041
30
0
0
SPLINE
5
16C
100
AcDbEntity
8
1
62
256
6
ByLayer
370
13
48
1
60
0
100
AcDbSpline
70
4
71
3
72
11
73
7
40
0
40
0
40
0
40
0
40
0.0946766005834406
40
0.450511702778733
40
0.806346804974025
40
1
40
1
40
1
40
1
41
1
10
69.0711015158121
20
1.17234249769095
30
0
41
1
10
69.0779092182827
20
1.05125351132537
30
0
41
1
10
69.1103031737754
20
0.470069308076972
30
0
41
1
10
69.1682833775422
20
-0.599702439308004
30
0
41
1
10
69.2333804900873
20
-1.76231658115049
30
0
41
1
10
69.2728913377553
20
-2.40887661218554
30
0
41
1
10
69.2868159324768
20
-2.62692156062218
30
0
0
SPLINE
5
16D
100
AcDbEntity
8
1
62
256
6
ByLayer
370
18
48
1
60
0
100
AcDbSpline
70
4
71
3
72
33
73
29
40
0
40
0
40
0
40
0
40
0.0624999999999995
40
0.0624999999999995
40
0.0937499999999992
40
0.0937499999999992
40
0.124999999999999
40
0.124999999999999
40
0.249999999999999
40
0.249999999999999
40
0.374999999999999
40
0.374999999999999
40
0.499999999999999
40
0.499999999999999
40
0.531249999999999
40
0.531249999999999
40
0.562499999999999
40
0.624999999999998
40
0.624999999999998
40
0.749999999999999
40
0.749999999999999
40
0.874999999999999
40
0.874999999999999
40
0.906249999999999
40
0.906249999999999
40
0.9375
40
0.9375
40
1
40
1
40
1
40
1
41
1
10
71.9193174251145
20
-5.25879207089093
30
0
41
1
10
71.9145344270263
20
-5.20656980871911
30
0
41
1
10
71.9097344603513
20
-5.15191488697525
30
0
41
1
10
71.9025109663163
20
-5.06622049264234
30
0
41
1
10
71.9000991449182
20
-5.03703670597253
30
0
41
1
10
71.8952670155686
20
-4.97741664481788
30
0
41
1
10
71.8928484037762
20
-4.94699934675037
30
0
41
1
10
71.8808018774916
20
-4.79266857471941
30
0
41
1
10
71.8712638024926
20
-4.66137599711672
30
0
41
1
10
71.8522378842264
20
-4.38360783228575
30
0
41
1
10
71.8427289731887
20
-4.23713174687751
30
0
41
1
10
71.823620928604
20
-3.92897719788763
30
0
41
1
10
71.8140434972683
20
-3.76729943390714
30
0
41
1
10
71.8020029156833
20
-3.55538014959583
30
0
41
1
10
71.7995902246832
20
-3.51248843348443
30
0
41
1
10
71.7947831544262
20
-3.42622116825396
30
0
41
1
10
71.7875893780997
20
-3.29591041351779
30
0
41
1
10
71.7804336726944
20
-3.16290223982088
30
0
41
1
10
71.7661303128565
20
-2.89334697017588
30
0
41
1
10
71.7565888654009
20
-2.70893473849748
30
0
41
1
10
71.7375042124898
20
-2.33076134771545
30
0
41
1
10
71.72796566293
20
-2.13700038038306
30
0
41
1
10
71.7159846797266
20
-1.88881456614496
30
0
41
1
10
71.7135852399018
20
-1.83887742731614
30
0
41
1
10
71.708776853265
20
-1.73839657238963
30
0
41
1
10
71.7063654300646
20
-1.68780030840239
30
0
41
1
10
71.6991519531169
20
-1.53594525721766
30
0
41
1
10
71.6943580910795
20
-1.43438476015021
30
0
41
1
10
71.6895673685166
20
-1.33250746664902
30
0
0
SPLINE
5
16E
100
AcDbEntity
8
1
62
256
6
ByLayer
370
18
48
1
60
0
100
AcDbSpline
70
4
71
3
72
29
73
25
40
0
40
0
40
0
40
0
40
0.125000000000001
40
0.125000000000001
40
0.250000000000003
40
0.250000000000003
40
0.375000000000004
40
0.375000000000004
40
0.406250000000004
40
0.406250000000004
40
0.437500000000004
40
0.500000000000004
40
0.500000000000004
40
0.625000000000003
40
0.625000000000003
40
0.750000000000002
40
0.750000000000002
40
0.781250000000002
40
0.781250000000002
40
0.812500000000001
40
0.812500000000001
40
0.875000000000001
40
0.875000000000001
40
1
40
1
40
1
40
1
41
1
10
71.5075382936026
20
-1.14286381263034
30
0
41
1
10
71.5172021262765
20
-1.34970865845997
30
0
41
1
10
71.5268004495541
20
-1.55275920856482
30
0
41
1
10
71.5458921041453
20
-1.95152474813696
30
0
41
1
10
71.5553855088028
20
-2.14723898856036
30
0
41
1
10
71.5744195198717
20
-2.53133855910241
30
0
41
1
10
71.5839833072473
20
-2.71972346501442
30
0
41
1
10
71.5960520693851
20
-2.95048248811747
30
0
41
1
10
71.5984734807916
20
-2.99645302922835
30
0
41
1
10
71.6033117373783
20
-3.08764763169066
30
0
41
1
10
71.6105515425662
20
-3.22311740709978
30
0
41
1
10
71.6177412520838
20
-3.35467041479686
30
0
41
1
10
71.6320725485943
20
-3.61264370380889
30
0
41
1
10
71.6415586071988
20
-3.77779564162043
30
0
41
1
10
71.6605910104179
20
-4.0945777014289
30
0
41
1
10
71.6701557945421
20
-4.24620764429147
30
0
41
1
10
71.6821708276221
20
-4.42711470193856
30
0
41
1
10
71.6845769075402
20
-4.46286349905895
30
0
41
1
10
71.6893961644354
20
-4.53348685923899
30
0
41
1
10
71.691811056049
20
-4.56838582119411
30
0
41
1
10
71.6990575129642
20
-4.67159662155683
30
0
41
1
10
71.7038627101862
20
-4.73802868018424
30
0
41
1
10
71.7182284839043
20
-4.93035333258442
30
0
41
1
10
71.7277406988772
20
-5.04929246474708
30
0
41
1
10
71.7372868015581
20
-5.15913104823747
30
0
0
SPLINE
5
16F
100
AcDbEntity
8
1
62
256
6
ByLayer
370
13
48
1
60
0
100
AcDbSpline
70
4
71
3
72
11
73
7
40
0
40
0
40
0
40
0
40
0.0531314990028701
40
0.409762807189944
40
0.766394115377018
40
1
40
1
40
1
40
1
41
1
10
63.5534581284691
20
4.73272734292672
30
0
41
1
10
63.5572700095085
20
4.70705486027447
30
0
41
1
10
63.5866681459329
20
4.49879350007592
30
0
41
1
10
63.6416525298383
20
3.96296543454074
30
0
41
1
10
63.7095849224419
20
3.03619281305666
30
0
41
1
10
63.7519310611267
20
2.35808266059212
30
0
41
1
10
63.7686909456425
20
2.07843621849426
30
0
0
SPLINE
5
170
100
AcDbEntity
8
1
62
256
6
ByLayer
370
13
48
1
60
0
100
AcDbSpline
70
4
71
3
72
11
73
7
40
0
40
0
40
0
40
0
40
0.217140356592772
40
0.572597283791253
40
0.928054210989734
40
1
40
1
40
1
40
1
41
1
10
70.4498052116063
20
-0.0410452170514759
30
0
41
1
10
70.4654352844449
20
-0.326738907784573
30
0
41
1
10
70.5066516578004
20
-1.07961964840169
30
0
41
1
10
70.5734540869067
20
-2.25204234249395
30
0
41
1
10
70.6298055602147
20
-3.11612748482742
30
0
41
1
10
70.6605705420154
20
-3.52558193489165
30
0
41
1
10
70.6657492871431
20
-3.59264480455732
30
0
0
SPLINE
5
171
100
AcDbEntity
8
1
62
256
6
ByLayer
370
13
48
1
60
0
100
AcDbSpline
70
4
71
3
72
11
73
7
40
0
40
0
40
0
40
0
40
0.06683018854378
40
0.423349611324912
40
0.779869034106043
40
1
40
1
40
1
40
1
41
1
10
65.392715487031
20
3.90062415478548
30
0
41
1
10
65.3975116748815
20
3.84429306203344
30
0
41
1
10
65.4278941162873
20
3.47645597109354
30
0
41
1
10
65.4838628178278
20
2.67550252220096
30
0
41
1
10
65.5508334181187
20
1.54104615133545
30
0
41
1
10
65.5922177611834
20
0.794685475213186
30
0
41
1
10
65.6080158528525
20
0.507333034437892
30
0
0
SPLINE
5
172
100
AcDbEntity
8
1
62
256
6
ByLayer
370
13
48
1
60
0
100
AcDbSpline
70
4
71
3
72
11
73
7
40
0
40
0
40
0
40
0
40
0.0807432032926625
40
0.436933614126844
40
0.793124024961026
40
1
40
1
40
1
40
1
41
1
10
67.2319142372865
20
2.67222738310733
30
0
41
1
10
67.2377142701899
20
2.58199324413528
30
0
41
1
10
67.2691005572086
20
2.08430673810182
30
0
41
1
10
67.3260731000283
20
1.09758611336332
30
0
41
1
10
67.3921061452945
20
-0.117464349724429
30
0
41
1
10
67.4325529395473
20
-0.851768838741293
30
0
41
1
10
67.4474134781421
20
-1.11680046479219
30
0
0
SPLINE
5
173
100
AcDbEntity
8
1
62
256
6
ByLayer
370
18
48
1
60
0
100
AcDbSpline
70
4
71
3
72
34
73
30
40
0
40
0
40
0
40
0
40
0.0312499999999999
40
0.0312499999999999
40
0.0624999999999999
40
0.0624999999999999
40
0.125
40
0.125
40
0.249999999999999
40
0.249999999999999
40
0.374999999999999
40
0.374999999999999
40
0.437499999999999
40
0.437499999999999
40
0.468749999999999
40
0.468749999999999
40
0.499999999999999
40
0.499999999999999
40
0.624999999999999
40
0.624999999999999
40
0.749999999999999
40
0.749999999999999
40
0.812499999999999
40
0.812499999999999
40
0.843749999999999
40
0.843749999999999
40
0.874999999999999
40
0.874999999999999
40
1
40
1
40
1
40
1
41
1
10
67.8288702973026
20
2.65603364073033
30
0
41
1
10
67.8312768650564
20
2.60889460491791
30
0
41
1
10
67.8336882123781
20
2.56137359779504
30
0
41
1
10
67.8385205294604
20
2.46555845144138
30
0
41
1
10
67.8409354292301
20
2.41738413513099
30
0
41
1
10
67.8481572047562
20
2.27246585098561
30
0
41
1
10
67.8529492471322
20
2.17516176692917
30
0
41
1
10
67.8672746544269
20
1.88121286209832
30
0
41
1
10
67.8767534926472
20
1.68253645921553
30
0
41
1
10
67.8957502394583
20
1.279841966389
30
0
41
1
10
67.9052936317292
20
1.0758251200846
30
0
41
1
10
67.9196880854532
20
0.765721781926658
30
0
41
1
10
67.9244980513397
20
0.661672929974401
30
0
41
1
10
67.9317357727263
20
0.504556219664863
30
0
41
1
10
67.9341498436748
20
0.452061201198433
30
0
41
1
10
67.9389595979902
20
0.347326342980637
30
0
41
1
10
67.9413585417524
20
0.295015780526995
30
0
41
1
10
67.9533291724148
20
0.0337445481673342
30
0
41
1
10
67.9628245577549
20
-0.174373839921884
30
0
41
1
10
67.9818657705853
20
-0.588843156664581
30
0
41
1
10
67.9914029048205
20
-0.795194439375081
30
0
41
1
10
68.0057347446882
20
-1.10338359821748
30
0
41
1
10
68.010517392666
20
-1.20588987764523
30
0
41
1
10
68.0177091419232
20
-1.35930804052026
30
0
41
1
10
68.0201094234509
20
-1.41039051968559
30
0
41
1
10
68.0249185296396
20
-1.51244023960402
30
0
41
1
10
68.0273277900695
20
-1.56341602417777
30
0
41
1
10
68.0393322198458
20
-1.81651352396676
30
0
41
1
10
68.0488701690291
20
-2.0145056332799
30
0
41
1
10
68.0584163735562
20
-2.20814646501157
30
0
0
SPLINE
5
174
100
AcDbEntity
8
1
62
256
6
ByLayer
370
18
48
1
60
0
100
AcDbSpline
70
4
71
3
72
28
73
24
40
0
40
0
40
0
40
0
40
0.125000000000001
40
0.125000000000001
40
0.250000000000002
40
0.250000000000002
40
0.281250000000003
40
0.281250000000003
40
0.312500000000003
40
0.312500000000003
40
0.375000000000002
40
0.375000000000002
40
0.500000000000002
40
0.625000000000002
40
0.625000000000002
40
0.687500000000002
40
0.687500000000002
40
0.718750000000002
40
0.718750000000002
40
0.750000000000002
40
0.750000000000002
40
0.875000000000001
40
1
40
1
40
1
40
1
41
1
10
70.0798354557041
20
-4.02867278340892
30
0
41
1
10
70.0702807962276
20
-3.87268470281219
30
0
41
1
10
70.0607332957127
20
-3.71013512159888
30
0
41
1
10
70.0416480665214
20
-3.37197049430964
30
0
41
1
10
70.0321106891367
20
-3.19635617610169
30
0
41
1
10
70.0201084535001
20
-2.96844914064269
30
0
41
1
10
70.0177036331915
20
-2.92244721296578
30
0
41
1
10
70.0128816334815
20
-2.82959230450533
30
0
41
1
10
70.0104710711116
20
-2.78286639718274
30
0
41
1
10
70.0032523181377
20
-2.64214299789444
30
0
41
1
10
69.9984470672302
20
-2.54745742183994
30
0
41
1
10
69.9840578232755
20
-2.26083874120431
30
0
41
1
10
69.9649563620302
20
-1.87186126525492
30
0
41
1
10
69.9459419447756
20
-1.469426138399
30
0
41
1
10
69.9315807153984
20
-1.16246417669703
30
0
41
1
10
69.9267732914799
20
-1.05928607921137
30
0
41
1
10
69.9195192079141
20
-0.903205367747603
30
0
41
1
10
69.917098110886
20
-0.851032454827958
30
0
41
1
10
69.91227072915
20
-0.74683788365752
30
0
41
1
10
69.909861438061
20
-0.694751577763498
30
0
41
1
10
69.8978365162081
20
-0.434374381894855
30
0
41
1
10
69.8787446393024
20
-0.0181172273016159
30
0
41
1
10
69.8597646507512
20
0.397453909006288
30
0
41
1
10
69.8501958713569
20
0.605061337607168
30
0
0
SPLINE
5
175
100
AcDbEntity
8
1
62
256
6
ByLayer
370
18
48
1
60
0
100
AcDbSpline
70
4
71
3
72
29
73
25
40
0
40
0
40
0
40
0
40
0.125
40
0.125
40
0.1875
40
0.1875
40
0.21875
40
0.21875
40
0.25
40
0.25
40
0.375
40
0.375
40
0.499999999999999
40
0.499999999999999
40
0.624999999999999
40
0.624999999999999
40
0.656249999999999
40
0.656249999999999
40
0.687499999999999
40
0.749999999999999
40
0.749999999999999
40
0.875
40
0.875
40
1
40
1
40
1
40
1
41
1
10
69.6682360787314
20
0.79673260228833
30
0
41
1
10
69.6777870022586
20
0.59069497458907
30
0
41
1
10
69.6873445741886
20
0.383375006365554
30
0
41
1
10
69.7017063157869
20
0.0704479175455219
30
0
41
1
10
69.7064988726412
20
-0.034186218070289
30
0
41
1
10
69.7137078335128
20
-0.191633554405683
30
0
41
1
10
69.7161149562489
20
-0.244214176209567
30
0
41
1
10
69.7209361015011
20
-0.349479288723586
30
0
41
1
10
69.7233409148407
20
-0.401962574044859
30
0
41
1
10
69.735344958416
20
-0.663641262119882
30
0
41
1
10
69.7449045829697
20
-0.870628574787617
30
0
41
1
10
69.7639955791596
20
-1.28001957602714
30
0
41
1
10
69.7735121761391
20
-1.48242363425092
30
0
41
1
10
69.7925681137848
20
-1.88262763399041
30
0
41
1
10
69.8021069774228
20
-2.08042806556887
30
0
41
1
10
69.8141786208143
20
-2.32469066703069
30
0
41
1
10
69.8165931632458
20
-2.37323342052284
30
0
41
1
10
69.8214137815246
20
-2.46954159265346
30
0
41
1
10
69.8286358893594
20
-2.61291780975128
30
0
41
1
10
69.8358280342859
20
-2.75307190153785
30
0
41
1
10
69.8501749634197
20
-3.0291454725652
30
0
41
1
10
69.8596856339056
20
-3.20755947581779
30
0
41
1
10
69.8787131728577
20
-3.5531678046595
30
0
41
1
10
69.8882395776911
20
-3.72036239313735
30
0
41
1
10
69.8978707308335
20
-3.88179119830016
30
0
0
SPLINE
5
176
100
AcDbEntity
8
1
62
256
6
ByLayer
370
18
48
1
60
0
100
AcDbSpline
70
4
71
3
72
33
73
29
40
0
40
0
40
0
40
0
40
0.062500000000001
40
0.062500000000001
40
0.0937500000000013
40
0.0937500000000013
40
0.125000000000002
40
0.125000000000002
40
0.250000000000002
40
0.250000000000002
40
0.375000000000002
40
0.375000000000002
40
0.437500000000003
40
0.437500000000003
40
0.468750000000002
40
0.468750000000002
40
0.500000000000002
40
0.500000000000002
40
0.625000000000002
40
0.625000000000002
40
0.750000000000001
40
0.750000000000001
40
0.875000000000001
40
0.875000000000001
40
0.906250000000001
40
0.906250000000001
40
0.9375
40
1
40
1
40
1
40
1
41
1
10
64.1500447094479
20
5.39992958906046
30
0
41
1
10
64.1548341457465
20
5.35211255033286
30
0
41
1
10
64.1596355277858
20
5.30178546982785
30
0
41
1
10
64.1668592527795
20
5.22245381305908
30
0
41
1
10
64.1692740150031
20
5.19533194607266
30
0
41
1
10
64.1740872257038
20
5.14008336083887
30
0
41
1
10
64.1764876162435
20
5.11193697662338
30
0
41
1
10
64.1884636324928
20
4.96862395358784
30
0
41
1
10
64.197956894715
20
4.84573473996227
30
0
41
1
10
64.2169736628516
20
4.58388683030529
30
0
41
1
10
64.226507940877
20
4.4449278190589
30
0
41
1
10
64.2408362159674
20
4.22435288312252
30
0
41
1
10
64.2456175537676
20
4.14880126277896
30
0
41
1
10
64.2528048325718
20
4.0323869461082
30
0
41
1
10
64.2552032053907
20
3.9930674321389
30
0
41
1
10
64.2600072556462
20
3.91338784670847
30
0
41
1
10
64.2624164663104
20
3.87296745184506
30
0
41
1
10
64.2744363505376
20
3.66910136814343
30
0
41
1
10
64.2839657797058
20
3.5005166772126
30
0
41
1
10
64.3030414123748
20
3.15273634800218
30
0
41
1
10
64.3125627314019
20
2.97353879653585
30
0
41
1
10
64.3315978030774
20
2.60455064055805
30
0
41
1
10
64.3411111684905
20
2.41476075212015
30
0
41
1
10
64.3530997311404
20
2.17070758972045
30
0
41
1
10
64.3555055075259
20
2.12149641929887
30
0
41
1
10
64.3603177982588
20
2.02266369254016
30
0
41
1
10
64.3675274004864
20
1.87403470482241
30
0
41
1
10
64.3747187871075
20
1.72428066699965
30
0
41
1
10
64.3795024155808
20
1.62395316531692
30
0
0
SPLINE
5
177
100
AcDbEntity
8
1
62
256
6
ByLayer
370
18
48
1
60
0
100
AcDbSpline
70
4
71
3
72
33
73
29
40
0
40
0
40
0
40
0
40
0.03125
40
0.03125
40
0.0625
40
0.125
40
0.125
40
0.249999999999999
40
0.249999999999999
40
0.374999999999999
40
0.374999999999999
40
0.406249999999999
40
0.406249999999999
40
0.437499999999999
40
0.437499999999999
40
0.499999999999999
40
0.499999999999999
40
0.624999999999999
40
0.624999999999999
40
0.749999999999999
40
0.749999999999999
40
0.812499999999999
40
0.812499999999999
40
0.843749999999999
40
0.843749999999999
40
0.874999999999999
40
0.874999999999999
40
1
40
1
40
1
40
1
41
1
10
64.5614489314527
20
1.43770341263507
30
0
41
1
10
64.5590420604655
20
1.48877000160891
30
0
41
1
10
64.5566282204259
20
1.5397916603402
30
0
41
1
10
64.5518121957021
20
1.64112739122393
30
0
41
1
10
64.5445958972375
20
1.79229484632162
30
0
41
1
10
64.537407538251
20
1.94098317493328
30
0
41
1
10
64.5230686122907
20
2.23510561173913
30
0
41
1
10
64.5135638605642
20
2.4268568403605
30
0
41
1
10
64.4945654259638
20
2.80175661222165
30
0
41
1
10
64.4850700643207
20
2.98490543879208
30
0
41
1
10
64.4730666227614
20
3.208326556744
30
0
41
1
10
64.4706598638369
20
3.252734363157
30
0
41
1
10
64.4658348107242
20
3.34099094917872
30
0
41
1
10
64.4634140959836
20
3.38488232337235
30
0
41
1
10
64.4561755229567
20
3.51497948948031
30
0
41
1
10
64.4513699087676
20
3.59982414864774
30
0
41
1
10
64.4370053692348
20
3.84881037167619
30
0
41
1
10
64.4275025380293
20
4.00741864985326
30
0
41
1
10
64.4085084046491
20
4.31010102308201
30
0
41
1
10
64.398999156068
20
4.45417449885522
30
0
41
1
10
64.3846248940945
20
4.65921015570299
30
0
41
1
10
64.3798199716669
20
4.7257061846874
30
0
41
1
10
64.3725902737627
20
4.82262081554322
30
0
41
1
10
64.3701731820931
20
4.85449724858358
30
0
41
1
10
64.365354189804
20
4.91698614436663
30
0
41
1
10
64.3629509618926
20
4.94761804895373
30
0
41
1
10
64.3509617329948
20
5.0977493105654
30
0
41
1
10
64.341461077312
20
5.20818853732385
30
0
41
1
10
64.3319570284028
20
5.30919879615067
30
0
0
SPLINE
5
178
100
AcDbEntity
8
1
62
256
6
ByLayer
370
13
48
1
60
0
100
AcDbSpline
70
4
71
3
72
11
73
7
40
0
40
0
40
0
40
0
40
0.176888718961563
40
0.533350326074936
40
0.889811933188309
40
1
40
1
40
1
40
1
41
1
10
64.9319741080607
20
4.15163747560959
30
0
41
1
10
64.944670901447
20
4.01731127889968
30
0
41
1
10
64.9829539717566
20
3.573397049195
30
0
41
1
10
65.0468233293169
20
2.65617861798759
30
0
41
1
10
65.1059048186635
20
1.65342879646406
30
0
41
1
10
65.1394002805987
20
1.05578883274478
30
0
41
1
10
65.1473094290245
20
0.913565946272911
30
0
0
SPLINE
5
179
100
AcDbEntity
8
1
62
256
6
ByLayer
370
18
48
1
60
0
100
AcDbSpline
70
4
71
3
72
29
73
25
40
0
40
0
40
0
40
0
40
0.125000000000001
40
0.125000000000001
40
0.250000000000002
40
0.250000000000002
40
0.281250000000002
40
0.281250000000002
40
0.312500000000002
40
0.375000000000002
40
0.375000000000002
40
0.500000000000001
40
0.500000000000001
40
0.625000000000001
40
0.625000000000001
40
0.656250000000001
40
0.656250000000001
40
0.687500000000001
40
0.687500000000001
40
0.750000000000001
40
0.750000000000001
40
0.875000000000001
40
0.875000000000001
40
1
40
1
40
1
40
1
41
1
10
65.989462016063
20
4.24463258191184
30
0
41
1
10
65.9990164857821
20
4.09580372076252
30
0
41
1
10
66.0085464991694
20
3.93989699345715
30
0
41
1
10
66.0276116113469
20
3.61391294253915
30
0
41
1
10
66.0371462675941
20
3.44383683387079
30
0
41
1
10
66.0491863493675
20
3.22209285529246
30
0
41
1
10
66.0516023879483
20
3.17725819440682
30
0
41
1
10
66.0564227658633
20
3.08719028743693
30
0
41
1
10
66.0636448444467
20
2.95130473931673
30
0
41
1
10
66.0708376188278
20
2.81309546867411
30
0
41
1
10
66.0851854762581
20
2.53362729975828
30
0
41
1
10
66.0946964615314
20
2.34325671308127
30
0
41
1
10
66.1137145895414
20
1.95446418297371
30
0
41
1
10
66.1232248167737
20
1.75604269357953
30
0
41
1
10
66.1352485967418
20
1.50286739996773
30
0
41
1
10
66.1376592628619
20
1.45197422707059
30
0
41
1
10
66.1424917261074
20
1.34966584232348
30
0
41
1
10
66.1449163577297
20
1.29818995893635
30
0
41
1
10
66.1521670728773
20
1.14381561926311
30
0
41
1
10
66.1569797541635
20
1.04075939330085
30
0
41
1
10
66.1713623967236
20
0.731179465313375
30
0
41
1
10
66.1808729675282
20
0.524245387784674
30
0
41
1
10
66.19987880662
20
0.109306410348637
30
0
41
1
10
66.2093938522565
20
-0.0986975817890539
30
0
41
1
10
66.2189787277951
20
-0.307241641180013
30
0
0
SPLINE
5
17A
100
AcDbEntity
8
1
62
256
6
ByLayer
370
18
48
1
60
0
100
AcDbSpline
70
4
71
3
72
28
73
24
40
0
40
0
40
0
40
0
40
0.124999999999999
40
0.124999999999999
40
0.187499999999998
40
0.187499999999998
40
0.218749999999998
40
0.218749999999998
40
0.249999999999998
40
0.249999999999998
40
0.374999999999998
40
0.374999999999998
40
0.499999999999998
40
0.499999999999998
40
0.624999999999997
40
0.624999999999997
40
0.656249999999997
40
0.656249999999997
40
0.687499999999997
40
0.749999999999998
40
0.749999999999998
40
0.874999999999999
40
1
40
1
40
1
40
1
41
1
10
66.4009088718099
20
-0.499748207762877
30
0
41
1
10
66.3913906026285
20
-0.292610731524945
30
0
41
1
10
66.3818461504148
20
-0.084897008070925
30
0
41
1
10
66.3674982617965
20
0.227544532088302
30
0
41
1
10
66.3627099360591
20
0.331837131729458
30
0
41
1
10
66.355511680524
20
0.488497253294241
30
0
41
1
10
66.3531095664525
20
0.540754180014858
30
0
41
1
10
66.3482979003898
20
0.645342519260822
30
0
41
1
10
66.3458848054364
20
0.697750715061574
30
0
41
1
10
66.3338495017608
20
0.958780038542045
30
0
41
1
10
66.3243090826811
20
1.16452000750161
30
0
41
1
10
66.3052049301857
20
1.57002781610038
30
0
41
1
10
66.2956652555477
20
1.76979621324236
30
0
41
1
10
66.2765930844121
20
2.16337064327519
30
0
41
1
10
66.2670609873537
20
2.35717712020011
30
0
41
1
10
66.2550518871266
20
2.59559041665801
30
0
41
1
10
66.2526416957049
20
2.6431449582619
30
0
41
1
10
66.2478242771796
20
2.73752961796052
30
0
41
1
10
66.2406080570279
20
2.87789701795657
30
0
41
1
10
66.2334088630061
20
3.01468026498705
30
0
41
1
10
66.2190406958677
20
3.28354996775877
30
0
41
1
10
66.1999714307102
20
3.62954240386014
30
0
41
1
10
66.180961371311
20
3.95078780074087
30
0
41
1
10
66.1713760425
20
4.1050869120993
30
0
0
SPLINE
5
17B
100
AcDbEntity
8
1
62
256
6
ByLayer
370
13
48
1
60
0
100
AcDbSpline
70
4
71
3
72
11
73
7
40
0
40
0
40
0
40
0
40
0.190466633028997
40
0.546555064842026
40
0.902643496655055
40
1
40
1
40
1
40
1
41
1
10
66.7712175471887
20
3.01222007661232
30
0
41
1
10
66.7849032735682
20
2.81053399185205
30
0
41
1
10
66.8241752633921
20
2.2005776707766
30
0
41
1
10
66.8890334482006
20
1.07547238225487
30
0
41
1
10
66.9472015096607
20
0.0048741582594118
30
0
41
1
10
66.9797831826604
20
-0.587923512503437
30
0
41
1
10
66.9867786015037
20
-0.714525428879739
30
0
0
SPLINE
5
17C
100
AcDbEntity
8
1
62
256
6
ByLayer
370
18
48
1
60
0
100
AcDbSpline
70
4
71
3
72
32
73
28
40
0
40
0
40
0
40
0
40
0.0312500000000004
40
0.0312500000000004
40
0.0625000000000007
40
0.0625000000000007
40
0.125000000000001
40
0.125000000000001
40
0.250000000000001
40
0.250000000000001
40
0.375000000000002
40
0.375000000000002
40
0.437500000000002
40
0.437500000000002
40
0.468750000000002
40
0.468750000000002
40
0.500000000000002
40
0.500000000000002
40
0.625000000000001
40
0.625000000000001
40
0.750000000000001
40
0.750000000000001
40
0.875000000000001
40
0.875000000000001
40
0.9375
40
0.9375
40
1
40
1
40
1
40
1
41
1
10
68.2404343151718
20
-2.38706737770528
30
0
41
1
10
68.2380380633307
20
-2.33898185474425
30
0
41
1
10
68.2356353989424
20
-2.29055548551599
30
0
41
1
10
68.2308180930414
20
-2.19301382221155
30
0
41
1
10
68.2284005896846
20
-2.14383961383191
30
0
41
1
10
68.2211514143761
20
-1.99569287335851
30
0
41
1
10
68.2163385876947
20
-1.89641051258377
30
0
41
1
10
68.2019553353789
20
-1.59704307546687
30
0
41
1
10
68.1924441255605
20
-1.3954414010029
30
0
41
1
10
68.1734539861249
20
-0.988271801046125
30
0
41
1
10
68.1639639785797
20
-0.782704306180477
30
0
41
1
10
68.1496046513724
20
-0.471346624667604
30
0
41
1
10
68.1448028831972
20
-0.367058439064607
30
0
41
1
10
68.1375769576829
20
-0.209858674344389
30
0
41
1
10
68.1351630389434
20
-0.157301738647902
30
0
41
1
10
68.1303320891126
20
-0.0520516799322195
30
0
41
1
10
68.1279229165013
20
0.0004701488267642
30
0
41
1
10
68.1159049851788
20
0.262569321944483
30
0
41
1
10
68.1063845017389
20
0.470621141065948
30
0
41
1
10
68.0873668318118
20
0.883551372352485
30
0
41
1
10
68.0778449492115
20
1.08842846692318
30
0
41
1
10
68.0587302737861
20
1.49499183848061
30
0
41
1
10
68.049152820178
20
1.6966791468318
30
0
41
1
10
68.0346970225166
20
1.99672809305559
30
0
41
1
10
68.0299008253003
20
2.09552828940534
30
0
41
1
10
68.0203414225856
20
2.29050496285589
30
0
41
1
10
68.0155762390774
20
2.38672225743167
30
0
41
1
10
68.010810139331
20
2.48168593518432
30
0
0
SPLINE
5
17D
100
AcDbEntity
8
1
62
256
6
ByLayer
370
13
48
1
60
0
100
AcDbSpline
70
4
71
3
72
11
73
7
40
0
40
0
40
0
40
0
40
0.203847266922986
40
0.559555579025281
40
0.915263891127576
40
1
40
1
40
1
40
1
41
1
10
68.6104965971714
20
1.56561381172364
30
0
41
1
10
68.6251593986482
20
1.31056815591407
30
0
41
1
10
68.6654084283935
20
0.592662676580716
30
0
41
1
10
68.7312441391909
20
-0.621947567973479
30
0
41
1
10
68.7885115068796
20
-1.64365290483343
30
0
41
1
10
68.8201928349767
20
-2.17043220239296
30
0
41
1
10
68.8262879368629
20
-2.27014836459796
30
0
0
SPLINE
5
17E
100
AcDbEntity
8
1
62
256
6
ByLayer
370
18
48
1
60
0
100
AcDbSpline
70
4
71
3
72
8
73
4
40
0
40
0
40
0
40
0
40
1
40
1
40
1
40
1
41
1
10
63.1031372550804
20
-5.33485142513646
30
0
41
1
10
63.079350563193
20
-5.29361103534086
30
0
41
1
10
63.0555166066934
20
-5.25198734920261
30
0
41
1
10
63.0316291951142
20
-5.20997421749709
30
0
0
SPLINE
5
17F
100
AcDbEntity
8
1
62
256
6
ByLayer
370
18
48
1
60
0
100
AcDbSpline
70
4
71
3
72
22
73
18
40
0
40
0
40
0
40
0
40
0.125000000000024
40
0.125000000000024
40
0.250000000000047
40
0.250000000000047
40
0.312500000000053
40
0.312500000000053
40
0.375000000000059
40
0.375000000000059
40
0.500000000000057
40
0.500000000000057
40
0.750000000000037
40
0.750000000000037
40
0.875000000000018
40
0.875000000000018
40
1
40
1
40
1
40
1
41
1
10
63.0316291951144
20
-5.20997421749726
30
0
41
1
10
62.9991250708789
20
-5.15280602880711
30
0
41
1
10
62.963613042984
20
-5.09883887751323
30
0
41
1
10
62.8873290889337
20
-4.99621714876068
30
0
41
1
10
62.8465513709102
20
-4.94757151153834
30
0
41
1
10
62.7817540410254
20
-4.87817755421537
30
0
41
1
10
62.7595632011081
20
-4.85565410664367
30
0
41
1
10
62.7138358306192
20
-4.81165850092387
30
0
41
1
10
62.690239794947
20
-4.79014338388501
30
0
41
1
10
62.6176038354178
20
-4.72740126639641
30
0
41
1
10
62.5670819559975
20
-4.68827364929902
30
0
41
1
10
62.4101619538706
20
-4.57916971316396
30
0
41
1
10
62.2984158371497
20
-4.51744529134939
30
0
41
1
10
62.1232084572348
20
-4.44220671960807
30
0
41
1
10
62.0634879096848
20
-4.42000591265972
30
0
41
1
10
61.9420805219466
20
-4.3816909226442
30
0
41
1
10
61.8808224085312
20
-4.36570349343199
30
0
41
1
10
61.8191936298161
20
-4.35293713230857
30
0
0
SPLINE
5
180
100
AcDbEntity
8
1
62
256
6
ByLayer
370
18
48
1
60
0
100
AcDbSpline
70
4
71
3
72
147
73
143
40
0
40
0
40
0
40
0
40
0.0157151163741038
40
0.0157151163741038
40
0.0314302327482076
40
0.0314302327482076
40
0.0471453491223114
40
0.0471453491223114
40
0.0550029073093633
40
0.0550029073093633
40
0.0628604654964152
40
0.0628604654964152
40
0.0942906982446214
40
0.0942906982446214
40
0.125720930992828
40
0.125720930992828
40
0.133578489179879
40
0.133578489179879
40
0.141436047366931
40
0.141436047366931
40
0.149293605553982
40
0.149293605553982
40
0.157151163741034
40
0.157151163741034
40
0.172866280115138
40
0.172866280115138
40
0.188581396489243
40
0.188581396489243
40
0.220011629237452
40
0.220011629237452
40
0.235726745611556
40
0.235726745611556
40
0.243584303798609
40
0.243584303798609
40
0.251441861985661
40
0.251441861985661
40
0.267156978359765
40
0.267156978359765
40
0.28287209473387
40
0.28287209473387
40
0.298587211107974
40
0.298587211107974
40
0.306444769295026
40
0.306444769295026
40
0.314302327482079
40
0.314302327482079
40
0.330017443856183
40
0.330017443856183
40
0.345732560230287
40
0.345732560230287
40
0.35359011841734
40
0.35359011841734
40
0.361447676604392
40
0.361447676604392
40
0.377162792978495
40
0.377162792978495
40
0.408593025726702
40
0.408593025726702
40
0.424308142100805
40
0.424308142100805
40
0.440023258474908
40
0.440023258474908
40
0.44788081666196
40
0.44788081666196
40
0.455738374849011
40
0.455738374849011
40
0.463595933036063
40
0.463595933036063
40
0.471453491223115
40
0.471453491223115
40
0.502883723971321
40
0.502883723971321
40
0.518598840345424
40
0.518598840345424
40
0.534313956719527
40
0.534313956719527
40
0.550029073093631
40
0.550029073093631
40
0.565744189467734
40
0.565744189467734
40
0.59717442221594
40
0.59717442221594
40
0.628604654964147
40
0.628604654964147
40
0.64431977133825
40
0.64431977133825
40
0.652177329525302
40
0.652177329525302
40
0.660034887712353
40
0.660034887712353
40
0.675750004086457
40
0.675750004086457
40
0.683607562273509
40
0.683607562273509
40
0.691465120460561
40
0.691465120460561
40
0.72289535320877
40
0.72289535320877
40
0.738610469582875
40
0.738610469582875
40
0.746468027769927
40
0.746468027769927
40
0.754325585956979
40
0.754325585956979
40
0.770040702331083
40
0.770040702331083
40
0.785755818705187
40
0.785755818705187
40
0.801470935079291
40
0.801470935079291
40
0.817186051453395
40
0.817186051453395
40
0.832901167827499
40
0.832901167827499
40
0.840758726014551
40
0.840758726014551
40
0.848616284201603
40
0.848616284201603
40
0.856473842388654
40
0.856473842388654
40
0.864331400575706
40
0.864331400575706
40
0.880046516949809
40
0.880046516949809
40
0.911476749698014
40
0.911476749698014
40
0.927191866072116
40
0.927191866072116
40
0.942906982446218
40
0.942906982446218
40
0.95076454063327
40
0.95076454063327
40
0.958622098820321
40
0.958622098820321
40
0.966479657007373
40
0.966479657007373
40
0.974337215194425
40
0.990052331568528
40
0.990052331568528
40
0.997909889755579
40
0.997909889755579
40
1
40
1
40
1
40
1
41
1
10
61.8191936298161
20
-4.35293713230857
30
0
41
1
10
61.7110617666173
20
-4.33053768770938
30
0
41
1
10
61.6032432149513
20
-4.30586917503416
30
0
41
1
10
61.3881420839636
20
-4.25209394281868
30
0
41
1
10
61.2808791764549
20
-4.2229771532117
30
0
41
1
10
61.0666707694698
20
-4.16044915398254
30
0
41
1
10
60.9597303969256
20
-4.12703357791818
30
0
41
1
10
60.7992349747177
20
-4.07390573416689
30
0
41
1
10
60.7457064313827
20
-4.05570595506262
30
0
41
1
10
60.6387359662237
20
-4.01824970882981
30
0
41
1
10
60.5852811978024
20
-3.9989997566735
30
0
41
1
10
60.3181069667858
20
-3.90017336265797
30
0
41
1
10
60.1047156763707
20
-3.81285974167327
30
0
41
1
10
59.6779068755813
20
-3.62204279214689
30
0
41
1
10
59.464428590409
20
-3.51857071274119
30
0
41
1
10
59.1966150588338
20
-3.3796246726443
30
0
41
1
10
59.1430186578824
20
-3.35134214715487
30
0
41
1
10
59.0356093722928
20
-3.29391701156695
30
0
41
1
10
58.981764128978
20
-3.26480418352872
30
0
41
1
10
58.8738428142951
20
-3.20573779289927
30
0
41
1
10
58.8197436111524
20
-3.17580543492409
30
0
41
1
10
58.7113041400827
20
-3.11511185681587
30
0
41
1
10
58.6569723679404
20
-3.08430146954783
30
0
41
1
10
58.4943791629856
20
-2.99083683104587
30
0
41
1
10
58.3863090192477
20
-2.92706042688189
30
0
41
1
10
58.1708655408285
20
-2.79654631127269
30
0
41
1
10
58.0634920557286
20
-2.72980748434455
30
0
41
1
10
57.7421694118759
20
-2.52540412047915
30
0
41
1
10
57.5290311524118
20
-2.38353737893539
30
0
41
1
10
57.2098931970022
20
-2.16345246566308
30
0
41
1
10
57.1035862412686
20
-2.08890071723968
30
0
41
1
10
56.943902526336
20
-1.97567149487696
30
0
41
1
10
56.8906464113582
20
-1.93768443003262
30
0
41
1
10
56.7839041848478
20
-1.86142904967957
30
0
41
1
10
56.7304334710792
20
-1.82314365636648
30
0
41
1
10
56.5699444555397
20
-1.70755840757948
30
0
41
1
10
56.4627867305411
20
-1.62960374517553
30
0
41
1
10
56.2483506139453
20
-1.47163066708927
30
0
41
1
10
56.1410391007632
20
-1.39165106922422
30
0
41
1
10
55.9261586705858
20
-1.22975417382079
30
0
41
1
10
55.8185825599369
20
-1.14784474164713
30
0
41
1
10
55.656810674864
20
-1.02376610270235
30
0
41
1
10
55.6028047751906
20
-0.982196839357869
30
0
41
1
10
55.494679951176
20
-0.898724706262698
30
0
41
1
10
55.4406974538591
20
-0.856924150531597
30
0
41
1
10
55.2789728297933
20
-0.731350055953328
30
0
41
1
10
55.1714614220515
20
-0.647393853296364
30
0
41
1
10
54.9569160488039
20
-0.479169782372054
30
0
41
1
10
54.8498682107969
20
-0.394920026167568
30
0
41
1
10
54.6894314127501
20
-0.268597957802911
30
0
41
1
10
54.6359649430291
20
-0.226512354017729
30
0
41
1
10
54.5289246500423
20
-0.142554503383877
30
0
41
1
10
54.4753931620027
20
-0.100627530364989
30
0
41
1
10
54.3148940018708
20
0.0251649473100883
30
0
41
1
10
54.2080147582875
20
0.109033088940436
30
0
41
1
10
53.8877036774723
20
0.360612254225032
30
0
41
1
10
53.674550480509
20
0.528235739444256
30
0
41
1
10
53.3543540734282
20
0.778174221537256
30
0
41
1
10
53.2475374298349
20
0.861229085871969
30
0
41
1
10
53.0336107227363
20
1.02666169184252
30
0
41
1
10
52.9265439864411
20
1.10909420569874
30
0
41
1
10
52.7654458450566
20
1.2318802126988
30
0
41
1
10
52.7116506194847
20
1.27264886322018
30
0
41
1
10
52.6037586180289
20
1.3537275688731
30
0
41
1
10
52.5496421088942
20
1.39401285609665
30
0
41
1
10
52.4413412057123
20
1.4744197723476
30
0
41
1
10
52.3871071643456
20
1.51453948899845
30
0
41
1
10
52.2787469118539
20
1.59424498708262
30
0
41
1
10
52.2245833537899
20
1.63384282761316
30
0
41
1
10
51.9539033562605
20
1.83063018180235
30
0
41
1
10
51.7380244926086
20
1.98448386227088
30
0
41
1
10
51.4146189460554
20
2.2091668238611
30
0
41
1
10
51.3068781546222
20
2.28303510236361
30
0
41
1
10
51.0913990291726
20
2.42856309261816
30
0
41
1
10
50.9836650499934
20
2.50022610784794
30
0
41
1
10
50.7678263165991
20
2.64091856323668
30
0
41
1
10
50.6601743062852
20
2.70969671873181
30
0
41
1
10
50.4448962864389
20
2.84340286867871
30
0
41
1
10
50.3371230387083
20
2.90823839592119
30
0
41
1
10
50.0147650027349
20
3.09820051062368
30
0
41
1
10
49.8009725173565
20
3.21857319306883
30
0
41
1
10
49.3742793238746
20
3.44554107288826
30
0
41
1
10
49.1612066456273
20
3.55199365587109
30
0
41
1
10
48.8412705083735
20
3.70048677756276
30
0
41
1
10
48.7345736282189
20
3.74812013995054
30
0
41
1
10
48.5742394257154
20
3.81660808549464
30
0
41
1
10
48.5207571172313
20
3.83895098324769
30
0
41
1
10
48.4136049015722
20
3.88258752321647
30
0
41
1
10
48.3598736489595
20
3.90384158193234
30
0
41
1
10
48.1985744746832
20
3.96615361890059
30
0
41
1
10
48.0909191066679
20
4.00576499497313
30
0
41
1
10
47.928888449215
20
4.06202993009555
30
0
41
1
10
47.8748024721027
20
4.08026962795202
30
0
41
1
10
47.7664990345515
20
4.11572245363055
30
0
41
1
10
47.712249829467
20
4.13294446656334
30
0
41
1
10
47.4417540274344
20
4.21618259647065
30
0
41
1
10
47.2270582275433
20
4.27384042973424
30
0
41
1
10
46.9064663132826
20
4.34654746622905
30
0
41
1
10
46.7998603691989
20
4.36849214904601
30
0
41
1
10
46.6401190095695
20
4.39791003514819
30
0
41
1
10
46.5868838908327
20
4.40712766614479
30
0
41
1
10
46.480285136453
20
4.42435657249655
30
0
41
1
10
46.4269234219749
20
4.43236958514325
30
0
41
1
10
46.266732798435
20
4.45464690687865
30
0
41
1
10
46.1598306041379
20
4.46716174006858
30
0
41
1
10
45.9462226854372
20
4.48760399565967
30
0
41
1
10
45.8394300202833
20
4.49551081399312
30
0
41
1
10
45.6256869284001
20
4.50664953514973
30
0
41
1
10
45.5187529673168
20
4.50988436467276
30
0
41
1
10
45.3047037448314
20
4.51163153122201
30
0
41
1
10
45.1975851586131
20
4.51014230935633
30
0
41
1
10
44.9829731295534
20
4.50237317493682
30
0
41
1
10
44.8754803663407
20
4.49609314756248
30
0
41
1
10
44.7138139096333
20
4.48303694383668
30
0
41
1
10
44.6598455922988
20
4.47807808268016
30
0
41
1
10
44.5517743926074
20
4.46694565341457
30
0
41
1
10
44.4978187034515
20
4.46078627041325
30
0
41
1
10
44.3900099580673
20
4.4473039085768
30
0
41
1
10
44.3361554118517
20
4.4399811028544
30
0
41
1
10
44.2284638554598
20
4.42420725562968
30
0
41
1
10
44.1745990570599
20
4.41576408439036
30
0
41
1
10
44.0130958392134
20
4.38875396800094
30
0
41
1
10
43.9056969933197
20
4.36846303554077
30
0
41
1
10
43.5842051081287
20
4.30079507805223
30
0
41
1
10
43.3708864728316
20
4.24658126101053
30
0
41
1
10
43.0510472599493
20
4.15218237855652
30
0
41
1
10
42.9444613778464
20
4.11853870442391
30
0
41
1
10
42.7312721619415
20
4.04692431059573
30
0
41
1
10
42.6246826465615
20
4.00894423238768
30
0
41
1
10
42.4646295692346
20
3.94879838534391
30
0
41
1
10
42.4112494813941
20
3.92822119991351
30
0
41
1
10
42.3043987139084
20
3.88602788631704
30
0
41
1
10
42.2509424347209
20
3.86440119964288
30
0
41
1
10
42.1437180365157
20
3.8202604826071
30
0
41
1
10
42.089985315581
20
3.7977247232667
30
0
41
1
10
41.9824531202275
20
3.75160128202955
30
0
41
1
10
41.8209874595467
20
3.6808816672002
30
0
41
1
10
41.6589163966641
20
3.60562045802777
30
0
41
1
10
41.4964851495541
20
3.52724402656395
30
0
41
1
10
41.4422460042267
20
3.50057856033248
30
0
41
1
10
41.3737627713825
20
3.46627992982223
30
0
41
1
10
41.3593807971666
20
3.45904195940625
30
0
41
1
10
41.345005705444
20
3.45177271344468
30
0
0
SPLINE
5
181
100
AcDbEntity
8
1
62
256
6
ByLayer
370
18
48
1
60
0
100
AcDbSpline
70
4
71
3
72
138
73
134
40
0
40
0
40
0
40
0
40
0.0087053417025119
40
0.0087053417025119
40
0.0174106834050238
40
0.0174106834050238
40
0.0348213668100489
40
0.0348213668100489
40
0.0696427336200977
40
0.0696427336200977
40
0.0870534170251221
40
0.0870534170251221
40
0.0957587587276338
40
0.0957587587276338
40
0.104464100430145
40
0.104464100430145
40
0.113169442132657
40
0.113169442132657
40
0.121874783835169
40
0.121874783835169
40
0.139285467240192
40
0.139285467240192
40
0.174106834050238
40
0.174106834050238
40
0.191517517455261
40
0.191517517455261
40
0.200222859157773
40
0.200222859157773
40
0.208928200860284
40
0.208928200860284
40
0.24374956767033
40
0.24374956767033
40
0.261160251075353
40
0.261160251075353
40
0.269865592777865
40
0.269865592777865
40
0.278570934480377
40
0.278570934480377
40
0.295981617885403
40
0.295981617885403
40
0.304686959587916
40
0.304686959587916
40
0.313392301290429
40
0.313392301290429
40
0.34821366810048
40
0.34821366810048
40
0.365624351505505
40
0.365624351505505
40
0.38303503491053
40
0.38303503491053
40
0.391740376613043
40
0.391740376613043
40
0.400445718315555
40
0.400445718315555
40
0.409151060018068
40
0.409151060018068
40
0.41785640172058
40
0.41785640172058
40
0.45267776853063
40
0.45267776853063
40
0.470088451935656
40
0.470088451935656
40
0.487499135340681
40
0.487499135340681
40
0.496204477043194
40
0.496204477043194
40
0.504909818745706
40
0.504909818745706
40
0.522320502150729
40
0.522320502150729
40
0.539731185555752
40
0.539731185555752
40
0.557141868960775
40
0.557141868960775
40
0.574552552365799
40
0.574552552365799
40
0.58325789406831
40
0.58325789406831
40
0.591963235770821
40
0.591963235770821
40
0.609373919175844
40
0.609373919175844
40
0.626784602580867
40
0.626784602580867
40
0.635489944283378
40
0.635489944283378
40
0.644195285985889
40
0.661605969390911
40
0.661605969390911
40
0.679016652795933
40
0.679016652795933
40
0.687721994498444
40
0.687721994498444
40
0.696427336200955
40
0.696427336200955
40
0.705132677903467
40
0.705132677903467
40
0.713838019605978
40
0.731248703011
40
0.731248703011
40
0.766070069821044
40
0.766070069821044
40
0.774775411523555
40
0.774775411523555
40
0.783480753226066
40
0.783480753226066
40
0.800891436631088
40
0.800891436631088
40
0.835712803441132
40
0.835712803441132
40
0.844418145143642
40
0.844418145143642
40
0.853123486846152
40
0.853123486846152
40
0.870534170251173
40
0.870534170251173
40
0.879239511953683
40
0.879239511953683
40
0.887944853656193
40
0.887944853656193
40
0.905355537061214
40
0.905355537061214
40
0.940176903871254
40
0.940176903871254
40
0.957587587276273
40
0.957587587276273
40
0.974998270681293
40
0.974998270681293
40
0.983703612383803
40
0.983703612383803
40
0.992408954086313
40
0.992408954086313
40
1
40
1
40
1
40
1
41
1
10
37.9212576157481
20
4.48765055853494
30
0
41
1
10
37.9835480792375
20
4.48264355924482
30
0
41
1
10
38.0456335590267
20
4.4768179597387
30
0
41
1
10
38.1699685487664
20
4.46362910567743
30
0
41
1
10
38.2321720597368
20
4.45626303514092
30
0
41
1
10
38.4186183437943
20
4.4318250382471
30
0
41
1
10
38.5428708195514
20
4.41244590716406
30
0
41
1
10
38.9157624698693
20
4.34527624694232
30
0
41
1
10
39.1643865027572
20
4.28845280972291
30
0
41
1
10
39.5374601878613
20
4.18517893608623
30
0
41
1
10
39.661833297562
20
4.14773583504234
30
0
41
1
10
39.848418165163
20
4.08695681478795
30
0
41
1
10
39.9106690757613
20
4.06595571221723
30
0
41
1
10
40.0352084242317
20
4.02241498852297
30
0
41
1
10
40.0974659533026
20
3.99985551383367
30
0
41
1
10
40.2221743823804
20
3.95327002947218
30
0
41
1
10
40.2846528669684
20
3.92926235060048
30
0
41
1
10
40.4098933198916
20
3.87983853517835
30
0
41
1
10
40.4726020581659
20
3.85443802834286
30
0
41
1
10
40.6603560703697
20
3.77645245354313
30
0
41
1
10
40.7852612045826
20
3.72198197134293
30
0
41
1
10
41.1593004582279
20
3.5513718323254
30
0
41
1
10
41.4077955220173
20
3.42809038195057
30
0
41
1
10
41.7793129114662
20
3.22908035904752
30
0
41
1
10
41.9029520495902
20
3.16039236250015
30
0
41
1
10
42.0881545211937
20
3.05383871220221
30
0
41
1
10
42.1498425441844
20
3.01773013157498
30
0
41
1
10
42.2731772591928
20
2.94437151640457
30
0
41
1
10
42.3349089105838
20
2.90720359212736
30
0
41
1
10
42.6441440740175
20
2.71919555626289
30
0
41
1
10
42.8925181103287
20
2.5610163827744
30
0
41
1
10
43.2672376049873
20
2.31272217960176
30
0
41
1
10
43.3924897594385
20
2.22810122633882
30
0
41
1
10
43.5809257688207
20
2.09836847571424
30
0
41
1
10
43.6436956688459
20
2.05474953686561
30
0
41
1
10
43.7689246364362
20
1.96692223059497
30
0
41
1
10
43.8314192948032
20
1.92268891224171
30
0
41
1
10
44.018542502584
20
1.78903020953558
30
0
41
1
10
44.1427715517872
20
1.69859951900017
30
0
41
1
10
44.3284983709428
20
1.5611611434386
30
0
41
1
10
44.3903439399333
20
1.51509734603803
30
0
41
1
10
44.514103423571
20
1.42270974771358
30
0
41
1
10
44.575997843187
20
1.37636238117454
30
0
41
1
10
44.8854678207249
20
1.14377397971373
30
0
41
1
10
45.1330942750858
20
0.955055716848221
30
0
41
1
10
45.5050013959417
20
0.668555605901247
30
0
41
1
10
45.629044527582
20
0.572479015551494
30
0
41
1
10
45.8772575128163
20
0.379132089273611
30
0
41
1
10
46.0013852903258
20
0.28180672423008
30
0
41
1
10
46.1877990556148
20
0.135065768792231
30
0
41
1
10
46.2499984108935
20
0.0860588666766375
30
0
41
1
10
46.3743547558238
20
-0.012363793735318
30
0
41
1
10
46.4365916782842
20
-0.061674900856616
30
0
41
1
10
46.5614022602955
20
-0.16020840365303
30
0
41
1
10
46.6239490566105
20
-0.209466106041987
30
0
41
1
10
46.7493405172169
20
-0.307944479420371
30
0
41
1
10
46.8119956616695
20
-0.357018469583807
30
0
41
1
10
47.124869431828
20
-0.601440305128165
30
0
41
1
10
47.3741590465102
20
-0.794019001209136
30
0
41
1
10
47.746769281073
20
-1.07840314760375
30
0
41
1
10
47.8707288837733
20
-1.17247656102751
30
0
41
1
10
48.1182320755323
20
-1.35908602184836
30
0
41
1
10
48.241802297861
20
-1.45158981925482
30
0
41
1
10
48.4268116976473
20
-1.58921418618965
30
0
41
1
10
48.4884224364191
20
-1.63490085776968
30
0
41
1
10
48.6119426953388
20
-1.72539716954566
30
0
41
1
10
48.6737685546809
20
-1.77030816583516
30
0
41
1
10
48.859398499988
20
-1.90408540055543
30
0
41
1
10
48.9833903713194
20
-1.99195373027914
30
0
41
1
10
49.2320045167066
20
-2.16487773085743
30
0
41
1
10
49.3566244994539
20
-2.24993645462402
30
0
41
1
10
49.6065648169889
20
-2.41714451355958
30
0
41
1
10
49.7319217008605
20
-2.49931504169689
30
0
41
1
10
49.9831757538926
20
-2.66063134263067
30
0
41
1
10
50.1084894683292
20
-2.73942839464061
30
0
41
1
10
50.2960600565355
20
-2.85475124039147
30
0
41
1
10
50.3585196031408
20
-2.89271054018568
30
0
41
1
10
50.4833039095798
20
-2.96766696919886
30
0
41
1
10
50.5455768278033
20
-3.00471263377122
30
0
41
1
10
50.732594611826
20
-3.11401584479668
30
0
41
1
10
50.8575490310606
20
-3.1844396951013
30
0
41
1
10
51.107876779415
20
-3.32057556550294
30
0
41
1
10
51.2332730457904
20
-3.38626594045257
30
0
41
1
10
51.4217221831427
20
-3.48122861637515
30
0
41
1
10
51.4845742047502
20
-3.51227226136669
30
0
41
1
10
51.610132209936
20
-3.57302635959007
30
0
41
1
10
51.7983447638406
20
-3.66220567179042
30
0
41
1
10
51.9862036589312
20
-3.74554020059114
30
0
41
1
10
52.2363475584847
20
-3.8514511612463
30
0
41
1
10
52.3612545030952
20
-3.90180186867246
30
0
41
1
10
52.5485025948075
20
-3.97327741744127
30
0
41
1
10
52.6108560216981
20
-3.99645313788676
30
0
41
1
10
52.7356830352345
20
-4.04134869952898
30
0
41
1
10
52.7982301036315
20
-4.06302807174663
30
0
41
1
10
52.923452657937
20
-4.10493547408663
30
0
41
1
10
52.9861780461239
20
-4.12516429713816
30
0
41
1
10
53.1114143909981
20
-4.16401160662372
30
0
41
1
10
53.2990767860001
20
-4.21991514573148
30
0
41
1
10
53.4861927004709
20
-4.26881083426034
30
0
41
1
10
53.8597498480184
20
-4.35741466467397
30
0
41
1
10
54.1079201999139
20
-4.404258873456
30
0
41
1
10
54.4171099212168
20
-4.4475558580279
30
0
41
1
10
54.4788952283375
20
-4.45544980611712
30
0
41
1
10
54.6023600380509
20
-4.46969577974215
30
0
41
1
10
54.6640247560532
20
-4.47604909418928
30
0
41
1
10
54.8491414405479
20
-4.49273587870979
30
0
41
1
10
54.9727544066084
20
-4.50069625893997
30
0
41
1
10
55.3444920918282
20
-4.51511677118273
30
0
41
1
10
55.5934532520955
20
-4.51215626845095
30
0
41
1
10
55.9064255449407
20
-4.49252902059277
30
0
41
1
10
55.9691062067309
20
-4.48780478823301
30
0
41
1
10
56.0946364898881
20
-4.47674088536201
30
0
41
1
10
56.1574761370069
20
-4.47039933874231
30
0
41
1
10
56.3453975361547
20
-4.44902829582475
30
0
41
1
10
56.4701736187468
20
-4.43163294601584
30
0
41
1
10
56.6566299097155
20
-4.40084919201473
30
0
41
1
10
56.7186224263416
20
-4.38979308195562
30
0
41
1
10
56.8424770362377
20
-4.36614510440393
30
0
41
1
10
56.9043803851175
20
-4.35356701724774
30
0
41
1
10
57.0901224710489
20
-4.31363308762707
30
0
41
1
10
57.2139644793417
20
-4.28407126658783
30
0
41
1
10
57.5855697937775
20
-4.18675005418447
30
0
41
1
10
57.8333710151917
20
-4.11036640939651
30
0
41
1
10
58.205382641217
20
-3.97869142169924
30
0
41
1
10
58.329426664911
20
-3.9319362104047
30
0
41
1
10
58.5775873596011
20
-3.83259394280003
30
0
41
1
10
58.7017003009254
20
-3.78000204367683
30
0
41
1
10
58.8880630789838
20
-3.69671433990723
30
0
41
1
10
58.9502632347787
20
-3.66825218081738
30
0
41
1
10
59.0749856129849
20
-3.61004971048698
30
0
41
1
10
59.1374884541005
20
-3.58029542154233
30
0
41
1
10
59.2547489822301
20
-3.52336121003876
30
0
41
1
10
59.3094529443475
20
-3.49635675411358
30
0
41
1
10
59.3640968878902
20
-3.46894549584923
30
0
0
SPLINE
5
182
100
AcDbEntity
8
1
62
256
6
ByLayer
370
18
48
1
60
0
100
AcDbSpline
70
4
71
3
72
8
73
4
40
0
40
0
40
0
40
0
40
1
40
1
40
1
40
1
41
1
10
73.576670544098
20
-5.90840588719041
30
0
41
1
10
73.6373588112482
20
-5.92346070695643
30
0
41
1
10
73.6980019102161
20
-5.93752898017883
30
0
41
1
10
73.7586661086724
20
-5.95059408205705
30
0
0
SPLINE
5
183
100
AcDbEntity
8
1
62
256
6
ByLayer
370
18
48
1
60
0
100
AcDbSpline
70
4
71
3
72
32
73
28
40
0
40
0
40
0
40
0
40
0.124999999999989
40
0.124999999999989
40
0.187499999999984
40
0.187499999999984
40
0.249999999999978
40
0.249999999999978
40
0.374999999999968
40
0.374999999999968
40
0.437499999999984
40
0.437499999999984
40
0.500000000000001
40
0.500000000000001
40
0.625000000000036
40
0.625000000000036
40
0.68750000000003
40
0.68750000000003
40
0.750000000000024
40
0.750000000000024
40
0.812500000000018
40
0.812500000000018
40
0.875000000000012
40
0.875000000000012
40
0.937500000000006
40
0.937500000000006
40
1
40
1
40
1
40
1
41
1
10
71.1262787832878
20
-3.86942030252635
30
0
41
1
10
71.1137871122504
20
-3.84345073131286
30
0
41
1
10
71.0992963005702
20
-3.81902857688857
30
0
41
1
10
71.0752636130585
20
-3.78416590049736
30
0
41
1
10
71.0668612480598
20
-3.77284707297986
30
0
41
1
10
71.0493147997605
20
-3.75078138695173
30
0
41
1
10
71.0402954945826
20
-3.74019102727633
30
0
41
1
10
71.0125669026276
20
-3.7096310316492
30
0
41
1
10
70.9931943561062
20
-3.69085785572167
30
0
41
1
10
70.9628982099549
20
-3.66497528461869
30
0
41
1
10
70.9525912540874
20
-3.65673122965069
30
0
41
1
10
70.9315524514501
20
-3.64103709297987
30
0
41
1
10
70.9209213371931
20
-3.63366467506165
30
0
41
1
10
70.8889176830721
20
-3.61311700032459
30
0
41
1
10
70.867348141438
20
-3.60141940131607
30
0
41
1
10
70.8346683835354
20
-3.5872309297668
30
0
41
1
10
70.8237204323531
20
-3.5830664403216
30
0
41
1
10
70.8017117242223
20
-3.57602612773215
30
0
41
1
10
70.7907106549073
20
-3.57317804674611
30
0
41
1
10
70.7691520714185
20
-3.56908129409473
30
0
41
1
10
70.7585362131729
20
-3.56781111683691
30
0
41
1
10
70.7376931177134
20
-3.56706721717734
30
0
41
1
10
70.727392414888
20
-3.56761115696193
30
0
41
1
10
70.7078495860007
20
-3.57080572273384
30
0
41
1
10
70.6985621699336
20
-3.57343764146975
30
0
41
1
10
70.6811250930797
20
-3.58113407817376
30
0
41
1
10
70.6729610444112
20
-3.58623768930221
30
0
41
1
10
70.6657492871474
20
-3.59264480454561
30
0
0
SPLINE
5
184
100
AcDbEntity
8
1
62
256
6
ByLayer
370
18
48
1
60
0
100
AcDbSpline
70
4
71
3
72
14
73
10
40
0
40
0
40
0
40
0
40
0.25
40
0.25
40
0.5
40
0.5
40
0.75
40
0.75
40
1
40
1
40
1
40
1
41
1
10
70.6657492871431
20
-3.59264480455732
30
0
41
1
10
70.6162238836488
20
-3.63664447843837
30
0
41
1
10
70.5668787929069
20
-3.67869658583965
30
0
41
1
10
70.4684922198316
20
-3.75899650035345
30
0
41
1
10
70.4194436387329
20
-3.79724700510923
30
0
41
1
10
70.3217646592649
20
-3.86988748604765
30
0
41
1
10
70.2730943217984
20
-3.90430830560541
30
0
41
1
10
70.1761574277986
20
-3.96934046681511
30
0
41
1
10
70.1279048074207
20
-3.9999438263219
30
0
41
1
10
70.0798354557041
20
-4.02867278340889
30
0
0
SPLINE
5
185
100
AcDbEntity
8
1
62
256
6
ByLayer
370
18
48
1
60
0
100
AcDbSpline
70
4
71
3
72
8
73
4
40
0
40
0
40
0
40
0
40
1
40
1
40
1
40
1
41
1
10
69.8978707308335
20
-3.88179119830016
30
0
41
1
10
69.958502256498
20
-3.93142141771173
30
0
41
1
10
70.0191508910717
20
-3.98038635978656
30
0
41
1
10
70.0798354557041
20
-4.02867278340895
30
0
0
SPLINE
5
186
100
AcDbEntity
8
1
62
256
6
ByLayer
370
18
48
1
60
0
100
AcDbSpline
70
4
71
3
72
14
73
10
40
0
40
0
40
0
40
0
40
0.25
40
0.25
40
0.5
40
0.5
40
0.75
40
0.75
40
1
40
1
40
1
40
1
41
1
10
69.8978707308335
20
-3.88179119830016
30
0
41
1
10
69.847692300976
20
-3.77477808892749
30
0
41
1
10
69.7973630322479
20
-3.66827475192051
30
0
41
1
10
69.6963222989866
20
-3.45634322744473
30
0
41
1
10
69.645587501217
20
-3.35087157117007
30
0
41
1
10
69.5437493214055
20
-3.14137526671632
30
0
41
1
10
69.4926288235288
20
-3.03731826828869
30
0
41
1
10
69.3900014251899
20
-2.83082627738114
30
0
41
1
10
69.3385198200892
20
-2.72842670579738
30
0
41
1
10
69.2868159324768
20
-2.62692156062226
30
0
0
SPLINE
5
187
100
AcDbEntity
8
1
62
256
6
ByLayer
370
18
48
1
60
0
100
AcDbSpline
70
4
71
3
72
32
73
28
40
0
40
0
40
0
40
0
40
0.124999999999959
40
0.124999999999959
40
0.187499999999922
40
0.187499999999922
40
0.249999999999886
40
0.249999999999886
40
0.374999999999812
40
0.374999999999812
40
0.437499999999798
40
0.437499999999798
40
0.499999999999783
40
0.499999999999783
40
0.624999999999801
40
0.624999999999801
40
0.687499999999834
40
0.687499999999834
40
0.749999999999867
40
0.749999999999867
40
0.8124999999999
40
0.8124999999999
40
0.874999999999934
40
0.874999999999934
40
0.937499999999967
40
0.937499999999967
40
1
40
1
40
1
40
1
41
1
10
69.2868159324768
20
-2.62692156062215
30
0
41
1
10
69.2743350549233
20
-2.60241908418405
30
0
41
1
10
69.2598613642147
20
-2.57860944298986
30
0
41
1
10
69.2358585612734
20
-2.54370718727498
30
0
41
1
10
69.2274668043345
20
-2.53221117968926
30
0
41
1
10
69.2099423821525
20
-2.50948157369945
30
0
41
1
10
69.2009336935206
20
-2.49840842502638
30
0
41
1
10
69.1732343203675
20
-2.4659866611367
30
0
41
1
10
69.1538776436084
20
-2.44542666661138
30
0
41
1
10
69.1235945799926
20
-2.41607552440308
30
0
41
1
10
69.1132902821263
20
-2.40654235925257
30
0
41
1
10
69.0922531531353
20
-2.38799064191733
30
0
41
1
10
69.0816177904997
20
-2.37906019064385
30
0
41
1
10
69.049602647164
20
-2.35348894776249
30
0
41
1
10
69.0280207955447
20
-2.33796547100033
30
0
41
1
10
68.9953197931412
20
-2.31720226600243
30
0
41
1
10
68.9843643117165
20
-2.31070547834352
30
0
41
1
10
68.9623405420514
20
-2.2986727135079
30
0
41
1
10
68.9513249987327
20
-2.29317248073966
30
0
41
1
10
68.9297453759142
20
-2.28353353512003
30
0
41
1
10
68.9191206845747
20
-2.27935929593073
30
0
41
1
10
68.89826354606
20
-2.272494764556
30
0
41
1
10
68.8879562052097
20
-2.26979519429139
30
0
41
1
10
68.8683997724914
20
-2.26631275126937
30
0
41
1
10
68.8591080420583
20
-2.26550252216671
30
0
41
1
10
68.84166674891
20
-2.26606834402102
30
0
41
1
10
68.8335006573817
20
-2.26746960719436
30
0
41
1
10
68.8262879368667
20
-2.27014836458798
30
0
0
SPLINE
5
188
100
AcDbEntity
8
1
62
256
6
ByLayer
370
18
48
1
60
0
100
AcDbSpline
70
4
71
3
72
14
73
10
40
0
40
0
40
0
40
0
40
0.25
40
0.25
40
0.5
40
0.5
40
0.75
40
0.75
40
1
40
1
40
1
40
1
41
1
10
68.8262879368629
20
-2.27014836459796
30
0
41
1
10
68.7767656486605
20
-2.28854061970176
30
0
41
1
10
68.7274238166144
20
-2.30470754766498
30
0
41
1
10
68.629044307874
20
-2.3327020475883
30
0
41
1
10
68.5799994372306
20
-2.34452796463637
30
0
41
1
10
68.4823296870176
20
-2.36389780250641
30
0
41
1
10
68.4336646093697
20
-2.37145102743668
30
0
41
1
10
68.3367403072749
20
-2.38237345772527
30
0
41
1
10
68.2884952423408
20
-2.38574285993656
30
0
41
1
10
68.2404343151718
20
-2.38706737770528
30
0
0
SPLINE
5
189
100
AcDbEntity
8
1
62
256
6
ByLayer
370
18
48
1
60
0
100
AcDbSpline
70
4
71
3
72
8
73
4
40
0
40
0
40
0
40
0
40
1
40
1
40
1
40
1
41
1
10
68.0584163735563
20
-2.2081464650116
30
0
41
1
10
68.1190607955391
20
-2.26817974165041
30
0
41
1
10
68.1797284191018
20
-2.32782434864888
30
0
41
1
10
68.2404343151718
20
-2.38706737770528
30
0
0
SPLINE
5
18A
100
AcDbEntity
8
1
62
256
6
ByLayer
370
18
48
1
60
0
100
AcDbSpline
70
4
71
3
72
14
73
10
40
0
40
0
40
0
40
0
40
0.25
40
0.25
40
0.5
40
0.5
40
0.75
40
0.75
40
1
40
1
40
1
40
1
41
1
10
68.0584163735563
20
-2.20814646501157
30
0
41
1
10
68.0082139077146
20
-2.11196324296077
30
0
41
1
10
67.957860113278
20
-2.01699130694826
30
0
41
1
10
67.8567774274536
20
-1.82953715045952
30
0
41
1
10
67.8060278067509
20
-1.73701778495473
30
0
41
1
10
67.7041937210422
20
-1.5547894582559
30
0
41
1
10
67.6530937066181
20
-1.46505121287689
30
0
41
1
10
67.5505238273723
20
-1.28858873277238
30
0
41
1
10
67.4990741522361
20
-1.20190008243011
30
0
41
1
10
67.4474134781421
20
-1.11680046479222
30
0
0
SPLINE
5
18B
100
AcDbEntity
8
1
62
256
6
ByLayer
370
18
48
1
60
0
100
AcDbSpline
70
4
71
3
72
32
73
28
40
0
40
0
40
0
40
0
40
0.125000000000029
40
0.125000000000029
40
0.187500000000026
40
0.187500000000026
40
0.250000000000024
40
0.250000000000024
40
0.37500000000002
40
0.37500000000002
40
0.437500000000017
40
0.437500000000017
40
0.500000000000015
40
0.500000000000015
40
0.625000000000011
40
0.625000000000011
40
0.687500000000009
40
0.687500000000009
40
0.750000000000007
40
0.750000000000007
40
0.812500000000006
40
0.812500000000006
40
0.875000000000004
40
0.875000000000004
40
0.937500000000002
40
0.937500000000002
40
1
40
1
40
1
40
1
41
1
10
67.4474134781421
20
-1.11680046479219
30
0
41
1
10
67.4349169512586
20
-1.09621518056514
30
0
41
1
10
67.4204268063624
20
-1.07539466209778
30
0
41
1
10
67.3964057109723
20
-1.04392798265326
30
0
41
1
10
67.388007451111
20
-1.03339631297123
30
0
41
1
10
67.3704788690748
20
-1.01226261513082
30
0
41
1
10
67.3614695434637
20
-1.00180607958509
30
0
41
1
10
67.3337734310236
20
-0.970735166532705
30
0
41
1
10
67.3144259131625
20
-0.950416770572218
30
0
41
1
10
67.2841702867049
20
-0.920471780871708
30
0
41
1
10
67.2738773398451
20
-0.910579641381815
30
0
41
1
10
67.2528672412934
20
-0.890972838867896
30
0
41
1
10
67.2422431517705
20
-0.881346510995229
30
0
41
1
10
67.2102653071164
20
-0.853207562976735
30
0
41
1
10
67.1887078191742
20
-0.835330668925479
30
0
41
1
10
67.1560271872003
20
-0.809951039044648
30
0
41
1
10
67.1450754788765
20
-0.801733063433204
30
0
41
1
10
67.1230530687876
20
-0.785836708617921
30
0
41
1
10
67.1120231681874
20
-0.778191895254963
30
0
41
1
10
67.0904176586515
20
-0.763896617047237
30
0
41
1
10
67.0797783767681
20
-0.757198708818379
30
0
41
1
10
67.0588909851368
20
-0.744828551720445
30
0
41
1
10
67.0485665409852
20
-0.739119815417723
30
0
41
1
10
67.0289717134553
20
-0.729235644143756
30
0
41
1
10
67.0196618870674
20
-0.725029101260674
30
0
41
1
10
67.0021875458553
20
-0.718342571423051
30
0
41
1
10
66.9940048810286
20
-0.715869827676329
30
0
41
1
10
66.9867786015074
20
-0.714525428871696
30
0
0
SPLINE
5
18C
100
AcDbEntity
8
1
62
256
6
ByLayer
370
18
48
1
60
0
100
AcDbSpline
70
4
71
3
72
14
73
10
40
0
40
0
40
0
40
0
40
0.25
40
0.25
40
0.5
40
0.5
40
0.75
40
0.75
40
1
40
1
40
1
40
1
41
1
10
66.9867786015037
20
-0.714525428879739
30
0
41
1
10
66.9372581380109
20
-0.705312492719287
30
0
41
1
10
66.8879168755051
20
-0.693844554060405
30
0
41
1
10
66.7895372008456
20
-0.666510247091395
30
0
41
1
10
66.7404918634956
20
-0.650637881824338
30
0
41
1
10
66.6428198087292
20
-0.614651079780145
30
0
41
1
10
66.5941530320295
20
-0.594524268163326
30
0
41
1
10
66.4972235412337
20
-0.55017172364731
30
0
41
1
10
66.4489747060053
20
-0.525954218550027
30
0
41
1
10
66.4009088718099
20
-0.499748207762906
30
0
0
SPLINE
5
18D
100
AcDbEntity
8
1
62
256
6
ByLayer
370
18
48
1
60
0
100
AcDbSpline
70
4
71
3
72
8
73
4
40
0
40
0
40
0
40
0
40
1
40
1
40
1
40
1
41
1
10
66.2189787277952
20
-0.307241641180013
30
0
41
1
10
66.2796095248902
20
-0.371469642733871
30
0
41
1
10
66.3402470317134
20
-0.435644052938073
30
0
41
1
10
66.4009088718099
20
-0.499748207762906
30
0
0
SPLINE
5
18E
100
AcDbEntity
8
1
62
256
6
ByLayer
370
18
48
1
60
0
100
AcDbSpline
70
4
71
3
72
14
73
10
40
0
40
0
40
0
40
0
40
0.25
40
0.25
40
0.5
40
0.5
40
0.75
40
0.75
40
1
40
1
40
1
40
1
41
1
10
66.2189787277952
20
-0.307241641179957
30
0
41
1
10
66.1687895792495
20
-0.231813019578397
30
0
41
1
10
66.1184414544585
20
-0.158191118200392
30
0
41
1
10
66.0173587974098
20
-0.0146230415166997
30
0
41
1
10
65.966603910538
20
0.0553502312499177
30
0
41
1
10
65.8647603828585
20
0.19136840072025
30
0
41
1
10
65.8136561621854
20
0.257434890602212
30
0
41
1
10
65.7110924319334
20
0.385494738275611
30
0
41
1
10
65.6596532587037
20
0.447464071822822
30
0
41
1
10
65.6080158528524
20
0.507333034437863
30
0
0
SPLINE
5
18F
100
AcDbEntity
8
1
62
256
6
ByLayer
370
18
48
1
60
0
100
AcDbSpline
70
4
71
3
72
32
73
28
40
0
40
0
40
0
40
0
40
0.124999999999974
40
0.124999999999974
40
0.187499999999961
40
0.187499999999961
40
0.249999999999948
40
0.249999999999948
40
0.37499999999992
40
0.37499999999992
40
0.437499999999928
40
0.437499999999928
40
0.499999999999936
40
0.499999999999936
40
0.624999999999952
40
0.624999999999952
40
0.68749999999996
40
0.68749999999996
40
0.749999999999968
40
0.749999999999968
40
0.812499999999976
40
0.812499999999976
40
0.874999999999984
40
0.874999999999984
40
0.937499999999992
40
0.937499999999992
40
1
40
1
40
1
40
1
41
1
10
65.6080158528524
20
0.50733303443792
30
0
41
1
10
65.5955006823338
20
0.521843257473961
30
0
41
1
10
65.5809866357638
20
0.537498061734965
30
0
41
1
10
65.5569275474537
20
0.562243998619465
30
0
41
1
10
65.5485154215907
20
0.570711498753184
30
0
41
1
10
65.5309621625258
20
0.588047722653187
30
0
41
1
10
65.521940921412
20
0.596798253069267
30
0
41
1
10
65.4942111608517
20
0.623280321080244
30
0
41
1
10
65.4748439965633
20
0.641238354325793
30
0
41
1
10
65.444566220352
20
0.668650151212773
30
0
41
1
10
65.4342671073029
20
0.677867573789001
30
0
41
1
10
65.4132477171466
20
0.69647935149402
30
0
41
1
10
65.4026230538619
20
0.705788639859037
30
0
41
1
10
65.3706450313603
20
0.733544256170177
30
0
41
1
10
65.3490949157106
20
0.751903885335054
30
0
41
1
10
65.3164418363235
20
0.779275769046251
30
0
41
1
10
65.3055023415829
20
0.788371587704859
30
0
41
1
10
65.283508568038
20
0.806512537262421
30
0
41
1
10
65.2724982523693
20
0.81552049305148
30
0
41
1
10
65.2509238656167
20
0.833029844549088
30
0
41
1
10
65.2402978196151
20
0.84158264525189
30
0
41
1
10
65.2194296995113
20
0.858232223056177
30
0
41
1
10
65.2091121304315
20
0.866387697447209
30
0
41
1
10
65.1895247352035
20
0.881703008133684
30
0
41
1
10
65.1802138512933
20
0.888897099760015
30
0
41
1
10
65.1627302616363
20
0.90219728854845
30
0
41
1
10
65.1545417164
20
0.908313162896974
30
0
41
1
10
65.1473094290289
20
0.913565946279476
30
0
0
SPLINE
5
190
100
AcDbEntity
8
1
62
256
6
ByLayer
370
18
48
1
60
0
100
AcDbSpline
70
4
71
3
72
14
73
10
40
0
40
0
40
0
40
0
40
0.25
40
0.25
40
0.5
40
0.5
40
0.75
40
0.75
40
1
40
1
40
1
40
1
41
1
10
65.1473094290245
20
0.913565946272882
30
0
41
1
10
65.0978035580457
20
0.949521875990314
30
0
41
1
10
65.0484661180358
20
0.987427964166784
30
0
41
1
10
64.9500895052982
20
1.06720099140949
30
0
41
1
10
64.9010461775962
20
1.10911277946428
30
0
41
1
10
64.803379714186
20
1.19673407924125
30
0
41
1
10
64.7547154992604
20
1.24246005457729
30
0
41
1
10
64.6577793980158
20
1.33744865852287
30
0
41
1
10
64.6095222450269
20
1.38670284347472
30
0
41
1
10
64.5614489314527
20
1.43770341263504
30
0
0
SPLINE
5
191
100
AcDbEntity
8
1
62
256
6
ByLayer
370
18
48
1
60
0
100
AcDbSpline
70
4
71
3
72
8
73
4
40
0
40
0
40
0
40
0
40
1
40
1
40
1
40
1
41
1
10
64.3795024155807
20
1.62395316531692
30
0
41
1
10
64.4401338285086
20
1.56212969065297
30
0
41
1
10
64.5007818916737
20
1.50004575967478
30
0
41
1
10
64.5614489314527
20
1.43770341263504
30
0
0
SPLINE
5
192
100
AcDbEntity
8
1
62
256
6
ByLayer
370
18
48
1
60
0
100
AcDbSpline
70
4
71
3
72
14
73
10
40
0
40
0
40
0
40
0
40
0.25
40
0.25
40
0.5
40
0.5
40
0.75
40
0.75
40
1
40
1
40
1
40
1
41
1
10
64.3795024155808
20
1.62395316531686
30
0
41
1
10
64.3293188047607
20
1.67085505939394
30
0
41
1
10
64.2789745906882
20
1.71555302603488
30
0
41
1
10
64.1779008610655
20
1.80049561299731
30
0
41
1
10
64.1271509650478
20
1.84075463805073
30
0
41
1
10
64.0253256189705
20
1.91665887623574
30
0
41
1
10
63.9742347899924
20
1.95231746203038
30
0
41
1
10
63.8717098349614
20
2.01893549978072
30
0
41
1
10
63.8202955332348
20
2.04988270693431
30
0
41
1
10
63.7686909456425
20
2.07843621849426
30
0
0
SPLINE
5
193
100
AcDbEntity
8
1
62
256
6
ByLayer
370
18
48
1
60
0
100
AcDbSpline
70
4
71
3
72
32
73
28
40
0
40
0
40
0
40
0
40
0.124999999999991
40
0.124999999999991
40
0.187499999999987
40
0.187499999999987
40
0.249999999999984
40
0.249999999999984
40
0.37499999999998
40
0.37499999999998
40
0.4375
40
0.4375
40
0.50000000000002
40
0.50000000000002
40
0.625000000000015
40
0.625000000000015
40
0.687500000000013
40
0.687500000000013
40
0.75000000000001
40
0.75000000000001
40
0.812500000000008
40
0.812500000000008
40
0.875000000000005
40
0.875000000000005
40
0.937500000000003
40
0.937500000000003
40
1
40
1
40
1
40
1
41
1
10
63.7686909456425
20
2.07843621849423
30
0
41
1
10
63.756160658154
20
2.08536939489088
30
0
41
1
10
63.7416279623675
20
2.09424656804472
30
0
41
1
10
63.7175405203026
20
2.1097301387403
30
0
41
1
10
63.7091182695461
20
2.11526428780138
30
0
41
1
10
63.6915473397256
20
2.12702729464408
30
0
41
1
10
63.682517794318
20
2.13317634194186
30
0
41
1
10
63.6547652637526
20
2.15236102478326
30
0
41
1
10
63.6353857657628
20
2.16612393372011
30
0
41
1
10
63.6050958326438
20
2.18820145792202
30
0
41
1
10
63.5947937529143
20
2.19580224300424
30
0
41
1
10
63.5737706890828
20
2.21151608366731
30
0
41
1
10
63.5631469052134
20
2.21955702082954
30
0
41
1
10
63.5311707205314
20
2.24408491715982
30
0
41
1
10
63.5096236725297
20
2.26103664728257
30
0
41
1
10
63.4769801353359
20
2.28756067776541
30
0
41
1
10
63.4660446692714
20
2.29658659815829
30
0
41
1
10
63.4440611509309
20
2.31507568140253
30
0
41
1
10
63.4330589762992
20
2.32450278611967
30
0
41
1
10
63.4114991775823
20
2.34338715402234
30
0
41
1
10
63.4008804249317
20
2.35289496645873
30
0
41
1
10
63.3800266125165
20
2.37207431482457
30
0
41
1
10
63.369716049291
20
2.38182125750899
30
0
41
1
10
63.35013815541
20
2.40097292134951
30
0
41
1
10
63.3408307237865
20
2.4104094613889
30
0
41
1
10
63.3233511472766
20
2.42895610771052
30
0
41
1
10
63.3151616240955
20
2.43809476454115
30
0
41
1
10
63.3079265079381
20
2.44673051786435
30
0
0
SPLINE
5
194
100
AcDbEntity
8
1
62
256
6
ByLayer
370
18
48
1
60
0
100
AcDbSpline
70
4
71
3
72
8
73
4
40
0
40
0
40
0
40
0
40
1
40
1
40
1
40
1
41
1
10
63.307926507934
20
2.44673051786128
30
0
41
1
10
63.2493297942555
20
2.51667089668669
30
0
41
1
10
63.190975348065
20
2.58885986653641
30
0
41
1
10
63.1328175651493
20
2.66321192178504
30
0
0
SPLINE
5
195
100
AcDbEntity
8
1
62
256
6
ByLayer
370
18
48
1
60
0
100
AcDbSpline
70
4
71
3
72
8
73
4
40
0
40
0
40
0
40
0
40
1
40
1
40
1
40
1
41
1
10
63.1328175651493
20
2.66321192178504
30
0
41
1
10
63.0991769689768
20
2.67484284527845
30
0
41
1
10
63.0654535442004
20
2.68529327097343
30
0
41
1
10
63.0316291951143
20
2.69452614917773
30
0
0
SPLINE
5
196
100
AcDbEntity
8
1
62
256
6
ByLayer
370
18
48
1
60
0
100
AcDbSpline
70
4
71
3
72
22
73
18
40
0
40
0
40
0
40
0
40
0.12500000000001
40
0.12500000000001
40
0.25000000000002
40
0.25000000000002
40
0.312500000000018
40
0.312500000000018
40
0.375000000000017
40
0.375000000000017
40
0.500000000000013
40
0.500000000000013
40
0.750000000000007
40
0.750000000000007
40
0.875000000000003
40
0.875000000000003
40
1
40
1
40
1
40
1
41
1
10
63.0316291951144
20
2.69452614917768
30
0
41
1
10
62.9991250708789
20
2.70339865162967
30
0
41
1
10
62.9636130429841
20
2.71455854744562
30
0
41
1
10
62.8873290889339
20
2.74046557797922
30
0
41
1
10
62.8465513709103
20
2.75522113701817
30
0
41
1
10
62.7817540410256
20
2.77969655185262
30
0
41
1
10
62.7595632011083
20
2.78827337237701
30
0
41
1
10
62.7138358306194
20
2.80589902119601
30
0
41
1
10
62.6902397949473
20
2.81492156254271
30
0
41
1
10
62.617603835418
20
2.84260201678671
30
0
41
1
10
62.5670819559975
20
2.86179015559836
30
0
41
1
10
62.4101619538704
20
2.92275510830686
30
0
41
1
10
62.2984158371494
20
2.96790952039353
30
0
41
1
10
62.1232084572347
20
3.0466393208838
30
0
41
1
10
62.063487909685
20
3.07473134177778
30
0
41
1
10
61.9420805219467
20
3.13515711022609
30
0
41
1
10
61.8808224085312
20
3.16727587191403
30
0
41
1
10
61.8191936298161
20
3.20155124166226
30
0
0
SPLINE
5
197
100
AcDbEntity
8
1
62
256
6
ByLayer
370
18
48
1
60
0
100
AcDbSpline
70
4
71
3
72
64
73
60
40
0
40
0
40
0
40
0
40
0.0379953659576954
40
0.0379953659576954
40
0.0759907319153909
40
0.0759907319153909
40
0.113986097873086
40
0.113986097873086
40
0.132983780851934
40
0.132983780851934
40
0.151981463830782
40
0.151981463830782
40
0.227972195746182
40
0.227972195746182
40
0.303962927661582
40
0.303962927661582
40
0.322960610640431
40
0.322960610640431
40
0.341958293619281
40
0.341958293619281
40
0.360955976598131
40
0.360955976598131
40
0.379953659576981
40
0.379953659576981
40
0.417949025534681
40
0.417949025534681
40
0.455944391492381
40
0.455944391492381
40
0.531935123407778
40
0.531935123407778
40
0.569930489365478
40
0.569930489365478
40
0.588928172344328
40
0.588928172344328
40
0.607925855323178
40
0.607925855323178
40
0.645921221280878
40
0.645921221280878
40
0.683916587238578
40
0.683916587238578
40
0.721911953196278
40
0.721911953196278
40
0.74090963617513
40
0.74090963617513
40
0.759907319153981
40
0.759907319153981
40
0.797902685111681
40
0.797902685111681
40
0.835898051069381
40
0.835898051069381
40
0.854895734048231
40
0.854895734048231
40
0.873893417027081
40
0.873893417027081
40
0.911888782984784
40
0.911888782984784
40
0.987879514900187
40
0.987879514900187
40
1
40
1
40
1
40
1
41
1
10
61.8191936298161
20
3.20155124166223
30
0
41
1
10
61.7110617666173
20
3.26168969759095
30
0
41
1
10
61.6032432149513
20
3.31992592541385
30
0
41
1
10
61.3881420839636
20
3.4325781127113
30
0
41
1
10
61.2808791764549
20
3.48700931919211
30
0
41
1
10
61.0666707694699
20
3.59191451495488
30
0
41
1
10
60.9597303969256
20
3.6423907059575
30
0
41
1
10
60.7992349747177
20
3.71493870716759
30
0
41
1
10
60.7457064313828
20
3.73858344944853
30
0
41
1
10
60.6387359662237
20
3.78491025842939
30
0
41
1
10
60.5852811978024
20
3.80758230583365
30
0
41
1
10
60.3181069667858
20
3.91845052888837
30
0
41
1
10
60.1047156763707
20
3.99920127510509
30
0
41
1
10
59.6779068755813
20
4.14419974687971
30
0
41
1
10
59.464428590409
20
4.20840050849512
30
0
41
1
10
59.1966150588339
20
4.27762845274196
30
0
41
1
10
59.1430186578824
20
4.29092855076493
30
0
41
1
10
59.0356093722929
20
4.31637330179026
30
0
41
1
10
58.981764128978
20
4.32850632019654
30
0
41
1
10
58.8738428142952
20
4.35161800841729
30
0
41
1
10
58.8197436111523
20
4.36258827445647
30
0
41
1
10
58.7113041400827
20
4.38337327038306
30
0
41
1
10
58.6569723679405
20
4.39320271985471
30
0
41
1
10
58.4943791629856
20
4.42089023887743
30
0
41
1
10
58.3863090192477
20
4.43698339198349
30
0
41
1
10
58.1708655408285
20
4.46448945730666
30
0
41
1
10
58.0634920557286
20
4.47589962111087
30
0
41
1
10
57.742169411876
20
4.50306568351431
30
0
41
1
10
57.5290311524118
20
4.5117555694552
30
0
41
1
10
57.2098931970023
20
4.51054502533597
30
0
41
1
10
57.1035862412687
20
4.50776493835033
30
0
41
1
10
56.943902526336
20
4.50005962327614
30
0
41
1
10
56.8906464113582
20
4.49690121809127
30
0
41
1
10
56.7839041848479
20
4.48943303881757
30
0
41
1
10
56.7304334710793
20
4.48512343197123
30
0
41
1
10
56.5699444555397
20
4.47044944014462
30
0
41
1
10
56.4627867305411
20
4.45834967533432
30
0
41
1
10
56.2483506139453
20
4.42944149903278
30
0
41
1
10
56.1410391007633
20
4.41263718830592
30
0
41
1
10
55.9261586705858
20
4.37426359229482
30
0
41
1
10
55.8185825599369
20
4.35269398643081
30
0
41
1
10
55.656810674864
20
4.31676500540013
30
0
41
1
10
55.6028047751907
20
4.30419080833579
30
0
41
1
10
55.494679951176
20
4.27786427485361
30
0
41
1
10
55.4406974538591
20
4.26414453335008
30
0
41
1
10
55.2789728297933
20
4.22133576876487
30
0
41
1
10
55.1714614220516
20
4.19059385043906
30
0
41
1
10
54.9569160488039
20
4.12481695117086
30
0
41
1
10
54.8498682107969
20
4.08978757155884
30
0
41
1
10
54.6894314127502
20
4.03417951726283
30
0
41
1
10
54.6359649430291
20
4.01513825533405
30
0
41
1
10
54.5289246500423
20
3.97613618617609
30
0
41
1
10
54.4753931620028
20
3.95615108821804
30
0
41
1
10
54.3148940018708
20
3.8946724796005
30
0
41
1
10
54.2080147582875
20
3.8516591544001
30
0
41
1
10
53.8877036774723
20
3.71654463431085
30
0
41
1
10
53.6745504805091
20
3.61839358172844
30
0
41
1
10
53.4270387607624
20
3.49570787638427
30
0
41
1
10
53.3929827128465
20
3.4786372075273
30
0
41
1
10
53.3589160462043
20
3.46137346183843
30
0
0
SPLINE
5
198
100
AcDbEntity
8
1
62
256
6
ByLayer
370
18
48
1
60
0
100
AcDbSpline
70
4
71
3
72
86
73
82
40
0
40
0
40
0
40
0
40
0.009276794809702
40
0.009276794809702
40
0.0392987101184988
40
0.0392987101184988
40
0.0693206254272956
40
0.0693206254272956
40
0.084331583081695
40
0.084331583081695
40
0.0993425407360944
40
0.0993425407360944
40
0.129364456044893
40
0.129364456044893
40
0.159386371353692
40
0.159386371353692
40
0.174397329008091
40
0.174397329008091
40
0.189408286662491
40
0.189408286662491
40
0.219430201971292
40
0.219430201971292
40
0.249452117280093
40
0.249452117280093
40
0.264463074934493
40
0.264463074934493
40
0.279474032588894
40
0.279474032588894
40
0.294484990243294
40
0.294484990243294
40
0.309495947897695
40
0.309495947897695
40
0.339517863206494
40
0.339517863206494
40
0.39956169382409
40
0.39956169382409
40
0.414572651478488
40
0.414572651478488
40
0.429583609132887
40
0.429583609132887
40
0.459605524441686
40
0.459605524441686
40
0.519649355059286
40
0.519649355059286
40
0.534660312713686
40
0.534660312713686
40
0.549671270368086
40
0.549671270368086
40
0.579693185676884
40
0.579693185676884
40
0.594704143331282
40
0.594704143331282
40
0.60971510098568
40
0.60971510098568
40
0.639737016294474
40
0.639737016294474
40
0.699780846912063
40
0.699780846912063
40
0.729802762220857
40
0.729802762220857
40
0.759824677529651
40
0.759824677529651
40
0.774835635184049
40
0.774835635184049
40
0.789846592838447
40
0.789846592838447
40
0.804857550492845
40
0.804857550492845
40
0.819868508147243
40
0.819868508147243
40
0.87991233876483
40
0.87991233876483
40
0.909934254073624
40
0.909934254073624
40
0.92494521172802
40
0.92494521172802
40
0.939956169382416
40
0.939956169382416
40
0.969978084691208
40
0.969978084691208
40
1
40
1
40
1
40
1
41
1
10
49.3658462405578
20
4.51100032368387
30
0
41
1
10
49.4043963441162
20
4.51099924663936
30
0
41
1
10
49.4429787835074
20
4.51069583955402
30
0
41
1
10
49.6065648169882
20
4.50812641493931
30
0
41
1
10
49.7319217008595
20
4.50298814988653
30
0
41
1
10
49.9831757538917
20
4.48624225221599
30
0
41
1
10
50.1084894683283
20
4.47467064583259
30
0
41
1
10
50.2960600565347
20
4.45251255142023
30
0
41
1
10
50.3585196031399
20
4.44432665794739
30
0
41
1
10
50.4833039095789
20
4.42634562804338
30
0
41
1
10
50.5455768278024
20
4.41653584776782
30
0
41
1
10
50.7325946118252
20
4.38478445639925
30
0
41
1
10
50.8575490310598
20
4.36053811621088
30
0
41
1
10
51.1078767794141
20
4.30592789447098
30
0
41
1
10
51.2332730457894
20
4.27557024558649
30
0
41
1
10
51.4217221831417
20
4.2254555635482
30
0
41
1
10
51.4845742047492
20
4.20799343367401
30
0
41
1
10
51.6101322099352
20
4.17162502999383
30
0
41
1
10
51.6728700109953
20
4.15271044229573
30
0
41
1
10
51.8609643955367
20
4.09378378582815
30
0
41
1
10
51.9862036589304
20
4.05159226155016
30
0
41
1
10
52.236347558484
20
3.96136123575846
30
0
41
1
10
52.3612545030944
20
3.91332068343024
30
0
41
1
10
52.5485025948066
20
3.83689927013984
30
0
41
1
10
52.6108560216973
20
3.81066818769341
30
0
41
1
10
52.7356830352337
20
3.7568478435382
30
0
41
1
10
52.7982301036307
20
3.72931221239111
30
0
41
1
10
52.9234526579361
20
3.67289824997098
30
0
41
1
10
52.986178046123
20
3.64401217146593
30
0
41
1
10
53.1114143909973
20
3.58513978969967
30
0
41
1
10
53.1739682646687
20
3.5551334009312
30
0
41
1
10
53.3614487574897
20
3.46343448703405
30
0
41
1
10
53.4861927004703
20
3.40006244778522
30
0
41
1
10
53.859749848018
20
3.20338753764148
30
0
41
1
10
54.1079201999137
20
3.06357766004243
30
0
41
1
10
54.4171099212166
20
2.87803271197416
30
0
41
1
10
54.4788952283373
20
2.84038132422214
30
0
41
1
10
54.6023600380506
20
2.76398619781236
30
0
41
1
10
54.664024756053
20
2.72522655839188
30
0
41
1
10
54.8491414405476
20
2.60758902559243
30
0
41
1
10
54.9727544066082
20
2.5273960502463
30
0
41
1
10
55.3444920918279
20
2.28186485126795
30
0
41
1
10
55.593453252095
20
2.11152910349725
30
0
41
1
10
55.9064255449399
20
1.89056385445628
30
0
41
1
10
55.9691062067301
20
1.84596433555859
30
0
41
1
10
56.0946364898872
20
1.7559371878051
30
0
41
1
10
56.157476137006
20
1.71051272545196
30
0
41
1
10
56.345397536154
20
1.57360365700239
30
0
41
1
10
56.4701736187462
20
1.48129266463454
30
0
41
1
10
56.656629909715
20
1.34133284179066
30
0
41
1
10
56.7186224263412
20
1.29437854248889
30
0
41
1
10
56.8424770362373
20
1.20010366263392
30
0
41
1
10
56.9043803851172
20
1.15283488759917
30
0
41
1
10
57.0901224710485
20
1.0107688249131
30
0
41
1
10
57.2139644793415
20
0.915676122725415
30
0
41
1
10
57.5855697937774
20
0.629322027334069
30
0
41
1
10
57.8333710151916
20
0.436936126379692
30
0
41
1
10
58.2053826412167
20
0.146411665380754
30
0
41
1
10
58.3294266649106
20
0.049230160494119
30
0
41
1
10
58.5775873596006
20
-0.145836359137093
30
0
41
1
10
58.7017003009249
20
-0.243726545459253
30
0
41
1
10
58.8880630789833
20
-0.390924882203933
30
0
41
1
10
58.950263234778
20
-0.439990037237863
30
0
41
1
10
59.0749856129842
20
-0.537903979449311
30
0
41
1
10
59.1374884540998
20
-0.586778122475437
30
0
41
1
10
59.2627668887597
20
-0.684375221458964
30
0
41
1
10
59.3255148032482
20
-0.733058482413071
30
0
41
1
10
59.4507976833445
20
-0.829850492693055
30
0
41
1
10
59.5133932412298
20
-0.878007035447865
30
0
41
1
10
59.8261443684209
20
-1.11760495709603
30
0
41
1
10
60.0756278375507
20
-1.30549776287873
30
0
41
1
10
60.4489923407611
20
-1.5814892425806
30
0
41
1
10
60.5732443246334
20
-1.67257984634426
30
0
41
1
10
60.7594710362501
20
-1.80765326631587
30
0
41
1
10
60.8215703949591
20
-1.85235988551855
30
0
41
1
10
60.9456226806159
20
-1.94136064989556
30
0
41
1
10
61.0075808081712
20
-1.9856471651448
30
0
41
1
10
61.1938727675346
20
-2.11714231473863
30
0
41
1
10
61.3184445431149
20
-2.20319907476502
30
0
41
1
10
61.5682739290897
20
-2.37218589227055
30
0
41
1
10
61.6935308686119
20
-2.4551157342402
30
0
41
1
10
61.8191936298161
20
-2.53640224114508
30
0
0
SPLINE
5
199
100
AcDbEntity
8
1
62
256
6
ByLayer
370
18
48
1
60
0
100
AcDbSpline
70
4
71
3
72
28
73
24
40
0
40
0
40
0
40
0
40
0.125000000000004
40
0.125000000000004
40
0.250000000000008
40
0.250000000000008
40
0.375000000000012
40
0.375000000000012
40
0.500000000000016
40
0.500000000000016
40
0.562500000000018
40
0.562500000000018
40
0.62500000000002
40
0.62500000000002
40
0.750000000000023
40
0.750000000000023
40
0.812500000000017
40
0.812500000000017
40
0.875000000000012
40
0.875000000000012
40
0.937500000000006
40
0.937500000000006
40
1
40
1
40
1
40
1
41
1
10
61.8191936298161
20
-2.53640224114505
30
0
41
1
10
61.8779845850139
20
-2.57443189559356
30
0
41
1
10
61.9362143432449
20
-2.61405343457537
30
0
41
1
10
62.0513141654763
20
-2.6966144555274
30
0
41
1
10
62.1081847455913
20
-2.73955298155346
30
0
41
1
10
62.2203786576158
20
-2.82891171385589
30
0
41
1
10
62.2757028731225
20
-2.87533007998735
30
0
41
1
10
62.3846432927153
20
-2.97188513239581
30
0
41
1
10
62.4382604426848
20
-3.02201878570415
30
0
41
1
10
62.5172907002932
20
-3.10028726466786
30
0
41
1
10
62.5434283268338
20
-3.12692188858364
30
0
41
1
10
62.5946977988454
20
-3.18072543467051
30
0
41
1
10
62.6198927655174
20
-3.20795487513675
30
0
41
1
10
62.6941267762596
20
-3.29064507767546
30
0
41
1
10
62.7418290441313
20
-3.34709670515457
30
0
41
1
10
62.8104540687113
20
-3.43391898400688
30
0
41
1
10
62.8328289969035
20
-3.46322768166334
30
0
41
1
10
62.876387705355
20
-3.52274331009738
30
0
41
1
10
62.8975647538719
20
-3.55295687041809
30
0
41
1
10
62.9386294816048
20
-3.61435575434422
30
0
41
1
10
62.9584499556104
20
-3.64544809833902
30
0
41
1
10
62.9963286890886
20
-3.70804584914697
30
0
41
1
10
63.0144258561462
20
-3.73960950433556
30
0
41
1
10
63.0316291951144
20
-3.77144077634784
30
0
0
SPLINE
5
19A
100
AcDbEntity
8
1
62
256
6
ByLayer
370
18
48
1
60
0
100
AcDbSpline
70
4
71
3
72
10
73
6
40
0
40
0
40
0
40
0
40
0.5
40
0.5
40
1
40
1
40
1
40
1
41
1
10
63.0316291951143
20
-3.77144077634767
30
0
41
1
10
63.0808390050604
20
-3.86249349866856
30
0
41
1
10
63.1297939860018
20
-3.95417745668593
30
0
41
1
10
63.2272996463946
20
-4.1387052747817
30
0
41
1
10
63.2758353761489
20
-4.23157220168713
30
0
41
1
10
63.324187928274
20
-4.3250203785249
30
0
0
SPLINE
5
19B
100
AcDbEntity
8
1
62
256
6
ByLayer
370
18
48
1
60
0
100
AcDbSpline
70
4
71
3
72
10
73
6
40
0
40
0
40
0
40
0
40
0.5
40
0.5
40
1
40
1
40
1
40
1
41
1
10
63.3241879282736
20
-4.32502037852495
30
0
41
1
10
63.3870142611401
20
-4.28992606715366
30
0
41
1
10
63.4502809113369
20
-4.25140451683529
30
0
41
1
10
63.5775217200568
20
-4.16767225495488
30
0
41
1
10
63.6415018813894
20
-4.12246270570407
30
0
41
1
10
63.7059270607703
20
-4.07388885492506
30
0
0
SPLINE
5
19C
100
AcDbEntity
8
1
62
256
6
ByLayer
370
18
48
1
60
0
100
AcDbSpline
70
4
71
3
72
34
73
30
40
0
40
0
40
0
40
0
40
0.0625000000000261
40
0.0625000000000261
40
0.125000000000052
40
0.125000000000052
40
0.187500000000078
40
0.187500000000078
40
0.250000000000104
40
0.250000000000104
40
0.375000000000156
40
0.375000000000156
40
0.437500000000159
40
0.437500000000159
40
0.500000000000163
40
0.500000000000163
40
0.62500000000012
40
0.62500000000012
40
0.6875000000001
40
0.6875000000001
40
0.75000000000008
40
0.75000000000008
40
0.81250000000006
40
0.81250000000006
40
0.87500000000004
40
0.87500000000004
40
0.93750000000002
40
0.93750000000002
40
1
40
1
40
1
40
1
41
1
10
63.7059270607703
20
-4.07388885492506
30
0
41
1
10
63.7126771859234
20
-4.06879954706318
30
0
41
1
10
63.7200130085597
20
-4.06473520353376
30
0
41
1
10
63.7356324337442
20
-4.05824854748803
30
0
41
1
10
63.7439183128583
20
-4.05583049373229
30
0
41
1
10
63.7613217245697
20
-4.05243103180135
30
0
41
1
10
63.7704401886981
20
-4.05145123148824
30
0
41
1
10
63.7894476775142
20
-4.05082815602
30
0
41
1
10
63.7991938709449
20
-4.0511916927739
30
0
41
1
10
63.8288972027304
20
-4.05406536679087
30
0
41
1
10
63.8493904391591
20
-4.0583312841319
30
0
41
1
10
63.8810149330092
20
-4.06791519459506
30
0
41
1
10
63.8917504944483
20
-4.07166767019609
30
0
41
1
10
63.9131827273996
20
-4.08012801492237
30
0
41
1
10
63.9239009255967
20
-4.08483821024825
30
0
41
1
10
63.9560464562057
20
-4.10038459546874
30
0
41
1
10
63.9774653070969
20
-4.11261473977336
30
0
41
1
10
64.009511078318
20
-4.13403258503189
30
0
41
1
10
64.0201253039889
20
-4.14165827551361
30
0
41
1
10
64.0409326321542
20
-4.15773385953884
30
0
41
1
10
64.0511655008904
20
-4.1662093820776
30
0
41
1
10
64.0712558500159
20
-4.18410631790096
30
0
41
1
10
64.0811136232118
20
-4.19352686795557
30
0
41
1
10
64.1003979503812
20
-4.2134430042457
30
0
41
1
10
64.1098413340173
20
-4.22397116709894
30
0
41
1
10
64.1277038612643
20
-4.24566450124007
30
0
41
1
10
64.1361888835728
20
-4.25689133141327
30
0
41
1
10
64.1521418734272
20
-4.28021180205053
30
0
41
1
10
64.1596122502694
20
-4.2923033614471
30
0
41
1
10
64.1664593421866
20
-4.30492696865417
30
0
0
SPLINE
5
19D
100
AcDbEntity
8
1
62
256
6
ByLayer
370
18
48
1
60
0
100
AcDbSpline
70
4
71
3
72
10
73
6
40
0
40
0
40
0
40
0
40
0.5
40
0.5
40
1
40
1
40
1
40
1
41
1
10
64.1664593421866
20
-4.30492696865406
30
0
41
1
10
64.2677317995431
20
-4.4916374346447
30
0
41
1
10
64.3679654535303
20
-4.67930444088884
30
0
41
1
10
64.5669594820204
20
-5.05621790416643
30
0
41
1
10
64.6654220502861
20
-5.24490674345716
30
0
41
1
10
64.7630659801862
20
-5.43356297425169
30
0
0
SPLINE
5
19E
100
AcDbEntity
8
1
62
256
6
ByLayer
370
18
48
1
60
0
100
AcDbSpline
70
4
71
3
72
8
73
4
40
0
40
0
40
0
40
0
40
1
40
1
40
1
40
1
41
1
10
64.945041755042
20
-5.51733651304249
30
0
41
1
10
64.8843989571139
20
-5.49029204324268
30
0
41
1
10
64.8237356033427
20
-5.46236670101672
30
0
41
1
10
64.7630659801861
20
-5.43356297425177
30
0
0
SPLINE
5
19F
100
AcDbEntity
8
1
62
256
6
ByLayer
370
18
48
1
60
0
100
AcDbSpline
70
4
71
3
72
12
73
8
40
0
40
0
40
0
40
0
40
0.249999999999997
40
0.249999999999997
40
0.499999999999993
40
0.499999999999993
40
1
40
1
40
1
40
1
41
1
10
64.945041755042
20
-5.51733651304252
30
0
41
1
10
64.994132196205
20
-5.46685899489719
30
0
41
1
10
65.043404322892
20
-5.41470589663678
30
0
41
1
10
65.1424125252752
20
-5.3069387881331
30
0
41
1
10
65.192163556796
20
-5.25130265281803
30
0
41
1
10
65.3422525231948
20
-5.078925517974
30
0
41
1
10
65.44314653948
20
-4.95709684492152
30
0
41
1
10
65.5452037445125
20
-4.82840469737809
30
0
0
SPLINE
5
1A0
100
AcDbEntity
8
1
62
256
6
ByLayer
370
18
48
1
60
0
100
AcDbSpline
70
4
71
3
72
34
73
30
40
0
40
0
40
0
40
0
40
0.0625000000000059
40
0.0625000000000059
40
0.125000000000012
40
0.125000000000012
40
0.187500000000018
40
0.187500000000018
40
0.250000000000024
40
0.250000000000024
40
0.375000000000078
40
0.375000000000078
40
0.437500000000083
40
0.437500000000083
40
0.500000000000088
40
0.500000000000088
40
0.625000000000099
40
0.625000000000099
40
0.687500000000083
40
0.687500000000083
40
0.750000000000066
40
0.750000000000066
40
0.81250000000005
40
0.81250000000005
40
0.875000000000033
40
0.875000000000033
40
0.937500000000017
40
0.937500000000017
40
1
40
1
40
1
40
1
41
1
10
65.5452037445125
20
-4.82840469737809
30
0
41
1
10
65.5519595032593
20
-4.81988581719588
30
0
41
1
10
65.5593012887328
20
-4.81240807968405
30
0
41
1
10
65.5749325076845
20
-4.7991211619904
30
0
41
1
10
65.5832242337954
20
-4.79331630119989
30
0
41
1
10
65.6006388955448
20
-4.78316607031337
30
0
41
1
10
65.6097627696206
20
-4.77882234517912
30
0
41
1
10
65.6287804396694
20
-4.77149128506625
30
0
41
1
10
65.6385299612138
20
-4.76856192057519
30
0
41
1
10
65.6682434191222
20
-4.76177008038519
30
0
41
1
10
65.6887414407608
20
-4.75984784482822
30
0
41
1
10
65.7203702687086
20
-4.76047651979212
30
0
41
1
10
65.7311065661108
20
-4.76128767300054
30
0
41
1
10
65.7525388857909
20
-4.76405967581209
30
0
41
1
10
65.7632568485232
20
-4.76601598282937
30
0
41
1
10
65.7954008407023
20
-4.7735598709306
30
0
41
1
10
65.816817586573
20
-4.78079680903093
30
0
41
1
10
65.848858136061
20
-4.79525774191848
30
0
41
1
10
65.8594697730885
20
-4.80066637015668
30
0
41
1
10
65.8802723572075
20
-4.81257401542768
30
0
41
1
10
65.8905027942266
20
-4.81908977947262
30
0
41
1
10
65.9105881064612
20
-4.83333107380008
30
0
41
1
10
65.9204432744629
20
-4.84105546860826
30
0
41
1
10
65.9397221605041
20
-4.85787576915962
30
0
41
1
10
65.9491637391946
20
-4.86700473129127
30
0
41
1
10
65.9670241557423
20
-4.88631796713423
30
0
41
1
10
65.9755084854166
20
-4.89655189046445
30
0
41
1
10
65.9914607175403
20
-4.91833721852546
30
0
41
1
10
65.9989310263411
20
-4.92988537646988
30
0
41
1
10
66.0057783725561
20
-4.9422447908502
30
0
0
SPLINE
5
1A1
100
AcDbEntity
8
1
62
256
6
ByLayer
370
18
48
1
60
0
100
AcDbSpline
70
4
71
3
72
8
73
4
40
0
40
0
40
0
40
0
40
1
40
1
40
1
40
1
41
1
10
66.7844148775375
20
-6.03873563074137
30
0
41
1
10
66.7237582025125
20
-6.03158332809866
30
0
41
1
10
66.66311174505
20
-6.02342904335748
30
0
41
1
10
66.6024754066408
20
-6.01428011994415
30
0
0
SPLINE
5
1A2
100
AcDbEntity
8
1
62
256
6
ByLayer
370
18
48
1
60
0
100
AcDbSpline
70
4
71
3
72
8
73
4
40
0
40
0
40
0
40
0
40
1
40
1
40
1
40
1
41
1
10
76.6425748161028
20
1.34771112561379
30
0
41
1
10
76.7032167675582
20
1.28504995474998
30
0
41
1
10
76.763851370956
20
1.22220481976837
30
0
41
1
10
76.8244944692164
20
1.15919096051641
30
0
0
SPLINE
5
1A3
100
AcDbEntity
8
1
62
256
6
ByLayer
370
18
48
1
60
0
100
AcDbSpline
70
4
71
3
72
8
73
4
40
0
40
0
40
0
40
0
40
1
40
1
40
1
40
1
41
1
10
74.8030135796382
20
3.15058301114556
30
0
41
1
10
74.8636848439628
20
3.09559752835105
30
0
41
1
10
74.9243380220815
20
3.04011134472884
30
0
41
1
10
74.9849849575117
20
2.98413514557683
30
0
0
SPLINE
5
1A4
100
AcDbEntity
8
1
62
256
6
ByLayer
370
18
48
1
60
0
100
AcDbSpline
70
4
71
3
72
32
73
28
40
0
40
0
40
0
40
0
40
0.125000000000006
40
0.125000000000006
40
0.187499999999991
40
0.187499999999991
40
0.249999999999975
40
0.249999999999975
40
0.374999999999945
40
0.374999999999945
40
0.43749999999995
40
0.43749999999995
40
0.499999999999956
40
0.499999999999956
40
0.624999999999967
40
0.624999999999967
40
0.687499999999972
40
0.687499999999972
40
0.749999999999978
40
0.749999999999978
40
0.812499999999983
40
0.812499999999983
40
0.874999999999989
40
0.874999999999989
40
0.937499999999994
40
0.937499999999994
40
1
40
1
40
1
40
1
41
1
10
74.1920140012012
20
3.26354039085723
30
0
41
1
10
74.1795060903334
20
3.26343554101976
30
0
41
1
10
74.1650010817435
20
3.2657766134862
30
0
41
1
10
74.1409565958692
20
3.27203019888068
30
0
41
1
10
74.1325493621377
20
3.27458458230703
30
0
41
1
10
74.1150067709492
20
3.2805775386974
30
0
41
1
10
74.1059905573391
20
3.28397511009871
30
0
41
1
10
74.0782745949556
20
3.29527093281766
30
0
41
1
10
74.0589149614358
20
3.3042575020653
30
0
41
1
10
74.0286443208394
20
3.31985996566115
30
0
41
1
10
74.0183468618872
20
3.32541846994584
30
0
41
1
10
73.9973290310635
20
3.33728931137927
30
0
41
1
10
73.9867024949185
20
3.34355005672756
30
0
41
1
10
73.9547190917478
20
3.36319068299997
30
0
41
1
10
73.9331621518985
20
3.37746792503651
30
0
41
1
10
73.9004974796192
20
3.40096854913546
30
0
41
1
10
73.8895538928146
20
3.40915295572989
30
0
41
1
10
73.8675521836515
20
3.42633990433779
30
0
41
1
10
73.8565340798562
20
3.43531666618301
30
0
41
1
10
73.8349481665568
20
3.45375151659132
30
0
41
1
10
73.8243172931747
20
3.46325701018989
30
0
41
1
10
73.8034415785861
20
3.48294649140357
30
0
41
1
10
73.7931205686818
20
3.49321425477766
30
0
41
1
10
73.7735247378318
20
3.51399297783962
30
0
41
1
10
73.7642106222695
20
3.5245305832116
30
0
41
1
10
73.7467217550001
20
3.54595527226928
30
0
41
1
10
73.7385303181141
20
3.55688261608773
30
0
41
1
10
73.7312958994384
20
3.56765577689251
30
0
0
SPLINE
5
1A5
100
AcDbEntity
8
1
62
256
6
ByLayer
370
18
48
1
60
0
100
AcDbSpline
70
4
71
3
72
14
73
10
40
0
40
0
40
0
40
0
40
0.25
40
0.25
40
0.5
40
0.5
40
0.75
40
0.75
40
1
40
1
40
1
40
1
41
1
10
73.7312958994342
20
3.56765577689242
30
0
41
1
10
73.6818152085411
20
3.64134012716784
30
0
41
1
10
73.6325073253646
20
3.71617991460204
30
0
41
1
10
73.5341775293859
20
3.8680519352651
30
0
41
1
10
73.4851455922177
20
3.94509700850841
30
0
41
1
10
73.387472791968
20
4.10107057430457
30
0
41
1
10
73.3388011707287
20
4.18008421187713
30
0
41
1
10
73.2418659696012
20
4.33997179378409
30
0
41
1
10
73.1936163660182
20
4.42080571184894
30
0
41
1
10
73.1455510992844
20
4.50249098219425
30
0
0
SPLINE
5
1A6
100
AcDbEntity
8
1
62
256
6
ByLayer
370
18
48
1
60
0
100
AcDbSpline
70
4
71
3
72
8
73
4
40
0
40
0
40
0
40
0
40
1
40
1
40
1
40
1
41
1
10
72.9635723186114
20
4.6296026361947
30
0
41
1
10
73.0242523590411
20
4.58798786049536
30
0
41
1
10
73.0849048185177
20
4.5456124399573
30
0
41
1
10
73.1455510992843
20
4.50249098219425
30
0
0
SPLINE
5
1A7
100
AcDbEntity
8
1
62
256
6
ByLayer
370
18
48
1
60
0
100
AcDbSpline
70
4
71
3
72
14
73
10
40
0
40
0
40
0
40
0
40
0.25
40
0.25
40
0.5
40
0.5
40
0.75
40
0.75
40
1
40
1
40
1
40
1
41
1
10
72.9635723186114
20
4.62960263619473
30
0
41
1
10
72.9134061794865
20
4.61397834183146
30
0
41
1
10
72.8630769953111
20
4.59600037899256
30
0
41
1
10
72.762020934678
20
4.55531113134521
30
0
41
1
10
72.7112726534216
20
4.53258983117968
30
0
41
1
10
72.6094350365386
20
4.48244267193579
30
0
41
1
10
72.5583306633962
20
4.45501110005048
30
0
41
1
10
72.4557679217617
20
4.39545339294534
30
0
41
1
10
72.4043299307747
20
4.36334078889854
30
0
41
1
10
72.3526970859404
20
4.32887231590021
30
0
0
SPLINE
5
1A8
100
AcDbEntity
8
1
62
256
6
ByLayer
370
18
48
1
60
0
100
AcDbSpline
70
4
71
3
72
32
73
28
40
0
40
0
40
0
40
0
40
0.125000000000068
40
0.125000000000068
40
0.187500000000086
40
0.187500000000086
40
0.250000000000105
40
0.250000000000105
40
0.375000000000141
40
0.375000000000141
40
0.437500000000159
40
0.437500000000159
40
0.500000000000177
40
0.500000000000177
40
0.625000000000167
40
0.625000000000167
40
0.687500000000139
40
0.687500000000139
40
0.750000000000111
40
0.750000000000111
40
0.812500000000083
40
0.812500000000083
40
0.875000000000056
40
0.875000000000056
40
0.937500000000028
40
0.937500000000028
40
1
40
1
40
1
40
1
41
1
10
72.3526970859404
20
4.32887231590018
30
0
41
1
10
72.3401833119437
20
4.32051851160185
30
0
41
1
10
72.3256692399307
20
4.31498921055606
30
0
41
1
10
72.3016081311038
20
4.30987231886613
30
0
41
1
10
72.2931952527402
20
4.30870976991784
30
0
41
1
10
72.2756389027533
20
4.3074134200956
30
0
41
1
10
72.2666159164621
20
4.30728801396009
30
0
41
1
10
72.2388803617511
20
4.30834735003379
30
0
41
1
10
72.2195086104447
20
4.31094890194046
30
0
41
1
10
72.1892227023345
20
4.31759546329113
30
0
41
1
10
72.1789206682049
20
4.32027336234222
30
0
41
1
10
72.1578948758782
20
4.32659878244593
30
0
41
1
10
72.1472681860654
20
4.33021920073611
30
0
41
1
10
72.1152822453303
20
4.34239748648571
30
0
41
1
10
72.0937261223848
20
4.35227643584579
30
0
41
1
10
72.0610669324083
20
4.37014194404745
30
0
41
1
10
72.0501259047755
20
4.37660990963326
30
0
41
1
10
72.0281309158889
20
4.39073223598277
30
0
41
1
10
72.0171243602607
20
4.39836403606219
30
0
41
1
10
71.99555765596
20
4.41459608155282
30
0
41
1
10
71.9849363912138
20
4.42323292250538
30
0
41
1
10
71.9640796141248
20
4.44172195328892
30
0
41
1
10
71.9537688298792
20
4.4516585607368
30
0
41
1
10
71.9341949371767
20
4.47243035603634
30
0
41
1
10
71.9248907983858
20
4.48328658386964
30
0
41
1
10
71.9074194305763
20
4.50610651489939
30
0
41
1
10
71.8992356564313
20
4.51812105100512
30
0
41
1
10
71.8920064425904
20
4.53040607208675
30
0
0
SPLINE
5
1A9
100
AcDbEntity
8
1
62
256
6
ByLayer
370
18
48
1
60
0
100
AcDbSpline
70
4
71
3
72
14
73
10
40
0
40
0
40
0
40
0
40
0.25
40
0.25
40
0.5
40
0.5
40
0.75
40
0.75
40
1
40
1
40
1
40
1
41
1
10
71.8920064425862
20
4.53040607209022
30
0
41
1
10
71.8424844314498
20
4.61456168904047
30
0
41
1
10
71.7931407418155
20
4.69923400250991
30
0
41
1
10
71.6947564297385
20
4.86956705277723
30
0
41
1
10
71.6457087688929
20
4.95524114168074
30
0
41
1
10
71.5480326810473
20
5.12723181382032
30
0
41
1
10
71.4993658663019
20
5.21361624926533
30
0
41
1
10
71.4024156395795
20
5.38687087564171
30
0
41
1
10
71.3541433259431
20
5.47371583801157
30
0
41
1
10
71.3060414852528
20
5.56075725705162
30
0
0
SPLINE
5
1AA
100
AcDbEntity
8
1
62
256
6
ByLayer
370
18
48
1
60
0
100
AcDbSpline
70
4
71
3
72
8
73
4
40
0
40
0
40
0
40
0
40
1
40
1
40
1
40
1
41
1
10
71.1241024326894
20
5.6356315990206
30
0
41
1
10
71.184806314604
20
5.61161922830269
30
0
41
1
10
71.2454752969357
20
5.58667029373169
30
0
41
1
10
71.3060414852528
20
5.56075725705134
30
0
0
SPLINE
5
1AB
100
AcDbEntity
8
1
62
256
6
ByLayer
370
18
48
1
60
0
100
AcDbSpline
70
4
71
3
72
14
73
10
40
0
40
0
40
0
40
0
40
0.25
40
0.25
40
0.5
40
0.5
40
0.75
40
0.75
40
1
40
1
40
1
40
1
41
1
10
71.1241024326894
20
5.6356315990206
30
0
41
1
10
71.0739516981937
20
5.5870073980914
30
0
41
1
10
71.0236306066248
20
5.536293021429
30
0
41
1
10
70.9225832684436
20
5.4306846424241
30
0
41
1
10
70.8718349774342
20
5.37576710517274
30
0
41
1
10
70.7699953909933
20
5.26190016646137
30
0
41
1
10
70.7188895085171
20
5.20293617517822
30
0
41
1
10
70.616330786651
20
5.081062344701
30
0
41
1
10
70.5648972606761
20
5.01817497772353
30
0
41
1
10
70.5132720587619
20
4.95332490560176
30
0
0
SPLINE
5
1AC
100
AcDbEntity
8
1
62
256
6
ByLayer
370
18
48
1
60
0
100
AcDbSpline
70
4
71
3
72
32
73
28
40
0
40
0
40
0
40
0
40
0.125000000000059
40
0.125000000000059
40
0.187500000000071
40
0.187500000000071
40
0.250000000000084
40
0.250000000000084
40
0.375000000000069
40
0.375000000000069
40
0.437500000000061
40
0.437500000000061
40
0.500000000000054
40
0.500000000000054
40
0.62500000000004
40
0.62500000000004
40
0.687500000000033
40
0.687500000000033
40
0.750000000000026
40
0.750000000000026
40
0.81250000000002
40
0.81250000000002
40
0.875000000000013
40
0.875000000000013
40
0.937500000000007
40
0.937500000000007
40
1
40
1
40
1
40
1
41
1
10
70.5132720587616
20
4.95332490560136
30
0
41
1
10
70.5007528592938
20
4.93759865256428
30
0
41
1
10
70.4862315881075
20
4.92478635408204
30
0
41
1
10
70.4621586483495
20
4.90885335587433
30
0
41
1
10
70.4537416669395
20
4.90410297746706
30
0
41
1
10
70.4361769148664
20
4.89566887794132
30
0
41
1
10
70.4271499123217
20
4.89204246509556
30
0
41
1
10
70.3994031451516
20
4.88278320827143
30
0
41
1
10
70.3800250385889
20
4.87874959846951
30
0
41
1
10
70.3497321858226
20
4.87578103885892
30
0
41
1
10
70.3394282635544
20
4.87531071542344
30
0
41
1
10
70.3183997263392
20
4.87545506758454
30
0
41
1
10
70.3077734425555
20
4.87607165350386
30
0
41
1
10
70.2757881838599
20
4.87955798213392
30
0
41
1
10
70.2542340545963
20
4.88403609351707
30
0
41
1
10
70.2215801219087
20
4.89444628303261
30
0
41
1
10
70.2106412281537
20
4.89853781718699
30
0
41
1
10
70.1886511929461
20
4.90815246493625
30
0
41
1
10
70.1776500534309
20
4.91366327772465
30
0
41
1
10
70.1560921839931
20
4.92603730176668
30
0
41
1
10
70.1454751451235
20
4.9329236804349
30
0
41
1
10
70.1246262506178
20
4.94832263606392
30
0
41
1
10
70.1143194730926
20
4.95691219026816
30
0
41
1
10
70.0947532135602
20
4.97555384271578
30
0
41
1
10
70.0854521448432
20
4.98561790295514
30
0
41
1
10
70.0679854010617
20
5.00749636483951
30
0
41
1
10
70.0598032966061
20
5.01936703050319
30
0
41
1
10
70.0525749145164
20
5.03190377565846
30
0
0
SPLINE
5
1AD
100
AcDbEntity
8
1
62
256
6
ByLayer
370
18
48
1
60
0
100
AcDbSpline
70
4
71
3
72
8
73
4
40
0
40
0
40
0
40
0
40
1
40
1
40
1
40
1
41
1
10
69.2846141415836
20
6.06480064113291
30
0
41
1
10
69.3453220143225
20
6.060804269084
30
0
41
1
10
69.4059841654855
20
6.0557853067221
30
0
41
1
10
69.4666332325858
20
6.04974679370346
30
0
0
SPLINE
5
1AE
100
AcDbEntity
8
1
62
256
6
ByLayer
370
18
48
1
60
0
100
AcDbSpline
70
4
71
3
72
77
73
73
40
0
40
0
40
0
40
0
40
0.0145904569489671
40
0.0145904569489671
40
0.0463778615635124
40
0.0463778615635124
40
0.0781652661780576
40
0.0781652661780576
40
0.109952670792603
40
0.109952670792603
40
0.173527480021691
40
0.173527480021691
40
0.237102289250778
40
0.237102289250778
40
0.268889693865324
40
0.268889693865324
40
0.284783396172596
40
0.284783396172596
40
0.300677098479869
40
0.300677098479869
40
0.332464503094417
40
0.332464503094417
40
0.348358205401691
40
0.348358205401691
40
0.364251907708964
40
0.364251907708964
40
0.427826716938067
40
0.427826716938067
40
0.459614121552618
40
0.459614121552618
40
0.475507823859894
40
0.475507823859894
40
0.49140152616717
40
0.49140152616717
40
0.523188930781721
40
0.523188930781721
40
0.554976335396271
40
0.554976335396271
40
0.586763740010821
40
0.586763740010821
40
0.618551144625371
40
0.618551144625371
40
0.650338549239922
40
0.650338549239922
40
0.666232251547198
40
0.666232251547198
40
0.682125953854475
40
0.682125953854475
40
0.698019656161751
40
0.698019656161751
40
0.713913358469027
40
0.713913358469027
40
0.74570076308358
40
0.74570076308358
40
0.809275572312686
40
0.809275572312686
40
0.84106297692724
40
0.84106297692724
40
0.872850381541794
40
0.872850381541794
40
0.88874408384907
40
0.88874408384907
40
0.904637786156345
40
0.904637786156345
40
0.920531488463621
40
0.920531488463621
40
0.936425190770897
40
0.968212595385449
40
0.968212595385449
40
0.984106297692724
40
0.984106297692724
40
1
40
1
40
1
40
1
41
1
10
51.3475029207431
20
-4.51100004638457
30
0
41
1
10
51.2980440285037
20
-4.51100591654435
30
0
41
1
10
51.2485911807671
20
-4.51050361762398
30
0
41
1
10
51.0913990291727
20
-4.50728348903945
30
0
41
1
10
50.9836650499935
20
-4.5026488327957
30
0
41
1
10
50.7678263165991
20
-4.48850265133063
30
0
41
1
10
50.6601743062852
20
-4.47901143874566
30
0
41
1
10
50.4448962864389
20
-4.45543383387317
30
0
41
1
10
50.3371230387083
20
-4.44138636989879
30
0
41
1
10
50.0147650027349
20
-4.39232998146295
30
0
41
1
10
49.8009725173565
20
-4.35039722657785
30
0
41
1
10
49.3742793238746
20
-4.24849470423703
30
0
41
1
10
49.1612066456273
20
-4.18860004376916
30
0
41
1
10
48.8412705083735
20
-4.0856328153026
30
0
41
1
10
48.7345736282189
20
-4.04911844016223
30
0
41
1
10
48.5742394257155
20
-3.99116342149523
30
0
41
1
10
48.5207571172313
20
-3.97130806203958
30
0
41
1
10
48.4136049015723
20
-3.93059287920607
30
0
41
1
10
48.3598736489595
20
-3.90977357284851
30
0
41
1
10
48.1985744746832
20
-3.84570511537498
30
0
41
1
10
48.0909191066679
20
-3.80082376105517
30
0
41
1
10
47.928888449215
20
-3.73046108617675
30
0
41
1
10
47.8748024721027
20
-3.70648992465379
30
0
41
1
10
47.7664990345516
20
-3.65748963553517
30
0
41
1
10
47.712249829467
20
-3.63244465399257
30
0
41
1
10
47.4417540274344
20
-3.50498625065816
30
0
41
1
10
47.2270582275433
20
-3.39551869377212
30
0
41
1
10
46.9064663132826
20
-3.22106328339154
30
0
41
1
10
46.7998603691989
20
-3.16118793701327
30
0
41
1
10
46.6401190095695
20
-3.06899702275584
30
0
41
1
10
46.5868838908327
20
-3.03788507874873
30
0
41
1
10
46.4802851364531
20
-2.97505070665423
30
0
41
1
10
46.4269234219749
20
-2.9433272070126
30
0
41
1
10
46.266732798435
20
-2.84717281635088
30
0
41
1
10
46.1598306041379
20
-2.78172951789702
30
0
41
1
10
45.9462226854371
20
-2.64775154010926
30
0
41
1
10
45.8394300202833
20
-2.57930165700236
30
0
41
1
10
45.6256869284001
20
-2.43965377884479
30
0
41
1
10
45.5187529673168
20
-2.36843911387473
30
0
41
1
10
45.3047037448313
20
-2.22325834908116
30
0
41
1
10
45.1975851586131
20
-2.14929500963541
30
0
41
1
10
44.9829731295533
20
-1.99879170627702
30
0
41
1
10
44.8754803663407
20
-1.92225090686136
30
0
41
1
10
44.7138139096334
20
-1.80564448185908
30
0
41
1
10
44.6598455922988
20
-1.76647068912595
30
0
41
1
10
44.5517743926074
20
-1.68757381541465
30
0
41
1
10
44.4978187034515
20
-1.6479513477278
30
0
41
1
10
44.3900099580673
20
-1.56843061222119
30
0
41
1
10
44.3361554118517
20
-1.52853417252575
30
0
41
1
10
44.2284638554599
20
-1.44857321674604
30
0
41
1
10
44.1745990570599
20
-1.40854339919122
30
0
41
1
10
44.0130958392134
20
-1.28812474646441
30
0
41
1
10
43.9056969933197
20
-1.20722123584369
30
0
41
1
10
43.5842051081287
20
-0.962772486633696
30
0
41
1
10
43.3708864728317
20
-0.797399086578849
30
0
41
1
10
43.0510472599493
20
-0.547468898893385
30
0
41
1
10
42.9444613778464
20
-0.463842529381566
30
0
41
1
10
42.7312721619415
20
-0.29604782743175
30
0
41
1
10
42.6246826465615
20
-0.211861531666472
30
0
41
1
10
42.4646295692346
20
-0.0853733665338154
30
0
41
1
10
42.4112494813941
20
-0.0431770760127961
30
0
41
1
10
42.3043987139085
20
0.0412409296020826
30
0
41
1
10
42.2509424347209
20
0.0834814695114403
30
0
41
1
10
42.1437180365157
20
0.167700132488846
30
0
41
1
10
42.089985315581
20
0.209723979402781
30
0
41
1
10
41.9824531202276
20
0.293827674709604
30
0
41
1
10
41.8209874595467
20
0.419980088276247
30
0
41
1
10
41.6589163966641
20
0.545989895719146
30
0
41
1
10
41.4964851495541
20
0.67196863236569
30
0
41
1
10
41.4422460042267
20
0.713986534885464
30
0
41
1
10
41.3340576401657
20
0.797708969952311
30
0
41
1
10
41.2800634722603
20
0.839443566678796
30
0
41
1
10
41.2261590053428
20
0.881039010960109
30
0
0
SPLINE
5
1AF
100
AcDbEntity
8
1
62
256
6
ByLayer
370
18
48
1
60
0
100
AcDbSpline
70
4
71
3
72
64
73
60
40
0
40
0
40
0
40
0
40
0.0197659701427154
40
0.0197659701427154
40
0.0395319402854308
40
0.0395319402854308
40
0.0790638805708616
40
0.0790638805708616
40
0.158127761141723
40
0.158127761141723
40
0.197659701427153
40
0.197659701427153
40
0.217425671569866
40
0.217425671569866
40
0.237191641712579
40
0.237191641712579
40
0.256957611855293
40
0.256957611855293
40
0.276723581998006
40
0.276723581998006
40
0.316255522283433
40
0.316255522283433
40
0.395319402854289
40
0.395319402854289
40
0.434851343139715
40
0.434851343139715
40
0.454617313282429
40
0.454617313282429
40
0.474383283425142
40
0.474383283425142
40
0.553447163995995
40
0.553447163995995
40
0.592979104281423
40
0.592979104281423
40
0.612745074424137
40
0.612745074424137
40
0.632511044566851
40
0.632511044566851
40
0.672042984852282
40
0.672042984852282
40
0.691808954994998
40
0.691808954994998
40
0.711574925137715
40
0.711574925137715
40
0.790638805708582
40
0.790638805708582
40
0.830170745994015
40
0.830170745994015
40
0.869702686279448
40
0.869702686279448
40
0.889468656422164
40
0.889468656422164
40
0.909234626564879
40
0.909234626564879
40
0.929000596707594
40
0.929000596707594
40
0.948766566850309
40
0.948766566850309
40
1
40
1
40
1
40
1
41
1
10
37.9212576157481
20
-2.64079517530618
30
0
41
1
10
37.9835480792375
20
-2.68074388057329
30
0
41
1
10
38.0456335590267
20
-2.72031011859781
30
0
41
1
10
38.1699685487665
20
-2.79808692210892
30
0
41
1
10
38.2321720597368
20
-2.83634873963757
30
0
41
1
10
38.4186183437943
20
-2.9495516298162
30
0
41
1
10
38.5428708195514
20
-3.02273294400484
30
0
41
1
10
38.9157624698692
20
-3.23527607315401
30
0
41
1
10
39.1643865027573
20
-3.36780994054141
30
0
41
1
10
39.5374601878613
20
-3.5527804969434
30
0
41
1
10
39.661833297562
20
-3.61213216150975
30
0
41
1
10
39.8484181651631
20
-3.69763344354379
30
0
41
1
10
39.9106690757614
20
-3.72550704373649
30
0
41
1
10
40.0352084242318
20
-3.78004473559707
30
0
41
1
10
40.0974659533027
20
-3.80672965394086
30
0
41
1
10
40.2221743823806
20
-3.85876366318354
30
0
41
1
10
40.2846528669685
20
-3.88409463145902
30
0
41
1
10
40.4098933198917
20
-3.93336016967848
30
0
41
1
10
40.472602058166
20
-3.95727644980266
30
0
41
1
10
40.6603560703699
20
-4.02665864572916
30
0
41
1
10
40.7852612045827
20
-4.06986295607601
30
0
41
1
10
41.1593004582279
20
-4.19047519123103
30
0
41
1
10
41.4077955220174
20
-4.25890233321584
30
0
41
1
10
41.7793129114662
20
-4.34377051878471
30
0
41
1
10
41.9029520495902
20
-4.36908634098529
30
0
41
1
10
42.0881545211938
20
-4.4025365875118
30
0
41
1
10
42.1498425441844
20
-4.41293302343735
30
0
41
1
10
42.2731772591929
20
-4.43219240396331
30
0
41
1
10
42.3349089105839
20
-4.44103337034431
30
0
41
1
10
42.6441440740175
20
-4.48126747305187
30
0
41
1
10
42.8925181103288
20
-4.50096748398795
30
0
41
1
10
43.2672376049874
20
-4.51157838342959
30
0
41
1
10
43.3924897594385
20
-4.51195541733847
30
0
41
1
10
43.5809257688208
20
-4.50769384586349
30
0
41
1
10
43.6436956688459
20
-4.50547036313998
30
0
41
1
10
43.7689246364363
20
-4.49943301712662
30
0
41
1
10
43.8314192948032
20
-4.49561837799104
30
0
41
1
10
44.0185425025841
20
-4.48179436780933
30
0
41
1
10
44.1427715517872
20
-4.46939949798272
30
0
41
1
10
44.3284983709429
20
-4.44605810758259
30
0
41
1
10
44.3903439399333
20
-4.43749310153683
30
0
41
1
10
44.5141034235711
20
-4.4188545304014
30
0
41
1
10
44.5759978431871
20
-4.4087776596709
30
0
41
1
10
44.8854678207249
20
-4.3546260485787
30
0
41
1
10
45.1330942750858
20
-4.29929591405789
30
0
41
1
10
45.5050013959418
20
-4.198686945796
30
0
41
1
10
45.629044527582
20
-4.16220774291571
30
0
41
1
10
45.8772575128164
20
-4.0832947295109
30
0
41
1
10
46.0013852903259
20
-4.04083529391841
30
0
41
1
10
46.1877990556148
20
-3.97265209862511
30
0
41
1
10
46.2499984108935
20
-3.94919156400581
30
0
41
1
10
46.3743547558239
20
-3.90067650086249
30
0
41
1
10
46.4365916782843
20
-3.87567114629559
30
0
41
1
10
46.5614022602957
20
-3.82430512762062
30
0
41
1
10
46.6239490566107
20
-3.79792733270597
30
0
41
1
10
46.7493405172171
20
-3.74378901153437
30
0
41
1
10
46.8119956616696
20
-3.71610897497155
30
0
41
1
10
47.0367643001599
20
-3.61457371086064
30
0
41
1
10
47.1985343322768
20
-3.53736209714046
30
0
41
1
10
47.3599149623777
20
-3.45630836085647
30
0
0
SPLINE
5
1B0
100
AcDbEntity
8
1
62
256
6
ByLayer
370
18
48
1
60
0
100
AcDbSpline
70
4
71
3
72
10
73
6
40
0
40
0
40
0
40
0
40
0.108733501407493
40
0.108733501407493
40
1
40
1
40
1
40
1
41
1
10
61.3976562575307
20
4.51099993676246
30
0
41
1
10
61.4128854384108
20
4.51099618297221
30
0
41
1
10
61.4281197853127
20
4.5109448976421
30
0
41
1
10
61.5682739290897
20
4.51003631703762
30
0
41
1
10
61.6935308686119
20
4.5060319679007
30
0
41
1
10
61.8191936298161
20
4.49881073848309
30
0
0
SPLINE
5
1B1
100
AcDbEntity
8
1
62
256
6
ByLayer
370
18
48
1
60
0
100
AcDbSpline
70
4
71
3
72
29
73
25
40
0
40
0
40
0
40
0
40
0.124999999999997
40
0.124999999999997
40
0.249999999999994
40
0.249999999999994
40
0.374999999999992
40
0.374999999999992
40
0.499999999999989
40
0.499999999999989
40
0.562499999999987
40
0.562499999999987
40
0.624999999999986
40
0.624999999999986
40
0.749999999999982
40
0.749999999999982
40
0.81249999999998
40
0.81249999999998
40
0.874999999999979
40
0.874999999999979
40
0.906249999999984
40
0.906249999999984
40
0.937499999999989
40
1
40
1
40
1
40
1
41
1
10
61.8191936298161
20
4.49881073848309
30
0
41
1
10
61.8775704003225
20
4.49545610861148
30
0
41
1
10
61.9353938842596
20
4.49505062514393
30
0
41
1
10
62.0497017738353
20
4.49982312283078
30
0
41
1
10
62.1061866713731
20
4.50499989991462
30
0
41
1
10
62.2176333483167
20
4.52085219175549
30
0
41
1
10
62.2725959835042
20
4.53152508255806
30
0
41
1
10
62.3808404888586
20
4.55857075079336
30
0
41
1
10
62.4341231972944
20
4.57493771749199
30
0
41
1
10
62.5126747417637
20
4.6042201274843
30
0
41
1
10
62.5386720935294
20
4.61479610858444
30
0
41
1
10
62.5896911406795
20
4.63743049300118
30
0
41
1
10
62.6147675814684
20
4.64950616214674
30
0
41
1
10
62.6886675773431
20
4.68813832661058
30
0
41
1
10
62.7361711551162
20
4.71707862037152
30
0
41
1
10
62.8045645097882
20
4.76615704029399
30
0
41
1
10
62.8268755388945
20
4.78345910310355
30
0
41
1
10
62.8703431795188
20
4.81994619705122
30
0
41
1
10
62.8914892276093
20
4.8391096006896
30
0
41
1
10
62.9222598251226
20
4.86936545791221
30
0
41
1
10
62.9323691653327
20
4.87971545068666
30
0
41
1
10
62.9521678501507
20
4.90084941602029
30
0
41
1
10
62.9812609270818
20
4.93322511184735
30
0
41
1
10
63.0084958384248
20
4.96768806845611
30
0
41
1
10
63.0257776388034
20
4.99168143958974
30
0
0
SPLINE
5
1B2
100
AcDbEntity
8
1
62
256
6
ByLayer
370
18
48
1
60
0
100
AcDbSpline
70
4
71
3
72
8
73
4
40
0
40
0
40
0
40
0
40
1
40
1
40
1
40
1
41
1
10
63.0257776388034
20
4.99168143958977
30
0
41
1
10
63.0480664704781
20
4.95057336673247
30
0
41
1
10
63.0704012208529
20
4.90937905472731
30
0
41
1
10
63.092792391255
20
4.86809485094915
30
0
0
SPLINE
5
1B3
100
AcDbEntity
8
1
62
256
6
ByLayer
370
18
48
1
60
0
100
AcDbSpline
70
4
71
3
72
34
73
30
40
0
40
0
40
0
40
0
40
0.0624999999999997
40
0.0624999999999997
40
0.124999999999999
40
0.124999999999999
40
0.187499999999999
40
0.187499999999999
40
0.249999999999999
40
0.249999999999999
40
0.374999999999998
40
0.374999999999998
40
0.437499999999998
40
0.437499999999998
40
0.499999999999998
40
0.499999999999998
40
0.624999999999999
40
0.624999999999999
40
0.687499999999999
40
0.687499999999999
40
0.749999999999999
40
0.749999999999999
40
0.812499999999999
40
0.812499999999999
40
0.875
40
0.875
40
0.9375
40
0.9375
40
1
40
1
40
1
40
1
41
1
10
63.092792391255
20
4.86809485094915
30
0
41
1
10
63.0995453841432
20
4.85564387453738
30
0
41
1
10
63.1068828281019
20
4.84396390559402
30
0
41
1
10
63.1225038166127
20
4.82184322719056
30
0
41
1
10
63.1307896183289
20
4.81140570201947
30
0
41
1
10
63.1481915069105
20
4.79161597376418
30
0
41
1
10
63.1573085246143
20
4.78226500513597
30
0
41
1
10
63.1763116505775
20
4.76457068136685
30
0
41
1
10
63.1860505481596
20
4.75636631883134
30
0
41
1
10
63.2157405337218
20
4.73357117712507
30
0
41
1
10
63.2362248917621
20
4.7207126454565
30
0
41
1
10
63.267834979736
20
4.70454950554512
30
0
41
1
10
63.2785658133418
20
4.69967408042797
30
0
41
1
10
63.2999921825758
20
4.69110776476771
30
0
41
1
10
63.3107079660754
20
4.68740130018404
30
0
41
1
10
63.3428478510104
20
4.67796540835732
30
0
41
1
10
63.3642651103837
20
4.67389408518122
30
0
41
1
10
63.3963113035012
20
4.67136807883128
30
0
41
1
10
63.4069347104246
20
4.67113858847515
30
0
41
1
10
63.4277570053137
20
4.67195916798357
30
0
41
1
10
63.4379980572002
20
4.67300474240525
30
0
41
1
10
63.4581059428163
20
4.67645765729756
30
0
41
1
10
63.4679730886487
20
4.67886367748105
30
0
41
1
10
63.4872772630162
20
4.68521573476221
30
0
41
1
10
63.496735572398
20
4.68918578176221
30
0
41
1
10
63.5146295043744
20
4.69866310524964
30
0
41
1
10
63.5231301642285
20
4.70418414902551
30
0
41
1
10
63.5391132233062
20
4.71701398307954
30
0
41
1
10
63.5465980564897
20
4.72431822245642
30
0
41
1
10
63.5534581284692
20
4.73272734292661
30
0
0
SPLINE
5
1B4
100
AcDbEntity
8
1
62
256
6
ByLayer
370
18
48
1
60
0
100
AcDbSpline
70
4
71
3
72
10
73
6
40
0
40
0
40
0
40
0
40
0.5
40
0.5
40
1
40
1
40
1
40
1
41
1
10
63.5534581284692
20
4.73272734292672
30
0
41
1
10
63.6546680564432
20
4.85679112529738
30
0
41
1
10
63.7548596546219
20
4.97445985363709
30
0
41
1
10
63.9538308631093
20
5.19715351847907
30
0
41
1
10
64.0523261557427
20
5.30186190528224
30
0
41
1
10
64.1500447094479
20
5.39992958906041
30
0
0
SPLINE
5
1B5
100
AcDbEntity
8
1
62
256
6
ByLayer
370
18
48
1
60
0
100
AcDbSpline
70
4
71
3
72
8
73
4
40
0
40
0
40
0
40
0
40
1
40
1
40
1
40
1
41
1
10
64.3319570284028
20
5.30919879615067
30
0
41
1
10
64.2713078058745
20
5.34034460720758
30
0
41
1
10
64.210670799421
20
5.37058775264327
30
0
41
1
10
64.1500447094479
20
5.39992958906046
30
0
0
SPLINE
5
1B6
100
AcDbEntity
8
1
62
256
6
ByLayer
370
18
48
1
60
0
100
AcDbSpline
70
4
71
3
72
10
73
6
40
0
40
0
40
0
40
0
40
0.5
40
0.5
40
1
40
1
40
1
40
1
41
1
10
64.3319570284028
20
5.30919879615067
30
0
41
1
10
64.4301779668656
20
5.11564040506653
30
0
41
1
10
64.5292058567502
20
4.92207237085759
30
0
41
1
10
64.7293073900792
20
4.53551036595994
30
0
41
1
10
64.8301056292368
20
4.34306614424449
30
0
41
1
10
64.9319741080607
20
4.15163747560962
30
0
0
SPLINE
5
1B7
100
AcDbEntity
8
1
62
256
6
ByLayer
370
18
48
1
60
0
100
AcDbSpline
70
4
71
3
72
34
73
30
40
0
40
0
40
0
40
0
40
0.0625000000000159
40
0.0625000000000159
40
0.125000000000032
40
0.125000000000032
40
0.187500000000048
40
0.187500000000048
40
0.250000000000064
40
0.250000000000064
40
0.375000000000053
40
0.375000000000053
40
0.437500000000047
40
0.437500000000047
40
0.500000000000041
40
0.500000000000041
40
0.62500000000003
40
0.62500000000003
40
0.687500000000025
40
0.687500000000025
40
0.75000000000002
40
0.75000000000002
40
0.812500000000015
40
0.812500000000015
40
0.87500000000001
40
0.87500000000001
40
0.937500000000005
40
0.937500000000005
40
1
40
1
40
1
40
1
41
1
10
64.9319741080607
20
4.15163747560956
30
0
41
1
10
64.9387443715991
20
4.13891496762253
30
0
41
1
10
64.9461018244805
20
4.12670382270554
30
0
41
1
10
64.9617641040008
20
4.10310527314732
30
0
41
1
10
64.970071250348
20
4.09171991401169
30
0
41
1
10
64.9875144665191
20
4.06966985097165
30
0
41
1
10
64.9966514662841
20
4.05900595995155
30
0
41
1
10
65.0156913064286
20
4.03834474862865
30
0
41
1
10
65.025443741459
20
4.02851205308826
30
0
41
1
10
65.0551675713267
20
4.00046036910641
30
0
41
1
10
65.0756634844742
20
3.98360019388485
30
0
41
1
10
65.1072744213414
20
3.96074525305301
30
0
41
1
10
65.1180017693277
20
3.95351296698703
30
0
41
1
10
65.1394146022236
20
3.9400708991854
30
0
41
1
10
65.1501222686368
20
3.93384079651193
30
0
41
1
10
65.1822359438249
20
3.91657877034072
30
0
41
1
10
65.2036337611463
20
3.90695390762946
30
0
41
1
10
65.235654446494
20
3.89553787562551
30
0
41
1
10
65.2462647025122
20
3.89226370405484
30
0
41
1
10
65.2670670781282
20
3.88690037006245
30
0
41
1
10
65.2772994769767
20
3.88479595448823
30
0
41
1
10
65.2973923297421
20
3.88182185320144
30
0
41
1
10
65.30725307955
20
3.88095093160138
30
0
41
1
10
65.3265464137615
20
3.88060335527482
30
0
41
1
10
65.335999504737
20
3.88114028593355
30
0
41
1
10
65.3538865735654
20
3.88377599679518
30
0
41
1
10
65.362385442192
20
3.88586729843828
30
0
41
1
10
65.378367634776
20
3.89181853011928
30
0
41
1
10
65.3858534010402
20
3.895673892019
30
0
41
1
10
65.392715487031
20
3.90062415478539
30
0
0
SPLINE
5
1B8
100
AcDbEntity
8
1
62
256
6
ByLayer
370
18
48
1
60
0
100
AcDbSpline
70
4
71
3
72
10
73
6
40
0
40
0
40
0
40
0
40
0.5
40
0.5
40
1
40
1
40
1
40
1
41
1
10
65.392715487031
20
3.90062415478548
30
0
41
1
10
65.4939469234594
20
3.97365183342643
30
0
41
1
10
65.5941606479261
20
4.03877222261642
30
0
41
1
10
65.7931795416112
20
4.15351134765291
30
0
41
1
10
65.8917038588451
20
4.2029655669125
30
0
41
1
10
65.989462016063
20
4.24463258191179
30
0
0
SPLINE
5
1B9
100
AcDbEntity
8
1
62
256
6
ByLayer
370
18
48
1
60
0
100
AcDbSpline
70
4
71
3
72
8
73
4
40
0
40
0
40
0
40
0
40
1
40
1
40
1
40
1
41
1
10
66.171376042508
20
4.1050869121012
30
0
41
1
10
66.1107082274483
20
4.15230172581698
30
0
41
1
10
66.0500715772788
20
4.19881774086659
30
0
41
1
10
65.9894620160629
20
4.24463258191182
30
0
0
SPLINE
5
1BA
100
AcDbEntity
8
1
62
256
6
ByLayer
370
18
48
1
60
0
100
AcDbSpline
70
4
71
3
72
10
73
6
40
0
40
0
40
0
40
0
40
0.5
40
0.5
40
1
40
1
40
1
40
1
41
1
10
66.1713760425082
20
4.10508691209122
30
0
41
1
10
66.2695367767402
20
3.91680426416338
30
0
41
1
10
66.3685195763772
20
3.73124816896583
30
0
41
1
10
66.5685753513461
20
3.36625643250676
30
0
41
1
10
66.6693605569577
20
3.18734407663828
30
0
41
1
10
66.7712175471887
20
3.01222007661229
30
0
0
SPLINE
5
1BB
100
AcDbEntity
8
1
62
256
6
ByLayer
370
18
48
1
60
0
100
AcDbSpline
70
4
71
3
72
34
73
30
40
0
40
0
40
0
40
0
40
0.06249999999999
40
0.06249999999999
40
0.12499999999998
40
0.12499999999998
40
0.18749999999997
40
0.18749999999997
40
0.24999999999996
40
0.24999999999996
40
0.37499999999994
40
0.37499999999994
40
0.437499999999929
40
0.437499999999929
40
0.499999999999919
40
0.499999999999919
40
0.624999999999941
40
0.624999999999941
40
0.687499999999951
40
0.687499999999951
40
0.749999999999961
40
0.749999999999961
40
0.812499999999971
40
0.812499999999971
40
0.87499999999998
40
0.87499999999998
40
0.93749999999999
40
0.93749999999999
40
1
40
1
40
1
40
1
41
1
10
66.7712175471887
20
3.01222007661232
30
0
41
1
10
66.7779909900325
20
3.00057441142962
30
0
41
1
10
66.7853533629163
20
2.98912256992006
30
0
41
1
10
66.8010289304243
20
2.96653517537703
30
0
41
1
10
66.8093444470008
20
2.95540032387248
30
0
41
1
10
66.8268081867438
20
2.9334080843492
30
0
41
1
10
66.8359573725809
20
2.92255102849049
30
0
41
1
10
66.8550255329764
20
2.9010914351033
30
0
41
1
10
66.864795275861
20
2.89065795385164
30
0
41
1
10
66.8945690056704
20
2.86029030559078
30
0
41
1
10
66.9151001817546
20
2.84120071341431
30
0
41
1
10
66.9467638770592
20
2.81407069187034
30
0
41
1
10
66.95750796499
20
2.8052491938725
30
0
41
1
10
66.9789456567492
20
2.78836700803606
30
0
41
1
10
66.989664024234
20
2.78028209298441
30
0
41
1
10
67.0218021459946
20
2.75705436627405
30
0
41
1
10
67.0432055029544
20
2.74292332589385
30
0
41
1
10
67.0752117072701
20
2.72386020507
30
0
41
1
10
67.0858011752564
20
2.7179051687539
30
0
41
1
10
67.1065656528964
20
2.70695075149754
30
0
41
1
10
67.116776858413
20
2.70192949983181
30
0
41
1
10
67.1368248376095
20
2.69286016929263
30
0
41
1
10
67.1466619015321
20
2.68881109522886
30
0
41
1
10
67.1659070102341
20
2.68181074509511
30
0
41
1
10
67.1753339369787
20
2.67886199275372
30
0
41
1
10
67.1931735193864
20
2.6743822017277
30
0
41
1
10
67.2016508002331
20
2.67282339907411
30
0
41
1
10
67.2175952644015
20
2.67126571884424
30
0
41
1
10
67.225064858323
20
2.67126273511352
30
0
41
1
10
67.2319142372866
20
2.6722273831071
30
0
0
SPLINE
5
1BC
100
AcDbEntity
8
1
62
256
6
ByLayer
370
18
48
1
60
0
100
AcDbSpline
70
4
71
3
72
10
73
6
40
0
40
0
40
0
40
0
40
0.5
40
0.5
40
1
40
1
40
1
40
1
41
1
10
67.2319142372866
20
2.67222738310733
30
0
41
1
10
67.3331877703216
20
2.68649047337661
30
0
41
1
10
67.4334283700687
20
2.69206251228837
30
0
41
1
10
67.6325118305762
20
2.68649605252406
30
0
41
1
10
67.7310710002801
20
2.67533402878905
30
0
41
1
10
67.8288702973026
20
2.65603364073027
30
0
0
SPLINE
5
1BD
100
AcDbEntity
8
1
62
256
6
ByLayer
370
18
48
1
60
0
100
AcDbSpline
70
4
71
3
72
8
73
4
40
0
40
0
40
0
40
0
40
1
40
1
40
1
40
1
41
1
10
68.010810139331
20
2.48168593518435
30
0
41
1
10
67.9501195564938
20
2.54022444537955
30
0
41
1
10
67.8894745037603
20
2.59834177849075
30
0
41
1
10
67.8288702973026
20
2.65603364073033
30
0
0
SPLINE
5
1BE
100
AcDbEntity
8
1
62
256
6
ByLayer
370
18
48
1
60
0
100
AcDbSpline
70
4
71
3
72
8
73
4
40
0
40
0
40
0
40
0
40
1
40
1
40
1
40
1
41
1
10
69.8501958713645
20
0.605061337609158
30
0
41
1
10
69.7894845455211
20
0.669049459206605
30
0
41
1
10
69.7288331464867
20
0.732941718662914
30
0
41
1
10
69.6682360787314
20
0.796732602288301
30
0
0
SPLINE
5
1BF
100
AcDbEntity
8
1
62
256
6
ByLayer
370
18
48
1
60
0
100
AcDbSpline
70
4
71
3
72
8
73
4
40
0
40
0
40
0
40
0
40
1
40
1
40
1
40
1
41
1
10
71.6895673685256
20
-1.3325074666497
30
0
41
1
10
71.6288235240538
20
-1.26953085561507
30
0
41
1
10
71.5681480193159
20
-1.20631567230149
30
0
41
1
10
71.5075382936024
20
-1.14286381263034
30
0
0
SPLINE
5
1C0
100
AcDbEntity
8
1
62
256
6
ByLayer
370
18
48
1
60
0
100
AcDbSpline
70
4
71
3
72
8
73
4
40
0
40
0
40
0
40
0
40
1
40
1
40
1
40
1
41
1
10
73.5288634913709
20
-3.13326053551151
30
0
41
1
10
73.4681352064045
20
-3.07773297584012
30
0
41
1
10
73.4075344655273
20
-3.02161055321497
30
0
41
1
10
73.3468198555428
20
-2.96509143239226
30
0
0
SPLINE
5
1C1
100
AcDbEntity
8
1
62
256
6
ByLayer
370
18
48
1
60
0
100
AcDbSpline
70
4
71
3
72
8
73
4
40
0
40
0
40
0
40
0
40
1
40
1
40
1
40
1
41
1
10
75.3681289228564
20
-4.61417215863494
30
0
41
1
10
75.307514160574
20
-4.57216929806467
30
0
41
1
10
75.2468386232623
20
-4.52945593917678
30
0
41
1
10
75.1861231534189
20
-4.4860246923208
30
0
0
SPLINE
5
1C2
100
AcDbEntity
8
1
62
256
6
ByLayer
370
18
48
1
60
0
100
AcDbSpline
70
4
71
3
72
112
73
108
40
0
40
0
40
0
40
0
40
0.0625000000000033
40
0.0625000000000033
40
0.125000000000007
40
0.125000000000007
40
0.18750000000001
40
0.18750000000001
40
0.195312500000009
40
0.195312500000009
40
0.203125000000008
40
0.21875000000001
40
0.21875000000001
40
0.250000000000013
40
0.250000000000013
40
0.265625000000015
40
0.265625000000015
40
0.281250000000017
40
0.281250000000017
40
0.31250000000002
40
0.31250000000002
40
0.328125000000021
40
0.328125000000021
40
0.335937500000024
40
0.335937500000024
40
0.343750000000026
40
0.343750000000026
40
0.359375000000031
40
0.359375000000031
40
0.375000000000037
40
0.375000000000037
40
0.406250000000043
40
0.406250000000043
40
0.421875000000046
40
0.421875000000046
40
0.429687500000048
40
0.429687500000048
40
0.43750000000005
40
0.43750000000005
40
0.453125000000053
40
0.453125000000053
40
0.468750000000056
40
0.468750000000056
40
0.476562500000058
40
0.476562500000058
40
0.48437500000006
40
0.48437500000006
40
0.500000000000066
40
0.500000000000066
40
0.515625000000072
40
0.515625000000072
40
0.519531250000073
40
0.519531250000073
40
0.523437500000074
40
0.523437500000074
40
0.531250000000074
40
0.531250000000074
40
0.546875000000073
40
0.546875000000073
40
0.554687500000072
40
0.554687500000072
40
0.562500000000072
40
0.562500000000072
40
0.57812500000007
40
0.57812500000007
40
0.585937500000069
40
0.585937500000069
40
0.593750000000069
40
0.593750000000069
40
0.609375000000067
40
0.609375000000067
40
0.613281250000067
40
0.613281250000067
40
0.617187500000067
40
0.625000000000066
40
0.625000000000066
40
0.640625000000066
40
0.640625000000066
40
0.656250000000065
40
0.656250000000065
40
0.664062500000064
40
0.664062500000064
40
0.671875000000063
40
0.671875000000063
40
0.687500000000062
40
0.687500000000062
40
0.718750000000063
40
0.718750000000063
40
0.750000000000063
40
0.750000000000063
40
0.757812500000063
40
0.757812500000063
40
0.765625000000062
40
0.781250000000058
40
0.781250000000058
40
0.81250000000005
40
0.81250000000005
40
0.843750000000042
40
0.843750000000042
40
0.875000000000034
40
0.875000000000034
40
0.937500000000021
40
0.937500000000021
40
0.953125000000015
40
0.953125000000015
40
0.96875000000001
40
1
40
1
40
1
40
1
41
1
10
41.2262390668713
20
0.881021837706072
30
0
41
1
10
41.0273659996842
20
1.03821283959138
30
0
41
1
10
40.8248107928903
20
1.18661963567911
30
0
41
1
10
40.408963969353
20
1.46210213046749
30
0
41
1
10
40.1957323108336
20
1.58927298378251
30
0
41
1
10
39.7552071847378
20
1.81891488129577
30
0
41
1
10
39.5279090305388
20
1.92138118547962
30
0
41
1
10
39.2620493039727
20
2.02046070954108
30
0
41
1
10
39.2323402794833
20
2.03125066161471
30
0
41
1
10
39.1728231186643
20
2.05229294853189
30
0
41
1
10
39.0833587039439
20
2.08306663590909
30
0
41
1
10
38.9933139506893
20
2.11144449716966
30
0
41
1
10
38.8124182334699
20
2.16495349665305
30
0
41
1
10
38.6906791699756
20
2.19605113317422
30
0
41
1
10
38.5067323275234
20
2.2374707856595
30
0
41
1
10
38.4451957432709
20
2.25041245605175
30
0
41
1
10
38.3217234230139
20
2.27475143252786
30
0
41
1
10
38.2597645841168
20
2.28606282636756
30
0
41
1
10
38.0731770777046
20
2.31730142079749
30
0
41
1
10
37.9478290115612
20
2.33450374271209
30
0
41
1
10
37.7582343115216
20
2.3544898786954
30
0
41
1
10
37.6947799965475
20
2.36020399219365
30
0
41
1
10
37.5991782669642
20
2.36723225582247
30
0
41
1
10
37.5672100158778
20
2.36931879884631
30
0
41
1
10
37.5032987773519
20
2.37293753450845
30
0
41
1
10
37.4713623670779
20
2.37447000657971
30
0
41
1
10
37.375613730285
20
2.3781959573881
30
0
41
1
10
37.3118640477639
20
2.37949023576263
30
0
41
1
10
37.1845175768512
20
2.37988454901097
30
0
41
1
10
37.1209230974763
20
2.37895144684231
30
0
41
1
10
36.9303930414528
20
2.37251078566979
30
0
41
1
10
36.8037094317147
20
2.36338831721719
30
0
41
1
10
36.6142770558312
20
2.34108287713511
30
0
41
1
10
36.5512320758542
20
2.33220503071504
30
0
41
1
10
36.4568282681488
20
2.31647963413013
30
0
41
1
10
36.4253459088999
20
2.31083265780984
30
0
41
1
10
36.3627426044451
20
2.29872038027003
30
0
41
1
10
36.331605958079
20
2.29224493099863
30
0
41
1
10
36.238707370301
20
2.27150912269914
30
0
41
1
10
36.1774529105263
20
2.2559499251121
30
0
41
1
10
36.0564660623514
20
2.22087013164261
30
0
41
1
10
35.9967400599321
20
2.20133407894232
30
0
41
1
10
35.9084960333822
20
2.16846586580348
30
0
41
1
10
35.8793049209929
20
2.15691697627247
30
0
41
1
10
35.8214128135943
20
2.13250660097356
30
0
41
1
10
35.7926430650002
20
2.11961097955086
30
0
41
1
10
35.7077882942574
20
2.07904048002757
30
0
41
1
10
35.6531126878915
20
2.04951147296529
30
0
41
1
10
35.5481792147175
20
1.98453646460948
30
0
41
1
10
35.4979125043834
20
1.94910257400878
30
0
41
1
10
35.4383224935355
20
1.90035830827048
30
0
41
1
10
35.4265682462374
20
1.89038462322949
30
0
41
1
10
35.4034069295259
20
1.86995797666575
30
0
41
1
10
35.3919995992908
20
1.85950249025581
30
0
41
1
10
35.3586084840178
20
1.82764013911051
30
0
41
1
10
35.3373690002932
20
1.8056494455291
30
0
41
1
10
35.2767916613724
20
1.73733684554855
30
0
41
1
10
35.2405959029871
20
1.68867625084968
30
0
41
1
10
35.1932984938837
20
1.61032987771912
30
0
41
1
10
35.1786444370726
20
1.58317946643402
30
0
41
1
10
35.152302656157
20
1.5280541637203
30
0
41
1
10
35.1405626813686
20
1.500004590499
30
0
41
1
10
35.1094947150897
20
1.41441123271315
30
0
41
1
10
35.0942776139034
20
1.355434383751
30
0
41
1
10
35.0793034114044
20
1.26411363981802
30
0
41
1
10
35.0756314669314
20
1.23310792961109
30
0
41
1
10
35.0709338141947
20
1.17123040496503
30
0
41
1
10
35.06986524691
20
1.14023691595946
30
0
41
1
10
35.0701787336796
20
1.04708689625113
30
0
41
1
10
35.0750685660255
20
0.984760713911498
30
0
41
1
10
35.0861645375108
20
0.906554440423861
30
0
41
1
10
35.0886343010824
20
0.890901740765628
30
0
41
1
10
35.0940172029629
20
0.859764288251768
30
0
41
1
10
35.1027668825562
20
0.813233050747414
30
0
41
1
10
35.1134176539941
20
0.767190820445364
30
0
41
1
10
35.1369882015428
20
0.675682494831165
30
0
41
1
10
35.1557144373791
20
0.615441430058269
30
0
41
1
10
35.1980881705785
20
0.496172562411942
30
0
41
1
10
35.2217401020137
20
0.4371460336192
30
0
41
1
10
35.2603167961154
20
0.34934651461819
30
0
41
1
10
35.2737206040417
20
0.320153931197893
30
0
41
1
10
35.301320029329
20
0.262340524865806
30
0
41
1
10
35.3155210190977
20
0.233699936023896
30
0
41
1
10
35.3592017042268
20
0.148494390677996
30
0
41
1
10
35.3897538478419
20
0.0926422300301226
30
0
41
1
10
35.484947349723
20
-0.0725535644386071
30
0
41
1
10
35.5531213750509
20
-0.179539958137582
30
0
41
1
10
35.6961173996635
20
-0.38902982010606
30
0
41
1
10
35.7709901583523
20
-0.491500574071921
30
0
41
1
10
35.8679404976994
20
-0.617307219800836
30
0
41
1
10
35.887516444767
20
-0.642374591446895
30
0
41
1
10
35.9268929347194
20
-0.692168859558706
30
0
41
1
10
35.9862894646814
20
-0.76634448940456
30
0
41
1
10
36.0466094410832
20
-0.839060097382685
30
0
41
1
10
36.1683206717054
20
-0.982737441524591
30
0
41
1
10
36.2508829373344
20
-1.07619254397449
30
0
41
1
10
36.4182089194828
20
-1.25920559486798
30
0
41
1
10
36.5029752596207
20
-1.34876024162895
30
0
41
1
10
36.6742676760592
20
-1.52448394595453
30
0
41
1
10
36.7607952183117
20
-1.61065113656352
30
0
41
1
10
37.0225532598518
20
-1.86459318019678
30
0
41
1
10
37.1999230406868
20
-2.0278528801
30
0
41
1
10
37.4243725672097
20
-2.225247944904
30
0
41
1
10
37.4694161290056
20
-2.26440126596321
30
0
41
1
10
37.5595447631771
20
-2.34184812877425
30
0
41
1
10
37.6948806390683
20
-2.45679854912214
30
0
41
1
10
37.8306081260556
20
-2.56815077655426
30
0
41
1
10
37.9212620413089
20
-2.64080139212322
30
0
0
SPLINE
5
1C3
100
AcDbEntity
8
1
62
256
6
ByLayer
370
18
48
1
60
0
100
AcDbSpline
70
4
71
3
72
42
73
38
40
0
40
0
40
0
40
0
40
0.0097253398969749
40
0.0097253398969749
40
0.111338385915116
40
0.111338385915116
40
0.162144908924186
40
0.162144908924186
40
0.212951431933257
40
0.212951431933257
40
0.263757954942328
40
0.263757954942328
40
0.314564477951398
40
0.314564477951398
40
0.365371000960469
40
0.365371000960469
40
0.41617752396954
40
0.41617752396954
40
0.46698404697861
40
0.46698404697861
40
0.517790569987681
40
0.517790569987681
40
0.61940361600582
40
0.61940361600582
40
0.670210139014891
40
0.670210139014891
40
0.721016662023961
40
0.721016662023961
40
0.771823185033032
40
0.771823185033032
40
0.822629708042102
40
0.822629708042102
40
0.873436231051173
40
0.873436231051173
40
0.924242754060243
40
0.924242754060243
40
1
40
1
40
1
40
1
41
1
10
37.92126203982
20
-2.64080141226611
30
0
41
1
10
37.9222510284893
20
-2.62742146015651
30
0
41
1
10
37.9233701742185
20
-2.61394649789764
30
0
41
1
10
37.9377003976257
20
-2.45857335765385
30
0
41
1
10
37.9642980416315
20
-2.30690344953746
30
0
41
1
10
38.0246118625138
20
-2.06449462491707
30
0
41
1
10
38.0485225335225
20
-1.98062006219217
30
0
41
1
10
38.1039803933225
20
-1.80995943052537
30
0
41
1
10
38.1355686831405
20
-1.72291356720041
30
0
41
1
10
38.2072967039447
20
-1.54502058755614
30
0
41
1
10
38.2474125213107
20
-1.45418410122517
30
0
41
1
10
38.3375057718855
20
-1.26812748187547
30
0
41
1
10
38.3875797054509
20
-1.17289503421003
30
0
41
1
10
38.4956970164726
20
-0.983438860441424
30
0
41
1
10
38.5540565828641
20
-0.88852554277139
30
0
41
1
10
38.6800452745773
20
-0.69829968788639
30
0
41
1
10
38.7480703205683
20
-0.602589911514514
30
0
41
1
10
38.8888181704437
20
-0.417638135584809
30
0
41
1
10
38.9620567179893
20
-0.327551887779066
30
0
41
1
10
39.1141994093998
20
-0.152105577199194
30
0
41
1
10
39.193912044259
20
-0.0659522597717057
30
0
41
1
10
39.4350328609913
20
0.178417693913872
30
0
41
1
10
39.5975870851323
20
0.322831510517915
30
0
41
1
10
39.8439309869695
20
0.513729580076983
30
0
41
1
10
39.9264071732075
20
0.572466635346331
30
0
41
1
10
40.0870530125843
20
0.678229098514834
30
0
41
1
10
40.1658640919433
20
0.725478575587687
30
0
41
1
10
40.3207360461735
20
0.809732746452084
30
0
41
1
10
40.39765183119
20
0.847716049405619
30
0
41
1
10
40.5428535932275
20
0.907393243711994
30
0
41
1
10
40.6116163486297
20
0.9296961463331
30
0
41
1
10
40.7424144319528
20
0.961093462966744
30
0
41
1
10
40.804452910272
20
0.970194062404317
30
0
41
1
10
40.9220381213609
20
0.975649505583533
30
0
41
1
10
40.9772423555089
20
0.97189689758261
30
0
41
1
10
41.1031151023313
20
0.947942953583748
30
0
41
1
10
41.1692520460718
20
0.920629955354542
30
0
41
1
10
41.2262336087476
20
0.881025631363855
30
0
0
SPLINE
5
1C4
100
AcDbEntity
8
SK1
62
256
6
ByLayer
370
18
48
1
60
0
100
AcDbSpline
70
4
71
3
72
25
73
21
40
0
40
0
40
0
40
0
40
0.125011675917478
40
0.125011675917478
40
0.187517513876218
40
0.187517513876218
40
0.250023351834957
40
0.250023351834957
40
0.375035027752436
40
0.375035027752436
40
0.500046703669915
40
0.625058379587393
40
0.625058379587393
40
0.687564217546133
40
0.687564217546133
40
0.750070055504872
40
0.750070055504872
40
0.875081731422351
40
0.875081731422351
40
1
40
1
40
1
40
1
41
1
10
-26.7800000000001
20
3.49499999999998
30
0
41
1
10
-26.8461325038066
20
3.49499999999998
30
0
41
1
10
-26.9107161308256
20
3.49499999999998
30
0
41
1
10
-27.0047352913317
20
3.49499999999998
30
0
41
1
10
-27.0356253065222
20
3.49499999999998
30
0
41
1
10
-27.0961876157174
20
3.49499999999998
30
0
41
1
10
-27.1258524642689
20
3.49499999999998
30
0
41
1
10
-27.2128189283611
20
3.49499999999998
30
0
41
1
10
-27.2680995040984
20
3.49499999999998
30
0
41
1
10
-27.3721538610289
20
3.49499999999998
30
0
41
1
10
-27.4697030033843
20
3.49499999999998
30
0
41
1
10
-27.5515432030615
20
3.49499999999998
30
0
41
1
10
-27.6058239035108
20
3.49499999999998
30
0
41
1
10
-27.6227321255518
20
3.49499999999998
30
0
41
1
10
-27.6539517789931
20
3.49499999999998
30
0
41
1
10
-27.6682736149905
20
3.49499999999998
30
0
41
1
10
-27.7069162929609
20
3.49499999999998
30
0
41
1
10
-27.7265707541406
20
3.49499999999998
30
0
41
1
10
-27.7528896054536
20
3.49499999999998
30
0
41
1
10
-27.7595616195399
20
3.49499999999998
30
0
41
1
10
-27.7595598096312
20
3.49499999999998
30
0
0
SPLINE
5
1C5
100
AcDbEntity
8
SK1
62
256
6
ByLayer
370
18
48
1
60
0
100
AcDbSpline
70
4
71
3
72
25
73
21
40
0
40
0
40
0
40
0
40
0.124919467324759
40
0.124919467324759
40
0.249930971992651
40
0.249930971992651
40
0.312436724326596
40
0.312436724326596
40
0.374942476660542
40
0.374942476660542
40
0.499953981328434
40
0.624965485996325
40
0.624965485996325
40
0.749976990664217
40
0.749976990664217
40
0.812482742998162
40
0.812482742998162
40
0.874988495332108
40
0.874988495332108
40
1
40
1
40
1
40
1
41
1
10
-27.7595598827746
20
-3.49500000000003
30
0
41
1
10
-27.7595617658496
20
-3.49500000000003
30
0
41
1
10
-27.7528897497078
20
-3.49500000000003
30
0
41
1
10
-27.7265707541405
20
-3.49500000000003
30
0
41
1
10
-27.7069162929609
20
-3.49500000000003
30
0
41
1
10
-27.6682736149904
20
-3.49500000000003
30
0
41
1
10
-27.6539517789931
20
-3.49500000000003
30
0
41
1
10
-27.6227321255518
20
-3.49500000000003
30
0
41
1
10
-27.6058239035108
20
-3.49500000000003
30
0
41
1
10
-27.5515432030615
20
-3.49500000000003
30
0
41
1
10
-27.4697030033843
20
-3.49500000000003
30
0
41
1
10
-27.3721538610289
20
-3.49500000000003
30
0
41
1
10
-27.2680995040984
20
-3.49500000000003
30
0
41
1
10
-27.2128189283611
20
-3.49500000000003
30
0
41
1
10
-27.1258524642689
20
-3.49500000000003
30
0
41
1
10
-27.0961876157174
20
-3.49500000000003
30
0
41
1
10
-27.0356253065222
20
-3.49500000000003
30
0
41
1
10
-27.0047352913317
20
-3.49500000000003
30
0
41
1
10
-26.9107161308256
20
-3.49500000000003
30
0
41
1
10
-26.8461325038066
20
-3.49500000000003
30
0
41
1
10
-26.78
20
-3.49500000000003
30
0
0
SPLINE
5
1C6
100
AcDbEntity
8
SK1
62
256
6
ByLayer
370
18
48
1
60
0
100
AcDbSpline
70
4
71
3
72
45
73
41
40
0
40
0
40
0
40
0
40
0.0625
40
0.0625
40
0.125
40
0.125
40
0.15625
40
0.15625
40
0.1875
40
0.1875
40
0.25
40
0.25
40
0.375
40
0.375
40
0.40625
40
0.40625
40
0.421875
40
0.421875
40
0.4375
40
0.4375
40
0.5
40
0.5
40
0.5625
40
0.5625
40
0.625
40
0.625
40
0.65625
40
0.65625
40
0.6875
40
0.6875
40
0.75
40
0.8125
40
0.8125
40
0.875
40
0.875
40
0.90625
40
0.90625
40
0.9375
40
0.9375
40
1
40
1
40
1
40
1
41
1
10
-26.7800000000001
20
-2.7940404781607
30
0
41
1
10
-26.8457681640087
20
-2.68871501911789
30
0
41
1
10
-26.9099831676993
20
-2.58226046044192
30
0
41
1
10
-27.0346072499699
20
-2.36658455295483
30
0
41
1
10
-27.0950185450509
20
-2.25736481547162
30
0
41
1
10
-27.1821004193531
20
-2.09096532364245
30
0
41
1
10
-27.210536677869
20
-2.03506916366908
30
0
41
1
10
-27.2660871196636
20
-1.9223157358135
30
0
41
1
10
-27.2931265139423
20
-1.86560669091099
30
0
41
1
10
-27.3716475494041
20
-1.69476144098309
30
0
41
1
10
-27.4206114438143
20
-1.57976189736769
30
0
41
1
10
-27.5553865230224
20
-1.23081432245399
30
0
41
1
10
-27.6291668215694
20
-0.992945283520129
30
0
41
1
10
-27.6932897766313
20
-0.686450075547782
30
0
41
1
10
-27.7047028224752
20
-0.624690994745208
30
0
41
1
10
-27.71953961254
20
-0.53130838905588
30
0
41
1
10
-27.7241105424864
20
-0.500010964572539
30
0
41
1
10
-27.7324321267716
20
-0.437404101498061
30
0
41
1
10
-27.7361813784008
20
-0.406115762583965
30
0
41
1
10
-27.7528561464768
20
-0.249750036765022
30
0
41
1
10
-27.759549382399
20
-0.124901209280836
30
0
41
1
10
-27.7595705922846
20
0.12430629500858
30
0
41
1
10
-27.7528994417055
20
0.248665003919882
30
0
41
1
10
-27.7265707541406
20
0.496906165748868
30
0
41
1
10
-27.7069162929609
20
0.62078873146703
30
0
41
1
10
-27.6682736149905
20
0.806276614791983
30
0
41
1
10
-27.6539517789931
20
0.867644756430877
30
0
41
1
10
-27.6227321255518
20
0.989242928606501
30
0
41
1
10
-27.6058239035108
20
1.04952352630681
30
0
41
1
10
-27.5515432030615
20
1.22894528771579
30
0
41
1
10
-27.4697030033843
20
1.46439427079503
30
0
41
1
10
-27.3721538610289
20
1.69357019956598
30
0
41
1
10
-27.2680995040984
20
1.92014840007778
30
0
41
1
10
-27.2128189283611
20
2.03213832073948
30
0
41
1
10
-27.1258524642689
20
2.1985076715159
30
0
41
1
10
-27.0961876157174
20
2.25369416374207
30
0
41
1
10
-27.0356253065222
20
2.36357492903272
30
0
41
1
10
-27.0047352913317
20
2.41825299271559
30
0
41
1
10
-26.9107161308256
20
2.58104716912413
30
0
41
1
10
-26.8461325038066
20
2.68813154142691
30
0
41
1
10
-26.78
20
2.79404047816058
30
0
0
SPLINE
5
1C7
100
AcDbEntity
8
1
62
256
6
ByLayer
370
18
48
1
60
0
100
AcDbSpline
70
4
71
3
72
8
73
4
40
0
40
0
40
0
40
0
40
1
40
1
40
1
40
1
41
1
10
70.1464836364545
20
0.253346196294331
30
0
41
1
10
70.1517451334805
20
0.248281084624068
30
0
41
1
10
70.1569956915914
20
0.243180956538254
30
0
41
1
10
70.1622375815896
20
0.238054605758833
30
0
0
SPLINE
5
1C8
100
AcDbEntity
8
1
62
256
6
ByLayer
370
18
48
1
60
0
100
AcDbSpline
70
4
71
2
72
6
73
3
40
0
40
0
40
0
40
1
40
1
40
1
41
1
10
79.5167416065691
20
-5.31742465667622
30
0
41
1
10
79.5890043049574
20
-5.1929462346919
30
0
41
1
10
79.6613051704734
20
-5.06849141175101
30
0
0
SPLINE
5
1C9
100
AcDbEntity
8
1
62
256
6
ByLayer
370
18
48
1
60
0
100
AcDbSpline
70
4
71
2
72
6
73
3
40
0
40
0
40
0
40
1
40
1
40
1
41
1
10
67.5368686067765
20
-4.97683322657133
30
0
41
1
10
67.553916401148
20
-4.97523965883755
30
0
41
1
10
67.5733306036091
20
-4.97543240568316
30
0
0
SPLINE
5
1CA
100
AcDbEntity
8
1
62
256
6
ByLayer
370
18
48
1
60
0
100
AcDbSpline
70
4
71
1
72
4
73
2
40
0
40
0
40
1
40
1
41
1
10
81.82
20
4.33762388568687
30
0
41
1
10
81.2200000647739
20
4.93675440964003
30
0
0
SPLINE
5
1CB
100
AcDbEntity
8
1
62
256
6
ByLayer
370
18
48
1
60
0
100
AcDbSpline
70
4
71
2
72
6
73
3
40
0
40
0
40
0
40
1
40
1
40
1
41
1
10
69.2385631449566
20
6.04170968138377
30
0
41
1
10
68.9555238262692
20
5.55396519984635
30
0
41
1
10
68.6723654544739
20
5.06709505290041
30
0
0
SPLINE
5
1CC
100
AcDbEntity
8
1
62
256
6
ByLayer
370
18
48
1
60
0
100
AcDbSpline
70
4
71
2
72
6
73
3
40
0
40
0
40
0
40
1
40
1
40
1
41
1
10
66.8369453832582
20
-6.05807885614567
30
0
41
1
10
67.1244491457762
20
-5.56218296516062
30
0
41
1
10
67.4121489183963
20
-5.06703956637188
30
0
0
SPLINE
5
1CD
100
AcDbEntity
8
1
62
256
6
ByLayer
370
18
48
1
60
0
100
AcDbSpline
70
4
71
2
72
6
73
3
40
0
40
0
40
0
40
1
40
1
40
1
41
1
10
70.036322734844
20
5.06852312912744
30
0
41
1
10
69.7474251088728
20
5.56586990007284
30
0
41
1
10
69.459023292878
20
6.06352554878359
30
0
0
SPLINE
5
1CE
100
AcDbEntity
8
1
62
256
6
ByLayer
370
18
48
1
60
0
100
AcDbSpline
70
4
71
1
72
4
73
2
40
0
40
0
40
1
40
1
41
1
10
78.6187407704129
20
-5.57038935371364
30
0
41
1
10
79.5068377617248
20
-5.33187044593782
30
0
0
SPLINE
5
1CF
100
AcDbEntity
8
1
62
256
6
ByLayer
370
18
48
1
60
0
100
AcDbSpline
70
4
71
2
72
6
73
3
40
0
40
0
40
0
40
1
40
1
40
1
41
1
10
78.3097959542481
20
-5.0852211909482
30
0
41
1
10
78.4513706554542
20
-5.32964906061144
30
0
41
1
10
78.5929161381625
20
-5.57412864662737
30
0
0
SPLINE
5
1D0
100
AcDbEntity
8
1
62
256
6
ByLayer
370
18
48
1
60
0
100
AcDbSpline
70
4
71
3
72
11
73
7
40
0
40
0
40
0
40
0
40
0.248252661910723
40
0.499823313485342
40
0.754851951268056
40
1
40
1
40
1
40
1
41
1
10
70.4220757460419
20
5.06859002099216
30
0
41
1
10
70.4137226281949
20
5.04725512997535
30
0
41
1
10
70.3794382040796
20
5.01202898074209
30
0
41
1
10
70.269506766027
20
4.95327306765054
30
0
41
1
10
70.1165345583757
20
4.97675209151043
30
0
41
1
10
70.054772733677
20
5.03816236478568
30
0
41
1
10
70.0285510460426
20
5.07991526711152
30
0
0
SPLINE
5
1D1
100
AcDbEntity
8
1
62
256
6
ByLayer
370
18
48
1
60
0
100
AcDbSpline
70
4
71
2
72
6
73
3
40
0
40
0
40
0
40
1
40
1
40
1
41
1
10
66.056292907604
20
-5.08164781259228
30
0
41
1
10
66.3435244836523
20
-5.57737897567944
30
0
41
1
10
66.6306282458173
20
-6.07340041246169
30
0
0
SPLINE
5
1D2
100
AcDbEntity
8
1
62
256
6
ByLayer
370
18
48
1
60
0
100
AcDbSpline
70
4
71
3
72
11
73
7
40
0
40
0
40
0
40
0
40
0.235919872009854
40
0.483596780005524
40
0.741882134084684
40
1
40
1
40
1
40
1
41
1
10
77.9112805281772
20
-5.06854646916958
30
0
41
1
10
77.9203424335309
20
-5.04725889002859
30
0
41
1
10
77.9547523163696
20
-5.01134414948868
30
0
41
1
10
78.0645336981501
20
-4.95333608147158
30
0
41
1
10
78.216107147459
20
-4.97696710058494
30
0
41
1
10
78.2749215004165
20
-5.03285838245159
30
0
41
1
10
78.2992661150777
20
-5.07223386400452
30
0
0
SPLINE
5
1D3
100
AcDbEntity
8
1
62
256
6
ByLayer
370
18
48
1
60
0
100
AcDbSpline
70
4
71
3
72
11
73
7
40
0
40
0
40
0
40
0
40
0.252042469736423
40
0.506919856270719
40
0.75768586422473
40
1
40
1
40
1
40
1
41
1
10
65.661279580935
20
-5.06857348262264
30
0
41
1
10
65.6791237286958
20
-5.03659014173448
30
0
41
1
10
65.7279662753884
20
-4.98905889001929
30
0
41
1
10
65.8647444976718
20
-4.95061806398803
30
0
41
1
10
65.9894771586206
20
-4.99741411237184
30
0
41
1
10
66.0315643056165
20
-5.03888800404315
30
0
41
1
10
66.0452825679086
20
-5.06540565304226
30
0
0
SPLINE
5
1D4
100
AcDbEntity
8
1
62
256
6
ByLayer
370
18
48
1
60
0
100
AcDbSpline
70
4
71
2
72
6
73
3
40
0
40
0
40
0
40
1
40
1
40
1
41
1
10
77.4390577648269
20
-5.88227018656633
30
0
41
1
10
77.6750360459003
20
-5.47522574812058
30
0
41
1
10
77.9113677585863
20
-5.06839635537347
30
0
0
SPLINE
5
1D5
100
AcDbEntity
8
1
62
256
6
ByLayer
370
18
48
1
60
0
100
AcDbSpline
70
4
71
2
72
6
73
3
40
0
40
0
40
0
40
1
40
1
40
1
41
1
10
70.998798853011
20
6.06340986745059
30
0
41
1
10
70.7106060591915
20
5.56577717594831
30
0
41
1
10
70.4219683889123
20
5.06840527145272
30
0
0
SPLINE
5
1D6
100
AcDbEntity
8
1
62
256
6
ByLayer
370
18
48
1
60
0
100
AcDbSpline
70
4
71
2
72
6
73
3
40
0
40
0
40
0
40
1
40
1
40
1
41
1
10
71.7864136673533
20
5.06831673089948
30
0
41
1
10
71.4975119421768
20
5.56565190566866
30
0
41
1
10
71.2091092123585
20
6.06330451406129
30
0
0
SPLINE
5
1D7
100
AcDbEntity
8
1
62
256
6
ByLayer
370
18
48
1
60
0
100
AcDbSpline
70
4
71
1
72
4
73
2
40
0
40
0
40
1
40
1
41
1
10
77.0972048227487
20
-5.9817836385395
30
0
41
1
10
77.4255526822026
20
-5.89354430104933
30
0
0
SPLINE
5
1D8
100
AcDbEntity
8
1
62
256
6
ByLayer
370
18
48
1
60
0
100
AcDbSpline
70
4
71
2
72
6
73
3
40
0
40
0
40
0
40
1
40
1
40
1
41
1
10
65.084109908584
20
-6.06334167448657
30
0
41
1
10
65.3725146049821
20
-5.56568055073242
30
0
41
1
10
65.6614121627709
20
-5.06834504554593
30
0
0
SPLINE
5
1D9
100
AcDbEntity
8
1
62
256
6
ByLayer
370
18
48
1
60
0
100
AcDbSpline
70
4
71
2
72
6
73
3
40
0
40
0
40
0
40
1
40
1
40
1
41
1
10
76.5469165314704
20
-5.06834815240944
30
0
41
1
10
76.8089076421998
20
-5.5198244672313
30
0
41
1
10
77.0705300509307
20
-5.97152693440944
30
0
0
SPLINE
5
1DA
100
AcDbEntity
8
1
62
256
6
ByLayer
370
18
48
1
60
0
100
AcDbSpline
70
4
71
3
72
11
73
7
40
0
40
0
40
0
40
0
40
0.278715213253413
40
0.543409188777186
40
0.784671739537444
40
1
40
1
40
1
40
1
41
1
10
72.1720812562793
20
5.06864170212344
30
0
41
1
10
72.1499710949518
20
5.03084610806894
30
0
41
1
10
72.0939909318144
20
4.97938078500459
30
0
41
1
10
71.9442803325437
20
4.95272997393863
30
0
41
1
10
71.8329936003848
20
5.00797159068728
30
0
41
1
10
71.7970618505946
20
5.04639455985017
30
0
41
1
10
71.7862955215302
20
5.06851992828362
30
0
0
SPLINE
5
1DB
100
AcDbEntity
8
1
62
256
6
ByLayer
370
18
48
1
60
0
100
AcDbSpline
70
4
71
2
72
6
73
3
40
0
40
0
40
0
40
1
40
1
40
1
41
1
10
64.2970367449265
20
-5.0685072946992
30
0
41
1
10
64.58567409747
20
-5.56590434695033
30
0
41
1
10
64.8738677294394
20
-6.06356131264221
30
0
0
SPLINE
5
1DC
100
AcDbEntity
8
1
62
256
6
ByLayer
370
18
48
1
60
0
100
AcDbSpline
70
4
71
3
72
11
73
7
40
0
40
0
40
0
40
0
40
0.24852262338825
40
0.504044342223525
40
0.75455247564641
40
1
40
1
40
1
40
1
41
1
10
76.1563770736367
20
-5.07617216801924
30
0
41
1
10
76.1819633997258
20
-5.03546575060665
30
0
41
1
10
76.2426423161365
20
-4.97631528477302
30
0
41
1
10
76.3951574673078
20
-4.95340554119906
30
0
41
1
10
76.5046822398793
20
-5.01236910491852
30
0
41
1
10
76.5387439320579
20
-5.04755699307827
30
0
41
1
10
76.547128585475
20
-5.06871295157689
30
0
0
SPLINE
5
1DD
100
AcDbEntity
8
1
62
256
6
ByLayer
370
18
48
1
60
0
100
AcDbSpline
70
4
71
3
72
11
73
7
40
0
40
0
40
0
40
0
40
0.244792771761719
40
0.500523179708253
40
0.755936893614533
40
1
40
1
40
1
40
1
41
1
10
63.9005034399686
20
-5.08329896498262
30
0
41
1
10
63.9180078944332
20
-5.04924444184493
30
0
41
1
10
63.9666512160793
20
-4.99622708569555
30
0
41
1
10
64.0999552569948
20
-4.94925319454296
30
0
41
1
10
64.2333871026889
20
-4.9910182033087
30
0
41
1
10
64.2820607658454
20
-5.04047286364585
30
0
41
1
10
64.2996058163965
20
-5.07271804931091
30
0
0
SPLINE
5
1DE
100
AcDbEntity
8
1
62
256
6
ByLayer
370
18
48
1
60
0
100
AcDbSpline
70
4
71
2
72
6
73
3
40
0
40
0
40
0
40
1
40
1
40
1
41
1
10
63.4318244812229
20
-5.8947731079854
30
0
41
1
10
63.6713752730579
20
-5.48154704786356
30
0
41
1
10
63.9112842593238
20
-5.06854695879429
30
0
0
SPLINE
5
1DF
100
AcDbEntity
8
1
62
256
6
ByLayer
370
18
48
1
60
0
100
AcDbSpline
70
4
71
2
72
6
73
3
40
0
40
0
40
0
40
1
40
1
40
1
41
1
10
72.7584073236523
20
6.0764667728003
30
0
41
1
10
72.4713742655171
20
5.58046522806774
30
0
41
1
10
72.1842276077645
20
5.08466383818418
30
0
0
SPLINE
5
1E0
100
AcDbEntity
8
1
62
256
6
ByLayer
370
18
48
1
60
0
100
AcDbSpline
70
4
71
2
72
6
73
3
40
0
40
0
40
0
40
1
40
1
40
1
41
1
10
73.6448021528422
20
4.9826034014425
30
0
41
1
10
73.569830989519
20
5.00657419536563
30
0
41
1
10
73.5537192419439
20
5.02868909503812
30
0
0
SPLINE
5
1E1
100
AcDbEntity
8
1
62
256
6
ByLayer
370
18
48
1
60
0
100
AcDbSpline
70
4
71
2
72
6
73
3
40
0
40
0
40
0
40
1
40
1
40
1
41
1
10
73.5394995419797
20
5.06265943596043
30
0
41
1
10
73.2519322161018
20
5.55726789995461
30
0
41
1
10
72.9645337955468
20
6.05273073774339
30
0
0
SPLINE
5
1E2
100
AcDbEntity
8
1
62
256
6
ByLayer
370
18
48
1
60
0
100
AcDbSpline
70
4
71
2
72
6
73
3
40
0
40
0
40
0
40
1
40
1
40
1
41
1
10
74.7575831302271
20
-5.01898515561766
30
0
41
1
10
74.7638843455063
20
-5.02304733048962
30
0
41
1
10
74.7675138211286
20
-5.02071083004952
30
0
0
SPLINE
5
1E3
100
AcDbEntity
8
1
62
256
6
ByLayer
370
18
48
1
60
0
100
AcDbSpline
70
4
71
2
72
6
73
3
40
0
40
0
40
0
40
1
40
1
40
1
41
1
10
74.7921070243171
20
-5.0592387177731
30
0
41
1
10
75.0793970842417
20
-5.55366027480454
30
0
41
1
10
75.3665509317729
20
-6.04889383559478
30
0
0
SPLINE
5
1E4
100
AcDbEntity
8
1
62
256
6
ByLayer
370
18
48
1
60
0
100
AcDbSpline
70
4
71
2
72
6
73
3
40
0
40
0
40
0
40
1
40
1
40
1
41
1
10
75.5695073243471
20
-6.08026009671724
30
0
41
1
10
75.8566120915092
20
-5.58433939205077
30
0
41
1
10
76.1438271963842
20
-5.08852470279771
30
0
0
SPLINE
5
1E5
100
AcDbEntity
8
1
62
256
6
ByLayer
370
18
48
1
60
0
100
AcDbSpline
70
4
71
1
72
4
73
2
40
0
40
0
40
1
40
1
41
1
10
76.6863013107512
20
1.30455558248229
30
0
41
1
10
76.6849143380224
20
1.30590823791627
30
0
0
LINE
5
7F
100
AcDbEntity
8
80
62
256
6
ByLayer
370
18
48
1
60
0
100
AcDbLine
10
0
20
0
30
0
11
-5
21
0
31
0
39
0
210
0
220
0
230
1
0
LINE
5
80
100
AcDbEntity
8
4
62
256
6
ByLayer
370
18
48
0.05
60
0
100
AcDbLine
10
0
20
0
30
0
11
81.82
21
0
31
0
39
0
210
0
220
0
230
1
0
LINE
5
82
100
AcDbEntity
8
81
62
256
6
ByLayer
370
18
48
1
60
0
100
AcDbLine
10
81.82
20
0
30
0
11
86.82
21
0
31
0
39
0
210
0
220
0
230
1
0
LINE
5
83
100
AcDbEntity
8
SK4
62
256
6
ByLayer
370
18
48
0.05
60
0
100
AcDbLine
10
-28.18
20
0
30
0
11
81.82
21
0
31
0
39
0
210
0
220
0
230
1
0
LINE
5
85
100
AcDbEntity
8
1
62
256
6
ByLayer
370
18
48
1
60
0
100
AcDbLine
10
0
20
4.661
30
0
11
0
21
-4.661
31
0
39
0
210
0
220
0
230
1
0
LINE
5
86
100
AcDbEntity
8
1
62
256
6
ByLayer
370
18
48
1
60
0
100
AcDbLine
10
81.22
20
4.945048
30
0
11
81.22
21
4.936772
31
0
39
0
210
0
220
0
230
1
0
LINE
5
87
100
AcDbEntity
8
1
62
256
6
ByLayer
370
18
48
1
60
0
100
AcDbLine
10
79.504605
20
-5.332477
30
0
11
79.49614
21
-5.337103
31
0
39
0
210
0
220
0
230
1
0
LINE
5
88
100
AcDbEntity
8
1
62
256
6
ByLayer
370
18
48
1
60
0
100
AcDbLine
10
76.547014
20
-5.068516
30
0
11
76.548796
21
-5.071479
31
0
39
0
210
0
220
0
230
1
0
LINE
5
89
100
AcDbEntity
8
1
62
256
6
ByLayer
370
18
48
1
60
0
100
AcDbLine
10
64.297035
20
-5.068504
30
0
11
64.300679
21
-5.07435
31
0
39
0
210
0
220
0
230
1
0
LINE
5
8A
100
AcDbEntity
8
1
62
256
6
ByLayer
370
13
48
1
60
0
100
AcDbLine
10
63.031629
20
-3.771441
30
0
11
63.031629
21
-5.209974
31
0
39
0
210
0
220
0
230
1
0
LINE
5
8B
100
AcDbEntity
8
1
62
256
6
ByLayer
370
13
48
1
60
0
100
AcDbLine
10
61.819194
20
-4.352937
30
0
11
61.819194
21
-2.536402
31
0
39
0
210
0
220
0
230
1
0
LINE
5
8C
100
AcDbEntity
8
1
62
256
6
ByLayer
370
13
48
1
60
0
100
AcDbLine
10
61.819194
20
3.201551
30
0
11
61.819194
21
4.498811
31
0
39
0
210
0
220
0
230
1
0
LINE
5
8D
100
AcDbEntity
8
1
62
256
6
ByLayer
370
13
48
1
60
0
100
AcDbLine
10
27.473835
20
-4.511
30
0
11
27.473835
21
4.511
31
0
39
0
210
0
220
0
230
1
0
LINE
5
8E
100
AcDbEntity
8
1
62
256
6
ByLayer
370
18
48
1
60
0
100
AcDbLine
10
26.82
20
4.661
30
0
11
26.82
21
-4.661
31
0
39
0
210
0
220
0
230
1
0
LINE
5
8F
100
AcDbEntity
8
1
62
256
6
ByLayer
370
13
48
1
60
0
100
AcDbLine
10
63.031629
20
4.935756
30
0
11
63.031629
21
2.694526
31
0
39
0
210
0
220
0
230
1
0
LINE
5
90
100
AcDbEntity
8
SK1
62
256
6
ByLayer
370
18
48
1
60
0
100
AcDbLine
10
-28.18
20
3.07456
30
0
11
-28.18
21
-3.07456
31
0
39
0
210
0
220
0
230
1
0
LINE
5
92
100
AcDbEntity
8
SK1
62
256
6
ByLayer
370
18
48
1
60
0
100
AcDbLine
10
-16.02044
20
4.47456
30
0
11
-17
21
3.495
31
0
39
0
210
0
220
0
230
1
0
LINE
5
93
100
AcDbEntity
8
SK1
62
256
6
ByLayer
370
18
48
1
60
0
100
AcDbLine
10
-26.78
20
3.495
30
0
11
-17
21
3.495
31
0
39
0
210
0
220
0
230
1
0
LINE
5
94
100
AcDbEntity
8
SK1
62
256
6
ByLayer
370
18
48
1
60
0
100
AcDbLine
10
-26.78
20
2.79404
30
0
11
-26.78
21
3.495
31
0
39
0
210
0
220
0
230
1
0
LINE
5
95
100
AcDbEntity
8
SK1
62
256
6
ByLayer
370
18
48
1
60
0
100
AcDbLine
10
-17
20
2.79404
30
0
11
-26.78
21
2.79404
31
0
39
0
210
0
220
0
230
1
0
LINE
5
96
100
AcDbEntity
8
SK1
62
256
6
ByLayer
370
18
48
1
60
0
100
AcDbLine
10
-26.78
20
-2.79404
30
0
11
-17
21
-2.79404
31
0
39
0
210
0
220
0
230
1
0
LINE
5
97
100
AcDbEntity
8
SK1
62
256
6
ByLayer
370
18
48
1
60
0
100
AcDbLine
10
-26.78
20
-3.495
30
0
11
-26.78
21
-2.79404
31
0
39
0
210
0
220
0
230
1
0
LINE
5
98
100
AcDbEntity
8
SK1
62
256
6
ByLayer
370
18
48
1
60
0
100
AcDbLine
10
-17
20
-3.495
30
0
11
-26.78
21
-3.495
31
0
39
0
210
0
220
0
230
1
0
LINE
5
99
100
AcDbEntity
8
SK1
62
256
6
ByLayer
370
18
48
1
60
0
100
AcDbLine
10
-17
20
-3.495
30
0
11
-16.02044
21
-4.47456
31
0
39
0
210
0
220
0
230
1
0
LINE
5
9A
100
AcDbEntity
8
SK1
62
256
6
ByLayer
370
18
48
1
60
0
100
AcDbLine
10
-17
20
2.79404
30
0
11
-17
21
-2.79404
31
0
39
0
210
0
220
0
230
1
0
LINE
5
9B
100
AcDbEntity
8
SK1
62
256
6
ByLayer
370
18
48
1
60
0
100
AcDbLine
10
-14.764
20
4.47456
30
0
11
-14.764
21
-4.47456
31
0
39
0
210
0
220
0
230
1
0
LINE
5
9C
100
AcDbEntity
8
SK1
62
256
6
ByLayer
370
18
48
1
60
0
100
AcDbLine
10
0
20
4.661
30
0
11
0
21
-4.661
31
0
39
0
210
0
220
0
230
1
0
LINE
5
9D
100
AcDbEntity
8
SK1
62
256
6
ByLayer
370
18
48
1
60
0
100
AcDbLine
10
-14.57756
20
-4.661
30
0
11
-14.57756
21
4.661
31
0
39
0
210
0
220
0
230
1
0
LINE
5
9E
100
AcDbEntity
8
1
62
256
6
ByLayer
370
18
48
1
60
0
100
AcDbLine
10
63.100869
20
-5.330926
30
0
11
63.415067
21
-5.875135
31
0
39
0
210
0
220
0
230
1
0
LINE
5
9F
100
AcDbEntity
8
1
62
256
6
ByLayer
370
18
48
1
60
0
100
AcDbLine
10
26.82
20
4.661
30
0
11
0
21
4.661
31
0
39
0
210
0
220
0
230
1
0
LINE
5
A0
100
AcDbEntity
8
1
62
256
6
ByLayer
370
18
48
1
60
0
100
AcDbLine
10
0
20
-4.661
30
0
11
26.82
21
-4.661
31
0
39
0
210
0
220
0
230
1
0
LINE
5
A1
100
AcDbEntity
8
1
62
256
6
ByLayer
370
18
48
1
60
0
100
AcDbLine
10
69.440474
20
6.076498
30
0
11
69.267346
21
6.076498
31
0
39
0
210
0
220
0
230
1
0
LINE
5
A2
100
AcDbEntity
8
1
62
256
6
ByLayer
370
18
48
1
60
0
100
AcDbLine
10
66.642359
20
-6.076498
30
0
11
66.815425
21
-6.076498
31
0
39
0
210
0
220
0
230
1
0
LINE
5
A3
100
AcDbEntity
8
1
62
256
6
ByLayer
370
18
48
1
60
0
100
AcDbLine
10
71.190421
20
6.076498
30
0
11
71.017372
21
6.076498
31
0
39
0
210
0
220
0
230
1
0
LINE
5
A4
100
AcDbEntity
8
1
62
256
6
ByLayer
370
18
48
1
60
0
100
AcDbLine
10
64.892378
20
-6.076498
30
0
11
65.065462
21
-6.076498
31
0
39
0
210
0
220
0
230
1
0
LINE
5
A5
100
AcDbEntity
8
1
62
256
6
ByLayer
370
18
48
1
60
0
100
AcDbLine
10
72.940459
20
6.076498
30
0
11
72.767361
21
6.076498
31
0
39
0
210
0
220
0
230
1
0
LINE
5
A6
100
AcDbEntity
8
1
62
256
6
ByLayer
370
18
48
1
60
0
100
AcDbLine
10
75.392368
20
-6.076498
30
0
11
75.565427
21
-6.076498
31
0
39
0
210
0
220
0
230
1
0
LINE
5
A7
100
AcDbEntity
8
1
62
256
6
ByLayer
370
18
48
1
60
0
100
AcDbLine
10
27.473835
20
-4.511
30
0
11
36.243095
21
-4.511
31
0
39
0
210
0
220
0
230
1
0
LINE
5
A8
100
AcDbEntity
8
1
62
256
6
ByLayer
370
18
48
1
60
0
100
AcDbLine
10
38.41469
20
-4.511
30
0
11
43.35155
21
-4.511
31
0
39
0
210
0
220
0
230
1
0
LINE
5
A9
100
AcDbEntity
8
1
62
256
6
ByLayer
370
18
48
1
60
0
100
AcDbLine
10
51.347531
20
-4.511
30
0
11
55.380602
21
-4.511
31
0
39
0
210
0
220
0
230
1
0
LINE
5
AA
100
AcDbEntity
8
1
62
256
6
ByLayer
370
18
48
1
60
0
100
AcDbLine
10
61.398116
20
4.511
30
0
11
57.343814
21
4.511
31
0
39
0
210
0
220
0
230
1
0
LINE
5
AB
100
AcDbEntity
8
1
62
256
6
ByLayer
370
18
48
1
60
0
100
AcDbLine
10
49.365892
20
4.511
30
0
11
45.352616
21
4.511
31
0
39
0
210
0
220
0
230
1
0
LINE
5
AC
100
AcDbEntity
8
1
62
256
6
ByLayer
370
18
48
1
60
0
100
AcDbLine
10
37.459472
20
4.511
30
0
11
27.473835
21
4.511
31
0
39
0
210
0
220
0
230
1
0
LINE
5
AD
100
AcDbEntity
8
SK1
62
256
6
ByLayer
370
18
48
1
60
0
100
AcDbLine
10
-28.18
20
-3.07456
30
0
11
-27.75956
21
-3.495
31
0
39
0
210
0
220
0
230
1
0
LINE
5
AE
100
AcDbEntity
8
SK1
62
256
6
ByLayer
370
18
48
1
60
0
100
AcDbLine
10
-27.75956
20
3.495
30
0
11
-28.18
21
3.07456
31
0
39
0
210
0
220
0
230
1
0
LINE
5
AF
100
AcDbEntity
8
SK1
62
256
6
ByLayer
370
18
48
1
60
0
100
AcDbLine
10
-14.764
20
4.47456
30
0
11
-16.02044
21
4.47456
31
0
39
0
210
0
220
0
230
1
0
LINE
5
B0
100
AcDbEntity
8
SK1
62
256
6
ByLayer
370
18
48
1
60
0
100
AcDbLine
10
-16.02044
20
-4.47456
30
0
11
-14.764
21
-4.47456
31
0
39
0
210
0
220
0
230
1
0
LINE
5
B1
100
AcDbEntity
8
SK1
62
256
6
ByLayer
370
18
48
1
60
0
100
AcDbLine
10
-14.764
20
-4.47456
30
0
11
-14.57756
21
-4.661
31
0
39
0
210
0
220
0
230
1
0
LINE
5
B2
100
AcDbEntity
8
SK1
62
256
6
ByLayer
370
18
48
1
60
0
100
AcDbLine
10
-14.57756
20
4.661
30
0
11
-14.764
21
4.47456
31
0
39
0
210
0
220
0
230
1
0
LINE
5
B3
100
AcDbEntity
8
SK1
62
256
6
ByLayer
370
18
48
1
60
0
100
AcDbLine
10
0
20
4.661
30
0
11
-14.57756
21
4.661
31
0
39
0
210
0
220
0
230
1
0
LINE
5
B4
100
AcDbEntity
8
SK1
62
256
6
ByLayer
370
18
48
1
60
0
100
AcDbLine
10
-14.57756
20
-4.661
30
0
11
0
21
-4.661
31
0
39
0
210
0
220
0
230
1
0
LINE
5
B5
100
AcDbEntity
8
SK2
62
256
6
ByLayer
370
18
48
1
60
0
100
AcDbLine
10
14.12122
20
-4.661
30
0
11
14.12122
21
25.443741
31
0
39
0
210
0
220
0
230
1
0
LINE
5
B7
100
AcDbEntity
8
1
62
256
6
ByLayer
370
18
48
1
60
1
100
AcDbLine
10
14.12122
20
4.661
30
0
11
14.582004
21
1.161002
31
0
39
0
210
0
220
0
230
1
0
LINE
5
B8
100
AcDbEntity
8
1
62
256
6
ByLayer
370
18
48
1
60
1
100
AcDbLine
10
14.582004
20
1.161002
30
0
11
13.660436
21
1.160998
31
0
39
0
210
0
220
0
230
1
0
LINE
5
B9
100
AcDbEntity
8
1
62
256
6
ByLayer
370
18
48
1
60
1
100
AcDbLine
10
13.660436
20
1.160998
30
0
11
14.12122
21
4.661
31
0
39
0
210
0
220
0
230
1
0
LINE
5
BA
100
AcDbEntity
8
1
62
256
6
ByLayer
370
18
48
1
60
1
100
AcDbLine
10
14.12122
20
-4.661
30
0
11
13.660436
21
-1.161002
31
0
39
0
210
0
220
0
230
1
0
LINE
5
BB
100
AcDbEntity
8
1
62
256
6
ByLayer
370
18
48
1
60
1
100
AcDbLine
10
13.660436
20
-1.161002
30
0
11
14.582004
21
-1.160998
31
0
39
0
210
0
220
0
230
1
0
LINE
5
BC
100
AcDbEntity
8
1
62
256
6
ByLayer
370
18
48
1
60
1
100
AcDbLine
10
14.582004
20
-1.160998
30
0
11
14.12122
21
-4.661
31
0
39
0
210
0
220
0
230
1
0
LINE
5
BD
100
AcDbEntity
8
2
62
256
6
ByLayer
370
18
48
1
60
0
100
AcDbLine
10
81.82
20
-43.576498
30
0
11
-28.18
21
-43.576498
31
0
39
0
210
0
220
0
230
1
0
LINE
5
BF
100
AcDbEntity
8
2
62
256
6
ByLayer
370
18
48
1
60
0
100
AcDbLine
10
-28.18
20
-4.66206
30
0
11
-28.18
21
-45.576498
31
0
39
0
210
0
220
0
230
1
0
LINE
5
C0
100
AcDbEntity
8
2
62
256
6
ByLayer
370
18
48
1
60
0
100
AcDbLine
10
81.82
20
-7.663998
30
0
11
81.82
21
-45.576498
31
0
39
0
210
0
220
0
230
1
0
LINE
5
C1
100
AcDbEntity
8
1
62
256
6
ByLayer
370
18
48
1
60
1
100
AcDbLine
10
-28.18
20
-43.576498
30
0
11
-24.680002
21
-43.115715
31
0
39
0
210
0
220
0
230
1
0
LINE
5
C2
100
AcDbEntity
8
1
62
256
6
ByLayer
370
18
48
1
60
1
100
AcDbLine
10
-24.680002
20
-43.115715
30
0
11
-24.679998
21
-44.037282
31
0
39
0
210
0
220
0
230
1
0
LINE
5
C3
100
AcDbEntity
8
1
62
256
6
ByLayer
370
18
48
1
60
1
100
AcDbLine
10
-24.679998
20
-44.037282
30
0
11
-28.18
21
-43.576498
31
0
39
0
210
0
220
0
230
1
0
LINE
5
C4
100
AcDbEntity
8
1
62
256
6
ByLayer
370
18
48
1
60
1
100
AcDbLine
10
81.82
20
-43.576498
30
0
11
78.320002
21
-44.037282
31
0
39
0
210
0
220
0
230
1
0
LINE
5
C5
100
AcDbEntity
8
1
62
256
6
ByLayer
370
18
48
1
60
1
100
AcDbLine
10
78.320002
20
-44.037282
30
0
11
78.319998
21
-43.115715
31
0
39
0
210
0
220
0
230
1
0
LINE
5
C6
100
AcDbEntity
8
1
62
256
6
ByLayer
370
18
48
1
60
1
100
AcDbLine
10
78.319998
20
-43.115715
30
0
11
81.82
21
-43.576498
31
0
39
0
210
0
220
0
230
1
0
LINE
5
1EA
100
AcDbEntity
8
1
62
256
6
ByLayer
370
18
48
1
60
1
100
AcDbLine
10
14.12122
20
4.661
30
0
11
14.582004
21
1.161002
31
0
39
0
210
0
220
0
230
1
0
LINE
5
1EB
100
AcDbEntity
8
1
62
256
6
ByLayer
370
18
48
1
60
1
100
AcDbLine
10
14.582004
20
1.161002
30
0
11
13.660436
21
1.160998
31
0
39
0
210
0
220
0
230
1
0
LINE
5
1EC
100
AcDbEntity
8
1
62
256
6
ByLayer
370
18
48
1
60
1
100
AcDbLine
10
13.660436
20
1.160998
30
0
11
14.12122
21
4.661
31
0
39
0
210
0
220
0
230
1
0
LINE
5
1EE
100
AcDbEntity
8
1
62
256
6
ByLayer
370
18
48
1
60
1
100
AcDbLine
10
14.12122
20
-4.661
30
0
11
13.660436
21
-1.161002
31
0
39
0
210
0
220
0
230
1
0
LINE
5
1EF
100
AcDbEntity
8
1
62
256
6
ByLayer
370
18
48
1
60
1
100
AcDbLine
10
13.660436
20
-1.161002
30
0
11
14.582004
21
-1.160998
31
0
39
0
210
0
220
0
230
1
0
LINE
5
1F0
100
AcDbEntity
8
1
62
256
6
ByLayer
370
18
48
1
60
1
100
AcDbLine
10
14.582004
20
-1.160998
30
0
11
14.12122
21
-4.661
31
0
39
0
210
0
220
0
230
1
0
LINE
5
1F3
100
AcDbEntity
8
1
62
256
6
ByLayer
370
18
48
1
60
1
100
AcDbLine
10
-28.18
20
-43.576498
30
0
11
-24.680002
21
-43.115715
31
0
39
0
210
0
220
0
230
1
0
LINE
5
1F4
100
AcDbEntity
8
1
62
256
6
ByLayer
370
18
48
1
60
1
100
AcDbLine
10
-24.680002
20
-43.115715
30
0
11
-24.679998
21
-44.037282
31
0
39
0
210
0
220
0
230
1
0
LINE
5
1F5
100
AcDbEntity
8
1
62
256
6
ByLayer
370
18
48
1
60
1
100
AcDbLine
10
-24.679998
20
-44.037282
30
0
11
-28.18
21
-43.576498
31
0
39
0
210
0
220
0
230
1
0
LINE
5
1F7
100
AcDbEntity
8
1
62
256
6
ByLayer
370
18
48
1
60
1
100
AcDbLine
10
81.82
20
-43.576498
30
0
11
78.320002
21
-44.037282
31
0
39
0
210
0
220
0
230
1
0
LINE
5
1F8
100
AcDbEntity
8
1
62
256
6
ByLayer
370
18
48
1
60
1
100
AcDbLine
10
78.320002
20
-44.037282
30
0
11
78.319998
21
-43.115715
31
0
39
0
210
0
220
0
230
1
0
LINE
5
1F9
100
AcDbEntity
8
1
62
256
6
ByLayer
370
18
48
1
60
1
100
AcDbLine
10
78.319998
20
-43.115715
30
0
11
81.82
21
-43.576498
31
0
39
0
210
0
220
0
230
1
0
MTEXT
5
1E6
100
AcDbEntity
8
SK2
62
256
6
ByLayer
370
18
48
1
60
0
100
AcDbMText
10
12.780106
20
10.319438
30
0
210
0
220
0
230
1
1
%%c
40
3
41
0
44
1.084337
50
90
71
7
72
5
7
iso_b_vert
0
MTEXT
5
1E9
100
AcDbEntity
8
SK2
62
256
6
ByLayer
370
18
48
1
60
0
100
AcDbMText
10
12.780106
20
16.296
30
0
210
0
220
0
230
1
1
\W0.7468;9.322
40
3
41
0
44
1.084337
50
90
71
7
72
5
7
iso_b_vert
0
MTEXT
5
1F2
100
AcDbEntity
8
2
62
256
6
ByLayer
370
18
48
1
60
0
100
AcDbMText
10
24.816143
20
-42.691384
30
0
210
0
220
0
230
1
1
\W0.5296;110
40
3
41
0
44
1.084337
50
0
71
7
72
5
7
iso_b_vert
0
MTEXT
5
1FB
100
AcDbEntity
8
SK6
62
256
6
ByLayer
370
18
48
1
60
0
100
AcDbMText
10
10.266391
20
-82.114886
30
0
210
0
220
0
230
1
1
\W0.7233;T300-XM101AA-M12    C110
40
3
41
0
44
1.084337
50
0
71
7
72
5
7
iso_b_vert
0
HATCH
5
1ED
100
AcDbEntity
8
SK2
62
256
6
ByLayer
370
13
48
1
60
0
100
AcDbHatch
10
0
20
0
30
0
210
0
220
0
230
1
2
ANSI31
70
0
71
0
91
1
92
5
93
3
72
1
10
14.12122
20
4.66100000000006
11
14.5820037415528
21
1.16100169255324
72
1
10
14.5820037415528
20
1.16100169255324
11
13.6604362584472
21
1.16099830744687
72
1
10
13.6604362584472
20
1.16099830744687
11
14.12122
21
4.66100000000006
97
0
75
0
76
1
52
0
41
0.0062
77
0
78
1
53
45
43
0
44
0
45
-0.0139193969876572
46
0.0139193969876572
79
0
47
0
98
1
10
0
20
0
0
HATCH
5
1F1
100
AcDbEntity
8
SK2
62
256
6
ByLayer
370
13
48
1
60
0
100
AcDbHatch
10
0
20
0
30
0
210
0
220
0
230
1
2
ANSI31
70
0
71
0
91
1
92
5
93
3
72
1
10
14.12122
20
-4.66099999999997
11
13.6604362584472
21
-1.16100169255316
72
1
10
13.6604362584472
20
-1.16100169255316
11
14.5820037415528
21
-1.16099830744679
72
1
10
14.5820037415528
20
-1.16099830744679
11
14.12122
21
-4.66099999999997
97
0
75
0
76
1
52
0
41
0.0062
77
0
78
1
53
45
43
0
44
0
45
-0.0139193969876572
46
0.0139193969876572
79
0
47
0
98
1
10
0
20
0
0
HATCH
5
1F6
100
AcDbEntity
8
2
62
256
6
ByLayer
370
13
48
1
60
0
100
AcDbHatch
10
0
20
0
30
0
210
0
220
0
230
1
2
ANSI31
70
0
71
0
91
1
92
5
93
3
72
1
10
-28.18
20
-43.5764982892659
11
-24.6800016925532
21
-43.1157145477132
72
1
10
-24.6800016925532
20
-43.1157145477132
11
-24.6799983074468
21
-44.0372820308187
72
1
10
-24.6799983074468
20
-44.0372820308187
11
-28.18
21
-43.5764982892659
97
0
75
0
76
1
52
0
41
0.0062
77
0
78
1
53
45
43
0
44
0
45
-0.0139193969876572
46
0.0139193969876572
79
0
47
0
98
1
10
0
20
0
0
HATCH
5
1FA
100
AcDbEntity
8
2
62
256
6
ByLayer
370
13
48
1
60
0
100
AcDbHatch
10
0
20
0
30
0
210
0
220
0
230
1
2
ANSI31
70
0
71
0
91
1
92
5
93
3
72
1
10
81.82
20
-43.5764982892659
11
78.3200016925532
21
-44.0372820308187
72
1
10
78.3200016925532
20
-44.0372820308187
11
78.3199983074468
21
-43.1157145477132
72
1
10
78.3199983074468
20
-43.1157145477132
11
81.82
21
-43.5764982892659
97
0
75
0
76
1
52
0
41
0.0062
77
0
78
1
53
45
43
0
44
0
45
-0.0139193969876572
46
0.0139193969876572
79
0
47
0
98
1
10
0
20
0
0
DIMENSION
5
1FE
100
AcDbEntity
8
2
62
256
6
ByLayer
370
18
48
1
60
0
100
AcDbDimension
2
_U0
10
101.32
20
-6.076498
30
0
11
101.32
21
24.790784
31
0
70
32
71
1
72
1
41
1
210
0
220
0
230
1
3
Standard
100
AcDbAlignedDimension
13
81.82
23
6.076498
33
0
14
81.82
24
-6.076498
34
0
50
90
100
AcDbRotatedDimension
1001
ACAD
1000
DSTYLE
1002
{
1070
   371
1070
    13
1070
   372
1070
    13
1070
     3
1000

1070
   170
1070
     0
1070
   144
1040
1.0
1070
   277
1070
     2
1070
   284
1070
     8
1070
   278
1070
    46
1070
   146
1040
1.166667
1070
   345
1005
16
1070
   347
1005
16
1070
   346
1005
16
1070
   344
1005
0
1070
   343
1005
0
1070
   172
1070
     1
1070
    76
1070
     0
1070
    75
1070
     0
1070
   282
1070
     0
1070
   281
1070
     0
1070
    71
1070
     0
1070
    74
1070
     0
1070
   279
1070
     0
1070
   173
1070
     1
1070
   340
1005
1E7
1070
   271
1070
     3
1070
   272
1070
     3
1070
    77
1070
     1
1070
    73
1070
     0
1070
   171
1070
     3
1070
   274
1070
     4
1070
   177
1070
     2
1070
   176
1070
     2
1070
   178
1070
     2
1070
    78
1070
     8
1070
    48
1040
-0.1
1070
    41
1040
3.5
1070
   147
1040
1.5
1070
    42
1040
1.5875
1070
    44
1040
2.0
1070
   140
1040
3.0
1002
}
1001
ACAD_DSTYLE_DIM_LINETYPE
1070
   380
1005
16
1001
ACAD_DSTYLE_DIM_EXT1_LINETYPE
1070
   381
1005
16
1001
ACAD_DSTYLE_DIM_EXT2_LINETYPE
1070
   382
1005
16
0
DIMENSION
5
219
100
AcDbEntity
8
SK2
62
256
6
ByLayer
370
18
48
1
60
0
100
AcDbDimension
2
_U1
10
77.01
20
15.061121
30
0
11
79.415
21
15.061121
31
0
70
32
71
1
72
1
41
1
210
0
220
0
230
1
3
Standard
100
AcDbAlignedDimension
13
81.82
23
6.076498
33
0
14
77.01
24
0
34
0
50
0
100
AcDbRotatedDimension
1001
ACAD
1000
DSTYLE
1002
{
1070
   371
1070
    13
1070
   372
1070
    13
1070
   170
1070
     0
1070
   144
1040
1.0
1070
   277
1070
     2
1070
   284
1070
     8
1070
   278
1070
    46
1070
   146
1040
1.166667
1070
   345
1005
16
1070
   347
1005
16
1070
   346
1005
16
1070
   344
1005
0
1070
   343
1005
0
1070
   172
1070
     1
1070
    76
1070
     0
1070
    75
1070
     0
1070
   282
1070
     0
1070
   281
1070
     0
1070
    71
1070
     0
1070
    74
1070
     0
1070
   279
1070
     0
1070
   173
1070
     1
1070
   340
1005
1E7
1070
   271
1070
     3
1070
   272
1070
     3
1070
    77
1070
     1
1070
    73
1070
     1
1070
   171
1070
     3
1070
   274
1070
     4
1070
   177
1070
     2
1070
   176
1070
     2
1070
   178
1070
     2
1070
    78
1070
     8
1070
    48
1040
-0.1
1070
    41
1040
3.5
1070
   147
1040
1.5
1070
    42
1040
1.5875
1070
    44
1040
2.0
1070
   140
1040
3.0
1002
}
1001
ACAD_DSTYLE_DIM_LINETYPE
1070
   380
1005
16
1001
ACAD_DSTYLE_DIM_EXT1_LINETYPE
1070
   381
1005
16
1001
ACAD_DSTYLE_DIM_EXT2_LINETYPE
1070
   382
1005
16
0
DIMENSION
5
233
100
AcDbEntity
8
SK2
62
256
6
ByLayer
370
18
48
1
60
0
100
AcDbDimension
2
_U2
10
63.82
20
-13.076498
30
0
11
73.248571
21
-13.076498
31
0
70
32
71
1
72
1
41
1
210
0
220
0
230
1
3
Standard
100
AcDbAlignedDimension
13
81.82
23
-6.076498
33
0
14
63.82
24
-6.076498
34
0
50
0
100
AcDbRotatedDimension
1001
ACAD
1000
DSTYLE
1002
{
1070
   371
1070
    13
1070
   372
1070
    13
1070
   170
1070
     0
1070
   144
1040
1.0
1070
   277
1070
     2
1070
   284
1070
     8
1070
   278
1070
    46
1070
   146
1040
0.833333
1070
   345
1005
16
1070
   347
1005
16
1070
   346
1005
16
1070
   344
1005
0
1070
   343
1005
0
1070
   172
1070
     1
1070
    76
1070
     0
1070
    75
1070
     0
1070
   282
1070
     0
1070
   281
1070
     0
1070
    47
1040
0.5
1070
    72
1070
     0
1070
    71
1070
     1
1070
    74
1070
     0
1070
   279
1070
     0
1070
   173
1070
     1
1070
   340
1005
1E7
1070
   271
1070
     1
1070
   272
1070
     3
1070
    77
1070
     1
1070
    73
1070
     1
1070
   171
1070
     3
1070
   274
1070
     4
1070
   177
1070
     2
1070
   176
1070
     2
1070
   178
1070
     2
1070
    78
1070
     8
1070
    48
1040
0.5
1070
    41
1040
3.5
1070
   147
1040
1.5
1070
    42
1040
1.5875
1070
    44
1040
2.0
1070
   140
1040
3.0
1002
}
1001
ACAD_DSTYLE_DIM_LINETYPE
1070
   380
1005
16
1001
ACAD_DSTYLE_DIM_EXT1_LINETYPE
1070
   381
1005
16
1001
ACAD_DSTYLE_DIM_EXT2_LINETYPE
1070
   382
1005
16
0
DIMENSION
5
24C
100
AcDbEntity
8
SK2
62
256
6
ByLayer
370
18
48
1
60
0
100
AcDbDimension
2
_U3
10
26.82
20
-35.576498
30
0
11
54.32
21
-35.576498
31
0
70
32
71
1
72
1
41
1
210
0
220
0
230
1
3
Standard
100
AcDbAlignedDimension
13
81.82
23
-6.076498
33
0
14
26.82
24
-4.511
34
0
50
0
100
AcDbRotatedDimension
1001
ACAD
1000
DSTYLE
1002
{
1070
   371
1070
    13
1070
   372
1070
    13
1070
   170
1070
     0
1070
   144
1040
1.0
1070
   277
1070
     2
1070
   284
1070
     8
1070
   278
1070
    46
1070
   146
1040
1.166667
1070
   345
1005
16
1070
   347
1005
16
1070
   346
1005
16
1070
   344
1005
0
1070
   343
1005
0
1070
   172
1070
     1
1070
    76
1070
     0
1070
    75
1070
     0
1070
   282
1070
     0
1070
   281
1070
     0
1070
    71
1070
     0
1070
    74
1070
     0
1070
   279
1070
     0
1070
   173
1070
     1
1070
   340
1005
1E7
1070
   271
1070
     1
1070
   272
1070
     3
1070
    77
1070
     1
1070
    73
1070
     1
1070
   171
1070
     3
1070
   274
1070
     4
1070
   177
1070
     2
1070
   176
1070
     2
1070
   178
1070
     2
1070
    78
1070
     8
1070
    48
1040
-0.1
1070
    41
1040
3.5
1070
   147
1040
1.5
1070
    42
1040
1.5875
1070
    44
1040
2.0
1070
   140
1040
3.0
1002
}
1001
ACAD_DSTYLE_DIM_LINETYPE
1070
   380
1005
16
1001
ACAD_DSTYLE_DIM_EXT1_LINETYPE
1070
   381
1005
16
1001
ACAD_DSTYLE_DIM_EXT2_LINETYPE
1070
   382
1005
16
0
DIMENSION
5
264
100
AcDbEntity
8
2
62
256
6
ByLayer
370
18
48
1
60
0
100
AcDbDimension
2
_U4
10
35.07
20
-24.576498
30
0
11
58.445
21
-24.576498
31
0
70
32
71
1
72
1
41
1
210
0
220
0
230
1
3
Standard
100
AcDbAlignedDimension
13
81.82
23
-6.076498
33
0
14
35.07
24
0
34
0
50
0
100
AcDbRotatedDimension
1001
ACAD
1000
DSTYLE
1002
{
1070
   371
1070
    13
1070
   372
1070
    13
1070
   170
1070
     0
1070
   144
1040
1.0
1070
   277
1070
     2
1070
   284
1070
     8
1070
   278
1070
    46
1070
   146
1040
1.166667
1070
   345
1005
16
1070
   347
1005
16
1070
   346
1005
16
1070
   344
1005
0
1070
   343
1005
0
1070
   172
1070
     1
1070
    76
1070
     0
1070
    75
1070
     0
1070
   282
1070
     0
1070
   281
1070
     0
1070
    71
1070
     0
1070
    74
1070
     0
1070
   279
1070
     0
1070
   173
1070
     1
1070
   340
1005
1E7
1070
   271
1070
     1
1070
   272
1070
     3
1070
    77
1070
     1
1070
    73
1070
     1
1070
   171
1070
     3
1070
   274
1070
     4
1070
   177
1070
     2
1070
   176
1070
     2
1070
   178
1070
     2
1070
    78
1070
     8
1070
    48
1040
-0.1
1070
    41
1040
3.5
1070
   147
1040
1.5
1070
    42
1040
1.5875
1070
    44
1040
2.0
1070
   140
1040
3.0
1002
}
1001
ACAD_DSTYLE_DIM_LINETYPE
1070
   380
1005
16
1001
ACAD_DSTYLE_DIM_EXT1_LINETYPE
1070
   381
1005
16
1001
ACAD_DSTYLE_DIM_EXT2_LINETYPE
1070
   382
1005
16
0
ENDSEC
0
SECTION
2
OBJECTS
0
DICTIONARY
5
2ec
330
0
100
AcDbDictionary
280
0
281
1
3
ACAD_GROUP
350
2ed
3
ACAD_MLINESTYLE
350
2ee
0
DICTIONARY
5
2ed
330
0
100
AcDbDictionary
280
0
281
1
0
DICTIONARY
5
2ee
330
0
100
AcDbDictionary
280
0
281
1
3
Standard
350
18
0
MLINESTYLE
5
18
330
2ee
100
AcDbMlineStyle
2
Standard
70
0
3

62
256
51
90
52
90
71
2
49
-0.5
62
256
6
ByLayer
49
0.5
62
256
6
ByLayer
0
RASTERVARIABLES
5
2da
330

100
AcDbRasterVariables
90
0
70
1
71
1
72
1
0
ENDSEC
0
EOF
