0
SECTION
2
HEADER
9
$ACADVER
1
AC1015
9
$DWGCODEPAGE
3
ANSI_1252
9
$HANDSEED
5
33b
9
$ANGBASE
50
0
9
$ANGDIR
70
0
9
$ATTMODE
70
1
9
$AUNITS
70
0
9
$AUPREC
70
0
9
$CECOLOR
62
256
9
$CELTSCALE
40
1
9
$CELTYPE
6
ByLayer
9
$CELWEIGHT
370
18
9
$CLAYER
8
0
9
$CMLJUST
70
0
9
$CMLSCALE
40
1
9
$CMLSTYLE
2
Standard
9
$DIMSTYLE
2
Standard
9
$TEXTSIZE
40
0.2
9
$TEXTSTYLE
7
Standard
9
$LUNITS
70
2
9
$LUPREC
70
4
9
$EXTNAMES
290
1
9
$INSUNITS
70
4
9
$LTSCALE
40
1
9
$LWDISPLAY
290
1
9
$PDMODE
70
0
9
$PDSIZE
40
0
9
$PLINEGEN
70
0
0
ENDSEC
0
SECTION
2
CLASSES
0
CLASS
1
RASTERVARIABLES
2
AcDbRasterVariables
3
ISM
90
0
280
0
281
0
0
ENDSEC
0
SECTION
2
TABLES
0
TABLE
2
VPORT
5
331
100
AcDbSymbolTable
0
VPORT
5
1
100
AcDbSymbolTableRecord
100
AcDbViewportTableRecord
2
*Active
70
0
10
0
20
0
11
1
21
1
12
-1
22
1
13
0
23
0
14
0.5
24
0.5
15
10
25
10
16
0
26
0
36
1
17
0
27
0
37
0
0
ENDTAB
0
TABLE
2
LTYPE
5
332
100
AcDbSymbolTable
0
LTYPE
5
14
100
AcDbSymbolTableRecord
100
AcDbLinetypeTableRecord
70
0
2
ByBlock
3

72
65
73
0
40
0
0
LTYPE
5
15
100
AcDbSymbolTableRecord
100
AcDbLinetypeTableRecord
70
0
2
ByLayer
3

72
65
73
0
40
0
0
LTYPE
5
16
100
AcDbSymbolTableRecord
100
AcDbLinetypeTableRecord
70
0
2
Continuous
3
Solid line
72
65
73
0
40
0
0
LTYPE
5
6E
100
AcDbSymbolTableRecord
100
AcDbLinetypeTableRecord
70
0
2
CENTER
3
____ _ ____ _ ____ _ ____
72
65
73
4
40
47.5
49
22
74
0
49
-8.5
74
0
49
8.5
74
0
49
-8.5
74
0
0
LTYPE
5
6F
100
AcDbSymbolTableRecord
100
AcDbLinetypeTableRecord
70
0
2
DASHED
3
__ __ __ __ __ __ __ __ __
72
65
73
2
40
25.72
49
12.86
74
0
49
-12.86
74
0
0
ENDTAB
0
TABLE
2
LAYER
5
333
100
AcDbSymbolTable
0
LAYER
5
10
100
AcDbSymbolTableRecord
100
AcDbLayerTableRecord
2
0
70
0
62
7
6
Continuous
290
1
370
-3
390
0
0
LAYER
5
71
100
AcDbSymbolTableRecord
100
AcDbLayerTableRecord
2
80
70
0
62
-6
6
Continuous
290
1
370
-3
390
0
0
LAYER
5
73
100
AcDbSymbolTableRecord
100
AcDbLayerTableRecord
2
81
70
0
62
-3
6
Continuous
290
1
370
-3
390
0
0
LAYER
5
75
100
AcDbSymbolTableRecord
100
AcDbLayerTableRecord
2
1
70
0
62
4
6
Continuous
290
1
370
-3
390
0
0
LAYER
5
82
100
AcDbSymbolTableRecord
100
AcDbLayerTableRecord
2
4
70
0
62
-2
6
CENTER
290
1
370
-3
390
0
0
LAYER
5
D0
100
AcDbSymbolTableRecord
100
AcDbLayerTableRecord
2
2
70
0
62
7
6
Continuous
290
1
370
-3
390
0
0
LAYER
5
241
100
AcDbSymbolTableRecord
100
AcDbLayerTableRecord
2
Defpoints
70
0
62
7
6
Continuous
290
0
370
-3
390
0
0
LAYER
5
31d
100
AcDbSymbolTableRecord
100
AcDbLayerTableRecord
2
SK4
70
0
62
2
6
CENTER
290
1
370
-3
390
0
0
LAYER
5
31e
100
AcDbSymbolTableRecord
100
AcDbLayerTableRecord
2
SK1
70
0
62
4
6
Continuous
290
1
370
-3
390
0
0
LAYER
5
31f
100
AcDbSymbolTableRecord
100
AcDbLayerTableRecord
2
SK2
70
0
62
7
6
Continuous
290
1
370
-3
390
0
0
LAYER
5
320
100
AcDbSymbolTableRecord
100
AcDbLayerTableRecord
2
SK6
70
0
62
5
6
Continuous
290
1
370
-3
390
0
0
ENDTAB
0
TABLE
2
STYLE
5
334
100
AcDbSymbolTable
0
STYLE
5
11
100
AcDbSymbolTableRecord
100
AcDbTextStyleTableRecord
2
Standard
3
txt
70
0
71
0
40
0
41
1
42
0
50
0
0
STYLE
5
227
100
AcDbSymbolTableRecord
100
AcDbTextStyleTableRecord
2
iso_b_vert
3
simplex.shx
70
0
71
0
40
0
41
1
42
0
50
0
0
STYLE
5
228
100
AcDbSymbolTableRecord
100
AcDbTextStyleTableRecord
2
DWGDirectTextStyle
3
simplex
70
0
71
0
40
0
41
1
42
0
50
0
0
ENDTAB
0
TABLE
2
DIMSTYLE
5
335
100
AcDbSymbolTable
100
AcDbDimStyleTable
0
DIMSTYLE
105
27
100
AcDbSymbolTableRecord
100
AcDbDimStyleTableRecord
2
Standard
70
0
3
<>
41
0.18
42
0.0625
44
0.18
140
0.18
147
0.09
73
0
74
0
77
1
271
2
275
0
278
52
280
0
340
11
0
ENDTAB
0
TABLE
2
VIEW
5
336
100
AcDbSymbolTable
0
ENDTAB
0
TABLE
2
UCS
5
337
100
AcDbSymbolTable
0
ENDTAB
0
TABLE
2
APPID
5
338
100
AcDbSymbolTable
0
APPID
5
12
100
AcDbSymbolTableRecord
100
AcDbRegAppTableRecord
2
ACAD
70
0
0
APPID
5
23D
100
AcDbSymbolTableRecord
100
AcDbRegAppTableRecord
2
ACAD_DSTYLE_DIMBREAK
70
0
0
APPID
5
2DC
100
AcDbSymbolTableRecord
100
AcDbRegAppTableRecord
2
ACAD_DSTYLE_DIM_LINETYPE
70
0
0
APPID
5
2DD
100
AcDbSymbolTableRecord
100
AcDbRegAppTableRecord
2
ACAD_DSTYLE_DIM_EXT1_LINETYPE
70
0
0
APPID
5
2DE
100
AcDbSymbolTableRecord
100
AcDbRegAppTableRecord
2
ACAD_DSTYLE_DIM_EXT2_LINETYPE
70
0
0
APPID
5
319
100
AcDbSymbolTableRecord
100
AcDbRegAppTableRecord
2
ACAD_MLEADERVER
70
0
0
ENDTAB
0
TABLE
2
BLOCK_RECORD
5
339
100
AcDbSymbolTable
0
BLOCK_RECORD
5
1F
100
AcDbSymbolTableRecord
100
AcDbBlockTableRecord
2
*Model_Space
340
0
70
0
0
BLOCK_RECORD
5
1B
100
AcDbSymbolTableRecord
100
AcDbBlockTableRecord
2
*Paper_Space
340
0
70
0
0
BLOCK_RECORD
5
23
100
AcDbSymbolTableRecord
100
AcDbBlockTableRecord
2
*Paper_Space0
340
0
70
0
0
BLOCK_RECORD
5
242
100
AcDbSymbolTableRecord
100
AcDbBlockTableRecord
2
*D1
340
0
70
0
0
BLOCK_RECORD
5
250
100
AcDbSymbolTableRecord
100
AcDbBlockTableRecord
2
_U0
340
0
70
0
0
BLOCK_RECORD
5
25C
100
AcDbSymbolTableRecord
100
AcDbBlockTableRecord
2
*D3
340
0
70
0
0
BLOCK_RECORD
5
269
100
AcDbSymbolTableRecord
100
AcDbBlockTableRecord
2
_U1
340
0
70
0
0
BLOCK_RECORD
5
276
100
AcDbSymbolTableRecord
100
AcDbBlockTableRecord
2
*D5
340
0
70
0
0
BLOCK_RECORD
5
284
100
AcDbSymbolTableRecord
100
AcDbBlockTableRecord
2
_U2
340
0
70
0
0
BLOCK_RECORD
5
291
100
AcDbSymbolTableRecord
100
AcDbBlockTableRecord
2
*D7
340
0
70
0
0
BLOCK_RECORD
5
29D
100
AcDbSymbolTableRecord
100
AcDbBlockTableRecord
2
_U3
340
0
70
0
0
BLOCK_RECORD
5
2A9
100
AcDbSymbolTableRecord
100
AcDbBlockTableRecord
2
*D9
340
0
70
0
0
BLOCK_RECORD
5
2B5
100
AcDbSymbolTableRecord
100
AcDbBlockTableRecord
2
_U4
340
0
70
0
0
ENDTAB
0
ENDSEC
0
SECTION
2
BLOCKS
0
BLOCK
5
20
100
AcDbEntity
8
0
100
AcDbBlockBegin
2
*Model_Space
70
0
10
0
20
0
30
0
3
*Model_Space
0
ENDBLK
5
21
100
AcDbEntity
8
0
100
AcDbBlockEnd
0
BLOCK
5
1C
100
AcDbEntity
8
0
100
AcDbBlockBegin
2
*Paper_Space
70
0
10
0
20
0
30
0
3
*Paper_Space
0
ENDBLK
5
1D
100
AcDbEntity
8
0
100
AcDbBlockEnd
0
BLOCK
5
24
100
AcDbEntity
8
0
100
AcDbBlockBegin
2
*Paper_Space0
70
0
10
0
20
0
30
0
3
*Paper_Space0
0
ENDBLK
5
25
100
AcDbEntity
8
0
100
AcDbBlockEnd
0
BLOCK
5
243
100
AcDbEntity
8
0
100
AcDbBlockBegin
2
*D1
70
1
10
0
20
0
30
0
3
*D1
0
LINE
5
245
100
AcDbEntity
8
0
62
256
6
ByLayer
370
-2
48
1
60
0
100
AcDbLine
10
67.5875
20
4.01978
30
0
11
87.5
21
4.01978
31
0
39
0
210
0
220
0
230
1
0
LINE
5
246
100
AcDbEntity
8
0
62
256
6
ByLayer
370
-2
48
1
60
0
100
AcDbLine
10
67.5875
20
-4.01978
30
0
11
87.5
21
-4.01978
31
0
39
0
210
0
220
0
230
1
0
LINE
5
247
100
AcDbEntity
8
0
62
256
6
ByLayer
370
-2
48
1
60
0
100
AcDbLine
10
85.5
20
4.01978
30
0
11
85.5
21
35.260149
31
0
39
0
210
0
220
0
230
1
0
LINE
5
248
100
AcDbEntity
8
0
62
256
6
ByLayer
370
-2
48
1
60
0
100
AcDbLine
10
85.5
20
7.51978
30
0
11
85.5
21
11.01978
31
0
39
0
210
0
220
0
230
1
0
LINE
5
249
100
AcDbEntity
8
0
62
256
6
ByLayer
370
-2
48
1
60
0
100
AcDbLine
10
85.5
20
-7.51978
30
0
11
85.5
21
-11.01978
31
0
39
0
210
0
220
0
230
1
0
SOLID
5
24A
100
AcDbEntity
8
0
62
256
6
ByLayer
370
-1
48
1
60
0
100
AcDbTrace
10
84.916667
20
7.51978
30
0
11
86.083333
21
7.51978
31
0
12
85.5
22
4.01978
32
0
13
85.5
23
4.01978
33
0
39
0
210
0
220
0
230
1
0
SOLID
5
24B
100
AcDbEntity
8
0
62
256
6
ByLayer
370
-1
48
1
60
0
100
AcDbTrace
10
86.083333
20
-7.51978
30
0
11
84.916667
21
-7.51978
31
0
12
85.5
22
-4.01978
32
0
13
85.5
23
-4.01978
33
0
39
0
210
0
220
0
230
1
0
MTEXT
5
24C
100
AcDbEntity
8
0
62
256
6
ByLayer
370
18
48
1
60
0
100
AcDbMText
10
79.5
20
26.117292
30
0
210
0
220
0
230
1
1
\A1;8.04
40
3
41
0
44
1
50
90
71
5
72
5
7
iso_b_vert
0
POINT
5
24D
100
AcDbEntity
8
Defpoints
62
0
6
ByLayer
370
-1
48
1
60
0
100
AcDbPoint
10
66
20
4.01978
30
0
39
0
210
0
220
0
230
1
50
360
0
POINT
5
24E
100
AcDbEntity
8
Defpoints
62
0
6
ByLayer
370
-1
48
1
60
0
100
AcDbPoint
10
66
20
-4.01978
30
0
39
0
210
0
220
0
230
1
50
360
0
POINT
5
24F
100
AcDbEntity
8
Defpoints
62
0
6
ByLayer
370
-1
48
1
60
0
100
AcDbPoint
10
85.5
20
-4.01978
30
0
39
0
210
0
220
0
230
1
50
360
0
ENDBLK
5
244
100
AcDbEntity
8
0
100
AcDbBlockEnd
0
BLOCK
5
257
100
AcDbEntity
8
0
100
AcDbBlockBegin
2
_U0
70
0
10
0
20
0
30
0
3
_U0
0
MTEXT
5
251
100
AcDbEntity
8
2
62
256
6
ByLayer
370
18
48
1
60
0
100
AcDbMText
10
84.908886
20
14.15478
30
0
210
0
220
0
230
1
1
\W0.7394;UNF 5/16-24
40
3
41
0
44
1.084337
50
90
71
7
72
5
7
iso_b_vert
0
LINE
5
252
100
AcDbEntity
8
2
62
256
6
ByLayer
370
13
48
1
60
0
100
AcDbLine
10
67.5875
20
4.01978
30
0
11
87.5
21
4.01978
31
0
39
0
210
0
220
0
230
1
0
LINE
5
253
100
AcDbEntity
8
2
62
256
6
ByLayer
370
13
48
1
60
0
100
AcDbLine
10
67.5875
20
-4.01978
30
0
11
87.5
21
-4.01978
31
0
39
0
210
0
220
0
230
1
0
LINE
5
254
100
AcDbEntity
8
2
62
256
6
ByLayer
370
13
48
1
60
0
100
AcDbLine
10
85.5
20
-4.01978
30
0
11
85.5
21
38.214805
31
0
39
0
210
0
220
0
230
1
0
SOLID
5
255
100
AcDbEntity
8
2
62
256
6
ByLayer
370
18
48
1
60
0
100
AcDbTrace
10
85.5
20
4.01978
30
0
11
85.960784
21
0.519781
31
0
12
85.039216
22
0.519778
32
0
13
85.039216
23
0.519778
33
0
39
0
210
0
220
0
230
1
0
SOLID
5
256
100
AcDbEntity
8
2
62
256
6
ByLayer
370
18
48
1
60
0
100
AcDbTrace
10
85.5
20
-4.01978
30
0
11
85.039216
21
-0.519781
31
0
12
85.960784
22
-0.519778
32
0
13
85.960784
23
-0.519778
33
0
39
0
210
0
220
0
230
1
0
ENDBLK
5
258
100
AcDbEntity
8
0
100
AcDbBlockEnd
0
BLOCK
5
25D
100
AcDbEntity
8
0
100
AcDbBlockBegin
2
*D3
70
1
10
0
20
0
30
0
3
*D3
0
LINE
5
25F
100
AcDbEntity
8
0
62
256
6
ByLayer
370
-2
48
1
60
0
100
AcDbLine
10
66
20
5.60728
30
0
11
66
21
15.169191
31
0
39
0
210
0
220
0
230
1
0
LINE
5
260
100
AcDbEntity
8
0
62
256
6
ByLayer
370
-2
48
1
60
0
100
AcDbLine
10
63.09
20
1.5875
30
0
11
63.09
21
15.169191
31
0
39
0
210
0
220
0
230
1
0
LINE
5
261
100
AcDbEntity
8
0
62
256
6
ByLayer
370
-2
48
1
60
0
100
AcDbLine
10
69.5
20
13.169191
30
0
11
73
21
13.169191
31
0
39
0
210
0
220
0
230
1
0
LINE
5
262
100
AcDbEntity
8
0
62
256
6
ByLayer
370
-2
48
1
60
0
100
AcDbLine
10
59.59
20
13.169191
30
0
11
56.09
21
13.169191
31
0
39
0
210
0
220
0
230
1
0
SOLID
5
263
100
AcDbEntity
8
0
62
256
6
ByLayer
370
-1
48
1
60
0
100
AcDbTrace
10
69.5
20
13.752524
30
0
11
69.5
21
12.585858
31
0
12
66
22
13.169191
32
0
13
66
23
13.169191
33
0
39
0
210
0
220
0
230
1
0
SOLID
5
264
100
AcDbEntity
8
0
62
256
6
ByLayer
370
-1
48
1
60
0
100
AcDbTrace
10
59.59
20
12.585858
30
0
11
59.59
21
13.752524
31
0
12
63.09
22
13.169191
32
0
13
63.09
23
13.169191
33
0
39
0
210
0
220
0
230
1
0
MTEXT
5
265
100
AcDbEntity
8
0
62
256
6
ByLayer
370
18
48
1
60
0
100
AcDbMText
10
64.545
20
19.169191
30
0
210
0
220
0
230
1
1
\A1;2.91
40
3
41
0
44
1
50
0
71
5
72
5
7
iso_b_vert
0
POINT
5
266
100
AcDbEntity
8
Defpoints
62
0
6
ByLayer
370
-1
48
1
60
0
100
AcDbPoint
10
66
20
4.01978
30
0
39
0
210
0
220
0
230
1
50
360
0
POINT
5
267
100
AcDbEntity
8
Defpoints
62
0
6
ByLayer
370
-1
48
1
60
0
100
AcDbPoint
10
63.09
20
0
30
0
39
0
210
0
220
0
230
1
50
360
0
POINT
5
268
100
AcDbEntity
8
Defpoints
62
0
6
ByLayer
370
-1
48
1
60
0
100
AcDbPoint
10
63.09
20
13.169191
30
0
39
0
210
0
220
0
230
1
50
360
0
ENDBLK
5
25E
100
AcDbEntity
8
0
100
AcDbBlockEnd
0
BLOCK
5
271
100
AcDbEntity
8
0
100
AcDbBlockBegin
2
_U1
70
0
10
0
20
0
30
0
3
_U1
0
MTEXT
5
26A
100
AcDbEntity
8
SK2
62
256
6
ByLayer
370
18
48
1
60
0
100
AcDbMText
10
61.584986
20
13.951824
30
0
210
0
220
0
230
1
1
\W0.6474;'C'
40
3.5
41
0
44
1.084337
50
0
71
7
72
5
7
iso_b_vert
0
MTEXT
5
26B
100
AcDbEntity
8
SK2
62
256
6
ByLayer
370
18
48
1
60
0
100
AcDbMText
10
61.558486
20
21.054305
30
0
210
0
220
0
230
1
1
\W0.7208;2.91
40
3
41
0
44
1.084337
50
0
71
7
72
5
7
iso_b_vert
0
LINE
5
26C
100
AcDbEntity
8
SK2
62
256
6
ByLayer
370
13
48
1
60
0
100
AcDbLine
10
66
20
5.60728
30
0
11
66
21
15.169191
31
0
39
0
210
0
220
0
230
1
0
LINE
5
26D
100
AcDbEntity
8
SK2
62
256
6
ByLayer
370
13
48
1
60
0
100
AcDbLine
10
63.09
20
1.5875
30
0
11
63.09
21
15.169191
31
0
39
0
210
0
220
0
230
1
0
LINE
5
26E
100
AcDbEntity
8
SK2
62
256
6
ByLayer
370
13
48
1
60
0
100
AcDbLine
10
73.5
20
13.169191
30
0
11
55.59
21
13.169191
31
0
39
0
210
0
220
0
230
1
0
SOLID
5
26F
100
AcDbEntity
8
SK2
62
256
6
ByLayer
370
18
48
1
60
0
100
AcDbTrace
10
66
20
13.169191
30
0
11
69.499998
21
13.629975
31
0
12
69.500002
22
12.708407
32
0
13
69.500002
23
12.708407
33
0
39
0
210
0
220
0
230
1
0
SOLID
5
270
100
AcDbEntity
8
SK2
62
256
6
ByLayer
370
18
48
1
60
0
100
AcDbTrace
10
63.09
20
13.169191
30
0
11
59.590002
21
12.708407
31
0
12
59.589998
22
13.629975
32
0
13
59.589998
23
13.629975
33
0
39
0
210
0
220
0
230
1
0
ENDBLK
5
272
100
AcDbEntity
8
0
100
AcDbBlockEnd
0
BLOCK
5
277
100
AcDbEntity
8
0
100
AcDbBlockBegin
2
*D5
70
1
10
0
20
0
30
0
3
*D5
0
LINE
5
279
100
AcDbEntity
8
0
62
256
6
ByLayer
370
-2
48
1
60
0
100
AcDbLine
10
66
20
-5.60728
30
0
11
66
21
-13.01978
31
0
39
0
210
0
220
0
230
1
0
LINE
5
27A
100
AcDbEntity
8
0
62
256
6
ByLayer
370
-2
48
1
60
0
100
AcDbLine
10
54
20
-5.60728
30
0
11
54
21
-13.01978
31
0
39
0
210
0
220
0
230
1
0
LINE
5
27B
100
AcDbEntity
8
0
62
256
6
ByLayer
370
-2
48
1
60
0
100
AcDbLine
10
66
20
-11.01978
30
0
11
86.428571
21
-11.01978
31
0
39
0
210
0
220
0
230
1
0
LINE
5
27C
100
AcDbEntity
8
0
62
256
6
ByLayer
370
-2
48
1
60
0
100
AcDbLine
10
69.5
20
-11.01978
30
0
11
73
21
-11.01978
31
0
39
0
210
0
220
0
230
1
0
LINE
5
27D
100
AcDbEntity
8
0
62
256
6
ByLayer
370
-2
48
1
60
0
100
AcDbLine
10
50.5
20
-11.01978
30
0
11
47
21
-11.01978
31
0
39
0
210
0
220
0
230
1
0
SOLID
5
27E
100
AcDbEntity
8
0
62
256
6
ByLayer
370
-1
48
1
60
0
100
AcDbTrace
10
69.5
20
-10.436446
30
0
11
69.5
21
-11.603113
31
0
12
66
22
-11.01978
32
0
13
66
23
-11.01978
33
0
39
0
210
0
220
0
230
1
0
SOLID
5
27F
100
AcDbEntity
8
0
62
256
6
ByLayer
370
-1
48
1
60
0
100
AcDbTrace
10
50.5
20
-11.603113
30
0
11
50.5
21
-10.436446
31
0
12
54
22
-11.01978
32
0
13
54
23
-11.01978
33
0
39
0
210
0
220
0
230
1
0
MTEXT
5
280
100
AcDbEntity
8
0
62
256
6
ByLayer
370
18
48
1
60
0
100
AcDbMText
10
79.714286
20
-5.01978
30
0
210
0
220
0
230
1
1
\A1;12
40
3
41
0
44
1
50
0
71
5
72
5
7
iso_b_vert
0
POINT
5
281
100
AcDbEntity
8
Defpoints
62
0
6
ByLayer
370
-1
48
1
60
0
100
AcDbPoint
10
66
20
-4.01978
30
0
39
0
210
0
220
0
230
1
50
360
0
POINT
5
282
100
AcDbEntity
8
Defpoints
62
0
6
ByLayer
370
-1
48
1
60
0
100
AcDbPoint
10
54
20
-4.01978
30
0
39
0
210
0
220
0
230
1
50
360
0
POINT
5
283
100
AcDbEntity
8
Defpoints
62
0
6
ByLayer
370
-1
48
1
60
0
100
AcDbPoint
10
54
20
-11.01978
30
0
39
0
210
0
220
0
230
1
50
360
0
ENDBLK
5
278
100
AcDbEntity
8
0
100
AcDbBlockEnd
0
BLOCK
5
28C
100
AcDbEntity
8
0
100
AcDbBlockBegin
2
_U2
70
0
10
0
20
0
30
0
3
_U2
0
MTEXT
5
285
100
AcDbEntity
8
SK2
62
256
6
ByLayer
370
18
48
1
60
0
100
AcDbMText
10
72.159
20
-10.134665
30
0
210
0
220
0
230
1
1
\W0.5321;12
40
3
41
0
44
1.084337
50
0
71
7
72
5
7
iso_b_vert
0
MTEXT
5
286
100
AcDbEntity
8
SK2
62
256
6
ByLayer
370
18
48
1
60
0
100
AcDbMText
10
77.466271
20
-9.782184
30
0
210
0
220
0
230
1
1
\W0.8315;\W0.4158;%%p\W0.8315;0.5
40
2.5
41
0
44
1.084337
50
0
71
7
72
5
7
iso_b_vert
0
LINE
5
287
100
AcDbEntity
8
SK2
62
256
6
ByLayer
370
13
48
1
60
0
100
AcDbLine
10
66
20
-5.60728
30
0
11
66
21
-13.01978
31
0
39
0
210
0
220
0
230
1
0
LINE
5
288
100
AcDbEntity
8
SK2
62
256
6
ByLayer
370
13
48
1
60
0
100
AcDbLine
10
54
20
-5.60728
30
0
11
54
21
-13.01978
31
0
39
0
210
0
220
0
230
1
0
LINE
5
289
100
AcDbEntity
8
SK2
62
256
6
ByLayer
370
13
48
1
60
0
100
AcDbLine
10
54
20
-11.01978
30
0
11
84.583008
21
-11.01978
31
0
39
0
210
0
220
0
230
1
0
SOLID
5
28A
100
AcDbEntity
8
SK2
62
256
6
ByLayer
370
18
48
1
60
0
100
AcDbTrace
10
66
20
-11.01978
30
0
11
62.500002
21
-11.480563
31
0
12
62.499998
22
-10.558996
32
0
13
62.499998
23
-10.558996
33
0
39
0
210
0
220
0
230
1
0
SOLID
5
28B
100
AcDbEntity
8
SK2
62
256
6
ByLayer
370
18
48
1
60
0
100
AcDbTrace
10
54
20
-11.01978
30
0
11
57.499998
21
-10.558996
31
0
12
57.500002
22
-11.480563
32
0
13
57.500002
23
-11.480563
33
0
39
0
210
0
220
0
230
1
0
ENDBLK
5
28D
100
AcDbEntity
8
0
100
AcDbBlockEnd
0
BLOCK
5
292
100
AcDbEntity
8
0
100
AcDbBlockBegin
2
*D7
70
1
10
0
20
0
30
0
3
*D7
0
LINE
5
294
100
AcDbEntity
8
0
62
256
6
ByLayer
370
-2
48
1
60
0
100
AcDbLine
10
66
20
-5.60728
30
0
11
66
21
-35.51978
31
0
39
0
210
0
220
0
230
1
0
LINE
5
295
100
AcDbEntity
8
0
62
256
6
ByLayer
370
-2
48
1
60
0
100
AcDbLine
10
31
20
-4.4125
30
0
11
31
21
-35.51978
31
0
39
0
210
0
220
0
230
1
0
LINE
5
296
100
AcDbEntity
8
0
62
256
6
ByLayer
370
-2
48
1
60
0
100
AcDbLine
10
62.5
20
-33.51978
30
0
11
34.5
21
-33.51978
31
0
39
0
210
0
220
0
230
1
0
SOLID
5
297
100
AcDbEntity
8
0
62
256
6
ByLayer
370
-1
48
1
60
0
100
AcDbTrace
10
62.5
20
-34.103113
30
0
11
62.5
21
-32.936446
31
0
12
66
22
-33.51978
32
0
13
66
23
-33.51978
33
0
39
0
210
0
220
0
230
1
0
SOLID
5
298
100
AcDbEntity
8
0
62
256
6
ByLayer
370
-1
48
1
60
0
100
AcDbTrace
10
34.5
20
-32.936446
30
0
11
34.5
21
-34.103113
31
0
12
31
22
-33.51978
32
0
13
31
23
-33.51978
33
0
39
0
210
0
220
0
230
1
0
MTEXT
5
299
100
AcDbEntity
8
0
62
256
6
ByLayer
370
18
48
1
60
0
100
AcDbMText
10
48.5
20
-27.51978
30
0
210
0
220
0
230
1
1
\A1;35
40
3
41
0
44
1
50
0
71
5
72
5
7
iso_b_vert
0
POINT
5
29A
100
AcDbEntity
8
Defpoints
62
0
6
ByLayer
370
-1
48
1
60
0
100
AcDbPoint
10
66
20
-4.01978
30
0
39
0
210
0
220
0
230
1
50
360
0
POINT
5
29B
100
AcDbEntity
8
Defpoints
62
0
6
ByLayer
370
-1
48
1
60
0
100
AcDbPoint
10
31
20
-2.825
30
0
39
0
210
0
220
0
230
1
50
360
0
POINT
5
29C
100
AcDbEntity
8
Defpoints
62
0
6
ByLayer
370
-1
48
1
60
0
100
AcDbPoint
10
31
20
-33.51978
30
0
39
0
210
0
220
0
230
1
50
360
0
ENDBLK
5
293
100
AcDbEntity
8
0
100
AcDbBlockEnd
0
BLOCK
5
2A4
100
AcDbEntity
8
0
100
AcDbBlockBegin
2
_U3
70
0
10
0
20
0
30
0
3
_U3
0
MTEXT
5
29E
100
AcDbEntity
8
SK2
62
256
6
ByLayer
370
18
48
1
60
0
100
AcDbMText
10
46.867172
20
-32.634665
30
0
210
0
220
0
230
1
1
\W0.6740;35
40
3
41
0
44
1.084337
50
0
71
7
72
5
7
iso_b_vert
0
LINE
5
29F
100
AcDbEntity
8
SK2
62
256
6
ByLayer
370
13
48
1
60
0
100
AcDbLine
10
66
20
-5.60728
30
0
11
66
21
-35.51978
31
0
39
0
210
0
220
0
230
1
0
LINE
5
2A0
100
AcDbEntity
8
SK2
62
256
6
ByLayer
370
13
48
1
60
0
100
AcDbLine
10
31
20
-4.4125
30
0
11
31
21
-35.51978
31
0
39
0
210
0
220
0
230
1
0
LINE
5
2A1
100
AcDbEntity
8
SK2
62
256
6
ByLayer
370
13
48
1
60
0
100
AcDbLine
10
66
20
-33.51978
30
0
11
31
21
-33.51978
31
0
39
0
210
0
220
0
230
1
0
SOLID
5
2A2
100
AcDbEntity
8
SK2
62
256
6
ByLayer
370
18
48
1
60
0
100
AcDbTrace
10
66
20
-33.51978
30
0
11
62.500002
21
-33.980563
31
0
12
62.499998
22
-33.058996
32
0
13
62.499998
23
-33.058996
33
0
39
0
210
0
220
0
230
1
0
SOLID
5
2A3
100
AcDbEntity
8
SK2
62
256
6
ByLayer
370
18
48
1
60
0
100
AcDbTrace
10
31
20
-33.51978
30
0
11
34.499998
21
-33.058996
31
0
12
34.500002
22
-33.980563
32
0
13
34.500002
23
-33.980563
33
0
39
0
210
0
220
0
230
1
0
ENDBLK
5
2A5
100
AcDbEntity
8
0
100
AcDbBlockEnd
0
BLOCK
5
2AA
100
AcDbEntity
8
0
100
AcDbBlockBegin
2
*D9
70
1
10
0
20
0
30
0
3
*D9
0
LINE
5
2AC
100
AcDbEntity
8
0
62
256
6
ByLayer
370
-2
48
1
60
0
100
AcDbLine
10
66
20
-5.60728
30
0
11
66
21
-24.51978
31
0
39
0
210
0
220
0
230
1
0
LINE
5
2AD
100
AcDbEntity
8
0
62
256
6
ByLayer
370
-2
48
1
60
0
100
AcDbLine
10
36.25
20
-1.5875
30
0
11
36.25
21
-24.51978
31
0
39
0
210
0
220
0
230
1
0
LINE
5
2AE
100
AcDbEntity
8
0
62
256
6
ByLayer
370
-2
48
1
60
0
100
AcDbLine
10
62.5
20
-22.51978
30
0
11
39.75
21
-22.51978
31
0
39
0
210
0
220
0
230
1
0
SOLID
5
2AF
100
AcDbEntity
8
0
62
256
6
ByLayer
370
-1
48
1
60
0
100
AcDbTrace
10
62.5
20
-23.103113
30
0
11
62.5
21
-21.936446
31
0
12
66
22
-22.51978
32
0
13
66
23
-22.51978
33
0
39
0
210
0
220
0
230
1
0
SOLID
5
2B0
100
AcDbEntity
8
0
62
256
6
ByLayer
370
-1
48
1
60
0
100
AcDbTrace
10
39.75
20
-21.936446
30
0
11
39.75
21
-23.103113
31
0
12
36.25
22
-22.51978
32
0
13
36.25
23
-22.51978
33
0
39
0
210
0
220
0
230
1
0
MTEXT
5
2B1
100
AcDbEntity
8
0
62
256
6
ByLayer
370
18
48
1
60
0
100
AcDbMText
10
51.125
20
-16.51978
30
0
210
0
220
0
230
1
1
\A1;29.8
40
3
41
0
44
1
50
0
71
5
72
5
7
iso_b_vert
0
POINT
5
2B2
100
AcDbEntity
8
Defpoints
62
0
6
ByLayer
370
-1
48
1
60
0
100
AcDbPoint
10
66
20
-4.01978
30
0
39
0
210
0
220
0
230
1
50
360
0
POINT
5
2B3
100
AcDbEntity
8
Defpoints
62
0
6
ByLayer
370
-1
48
1
60
0
100
AcDbPoint
10
36.25
20
0
30
0
39
0
210
0
220
0
230
1
50
360
0
POINT
5
2B4
100
AcDbEntity
8
Defpoints
62
0
6
ByLayer
370
-1
48
1
60
0
100
AcDbPoint
10
36.25
20
-22.51978
30
0
39
0
210
0
220
0
230
1
50
360
0
ENDBLK
5
2AB
100
AcDbEntity
8
0
100
AcDbBlockEnd
0
BLOCK
5
2BC
100
AcDbEntity
8
0
100
AcDbBlockBegin
2
_U4
70
0
10
0
20
0
30
0
3
_U4
0
MTEXT
5
2B6
100
AcDbEntity
8
2
62
256
6
ByLayer
370
18
48
1
60
0
100
AcDbMText
10
47.763544
20
-21.634665
30
0
210
0
220
0
230
1
1
\W0.7346;29.8
40
3
41
0
44
1.084337
50
0
71
7
72
5
7
iso_b_vert
0
LINE
5
2B7
100
AcDbEntity
8
2
62
256
6
ByLayer
370
13
48
1
60
0
100
AcDbLine
10
66
20
-5.60728
30
0
11
66
21
-24.51978
31
0
39
0
210
0
220
0
230
1
0
LINE
5
2B8
100
AcDbEntity
8
2
62
256
6
ByLayer
370
13
48
1
60
0
100
AcDbLine
10
36.25
20
-1.5875
30
0
11
36.25
21
-24.51978
31
0
39
0
210
0
220
0
230
1
0
LINE
5
2B9
100
AcDbEntity
8
2
62
256
6
ByLayer
370
13
48
1
60
0
100
AcDbLine
10
66
20
-22.51978
30
0
11
36.25
21
-22.51978
31
0
39
0
210
0
220
0
230
1
0
SOLID
5
2BA
100
AcDbEntity
8
2
62
256
6
ByLayer
370
18
48
1
60
0
100
AcDbTrace
10
66
20
-22.51978
30
0
11
62.500002
21
-22.980563
31
0
12
62.499998
22
-22.058996
32
0
13
62.499998
23
-22.058996
33
0
39
0
210
0
220
0
230
1
0
SOLID
5
2BB
100
AcDbEntity
8
2
62
256
6
ByLayer
370
18
48
1
60
0
100
AcDbTrace
10
36.25
20
-22.51978
30
0
11
39.749998
21
-22.058996
31
0
12
39.750002
22
-22.980563
32
0
13
39.750002
23
-22.980563
33
0
39
0
210
0
220
0
230
1
0
ENDBLK
5
2BD
100
AcDbEntity
8
0
100
AcDbBlockEnd
0
ENDSEC
0
SECTION
2
ENTITIES
0
ARC
5
D9
100
AcDbEntity
8
SK1
62
256
6
ByLayer
370
18
48
1
60
0
100
AcDbCircle
39
0
10
-18.1
20
0
30
0
40
3.83999999999988
210
0
220
0
230
1
100
AcDbArc
50
323.832158
51
36.167842
0
ARC
5
DA
100
AcDbEntity
8
1
62
256
6
ByLayer
370
18
48
1
60
0
100
AcDbCircle
39
0
10
51.470712
20
3.725
30
0
40
0.9
210
0
220
0
230
1
100
AcDbArc
50
270
51
278.999099
0
ARC
5
DB
100
AcDbEntity
8
1
62
256
6
ByLayer
370
18
48
1
60
0
100
AcDbCircle
39
0
10
31.096238
20
-3.925
30
0
40
1.1
210
0
220
0
230
1
100
AcDbArc
50
90
51
100
0
ARC
5
DC
100
AcDbEntity
8
1
62
256
6
ByLayer
370
18
48
1
60
0
100
AcDbCircle
39
0
10
31.096238
20
3.925
30
0
40
1.1
210
0
220
0
230
1
100
AcDbArc
50
260
51
270
0
POINT
5
70
100
AcDbEntity
8
80
62
256
6
ByLayer
370
18
48
1
60
0
100
AcDbPoint
10
0
20
0
30
0
39
0
210
0
220
0
230
1
50
360
0
POINT
5
72
100
AcDbEntity
8
81
62
256
6
ByLayer
370
18
48
1
60
0
100
AcDbPoint
10
67.55
20
0
30
0
39
0
210
0
220
0
230
1
50
360
0
POINT
5
74
100
AcDbEntity
8
1
62
256
6
ByLayer
370
18
48
1
60
1
100
AcDbPoint
10
66
20
4.01978
30
0
39
0
210
0
220
0
230
1
50
360
0
POINT
5
76
100
AcDbEntity
8
1
62
256
6
ByLayer
370
18
48
1
60
1
100
AcDbPoint
10
66
20
-4.01978
30
0
39
0
210
0
220
0
230
1
50
360
0
POINT
5
77
100
AcDbEntity
8
1
62
256
6
ByLayer
370
18
48
1
60
1
100
AcDbPoint
10
66
20
4.01978
30
0
39
0
210
0
220
0
230
1
50
360
0
POINT
5
78
100
AcDbEntity
8
1
62
256
6
ByLayer
370
18
48
1
60
1
100
AcDbPoint
10
63.09
20
0
30
0
39
0
210
0
220
0
230
1
50
360
0
POINT
5
79
100
AcDbEntity
8
1
62
256
6
ByLayer
370
18
48
1
60
1
100
AcDbPoint
10
66
20
-4.01978
30
0
39
0
210
0
220
0
230
1
50
360
0
POINT
5
7A
100
AcDbEntity
8
1
62
256
6
ByLayer
370
18
48
1
60
1
100
AcDbPoint
10
54
20
-4.01978
30
0
39
0
210
0
220
0
230
1
50
360
0
POINT
5
7B
100
AcDbEntity
8
1
62
256
6
ByLayer
370
18
48
1
60
1
100
AcDbPoint
10
66
20
-4.01978
30
0
39
0
210
0
220
0
230
1
50
360
0
POINT
5
7C
100
AcDbEntity
8
1
62
256
6
ByLayer
370
18
48
1
60
1
100
AcDbPoint
10
31
20
-2.825
30
0
39
0
210
0
220
0
230
1
50
360
0
POINT
5
7D
100
AcDbEntity
8
1
62
256
6
ByLayer
370
18
48
1
60
1
100
AcDbPoint
10
66
20
-4.01978
30
0
39
0
210
0
220
0
230
1
50
360
0
POINT
5
7E
100
AcDbEntity
8
1
62
256
6
ByLayer
370
18
48
1
60
1
100
AcDbPoint
10
36.25
20
0
30
0
39
0
210
0
220
0
230
1
50
360
0
SPLINE
5
DD
100
AcDbEntity
8
1
62
256
6
ByLayer
370
18
48
1
60
0
100
AcDbSpline
70
4
71
3
72
8
73
4
40
0
40
0
40
0
40
0
40
1
40
1
40
1
40
1
41
1
10
64.6880772288103
20
-3.3753197705357
30
0
41
1
10
64.6836201107029
20
-3.38975422466041
30
0
41
1
10
64.6791629911308
20
-3.40064154989966
30
0
41
1
10
64.6747058709921
20
-3.40797013520901
30
0
0
SPLINE
5
DE
100
AcDbEntity
8
1
62
256
6
ByLayer
370
13
48
1
60
0
100
AcDbSpline
70
4
71
3
72
8
73
4
40
0
40
0
40
0
40
0
40
1
40
1
40
1
40
1
41
1
10
56.2081737714429
20
-3.40837950242607
30
0
41
1
10
56.2105390926075
20
-3.40451272524464
30
0
41
1
10
56.2129044131899
20
-3.39963028769293
30
0
41
1
10
56.2152697333622
20
-3.39374203605666
30
0
0
SPLINE
5
DF
100
AcDbEntity
8
1
62
256
6
ByLayer
370
13
48
1
60
0
100
AcDbSpline
70
4
71
3
72
8
73
4
40
0
40
0
40
0
40
0
40
1
40
1
40
1
40
1
41
1
10
56.970615472663
20
3.39971717516252
30
0
41
1
10
56.9733136823946
20
3.40559265178578
30
0
41
1
10
56.9760118921224
20
3.41016472888828
30
0
41
1
10
56.9787101018676
20
3.41342607837848
30
0
0
SPLINE
5
E0
100
AcDbEntity
8
1
62
256
6
ByLayer
370
13
48
1
60
0
100
AcDbSpline
70
4
71
3
72
8
73
4
40
0
40
0
40
0
40
0
40
1
40
1
40
1
40
1
41
1
10
55.3802402375062
20
-3.39290246080174
30
0
41
1
10
55.382458457034
20
-3.39849899280284
30
0
41
1
10
55.3846766765985
20
-3.40321081941778
30
0
41
1
10
55.3868948961888
20
-3.40703749073995
30
0
0
SPLINE
5
E1
100
AcDbEntity
8
1
62
256
6
ByLayer
370
18
48
1
60
0
100
AcDbSpline
70
4
71
3
72
8
73
4
40
0
40
0
40
0
40
0
40
1
40
1
40
1
40
1
41
1
10
55.3868946374671
20
-3.40703704441273
30
0
41
1
10
55.3893259976897
20
-3.41123148206935
30
0
41
1
10
55.3917573579434
20
-3.41436248949134
30
0
41
1
10
55.3941887182138
20
-3.41642947422193
30
0
0
SPLINE
5
E2
100
AcDbEntity
8
1
62
256
6
ByLayer
370
18
48
1
60
0
100
AcDbSpline
70
4
71
3
72
8
73
4
40
0
40
0
40
0
40
0
40
1
40
1
40
1
40
1
41
1
10
63.8604313917021
20
-3.41612021603947
30
0
41
1
10
63.8580665106384
20
-3.41405677813489
30
0
41
1
10
63.8557016295756
20
-3.41098991630642
30
0
41
1
10
63.8533367485137
20
-3.40692181440878
30
0
0
SPLINE
5
E3
100
AcDbEntity
8
1
62
256
6
ByLayer
370
13
48
1
60
0
100
AcDbSpline
70
4
71
3
72
8
73
4
40
0
40
0
40
0
40
0
40
1
40
1
40
1
40
1
41
1
10
63.8533367485108
20
-3.40692181440377
30
0
41
1
10
63.8512048352965
20
-3.40325446709628
30
0
41
1
10
63.8490729220829
20
-3.39877343039015
30
0
41
1
10
63.8469410088701
20
-3.39348030422789
30
0
0
SPLINE
5
E4
100
AcDbEntity
8
1
62
256
6
ByLayer
370
18
48
1
60
0
100
AcDbSpline
70
4
71
3
72
8
73
4
40
0
40
0
40
0
40
0
40
1
40
1
40
1
40
1
41
1
10
57.7903132741629
20
3.41531605385211
30
0
41
1
10
57.7923356965703
20
3.41329340269229
30
0
41
1
10
57.7943581190042
20
3.41053272839841
30
0
41
1
10
57.7963805414325
20
3.4070374455157
30
0
0
SPLINE
5
E5
100
AcDbEntity
8
1
62
256
6
ByLayer
370
13
48
1
60
0
100
AcDbSpline
70
4
71
3
72
8
73
4
40
0
40
0
40
0
40
0
40
1
40
1
40
1
40
1
41
1
10
57.7963805414326
20
3.40703744551547
30
0
41
1
10
57.7997933491255
20
3.40113920776645
30
0
41
1
10
57.8032061568027
20
3.39314909424516
30
0
41
1
10
57.8066189643111
20
3.38308351284039
30
0
0
SPLINE
5
E6
100
AcDbEntity
8
1
62
256
6
ByLayer
370
13
48
1
60
0
100
AcDbSpline
70
4
71
3
72
8
73
4
40
0
40
0
40
0
40
0
40
1
40
1
40
1
40
1
41
1
10
63.6144475596155
20
-3.41112856514695
30
0
41
1
10
63.5997831198687
20
-3.4317042474425
30
0
41
1
10
63.5851186614958
20
-3.41348075052062
30
0
41
1
10
63.5704542232681
20
-3.35695393959583
30
0
0
SPLINE
5
E7
100
AcDbEntity
8
1
62
256
6
ByLayer
370
13
48
1
60
0
100
AcDbSpline
70
4
71
3
72
9
73
5
40
0
40
0
40
0
40
0
40
0.112448933865337
40
1
40
1
40
1
40
1
41
1
10
55.1037635352447
20
-3.35582681514583
30
0
41
1
10
55.1054291362123
20
-3.36232417407445
30
0
41
1
10
55.1202411975931
20
-3.41571042405272
30
0
41
1
10
55.1350532135589
20
-3.42965016223508
30
0
41
1
10
55.1481996515261
20
-3.41088358533238
30
0
0
SPLINE
5
E8
100
AcDbEntity
8
1
62
256
6
ByLayer
370
18
48
1
60
0
100
AcDbSpline
70
4
71
3
72
15
73
11
40
0
40
0
40
0
40
0
40
0.319203349325777
40
0.319203349325777
40
0.404302930660055
40
0.404302930660055
40
0.489402511994332
40
0.659601674662888
40
0.659601674662888
40
1
40
1
40
1
40
1
41
1
10
63.3236686502391
20
-3.90546883256593
30
0
41
1
10
63.3183975135623
20
-3.90694329517925
30
0
41
1
10
63.3131896649693
20
-3.90258798765541
30
0
41
1
10
63.3066536375898
20
-3.88946943065537
30
0
41
1
10
63.3052794816374
20
-3.8862776484662
30
0
41
1
10
63.3025400300321
20
-3.87904758832147
30
0
41
1
10
63.2984495130009
20
-3.86695002511931
30
0
41
1
10
63.2943990514844
20
-3.85113561842749
30
0
41
1
10
63.2862911852771
20
-3.81464319912871
30
0
41
1
10
63.2808552086167
20
-3.78385639195693
30
0
41
1
10
63.2752498025378
20
-3.74672443343761
30
0
0
SPLINE
5
E9
100
AcDbEntity
8
1
62
256
6
ByLayer
370
18
48
1
60
0
100
AcDbSpline
70
4
71
3
72
16
73
12
40
0
40
0
40
0
40
0
40
0.382922054467046
40
0.382922054467046
40
0.765844108934092
40
0.765844108934092
40
0.861574622550854
40
0.861574622550854
40
0.957305136167617
40
0.957305136167617
40
1
40
1
40
1
40
1
41
1
10
63.0631521740549
20
-3.73292326979455
30
0
41
1
10
63.0689006444902
20
-3.77740296278051
30
0
41
1
10
63.0746684665245
20
-3.81537743999107
30
0
41
1
10
63.0863272089376
20
-3.87859710311025
30
0
41
1
10
63.0921914392311
20
-3.90379964751676
30
0
41
1
10
63.099514504683
20
-3.92695772775358
30
0
41
1
10
63.1009791675863
20
-3.93117136340482
30
0
41
1
10
63.1039089913657
20
-3.93875122671847
30
0
41
1
10
63.1053762081866
20
-3.94212132391212
30
0
41
1
10
63.1074911273727
20
-3.94635759975404
30
0
41
1
10
63.1081422916387
20
-3.94757648067164
30
0
41
1
10
63.1087924023551
20
-3.94870801179013
30
0
0
SPLINE
5
EA
100
AcDbEntity
8
1
62
256
6
ByLayer
370
13
48
1
60
0
100
AcDbSpline
70
4
71
3
72
9
73
5
40
0
40
0
40
0
40
0
40
0.177515763642431
40
1
40
1
40
1
40
1
41
1
10
58.0327594217714
20
3.4072539142721
30
0
41
1
10
58.0357404830982
20
3.41238421314244
30
0
41
1
10
58.0525337031703
20
3.43225392407152
30
0
41
1
10
58.0693269212962
20
3.40074119542641
30
0
41
1
10
58.0831390790334
20
3.34112094630567
30
0
0
SPLINE
5
EB
100
AcDbEntity
8
1
62
256
6
ByLayer
370
13
48
1
60
0
100
AcDbSpline
70
4
71
3
72
9
73
5
40
0
40
0
40
0
40
0
40
0.16488619312628
40
1
40
1
40
1
40
1
41
1
10
62.7425369903718
20
-3.15388355285313
30
0
41
1
10
62.7453480774502
20
-3.17594717525293
30
0
41
1
10
62.7623967278119
20
-3.30175325533264
30
0
41
1
10
62.7794453767803
20
-3.3777413040433
30
0
41
1
10
62.7936829392061
20
-3.40468020062036
30
0
0
SPLINE
5
EC
100
AcDbEntity
8
1
62
256
6
ByLayer
370
13
48
1
60
0
100
AcDbSpline
70
4
71
3
72
9
73
5
40
0
40
0
40
0
40
0
40
0.990457956801661
40
1
40
1
40
1
40
1
41
1
10
54.2759859171138
20
-3.15271996186729
30
0
41
1
10
54.2928618385303
20
-3.28536698634539
30
0
41
1
10
54.3099003416854
20
-3.37103518077552
30
0
41
1
10
54.3269388461819
20
-3.40404929243073
30
0
41
1
10
54.327101428328
20
-3.40435952112637
30
0
0
SPLINE
5
ED
100
AcDbEntity
8
1
62
256
6
ByLayer
370
13
48
1
60
0
100
AcDbSpline
70
4
71
3
72
9
73
5
40
0
40
0
40
0
40
0
40
0.389377765552089
40
1
40
1
40
1
40
1
41
1
10
58.8539748795031
20
3.40820680828884
30
0
41
1
10
58.8613747322206
20
3.39608582475336
30
0
41
1
10
58.880379031001
20
3.33971005070089
30
0
41
1
10
58.8993832675709
20
3.21898985662537
30
0
41
1
10
58.9109876825511
20
3.12310290532631
30
0
0
SPLINE
5
EE
100
AcDbEntity
8
1
62
256
6
ByLayer
370
13
48
1
60
0
100
AcDbSpline
70
4
71
3
72
10
73
6
40
0
40
0
40
0
40
0
40
0.114165231975379
40
0.683741204002132
40
1
40
1
40
1
40
1
41
1
10
53.9994430847322
20
-3.05421126788104
30
0
41
1
10
54.0029390880029
20
-3.08614383974526
30
0
41
1
10
54.023876823603
20
-3.26555991119727
30
0
41
1
10
54.0544991266181
20
-3.42047897515877
30
0
41
1
10
54.0816254351703
20
-3.42421562956906
30
0
41
1
10
54.0913100113325
20
-3.40871321163786
30
0
0
SPLINE
5
EF
100
AcDbEntity
8
1
62
256
6
ByLayer
370
13
48
1
60
0
100
AcDbSpline
70
4
71
3
72
10
73
6
40
0
40
0
40
0
40
0
40
0.223536872295287
40
0.793682878700134
40
1
40
1
40
1
40
1
41
1
10
62.4660977990876
20
-3.05646048565041
30
0
41
1
10
62.4729361613777
20
-3.11872023125932
30
0
41
1
10
62.4972162372108
20
-3.31303673862527
30
0
41
1
10
62.5278080093289
20
-3.43039178714793
30
0
41
1
10
62.5515613091967
20
-3.41872402390038
30
0
41
1
10
62.5578728914927
20
-3.40846648748513
30
0
0
SPLINE
5
F0
100
AcDbEntity
8
1
62
256
6
ByLayer
370
13
48
1
60
0
100
AcDbSpline
70
4
71
3
72
9
73
5
40
0
40
0
40
0
40
0
40
0.498291417299709
40
1
40
1
40
1
40
1
41
1
10
59.0938139350318
20
3.41154246948108
30
0
41
1
10
59.1093865312358
20
3.43304271600118
30
0
41
1
10
59.1406385143664
20
3.38810164292258
30
0
41
1
10
59.1718905015024
20
3.16906464638032
30
0
41
1
10
59.1875698906383
20
3.01977043237361
30
0
0
SPLINE
5
F1
100
AcDbEntity
8
1
62
256
6
ByLayer
370
18
48
1
60
0
100
AcDbSpline
70
4
71
3
72
8
73
4
40
0
40
0
40
0
40
0
40
1
40
1
40
1
40
1
41
1
10
59.9110920910091
20
3.41011525864658
30
0
41
1
10
59.9129303601334
20
3.40737176345689
30
0
41
1
10
59.9147686295498
20
3.40401919712258
30
0
41
1
10
59.9166068993592
20
3.40005728083406
30
0
0
SPLINE
5
F2
100
AcDbEntity
8
1
62
256
6
ByLayer
370
13
48
1
60
0
100
AcDbSpline
70
4
71
3
72
10
73
6
40
0
40
0
40
0
40
0
40
0.0614166584424435
40
0.590725766701525
40
1
40
1
40
1
40
1
41
1
10
59.9166068993592
20
3.40005728083409
30
0
41
1
10
59.918630693489
20
3.3956955147396
30
0
41
1
10
59.9380962204437
20
3.34663896801121
30
0
41
1
10
59.9710482001723
20
3.14787316134289
30
0
41
1
10
60.0019762147816
20
2.80454052800738
30
0
41
1
10
60.0154625593609
20
2.62957297401889
30
0
0
SPLINE
5
F3
100
AcDbEntity
8
1
62
256
6
ByLayer
370
18
48
1
60
0
100
AcDbSpline
70
4
71
3
72
21
73
17
40
0
40
0
40
0
40
0
40
0.0136614142403372
40
0.0136614142403372
40
0.178051178533614
40
0.34244094282689
40
0.34244094282689
40
0.424635824973529
40
0.424635824973529
40
0.506830707120167
40
0.506830707120167
40
0.671220471413445
40
0.671220471413445
40
0.835610235706722
40
0.835610235706722
40
1
40
1
40
1
40
1
41
1
10
59.451990626622
20
4.01977965300605
30
0
41
1
10
59.4524691549434
20
4.01978062299205
30
0
41
1
10
59.4529473598666
20
4.01973324670436
30
0
41
1
10
59.4591756704151
20
4.01848789761974
30
0
41
1
10
59.4705777505381
20
4.00226367436673
30
0
41
1
10
59.481915482263
20
3.95869136242845
30
0
41
1
10
59.490504464443
20
3.91562528295853
30
0
41
1
10
59.4933808268773
20
3.89953549756547
30
0
41
1
10
59.4991556268584
20
3.86382332835311
30
0
41
1
10
59.5020599872266
20
3.8441493317778
30
0
41
1
10
59.510711125952
20
3.7804437922349
30
0
41
1
10
59.5164204462402
20
3.73160280369268
30
0
41
1
10
59.5277917160746
20
3.62153215017247
30
0
41
1
10
59.5334536843589
20
3.56030163186395
30
0
41
1
10
59.5448774488682
20
3.42541400908399
30
0
41
1
10
59.550637528812
20
3.35175821323426
30
0
41
1
10
59.5564320313386
20
3.27167192124122
30
0
0
SPLINE
5
F4
100
AcDbEntity
8
1
62
256
6
ByLayer
370
13
48
1
60
0
100
AcDbSpline
70
4
71
3
72
11
73
7
40
0
40
0
40
0
40
0
40
0.168833414432217
40
0.583635985058594
40
0.99843855568497
40
1
40
1
40
1
40
1
41
1
10
60.1657381823007
20
3.41916154123308
30
0
41
1
10
60.1728373367019
20
3.41736129874769
30
0
41
1
10
60.1973782247202
20
3.37975637025363
30
0
41
1
10
60.23936083561
20
3.12941996922166
30
0
41
1
10
60.2743099606983
20
2.72094697684227
30
0
41
1
10
60.2918173482678
20
2.47584496552341
30
0
41
1
10
60.2918830043039
20
2.47492521771585
30
0
0
SPLINE
5
F5
100
AcDbEntity
8
1
62
256
6
ByLayer
370
13
48
1
60
0
100
AcDbSpline
70
4
71
3
72
10
73
6
40
0
40
0
40
0
40
0
40
0.220850212534073
40
0.635352083986214
40
1
40
1
40
1
40
1
41
1
10
60.9936280515641
20
3.33864509773164
30
0
41
1
10
61.0029211628388
20
3.29787965494637
30
0
41
1
10
61.0296560167244
20
3.13692385717596
30
0
41
1
10
61.0717347633871
20
2.69344464585541
30
0
41
1
10
61.1045204425454
20
2.19726133588085
30
0
41
1
10
61.1198643817498
20
1.94084051251374
30
0
0
SPLINE
5
F6
100
AcDbEntity
8
1
62
256
6
ByLayer
370
18
48
1
60
0
100
AcDbSpline
70
4
71
3
72
11
73
7
40
0
40
0
40
0
40
0
40
0.152136958016424
40
0.532069949980435
40
0.977690850339503
40
1
40
1
40
1
40
1
41
1
10
66
20
0.312291466823979
30
0
41
1
10
66
20
0.208687847912387
30
0
41
1
10
66
20
-0.156286015118752
30
0
41
1
10
66
20
-0.831517898813019
30
0
41
1
10
66
20
-1.37494223384738
30
0
41
1
10
66
20
-1.64699493695989
30
0
41
1
10
66
20
-1.65990091986214
30
0
0
SPLINE
5
F7
100
AcDbEntity
8
1
62
256
6
ByLayer
370
13
48
1
60
0
100
AcDbSpline
70
4
71
3
72
11
73
7
40
0
40
0
40
0
40
0
40
0.125054915277891
40
0.539335937578939
40
0.953616959879987
40
1
40
1
40
1
40
1
41
1
10
61.2700698719951
20
3.28063055468968
30
0
41
1
10
61.2753348352573
20
3.25050563805374
30
0
41
1
10
61.298041530742
20
3.09989572990625
30
0
41
1
10
61.3381899569326
20
2.67930745318438
30
0
41
1
10
61.3750262027524
20
2.11276922960184
30
0
41
1
10
61.3944207163571
20
1.77753107226749
30
0
41
1
10
61.396373498385
20
1.7434241760065
30
0
0
SPLINE
5
F8
100
AcDbEntity
8
1
62
256
6
ByLayer
370
18
48
1
60
0
100
AcDbSpline
70
4
71
3
72
10
73
6
40
0
40
0
40
0
40
0
40
0.372275322282376
40
0.742681715502584
40
1
40
1
40
1
40
1
41
1
10
65.700000025558
20
-1.65773033148804
30
0
41
1
10
65.7000000295657
20
-1.40605188836429
30
0
41
1
10
65.6999999910014
20
-0.866098472443298
30
0
41
1
10
65.6999999281204
20
-0.0870529817097179
30
0
41
1
10
65.6999999185633
20
0.398393274796462
30
0
41
1
10
65.6999999171728
20
0.593604691338356
30
0
0
SPLINE
5
F9
100
AcDbEntity
8
1
62
256
6
ByLayer
370
18
48
1
60
0
100
AcDbSpline
70
4
71
3
72
30
73
26
40
0
40
0
40
0
40
0
40
0.125
40
0.125
40
0.249999999999999
40
0.249999999999999
40
0.374999999999999
40
0.374999999999999
40
0.406249999999999
40
0.406249999999999
40
0.437499999999999
40
0.437499999999999
40
0.499999999999999
40
0.499999999999999
40
0.624999999999999
40
0.624999999999999
40
0.749999999999999
40
0.749999999999999
40
0.812499999999999
40
0.812499999999999
40
0.84375
40
0.84375
40
0.875
40
0.875
40
1
40
1
40
1
40
1
41
1
10
64.6595343041818
20
1.54806463555823
30
0
41
1
10
64.664971400564
20
1.44533025425139
30
0
41
1
10
64.6703349087975
20
1.34093220355518
30
0
41
1
10
64.6810445500603
20
1.12895577944602
30
0
41
1
10
64.6863905401592
20
1.0213770171448
30
0
41
1
10
64.6971833004636
20
0.803062057579609
30
0
41
1
10
64.7026335902839
20
0.69232593869711
30
0
41
1
10
64.7095711892937
20
0.5518737569748
30
0
41
1
10
64.710964087139
20
0.523681444835432
30
0
41
1
10
64.7137591769117
20
0.467090442309825
30
0
41
1
10
64.7151617404461
20
0.438684132065959
30
0
41
1
10
64.7193580827814
20
0.353619200830082
30
0
41
1
10
64.7221480823904
20
0.296960861227404
30
0
41
1
10
64.7304773747595
20
0.127137862878726
30
0
41
1
10
64.7359677653755
20
0.0141248835463159
30
0
41
1
10
64.746790375488
20
-0.211500642976887
30
0
41
1
10
64.7521425351039
20
-0.324113494221422
30
0
41
1
10
64.7602031643558
20
-0.492727330248215
30
0
41
1
10
64.7628952943536
20
-0.548880919639089
30
0
41
1
10
64.7669553714847
20
-0.633032981787551
30
0
41
1
10
64.7683123705298
20
-0.66107060765404
30
0
41
1
10
64.7710359023161
20
-0.717119339715225
30
0
41
1
10
64.7724036795234
20
-0.745154097376286
30
0
41
1
10
64.7792458896497
20
-0.884749551592961
30
0
41
1
10
64.7847313338185
20
-0.994864229547318
30
0
41
1
10
64.7902224341389
20
-1.10343307188455
30
0
0
SPLINE
5
FA
100
AcDbEntity
8
1
62
256
6
ByLayer
370
13
48
1
60
0
100
AcDbSpline
70
4
71
3
72
10
73
6
40
0
40
0
40
0
40
0
40
0.0956112622731063
40
0.625786139030495
40
1
40
1
40
1
40
1
41
1
10
64.7095825401503
20
-0.965168532519044
30
0
41
1
10
64.7055506229544
20
-0.886660796976344
30
0
41
1
10
64.6791612851926
20
-0.367399497259868
30
0
41
1
10
64.6369913871119
20
0.505740755304259
30
0
41
1
10
64.5988534063568
20
1.2466860370979
30
0
41
1
10
64.5830728460487
20
1.53311553581409
30
0
0
SPLINE
5
FB
100
AcDbEntity
8
1
62
256
6
ByLayer
370
13
48
1
60
0
100
AcDbSpline
70
4
71
3
72
10
73
6
40
0
40
0
40
0
40
0
40
0.176825073112136
40
0.591205134290515
40
1
40
1
40
1
40
1
41
1
10
62.0980083102269
20
3.01491579613457
30
0
41
1
10
62.1054510970329
20
2.94364125268547
30
0
41
1
10
62.1303356446092
20
2.67592589722273
30
0
41
1
10
62.1724265985494
20
2.06812889493057
30
0
41
1
10
62.2070751041292
20
1.43785821344514
30
0
41
1
10
62.2242817499874
20
1.10738361720917
30
0
0
SPLINE
5
FC
100
AcDbEntity
8
1
62
256
6
ByLayer
370
13
48
1
60
0
100
AcDbSpline
70
4
71
3
72
9
73
5
40
0
40
0
40
0
40
0
40
0.530001722873831
40
1
40
1
40
1
40
1
41
1
10
64.4330959995211
20
-0.738699975178179
30
0
41
1
10
64.4107495895146
20
-0.295812714104102
30
0
41
1
10
64.3685866663387
20
0.577091011464432
30
0
41
1
10
64.326423764594
20
1.39159592376771
30
0
41
1
10
64.3066072833446
20
1.73809713214393
30
0
0
SPLINE
5
FD
100
AcDbEntity
8
1
62
256
6
ByLayer
370
18
48
1
60
0
100
AcDbSpline
70
4
71
3
72
26
73
22
40
0
40
0
40
0
40
0
40
0.125000000000001
40
0.250000000000002
40
0.250000000000002
40
0.375000000000003
40
0.375000000000003
40
0.406250000000003
40
0.406250000000003
40
0.437500000000003
40
0.500000000000003
40
0.500000000000003
40
0.625000000000003
40
0.750000000000002
40
0.750000000000002
40
0.812500000000002
40
0.812500000000002
40
0.843750000000002
40
0.843750000000002
40
0.875000000000001
40
1
40
1
40
1
40
1
41
1
10
64.2774490655598
20
-0.726285896740478
30
0
41
1
10
64.271973728812
20
-0.608198497660339
30
0
41
1
10
64.2610064012794
20
-0.37137077163888
30
0
41
1
10
64.2501776867664
20
-0.133255133383813
30
0
41
1
10
64.2395280817007
20
0.10552406715334
30
0
41
1
10
64.234301549672
20
0.225246690606895
30
0
41
1
10
64.2277201091775
20
0.375310654767446
30
0
41
1
10
64.2263995490235
20
0.405384529447843
30
0
41
1
10
64.2237586465338
20
0.465352948433178
30
0
41
1
10
64.2198001058888
20
0.554993781731753
30
0
41
1
10
64.2158259281962
20
0.643713703759175
30
0
41
1
10
64.2078171591799
20
0.819951636333911
30
0
41
1
10
64.1970008551982
20
1.05173728113758
30
0
41
1
10
64.1860108667538
20
1.27719781877801
30
0
41
1
10
64.177742898375
20
1.44385579174943
30
0
41
1
10
64.1749828104466
20
1.4990011547535
30
0
41
1
10
64.1708423932911
20
1.58109012202047
30
0
41
1
10
64.1694609623773
20
1.60837113066464
30
0
41
1
10
64.1667094407751
20
1.66249312969529
30
0
41
1
10
64.1598517508096
20
1.79681187123211
30
0
41
1
10
64.1531074299943
20
1.92622275952883
30
0
41
1
10
64.1477111875027
20
2.02661717924312
30
0
0
SPLINE
5
FE
100
AcDbEntity
8
1
62
256
6
ByLayer
370
18
48
1
60
0
100
AcDbSpline
70
4
71
3
72
27
73
23
40
0
40
0
40
0
40
0
40
0.125000000000001
40
0.125000000000001
40
0.250000000000003
40
0.250000000000003
40
0.312500000000003
40
0.343750000000003
40
0.343750000000003
40
0.375000000000003
40
0.375000000000003
40
0.500000000000003
40
0.500000000000003
40
0.625000000000003
40
0.625000000000003
40
0.750000000000002
40
0.750000000000002
40
0.812500000000002
40
0.812500000000002
40
0.875000000000001
40
0.875000000000001
40
1
40
1
40
1
40
1
41
1
10
63.7018467751502
20
2.43752368717759
30
0
41
1
10
63.7075802208288
20
2.34125091119603
30
0
41
1
10
63.7133134370877
20
2.24152129881304
30
0
41
1
10
63.7246890994795
20
2.03523051394845
30
0
41
1
10
63.730325846022
20
1.92867008389507
30
0
41
1
10
63.7387160955189
20
1.76367440286521
30
0
41
1
10
63.7428966644411
20
1.67988627988331
30
0
41
1
10
63.7470727575021
20
1.59414222793475
30
0
41
1
10
63.7498588247172
20
1.53654153542826
30
0
41
1
10
63.7512547174209
20
1.50748216527236
30
0
41
1
10
63.7582148121467
20
1.36176536871852
30
0
41
1
10
63.763733309352
20
1.24365384939352
30
0
41
1
10
63.7748704157155
20
1.004482162333
30
0
41
1
10
63.78050569574
20
0.883421210029866
30
0
41
1
10
63.7918929136189
20
0.638359925320913
30
0
41
1
10
63.797638238268
20
0.514359968008137
30
0
41
1
10
63.8062882484395
20
0.326075570168172
30
0
41
1
10
63.8091829069581
20
0.262800163983201
30
0
41
1
10
63.8149278373665
20
0.136518466466214
30
0
41
1
10
63.8177818778658
20
0.0734311422392864
30
0
41
1
10
63.826279353462
20
-0.115670587745825
30
0
41
1
10
63.8318554214186
20
-0.241525229462297
30
0
41
1
10
63.8374688877111
20
-0.367163304561785
30
0
0
SPLINE
5
FF
100
AcDbEntity
8
1
62
256
6
ByLayer
370
13
48
1
60
0
100
AcDbSpline
70
4
71
3
72
10
73
6
40
0
40
0
40
0
40
0
40
0.37896824995751
40
0.909916343182627
40
1
40
1
40
1
40
1
41
1
10
63.6051316643635
20
-0.0415944813303781
30
0
41
1
10
63.5891738848612
20
0.282346536224424
30
0
41
1
10
63.5508586847196
20
1.06158307303602
30
0
41
1
10
63.5087501983414
20
1.83854272864553
30
0
41
1
10
63.4825994913244
20
2.24323496493557
30
0
41
1
10
63.4788062048846
20
2.30018588021798
30
0
0
SPLINE
5
100
100
AcDbEntity
8
1
62
256
6
ByLayer
370
13
48
1
60
0
100
AcDbSpline
70
4
71
3
72
11
73
7
40
0
40
0
40
0
40
0
40
0.080837533107176
40
0.494917409358535
40
0.908997285609893
40
1
40
1
40
1
40
1
41
1
10
62.3744788446397
20
2.89776209374489
30
0
41
1
10
62.3778838556092
20
2.86107575681444
30
0
41
1
10
62.3987305980714
20
2.62559352030331
30
0
41
1
10
62.4370190784937
20
2.07476355348933
30
0
41
1
10
62.4757357209206
20
1.3707194954568
30
0
41
1
10
62.4970106391639
20
0.957212495326388
30
0
41
1
10
62.5008438248464
20
0.882023612385723
30
0
0
SPLINE
5
101
100
AcDbEntity
8
1
62
256
6
ByLayer
370
13
48
1
60
0
100
AcDbSpline
70
4
71
3
72
10
73
6
40
0
40
0
40
0
40
0
40
0.282670426861272
40
0.813441743915033
40
1
40
1
40
1
40
1
41
1
10
63.3286209586926
20
0.192746228670927
30
0
41
1
10
63.3167141590191
20
0.434090855614471
30
0
41
1
10
63.2824499136512
20
1.12448620829142
30
0
41
1
10
63.2403274110299
20
1.90308944076202
30
0
41
1
10
63.2101116957797
20
2.35820884586832
30
0
41
1
10
63.2022533952266
20
2.46855883181797
30
0
0
SPLINE
5
102
100
AcDbEntity
8
1
62
256
6
ByLayer
370
18
48
1
60
0
100
AcDbSpline
70
4
71
3
72
10
73
6
40
0
40
0
40
0
40
0
40
0.5
40
0.5
40
1
40
1
40
1
40
1
41
1
10
62.8385117207015
20
3.19433082977306
30
0
41
1
10
62.8983186900387
20
3.07228404041058
30
0
41
1
10
62.9584895448295
20
2.95064769489187
30
0
41
1
10
63.079786636789
20
2.70838474124886
30
0
41
1
10
63.1407663504279
20
2.58802538767622
30
0
41
1
10
63.2022533952266
20
2.46855883181797
30
0
0
SPLINE
5
103
100
AcDbEntity
8
1
62
256
6
ByLayer
370
18
48
1
60
0
100
AcDbSpline
70
4
71
3
72
29
73
25
40
0
40
0
40
0
40
0
40
0.124999999999977
40
0.124999999999977
40
0.249999999999954
40
0.249999999999954
40
0.374999999999932
40
0.374999999999932
40
0.437499999999883
40
0.437499999999883
40
0.499999999999834
40
0.499999999999834
40
0.624999999999815
40
0.624999999999815
40
0.687499999999846
40
0.687499999999846
40
0.749999999999877
40
0.812499999999908
40
0.812499999999908
40
0.874999999999938
40
0.874999999999938
40
0.937499999999969
40
0.937499999999969
40
1
40
1
40
1
40
1
41
1
10
63.2022533952266
20
2.46855883181797
30
0
41
1
10
63.2099852596942
20
2.45353616775378
30
0
41
1
10
63.2190024785055
20
2.43937268604688
30
0
41
1
10
63.2389509996504
20
2.41232545828891
30
0
41
1
10
63.2500147130747
20
2.39934895420981
30
0
41
1
10
63.2729834697438
20
2.37551185169491
30
0
41
1
10
63.284957261743
20
2.36453450400424
30
0
41
1
10
63.3035847312304
20
2.349370187527
30
0
41
1
10
63.3099306718025
20
2.34451756852962
30
0
41
1
10
63.3227319228539
20
2.33534337455296
30
0
41
1
10
63.3291543169138
20
2.33104275934687
30
0
41
1
10
63.3484782237935
20
2.31898417191141
30
0
41
1
10
63.3614357213432
20
2.31205557637767
30
0
41
1
10
63.3809652527593
20
2.30349176255925
30
0
41
1
10
63.3875248154886
20
2.30093560493748
30
0
41
1
10
63.4004278790541
20
2.29659375232404
30
0
41
1
10
63.4131438624962
20
2.29300258853496
30
0
41
1
10
63.4254439219154
20
2.29102327694878
30
0
41
1
10
63.4375007900795
20
2.28996524035665
30
0
41
1
10
63.443412450201
20
2.28990555727478
30
0
41
1
10
63.4545992752311
20
2.29084929463556
30
0
41
1
10
63.4599185131163
20
2.291844920183
30
0
41
1
10
63.4699203459508
20
2.29505279721721
30
0
41
1
10
63.4746174937784
20
2.29728308288799
30
0
41
1
10
63.4788062048846
20
2.30018588021687
30
0
0
SPLINE
5
104
100
AcDbEntity
8
1
62
256
6
ByLayer
370
18
48
1
60
0
100
AcDbSpline
70
4
71
3
72
10
73
6
40
0
40
0
40
0
40
0
40
0.5
40
0.5
40
1
40
1
40
1
40
1
41
1
10
63.4788062048846
20
2.30018588021795
30
0
41
1
10
63.5162896621083
20
2.32616209981055
30
0
41
1
10
63.5536056479461
20
2.35061713709263
30
0
41
1
10
63.6279428848739
20
2.39639893030298
30
0
41
1
10
63.6649843841091
20
2.41774591749575
30
0
41
1
10
63.7018467751502
20
2.43752368717762
30
0
0
SPLINE
5
105
100
AcDbEntity
8
1
62
256
6
ByLayer
370
18
48
1
60
0
100
AcDbSpline
70
4
71
3
72
8
73
4
40
0
40
0
40
0
40
0
40
1
40
1
40
1
40
1
41
1
10
63.7018467751501
20
2.43752368717762
30
0
41
1
10
63.849996252242
20
2.3024538952007
30
0
41
1
10
63.998500021072
20
2.16533947231329
30
0
41
1
10
64.1477111875026
20
2.02661717924306
30
0
0
SPLINE
5
106
100
AcDbEntity
8
1
62
256
6
ByLayer
370
18
48
1
60
0
100
AcDbSpline
70
4
71
3
72
8
73
4
40
0
40
0
40
0
40
0
40
1
40
1
40
1
40
1
41
1
10
64.1477111875026
20
2.02661717924306
30
0
41
1
10
64.2003729078872
20
1.92886873458897
30
0
41
1
10
64.2532974550053
20
1.83265671455624
30
0
41
1
10
64.3066072833446
20
1.73809713214393
30
0
0
SPLINE
5
107
100
AcDbEntity
8
1
62
256
6
ByLayer
370
18
48
1
60
0
100
AcDbSpline
70
4
71
3
72
30
73
26
40
0
40
0
40
0
40
0
40
0.125000000000077
40
0.125000000000077
40
0.250000000000154
40
0.250000000000154
40
0.375000000000231
40
0.375000000000231
40
0.437500000000232
40
0.437500000000232
40
0.500000000000232
40
0.500000000000232
40
0.625000000000234
40
0.625000000000234
40
0.687500000000195
40
0.687500000000195
40
0.750000000000156
40
0.750000000000156
40
0.812500000000117
40
0.812500000000117
40
0.875000000000078
40
0.875000000000078
40
0.937500000000039
40
0.937500000000039
40
1
40
1
40
1
40
1
41
1
10
64.3066072833446
20
1.73809713214393
30
0
41
1
10
64.3143283498861
20
1.72440170579034
30
0
41
1
10
64.3233349211928
20
1.71103882275412
30
0
41
1
10
64.3432671755408
20
1.68481816556843
30
0
41
1
10
64.3543268999596
20
1.67185151853477
30
0
41
1
10
64.3772969626888
20
1.64734745530714
30
0
41
1
10
64.3892742589967
20
1.6357034638319
30
0
41
1
10
64.4079122722917
20
1.61907193762101
30
0
41
1
10
64.4142629703966
20
1.61364844003134
30
0
41
1
10
64.4270725157084
20
1.60318261044984
30
0
41
1
10
64.4334990928674
20
1.59816454288477
30
0
41
1
10
64.4528350865836
20
1.58373882335715
30
0
41
1
10
64.4657999366698
20
1.57494930903485
30
0
41
1
10
64.4853381367573
20
1.56311285875668
30
0
41
1
10
64.4918993478856
20
1.55937838027822
30
0
41
1
10
64.5047984204259
20
1.55254726466308
30
0
41
1
10
64.5111538438278
20
1.54943738304692
30
0
41
1
10
64.5236548862054
20
1.54387299891778
30
0
41
1
10
64.529800566399
20
1.54141747666998
30
0
41
1
10
64.541846792677
20
1.53725114756693
30
0
41
1
10
64.5477492692975
20
1.53554627259896
30
0
41
1
10
64.5589166745558
20
1.5330925444282
30
0
41
1
10
64.5642257669322
20
1.53232563952844
30
0
41
1
10
64.5742074284601
20
1.53185987137411
30
0
41
1
10
64.578893727688
20
1.53217006114201
30
0
41
1
10
64.5830728460487
20
1.53311553581276
30
0
0
SPLINE
5
108
100
AcDbEntity
8
1
62
256
6
ByLayer
370
18
48
1
60
0
100
AcDbSpline
70
4
71
3
72
8
73
4
40
0
40
0
40
0
40
0
40
1
40
1
40
1
40
1
41
1
10
64.5830728460487
20
1.53311553581409
30
0
41
1
10
64.6086401442127
20
1.5388998258787
30
0
41
1
10
64.6341252656
20
1.54388836535199
30
0
41
1
10
64.6595343041818
20
1.54806463555826
30
0
0
SPLINE
5
109
100
AcDbEntity
8
1
62
256
6
ByLayer
370
18
48
1
60
0
100
AcDbSpline
70
4
71
3
72
16
73
12
40
0
40
0
40
0
40
0
40
0.249999999999995
40
0.249999999999995
40
0.499999999999989
40
0.499999999999989
40
0.624999999999987
40
0.624999999999987
40
0.749999999999984
40
0.749999999999984
40
1
40
1
40
1
40
1
41
1
10
64.6595343041818
20
1.54806463555823
30
0
41
1
10
64.7441387075927
20
1.46867014612442
30
0
41
1
10
64.8290484028174
20
1.3888810333795
30
0
41
1
10
64.9998459175733
20
1.22887165461171
30
0
41
1
10
65.0858659455793
20
1.14877108057246
30
0
41
1
10
65.2160677451268
20
1.02872236406893
30
0
41
1
10
65.2596908990916
20
0.988686370846182
30
0
41
1
10
65.3471659286024
20
0.908806573003147
30
0
41
1
10
65.3909791656147
20
0.868989597237118
30
0
41
1
10
65.522699043467
20
0.749966007138937
30
0
41
1
10
65.6109759211618
20
0.671290161155099
30
0
41
1
10
65.699999917173
20
0.593604691338271
30
0
0
SPLINE
5
10A
100
AcDbEntity
8
1
62
256
6
ByLayer
370
18
48
1
60
0
100
AcDbSpline
70
4
71
3
72
10
73
6
40
0
40
0
40
0
40
0
40
0.5
40
0.5
40
1
40
1
40
1
40
1
41
1
10
65.6999999171728
20
0.593604691338356
30
0
41
1
10
65.7481448255537
20
0.540963526151074
30
0
41
1
10
65.7971252737366
20
0.491011336015362
30
0
41
1
10
65.8971668984671
20
0.396890929684332
30
0
41
1
10
65.948097001205
20
0.352850529392441
30
0
41
1
10
66.0000000000001
20
0.312291466823893
30
0
0
SPLINE
5
10B
100
AcDbEntity
8
1
62
256
6
ByLayer
370
18
48
1
60
0
100
AcDbSpline
70
4
71
3
72
28
73
24
40
0
40
0
40
0
40
0
40
0.0588516209991608
40
0.0588516209991608
40
0.126076505213506
40
0.126076505213506
40
0.159688947320679
40
0.159688947320679
40
0.193301389427852
40
0.193301389427852
40
0.327751157856544
40
0.327751157856544
40
0.39497604207089
40
0.39497604207089
40
0.462200926285236
40
0.462200926285236
40
0.731100463142618
40
0.731100463142618
40
0.865550231571309
40
0.865550231571309
40
0.932775115785655
40
0.932775115785655
40
1
40
1
40
1
40
1
41
1
10
66
20
0.311322634114646
30
0
41
1
10
66
20
0.312618440780057
30
0
41
1
10
66
20
0.315097991007065
30
0
41
1
10
66
20
0.322891851670789
30
0
41
1
10
66
20
0.328540451618807
30
0
41
1
10
66
20
0.339378837819737
30
0
41
1
10
66
20
0.343414523660442
30
0
41
1
10
66
20
0.352005374449931
30
0
41
1
10
66
20
0.356527165180438
30
0
41
1
10
66
20
0.38004928748498
30
0
41
1
10
66
20
0.402066558343648
30
0
41
1
10
66
20
0.439958324350272
30
0
41
1
10
66
20
0.453411096638547
30
0
41
1
10
66
20
0.481715167193016
30
0
41
1
10
66
20
0.496594030563727
30
0
41
1
10
66
20
0.574566984311218
30
0
41
1
10
66
20
0.648327964025725
30
0
41
1
10
66
20
0.775800100723444
30
0
41
1
10
66
20
0.821114569330177
30
0
41
1
10
66
20
0.893396430997882
30
0
41
1
10
66
20
0.918216504286448
30
0
41
1
10
66
20
0.969302833456368
30
0
41
1
10
66
20
0.995407547211101
30
0
41
1
10
66
20
1.02206263411247
30
0
0
SPLINE
5
10C
100
AcDbEntity
8
1
62
256
6
ByLayer
370
18
48
1
60
0
100
AcDbSpline
70
4
71
3
72
10
73
6
40
0
40
0
40
0
40
0
40
0.5
40
0.5
40
1
40
1
40
1
40
1
41
1
10
66
20
1.23245531544532
30
0
41
1
10
66.0072035017621
20
1.19585147244257
30
0
41
1
10
66.0112292711952
20
1.15973227179523
30
0
41
1
10
66.0116609642022
20
1.08928585941086
30
0
41
1
10
66.0080643153252
20
1.05495739383258
30
0
41
1
10
66
20
1.02206263411247
30
0
0
SPLINE
5
10D
100
AcDbEntity
8
1
62
256
6
ByLayer
370
18
48
1
60
0
100
AcDbSpline
70
4
71
3
72
34
73
30
40
0
40
0
40
0
40
0
40
0.25
40
0.25
40
0.3125
40
0.3125
40
0.374999999999999
40
0.374999999999999
40
0.499999999999999
40
0.499999999999999
40
0.562499999999999
40
0.562499999999999
40
0.593749999999999
40
0.593749999999999
40
0.624999999999999
40
0.624999999999999
40
0.656249999999999
40
0.656249999999999
40
0.687499999999999
40
0.687499999999999
40
0.749999999999999
40
0.749999999999999
40
0.874999999999999
40
0.874999999999999
40
0.906249999999999
40
0.906249999999999
40
0.937499999999999
40
0.937499999999999
40
1
40
1
40
1
40
1
41
1
10
66
20
1.23245531546147
30
0
41
1
10
66
20
1.3511295643473
30
0
41
1
10
66
20
1.47853192089389
30
0
41
1
10
66
20
1.64894638000487
30
0
41
1
10
66
20
1.6835907201318
30
0
41
1
10
66
20
1.75401931347784
30
0
41
1
10
66
20
1.78962827830185
30
0
41
1
10
66
20
1.89751308384581
30
0
41
1
10
66
20
1.97089284735279
30
0
41
1
10
66
20
2.08313740881059
30
0
41
1
10
66
20
2.12091929678544
30
0
41
1
10
66
20
2.17813260039091
30
0
41
1
10
66
20
2.19729290602726
30
0
41
1
10
66
20
2.23578472010806
30
0
41
1
10
66
20
2.25510004460509
30
0
41
1
10
66
20
2.29401009906084
30
0
41
1
10
66
20
2.31362674896121
30
0
41
1
10
66
20
2.35329225149798
30
0
41
1
10
66
20
2.37336991585207
30
0
41
1
10
66
20
2.43374089208234
30
0
41
1
10
66
20
2.47423379417717
30
0
41
1
10
66
20
2.59642421669955
30
0
41
1
10
66
20
2.67883202555001
30
0
41
1
10
66.0000000000001
20
2.78305072503301
30
0
41
1
10
66
20
2.80395476392846
30
0
41
1
10
66
20
2.84588494996692
30
0
41
1
10
66.0000000000001
20
2.86696124092123
30
0
41
1
10
66
20
2.92990263861881
30
0
41
1
10
66
20
2.97150896979332
30
0
41
1
10
66
20
3.01276634533914
30
0
0
SPLINE
5
10E
100
AcDbEntity
8
1
62
256
6
ByLayer
370
18
48
1
60
0
100
AcDbSpline
70
4
71
3
72
10
73
6
40
0
40
0
40
0
40
0
40
0.5
40
0.5
40
1
40
1
40
1
40
1
41
1
10
66
20
3.01276634534153
30
0
41
1
10
65.9507149141767
20
3.06337266195857
30
0
41
1
10
65.901066871097
20
3.11380117951163
30
0
41
1
10
65.8010673404113
20
3.21448087757801
30
0
41
1
10
65.7507168778471
20
3.26473060339191
30
0
41
1
10
65.700000025558
20
3.31500894388691
30
0
0
SPLINE
5
10F
100
AcDbEntity
8
1
62
256
6
ByLayer
370
18
48
1
60
0
100
AcDbSpline
70
4
71
3
72
10
73
6
40
0
40
0
40
0
40
0
40
0.5
40
0.5
40
1
40
1
40
1
40
1
41
1
10
65.700000025558
20
3.31500894388691
30
0
41
1
10
65.6529433866834
20
3.32716821156387
30
0
41
1
10
65.6060109159939
20
3.33872484661043
30
0
41
1
10
65.5125350832652
20
3.36058501901658
30
0
41
1
10
65.4660058821626
20
3.37088282691448
30
0
41
1
10
65.419670371752
20
3.38054361057181
30
0
0
SPLINE
5
110
100
AcDbEntity
8
1
62
256
6
ByLayer
370
18
48
1
60
0
100
AcDbSpline
70
4
71
3
72
30
73
26
40
0
40
0
40
0
40
0
40
0.125000000000054
40
0.125000000000054
40
0.250000000000107
40
0.250000000000107
40
0.312500000000134
40
0.312500000000134
40
0.375000000000162
40
0.375000000000162
40
0.500000000000129
40
0.500000000000129
40
0.625000000000097
40
0.625000000000097
40
0.687500000000081
40
0.687500000000081
40
0.750000000000065
40
0.750000000000065
40
0.812500000000048
40
0.812500000000048
40
0.875000000000032
40
0.875000000000032
40
0.937500000000016
40
0.937500000000016
40
1
40
1
40
1
40
1
41
1
10
65.4196703717525
20
3.38054361056493
30
0
41
1
10
65.4112713930352
20
3.37209937248758
30
0
41
1
10
65.4020733772711
20
3.36456714265475
30
0
41
1
10
65.3828954656919
20
3.35165489349393
30
0
41
1
10
65.3728866488973
20
3.34622431027069
30
0
41
1
10
65.3572888311568
20
3.33952624978102
30
0
41
1
10
65.351991236164
20
3.33753698116757
30
0
41
1
10
65.3411982468176
20
3.3340547904134
30
0
41
1
10
65.3356797057415
20
3.33255721767139
30
0
41
1
10
65.3190035740256
20
3.3288866395485
30
0
41
1
10
65.3077682508235
20
3.32752477493233
30
0
41
1
10
65.2850799878309
20
3.32707870290636
30
0
41
1
10
65.2736272294764
20
3.32798798569212
30
0
41
1
10
65.2562748289397
20
3.33140895193281
30
0
41
1
10
65.250461440199
20
3.33290134355161
30
0
41
1
10
65.2390393996849
20
3.33659092468662
30
0
41
1
10
65.2333991992562
20
3.33879260736003
30
0
41
1
10
65.222280117046
20
3.34398853323947
30
0
41
1
10
65.2168010276846
20
3.3469818117091
30
0
41
1
10
65.2060346128602
20
3.35389427850202
30
0
41
1
10
65.200829611799
20
3.35776442024815
30
0
41
1
10
65.1909062845106
20
3.36635189933685
30
0
41
1
10
65.1861731744374
20
3.37107711791009
30
0
41
1
10
65.1772389854639
20
3.38153257585978
30
0
41
1
10
65.1730717202151
20
3.3872347334212
30
0
41
1
10
65.1693288806124
20
3.39335392910701
30
0
0
SPLINE
5
111
100
AcDbEntity
8
1
62
256
6
ByLayer
370
18
48
1
60
0
100
AcDbSpline
70
4
71
3
72
8
73
4
40
0
40
0
40
0
40
0
40
1
40
1
40
1
40
1
41
1
10
65.1693288806054
20
3.39335392912073
30
0
41
1
10
65.1617497720759
20
3.40574506877672
30
0
41
1
10
65.1541761127307
20
3.41811171326995
30
0
41
1
10
65.1466076370452
20
3.43045428944583
30
0
0
SPLINE
5
112
100
AcDbEntity
8
1
62
256
6
ByLayer
370
18
48
1
60
0
100
AcDbSpline
70
4
71
3
72
12
73
8
40
0
40
0
40
0
40
0
40
0.25
40
0.25
40
0.5
40
0.5
40
1
40
1
40
1
40
1
41
1
10
65.1466076370452
20
3.43045428944618
30
0
41
1
10
65.0898630257769
20
3.43934559910346
30
0
41
1
10
65.0333138407052
20
3.44726839431525
30
0
41
1
10
64.9203387021759
20
3.46128423700421
30
0
41
1
10
64.863904485259
20
3.46738648071587
30
0
41
1
10
64.6952703179382
20
3.48266111735788
30
0
41
1
10
64.5836949937983
20
3.48880835669175
30
0
41
1
10
64.4726784718095
20
3.49083232080338
30
0
0
SPLINE
5
113
100
AcDbEntity
8
1
62
256
6
ByLayer
370
18
48
1
60
0
100
AcDbSpline
70
4
71
3
72
8
73
4
40
0
40
0
40
0
40
0
40
1
40
1
40
1
40
1
41
1
10
64.4726784718095
20
3.49083232080346
30
0
41
1
10
64.429113435369
20
3.40690884904453
30
0
41
1
10
64.38538474281
20
3.32208147456558
30
0
41
1
10
64.3414635589953
20
3.23642530420443
30
0
0
SPLINE
5
114
100
AcDbEntity
8
1
62
256
6
ByLayer
370
18
48
1
60
0
100
AcDbSpline
70
4
71
3
72
26
73
22
40
0
40
0
40
0
40
0
40
0.125
40
0.125
40
0.25
40
0.25
40
0.375
40
0.375
40
0.5
40
0.5
40
0.624999999999999
40
0.624999999999999
40
0.749999999999999
40
0.749999999999999
40
0.812499999999999
40
0.812499999999999
40
0.875
40
0.875
40
0.9375
40
0.9375
40
1
40
1
40
1
40
1
41
1
10
64.3414635589953
20
3.23642530420412
30
0
41
1
10
64.3340227974171
20
3.22191414840171
30
0
41
1
10
64.3253749418928
20
3.20879145116413
30
0
41
1
10
64.3062093418852
20
3.18468240289181
30
0
41
1
10
64.2955832277469
20
3.17364552777312
30
0
41
1
10
64.27336481658
20
3.15425438195183
30
0
41
1
10
64.2617122360402
20
3.14580067230293
30
0
41
1
10
64.2373828013107
20
3.13127768044814
30
0
41
1
10
64.2245956783806
20
3.12518774707249
30
0
41
1
10
64.1988835798844
20
3.11599081770069
30
0
41
1
10
64.1858794234423
20
3.1128087005122
30
0
41
1
10
64.1595812606655
20
3.10966038239971
30
0
41
1
10
64.1461397600553
20
3.10973045952164
30
0
41
1
10
64.1267240744544
20
3.1129125639074
30
0
41
1
10
64.12035006183
20
3.11447981439903
30
0
41
1
10
64.1078344999365
20
3.11878669703319
30
0
41
1
10
64.1016686768514
20
3.12154960643633
30
0
41
1
10
64.0900103306548
20
3.12827177265078
30
0
41
1
10
64.0844711852564
20
3.13223917484001
30
0
41
1
10
64.0740719272961
20
3.14159345280299
30
0
41
1
10
64.0692279055553
20
3.1469862059588
30
0
41
1
10
64.0649464289471
20
3.15303840191064
30
0
0
SPLINE
5
115
100
AcDbEntity
8
1
62
256
6
ByLayer
370
18
48
1
60
0
100
AcDbSpline
70
4
71
3
72
10
73
6
40
0
40
0
40
0
40
0
40
0.5
40
0.5
40
1
40
1
40
1
40
1
41
1
10
64.0649464289385
20
3.15303840192604
30
0
41
1
10
64.027633168207
20
3.20578356119614
30
0
41
1
10
63.9904528460931
20
3.25752070564309
30
0
41
1
10
63.9163281537834
20
3.35890599727819
30
0
41
1
10
63.8793619329974
20
3.40858826493778
30
0
41
1
10
63.8425604532685
20
3.45714746869854
30
0
0
SPLINE
5
116
100
AcDbEntity
8
1
62
256
6
ByLayer
370
18
48
1
60
0
100
AcDbSpline
70
4
71
3
72
10
73
6
40
0
40
0
40
0
40
0
40
0.5
40
0.5
40
1
40
1
40
1
40
1
41
1
10
63.8425604532685
20
3.45714746869851
30
0
41
1
10
63.7885788373787
20
3.45028717138726
30
0
41
1
10
63.7346169636419
20
3.44237530363535
30
0
41
1
10
63.6268334971407
20
3.42441324255432
30
0
41
1
10
63.573230290787
20
3.41438990703779
30
0
41
1
10
63.5198572255808
20
3.40335160397586
30
0
0
SPLINE
5
117
100
AcDbEntity
8
1
62
256
6
ByLayer
370
18
48
1
60
0
100
AcDbSpline
70
4
71
3
72
10
73
6
40
0
40
0
40
0
40
0
40
0.5
40
0.5
40
1
40
1
40
1
40
1
41
1
10
63.5198572255808
20
3.40335160397586
30
0
41
1
10
63.4732218446265
20
3.3064005761386
30
0
41
1
10
63.4263308634487
20
3.20893774234528
30
0
41
1
10
63.3320389897556
20
3.0134625921404
30
0
41
1
10
63.2846476660459
20
2.91543870537331
30
0
41
1
10
63.2370253421247
20
2.81729328706226
30
0
0
SPLINE
5
118
100
AcDbEntity
8
1
62
256
6
ByLayer
370
18
48
1
60
0
100
AcDbSpline
70
4
71
3
72
16
73
12
40
0
40
0
40
0
40
0
40
0.23345410498761
40
0.23345410498761
40
0.46690820997522
40
0.46690820997522
40
0.700362314962829
40
0.700362314962829
40
0.933816419950438
40
0.933816419950438
40
1
40
1
40
1
40
1
41
1
10
63.2370253421243
20
2.81729328706106
30
0
41
1
10
63.2295922543223
20
2.80197434729499
30
0
41
1
10
63.2209505244664
20
2.78771866956831
30
0
41
1
10
63.2017900546729
20
2.76085246015475
30
0
41
1
10
63.1911611884832
20
2.74816908079751
30
0
41
1
10
63.1689295330057
20
2.72515509481838
30
0
41
1
10
63.1572680359805
20
2.71471880694267
30
0
41
1
10
63.1329176991592
20
2.69589559708396
30
0
41
1
10
63.1201199123105
20
2.68746721217474
30
0
41
1
10
63.1036093519668
20
2.67843629550319
30
0
41
1
10
63.0999506668555
20
2.67654630668241
30
0
41
1
10
63.0962802268918
20
2.674764872373
30
0
0
SPLINE
5
119
100
AcDbEntity
8
1
62
256
6
ByLayer
370
18
48
1
60
0
100
AcDbSpline
70
4
71
3
72
16
73
12
40
0
40
0
40
0
40
0
40
0.319293717340385
40
0.319293717340385
40
0.489470288005289
40
0.489470288005289
40
0.659646858670193
40
0.659646858670193
40
0.829823429335096
40
0.829823429335096
40
1
40
1
40
1
40
1
41
1
10
53.1260319956894
20
-3.3449501922029
30
0
41
1
10
53.1136777950391
20
-3.34764995638363
30
0
41
1
10
53.1011217435364
20
-3.35182726216573
30
0
41
1
10
53.0825497935282
20
-3.36069740972374
30
0
41
1
10
53.0761904669531
20
-3.36424146341022
30
0
41
1
10
53.0637030625723
20
-3.37239781599209
30
0
41
1
10
53.0575516189599
20
-3.37703981834579
30
0
41
1
10
53.0459171232843
20
-3.38728130513988
30
0
41
1
10
53.0403875755347
20
-3.39290364400523
30
0
41
1
10
53.0300029279574
20
-3.40532427800545
30
0
41
1
10
53.0251627294915
20
-3.41212474431259
30
0
41
1
10
53.0208826843118
20
-3.4193937952295
30
0
0
SPLINE
5
11A
100
AcDbEntity
8
1
62
256
6
ByLayer
370
18
48
1
60
0
100
AcDbSpline
70
4
71
3
72
8
73
4
40
0
40
0
40
0
40
0
40
1
40
1
40
1
40
1
41
1
10
53.0208826843047
20
-3.41939379524237
30
0
41
1
10
52.9936525419922
20
-3.46564033766762
30
0
41
1
10
52.9664970344601
20
-3.51167706644418
30
0
41
1
10
52.9394095772568
20
-3.55749699515385
30
0
0
SPLINE
5
11B
100
AcDbEntity
8
1
62
256
6
ByLayer
370
18
48
1
60
0
100
AcDbSpline
70
4
71
3
72
22
73
18
40
0
40
0
40
0
40
0
40
0.212954114447104
40
0.212954114447104
40
0.331868636900068
40
0.331868636900068
40
0.450783159353032
40
0.450783159353032
40
0.569697681805997
40
0.569697681805997
40
0.688612204258961
40
0.688612204258961
40
0.807526726711924
40
0.807526726711924
40
0.926441249164889
40
0.926441249164889
40
1
40
1
40
1
40
1
41
1
10
38.9422682447812
20
1.37224856299244
30
0
41
1
10
39.0434749117137
20
1.41117372004609
30
0
41
1
10
39.1475653004231
20
1.4688020879037
30
0
41
1
10
39.3138655694392
20
1.58510707989487
30
0
41
1
10
39.3743440317935
20
1.63230991513618
30
0
41
1
10
39.4927958455572
20
1.73383179600231
30
0
41
1
10
39.5513078264565
20
1.78851017508779
30
0
41
1
10
39.6669760906613
20
1.9053058867137
30
0
41
1
10
39.7244688522161
20
1.96784949954565
30
0
41
1
10
39.8355763260049
20
2.09727810066394
30
0
41
1
10
39.8897019651943
20
2.16390289938633
30
0
41
1
10
39.9933105077721
20
2.30336351319895
30
0
41
1
10
40.0430678353597
20
2.37716281046258
30
0
41
1
10
40.1353218779735
20
2.52681087534845
30
0
41
1
10
40.1778218467643
20
2.60256102689243
30
0
41
1
10
40.2413512054184
20
2.72651227995485
30
0
41
1
10
40.264476277122
20
2.77439496365145
30
0
41
1
10
40.2862812897095
20
2.82236935086243
30
0
0
SPLINE
5
11C
100
AcDbEntity
8
1
62
256
6
ByLayer
370
18
48
1
60
0
100
AcDbSpline
70
4
71
3
72
20
73
16
40
0
40
0
40
0
40
0
40
0.0501478441445075
40
0.0501478441445075
40
0.20845653678709
40
0.20845653678709
40
0.366765229429671
40
0.366765229429671
40
0.525073922072254
40
0.525073922072254
40
0.683382614714836
40
0.683382614714836
40
0.841691307357418
40
0.841691307357418
40
1
40
1
40
1
40
1
41
1
10
60.0551243668924
20
3.34499949338695
30
0
41
1
10
60.0571845794528
20
3.3453582188782
30
0
41
1
10
60.0592464508824
20
3.34575587000126
30
0
41
1
10
60.0678239927861
20
3.34757335330676
30
0
41
1
10
60.0743889751753
20
3.34936610521535
30
0
41
1
10
60.0873052575417
20
3.35376515990308
30
0
41
1
10
60.0936696129733
20
3.35636919994377
30
0
41
1
10
60.106189155486
20
3.36245394824491
30
0
41
1
10
60.1123446287481
20
3.36593370406868
30
0
41
1
10
60.1244116434869
20
3.37389809263064
30
0
41
1
10
60.1303279335625
20
3.3783978230739
30
0
41
1
10
60.1415222985489
20
3.38828652195292
30
0
41
1
10
60.1468446346011
20
3.39369966987584
30
0
41
1
10
60.1568515902764
20
3.40561508728027
30
0
41
1
10
60.161549825561
20
3.41215118178655
30
0
41
1
10
60.1657381823007
20
3.41916154123305
30
0
0
SPLINE
5
11D
100
AcDbEntity
8
1
62
256
6
ByLayer
370
18
48
1
60
0
100
AcDbSpline
70
4
71
3
72
10
73
6
40
0
40
0
40
0
40
0
40
0.5
40
0.5
40
1
40
1
40
1
40
1
41
1
10
60.1657381823007
20
3.41916154123308
30
0
41
1
10
60.2261874780345
20
3.52033995504073
30
0
41
1
10
60.2861636525698
20
3.62001477339422
30
0
41
1
10
60.4054396000131
20
3.8163806396787
30
0
41
1
10
60.4646125928707
20
3.91287049375129
30
0
41
1
10
60.523412722326
20
4.00761471961766
30
0
0
SPLINE
5
11E
100
AcDbEntity
8
1
62
256
6
ByLayer
370
18
48
1
60
0
100
AcDbSpline
70
4
71
3
72
10
73
6
40
0
40
0
40
0
40
0
40
0.5
40
0.5
40
1
40
1
40
1
40
1
41
1
10
60.6274672319402
20
3.99822318040407
30
0
41
1
10
60.6876029015195
20
3.89238795786517
30
0
41
1
10
60.7481631520955
20
3.78435082497538
30
0
41
1
10
60.8702358420723
20
3.56426006179058
30
0
41
1
10
60.9316972465957
20
3.4522914862566
30
0
41
1
10
60.9936280515641
20
3.3386450977319
30
0
0
SPLINE
5
11F
100
AcDbEntity
8
1
62
256
6
ByLayer
370
18
48
1
60
0
100
AcDbSpline
70
4
71
3
72
30
73
26
40
0
40
0
40
0
40
0
40
0.125000000000039
40
0.125000000000039
40
0.250000000000079
40
0.250000000000079
40
0.375000000000118
40
0.375000000000118
40
0.437500000000138
40
0.437500000000138
40
0.500000000000157
40
0.500000000000157
40
0.625000000000118
40
0.625000000000118
40
0.687500000000098
40
0.687500000000098
40
0.750000000000079
40
0.750000000000079
40
0.812500000000059
40
0.812500000000059
40
0.875000000000039
40
0.875000000000039
40
0.93750000000002
40
0.93750000000002
40
1
40
1
40
1
40
1
41
1
10
60.9936280515641
20
3.33864509773164
30
0
41
1
10
61.001335102108
20
3.32450224166942
30
0
41
1
10
61.0103238487453
20
3.3120265702282
30
0
41
1
10
61.0302186492256
20
3.28955341201404
30
0
41
1
10
61.0412580642969
20
3.27950914944338
30
0
41
1
10
61.0641945693474
20
3.26238303105831
30
0
41
1
10
61.076157216339
20
3.25519794415533
30
0
41
1
10
61.0947770567812
20
3.24634626968896
30
0
41
1
10
61.1011216793442
20
3.24371222239537
30
0
41
1
10
61.113926325337
20
3.23915289933168
30
0
41
1
10
61.1203513679282
20
3.23723696319698
30
0
41
1
10
61.1396857585101
20
3.23256667272423
30
0
41
1
10
61.1526535839704
20
3.23087194142812
30
0
41
1
10
61.172202448329
20
3.23069420520031
30
0
41
1
10
61.1787694957201
20
3.23103959163575
30
0
41
1
10
61.1916858026806
20
3.23259422221403
30
0
41
1
10
61.1980499486925
20
3.23379842914667
30
0
41
1
10
61.2105684597566
20
3.23712960437734
30
0
41
1
10
61.216723094844
20
3.23925557801974
30
0
41
1
10
61.2287876045386
20
3.24456328511255
30
0
41
1
10
61.2346997148403
20
3.24775780274334
30
0
41
1
10
61.2458844118959
20
3.25516933758303
30
0
41
1
10
61.251201425081
20
3.25940105875793
30
0
41
1
10
61.2611970438149
20
3.26908515728641
30
0
41
1
10
61.2658882745328
20
3.27456722349322
30
0
41
1
10
61.2700698719952
20
3.2806305546892
30
0
0
SPLINE
5
120
100
AcDbEntity
8
1
62
256
6
ByLayer
370
18
48
1
60
0
100
AcDbSpline
70
4
71
3
72
10
73
6
40
0
40
0
40
0
40
0
40
0.5
40
0.5
40
1
40
1
40
1
40
1
41
1
10
61.2700698719951
20
3.28063055468968
30
0
41
1
10
61.3305187184067
20
3.36828159702702
30
0
41
1
10
61.3905159435278
20
3.45340583752792
30
0
41
1
10
61.5097993533735
20
3.61838813608767
30
0
41
1
10
61.5689480511373
20
3.69807267136469
30
0
41
1
10
61.6276929028287
20
3.77490292956671
30
0
0
SPLINE
5
121
100
AcDbEntity
8
1
62
256
6
ByLayer
370
18
48
1
60
0
100
AcDbSpline
70
4
71
3
72
8
73
4
40
0
40
0
40
0
40
0
40
1
40
1
40
1
40
1
41
1
10
61.7317546443265
20
3.73785945393323
30
0
41
1
10
61.697062642944
20
3.75064698323081
30
0
41
1
10
61.6623762017058
20
3.76299373209616
30
0
41
1
10
61.6276929028287
20
3.77490292956671
30
0
0
SPLINE
5
122
100
AcDbEntity
8
1
62
256
6
ByLayer
370
18
48
1
60
0
100
AcDbSpline
70
4
71
3
72
10
73
6
40
0
40
0
40
0
40
0
40
0.5
40
0.5
40
1
40
1
40
1
40
1
41
1
10
61.7317546443265
20
3.73785945393382
30
0
41
1
10
61.7918963141138
20
3.61895168928959
30
0
41
1
10
61.8524276752837
20
3.49908583229754
30
0
41
1
10
61.9745210568957
20
3.25783385447224
30
0
41
1
10
62.0360200548638
20
3.13653876342815
30
0
41
1
10
62.0980083102267
20
3.01491579613514
30
0
0
SPLINE
5
123
100
AcDbEntity
8
1
62
256
6
ByLayer
370
18
48
1
60
0
100
AcDbSpline
70
4
71
3
72
30
73
26
40
0
40
0
40
0
40
0
40
0.125
40
0.125
40
0.25
40
0.25
40
0.375
40
0.375
40
0.4375
40
0.4375
40
0.5
40
0.5
40
0.625
40
0.625
40
0.6875
40
0.6875
40
0.75
40
0.75
40
0.8125
40
0.8125
40
0.875
40
0.875
40
0.9375
40
0.9375
40
1
40
1
40
1
40
1
41
1
10
62.0980083102269
20
3.01491579613457
30
0
41
1
10
62.1057215447279
20
2.99978217990434
30
0
41
1
10
62.1147163699145
20
2.98596067741988
30
0
41
1
10
62.1346210264175
20
2.96026944820232
30
0
41
1
10
62.1456638292849
20
2.94832698198545
30
0
41
1
10
62.1686034731816
20
2.92707736508777
30
0
41
1
10
62.1805666921039
20
2.91765702524262
30
0
41
1
10
62.1991855730967
20
2.90520387504586
30
0
41
1
10
62.2055295201187
20
2.90132258572473
30
0
41
1
10
62.2183328543129
20
2.89420328284174
30
0
41
1
10
62.2247572139617
20
2.89098179667957
30
0
41
1
10
62.2440895475314
20
2.88231651732127
30
0
41
1
10
62.2570560423985
20
2.87785544036257
30
0
41
1
10
62.2766024182094
20
2.87334500103725
30
0
41
1
10
62.28316871205
20
2.87220714252675
30
0
41
1
10
62.2960850472543
20
2.87078119970701
30
0
41
1
10
62.3024491462937
20
2.87048519164389
30
0
41
1
10
62.3149675098494
20
2.87079244775253
30
0
41
1
10
62.321122053771
20
2.87139477791419
30
0
41
1
10
62.3331862250468
20
2.87362660530366
30
0
41
1
10
62.3390995209952
20
2.8752676954995
30
0
41
1
10
62.3502865791684
20
2.87963244203408
30
0
41
1
10
62.3556046842183
20
2.88235973141505
30
0
41
1
10
62.3656022173909
20
2.88907871344898
30
0
41
1
10
62.3702952083113
20
2.89309554068171
30
0
41
1
10
62.3744788446398
20
2.89776209374403
30
0
0
SPLINE
5
124
100
AcDbEntity
8
1
62
256
6
ByLayer
370
18
48
1
60
0
100
AcDbSpline
70
4
71
3
72
10
73
6
40
0
40
0
40
0
40
0
40
0.5
40
0.5
40
1
40
1
40
1
40
1
41
1
10
62.3744788446397
20
2.89776209374489
30
0
41
1
10
62.4348910004324
20
2.96514761879453
30
0
41
1
10
62.4948617527409
20
3.02916655418045
30
0
41
1
10
62.6141202758697
20
3.15032461828344
30
0
41
1
10
62.6732780710819
20
3.20735688004163
30
0
41
1
10
62.732052788379
20
3.26084850099659
30
0
0
SPLINE
5
125
100
AcDbEntity
8
1
62
256
6
ByLayer
370
18
48
1
60
0
100
AcDbSpline
70
4
71
3
72
10
73
6
40
0
40
0
40
0
40
0
40
0.5
40
0.5
40
1
40
1
40
1
40
1
41
1
10
61.4880005350856
20
-3.41923427115825
30
0
41
1
10
61.4281509797357
20
-3.5210173289247
30
0
41
1
10
61.3686588929793
20
-3.62181563885176
30
0
41
1
10
61.2502183728766
20
-3.82136950763257
30
0
41
1
10
61.1914161170399
20
-3.91988106049203
30
0
41
1
10
61.1329530805927
20
-4.01708017458336
30
0
0
SPLINE
5
126
100
AcDbEntity
8
1
62
256
6
ByLayer
370
18
48
1
60
0
100
AcDbSpline
70
4
71
3
72
8
73
4
40
0
40
0
40
0
40
0
40
1
40
1
40
1
40
1
41
1
10
61.028987591943
20
-4.01194890141898
30
0
41
1
10
61.0636394714283
20
-4.0141037434112
30
0
41
1
10
61.0982926000422
20
-4.01581435388104
30
0
41
1
10
61.1329530805927
20
-4.01708017458333
30
0
0
SPLINE
5
127
100
AcDbEntity
8
1
62
256
6
ByLayer
370
18
48
1
60
0
100
AcDbSpline
70
4
71
3
72
27
73
23
40
0
40
0
40
0
40
0
40
0.125
40
0.125
40
0.250000000000001
40
0.250000000000001
40
0.375000000000001
40
0.375000000000001
40
0.500000000000001
40
0.500000000000001
40
0.625000000000002
40
0.625000000000002
40
0.687500000000001
40
0.687500000000001
40
0.750000000000001
40
0.812500000000001
40
0.812500000000001
40
0.875000000000001
40
0.875000000000001
40
0.9375
40
0.9375
40
1
40
1
40
1
40
1
41
1
10
53.9994430847322
20
-3.05421126788104
30
0
41
1
10
54.0071378228756
20
-3.04687683921301
30
0
41
1
10
54.0161069074111
20
-3.04150931444514
30
0
41
1
10
54.0359514867118
20
-3.03368918813766
30
0
41
1
10
54.04695616714
20
-3.0312672160631
30
0
41
1
10
54.0698238770143
20
-3.02919676233094
30
0
41
1
10
54.0817543611492
20
-3.02950026229783
30
0
41
1
10
54.1065207007803
20
-3.03262326237149
30
0
41
1
10
54.1194227100779
20
-3.03548564478564
30
0
41
1
10
54.1451829158018
20
-3.04362351730404
30
0
41
1
10
54.1581493701818
20
-3.04889844093282
30
0
41
1
10
54.177707954689
20
-3.05885290319037
30
0
41
1
10
54.1842824078753
20
-3.06253896397075
30
0
41
1
10
54.1972391270941
20
-3.07055072616208
30
0
41
1
10
54.2100096014481
20
-3.07919584815824
30
0
41
1
10
54.2223660457375
20
-3.08921709457698
30
0
41
1
10
54.2344798484912
20
-3.10003163807639
30
0
41
1
10
54.240423846759
20
-3.10585373837415
30
0
41
1
10
54.2516699724723
20
-3.11806552120734
30
0
41
1
10
54.2570166316242
20
-3.12449033775579
30
0
41
1
10
54.2670676874962
20
-3.13808118500441
30
0
41
1
10
54.2717846444029
20
-3.14527982116661
30
0
41
1
10
54.275985917114
20
-3.15271996186803
30
0
0
SPLINE
5
128
100
AcDbEntity
8
1
62
256
6
ByLayer
370
18
48
1
60
0
100
AcDbSpline
70
4
71
3
72
10
73
6
40
0
40
0
40
0
40
0
40
0.5
40
0.5
40
1
40
1
40
1
40
1
41
1
10
54.2759859171138
20
-3.15271996186729
30
0
41
1
10
54.3363402422031
20
-3.25960297125269
30
0
41
1
10
54.3962677593715
20
-3.3668565805136
30
0
41
1
10
54.5154615664246
20
-3.58199995579284
30
0
41
1
10
54.5746005635702
20
-3.68964524778829
30
0
41
1
10
54.6333683568099
20
-3.79725112785786
30
0
0
SPLINE
5
129
100
AcDbEntity
8
1
62
256
6
ByLayer
370
18
48
1
60
0
100
AcDbSpline
70
4
71
3
72
10
73
6
40
0
40
0
40
0
40
0
40
0.5
40
0.5
40
1
40
1
40
1
40
1
41
1
10
54.7373281878599
20
-3.82984915511855
30
0
41
1
10
54.7975318243976
20
-3.75812168821904
30
0
41
1
10
54.858151863016
20
-3.68267646074992
30
0
41
1
10
54.9803181309096
20
-3.52453800930863
30
0
41
1
10
55.041814868368
20
-3.44192019071861
30
0
41
1
10
55.1037635352447
20
-3.35582681514561
30
0
0
SPLINE
5
12A
100
AcDbEntity
8
1
62
256
6
ByLayer
370
18
48
1
60
0
100
AcDbSpline
70
4
71
3
72
28
73
24
40
0
40
0
40
0
40
0
40
0.125
40
0.125
40
0.249999999999999
40
0.249999999999999
40
0.374999999999999
40
0.374999999999999
40
0.499999999999999
40
0.499999999999999
40
0.624999999999998
40
0.624999999999998
40
0.687499999999999
40
0.687499999999999
40
0.749999999999999
40
0.749999999999999
40
0.812499999999999
40
0.812499999999999
40
0.874999999999999
40
0.874999999999999
40
0.9375
40
0.9375
40
1
40
1
40
1
40
1
41
1
10
55.1037635352447
20
-3.35582681514583
30
0
41
1
10
55.1114572972782
20
-3.34513438256064
30
0
41
1
10
55.1204287638229
20
-3.33639085072167
30
0
41
1
10
55.1402859458346
20
-3.32180145722055
30
0
41
1
10
55.151302759611
20
-3.3159548941515
30
0
41
1
10
55.1741987906497
20
-3.30728138001649
30
0
41
1
10
55.1861440637398
20
-3.30437977913505
30
0
41
1
10
55.2109395291929
20
-3.30126658252414
30
0
41
1
10
55.223853189032
20
-3.30108749309031
30
0
41
1
10
55.2496251134417
20
-3.30353141148086
30
0
41
1
10
55.2625933041568
20
-3.3061243419931
30
0
41
1
10
55.2821489521611
20
-3.31231807848491
30
0
41
1
10
55.2887208745521
20
-3.314788428654
30
0
41
1
10
55.3016595914334
20
-3.32049993940865
30
0
41
1
10
55.3080352932222
20
-3.32373863380522
30
0
41
1
10
55.3205782744591
20
-3.33104746161496
30
0
41
1
10
55.3267457922627
20
-3.3351166709038
30
0
41
1
10
55.33883749455
20
-3.34420951943434
30
0
41
1
10
55.3447666795199
20
-3.34924869242406
30
0
41
1
10
55.3559843726532
20
-3.36012507308447
30
0
41
1
10
55.3613174956869
20
-3.36599088386202
30
0
41
1
10
55.3713437211839
20
-3.37871623741455
30
0
41
1
10
55.3760486329496
20
-3.38560815534839
30
0
41
1
10
55.3802402375063
20
-3.39290246080199
30
0
0
SPLINE
5
12B
100
AcDbEntity
8
1
62
256
6
ByLayer
370
18
48
1
60
0
100
AcDbSpline
70
4
71
3
72
10
73
6
40
0
40
0
40
0
40
0
40
0.5
40
0.5
40
1
40
1
40
1
40
1
41
1
10
55.3802402375062
20
-3.39290246080174
30
0
41
1
10
55.4406641325763
20
-3.49805320710144
30
0
41
1
10
55.5006304506548
20
-3.60235276144633
30
0
41
1
10
55.619847072265
20
-3.8091061904571
30
0
41
1
10
55.6789657036355
20
-3.91132566206127
30
0
41
1
10
55.7377226727893
20
-4.01237604426944
30
0
0
SPLINE
5
12C
100
AcDbEntity
8
1
62
256
6
ByLayer
370
18
48
1
60
0
100
AcDbSpline
70
4
71
3
72
10
73
6
40
0
40
0
40
0
40
0
40
0.5
40
0.5
40
1
40
1
40
1
40
1
41
1
10
55.8417508828886
20
-4.01733928871982
30
0
41
1
10
55.9019138524666
20
-3.92122415436739
30
0
41
1
10
55.9625128967274
20
-3.82229068066582
30
0
41
1
10
56.0846780197384
20
-3.61910119097271
30
0
41
1
10
56.14619260918
20
-3.51493020683213
30
0
41
1
10
56.2081737714429
20
-3.40837950242616
30
0
0
SPLINE
5
12D
100
AcDbEntity
8
1
62
256
6
ByLayer
370
18
48
1
60
0
100
AcDbSpline
70
4
71
3
72
28
73
24
40
0
40
0
40
0
40
0
40
0.125
40
0.125
40
0.25
40
0.25
40
0.375
40
0.375
40
0.5
40
0.5
40
0.625
40
0.625
40
0.6875
40
0.6875
40
0.75
40
0.75
40
0.8125
40
0.8125
40
0.875
40
0.875
40
0.9375
40
0.9375
40
1
40
1
40
1
40
1
41
1
10
56.2081737714429
20
-3.40837950242604
30
0
41
1
10
56.2158636092429
20
-3.39516004018247
30
0
41
1
10
56.224830197444
20
-3.38372755313631
30
0
41
1
10
56.2446773892798
20
-3.36352228567804
30
0
41
1
10
56.2556896519434
20
-3.35471763395844
30
0
41
1
10
56.2785793621648
20
-3.34013693499122
30
0
41
1
10
56.2905220108555
20
-3.3342660777771
30
0
41
1
10
56.3153148365006
20
-3.32517852472205
30
0
41
1
10
56.3282289156771
20
-3.32198177438679
30
0
41
1
10
56.3540034832652
20
-3.31856436091024
30
0
41
1
10
56.3669740305237
20
-3.31828611837136
30
0
41
1
10
56.3865347495856
20
-3.3202623100745
30
0
41
1
10
56.3931086435949
20
-3.32133444091897
30
0
41
1
10
56.406049743271
20
-3.32433084277139
30
0
41
1
10
56.4124265075247
20
-3.32625053098451
30
0
41
1
10
56.4249711763834
20
-3.33100277302202
30
0
41
1
10
56.4311393268752
20
-3.33383432349711
30
0
41
1
10
56.4432316633054
20
-3.34054333267704
30
0
41
1
10
56.4491597162682
20
-3.34443509685676
30
0
41
1
10
56.4603739090831
20
-3.35318873549142
30
0
41
1
10
56.465704789807
20
-3.35807037323443
30
0
41
1
10
56.4757256736501
20
-3.36900589279054
30
0
41
1
10
56.4804270627987
20
-3.37509015199629
30
0
41
1
10
56.4846152031079
20
-3.38170649978664
30
0
0
SPLINE
5
12E
100
AcDbEntity
8
1
62
256
6
ByLayer
370
18
48
1
60
0
100
AcDbSpline
70
4
71
3
72
10
73
6
40
0
40
0
40
0
40
0
40
0.5
40
0.5
40
1
40
1
40
1
40
1
41
1
10
56.4846152031091
20
-3.38170649978926
30
0
41
1
10
56.5450120775155
20
-3.47712038209556
30
0
41
1
10
56.6049706344697
20
-3.57058053593357
30
0
41
1
10
56.7241970256957
20
-3.75341076499998
30
0
41
1
10
56.7833296071721
20
-3.84258212763388
30
0
41
1
10
56.8420661955108
20
-3.92944668717459
30
0
0
SPLINE
5
12F
100
AcDbEntity
8
1
62
256
6
ByLayer
370
18
48
1
60
0
100
AcDbSpline
70
4
71
3
72
8
73
4
40
0
40
0
40
0
40
0
40
1
40
1
40
1
40
1
41
1
10
56.9460504668333
20
-3.90628259430514
30
0
41
1
10
56.9113919012156
20
-3.91444698339541
30
0
41
1
10
56.876731660566
20
-3.92216768262332
30
0
41
1
10
56.8420661955108
20
-3.92944668717459
30
0
0
SPLINE
5
130
100
AcDbEntity
8
1
62
256
6
ByLayer
370
18
48
1
60
0
100
AcDbSpline
70
4
71
3
72
10
73
6
40
0
40
0
40
0
40
0
40
0.5
40
0.5
40
1
40
1
40
1
40
1
41
1
10
56.9460504668329
20
-3.90628259429135
30
0
41
1
10
57.0062820401519
20
-3.792737880695
30
0
41
1
10
57.0668995211128
20
-3.67759893166169
30
0
41
1
10
57.1890387923188
20
-3.44446780362264
30
0
41
1
10
57.250527402777
20
-3.32653765606605
30
0
41
1
10
57.3125164746751
20
-3.20751870606924
30
0
0
SPLINE
5
131
100
AcDbEntity
8
1
62
256
6
ByLayer
370
18
48
1
60
0
100
AcDbSpline
70
4
71
3
72
28
73
24
40
0
40
0
40
0
40
0
40
0.125
40
0.125
40
0.25
40
0.25
40
0.375
40
0.375
40
0.5
40
0.5
40
0.625
40
0.625
40
0.6875
40
0.6875
40
0.75
40
0.75
40
0.8125
40
0.8125
40
0.875
40
0.875
40
0.9375
40
0.9375
40
1
40
1
40
1
40
1
41
1
10
57.3125164746751
20
-3.20751870606878
30
0
41
1
10
57.3202142602022
20
-3.19273896630699
30
0
41
1
10
57.329188595833
20
-3.1794574112613
30
0
41
1
10
57.3490482036657
20
-3.15512366615081
30
0
41
1
10
57.3600643133929
20
-3.14401245773618
30
0
41
1
10
57.3829567490637
20
-3.12460483268436
30
0
41
1
10
57.3948996671533
20
-3.11619932403161
30
0
41
1
10
57.4196902039889
20
-3.1018072452579
30
0
41
1
10
57.4326017714446
20
-3.09582629705508
30
0
41
1
10
57.4583723235757
20
-3.08678816420524
30
0
41
1
10
57.4713409615542
20
-3.08365057928012
30
0
41
1
10
57.4908982832355
20
-3.08124390765633
30
0
41
1
10
57.4974710755789
20
-3.08083090515359
30
0
41
1
10
57.5104132836446
20
-3.08087412420835
30
0
41
1
10
57.5167907248927
20
-3.08132387250711
30
0
41
1
10
57.5293370005307
20
-3.0831487856446
30
0
41
1
10
57.5355060662494
20
-3.08452292733978
30
0
41
1
10
57.5476003685747
20
-3.08832976940599
30
0
41
1
10
57.553531666781
20
-3.09077613400487
30
0
41
1
10
57.5647527752853
20
-3.09674140329219
30
0
41
1
10
57.5700871489609
20
-3.10026929152866
30
0
41
1
10
57.5801148649687
20
-3.10859141066672
30
0
41
1
10
57.584820896144
20
-3.11341338477686
30
0
41
1
10
57.5890137491012
20
-3.11886179032362
30
0
0
SPLINE
5
132
100
AcDbEntity
8
1
62
256
6
ByLayer
370
18
48
1
60
0
100
AcDbSpline
70
4
71
3
72
10
73
6
40
0
40
0
40
0
40
0
40
0.5
40
0.5
40
1
40
1
40
1
40
1
41
1
10
57.5890137491011
20
-3.11886179032436
30
0
41
1
10
57.6494008750073
20
-3.19733188100037
30
0
41
1
10
57.7093540402132
20
-3.27287975085426
30
0
41
1
10
57.8285858104312
20
-3.4179866406399
30
0
41
1
10
57.8877362204687
20
-3.48741310499429
30
0
41
1
10
57.9465084842677
20
-3.55371377596063
30
0
0
SPLINE
5
133
100
AcDbEntity
8
1
62
256
6
ByLayer
370
18
48
1
60
0
100
AcDbSpline
70
4
71
3
72
8
73
4
40
0
40
0
40
0
40
0
40
1
40
1
40
1
40
1
41
1
10
58.0504805970771
20
-3.50435753284384
30
0
41
1
10
58.0158072477893
20
-3.5212048175726
30
0
41
1
10
57.9811504135721
20
-3.53765676227485
30
0
41
1
10
57.9465084842676
20
-3.55371377596069
30
0
0
SPLINE
5
134
100
AcDbEntity
8
1
62
256
6
ByLayer
370
18
48
1
60
0
100
AcDbSpline
70
4
71
3
72
10
73
6
40
0
40
0
40
0
40
0
40
0.5
40
0.5
40
1
40
1
40
1
40
1
41
1
10
58.0504805970768
20
-3.50435753283014
30
0
41
1
10
58.1106918704732
20
-3.3821661688157
30
0
41
1
10
58.1713050148223
20
-3.25964942623804
30
0
41
1
10
58.2934203428284
20
-3.01441492482297
30
0
41
1
10
58.3548733836908
20
-2.89177259114095
30
0
41
1
10
58.4167751014628
20
-2.76945789603036
30
0
0
SPLINE
5
135
100
AcDbEntity
8
1
62
256
6
ByLayer
370
18
48
1
60
0
100
AcDbSpline
70
4
71
3
72
14
73
10
40
0
40
0
40
0
40
0
40
0.321001858299131
40
0.321001858299131
40
0.642003716598261
40
0.642003716598261
40
0.963005574897392
40
0.963005574897392
40
1
40
1
40
1
40
1
41
1
10
58.4167751014629
20
-2.76945789602971
30
0
41
1
10
58.4244865451774
20
-2.75422046933554
30
0
41
1
10
58.4334791303528
20
-2.74007893218524
30
0
41
1
10
58.4533783550944
20
-2.71342965707171
30
0
41
1
10
58.4644163473521
20
-2.70083915330562
30
0
41
1
10
58.4873454195784
20
-2.67805557901338
30
0
41
1
10
58.4993040149372
20
-2.66774664803171
30
0
41
1
10
58.5131416674488
20
-2.65736832039414
30
0
41
1
10
58.5145788967662
20
-2.65630853728541
30
0
41
1
10
58.5160224537709
20
-2.65526213135144
30
0
0
SPLINE
5
136
100
AcDbEntity
8
1
62
256
6
ByLayer
370
18
48
1
60
0
100
AcDbSpline
70
4
71
3
72
8
73
4
40
0
40
0
40
0
40
0
40
1
40
1
40
1
40
1
41
1
10
64.4330959995207
20
-0.738699975178378
30
0
41
1
10
64.3809677581987
20
-0.738007970286873
30
0
41
1
10
64.3291027979156
20
-0.733875736937904
30
0
41
1
10
64.2774490655599
20
-0.726285896740478
30
0
0
SPLINE
5
137
100
AcDbEntity
8
1
62
256
6
ByLayer
370
18
48
1
60
0
100
AcDbSpline
70
4
71
3
72
8
73
4
40
0
40
0
40
0
40
0
40
1
40
1
40
1
40
1
41
1
10
64.2774490655599
20
-0.726285896740507
30
0
41
1
10
64.1302280441749
20
-0.611321216136247
30
0
41
1
10
63.9837045236685
20
-0.491539211742776
30
0
41
1
10
63.8374688877111
20
-0.367163304561785
30
0
0
SPLINE
5
138
100
AcDbEntity
8
1
62
256
6
ByLayer
370
18
48
1
60
0
100
AcDbSpline
70
4
71
3
72
8
73
4
40
0
40
0
40
0
40
0
40
1
40
1
40
1
40
1
41
1
10
63.8374688877111
20
-0.367163304561785
30
0
41
1
10
63.7605704994771
20
-0.252617274238617
30
0
41
1
10
63.6831343639057
20
-0.143809021571485
30
0
41
1
10
63.6051316643635
20
-0.041594481331316
30
0
0
SPLINE
5
139
100
AcDbEntity
8
1
62
256
6
ByLayer
370
18
48
1
60
0
100
AcDbSpline
70
4
71
3
72
28
73
24
40
0
40
0
40
0
40
0
40
0.125
40
0.125
40
0.25
40
0.25
40
0.375
40
0.375
40
0.5
40
0.5
40
0.625
40
0.625
40
0.6875
40
0.6875
40
0.75
40
0.75
40
0.8125
40
0.8125
40
0.875
40
0.875
40
0.9375
40
0.9375
40
1
40
1
40
1
40
1
41
1
10
63.6051316643635
20
-0.0415944813303497
30
0
41
1
10
63.5976986703829
20
-0.0318543048134643
30
0
41
1
10
63.5890620504513
20
-0.0216317156707078
30
0
41
1
10
63.569924927877
20
-0.0004605479155657
30
0
41
1
10
63.5593169192163
20
0.0105827176390676
30
0
41
1
10
63.5371353385109
20
0.0325836953048224
30
0
41
1
10
63.5255016664295
20
0.0436148045647542
30
0
41
1
10
63.5012073440838
20
0.0657558931220024
30
0
41
1
10
63.4884346832247
20
0.0769545261026394
30
0
41
1
10
63.4627363272757
20
0.0986709708004128
30
0
41
1
10
63.4497339821008
20
0.109266377545708
30
0
41
1
10
63.4300018133034
20
0.124750385804305
30
0
41
1
10
63.4233859536497
20
0.129842881012934
30
0
41
1
10
63.4100725509813
20
0.139877656794908
30
0
41
1
10
63.4034767307629
20
0.144742877219414
30
0
41
1
10
63.3905057185604
20
0.154091461732833
30
0
41
1
10
63.3841180186456
20
0.15858451604214
30
0
41
1
10
63.3715762042427
20
0.167160200986586
30
0
41
1
10
63.3653964506555
20
0.171257481392672
30
0
41
1
10
63.3537146797468
20
0.1787132746569
30
0
41
1
10
63.3481661247888
20
0.182105282209562
30
0
41
1
10
63.3377530088383
20
0.188106390009295
30
0
41
1
10
63.3329044480114
20
0.1907025085643
30
0
41
1
10
63.3286209586995
20
0.192746228682807
30
0
0
SPLINE
5
13A
100
AcDbEntity
8
1
62
256
6
ByLayer
370
18
48
1
60
0
100
AcDbSpline
70
4
71
3
72
26
73
22
40
0
40
0
40
0
40
0
40
0.125
40
0.125
40
0.25
40
0.25
40
0.374999999999999
40
0.374999999999999
40
0.499999999999999
40
0.499999999999999
40
0.624999999999999
40
0.624999999999999
40
0.749999999999999
40
0.749999999999999
40
0.812499999999999
40
0.812499999999999
40
0.874999999999999
40
0.874999999999999
40
0.9375
40
0.9375
40
1
40
1
40
1
40
1
41
1
10
62.5008438248464
20
0.882023612384529
30
0
41
1
10
62.493392516502
20
0.888173230708645
30
0
41
1
10
62.4847320045269
20
0.895237244851927
30
0
41
1
10
62.4655414360609
20
0.91075458729361
30
0
41
1
10
62.4549031608171
20
0.919293864495813
30
0
41
1
10
62.4326661115594
20
0.937055523513862
30
0
41
1
10
62.4210062024209
20
0.946327973245729
30
0
41
1
10
62.3966690059513
20
0.965651055713181
30
0
41
1
10
62.3838825557409
20
0.975787895593442
30
0
41
1
10
62.3581755113382
20
0.996211342907372
30
0
41
1
10
62.3451757392193
20
1.00656030866634
30
0
41
1
10
62.3188922026396
20
1.02763022568394
30
0
41
1
10
62.3054618809692
20
1.03847139451636
30
0
41
1
10
62.2860585815102
20
1.05435486017325
30
0
41
1
10
62.279688425814
20
1.0596070929405
30
0
41
1
10
62.2671797411004
20
1.07002036482663
30
0
41
1
10
62.2610156645479
20
1.07520400036361
30
0
41
1
10
62.2493575519136
20
1.08513665247392
30
0
41
1
10
62.2438176214713
20
1.08992330295788
30
0
41
1
10
62.2334151873401
20
1.09907510442352
30
0
41
1
10
62.2285671763875
20
1.10342940804182
30
0
41
1
10
62.2242817499941
20
1.10738361721633
30
0
0
SPLINE
5
13B
100
AcDbEntity
8
1
62
256
6
ByLayer
370
18
48
1
60
0
100
AcDbSpline
70
4
71
3
72
10
73
6
40
0
40
0
40
0
40
0
40
0.5
40
0.5
40
1
40
1
40
1
40
1
41
1
10
62.2242817499868
20
1.10738361720999
30
0
41
1
10
62.164440902486
20
1.16259941290542
30
0
41
1
10
62.1049510267444
20
1.22162783106424
30
0
41
1
10
61.9865088115128
20
1.34723923647147
30
0
41
1
10
61.927697480971
20
1.4136364551681
30
0
41
1
10
61.8692076071285
20
1.48331001012247
30
0
0
SPLINE
5
13C
100
AcDbEntity
8
1
62
256
6
ByLayer
370
18
48
1
60
0
100
AcDbSpline
70
4
71
3
72
10
73
6
40
0
40
0
40
0
40
0
40
0.5
40
0.5
40
1
40
1
40
1
40
1
41
1
10
61.7652331060794
20
1.5789723009427
30
0
41
1
10
61.7045013697319
20
1.6163034599748
30
0
41
1
10
61.643390797934
20
1.64873691361291
30
0
41
1
10
61.5204091770584
20
1.7036682838239
30
0
41
1
10
61.4585740426653
20
1.72617290523866
30
0
41
1
10
61.3963734983852
20
1.74342417600477
30
0
0
SPLINE
5
13D
100
AcDbEntity
8
1
62
256
6
ByLayer
370
18
48
1
60
0
100
AcDbSpline
70
4
71
3
72
26
73
22
40
0
40
0
40
0
40
0
40
0.125
40
0.125
40
0.25
40
0.25
40
0.375
40
0.375
40
0.5
40
0.5
40
0.625
40
0.625
40
0.75
40
0.75
40
0.8125
40
0.8125
40
0.875
40
0.875
40
0.9375
40
0.9375
40
1
40
1
40
1
40
1
41
1
10
61.3963734983851
20
1.74342417600553
30
0
41
1
10
61.3889286804623
20
1.74548899024916
30
0
41
1
10
61.3802745553406
20
1.74882295664901
30
0
41
1
10
61.3610936137461
20
1.75742849746723
30
0
41
1
10
61.3504577321307
20
1.7627709232618
30
0
41
1
10
61.3282207343031
20
1.77485443201678
30
0
41
1
10
61.3165595280696
20
1.78161666331576
30
0
41
1
10
61.2922168469975
20
1.79655046424486
30
0
41
1
10
61.2794262956998
20
1.80480060761929
30
0
41
1
10
61.2537123200404
20
1.82225562903597
30
0
41
1
10
61.2407087408605
20
1.83150160796683
30
0
41
1
10
61.2144170088561
20
1.85123005855579
30
0
41
1
10
61.2009845554144
20
1.86183778841831
30
0
41
1
10
61.1815859038178
20
1.87820863376874
30
0
41
1
10
61.1752176810971
20
1.88376148411962
30
0
41
1
10
61.1627136968688
20
1.89509577381742
30
0
41
1
10
61.1565542118852
20
1.90090405500553
30
0
41
1
10
61.1449075228337
20
1.91241908122711
30
0
41
1
10
61.1393736442523
20
1.91816546947953
30
0
41
1
10
61.1289835307534
20
1.92963180980931
30
0
41
1
10
61.1241432197211
20
1.93534146872111
30
0
41
1
10
61.1198643817569
20
1.94084051251525
30
0
0
SPLINE
5
13E
100
AcDbEntity
8
1
62
256
6
ByLayer
370
18
48
1
60
0
100
AcDbSpline
70
4
71
3
72
10
73
6
40
0
40
0
40
0
40
0
40
0.5
40
0.5
40
1
40
1
40
1
40
1
41
1
10
61.1198643817499
20
1.94084051251213
30
0
41
1
10
61.0600244640696
20
2.01774511388987
30
0
41
1
10
61.0005346567333
20
2.09768739739326
30
0
41
1
10
60.8820953408682
20
2.2635966471903
30
0
41
1
10
60.8232892724976
20
2.34932417943355
30
0
41
1
10
60.7648237546242
20
2.43764343673053
30
0
0
SPLINE
5
13F
100
AcDbEntity
8
1
62
256
6
ByLayer
370
18
48
1
60
0
100
AcDbSpline
70
4
71
3
72
10
73
6
40
0
40
0
40
0
40
0
40
0.5
40
0.5
40
1
40
1
40
1
40
1
41
1
10
60.6608601908391
20
2.51927872622019
30
0
41
1
10
60.6000773451891
20
2.52195079737609
30
0
41
1
10
60.5389491745527
20
2.51968243085878
30
0
41
1
10
60.4159709068617
20
2.50510709172772
30
0
41
1
10
60.3541701252671
20
2.49286663080048
30
0
41
1
10
60.2918830043039
20
2.47492521771585
30
0
0
SPLINE
5
140
100
AcDbEntity
8
1
62
256
6
ByLayer
370
18
48
1
60
0
100
AcDbSpline
70
4
71
3
72
26
73
22
40
0
40
0
40
0
40
0
40
0.12500000000002
40
0.12500000000002
40
0.250000000000039
40
0.250000000000039
40
0.375000000000059
40
0.375000000000059
40
0.500000000000078
40
0.500000000000078
40
0.625000000000098
40
0.625000000000098
40
0.750000000000117
40
0.750000000000117
40
0.812500000000088
40
0.812500000000088
40
0.875000000000059
40
0.875000000000059
40
0.937500000000029
40
0.937500000000029
40
1
40
1
40
1
40
1
41
1
10
60.2918830043039
20
2.47492521771585
30
0
41
1
10
60.2844584709252
20
2.47278662761494
30
0
41
1
10
60.2758280408635
20
2.47216463923235
30
0
41
1
10
60.2566888796714
20
2.47324032584191
30
0
41
1
10
60.246070327086
20
2.47498760938308
30
0
41
1
10
60.2238511218631
20
2.48047822303502
30
0
41
1
10
60.212192366294
20
2.4842127935313
30
0
41
1
10
60.1878410640377
20
2.49361371184167
30
0
41
1
10
60.1750387262049
20
2.49934557497525
30
0
41
1
10
60.1493006864032
20
2.51250309713768
30
0
41
1
10
60.1362840338185
20
2.51994539311846
30
0
41
1
10
60.1099653620853
20
2.53684539563258
30
0
41
1
10
60.0965216933314
20
2.54642460514955
30
0
41
1
10
60.0771198667386
20
2.56205675386752
30
0
41
1
10
60.0707515922485
20
2.56749463861655
30
0
41
1
10
60.0582496189056
20
2.57890182699862
30
0
41
1
10
60.0520946555868
20
2.58489947900517
30
0
41
1
10
60.0404611401205
20
2.59713139856606
30
0
41
1
10
60.0349349275194
20
2.60340475565405
30
0
41
1
10
60.024561439551
20
2.61631900605201
30
0
41
1
10
60.0197318995174
20
2.62294979420332
30
0
41
1
10
60.015462559368
20
2.6295729740167
30
0
0
SPLINE
5
141
100
AcDbEntity
8
1
62
256
6
ByLayer
370
18
48
1
60
0
100
AcDbSpline
70
4
71
3
72
10
73
6
40
0
40
0
40
0
40
0
40
0.5
40
0.5
40
1
40
1
40
1
40
1
41
1
10
60.0154625593609
20
2.62957297401849
30
0
41
1
10
59.9556101801527
20
2.72242410696805
30
0
41
1
10
59.8961162252871
20
2.81736627858058
30
0
41
1
10
59.7776783471703
20
3.0113373927299
30
0
41
1
10
59.718884374888
20
3.11009045001396
30
0
41
1
10
59.6604358797411
20
3.21042649799557
30
0
0
SPLINE
5
142
100
AcDbEntity
8
1
62
256
6
ByLayer
370
18
48
1
60
0
100
AcDbSpline
70
4
71
3
72
10
73
6
40
0
40
0
40
0
40
0
40
0.5
40
0.5
40
1
40
1
40
1
40
1
41
1
10
59.5564320313386
20
3.27167192124122
30
0
41
1
10
59.495639888813
20
3.23909124383783
30
0
41
1
10
59.4345058533278
20
3.20180604474928
30
0
41
1
10
59.3115247323248
20
3.11782214381836
30
0
41
1
10
59.2497196739793
20
3.07117296546375
30
0
41
1
10
59.1875698906383
20
3.01977043237281
30
0
0
SPLINE
5
143
100
AcDbEntity
8
1
62
256
6
ByLayer
370
18
48
1
60
0
100
AcDbSpline
70
4
71
3
72
28
73
24
40
0
40
0
40
0
40
0
40
0.125
40
0.125
40
0.249999999999999
40
0.249999999999999
40
0.374999999999999
40
0.374999999999999
40
0.499999999999998
40
0.499999999999998
40
0.624999999999998
40
0.624999999999998
40
0.687499999999998
40
0.687499999999998
40
0.749999999999998
40
0.749999999999998
40
0.812499999999999
40
0.812499999999999
40
0.874999999999999
40
0.874999999999999
40
0.9375
40
0.9375
40
1
40
1
40
1
40
1
41
1
10
59.1875698906375
20
3.01977043237417
30
0
41
1
10
59.1801186933272
20
3.01360773323475
30
0
41
1
10
59.1714592863042
20
3.00913696766466
30
0
41
1
10
59.152272194279
20
3.00278070158566
30
0
41
1
10
59.1416369721538
20
3.00092197401554
30
0
41
1
10
59.1194071036533
20
2.99967343371046
30
0
41
1
10
59.107751055273
20
3.00024688514327
30
0
41
1
10
59.0834217696967
20
3.00370983059568
30
0
41
1
10
59.0706389324918
20
3.00664711775767
30
0
41
1
10
59.0449361893809
20
3.01481451187979
30
0
41
1
10
59.0319377816969
20
3.02003523113473
30
0
41
1
10
59.0122254697995
20
3.02983429126627
30
0
41
1
10
59.0056186188762
20
3.03343189106948
30
0
41
1
10
58.9923285457247
20
3.04139494610183
30
0
41
1
10
58.9857502225871
20
3.04569914903226
30
0
41
1
10
58.9728082987563
20
3.05497794990984
30
0
41
1
10
58.9664347537611
20
3.05995747808703
30
0
41
1
10
58.9539189566487
20
3.07070916281052
30
0
41
1
10
58.9477503757674
20
3.07651584963926
30
0
41
1
10
58.9360831033343
20
3.08869203587116
30
0
41
1
10
58.9305387704307
20
3.09509432583366
30
0
41
1
10
58.9201281313661
20
3.1086353150221
30
0
41
1
10
58.9152761107794
20
3.11577187771283
30
0
41
1
10
58.9109876825579
20
3.12310290531968
30
0
0
SPLINE
5
144
100
AcDbEntity
8
1
62
256
6
ByLayer
370
18
48
1
60
0
100
AcDbSpline
70
4
71
3
72
10
73
6
40
0
40
0
40
0
40
0
40
0.5
40
0.5
40
1
40
1
40
1
40
1
41
1
10
58.9109876825511
20
3.12310290532631
30
0
41
1
10
58.8511585798276
20
3.22538019228946
30
0
41
1
10
58.7916719892205
20
3.32849879766732
30
0
41
1
10
58.6732110792059
20
3.53628880843109
30
0
41
1
10
58.6143848269941
20
3.64072459660156
30
0
41
1
10
58.5559153525578
20
3.74560709619769
30
0
0
SPLINE
5
145
100
AcDbEntity
8
1
62
256
6
ByLayer
370
18
48
1
60
0
100
AcDbSpline
70
4
71
3
72
10
73
6
40
0
40
0
40
0
40
0
40
0.5
40
0.5
40
1
40
1
40
1
40
1
41
1
10
58.4519368617522
20
3.78190439830209
30
0
41
1
10
58.391186959839
20
3.71666600464815
30
0
41
1
10
58.3300791910581
20
3.64724773608631
30
0
41
1
10
58.2071219839594
20
3.50021646434843
30
0
41
1
10
58.1453138105556
20
3.42266268513691
30
0
41
1
10
58.0831390790334
20
3.34112094630527
30
0
0
SPLINE
5
146
100
AcDbEntity
8
1
62
256
6
ByLayer
370
18
48
1
60
0
100
AcDbSpline
70
4
71
3
72
26
73
22
40
0
40
0
40
0
40
0
40
0.124999999999981
40
0.124999999999981
40
0.249999999999961
40
0.249999999999961
40
0.374999999999941
40
0.374999999999941
40
0.499999999999922
40
0.499999999999922
40
0.624999999999902
40
0.624999999999902
40
0.749999999999883
40
0.749999999999883
40
0.812499999999912
40
0.812499999999912
40
0.874999999999941
40
0.874999999999941
40
0.937499999999971
40
0.937499999999971
40
1
40
1
40
1
40
1
41
1
10
58.0831390790334
20
3.34112094630549
30
0
41
1
10
58.0756930839325
20
3.3313555742163
30
0
41
1
10
58.0670381062673
20
3.32330212925155
30
0
41
1
10
58.0478547089494
20
3.30981834015302
30
0
41
1
10
58.0372175814693
20
3.30438799841153
30
0
41
1
10
58.0149785575398
20
3.29627651545627
30
0
41
1
10
58.0033163475608
20
3.29353219030301
30
0
41
1
10
57.9789718564298
20
3.29057379520748
30
0
41
1
10
57.9661807167936
20
3.29038601735289
30
0
41
1
10
57.9404664790107
20
3.2927451400239
30
0
41
1
10
57.9274629816224
20
3.29525774723217
30
0
41
1
10
57.9011721239527
20
3.30333827122951
30
0
41
1
10
57.8877410203952
20
3.30899896708283
30
0
41
1
10
57.8683441962415
20
3.32002722123926
30
0
41
1
10
57.8619764805996
20
3.32413186038511
30
0
41
1
10
57.8494731857685
20
3.333336720441
30
0
41
1
10
57.8433138719383
20
3.33846832270865
30
0
41
1
10
57.8316667900843
20
3.34957109575163
30
0
41
1
10
57.8261323939678
20
3.35556933678524
30
0
41
1
10
57.8157406088784
20
3.36861267639901
30
0
41
1
10
57.8108990299017
20
3.37565703697101
30
0
41
1
10
57.806618964318
20
3.38308351282924
30
0
0
SPLINE
5
147
100
AcDbEntity
8
1
62
256
6
ByLayer
370
18
48
1
60
0
100
AcDbSpline
70
4
71
3
72
10
73
6
40
0
40
0
40
0
40
0
40
0.5
40
0.5
40
1
40
1
40
1
40
1
41
1
10
57.8066189643111
20
3.38308351284033
30
0
41
1
10
57.7467596033284
20
3.4869473650721
30
0
41
1
10
57.6872547521624
20
3.59043977022387
30
0
41
1
10
57.5687927112404
20
3.79658731519152
30
0
41
1
10
57.5099810237675
20
3.89898534361961
30
0
41
1
10
57.4515164164418
20
4.00061895298256
30
0
0
SPLINE
5
148
100
AcDbEntity
8
1
62
256
6
ByLayer
370
18
48
1
60
0
100
AcDbSpline
70
4
71
3
72
12
73
8
40
0
40
0
40
0
40
0
40
0.250000000000001
40
0.250000000000001
40
0.500000000000001
40
0.500000000000001
40
1
40
1
40
1
40
1
41
1
10
57.3475290986209
20
4.00941512147332
30
0
41
1
10
57.317194306433
20
3.96301267248194
30
0
41
1
10
57.286781038647
20
3.91580105223062
30
0
41
1
10
57.2257401639243
20
3.8196980722989
30
0
41
1
10
57.1950994271328
20
3.77078353788693
30
0
41
1
10
57.1028713242162
20
3.62162325169737
30
0
41
1
10
57.040980606793
20
3.51897843032091
30
0
41
1
10
56.9787101018676
20
3.41342607837848
30
0
0
SPLINE
5
149
100
AcDbEntity
8
1
62
256
6
ByLayer
370
18
48
1
60
0
100
AcDbSpline
70
4
71
3
72
26
73
22
40
0
40
0
40
0
40
0
40
0.12499999999998
40
0.12499999999998
40
0.249999999999961
40
0.249999999999961
40
0.374999999999941
40
0.374999999999941
40
0.499999999999921
40
0.499999999999921
40
0.624999999999902
40
0.624999999999902
40
0.749999999999882
40
0.749999999999882
40
0.812499999999912
40
0.812499999999912
40
0.874999999999941
40
0.874999999999941
40
0.93749999999997
40
0.93749999999997
40
1
40
1
40
1
40
1
41
1
10
56.9787101018669
20
3.41342607837822
30
0
41
1
10
56.9712722134533
20
3.40081839812126
30
0
41
1
10
56.9626241610365
20
3.38981332008691
30
0
41
1
10
56.9434473225463
20
3.37026917072473
30
0
41
1
10
56.9328082410605
20
3.36170221743973
30
0
41
1
10
56.9105574199858
20
3.34739339037893
30
0
41
1
10
56.8988869235769
20
3.34156755289735
30
0
41
1
10
56.8745220282854
20
3.33247461596551
30
0
41
1
10
56.8617198268066
20
3.32921129167937
30
0
41
1
10
56.8359903211926
20
3.32566018981137
30
0
41
1
10
56.8229801574652
20
3.32531495024054
30
0
41
1
10
56.7966791174431
20
3.32788359647017
30
0
41
1
10
56.7832516872949
20
3.33086400617265
30
0
41
1
10
56.7638759134042
20
3.33823698551913
30
0
41
1
10
56.7575158550744
20
3.34117878123024
30
0
41
1
10
56.7450290473087
20
3.34818447410012
30
0
41
1
10
56.7388822036178
20
3.35227442445853
30
0
41
1
10
56.7272619911092
20
3.36150345277286
30
0
41
1
10
56.7217408821993
20
3.36666194409588
30
0
41
1
10
56.7113744672104
20
3.37825272100614
30
0
41
1
10
56.7065470256094
20
3.38468512667299
30
0
41
1
10
56.7022782909516
20
3.39165476088479
30
0
0
SPLINE
5
14A
100
AcDbEntity
8
1
62
256
6
ByLayer
370
18
48
1
60
0
100
AcDbSpline
70
4
71
3
72
10
73
6
40
0
40
0
40
0
40
0
40
0.5
40
0.5
40
1
40
1
40
1
40
1
41
1
10
56.7022782909445
20
3.39165476090003
30
0
41
1
10
56.642410189673
20
3.4894024075391
30
0
41
1
10
56.5829070765096
20
3.58553321917657
30
0
41
1
10
56.4644541587215
20
3.77451560796103
30
0
41
1
10
56.4056531101399
20
3.8671373634748
30
0
41
1
10
56.347198360079
20
3.95786760844129
30
0
0
SPLINE
5
14B
100
AcDbEntity
8
1
62
256
6
ByLayer
370
18
48
1
60
0
100
AcDbSpline
70
4
71
3
72
8
73
4
40
0
40
0
40
0
40
0
40
1
40
1
40
1
40
1
41
1
10
56.2431368284266
20
3.93839356148453
30
0
41
1
10
56.2778212628774
20
3.94532720807703
30
0
41
1
10
56.3125066388124
20
3.95181847766133
30
0
41
1
10
56.347198360079
20
3.95786760844126
30
0
0
SPLINE
5
14C
100
AcDbEntity
8
1
62
256
6
ByLayer
370
18
48
1
60
0
100
AcDbSpline
70
4
71
3
72
10
73
6
40
0
40
0
40
0
40
0
40
0.5
40
0.5
40
1
40
1
40
1
40
1
41
1
10
56.2431368284267
20
3.93839356148453
30
0
41
1
10
56.1823422172904
20
3.82451749275498
30
0
41
1
10
56.121221809513
20
3.7084975760898
30
0
41
1
10
55.9982612539741
20
3.47258028384115
30
0
41
1
10
55.9364574455138
20
3.35274233907057
30
0
41
1
10
55.8742746002867
20
3.23126241791374
30
0
0
SPLINE
5
14D
100
AcDbEntity
8
1
62
256
6
ByLayer
370
18
48
1
60
0
100
AcDbSpline
70
4
71
3
72
28
73
24
40
0
40
0
40
0
40
0
40
0.125
40
0.125
40
0.250000000000001
40
0.250000000000001
40
0.375000000000001
40
0.375000000000001
40
0.500000000000001
40
0.500000000000001
40
0.625000000000002
40
0.625000000000002
40
0.687500000000001
40
0.687500000000001
40
0.750000000000001
40
0.750000000000001
40
0.812500000000001
40
0.812500000000001
40
0.875000000000001
40
0.875000000000001
40
0.9375
40
0.9375
40
1
40
1
40
1
40
1
41
1
10
55.8742746002867
20
3.23126241791377
30
0
41
1
10
55.8668328009223
20
3.21672417675154
30
0
41
1
10
55.8581856097881
20
3.20357151175122
30
0
41
1
10
55.839022681038
20
3.17939461637562
30
0
41
1
10
55.8283990599156
20
3.16832005927995
30
0
41
1
10
55.8061876970584
20
3.14884788471608
30
0
41
1
10
55.7945396739414
20
3.14035067322069
30
0
41
1
10
55.7702217078871
20
3.12573363246233
30
0
41
1
10
55.7574413903722
20
3.11959197458762
30
0
41
1
10
55.7317382651704
20
3.11028722214732
30
0
41
1
10
55.7187371244705
20
3.1070494868473
30
0
41
1
10
55.6990152768262
20
3.10460352995011
30
0
41
1
10
55.6924043392571
20
3.10419391692449
30
0
41
1
10
55.6791039723494
20
3.10430839456777
30
0
41
1
10
55.6725210936062
20
3.10483352471965
30
0
41
1
10
55.6595695413589
20
3.10690175109949
30
0
41
1
10
55.6531911898719
20
3.10844367723942
30
0
41
1
10
55.6406663994634
20
3.11270289235461
30
0
41
1
10
55.634494954407
20
3.11544364134147
30
0
41
1
10
55.6228262593812
20
3.1221257866672
30
0
41
1
10
55.6172825116315
20
3.12607503606742
30
0
41
1
10
55.6068757046276
20
3.13539579717295
30
0
41
1
10
55.602028361373
20
3.14077366857919
30
0
41
1
10
55.5977448187904
20
3.14681118635849
30
0
0
SPLINE
5
14E
100
AcDbEntity
8
1
62
256
6
ByLayer
370
18
48
1
60
0
100
AcDbSpline
70
4
71
3
72
12
73
8
40
0
40
0
40
0
40
0
40
0.25
40
0.25
40
0.5
40
0.5
40
1
40
1
40
1
40
1
41
1
10
55.5977448187833
20
3.14681118637529
30
0
41
1
10
55.5678183227083
20
3.18899163601199
30
0
41
1
10
55.5379771758921
20
3.23052447088401
30
0
41
1
10
55.4784586178606
20
3.3121938454247
30
0
41
1
10
55.4487807158278
20
3.35233310910348
30
0
41
1
10
55.3599520932231
20
3.47069579058001
30
0
41
1
10
55.3011616899771
20
3.54666039527101
30
0
41
1
10
55.2427173439833
20
3.61973829169756
30
0
0
SPLINE
5
14F
100
AcDbEntity
8
1
62
256
6
ByLayer
370
18
48
1
60
0
100
AcDbSpline
70
4
71
3
72
8
73
4
40
0
40
0
40
0
40
0
40
1
40
1
40
1
40
1
41
1
10
55.1386419184251
20
3.57346714516297
30
0
41
1
10
55.1733365941893
20
3.58929388622306
30
0
41
1
10
55.2080262452069
20
3.60471831554327
30
0
41
1
10
55.2427173439833
20
3.61973829169753
30
0
0
SPLINE
5
150
100
AcDbEntity
8
1
62
256
6
ByLayer
370
18
48
1
60
0
100
AcDbSpline
70
4
71
3
72
10
73
6
40
0
40
0
40
0
40
0
40
0.5
40
0.5
40
1
40
1
40
1
40
1
41
1
10
55.1386419184251
20
3.57346714516297
30
0
41
1
10
55.0779000882092
20
3.4473557367528
30
0
41
1
10
55.0168118225301
20
3.32038644330302
30
0
41
1
10
54.8938788919335
20
3.06524767642952
30
0
41
1
10
54.8320707649212
20
2.93713795690996
30
0
41
1
10
54.7698933658645
20
2.80882882671625
30
0
0
SPLINE
5
151
100
AcDbEntity
8
1
62
256
6
ByLayer
370
18
48
1
60
0
100
AcDbSpline
70
4
71
3
72
16
73
12
40
0
40
0
40
0
40
0
40
0.241196563683931
40
0.241196563683931
40
0.482393127367862
40
0.482393127367862
40
0.723589691051793
40
0.723589691051793
40
0.964786254735724
40
0.964786254735724
40
1
40
1
40
1
40
1
41
1
10
54.7698933658645
20
2.80882882671545
30
0
41
1
10
54.762444755002
20
2.79345789136886
30
0
41
1
10
54.7537868419987
20
2.77914842799345
30
0
41
1
10
54.7345960491298
20
2.75216734678267
30
0
41
1
10
54.7239542175465
20
2.73942413669368
30
0
41
1
10
54.7017061989689
20
2.71628537093386
30
0
41
1
10
54.690039576178
20
2.70578229901358
30
0
41
1
10
54.6656877345293
20
2.68681295422277
30
0
41
1
10
54.6528942646102
20
2.67830446876872
30
0
41
1
10
54.638159352049
20
2.670140192161
30
0
41
1
10
54.6362790772739
20
2.66912771531835
30
0
41
1
10
54.6343957203973
20
2.66814337538855
30
0
0
SPLINE
5
152
100
AcDbEntity
8
1
62
256
6
ByLayer
370
18
48
1
60
0
100
AcDbSpline
70
4
71
3
72
29
73
25
40
0
40
0
40
0
40
0
40
0.125000000000048
40
0.125000000000048
40
0.250000000000096
40
0.250000000000096
40
0.375000000000144
40
0.375000000000144
40
0.43750000000013
40
0.43750000000013
40
0.500000000000116
40
0.500000000000116
40
0.625000000000087
40
0.625000000000087
40
0.687500000000073
40
0.687500000000073
40
0.750000000000058
40
0.812500000000044
40
0.812500000000044
40
0.875000000000029
40
0.875000000000029
40
0.937500000000015
40
0.937500000000015
40
1
40
1
40
1
40
1
41
1
10
62.4660977990876
20
-3.05646048565041
30
0
41
1
10
62.4738101329893
20
-3.04897802014159
30
0
41
1
10
62.4828054276008
20
-3.0434869055228
30
0
41
1
10
62.5027138861267
20
-3.03545148820751
30
0
41
1
10
62.5137609429224
20
-3.03293730051004
30
0
41
1
10
62.5367104770762
20
-3.03072152141178
30
0
41
1
10
62.5486786466722
20
-3.03097024132677
30
0
41
1
10
62.5673055105046
20
-3.03325043586443
30
0
41
1
10
62.5736525177681
20
-3.03433792415535
30
0
41
1
10
62.5864592518589
20
-3.03715317911303
30
0
41
1
10
62.5928849901048
20
-3.03887093125186
30
0
41
1
10
62.6122203407109
20
-3.044949055095
30
0
41
1
10
62.625187287507
20
-3.05021879940301
30
0
41
1
10
62.6447325056823
20
-3.06017758699454
30
0
41
1
10
62.6512974432202
20
-3.06386611625266
30
0
41
1
10
62.6642068309524
20
-3.0718681585042
30
0
41
1
10
62.6769278501992
20
-3.08050422301775
30
0
41
1
10
62.6892294841777
20
-3.09051650874019
30
0
41
1
10
62.7012859768448
20
-3.10132075024339
30
0
41
1
10
62.7071935022943
20
-3.10713079916536
30
0
41
1
10
62.718369467555
20
-3.11931508573022
30
0
41
1
10
62.7236822451124
20
-3.12572492604988
30
0
41
1
10
62.733669856345
20
-3.1392812948875
30
0
41
1
10
62.7383577200995
20
-3.14646076120758
30
0
41
1
10
62.742536990372
20
-3.15388355285481
30
0
0
SPLINE
5
153
100
AcDbEntity
8
1
62
256
6
ByLayer
370
18
48
1
60
0
100
AcDbSpline
70
4
71
3
72
10
73
6
40
0
40
0
40
0
40
0
40
0.5
40
0.5
40
1
40
1
40
1
40
1
41
1
10
62.7425369903719
20
-3.15388355285418
30
0
41
1
10
62.7966432901282
20
-3.24998161871389
30
0
41
1
10
62.850390022669
20
-3.34635196693563
30
0
41
1
10
62.9573002032737
20
-3.5395649441156
30
0
41
1
10
63.0104076658008
20
-3.63629718893671
30
0
41
1
10
63.0631521740549
20
-3.73292326979453
30
0
0
SPLINE
5
154
100
AcDbEntity
8
1
62
256
6
ByLayer
370
18
48
1
60
0
100
AcDbSpline
70
4
71
3
72
8
73
4
40
0
40
0
40
0
40
0
40
1
40
1
40
1
40
1
41
1
10
63.0631521740549
20
-3.73292326979453
30
0
41
1
10
63.1335771786399
20
-3.73958269779158
30
0
41
1
10
63.2042618865363
20
-3.74418401200327
30
0
41
1
10
63.2752498025377
20
-3.74672443343769
30
0
0
SPLINE
5
155
100
AcDbEntity
8
1
62
256
6
ByLayer
370
18
48
1
60
0
100
AcDbSpline
70
4
71
3
72
10
73
6
40
0
40
0
40
0
40
0
40
0.5
40
0.5
40
1
40
1
40
1
40
1
41
1
10
63.2752498025377
20
-3.74672443343783
30
0
41
1
10
63.3238792510602
20
-3.68642571202457
30
0
41
1
10
63.3727968526125
20
-3.62377379733104
30
0
41
1
10
63.471188779124
20
-3.49381672078911
30
0
41
1
10
63.5206408846645
20
-3.42655365120973
30
0
41
1
10
63.5704542232681
20
-3.35695393959583
30
0
0
SPLINE
5
156
100
AcDbEntity
8
1
62
256
6
ByLayer
370
18
48
1
60
0
100
AcDbSpline
70
4
71
3
72
30
73
26
40
0
40
0
40
0
40
0
40
0.125
40
0.125
40
0.250000000000001
40
0.250000000000001
40
0.375000000000001
40
0.375000000000001
40
0.437500000000001
40
0.437500000000001
40
0.500000000000001
40
0.500000000000001
40
0.625000000000002
40
0.625000000000002
40
0.687500000000001
40
0.687500000000001
40
0.750000000000001
40
0.750000000000001
40
0.812500000000001
40
0.812500000000001
40
0.875000000000001
40
0.875000000000001
40
0.9375
40
0.9375
40
1
40
1
40
1
40
1
41
1
10
63.5704542232681
20
-3.3569539395958
30
0
41
1
10
63.5781721327801
20
-3.34617039664607
30
0
41
1
10
63.5871723527308
20
-3.337363801663
30
0
41
1
10
63.6070870729692
20
-3.32267353017011
30
0
41
1
10
63.6181343818904
20
-3.31678970270835
30
0
41
1
10
63.641079972609
20
-3.3080632741642
30
0
41
1
10
63.6530452794219
20
-3.30514488188183
30
0
41
1
10
63.6716660710266
20
-3.3027925606068
30
0
41
1
10
63.6780105189583
20
-3.30235002530819
30
0
41
1
10
63.6908136018688
20
-3.30217148408084
30
0
41
1
10
63.6972376752076
20
-3.30243304891147
30
0
41
1
10
63.7165686425503
20
-3.30426097416429
30
0
41
1
10
63.7295335490908
20
-3.30685317594814
30
0
41
1
10
63.7490765297678
20
-3.31304647298722
30
0
41
1
10
63.7556414302887
20
-3.3155164496865
30
0
41
1
10
63.7685550148394
20
-3.32122163268608
30
0
41
1
10
63.7749178161946
20
-3.32445653618598
30
0
41
1
10
63.7874336392518
20
-3.3317557671335
30
0
41
1
10
63.7935869409968
20
-3.33581918918509
30
0
41
1
10
63.8056486778138
20
-3.34489704485674
30
0
41
1
10
63.8115613283922
20
-3.34992629176739
30
0
41
1
10
63.8227475729918
20
-3.3607795501884
30
0
41
1
10
63.8280654273678
20
-3.36663204444113
30
0
41
1
10
63.8380627714009
20
-3.37932496007417
30
0
41
1
10
63.8427563316378
20
-3.38620032540803
30
0
41
1
10
63.8469410088702
20
-3.39348030422809
30
0
0
SPLINE
5
157
100
AcDbEntity
8
1
62
256
6
ByLayer
370
18
48
1
60
0
100
AcDbSpline
70
4
71
3
72
8
73
4
40
0
40
0
40
0
40
0
40
1
40
1
40
1
40
1
41
1
10
63.8469410088701
20
-3.39348030422789
30
0
41
1
10
63.9054588725341
20
-3.49528237507025
30
0
41
1
10
63.9635638958777
20
-3.59627798002253
30
0
41
1
10
64.0213451850591
20
-3.69640817780677
30
0
0
SPLINE
5
158
100
AcDbEntity
8
1
62
256
6
ByLayer
370
18
48
1
60
0
100
AcDbSpline
70
4
71
3
72
8
73
4
40
0
40
0
40
0
40
0
40
1
40
1
40
1
40
1
41
1
10
64.0213451850591
20
-3.6964081778068
30
0
41
1
10
64.2078246023635
20
-3.66511007677693
30
0
41
1
10
64.3953025023446
20
-3.62016448836758
30
0
41
1
10
64.5843533897551
20
-3.56224547821154
30
0
0
SPLINE
5
159
100
AcDbEntity
8
1
62
256
6
ByLayer
370
18
48
1
60
0
100
AcDbSpline
70
4
71
3
72
8
73
4
40
0
40
0
40
0
40
0
40
1
40
1
40
1
40
1
41
1
10
64.5843533897547
20
-3.56224547821088
30
0
41
1
10
64.6143628403505
20
-3.51138052356967
30
0
41
1
10
64.6444719263702
20
-3.4599598199008
30
0
41
1
10
64.6747058709921
20
-3.40797013520901
30
0
0
SPLINE
5
15A
100
AcDbEntity
8
1
62
256
6
ByLayer
370
18
48
1
60
0
100
AcDbSpline
70
4
71
3
72
30
73
26
40
0
40
0
40
0
40
0
40
0.124999999999952
40
0.124999999999952
40
0.249999999999904
40
0.249999999999904
40
0.374999999999856
40
0.374999999999856
40
0.43749999999987
40
0.43749999999987
40
0.499999999999885
40
0.499999999999885
40
0.624999999999914
40
0.624999999999914
40
0.687499999999928
40
0.687499999999928
40
0.749999999999943
40
0.749999999999943
40
0.812499999999957
40
0.812499999999957
40
0.874999999999971
40
0.874999999999971
40
0.937499999999986
40
0.937499999999986
40
1
40
1
40
1
40
1
41
1
10
64.6747058709921
20
-3.40797013520901
30
0
41
1
10
64.6824419782704
20
-3.39466728031638
30
0
41
1
10
64.6914653314593
20
-3.38318600729585
30
0
41
1
10
64.7114286781879
20
-3.36291810397327
30
0
41
1
10
64.7225018130609
20
-3.35410128700903
30
0
41
1
10
64.7454892249405
20
-3.33952793292644
30
0
41
1
10
64.7574725121924
20
-3.33367352242635
30
0
41
1
10
64.7761137681336
20
-3.32689120542236
30
0
41
1
10
64.7824646313851
20
-3.32496190693877
30
0
41
1
10
64.7952717999829
20
-3.32182593890124
30
0
41
1
10
64.801696634092
20
-3.32062372862509
30
0
41
1
10
64.8210257572881
20
-3.31810083888348
30
0
41
1
10
64.8339837480467
20
-3.31784587209151
30
0
41
1
10
64.8535087142518
20
-3.31984181998652
30
0
41
1
10
64.8600650480499
20
-3.32091782096862
30
0
41
1
10
64.8729567618427
20
-3.32391076538281
30
0
41
1
10
64.8793088754254
20
-3.3258247897337
30
0
41
1
10
64.8918039594919
20
-3.33055659887006
30
0
41
1
10
64.8979471514978
20
-3.33337336397849
30
0
41
1
10
64.9099896579148
20
-3.3400417323798
30
0
41
1
10
64.9158933055627
20
-3.34390763468852
30
0
41
1
10
64.9270652929237
20
-3.35260169403074
30
0
41
1
10
64.9323775568224
20
-3.35744917354751
30
0
41
1
10
64.9423668682564
20
-3.36830667797068
30
0
41
1
10
64.9470589388198
20
-3.37435051050355
30
0
41
1
10
64.9512442957846
20
-3.38093015329929
30
0
0
SPLINE
5
15B
100
AcDbEntity
8
1
62
256
6
ByLayer
370
18
48
1
60
0
100
AcDbSpline
70
4
71
3
72
8
73
4
40
0
40
0
40
0
40
0
40
1
40
1
40
1
40
1
41
1
10
64.9512442957845
20
-3.38093015329949
30
0
41
1
10
64.9603682389348
20
-3.39527356231392
30
0
41
1
10
64.9694818267855
20
-3.40957056155847
30
0
41
1
10
64.9785858913327
20
-3.4238226088975
30
0
0
SPLINE
5
15C
100
AcDbEntity
8
1
62
256
6
ByLayer
370
18
48
1
60
0
100
AcDbSpline
70
4
71
3
72
14
73
10
40
0
40
0
40
0
40
0
40
0.25
40
0.25
40
0.5
40
0.5
40
0.75
40
0.75
40
1
40
1
40
1
40
1
41
1
10
64.9785858913328
20
-3.42382260889778
30
0
41
1
10
65.0375192194981
20
-3.400587324507
30
0
41
1
10
65.0967851457402
20
-3.37614430601263
30
0
41
1
10
65.2160306814078
20
-3.32488329857182
30
0
41
1
10
65.2760832573314
20
-3.29803037377988
30
0
41
1
10
65.396459909851
20
-3.24220457736749
30
0
41
1
10
65.4567778601855
20
-3.21322389848535
30
0
41
1
10
65.5779347922994
20
-3.15320711791387
30
0
41
1
10
65.6387984179249
20
-3.12217444870186
30
0
41
1
10
65.699999917173
20
-3.09016116734031
30
0
0
SPLINE
5
15D
100
AcDbEntity
8
1
62
256
6
ByLayer
370
18
48
1
60
0
100
AcDbSpline
70
4
71
3
72
10
73
6
40
0
40
0
40
0
40
0
40
0.5
40
0.5
40
1
40
1
40
1
40
1
41
1
10
65.6999999171729
20
-3.0901611673404
30
0
41
1
10
65.7481448255537
20
-3.03047666543057
30
0
41
1
10
65.7971252737366
20
-2.9701547521031
30
0
41
1
10
65.897166898467
20
-2.84845863058345
30
0
41
1
10
65.948097001205
20
-2.78724331623326
30
0
41
1
10
66.0000000000001
20
-2.72602211584399
30
0
0
SPLINE
5
15E
100
AcDbEntity
8
1
62
256
6
ByLayer
370
18
48
1
60
0
100
AcDbSpline
70
4
71
3
72
28
73
24
40
0
40
0
40
0
40
0
40
0.0625000000000005
40
0.0625000000000005
40
0.125000000000001
40
0.125000000000001
40
0.187500000000002
40
0.187500000000002
40
0.218750000000002
40
0.218750000000002
40
0.250000000000002
40
0.250000000000002
40
0.375000000000001
40
0.375000000000001
40
0.500000000000001
40
0.500000000000001
40
0.562500000000001
40
0.562500000000001
40
0.625000000000001
40
0.625000000000001
40
0.75
40
0.75
40
1
40
1
40
1
40
1
41
1
10
66
20
-2.72602211584379
30
0
41
1
10
66.0000000000001
20
-2.68913331000951
30
0
41
1
10
66
20
-2.65275863866722
30
0
41
1
10
66
20
-2.58112296452421
30
0
41
1
10
66
20
-2.54645192274782
30
0
41
1
10
66.0000000000001
20
-2.47930531505179
30
0
41
1
10
66
20
-2.4468159316817
30
0
41
1
10
66
20
-2.39977279313536
30
0
41
1
10
66
20
-2.38439089025042
30
0
41
1
10
66
20
-2.35398279402929
30
0
41
1
10
66
20
-2.33893425252546
30
0
41
1
10
66
20
-2.26434263388018
30
0
41
1
10
66
20
-2.20692140424566
30
0
41
1
10
66
20
-2.09655423252087
30
0
41
1
10
66
20
-2.04360465852201
30
0
41
1
10
66
20
-1.96764013494664
30
0
41
1
10
66
20
-1.94284235202275
30
0
41
1
10
66
20
-1.89475303203284
30
0
41
1
10
66
20
-1.87144940301917
30
0
41
1
10
66
20
-1.80372847153353
30
0
41
1
10
66
20
-1.76149033150418
30
0
41
1
10
66
20
-1.64335030528863
30
0
41
1
10
66
20
-1.57597818943412
30
0
41
1
10
66
20
-1.52019729892987
30
0
0
SPLINE
5
15F
100
AcDbEntity
8
1
62
256
6
ByLayer
370
18
48
1
60
0
100
AcDbSpline
70
4
71
3
72
10
73
6
40
0
40
0
40
0
40
0
40
0.5
40
0.5
40
1
40
1
40
1
40
1
41
1
10
66
20
-1.6599009198882
30
0
41
1
10
65.9507149141767
20
-1.65895929229757
30
0
41
1
10
65.901066871097
20
-1.65819029242166
30
0
41
1
10
65.8010673404112
20
-1.6573144608854
30
0
41
1
10
65.7507168778472
20
-1.65721335767211
30
0
41
1
10
65.700000025558
20
-1.65773033148804
30
0
0
SPLINE
5
160
100
AcDbEntity
8
1
62
256
6
ByLayer
370
18
48
1
60
0
100
AcDbSpline
70
4
71
3
72
14
73
10
40
0
40
0
40
0
40
0
40
0.25
40
0.25
40
0.5
40
0.5
40
0.75
40
0.75
40
1
40
1
40
1
40
1
41
1
10
65.700000025558
20
-1.65773033148804
30
0
41
1
10
65.6224853596155
20
-1.61707321312937
30
0
41
1
10
65.545329039867
20
-1.57513237351472
30
0
41
1
10
65.3922217527721
20
-1.48807078863976
30
0
41
1
10
65.3162156774266
20
-1.44301231391486
30
0
41
1
10
65.164978159093
20
-1.35018915735017
30
0
41
1
10
65.0897708049883
20
-1.30239338534344
30
0
41
1
10
64.939722871208
20
-1.20458065669368
30
0
41
1
10
64.864776485817
20
-1.15470703583321
30
0
41
1
10
64.7902224341385
20
-1.10343307188515
30
0
0
SPLINE
5
161
100
AcDbEntity
8
1
62
256
6
ByLayer
370
18
48
1
60
0
100
AcDbSpline
70
4
71
3
72
8
73
4
40
0
40
0
40
0
40
0
40
1
40
1
40
1
40
1
41
1
10
64.7902224341389
20
-1.10343307188455
30
0
41
1
10
64.7634099122624
20
-1.05677246730792
30
0
41
1
10
64.7365353753568
20
-1.01067645682815
30
0
41
1
10
64.7095825401504
20
-0.965168532519868
30
0
0
SPLINE
5
162
100
AcDbEntity
8
1
62
256
6
ByLayer
370
18
48
1
60
0
100
AcDbSpline
70
4
71
3
72
26
73
22
40
0
40
0
40
0
40
0
40
0.125
40
0.125
40
0.25
40
0.25
40
0.375
40
0.375
40
0.5
40
0.5
40
0.625
40
0.625
40
0.75
40
0.75
40
0.8125
40
0.8125
40
0.875
40
0.875
40
0.9375
40
0.9375
40
1
40
1
40
1
40
1
41
1
10
64.7095825401501
20
-0.965168532519812
30
0
41
1
10
64.7021426679848
20
-0.952606843303357
30
0
41
1
10
64.6934942951811
20
-0.940027120536087
30
0
41
1
10
64.6743241868126
20
-0.914853559120786
30
0
41
1
10
64.663693227772
20
-0.902162417455685
30
0
41
1
10
64.6414629892978
20
-0.877623744741811
30
0
41
1
10
64.6298041471714
20
-0.865684526015201
30
0
41
1
10
64.6054619350924
20
-0.842418640027375
30
0
41
1
10
64.5926689114474
20
-0.831011905403045
30
0
41
1
10
64.5669500839822
20
-0.809633685534521
30
0
41
1
10
64.553944074939
20
-0.799571104657389
30
0
41
1
10
64.5276455790261
20
-0.78081939284931
30
0
41
1
10
64.5142086433514
20
-0.772054734718409
30
0
41
1
10
64.494806473614
20
-0.760822802028628
30
0
41
1
10
64.4884372354962
20
-0.757377025586095
30
0
41
1
10
64.4759316827674
20
-0.75116999263301
30
0
41
1
10
64.4697725608172
20
-0.748404072414843
30
0
41
1
10
64.4581281493115
20
-0.743848761197711
30
0
41
1
10
64.4525957842111
20
-0.742032436680887
30
0
41
1
10
64.4422093484985
20
-0.739479870962327
30
0
41
1
10
64.4373720714023
20
-0.738756740222811
30
0
41
1
10
64.433095999528
20
-0.738699975163797
30
0
0
SPLINE
5
163
100
AcDbEntity
8
1
62
256
6
ByLayer
370
13
48
1
60
0
100
AcDbSpline
70
4
71
3
72
11
73
7
40
0
40
0
40
0
40
0
40
0.126758459878542
40
0.542975147583328
40
0.959191835288113
40
1
40
1
40
1
40
1
41
1
10
52.8951664325206
20
-2.52656173128085
30
0
41
1
10
52.9004782914121
20
-2.59924971903817
30
0
41
1
10
52.9232318710039
20
-2.89449212943091
30
0
41
1
10
52.9634273582445
20
-3.28274343229901
30
0
41
1
10
53.0000207685183
20
-3.41647751262752
30
0
41
1
10
53.0191725993559
20
-3.41964194134911
30
0
41
1
10
53.0208826843048
20
-3.41939379524243
30
0
0
SPLINE
5
164
100
AcDbEntity
8
1
62
256
6
ByLayer
370
18
48
1
60
0
100
AcDbSpline
70
4
71
3
72
10
73
6
40
0
40
0
40
0
40
0
40
0.285696529252748
40
0.285696529252748
40
1
40
1
40
1
40
1
41
1
10
57.3354565184915
20
4.01977979062323
30
0
41
1
10
57.3366031287632
20
4.0197767871102
30
0
41
1
10
57.3377518441667
20
4.019492670603
30
0
41
1
10
57.3417821845127
20
4.01750569958409
30
0
41
1
10
57.3446595138824
20
4.01432171713972
30
0
41
1
10
57.3475290986209
20
4.00941512147332
30
0
0
SPLINE
5
165
100
AcDbEntity
8
1
62
256
6
ByLayer
370
18
48
1
60
0
100
AcDbSpline
70
4
71
3
72
10
73
6
40
0
40
0
40
0
40
0
40
0.843674370416788
40
0.843674370416788
40
1
40
1
40
1
40
1
41
1
10
55.7377226727892
20
-4.01237604426944
30
0
41
1
10
55.7405898014574
20
-4.01651982220139
30
0
41
1
10
55.7434622194259
20
-4.01893919383801
30
0
41
1
10
55.7468767453539
20
-4.01971802931902
30
0
41
1
10
55.7474101066717
20
-4.01977901927518
30
0
41
1
10
55.7479430446711
20
-4.01977948639018
30
0
0
SPLINE
5
166
100
AcDbEntity
8
1
62
256
6
ByLayer
370
18
48
1
60
0
100
AcDbSpline
70
4
71
3
72
12
73
8
40
0
40
0
40
0
40
0
40
0.522950707916072
40
0.522950707916072
40
0.784426061874108
40
0.784426061874108
40
1
40
1
40
1
40
1
41
1
10
57.4515164164418
20
4.00061895298253
30
0
41
1
10
57.4486708334155
20
4.0072572978043
30
0
41
1
10
57.4458236405966
20
4.01218863495765
30
0
41
1
10
57.4415398085326
20
4.01698545899825
30
0
41
1
10
57.4401096459282
20
4.01815082008938
30
0
41
1
10
57.4374942112946
20
4.01947742220312
30
0
41
1
10
57.4363085985432
20
4.01977860330871
30
0
41
1
10
57.4351231005312
20
4.01977949492854
30
0
0
SPLINE
5
167
100
AcDbEntity
8
1
62
256
6
ByLayer
370
18
48
1
60
0
100
AcDbSpline
70
4
71
3
72
17
73
13
40
0
40
0
40
0
40
0
40
0.0099384861932101
40
0.339958990795474
40
0.339958990795474
40
0.504969243096606
40
0.504969243096606
40
0.587474369247171
40
0.587474369247171
40
0.669979495397736
40
0.669979495397736
40
1
40
1
40
1
40
1
41
1
10
54.7893051700046
20
-4.0197795698983
30
0
41
1
10
54.7891337267281
20
-4.0197798446207
30
0
41
1
10
54.78326984698
20
-4.0195761951602
30
0
41
1
10
54.7774249981861
20
-4.01208753119235
30
0
41
1
10
54.7688646098858
20
-3.9906822580889
30
0
41
1
10
54.7660022191084
20
-3.98179371659108
30
0
41
1
10
54.7616790709223
20
-3.96577327074965
30
0
41
1
10
54.7602365260744
20
-3.95999786275959
30
0
41
1
10
54.7573567161503
20
-3.94761480170658
30
0
41
1
10
54.7559182990104
20
-3.94100280320058
30
0
41
1
10
54.7487350383788
20
-3.90586194514492
30
0
41
1
10
54.7430198278217
20
-3.87110686362675
30
0
41
1
10
54.737328187851
20
-3.82984915513328
30
0
0
SPLINE
5
168
100
AcDbEntity
8
1
62
256
6
ByLayer
370
18
48
1
60
0
100
AcDbSpline
70
4
71
3
72
18
73
14
40
0
40
0
40
0
40
0
40
0.304631821810636
40
0.304631821810636
40
0.456947732715956
40
0.456947732715956
40
0.533105688168615
40
0.533105688168615
40
0.609263643621275
40
0.609263643621275
40
0.913895465431915
40
0.913895465431915
40
1
40
1
40
1
40
1
41
1
10
54.6333683568099
20
-3.79725112785786
30
0
41
1
10
54.6390826738756
20
-3.84183860299811
30
0
41
1
10
54.6447808829225
20
-3.87987497371967
30
0
41
1
10
54.6533308116638
20
-3.92702779558786
30
0
41
1
10
54.6561818945976
20
-3.94109197066203
30
0
41
1
10
54.6604698305492
20
-3.95966929307375
30
0
41
1
10
54.6619010730745
20
-3.96544169986677
30
0
41
1
10
54.6647695907865
20
-3.97613735132501
30
0
41
1
10
54.6662089612181
20
-3.98106666143639
30
0
41
1
10
54.6733948607923
20
-4.00346647954851
30
0
41
1
10
54.6791274021935
20
-4.01425249087868
30
0
41
1
10
54.6864627795306
20
-4.01923801327669
30
0
41
1
10
54.6880775149897
20
-4.01978536061
30
0
41
1
10
54.6896908951855
20
-4.01978175580061
30
0
0
SPLINE
5
169
100
AcDbEntity
8
1
62
256
6
ByLayer
370
18
48
1
60
0
100
AcDbSpline
70
4
71
3
72
17
73
13
40
0
40
0
40
0
40
0
40
0.115142862612066
40
0.115142862612066
40
0.410095241741377
40
0.410095241741377
40
0.483833336523705
40
0.483833336523705
40
0.557571431306033
40
0.705047620870688
40
0.705047620870688
40
1
40
1
40
1
40
1
41
1
10
58.393677340599
20
4.01978261365289
30
0
41
1
10
58.3959095596791
20
4.01978663562792
30
0
41
1
10
58.3981442437217
20
4.01873680064509
30
0
41
1
10
58.4061112064607
20
4.01124326095885
30
0
41
1
10
58.411848810417
20
3.99893771301186
30
0
41
1
10
58.4190519418638
20
3.97462950840432
30
0
41
1
10
58.4204960998541
20
3.96931259144427
30
0
41
1
10
58.4233740881302
20
3.95783687006878
30
0
41
1
10
58.4276798060398
20
3.93934926442287
30
0
41
1
10
58.4319595272676
20
3.91708487411319
30
0
41
1
10
58.4405115204879
20
3.86760184295531
30
0
41
1
10
58.4462189585182
20
3.82802024455324
30
0
41
1
10
58.4519368617522
20
3.78190439830209
30
0
0
SPLINE
5
16A
100
AcDbEntity
8
1
62
256
6
ByLayer
370
18
48
1
60
0
100
AcDbSpline
70
4
71
3
72
18
73
14
40
0
40
0
40
0
40
0
40
0.274500708017369
40
0.274500708017369
40
0.549001416034737
40
0.549001416034737
40
0.617626593039079
40
0.617626593039079
40
0.68625177004342
40
0.68625177004342
40
0.823502124052103
40
0.823502124052103
40
1
40
1
40
1
40
1
41
1
10
58.5559153525578
20
3.74560709619766
30
0
41
1
10
58.5502021627563
20
3.79510726755089
30
0
41
1
10
58.5445298604416
20
3.83799144711452
30
0
41
1
10
58.5331628201836
20
3.91058907534645
30
0
41
1
10
58.527452925844
20
3.94030312022082
30
0
41
1
10
58.5202389296371
20
3.96899445188481
30
0
41
1
10
58.5187931283261
20
3.97430910276182
30
0
41
1
10
58.5158957196806
20
3.98408127485402
30
0
41
1
10
58.5144455615226
20
3.98853253073238
30
0
41
1
10
58.5101110016417
20
4.00052768753014
30
0
41
1
10
58.5072349463727
20
4.00674078995107
30
0
41
1
10
58.5006858574842
20
4.01694308949459
30
0
41
1
10
58.4970210861595
20
4.01979379896028
30
0
41
1
10
58.4933625967908
20
4.0197824230367
30
0
0
SPLINE
5
16B
100
AcDbEntity
8
1
62
256
6
ByLayer
370
18
48
1
60
0
100
AcDbSpline
70
4
71
3
72
10
73
6
40
0
40
0
40
0
40
0
40
0.313510712267426
40
0.313510712267426
40
1
40
1
40
1
40
1
41
1
10
53.7310546465674
20
-4.01977952770204
30
0
41
1
10
53.7287161385102
20
-4.01978707826029
30
0
41
1
10
53.7263848611144
20
-4.0186264283997
30
0
41
1
10
53.7189577511994
20
-4.01124637460111
30
0
41
1
10
53.7138634734359
20
-4.0006598213599
30
0
41
1
10
53.7087510905886
20
-3.98460621949963
30
0
0
SPLINE
5
16C
100
AcDbEntity
8
1
62
256
6
ByLayer
370
18
48
1
60
0
100
AcDbSpline
70
4
71
3
72
22
73
18
40
0
40
0
40
0
40
0
40
0.165316779615388
40
0.330633559230777
40
0.330633559230777
40
0.413291949038471
40
0.413291949038471
40
0.495950338846165
40
0.495950338846165
40
0.661267118461553
40
0.826583898076941
40
0.826583898076941
40
0.909242287884635
40
0.909242287884635
40
0.991900677692328
40
0.991900677692328
40
1
40
1
40
1
40
1
41
1
10
53.4285668527488
20
-3.11940190269831
30
0
41
1
10
53.4375788524867
20
-3.20248285333418
30
0
41
1
10
53.4555745583416
20
-3.35726460540863
30
0
41
1
10
53.4734806719188
20
-3.48922375917272
30
0
41
1
10
53.4869731927347
20
-3.57937269765168
30
0
41
1
10
53.4914499447564
20
-3.60772997823767
30
0
41
1
10
53.5003711432909
20
-3.6610118288101
30
0
41
1
10
53.50482206526
20
-3.68596101236733
30
0
41
1
10
53.5181642414202
20
-3.7558148276747
30
0
41
1
10
53.5358938460235
20
-3.83564472160595
30
0
41
1
10
53.553515019503
20
-3.88897687892324
30
0
41
1
10
53.5667916220234
20
-3.91881784055064
30
0
41
1
10
53.5712376390218
20
-3.92707481689635
30
0
41
1
10
53.5800846969107
20
-3.9400141157397
30
0
41
1
10
53.5844987675856
20
-3.94472794856668
30
0
41
1
10
53.5893414137236
20
-3.94801347870154
30
0
41
1
10
53.5897735010162
20
-3.94829016156501
30
0
41
1
10
53.590205511125
20
-3.94855033147692
30
0
0
SPLINE
5
16D
100
AcDbEntity
8
1
62
256
6
ByLayer
370
18
48
1
60
0
100
AcDbSpline
70
4
71
3
72
17
73
13
40
0
40
0
40
0
40
0
40
0.25
40
0.25
40
0.500000000000001
40
0.500000000000001
40
0.750000000000001
40
0.750000000000001
40
0.812500000000001
40
0.812500000000001
40
0.875000000000001
40
1
40
1
40
1
40
1
41
1
10
53.7087510905887
20
-3.98460621949968
30
0
41
1
10
53.7040876049225
20
-3.9621011636037
30
0
41
1
10
53.6994603298535
20
-3.93159026826191
30
0
41
1
10
53.6902634462749
20
-3.8551452156893
30
0
41
1
10
53.6856938254089
20
-3.80920920353279
30
0
41
1
10
53.676510987851
20
-3.70186828063029
30
0
41
1
10
53.6718805150811
20
-3.64045563579256
30
0
41
1
10
53.6660194198752
20
-3.5536429606463
30
0
41
1
10
53.6648458652873
20
-3.53580129184291
30
0
41
1
10
53.6625070530846
20
-3.49933259536272
30
0
41
1
10
53.6590064143038
20
-3.44338066449433
30
0
41
1
10
53.6555275557355
20
-3.38372708052336
30
0
41
1
10
53.6532146838226
20
-3.34233658349896
30
0
0
SPLINE
5
16E
100
AcDbEntity
8
1
62
256
6
ByLayer
370
18
48
1
60
0
100
AcDbSpline
70
4
71
3
72
22
73
18
40
0
40
0
40
0
40
0
40
0.119268210178226
40
0.119268210178226
40
0.295414568142582
40
0.295414568142582
40
0.38348774712476
40
0.38348774712476
40
0.427524336615848
40
0.427524336615848
40
0.471560926106937
40
0.471560926106937
40
0.647707284071291
40
0.647707284071291
40
0.823853642035645
40
0.823853642035645
40
1
40
1
40
1
40
1
41
1
10
62.197449935648
20
-4.01978220590226
30
0
41
1
10
62.1935890412269
20
-4.01978007865353
30
0
41
1
10
62.1897310817822
20
-4.01659179775373
30
0
41
1
10
62.1801476448657
20
-4.000896638554
30
0
41
1
10
62.1744274656132
20
-3.98467074925856
30
0
41
1
10
62.1658328944668
20
-3.94989090472961
30
0
41
1
10
62.1629650100772
20
-3.93655413391412
30
0
41
1
10
62.1586518481002
20
-3.91388474874336
30
0
41
1
10
62.1572109555036
20
-3.90587671098018
30
0
41
1
10
62.1543291140982
20
-3.88899348388983
30
0
41
1
10
62.152891727581
20
-3.88013998359656
30
0
41
1
10
62.1457174176292
20
-3.83383736484544
30
0
41
1
10
62.1400106993597
20
-3.79029930558536
30
0
41
1
10
62.1285650266574
20
-3.69058289177107
30
0
41
1
10
62.1228452712944
20
-3.63440352908694
30
0
41
1
10
62.1114112484894
20
-3.50935348184422
30
0
41
1
10
62.1056972784515
20
-3.44048404128088
30
0
41
1
10
62.0999405062283
20
-3.36504326734234
30
0
0
SPLINE
5
16F
100
AcDbEntity
8
1
62
256
6
ByLayer
370
18
48
1
60
0
100
AcDbSpline
70
4
71
3
72
25
73
21
40
0
40
0
40
0
40
0
40
0.0421559827594268
40
0.0421559827594268
40
0.0843119655188537
40
0.0843119655188537
40
0.168623931037707
40
0.168623931037707
40
0.337247862075413
40
0.50587179311312
40
0.50587179311312
40
0.590183758631973
40
0.590183758631973
40
0.632339741391399
40
0.632339741391399
40
0.674495724150825
40
0.674495724150825
40
0.843119655188532
40
0.843119655188532
40
1
40
1
40
1
40
1
41
1
10
61.9958948776235
20
-3.3071261609548
30
0
41
1
10
61.997327691105
20
-3.32660167244964
30
0
41
1
10
61.9987645400167
20
-3.34574859990249
30
0
41
1
10
62.0016476774782
20
-3.38337813086321
30
0
41
1
10
62.0030957806036
20
-3.4018864099769
30
0
41
1
10
62.0074321401959
20
-3.45615012367762
30
0
41
1
10
62.0103140308729
20
-3.49067353668082
30
0
41
1
10
62.0189303630249
20
-3.58938786059377
30
0
41
1
10
62.0303357184284
20
-3.70808281102296
30
0
41
1
10
62.0416713731776
20
-3.80137410897069
30
0
41
1
10
62.050243528048
20
-3.86168522210175
30
0
41
1
10
62.0531156457474
20
-3.8801762796686
30
0
41
1
10
62.0574474036975
20
-3.90544861916877
30
0
41
1
10
62.0588961914693
20
-3.91346829738004
30
0
41
1
10
62.0617949641735
20
-3.92864683908462
30
0
41
1
10
62.0632413702607
20
-3.93578776729092
30
0
41
1
10
62.0704580885515
20
-3.96927709434939
30
0
41
1
10
62.0761791617617
20
-3.98899735823252
30
0
41
1
10
62.0871636514924
20
-4.01378153399369
30
0
41
1
10
62.0924311923588
20
-4.01976973964634
30
0
41
1
10
62.0977232438143
20
-4.01977980205652
30
0
0
SPLINE
5
170
100
AcDbEntity
8
1
62
256
6
ByLayer
370
13
48
1
60
0
100
AcDbSpline
70
4
71
3
72
10
73
6
40
0
40
0
40
0
40
0
40
0.144503426437363
40
0.685990646888738
40
1
40
1
40
1
40
1
41
1
10
61.6381774220336
20
-2.67981707572591
30
0
41
1
10
61.6428319916552
20
-2.73852668422643
30
0
41
1
10
61.6649282932271
20
-3.00268021681603
30
0
41
1
10
61.6971390898056
20
-3.27981682055309
30
0
41
1
10
61.7246953098274
20
-3.38373047386324
30
0
41
1
10
61.7348097990328
20
-3.40352994956044
30
0
0
SPLINE
5
171
100
AcDbEntity
8
1
62
256
6
ByLayer
370
13
48
1
60
0
100
AcDbSpline
70
4
71
3
72
10
73
6
40
0
40
0
40
0
40
0
40
0.0394454830759871
40
0.577675365508546
40
1
40
1
40
1
40
1
41
1
10
53.1716245916415
20
-2.67794217570861
30
0
41
1
10
53.1729028512948
20
-2.69408229737778
30
0
41
1
10
53.1916228427055
20
-2.92704684250756
30
0
41
1
10
53.2240285657838
20
-3.2421701742648
30
0
41
1
10
53.2551560411613
20
-3.37828372561592
30
0
41
1
10
53.2688417803398
20
-3.4044119470845
30
0
0
SPLINE
5
172
100
AcDbEntity
8
1
62
256
6
ByLayer
370
18
48
1
60
0
100
AcDbSpline
70
4
71
3
72
28
73
24
40
0
40
0
40
0
40
0
40
0.0394603598239284
40
0.0394603598239284
40
0.0789207196478569
40
0.0789207196478569
40
0.157841439295715
40
0.157841439295715
40
0.315682878591431
40
0.315682878591431
40
0.473524317887147
40
0.473524317887147
40
0.552445037535005
40
0.552445037535005
40
0.591905397358934
40
0.591905397358934
40
0.631365757182863
40
0.631365757182863
40
0.789207196478579
40
0.789207196478579
40
0.947048635774294
40
0.947048635774294
40
1
40
1
40
1
40
1
41
1
10
59.6604358797411
20
3.21042649799554
30
0
41
1
10
59.65899678066
20
3.2310510608263
30
0
41
1
10
59.6575562379997
20
3.25135992420186
30
0
41
1
10
59.6546715671337
20
3.29133925281121
30
0
41
1
10
59.6532256592308
20
3.31103286649926
30
0
41
1
10
59.6489038825261
20
3.3688406312769
30
0
41
1
10
59.6460387646161
20
3.40576007341977
30
0
41
1
10
59.6374725532093
20
3.51175807301641
30
0
41
1
10
59.6318002680129
20
3.57608834304435
30
0
41
1
10
59.6203923464684
20
3.69228666097803
30
0
41
1
10
59.6146710220382
20
3.74415498324572
30
0
41
1
10
59.6060721501834
20
3.81247730414876
30
0
41
1
10
59.6032023948639
20
3.83366835508232
30
0
41
1
10
59.5988875310456
20
3.86303483150385
30
0
41
1
10
59.5974456574794
20
3.87243135211961
30
0
41
1
10
59.5945660985586
20
3.89035121221488
30
0
41
1
10
59.5931301729699
20
3.89886482845881
30
0
41
1
10
59.5859654239519
20
3.93922713414438
30
0
41
1
10
59.5802825390118
20
3.96447610550041
30
0
41
1
10
59.568867177432
20
4.00126045371323
30
0
41
1
10
59.5631464676941
20
4.0127952293382
30
0
41
1
10
59.555502886984
20
4.01900001325927
30
0
41
1
10
59.5535825304761
20
4.01978356281947
30
0
41
1
10
59.5516606150072
20
4.01978248827621
30
0
0
SPLINE
5
173
100
AcDbEntity
8
1
62
256
6
ByLayer
370
18
48
1
60
0
100
AcDbSpline
70
4
71
3
72
26
73
22
40
0
40
0
40
0
40
0
40
0.125
40
0.125
40
0.250000000000001
40
0.250000000000001
40
0.375000000000001
40
0.375000000000001
40
0.437500000000002
40
0.437500000000002
40
0.500000000000002
40
0.500000000000002
40
0.625000000000002
40
0.750000000000003
40
0.750000000000003
40
0.812500000000003
40
0.843750000000003
40
0.843750000000003
40
0.875000000000003
40
0.875000000000003
40
1
40
1
40
1
40
1
41
1
10
52.939409577257
20
-3.55749699515357
30
0
41
1
10
52.9355094169105
20
-3.55482467478464
30
0
41
1
10
52.9316108890758
20
-3.54696189570046
30
0
41
1
10
52.9238234509814
20
-3.52110393278221
30
0
41
1
10
52.9199367610387
20
-3.50310956097999
30
0
41
1
10
52.9121581603482
20
-3.45695436071054
30
0
41
1
10
52.908266401741
20
-3.42879438306554
30
0
41
1
10
52.9023786994981
20
-3.37868072909495
30
0
41
1
10
52.9004043526024
20
-3.36062541973905
30
0
41
1
10
52.8964679347024
20
-3.32224459718083
30
0
41
1
10
52.8945007853781
20
-3.30188279229
30
0
41
1
10
52.8886062722799
20
-3.23734475316255
30
0
41
1
10
52.8807680104821
20
-3.14210339238881
30
0
41
1
10
52.872955624501
20
-3.02872739991858
30
0
41
1
10
52.8670702001608
20
-2.93679074099566
30
0
41
1
10
52.8641204659805
20
-2.88909318419229
30
0
41
1
10
52.8611489032885
20
-2.83875305708847
30
0
41
1
10
52.859161416213
20
-2.80459813969875
30
0
41
1
10
52.8581644292088
20
-2.78722450029147
30
0
41
1
10
52.853189921357
20
-2.69934281346582
30
0
41
1
10
52.8492246328122
20
-2.62543316457015
30
0
41
1
10
52.8452757095726
20
-2.54802778802602
30
0
0
SPLINE
5
174
100
AcDbEntity
8
1
62
256
6
ByLayer
370
18
48
1
60
0
100
AcDbSpline
70
4
71
3
72
50
73
46
40
0
40
0
40
0
40
0
40
0.115975628393967
40
0.115975628393967
40
0.231951256787934
40
0.231951256787934
40
0.289939070984913
40
0.289939070984913
40
0.347926885181891
40
0.347926885181891
40
0.376920792280386
40
0.376920792280386
40
0.40591469937888
40
0.40591469937888
40
0.463902513575858
40
0.463902513575858
40
0.57987814196983
40
0.57987814196983
40
0.637865956166814
40
0.637865956166814
40
0.666859863265305
40
0.666859863265305
40
0.695853770363797
40
0.695853770363797
40
0.753841584560781
40
0.753841584560781
40
0.782835491659275
40
0.782835491659275
40
0.811829398757769
40
0.811829398757769
40
0.869817212954762
40
0.869817212954762
40
0.898811120053259
40
0.898811120053259
40
0.913308073602509
40
0.913308073602509
40
0.927805027151759
40
0.927805027151759
40
0.95679893425026
40
0.95679893425026
40
0.97129588779951
40
0.97129588779951
40
0.985792841348761
40
0.985792841348761
40
1
40
1
40
1
40
1
41
1
10
40.2862912750415
20
2.82239132034056
30
0
41
1
10
40.1498159787502
20
2.81851543763523
30
0
41
1
10
40.0111564986359
20
2.81051725481868
30
0
41
1
10
39.7278070652756
20
2.7896382991139
30
0
41
1
10
39.583101427088
20
2.77677021402462
30
0
41
1
10
39.3602501476549
20
2.75670138045186
30
0
41
1
10
39.2850070015279
20
2.74988315272625
30
0
41
1
10
39.1322934617046
20
2.73654021299393
30
0
41
1
10
39.054806249413
20
2.7300310616657
30
0
41
1
10
38.9371763458987
20
2.72061388624866
30
0
41
1
10
38.8977079018613
20
2.71753158057402
30
0
41
1
10
38.8187354255843
20
2.71151895444009
30
0
41
1
10
38.7791846582522
20
2.70857994779593
30
0
41
1
10
38.660345559867
20
2.69999401791287
30
0
41
1
10
38.5808353835682
20
2.69465059535514
30
0
41
1
10
38.3414098414495
20
2.68018819620985
30
0
41
1
10
38.1805956470036
20
2.67266782800777
30
0
41
1
10
37.937232700188
20
2.66630238161031
30
0
41
1
10
37.8557526296491
20
2.66499940241857
30
0
41
1
10
37.7329243779718
20
2.66448320227886
30
0
41
1
10
37.6918806238629
20
2.66454942901854
30
0
41
1
10
37.609572588388
20
2.66520111483942
30
0
41
1
10
37.5684234135533
20
2.66578914196552
30
0
41
1
10
37.445398799379
20
2.6683701654101
30
0
41
1
10
37.3637770119762
20
2.67116858368468
30
0
41
1
10
37.2420677221468
20
2.67719469669351
30
0
41
1
10
37.2016190312779
20
2.67950805292273
30
0
41
1
10
37.1209944592009
20
2.68477790145275
30
0
41
1
10
37.0808120309256
20
2.68773722948896
30
0
41
1
10
36.9619534728733
20
2.69751440235083
30
0
41
1
10
36.8845506939737
20
2.70525455239547
30
0
41
1
10
36.7719806758434
20
2.71862499757981
30
0
41
1
10
36.7350552098458
20
2.72337784439813
30
0
41
1
10
36.6807562112732
20
2.73094541263609
30
0
41
1
10
36.6628387905578
20
2.73354088384096
30
0
41
1
10
36.627411978189
20
2.73887502371028
30
0
41
1
10
36.6099438048847
20
2.74160816509641
30
0
41
1
10
36.558839539577
20
2.74991012977728
30
0
41
1
10
36.5263122668548
20
2.75561113638705
30
0
41
1
10
36.4802554912487
20
2.76428595902394
30
0
41
1
10
36.4653604220433
20
2.7671976344804
30
0
41
1
10
36.4365782924321
20
2.77303234984282
30
0
41
1
10
36.422647092302
20
2.7759658145539
30
0
41
1
10
36.3966222373865
20
2.78164903003162
30
0
41
1
10
36.384452056596
20
2.78441180203634
30
0
41
1
10
36.3730119005803
20
2.78710345078855
30
0
0
SPLINE
5
175
100
AcDbEntity
8
1
62
256
6
ByLayer
370
18
48
1
60
0
100
AcDbSpline
70
4
71
3
72
38
73
34
40
0
40
0
40
0
40
0
40
0.0217187564305111
40
0.0217187564305111
40
0.0608500061732933
40
0.0608500061732933
40
0.0804156310446838
40
0.0804156310446838
40
0.0999812559160739
40
0.0999812559160739
40
0.139112505658854
40
0.139112505658854
40
0.217375005144415
40
0.217375005144415
40
0.236940630015804
40
0.236940630015804
40
0.256506254887192
40
0.256506254887192
40
0.295637504629969
40
0.295637504629969
40
0.373900004115527
40
0.373900004115527
40
0.452162503601085
40
0.452162503601085
40
0.530425003086643
40
0.530425003086643
40
0.608687502572201
40
0.608687502572201
40
0.686950002057759
40
0.686950002057759
40
0.84347500102888
40
0.84347500102888
40
1
40
1
40
1
40
1
41
1
10
36.2517610080971
20
2.82500027086567
30
0
41
1
10
36.2533580690943
20
2.82499605407315
30
0
41
1
10
36.255830367727
20
2.82471624909229
30
0
41
1
10
36.2649275766907
20
2.82318637975337
30
0
41
1
10
36.2733025168928
20
2.82133783904186
30
0
41
1
10
36.2890500246129
20
2.81732432307203
30
0
41
1
10
36.2948468962576
20
2.81577509476722
30
0
41
1
10
36.3072906815544
20
2.81230881458393
30
0
41
1
10
36.3139472294428
20
2.81038963797158
30
0
41
1
10
36.3350756014915
20
2.80410455450536
30
0
41
1
10
36.3507000013878
20
2.7992123629335
30
0
41
1
10
36.4013180744256
20
2.78261558285794
30
0
41
1
10
36.4400113747006
20
2.76900105538002
30
0
41
1
10
36.4927891650748
20
2.74917677995458
30
0
41
1
10
36.5035781362545
20
2.74506717531921
30
0
41
1
10
36.5254585462814
20
2.73661739176939
30
0
41
1
10
36.5365627606247
20
2.73227251541957
30
0
41
1
10
36.5703241524479
20
2.71889149299147
30
0
41
1
10
36.5934191136468
20
2.70950709624239
30
0
41
1
10
36.664322706683
20
2.6800827560254
30
0
41
1
10
36.7137274924566
20
2.65877586641278
30
0
41
1
10
36.8158246422193
20
2.61313403819236
30
0
41
1
10
36.8685216245105
20
2.58879665787231
30
0
41
1
10
36.9765175850018
20
2.53728147901762
30
0
41
1
10
37.0318368623676
20
2.51009320817945
30
0
41
1
10
37.1445020543317
20
2.45299779573224
30
0
41
1
10
37.2014710606998
20
2.42327784215951
30
0
41
1
10
37.3162847404252
20
2.36153045689764
30
0
41
1
10
37.3741417208117
20
2.32950772712729
30
0
41
1
10
37.5487611553937
20
2.23006137549021
30
0
41
1
10
37.6665446191666
20
2.15926159346162
30
0
41
1
10
37.9041265848637
20
2.00885991272304
30
0
41
1
10
38.0239324153426
20
1.92924837136323
30
0
41
1
10
38.1448074144805
20
1.84534785060586
30
0
0
SPLINE
5
176
100
AcDbEntity
8
1
62
256
6
ByLayer
370
18
48
1
60
0
100
AcDbSpline
70
4
71
3
72
26
73
22
40
0
40
0
40
0
40
0
40
0.124999999999999
40
0.124999999999999
40
0.187499999999999
40
0.187499999999999
40
0.249999999999999
40
0.249999999999999
40
0.374999999999999
40
0.374999999999999
40
0.499999999999999
40
0.499999999999999
40
0.562499999999999
40
0.59375
40
0.59375
40
0.625
40
0.625
40
0.75
40
0.875
40
0.875
40
1
40
1
40
1
40
1
41
1
10
52.6700505148563
20
1.93413206155037
30
0
41
1
10
52.6667414169803
20
2.01673218539602
30
0
41
1
10
52.6634567310503
20
2.09694689926309
30
0
41
1
10
52.6585796352422
20
2.21357542828486
30
0
41
1
10
52.656971710991
20
2.25162385855936
30
0
41
1
10
52.6538035821456
20
2.32583429794326
30
0
41
1
10
52.6522415981325
20
2.36203916505957
30
0
41
1
10
52.6476199038911
20
2.46799034273098
30
0
41
1
10
52.6446260456638
20
2.53507929562895
30
0
41
1
10
52.6387689069364
20
2.66221884784716
30
0
41
1
10
52.6358992906845
20
2.72226649140004
30
0
41
1
10
52.6316425256169
20
2.80696112799026
30
0
41
1
10
52.6295306440636
20
2.84796443462344
30
0
41
1
10
52.6274518798778
20
2.88692270981386
30
0
41
1
10
52.6260740787746
20
2.91243567918352
30
0
41
1
10
52.6253893704266
20
2.92495914758442
30
0
41
1
10
52.6220047473126
20
2.98610772101986
30
0
41
1
10
52.6168134780828
20
3.07509830045581
30
0
41
1
10
52.6120482640488
20
3.14689510081013
30
0
41
1
10
52.6074184740934
20
3.21009199073887
30
0
41
1
10
52.6051602807948
20
3.2373844780889
30
0
41
1
10
52.6030045669596
20
3.26031182467921
30
0
0
SPLINE
5
177
100
AcDbEntity
8
1
62
256
6
ByLayer
370
13
48
1
60
0
100
AcDbSpline
70
4
71
3
72
10
73
6
40
0
40
0
40
0
40
0
40
0.215207551719679
40
0.646718726159548
40
1
40
1
40
1
40
1
41
1
10
61.3616875965831
20
-2.52820286610662
30
0
41
1
10
61.3703863129151
20
-2.64709898767134
30
0
41
1
10
61.3965267651418
20
-2.97411806367333
30
0
41
1
10
61.4369468639273
20
-3.31919558988253
30
0
41
1
10
61.468668294847
20
-3.41334159854415
30
0
41
1
10
61.4829479688729
20
-3.41883263558984
30
0
0
SPLINE
5
178
100
AcDbEntity
8
1
62
256
6
ByLayer
370
18
48
1
60
0
100
AcDbSpline
70
4
71
3
72
32
73
28
40
0
40
0
40
0
40
0
40
0.0625000000000011
40
0.0625000000000011
40
0.125000000000002
40
0.125000000000002
40
0.250000000000004
40
0.250000000000004
40
0.375000000000006
40
0.375000000000006
40
0.406250000000007
40
0.406250000000007
40
0.437500000000007
40
0.437500000000007
40
0.500000000000006
40
0.500000000000006
40
0.625000000000005
40
0.625000000000005
40
0.750000000000004
40
0.750000000000004
40
0.812500000000003
40
0.812500000000003
40
0.843750000000002
40
0.843750000000002
40
0.875000000000002
40
0.875000000000002
40
1
40
1
40
1
40
1
41
1
10
61.1329530805927
20
-4.01708017458333
30
0
41
1
10
61.1300551694586
20
-4.01455379304446
30
0
41
1
10
61.127167179141
20
-4.01026034346671
30
0
41
1
10
61.1214218555159
20
-3.99822943905451
30
0
41
1
10
61.11856227712
20
-3.9904900151765
30
0
41
1
10
61.1100106398501
20
-3.9621741169141
30
0
41
1
10
61.1043481639001
20
-3.93651285918833
30
0
41
1
10
61.0929756617204
20
-3.87169835742284
30
0
41
1
10
61.0872471936586
20
-3.83254608915257
30
0
41
1
10
61.0800344227115
20
-3.77495644165484
30
0
41
1
10
61.0785895044033
20
-3.76300495858291
30
0
41
1
10
61.0756948773949
20
-3.73822494468251
30
0
41
1
10
61.0742450915178
20
-3.72539410944987
30
0
41
1
10
61.0699132733265
20
-3.6858095234335
30
0
41
1
10
61.0670404692831
20
-3.65789371258197
30
0
41
1
10
61.0584561901199
20
-3.56965634183066
30
0
41
1
10
61.0527812129674
20
-3.50485615870952
30
0
41
1
10
61.0414099433558
20
-3.36348786074422
30
0
41
1
10
61.035695468251
20
-3.28692022789954
30
0
41
1
10
61.027074402672
20
-3.16310339108054
30
0
41
1
10
61.0241940558276
20
-3.12033398346958
30
0
41
1
10
61.0198624337692
20
-3.05388935941457
30
0
41
1
10
61.0184146847193
20
-3.03132733121919
30
0
41
1
10
61.0155291389593
20
-2.98566073795155
30
0
41
1
10
61.0140904231801
20
-2.9625431382452
30
0
41
1
10
61.0069143385872
20
-2.84554957521627
30
0
41
1
10
61.0012324316934
20
-2.7474680050758
30
0
41
1
10
60.9955495905687
20
-2.64501205956157
30
0
0
SPLINE
5
179
100
AcDbEntity
8
1
62
256
6
ByLayer
370
13
48
1
60
0
100
AcDbSpline
70
4
71
3
72
11
73
7
40
0
40
0
40
0
40
0
40
0.153712120541255
40
0.568522417312704
40
0.983332714084152
40
1
40
1
40
1
40
1
41
1
10
60.5339223873114
20
-2.00835972029586
30
0
41
1
10
60.5403855956257
20
-2.11457147533295
30
0
41
1
10
60.5642905348568
20
-2.49104807629226
30
0
41
1
10
60.6056372163907
20
-3.02036016360847
30
0
41
1
10
60.6412214931078
20
-3.27925709805646
30
0
41
1
10
60.6593640426808
20
-3.35254572968478
30
0
41
1
10
60.6600648602309
20
-3.35528909050691
30
0
0
SPLINE
5
17A
100
AcDbEntity
8
1
62
256
6
ByLayer
370
18
48
1
60
0
100
AcDbSpline
70
4
71
3
72
28
73
24
40
0
40
0
40
0
40
0
40
0.125000000000001
40
0.125000000000001
40
0.187500000000002
40
0.218750000000002
40
0.218750000000002
40
0.250000000000003
40
0.250000000000003
40
0.375000000000002
40
0.375000000000002
40
0.500000000000001
40
0.500000000000001
40
0.625
40
0.625
40
0.65625
40
0.65625
40
0.6875
40
0.75
40
0.75
40
0.875
40
0.875
40
1
40
1
40
1
40
1
41
1
10
60.8915604250663
20
-2.56646193852774
30
0
41
1
10
60.8972441802284
20
-2.67119201605666
30
0
41
1
10
60.9029399221927
20
-2.77144671640545
30
0
41
1
10
60.9115410928538
20
-2.91503919943224
30
0
41
1
10
60.9158517594946
20
-2.98513494701203
30
0
41
1
10
60.920178519064
20
-3.05263505607476
30
0
41
1
10
60.9230673563115
20
-3.09705102558789
30
0
41
1
10
60.9245114653206
20
-3.11892858064417
30
0
41
1
10
60.9317053379158
20
-3.22626157067029
30
0
41
1
10
60.9373985930572
20
-3.30597476313773
30
0
41
1
10
60.9487726887355
20
-3.45345159557831
30
0
41
1
10
60.9544694361055
20
-3.52121402754548
30
0
41
1
10
60.9659389952348
20
-3.64476735796228
30
0
41
1
10
60.971694778458
20
-3.70055969755458
30
0
41
1
10
60.9789210484264
20
-3.76256920947503
30
0
41
1
10
60.9803690150391
20
-3.7745896379748
30
0
41
1
10
60.9832529925307
20
-3.79771655630592
30
0
41
1
10
60.9875670660846
20
-3.83108861051099
30
0
41
1
10
60.9918513827251
20
-3.86055149748523
30
0
41
1
10
61.00040287623
20
-3.91434647279584
30
0
41
1
10
61.0060919982135
20
-3.94338159641782
30
0
41
1
10
61.0175218337613
20
-3.98790414533187
30
0
41
1
10
61.0232457712475
20
-4.00339225856885
30
0
41
1
10
61.0289875919528
20
-4.01194890141875
30
0
0
SPLINE
5
17B
100
AcDbEntity
8
1
62
256
6
ByLayer
370
18
48
1
60
0
100
AcDbSpline
70
4
71
3
72
31
73
27
40
0
40
0
40
0
40
0
40
0.0312500000000004
40
0.0312500000000004
40
0.0625000000000009
40
0.125000000000001
40
0.125000000000001
40
0.250000000000002
40
0.375000000000002
40
0.375000000000002
40
0.406250000000002
40
0.406250000000002
40
0.437500000000002
40
0.437500000000002
40
0.500000000000001
40
0.500000000000001
40
0.625
40
0.749999999999999
40
0.749999999999999
40
0.812499999999999
40
0.812499999999999
40
0.843749999999999
40
0.843749999999999
40
0.874999999999999
40
0.874999999999999
40
1
40
1
40
1
40
1
41
1
10
60.5234127223256
20
4.00761471961687
30
0
41
1
10
60.5248518502487
20
4.00493700063268
30
0
41
1
10
60.5262921325284
20
4.00181531957972
30
0
41
1
10
60.5291659716608
20
3.99471541964243
30
0
41
1
10
60.5334710038003
20
3.98277127133528
30
0
41
1
10
60.5377758971098
20
3.96698760996446
30
0
41
1
10
60.5463767532825
20
3.93037664312919
30
0
41
1
10
60.5578135003082
20
3.86813720680004
30
0
41
1
10
60.569195672275
20
3.77921860296553
30
0
41
1
10
60.5763511400428
20
3.71509872779734
30
0
41
1
10
60.5777845437508
20
3.70184640455781
30
0
41
1
10
60.5806583864699
20
3.67447546021742
30
0
41
1
10
60.5820999364348
20
3.66034457289544
30
0
41
1
10
60.5864147065804
20
3.61689008421377
30
0
41
1
10
60.5892876272206
20
3.58643589651871
30
0
41
1
10
60.5978927426177
20
3.4907072833924
30
0
41
1
10
60.609319774969
20
3.35144839915375
30
0
41
1
10
60.6206759000314
20
3.18931627354795
30
0
41
1
10
60.6292355189965
20
3.0590116217297
30
0
41
1
10
60.6320964514174
20
3.01412306546732
30
0
41
1
10
60.6364141546166
20
2.94456757627717
30
0
41
1
10
60.6378600828168
20
2.92097678011618
30
0
41
1
10
60.6407508658051
20
2.87324564240106
30
0
41
1
10
60.6421951239953
20
2.84911108005767
30
0
41
1
10
60.6494083936617
20
2.72710855220367
30
0
41
1
10
60.6551498942515
20
2.62526197206196
30
0
41
1
10
60.6608601908391
20
2.51927872622016
30
0
0
SPLINE
5
17C
100
AcDbEntity
8
1
62
256
6
ByLayer
370
18
48
1
60
0
100
AcDbSpline
70
4
71
3
72
26
73
22
40
0
40
0
40
0
40
0
40
0.125000000000001
40
0.125000000000001
40
0.1875
40
0.1875
40
0.25
40
0.25
40
0.375
40
0.375
40
0.5
40
0.5
40
0.625
40
0.625
40
0.65625
40
0.65625
40
0.687500000000001
40
0.750000000000001
40
0.750000000000001
40
0.875
40
1
40
1
40
1
40
1
41
1
10
60.7648237546242
20
2.43764343673053
30
0
41
1
10
60.7591067492843
20
2.545805066817
30
0
41
1
10
60.7534031195984
20
2.64972751860813
30
0
41
1
10
60.7448331082419
20
2.79917467247404
30
0
41
1
10
60.7419733572324
20
2.84791557161051
30
0
41
1
10
60.7362336825308
20
2.94320874978948
30
0
41
1
10
60.7333465472367
20
2.98986901816809
30
0
41
1
10
60.7247166741713
20
3.12507398055834
30
0
41
1
10
60.7189726975629
20
3.20922785864536
30
0
41
1
10
60.7075269145963
20
3.3659114847043
30
0
41
1
10
60.7018280132182
20
3.43844045453204
30
0
41
1
10
60.6904341360958
20
3.57184430732823
30
0
41
1
10
60.6847394479596
20
3.63272024482845
30
0
41
1
10
60.6775399776136
20
3.70128170116038
30
0
41
1
10
60.6760959098728
20
3.71461321096348
30
0
41
1
10
60.6732132161847
20
3.74036641633549
30
0
41
1
10
60.6688916282257
20
3.77769223622462
30
0
41
1
10
60.6645817726771
20
3.81115085787118
30
0
41
1
10
60.6559819771727
20
3.87299084744683
30
0
41
1
10
60.6445735970408
20
3.94193006832307
30
0
41
1
10
60.633203880603
20
3.98403850674345
30
0
41
1
10
60.6274672319405
20
3.99822318040347
30
0
0
SPLINE
5
17D
100
AcDbEntity
8
1
62
256
6
ByLayer
370
13
48
1
60
0
100
AcDbSpline
70
4
71
3
72
11
73
7
40
0
40
0
40
0
40
0
40
0.0449122346364947
40
0.461228771029923
40
0.87754530742335
40
1
40
1
40
1
40
1
41
1
10
52.8035381518098
20
3.28143349256558
30
0
41
1
10
52.8054197661261
20
3.27069536956077
30
0
41
1
10
52.8247431125931
20
3.15409066777411
30
0
41
1
10
52.8615081974664
20
2.80927975005025
30
0
41
1
10
52.9015219394973
20
2.22834571431605
30
0
41
1
10
52.9240939558268
20
1.84585364038594
30
0
41
1
10
52.9292242397242
20
1.75647748576265
30
0
0
SPLINE
5
17E
100
AcDbEntity
8
1
62
256
6
ByLayer
370
13
48
1
60
0
100
AcDbSpline
70
4
71
3
72
11
73
7
40
0
40
0
40
0
40
0
40
0.0981777487921499
40
0.51396716278213
40
0.92975657677211
40
1
40
1
40
1
40
1
41
1
10
53.6312995186973
20
3.01790139379747
30
0
41
1
10
53.6354179224652
20
2.97860758339834
30
0
41
1
10
53.656978049411
20
2.75874547509778
30
0
41
1
10
53.6959799785375
20
2.23139390776834
30
0
41
1
10
53.7338099934942
20
1.56548386220271
30
0
41
1
10
53.7541983289578
20
1.17800451748758
30
0
41
1
10
53.7571449337179
20
1.12148797888801
30
0
0
SPLINE
5
17F
100
AcDbEntity
8
1
62
256
6
ByLayer
370
18
48
1
60
0
100
AcDbSpline
70
4
71
3
72
31
73
27
40
0
40
0
40
0
40
0
40
0.125000000000003
40
0.125000000000003
40
0.187500000000003
40
0.187500000000003
40
0.250000000000004
40
0.250000000000004
40
0.375000000000004
40
0.375000000000004
40
0.500000000000005
40
0.500000000000005
40
0.531250000000005
40
0.531250000000005
40
0.562500000000005
40
0.562500000000005
40
0.625000000000004
40
0.625000000000004
40
0.750000000000003
40
0.750000000000003
40
0.875000000000002
40
0.875000000000002
40
0.937500000000001
40
0.968750000000001
40
0.968750000000001
40
1
40
1
40
1
40
1
41
1
10
52.8556527815976
20
3.35690595601204
30
0
41
1
10
52.864197470599
20
3.32812089818143
30
0
41
1
10
52.8727905821029
20
3.29365721475202
30
0
41
1
10
52.8857539878968
20
3.23315050479374
30
0
41
1
10
52.8900594599699
20
3.21163269777415
30
0
41
1
10
52.8986165404542
20
3.16608526470202
30
0
41
1
10
52.9028725723454
20
3.14203510486388
30
0
41
1
10
52.9155894952693
20
3.06611755073502
30
0
41
1
10
52.9239964649363
20
3.01049033746361
30
0
41
1
10
52.9408233645438
20
2.88935281751802
30
0
41
1
10
52.9492656104946
20
2.82385545842328
30
0
41
1
10
52.9598769440607
20
2.73569486576827
30
0
41
1
10
52.9620015164333
20
2.71774721749909
30
0
41
1
10
52.9662552633241
20
2.68121430795782
30
0
41
1
10
52.9683873276463
20
2.66260306024674
30
0
41
1
10
52.9747624484422
20
2.60605710532698
30
0
41
1
10
52.9789871259798
20
2.56738980205623
30
0
41
1
10
52.9915977246144
20
2.4485394530486
30
0
41
1
10
52.99991756734
20
2.36551334203679
30
0
41
1
10
53.016516849192
20
2.19206472167167
30
0
41
1
10
53.0248123367752
20
2.10164919920814
30
0
41
1
10
53.0373221407686
20
1.96046233874375
30
0
41
1
10
53.0435871599861
20
1.8884726519434
30
0
41
1
10
53.0498668293422
20
1.8143542641009
30
0
41
1
10
53.0540571979975
20
1.76446379182912
30
0
41
1
10
53.056153934446
20
1.73928325647807
30
0
41
1
10
53.0582416742786
20
1.71400038955318
30
0
0
SPLINE
5
180
100
AcDbEntity
8
1
62
256
6
ByLayer
370
18
48
1
60
0
100
AcDbSpline
70
4
71
3
72
28
73
24
40
0
40
0
40
0
40
0
40
0.125
40
0.125
40
0.25
40
0.25
40
0.28125
40
0.28125
40
0.312499999999999
40
0.312499999999999
40
0.374999999999999
40
0.374999999999999
40
0.499999999999999
40
0.499999999999999
40
0.625
40
0.625
40
0.6875
40
0.6875
40
0.75
40
0.75
40
0.875
40
0.875
40
1
40
1
40
1
40
1
41
1
10
53.4826308658489
20
1.4053833609789
30
0
41
1
10
53.4785602091782
20
1.52248491161779
30
0
41
1
10
53.4744753310428
20
1.63689926028519
30
0
41
1
10
53.4662940774215
20
1.86037400506257
30
0
41
1
10
53.4621990837852
20
1.96943509849402
30
0
41
1
10
53.4570564527122
20
2.10232244156842
30
0
41
1
10
53.4560265917441
20
2.12872751655775
30
0
41
1
10
53.4539631589069
20
2.18118870318176
30
0
41
1
10
53.4529297056319
20
2.20724092531103
30
0
41
1
10
53.4498394592751
20
2.2844321932244
30
0
41
1
10
53.4477870037052
20
2.33475620755422
30
0
41
1
10
53.4416343192592
20
2.48237415890731
30
0
41
1
10
53.4375283451637
20
2.57631735052172
30
0
41
1
10
53.4293058081014
20
2.75540747806465
30
0
41
1
10
53.4251942914252
20
2.8405566161745
30
0
41
1
10
53.419011192594
20
2.96159226562779
30
0
41
1
10
53.416947108393
20
3.0008206222046
30
0
41
1
10
53.412804981396
20
3.07700021916526
30
0
41
1
10
53.4107218838467
20
3.11403314600199
30
0
41
1
10
53.4044990938872
20
3.2205379546229
30
0
41
1
10
53.4003608221003
20
3.2857229189847
30
0
41
1
10
53.3920790679162
20
3.40477512834997
30
0
41
1
10
53.3879444780902
20
3.45864658093845
30
0
41
1
10
53.3838092253763
20
3.50685544706931
30
0
0
SPLINE
5
181
100
AcDbEntity
8
1
62
256
6
ByLayer
370
13
48
1
60
0
100
AcDbSpline
70
4
71
3
72
10
73
6
40
0
40
0
40
0
40
0
40
0.250254262697389
40
0.665108241219542
40
1
40
1
40
1
40
1
41
1
10
60.2573903506255
20
-1.81356418446322
30
0
41
1
10
60.2679118279356
20
-1.99463127382219
30
0
41
1
10
60.2958750885832
20
-2.44774651162817
30
0
41
1
10
60.3379179904589
20
-2.98358785177837
30
0
41
1
10
60.369439678111
20
-3.22759724140411
30
0
41
1
10
60.383519567091
20
-3.30195307290941
30
0
0
SPLINE
5
182
100
AcDbEntity
8
1
62
256
6
ByLayer
370
18
48
1
60
0
100
AcDbSpline
70
4
71
3
72
25
73
21
40
0
40
0
40
0
40
0
40
0.125000000000001
40
0.125000000000001
40
0.187500000000002
40
0.218750000000002
40
0.218750000000002
40
0.250000000000002
40
0.250000000000002
40
0.375000000000002
40
0.375000000000002
40
0.500000000000001
40
0.625000000000001
40
0.625000000000001
40
0.687500000000001
40
0.687500000000001
40
0.750000000000001
40
0.750000000000001
40
0.875000000000001
40
1
40
1
40
1
40
1
41
1
10
60.0285410311552
20
-3.82758637698024
30
0
41
1
10
60.0228232599696
20
-3.78598160163398
30
0
41
1
10
60.0171291630288
20
-3.7378673437706
30
0
41
1
10
60.0085743222999
20
-3.65586986214132
30
0
41
1
10
60.0042925133009
20
-3.61240993132719
30
0
41
1
10
59.9999857936121
20
-3.56520286165079
30
0
41
1
10
59.9971064069529
20
-3.53288942375505
30
0
41
1
10
59.9956607545487
20
-3.51629051697336
30
0
41
1
10
59.9884274444823
20
-3.43142523613994
30
0
41
1
10
59.982663386379
20
-3.35794244067927
30
0
41
1
10
59.9712045170219
20
-3.20017556119825
30
0
41
1
10
59.959814497843
20
-3.03160450323367
30
0
41
1
10
59.9484387672362
20
-2.84149961063221
30
0
41
1
10
59.93979927539
20
-2.69061984079542
30
0
41
1
10
59.9368941397656
20
-2.63881344643181
30
0
41
1
10
59.9311146593076
20
-2.53352027757239
30
0
41
1
10
59.9282343487955
20
-2.479934373215
30
0
41
1
10
59.9196219798138
20
-2.31640950187304
30
0
41
1
10
59.9082199834367
20
-2.09101111140521
30
0
41
1
10
59.8968613396937
20
-1.85107274338631
30
0
41
1
10
59.8911223231356
20
-1.72740412912935
30
0
0
SPLINE
5
183
100
AcDbEntity
8
1
62
256
6
ByLayer
370
13
48
1
60
0
100
AcDbSpline
70
4
71
3
72
10
73
6
40
0
40
0
40
0
40
0
40
0.197546311249437
40
0.612137076665913
40
1
40
1
40
1
40
1
41
1
10
59.4295507232289
20
-1.18608042348399
30
0
41
1
10
59.437861447895
20
-1.34434056367533
30
0
41
1
10
59.4636139039641
20
-1.82137144969508
30
0
41
1
10
59.5056836595769
20
-2.50550178943362
30
0
41
1
10
59.5394426915949
20
-2.90371291703863
30
0
41
1
10
59.5557599900328
20
-3.05296884481058
30
0
0
SPLINE
5
184
100
AcDbEntity
8
1
62
256
6
ByLayer
370
18
48
1
60
0
100
AcDbSpline
70
4
71
3
72
26
73
22
40
0
40
0
40
0
40
0
40
0.124999999999999
40
0.124999999999999
40
0.249999999999998
40
0.249999999999998
40
0.374999999999996
40
0.374999999999996
40
0.406249999999996
40
0.406249999999996
40
0.437499999999996
40
0.499999999999996
40
0.499999999999996
40
0.624999999999998
40
0.749999999999999
40
0.749999999999999
40
0.812499999999999
40
0.812499999999999
40
0.874999999999999
40
0.874999999999999
40
1
40
1
40
1
40
1
41
1
10
59.7870720670866
20
-1.63345252174358
30
0
41
1
10
59.7928277023273
20
-1.75929577350618
30
0
41
1
10
59.7985330847468
20
-1.88126011267389
30
0
41
1
10
59.8099757486852
20
-2.11767175807458
30
0
41
1
10
59.8156960220036
20
-2.2321190888965
30
0
41
1
10
59.8271262412338
20
-2.45350334497132
30
0
41
1
10
59.8328359420634
20
-2.56044082721183
30
0
41
1
10
59.8400164906467
20
-2.68927262005087
30
0
41
1
10
59.8414570337617
20
-2.71483179858223
30
0
41
1
10
59.8443341813104
20
-2.76526765942171
30
0
41
1
10
59.848640946319
20
-2.83985629272209
30
0
41
1
10
59.8529358124234
20
-2.91128816020458
30
0
41
1
10
59.8615318832483
20
-3.050013495846
30
0
41
1
10
59.8729857166223
20
-3.22396640385699
30
0
41
1
10
59.8843938608375
20
-3.37612172019806
30
0
41
1
10
59.8929850796308
20
-3.48189236948852
30
0
41
1
10
59.8958561838611
20
-3.51576504687688
30
0
41
1
10
59.901625327555
20
-3.58062156136685
30
0
41
1
10
59.9045005940036
20
-3.61134145703656
30
0
41
1
10
59.9131243848404
20
-3.69848727546847
30
0
41
1
10
59.9188591612508
20
-3.74991241497804
30
0
41
1
10
59.924571540829
20
-3.79479835371248
30
0
0
SPLINE
5
185
100
AcDbEntity
8
1
62
256
6
ByLayer
370
18
48
1
60
0
100
AcDbSpline
70
4
71
3
72
28
73
24
40
0
40
0
40
0
40
0
40
0.125
40
0.125
40
0.1875
40
0.1875
40
0.249999999999999
40
0.249999999999999
40
0.374999999999998
40
0.374999999999998
40
0.499999999999998
40
0.499999999999998
40
0.624999999999997
40
0.624999999999997
40
0.656249999999997
40
0.656249999999997
40
0.687499999999997
40
0.687499999999997
40
0.749999999999997
40
0.749999999999997
40
0.874999999999999
40
0.874999999999999
40
1
40
1
40
1
40
1
41
1
10
61.6276929028287
20
3.77490292956668
30
0
41
1
10
61.6333904605939
20
3.72808444680282
30
0
41
1
10
61.6391102332411
20
3.67485908506475
30
0
41
1
10
61.6477161580763
20
3.58535874274423
30
0
41
1
10
61.6505883365232
20
3.55391181710007
30
0
41
1
10
61.656341758345
20
3.48774411676641
30
0
41
1
10
61.6592249531455
20
3.45299860568596
30
0
41
1
10
61.667887686735
20
3.34389374725208
30
0
41
1
10
61.6735932642083
20
3.2657560064788
30
0
41
1
10
61.6849935104789
20
3.09905889119077
30
0
41
1
10
61.6907065508923
20
3.01049896477829
30
0
41
1
10
61.7021605666669
20
2.8229996746268
30
0
41
1
10
61.70789354571
20
2.72406068648076
30
0
41
1
10
61.7150880011137
20
2.59372266008577
30
0
41
1
10
61.7165285207297
20
2.56732100682834
30
0
41
1
10
61.7194142321287
20
2.51384171152583
30
0
41
1
10
61.7208564121821
20
2.48681929351179
30
0
41
1
10
61.7251693156246
20
2.405176638271
30
0
41
1
10
61.7280320800388
20
2.34987400093169
30
0
41
1
10
61.7366092910516
20
2.18139293787769
30
0
41
1
10
61.742328805014
20
2.06564848284097
30
0
41
1
10
61.7537795027513
20
1.82740567001665
30
0
41
1
10
61.7595010163189
20
1.70490701444814
30
0
41
1
10
61.7652331060794
20
1.57897230094272
30
0
0
SPLINE
5
186
100
AcDbEntity
8
1
62
256
6
ByLayer
370
18
48
1
60
0
100
AcDbSpline
70
4
71
3
72
29
73
25
40
0
40
0
40
0
40
0
40
0.125
40
0.125
40
0.25
40
0.25
40
0.375
40
0.375
40
0.40625
40
0.40625
40
0.4375
40
0.5
40
0.5
40
0.624999999999999
40
0.624999999999999
40
0.749999999999999
40
0.749999999999999
40
0.781249999999999
40
0.781249999999999
40
0.812499999999999
40
0.812499999999999
40
0.874999999999999
40
0.874999999999999
40
1
40
1
40
1
40
1
41
1
10
61.8692076071285
20
1.48331001012247
30
0
41
1
10
61.8634239485889
20
1.61125082105369
30
0
41
1
10
61.8576855935742
20
1.7355826917892
30
0
41
1
10
61.846274594321
20
1.9772494513077
30
0
41
1
10
61.8406019175919
20
2.09458373823358
30
0
41
1
10
61.8292176470547
20
2.32224982462535
30
0
41
1
10
61.8234899538705
20
2.43258165040652
30
0
41
1
10
61.8162509281111
20
2.56597957894923
30
0
41
1
10
61.8147978778942
20
2.59246959296357
30
0
41
1
10
61.811899665198
20
2.64473991052199
30
0
41
1
10
61.8075621686927
20
2.72211877965333
30
0
41
1
10
61.8032542540709
20
2.79645482372453
30
0
41
1
10
61.7946706630875
20
2.94113629569827
30
0
41
1
10
61.7889938173233
20
3.03227994872242
30
0
41
1
10
61.7776301970346
20
3.20404370360376
30
0
41
1
10
61.7719291611186
20
3.28466376919039
30
0
41
1
10
61.7647323790424
20
3.37871746890787
30
0
41
1
10
61.7632903454314
20
3.39719132817822
30
0
41
1
10
61.7604011360505
20
3.43345827946629
30
0
41
1
10
61.7589524885991
20
3.4512690187839
30
0
41
1
10
61.7546087443218
20
3.50354610140354
30
0
41
1
10
61.7517279028004
20
3.53671830683814
30
0
41
1
10
61.7431225464179
20
3.63130452690041
30
0
41
1
10
61.7374375583281
20
3.68780074246831
30
0
41
1
10
61.7317546443269
20
3.73785945393328
30
0
0
SPLINE
5
187
100
AcDbEntity
8
1
62
256
6
ByLayer
370
13
48
1
60
0
100
AcDbSpline
70
4
71
3
72
11
73
7
40
0
40
0
40
0
40
0
40
0.0098747559858971
40
0.425603245511679
40
0.841331735037461
40
1
40
1
40
1
40
1
41
1
10
55.8400701088158
20
1.74068061082451
30
0
41
1
10
55.8404844005407
20
1.73344186954478
30
0
41
1
10
55.8583404267707
20
1.42076624299642
30
0
41
1
10
55.8936381797738
20
0.744968482549496
30
0
41
1
10
55.9351784924164
20
-0.107112071559527
30
0
41
1
10
55.9592771005641
20
-0.591350802605945
30
0
41
1
10
55.9659339704827
20
-0.723426047385516
30
0
0
SPLINE
5
188
100
AcDbEntity
8
1
62
256
6
ByLayer
370
13
48
1
60
0
100
AcDbSpline
70
4
71
3
72
10
73
6
40
0
40
0
40
0
40
0
40
0.285511961758975
40
0.701020549313355
40
1
40
1
40
1
40
1
41
1
10
57.2208700051139
20
0.654052602562842
30
0
41
1
10
57.2328548917726
20
0.415227229319925
30
0
41
1
10
57.262281511855
20
-0.183344947767438
30
0
41
1
10
57.3042583325245
20
-1.03257477670064
30
0
41
1
10
57.3342502757842
20
-1.58588780865776
30
0
41
1
10
57.3468004852586
20
-1.80243152279843
30
0
0
SPLINE
5
189
100
AcDbEntity
8
1
62
256
6
ByLayer
370
18
48
1
60
0
100
AcDbSpline
70
4
71
3
72
30
73
26
40
0
40
0
40
0
40
0
40
0.125000000000001
40
0.125000000000001
40
0.250000000000002
40
0.250000000000002
40
0.312500000000002
40
0.312500000000002
40
0.343750000000002
40
0.343750000000002
40
0.375000000000003
40
0.375000000000003
40
0.500000000000002
40
0.500000000000002
40
0.625000000000001
40
0.625000000000001
40
0.687500000000001
40
0.687500000000001
40
0.71875
40
0.71875
40
0.75
40
0.75
40
0.875
40
0.875
40
1
40
1
40
1
40
1
41
1
10
57.5784354516908
20
0.51385697411547
30
0
41
1
10
57.5841511084909
20
0.378355336288593
30
0
41
1
10
57.589818867408
20
0.242652901373305
30
0
41
1
10
57.6011727010996
20
-0.0291428890445502
30
0
41
1
10
57.6068765773128
20
-0.165235492657729
30
0
41
1
10
57.615501376188
20
-0.369670008203911
30
0
41
1
10
57.6183849413991
20
-0.43786433091563
30
0
41
1
10
57.6227228994826
20
-0.540231558730142
30
0
41
1
10
57.6241728805566
20
-0.574410068617368
30
0
41
1
10
57.6270624990055
20
-0.642436980003652
30
0
41
1
10
57.6285033664968
20
-0.676314502766445
30
0
41
1
10
57.6356901382624
20
-0.845029912070174
30
0
41
1
10
57.6413803161997
20
-0.977856657891834
30
0
41
1
10
57.6527462102332
20
-1.23931938901114
30
0
41
1
10
57.6584375621292
20
-1.36795455237603
30
0
41
1
10
57.667027525293
20
-1.5577413486964
30
0
41
1
10
57.6698966052141
20
-1.62047507467466
30
0
41
1
10
57.6742088904776
20
-1.71377095995422
30
0
41
1
10
57.6756478053339
20
-1.74473540222212
30
0
41
1
10
57.6785291367308
20
-1.80639307357629
30
0
41
1
10
57.6799733262894
20
-1.83712375303961
30
0
41
1
10
57.6871837080174
20
-1.98963507793064
30
0
41
1
10
57.6928832943675
20
-2.10733142093429
30
0
41
1
10
57.7042547787943
20
-2.33438823280295
30
0
41
1
10
57.7099416603187
20
-2.44374736321646
30
0
41
1
10
57.715662787162
20
-2.54894989234054
30
0
0
SPLINE
5
18A
100
AcDbEntity
8
1
62
256
6
ByLayer
370
13
48
1
60
0
100
AcDbSpline
70
4
71
3
72
10
73
6
40
0
40
0
40
0
40
0
40
0.373487117358868
40
0.789107573479473
40
1
40
1
40
1
40
1
41
1
10
55.0121456772991
20
2.30423908683298
30
0
41
1
10
55.0278192613775
20
2.06909829308154
30
0
41
1
10
55.0609345726695
20
1.50878621158918
30
0
41
1
10
55.102900107309
20
0.686262759772831
30
0
41
1
10
55.1291920484192
20
0.152149299906114
30
0
41
1
10
55.1380422595832
20
-0.0275263754758441
30
0
0
SPLINE
5
18B
100
AcDbEntity
8
1
62
256
6
ByLayer
370
13
48
1
60
0
100
AcDbSpline
70
4
71
3
72
10
73
6
40
0
40
0
40
0
40
0
40
0.32902551075609
40
0.744467054686926
40
1
40
1
40
1
40
1
41
1
10
56.1165545195153
20
1.53538417191561
30
0
41
1
10
56.1303681950109
20
1.28478277606197
30
0
41
1
10
56.1616236008801
20
0.68269238353048
30
0
41
1
10
56.2036072037564
20
-0.178279855621611
30
0
41
1
10
56.2317771270192
20
-0.742745854459287
30
0
41
1
10
56.2425053198042
20
-0.951940000710749
30
0
0
SPLINE
5
18C
100
AcDbEntity
8
1
62
256
6
ByLayer
370
13
48
1
60
0
100
AcDbSpline
70
4
71
3
72
11
73
7
40
0
40
0
40
0
40
0
40
0.0538847702407354
40
0.469727269290053
40
0.885569768339371
40
1
40
1
40
1
40
1
41
1
10
54.7357035968407
20
2.47094812151067
30
0
41
1
10
54.7379636919795
20
2.43924006263012
30
0
41
1
10
54.7576655224749
20
2.1570044896236
30
0
41
1
10
54.7948092048432
20
1.53235885785296
30
0
41
1
10
54.8344921022641
20
0.753641081987297
30
0
41
1
10
54.8567334211209
20
0.304123803752503
30
0
41
1
10
54.8615329896868
20
0.206867812316688
30
0
0
SPLINE
5
18D
100
AcDbEntity
8
1
62
256
6
ByLayer
370
13
48
1
60
0
100
AcDbSpline
70
4
71
3
72
11
73
7
40
0
40
0
40
0
40
0
40
0.001697465256948
40
0.417745331161418
40
0.833793197065889
40
1
40
1
40
1
40
1
41
1
10
53.907798629535
20
2.90083510026793
30
0
41
1
10
53.9078697913834
20
2.90007017116321
30
0
41
1
10
53.9253826858488
20
2.71162878537606
30
0
41
1
10
53.9603373110848
20
2.24090073952172
30
0
41
1
10
54.0021885668664
20
1.50582557887046
30
0
41
1
10
54.0265980889101
20
1.03573243276438
30
0
41
1
10
54.0335658795059
20
0.899239650338899
30
0
0
SPLINE
5
18E
100
AcDbEntity
8
1
62
256
6
ByLayer
370
18
48
1
60
0
100
AcDbSpline
70
4
71
3
72
31
73
27
40
0
40
0
40
0
40
0
40
0.062499999999999
40
0.062499999999999
40
0.0937499999999988
40
0.0937499999999988
40
0.124999999999999
40
0.124999999999999
40
0.249999999999999
40
0.249999999999999
40
0.375
40
0.375
40
0.5
40
0.5
40
0.5625
40
0.5625
40
0.625
40
0.625
40
0.75
40
0.874999999999999
40
0.874999999999999
40
0.906249999999999
40
0.906249999999999
40
0.937499999999999
40
0.937499999999999
40
1
40
1
40
1
40
1
41
1
10
56.4739911301926
20
1.57331577748539
30
0
41
1
10
56.4768531759294
20
1.51052814044544
30
0
41
1
10
56.4797177730569
20
1.44690653943019
30
0
41
1
10
56.4840245955039
20
1.3501997215254
30
0
41
1
10
56.4854635016362
20
1.31771530833782
30
0
41
1
10
56.4883388126911
20
1.25248634938859
30
0
41
1
10
56.4897726772689
20
1.21979990524775
30
0
41
1
10
56.4969279313707
20
1.0560122456647
30
0
41
1
10
56.5026101188763
20
0.923847666577672
30
0
41
1
10
56.5140214863262
20
0.657315155357082
30
0
41
1
10
56.519732552004
20
0.522946360277246
30
0
41
1
10
56.5311586982052
20
0.251994198579553
30
0
41
1
10
56.5368734890767
20
0.115411041047622
30
0
41
1
10
56.5455074321598
20
-0.0911818501146797
30
0
41
1
10
56.548375702908
20
-0.159835950585432
30
0
41
1
10
56.5540977520371
20
-0.296425231043571
30
0
41
1
10
56.5569551031793
20
-0.364411076122252
30
0
41
1
10
56.5655331829931
20
-0.567454825216004
30
0
41
1
10
56.5769630391897
20
-0.835748572069377
30
0
41
1
10
56.5883518531947
20
-1.09920841640107
30
0
41
1
10
56.5955044586512
20
-1.26231929679042
30
0
41
1
10
56.5969369361187
20
-1.29486369428764
30
0
41
1
10
56.5998079252823
20
-1.35979507075771
30
0
41
1
10
56.6012466608476
20
-1.39218643374105
30
0
41
1
10
56.6055505210618
20
-1.48856097890092
30
0
41
1
10
56.6084124869525
20
-1.55193478755919
30
0
41
1
10
56.6112753984056
20
-1.61444931319863
30
0
0
SPLINE
5
18F
100
AcDbEntity
8
1
62
256
6
ByLayer
370
13
48
1
60
0
100
AcDbSpline
70
4
71
3
72
10
73
6
40
0
40
0
40
0
40
0
40
0.241897989962667
40
0.656802607242517
40
1
40
1
40
1
40
1
41
1
10
58.3251471067555
20
-0.2749898615821
30
0
41
1
10
58.3353159984995
20
-0.480775593036697
30
0
41
1
10
58.3629266234205
20
-1.03547094273637
30
0
41
1
10
58.4049645476939
20
-1.8252237038964
30
0
41
1
10
58.4368335940131
20
-2.32374970752869
30
0
41
1
10
58.4512609037363
20
-2.5216333192806
30
0
0
SPLINE
5
190
100
AcDbEntity
8
1
62
256
6
ByLayer
370
18
48
1
60
0
100
AcDbSpline
70
4
71
3
72
29
73
25
40
0
40
0
40
0
40
0
40
0.125000000000001
40
0.125000000000001
40
0.156250000000001
40
0.156250000000001
40
0.187500000000001
40
0.250000000000002
40
0.250000000000002
40
0.375000000000002
40
0.500000000000003
40
0.500000000000003
40
0.531250000000003
40
0.531250000000003
40
0.562500000000003
40
0.562500000000003
40
0.625000000000003
40
0.625000000000003
40
0.750000000000002
40
0.875000000000001
40
0.875000000000001
40
0.937500000000001
40
0.937500000000001
40
1
40
1
40
1
40
1
41
1
10
56.7152970392903
20
-1.70861117921157
30
0
41
1
10
56.7096126400375
20
-1.5854301241931
30
0
41
1
10
56.7039267151675
20
-1.45896856963989
30
0
41
1
10
56.6967215688859
20
-1.296657535902
30
0
41
1
10
56.6952747310729
20
-1.26396295994272
30
0
41
1
10
56.6923886065243
20
-1.19852297062741
30
0
41
1
10
56.6880646988907
20
-1.10015269382373
30
0
41
1
10
56.6837594347242
20
-1.0011587308035
30
0
41
1
10
56.6751739784844
20
-0.80235221429183
30
0
41
1
10
56.6637983827808
20
-0.535097804285783
30
0
41
1
10
56.6524476759218
20
-0.263525253688783
30
0
41
1
10
56.645272627767
20
-0.0924154018166519
30
0
41
1
10
56.6438331962326
20
-0.0581244266696785
30
0
41
1
10
56.6409462994742
20
0.0105970567871907
30
0
41
1
10
56.6394967403993
20
0.0450778094246971
30
0
41
1
10
56.6351559418241
20
0.1482809550578
30
0
41
1
10
56.6322728210012
20
0.216763140567451
30
0
41
1
10
56.6236569385774
20
0.421269771473789
30
0
41
1
10
56.61226345945
20
0.691443844179446
30
0
41
1
10
56.6009449171404
20
0.956698260048228
30
0
41
1
10
56.592378139068
20
1.15376536430242
30
0
41
1
10
56.5895071344893
20
1.21914142619391
30
0
41
1
10
56.583738388984
20
1.34925619632006
30
0
41
1
10
56.5808356935962
20
1.41410880435964
30
0
41
1
10
56.5779528855041
20
1.47791994046901
30
0
0
SPLINE
5
191
100
AcDbEntity
8
1
62
256
6
ByLayer
370
13
48
1
60
0
100
AcDbSpline
70
4
71
3
72
10
73
6
40
0
40
0
40
0
40
0
40
0.38210240178609
40
0.797417851315896
40
1
40
1
40
1
40
1
41
1
10
56.9443266511696
20
0.883197419206311
30
0
41
1
10
56.9603735486177
20
0.568473657783528
30
0
41
1
10
56.9938620994964
20
-0.113577798355038
30
0
41
1
10
57.0358585354225
20
-0.962598729339248
30
0
41
1
10
57.0618079474862
20
-1.4468195775604
30
0
41
1
10
57.0703156474668
20
-1.59947915447267
30
0
0
SPLINE
5
192
100
AcDbEntity
8
1
62
256
6
ByLayer
370
18
48
1
60
0
100
AcDbSpline
70
4
71
3
72
28
73
24
40
0
40
0
40
0
40
0
40
0.125000000000001
40
0.125000000000001
40
0.250000000000003
40
0.250000000000003
40
0.375000000000004
40
0.375000000000004
40
0.406250000000004
40
0.406250000000004
40
0.437500000000005
40
0.500000000000004
40
0.500000000000004
40
0.625000000000003
40
0.750000000000002
40
0.750000000000002
40
0.781250000000001
40
0.781250000000001
40
0.812500000000001
40
0.812500000000001
40
0.875000000000001
40
0.875000000000001
40
1
40
1
40
1
40
1
41
1
10
55.6108279842268
20
-0.659329055617491
30
0
41
1
10
55.6051007980887
20
-0.523973237896058
30
0
41
1
10
55.5994064504453
20
-0.38843842299687
30
0
41
1
10
55.5879798510809
20
-0.117024679031488
30
0
41
1
10
55.5822669071755
20
0.0188550808723562
30
0
41
1
10
55.5708410449577
20
0.290961711552001
30
0
41
1
10
55.5651284160647
20
0.427188560281564
30
0
41
1
10
55.5579332321553
20
0.597694518132073
30
0
41
1
10
55.5564948124047
20
0.631722172122238
30
0
41
1
10
55.5536248725619
20
0.699445857064887
30
0
41
1
10
55.5493276773923
20
0.800621438367102
30
0
41
1
10
55.5450349075835
20
0.900579943052634
30
0
41
1
10
55.5364508607842
20
1.09889759295785
30
0
41
1
10
55.5250262478627
20
1.35906476378076
30
0
41
1
10
55.5136459833583
20
1.61076918657983
30
0
41
1
10
55.5064930226234
20
1.76536999402873
30
0
41
1
10
55.5050601910817
20
1.79615408585306
30
0
41
1
10
55.502187767426
20
1.85744694837905
30
0
41
1
10
55.5007476780534
20
1.88796537638993
30
0
41
1
10
55.4964383969912
20
1.97857802509492
30
0
41
1
10
55.4935699900779
20
2.03790742793811
30
0
41
1
10
55.4849673195459
20
2.21272102771169
30
0
41
1
10
55.4792461758801
20
2.32503907111925
30
0
41
1
10
55.4735422595067
20
2.43319784935829
30
0
0
SPLINE
5
193
100
AcDbEntity
8
1
62
256
6
ByLayer
370
18
48
1
60
0
100
AcDbSpline
70
4
71
3
72
27
73
23
40
0
40
0
40
0
40
0
40
0.125000000000001
40
0.125000000000001
40
0.250000000000002
40
0.250000000000002
40
0.281250000000002
40
0.281250000000002
40
0.312500000000001
40
0.375000000000001
40
0.375000000000001
40
0.500000000000001
40
0.625
40
0.625
40
0.65625
40
0.65625
40
0.6875
40
0.6875
40
0.75
40
0.75
40
0.875
40
1
40
1
40
1
40
1
41
1
10
55.3695192127911
20
2.51510386033917
30
0
41
1
10
55.3752404971826
20
2.40894809264987
30
0
41
1
10
55.3809340627742
20
2.29872035828509
30
0
41
1
10
55.3923180241081
20
2.07010795621335
30
0
41
1
10
55.3980081344968
20
1.95172398610976
30
0
41
1
10
55.4052079126594
20
1.7984787061541
30
0
41
1
10
55.4066534649342
20
1.76755011099613
30
0
41
1
10
55.4095378932594
20
1.70552067482672
30
0
41
1
10
55.4138602164941
20
1.61208880831222
30
0
41
1
10
55.4181662998411
20
1.51750712560303
30
0
41
1
10
55.42675528878
20
1.32683450145095
30
0
41
1
10
55.438140667823
20
1.06858693833243
30
0
41
1
10
55.4494967553775
20
0.802372235461348
30
0
41
1
10
55.4566690498537
20
0.633443483738944
30
0
41
1
10
55.4581076839923
20
0.59953020828047
30
0
41
1
10
55.4609945105936
20
0.53144589574714
30
0
41
1
10
55.4624445329298
20
0.497225052072224
30
0
41
1
10
55.4667870296598
20
0.394641359486684
30
0
41
1
10
55.4696728906
20
0.326330976058131
30
0
41
1
10
55.4782994121977
20
0.12163104661613
30
0
41
1
10
55.4897134280255
20
-0.150687013962994
30
0
41
1
10
55.5010420904558
20
-0.421792384059899
30
0
41
1
10
55.5067507650747
20
-0.557035030876932
30
0
0
SPLINE
5
194
100
AcDbEntity
8
1
62
256
6
ByLayer
370
18
48
1
60
0
100
AcDbSpline
70
4
71
3
72
29
73
25
40
0
40
0
40
0
40
0
40
0.125000000000001
40
0.125000000000001
40
0.187500000000001
40
0.187500000000001
40
0.250000000000001
40
0.250000000000001
40
0.375000000000002
40
0.500000000000002
40
0.500000000000002
40
0.562500000000002
40
0.562500000000002
40
0.593750000000002
40
0.593750000000002
40
0.625000000000001
40
0.750000000000001
40
0.875
40
0.875
40
0.9375
40
0.9375
40
0.96875
40
0.96875
40
1
40
1
40
1
40
1
41
1
10
58.6827144427611
20
-0.581057456324771
30
0
41
1
10
58.6883997147613
20
-0.715623754838163
30
0
41
1
10
58.6940825308992
20
-0.849474986549609
30
0
41
1
10
58.7027059519443
20
-1.04914432600612
30
0
41
1
10
58.705606344608
20
-1.11566058164635
30
0
41
1
10
58.7113797039212
20
-1.24688453096076
30
0
41
1
10
58.7142582066532
20
-1.31173800727152
30
0
41
1
10
58.7228658586274
20
-1.50406393778994
30
0
41
1
10
58.7342632951309
20
-1.75455129714081
30
0
41
1
10
58.7455951047405
20
-1.99329026635027
30
0
41
1
10
58.7541694650815
20
-2.16785376051212
30
0
41
1
10
58.7570432300287
20
-2.22529160382265
30
0
41
1
10
58.7613783982515
20
-2.31029946362875
30
0
41
1
10
58.7628263502525
20
-2.33842435891737
30
0
41
1
10
58.765712888263
20
-2.39396874844672
30
0
41
1
10
58.7729166982792
20
-2.53126217040855
30
0
41
1
10
58.7857548582191
20
-2.76449209285516
30
0
41
1
10
58.7970786974779
20
-2.95247698661254
30
0
41
1
10
58.805633564025
20
-3.08615152809136
30
0
41
1
10
58.8084983956457
20
-3.12948830382999
30
0
41
1
10
58.8128183285641
20
-3.19263180087251
30
0
41
1
10
58.8142617122574
20
-3.21336920906117
30
0
41
1
10
58.8171547235383
20
-3.25421631969851
30
0
41
1
10
58.8186060628995
20
-3.27434863773101
30
0
41
1
10
58.8200526326653
20
-3.29405833779111
30
0
0
SPLINE
5
195
100
AcDbEntity
8
1
62
256
6
ByLayer
370
18
48
1
60
0
100
AcDbSpline
70
4
71
3
72
28
73
24
40
0
40
0
40
0
40
0
40
0.124999999999999
40
0.124999999999999
40
0.249999999999998
40
0.249999999999998
40
0.312499999999998
40
0.312499999999998
40
0.374999999999998
40
0.374999999999998
40
0.499999999999998
40
0.499999999999998
40
0.624999999999998
40
0.624999999999998
40
0.687499999999997
40
0.687499999999997
40
0.718749999999997
40
0.718749999999997
40
0.749999999999997
40
0.749999999999997
40
0.874999999999999
40
0.874999999999999
40
1
40
1
40
1
40
1
41
1
10
57.8196623830132
20
-2.62826955617518
30
0
41
1
10
57.8139496888997
20
-2.52502036587802
30
0
41
1
10
57.8082808104592
20
-2.41768463222428
30
0
41
1
10
57.7969119816379
20
-2.1949283938232
30
0
41
1
10
57.7911938908629
20
-2.07950877707842
30
0
41
1
10
57.7825619308988
20
-1.90019100890007
30
0
41
1
10
57.779676010804
20
-1.83936718049989
30
0
41
1
10
57.7738900645249
20
-1.71567832651795
30
0
41
1
10
57.7710136524482
20
-1.65331894796486
30
0
41
1
10
57.7624224538286
20
-1.46472996431302
30
0
41
1
10
57.7567480490042
20
-1.33699325877163
30
0
41
1
10
57.7453854365457
20
-1.07758309289997
30
0
41
1
10
57.739678580049
20
-0.94591030885573
30
0
41
1
10
57.7310692248005
20
-0.745417723399981
30
0
41
1
10
57.7281931767458
20
-0.678088599833131
30
0
41
1
10
57.7238691626781
20
-0.576334547474517
30
0
41
1
10
57.7224261246449
20
-0.542289739366936
30
0
41
1
10
57.7195360211629
20
-0.473943592435063
30
0
41
1
10
57.7180907419302
20
-0.439684290867461
30
0
41
1
10
57.7108925581
20
-0.268710404736424
30
0
41
1
10
57.7051977681009
20
-0.132266941941481
30
0
41
1
10
57.6938216782784
20
0.139963830371045
30
0
41
1
10
57.6881226641048
20
0.275750346971506
30
0
41
1
10
57.6823989746022
20
0.411207015368348
30
0
0
SPLINE
5
196
100
AcDbEntity
8
1
62
256
6
ByLayer
370
13
48
1
60
0
100
AcDbSpline
70
4
71
3
72
10
73
6
40
0
40
0
40
0
40
0
40
0.337898458401161
40
0.752921670491941
40
1
40
1
40
1
40
1
41
1
10
58.0486949444861
20
-0.0419428155599348
30
0
41
1
10
58.0628954300991
20
-0.330215351404831
30
0
41
1
10
58.0945376121545
20
-0.971633473950362
30
0
41
1
10
58.136563611464
20
-1.75983391599109
30
0
41
1
10
58.1643890097392
20
-2.20496089924961
30
0
41
1
10
58.1747726968449
20
-2.35767333933782
30
0
0
SPLINE
5
197
100
AcDbEntity
8
1
62
256
6
ByLayer
370
18
48
1
60
0
100
AcDbSpline
70
4
71
3
72
29
73
25
40
0
40
0
40
0
40
0
40
0.124999999999999
40
0.124999999999999
40
0.187499999999999
40
0.187499999999999
40
0.218749999999999
40
0.218749999999999
40
0.249999999999999
40
0.249999999999999
40
0.374999999999999
40
0.374999999999999
40
0.499999999999998
40
0.499999999999998
40
0.562499999999998
40
0.593749999999999
40
0.593749999999999
40
0.624999999999999
40
0.624999999999999
40
0.749999999999999
40
0.749999999999999
40
0.875
40
0.875
40
1
40
1
40
1
40
1
41
1
10
54.506448402554
20
0.436769131655041
30
0
41
1
10
54.5007724949967
20
0.571752543346776
30
0
41
1
10
54.4950647525647
20
0.705999160243323
30
0
41
1
10
54.4864511062646
20
0.906246056360999
30
0
41
1
10
54.4835728397084
20
0.972807561131901
30
0
41
1
10
54.4792441422045
20
1.07236298517881
30
0
41
1
10
54.4777973753077
20
1.10554451063317
30
0
41
1
10
54.4749139629761
20
1.17147633378852
30
0
41
1
10
54.4734763018665
20
1.20425024962347
30
0
41
1
10
54.4663056038916
20
1.36717044076551
30
0
41
1
10
54.4606283805567
20
1.49447620493052
30
0
41
1
10
54.449277060646
20
1.7431713778013
30
0
41
1
10
54.4435850006104
20
1.86455983381933
30
0
41
1
10
54.4350046243032
20
2.04217604972115
30
0
41
1
10
54.4307069948499
20
2.12986553680398
30
0
41
1
10
54.4263970454264
20
2.21585205265487
30
0
41
1
10
54.4235202325636
20
2.27279369125924
30
0
41
1
10
54.4220785583735
20
2.30110315004762
30
0
41
1
10
54.4148768675557
20
2.44133494027432
30
0
41
1
10
54.4091833528837
20
2.54848248315466
30
0
41
1
10
54.3978160773391
20
2.75304377512251
30
0
41
1
10
54.3921246641175
20
2.8504560213579
30
0
41
1
10
54.3806933806714
20
3.03557839629795
30
0
41
1
10
54.3749669524209
20
3.12328951863307
30
0
41
1
10
54.3692200536782
20
3.20601539193527
30
0
0
SPLINE
5
198
100
AcDbEntity
8
1
62
256
6
ByLayer
370
18
48
1
60
0
100
AcDbSpline
70
4
71
3
72
30
73
26
40
0
40
0
40
0
40
0
40
0.0312500000000001
40
0.0312500000000001
40
0.0625000000000002
40
0.125
40
0.125
40
0.25
40
0.25
40
0.374999999999999
40
0.374999999999999
40
0.437499999999999
40
0.437499999999999
40
0.499999999999999
40
0.499999999999999
40
0.624999999999999
40
0.624999999999999
40
0.749999999999999
40
0.749999999999999
40
0.8125
40
0.84375
40
0.84375
40
0.875
40
0.875
40
1
40
1
40
1
40
1
41
1
10
54.2652356489636
20
3.2674996676169
30
0
41
1
10
54.2666789019812
20
3.24751012462156
30
0
41
1
10
54.2681271495319
20
3.22709368987285
30
0
41
1
10
54.2710162747605
20
3.18564758786573
30
0
41
1
10
54.2753397015008
20
3.12255230368126
30
0
41
1
10
54.2796331692033
20
3.05671211877191
30
0
41
1
10
54.2881894496298
20
2.92143271695582
30
0
41
1
10
54.2938503398255
20
2.82645671149103
30
0
41
1
10
54.3051942418766
20
2.62702264487828
30
0
41
1
10
54.3108947312053
20
2.52256543472885
30
0
41
1
10
54.3195120459328
20
2.35861940888671
30
0
41
1
10
54.322395021366
20
2.30272156676219
30
0
41
1
10
54.3281714345266
20
2.18859752471258
30
0
41
1
10
54.3310434870347
20
2.13079542460539
30
0
41
1
10
54.3396209945102
20
1.95521701658157
30
0
41
1
10
54.3452854213611
20
1.83527401297863
30
0
41
1
10
54.3566174253471
20
1.58972376327222
30
0
41
1
10
54.36230185817
20
1.4641170506207
30
0
41
1
10
54.3708915249382
20
1.2714136865005
30
0
41
1
10
54.3751975942511
20
1.17398646721361
30
0
41
1
10
54.37952017827
20
1.07491770206073
30
0
41
1
10
54.3824061819258
20
1.00850251974831
30
0
41
1
10
54.3838492105041
20
0.975157970182408
30
0
41
1
10
54.3910368088109
20
0.808439823924431
30
0
41
1
10
54.3967238099015
20
0.674438396272876
30
0
41
1
10
54.4023995691935
20
0.539830528267345
30
0
0
SPLINE
5
199
100
AcDbEntity
8
1
62
256
6
ByLayer
370
18
48
1
60
0
100
AcDbSpline
70
4
71
3
72
30
73
26
40
0
40
0
40
0
40
0
40
0.0625
40
0.0625
40
0.0937500000000001
40
0.0937500000000001
40
0.125
40
0.25
40
0.375000000000001
40
0.375000000000001
40
0.437500000000001
40
0.468750000000001
40
0.468750000000001
40
0.5
40
0.5
40
0.625
40
0.625
40
0.75
40
0.75
40
0.874999999999999
40
0.874999999999999
40
0.906249999999999
40
0.906249999999999
40
0.937499999999999
40
1
40
1
40
1
40
1
41
1
10
62.732052788379
20
3.26084850099656
30
0
41
1
10
62.7349202271348
20
3.22083454261517
30
0
41
1
10
62.7378022862507
20
3.17929373859874
30
0
41
1
10
62.7421441322269
20
3.11464440185668
30
0
41
1
10
62.7435949767954
20
3.09269742809894
30
0
41
1
10
62.7464860740699
20
3.04827765025971
30
0
41
1
10
62.7536985815926
20
2.93575667228475
30
0
41
1
10
62.766535455337
20
2.72017417163403
30
0
41
1
10
62.7778743431928
20
2.51042250025878
30
0
41
1
10
62.7864601958314
20
2.34626260522805
30
0
41
1
10
62.7907731738055
20
2.26246787165084
30
0
41
1
10
62.7951093730787
20
2.17605998589977
30
0
41
1
10
62.7980052165267
20
2.11786722369555
30
0
41
1
10
62.7994576770687
20
2.08843506539932
30
0
41
1
10
62.80669742377
20
1.94051198032926
30
0
41
1
10
62.8124252216232
20
1.81952378985363
30
0
41
1
10
62.8238159191409
20
1.57242244071875
30
0
41
1
10
62.8294788641624
20
1.44630879394955
30
0
41
1
10
62.8408844489088
20
1.1889701407149
30
0
41
1
10
62.8466290219837
20
1.05774562682851
30
0
41
1
10
62.853847868644
20
0.890424812241889
30
0
41
1
10
62.8552952638655
20
0.856760344364318
30
0
41
1
10
62.8581877856625
20
0.789260616477378
30
0
41
1
10
62.862514709741
20
0.687954706023788
30
0
41
1
10
62.8668094568082
20
0.586482072140228
30
0
41
1
10
62.869663571728
20
0.518761045728439
30
0
0
SPLINE
5
19A
100
AcDbEntity
8
1
62
256
6
ByLayer
370
18
48
1
60
0
100
AcDbSpline
70
4
71
3
72
8
73
4
40
0
40
0
40
0
40
0
40
1
40
1
40
1
40
1
41
1
10
62.9735690773441
20
0.416216048574512
30
0
41
1
10
62.9725566505017
20
0.440350125558467
30
0
41
1
10
62.9715462126428
20
0.464431711943377
30
0
41
1
10
62.9705374611592
20
0.488461155923744
30
0
0
SPLINE
5
19B
100
AcDbEntity
8
1
62
256
6
ByLayer
370
18
48
1
60
0
100
AcDbSpline
70
4
71
3
72
31
73
27
40
0
40
0
40
0
40
0
40
0.0625000000000002
40
0.0625000000000002
40
0.0937500000000002
40
0.0937500000000002
40
0.125
40
0.25
40
0.25
40
0.375
40
0.375
40
0.4375
40
0.46875
40
0.46875
40
0.5
40
0.5
40
0.625
40
0.625
40
0.75
40
0.75
40
0.875
40
0.875
40
0.90625
40
0.90625
40
0.9375
40
1
40
1
40
1
40
1
41
1
10
58.9240807034527
20
-3.35257894323072
30
0
41
1
10
58.9212150194821
20
-3.31487843607988
30
0
41
1
10
58.9183452043978
20
-3.2756183505561
30
0
41
1
10
58.9140273271386
20
-3.21433898762197
30
0
41
1
10
58.9125871606747
20
-3.19353234997484
30
0
41
1
10
58.909717086276
20
-3.15136037523138
30
0
41
1
10
58.9025599895785
20
-3.04439451656765
30
0
41
1
10
58.8954452324044
20
-2.92986339606759
30
0
41
1
10
58.8840247636328
20
-2.73714691946563
30
0
41
1
10
58.8783147264095
20
-2.63605449222896
30
0
41
1
10
58.8697466929935
20
-2.47725235249163
30
0
41
1
10
58.8654609281598
20
-2.39605703440216
30
0
41
1
10
58.8611624399639
20
-2.31212688243852
30
0
41
1
10
58.8582921327396
20
-2.25555853176624
30
0
41
1
10
58.8568531075348
20
-2.22693481287931
30
0
41
1
10
58.8496806014109
20
-2.08305260416745
30
0
41
1
10
58.8439832504506
20
-1.96502531608127
30
0
41
1
10
58.8325579063985
20
-1.72331715835702
30
0
41
1
10
58.8268492230909
20
-1.59963510577012
30
0
41
1
10
58.815439874633
20
-1.34662077545263
30
0
41
1
10
58.8097394471646
20
-1.217288893263
30
0
41
1
10
58.8025661688923
20
-1.05198722772454
30
0
41
1
10
58.8011269834206
20
-1.01869994712502
30
0
41
1
10
58.7982509736143
20
-0.951984035577908
30
0
41
1
10
58.7939456781823
20
-0.851795903532832
30
0
41
1
10
58.7896482009881
20
-0.751269943699327
30
0
41
1
10
58.7867842134001
20
-0.684105152701164
30
0
0
SPLINE
5
19C
100
AcDbEntity
8
1
62
256
6
ByLayer
370
13
48
1
60
0
100
AcDbSpline
70
4
71
3
72
10
73
6
40
0
40
0
40
0
40
0
40
0.293580097794215
40
0.708448169222646
40
1
40
1
40
1
40
1
41
1
10
59.1530977650516
20
-0.964615146424222
30
0
41
1
10
59.1654403560336
20
-1.20500388945896
30
0
41
1
10
59.1952247003653
20
-1.76641695124513
30
0
41
1
10
59.2372662917111
20
-2.44818993274635
30
0
41
1
10
59.2669653590671
20
-2.81273830688124
30
0
41
1
10
59.2792226801637
20
-2.93987749736809
30
0
0
SPLINE
5
19D
100
AcDbEntity
8
1
62
256
6
ByLayer
370
18
48
1
60
0
100
AcDbSpline
70
4
71
3
72
8
73
4
40
0
40
0
40
0
40
0
40
1
40
1
40
1
40
1
41
1
10
62.8224075313597
20
3.20762471295376
30
0
41
1
10
62.7923068692484
20
3.22562888571102
30
0
41
1
10
62.7621887412996
20
3.24337036422577
30
0
41
1
10
62.732052788379
20
3.26084850099656
30
0
0
SPLINE
5
19E
100
AcDbEntity
8
1
62
256
6
ByLayer
370
18
48
1
60
0
100
AcDbSpline
70
4
71
3
72
20
73
16
40
0
40
0
40
0
40
0
40
0.250000000000005
40
0.250000000000005
40
0.375000000000007
40
0.375000000000007
40
0.437500000000008
40
0.437500000000008
40
0.500000000000009
40
0.500000000000009
40
0.625000000000012
40
0.625000000000012
40
0.750000000000014
40
0.750000000000014
40
1
40
1
40
1
40
1
41
1
10
52.939409577257
20
-3.55749699515357
30
0
41
1
10
52.859959240598
20
-3.50951381142863
30
0
41
1
10
52.7800043491259
20
-3.45834753465474
30
0
41
1
10
52.6588899977405
20
-3.37673951157117
30
0
41
1
10
52.6183140484831
20
-3.34872347469567
30
0
41
1
10
52.5570802066214
20
-3.30546804816834
30
0
41
1
10
52.5366085803245
20
-3.29084499549384
30
0
41
1
10
52.4955363370457
20
-3.26118893932826
30
0
41
1
10
52.4749269805684
20
-3.24615144440628
30
0
41
1
10
52.4126147636151
20
-3.2003062521087
30
0
41
1
10
52.3704064200172
20
-3.16873619446227
30
0
41
1
10
52.2854341475832
20
-3.10429361219488
30
0
41
1
10
52.2425888359542
20
-3.07136599858751
30
0
41
1
10
52.1127994088939
20
-2.97060488154406
30
0
41
1
10
52.0246228461386
20
-2.90079495187234
30
0
41
1
10
51.9342461001384
20
-2.8287235096528
30
0
0
SPLINE
5
19F
100
AcDbEntity
8
1
62
256
6
ByLayer
370
18
48
1
60
0
100
AcDbSpline
70
4
71
3
72
14
73
10
40
0
40
0
40
0
40
0
40
0.499999999999972
40
0.499999999999972
40
0.749999999999957
40
0.749999999999957
40
0.874999999999979
40
0.874999999999979
40
1
40
1
40
1
40
1
41
1
10
51.9342461001384
20
-2.82872350965278
30
0
41
1
10
51.8634849470498
20
-2.77229463185037
30
0
41
1
10
51.7883286235763
20
-2.72492914586593
30
0
41
1
10
51.6715329878707
20
-2.66622578971769
30
0
41
1
10
51.631914892972
20
-2.64872200910077
30
0
41
1
10
51.571690479894
20
-2.6254890201852
30
0
41
1
10
51.5515098401594
20
-2.61826137166833
30
0
41
1
10
51.5111444542568
20
-2.60487841044139
30
0
41
1
10
51.4909345319681
20
-2.59871313289088
30
0
41
1
10
51.4707118327194
20
-2.59306503639897
30
0
0
SPLINE
5
1A0
100
AcDbEntity
8
1
62
256
6
ByLayer
370
18
48
1
60
0
100
AcDbSpline
70
4
71
3
72
100
73
96
40
0
40
0
40
0
40
0
40
0.031249999999997
40
0.031249999999997
40
0.0468749999999967
40
0.0468749999999967
40
0.0624999999999964
40
0.0624999999999964
40
0.0937499999999934
40
0.0937499999999934
40
0.12499999999999
40
0.12499999999999
40
0.156249999999987
40
0.156249999999987
40
0.171874999999986
40
0.171874999999986
40
0.187499999999984
40
0.187499999999984
40
0.203124999999982
40
0.203124999999982
40
0.218749999999981
40
0.218749999999981
40
0.24999999999998
40
0.24999999999998
40
0.28124999999998
40
0.28124999999998
40
0.296874999999979
40
0.296874999999979
40
0.312499999999979
40
0.312499999999979
40
0.328124999999979
40
0.328124999999979
40
0.335937499999979
40
0.335937499999979
40
0.343749999999979
40
0.343749999999979
40
0.37499999999998
40
0.37499999999998
40
0.406249999999982
40
0.406249999999982
40
0.421874999999983
40
0.421874999999983
40
0.437499999999984
40
0.437499999999984
40
0.468749999999989
40
0.468749999999989
40
0.484374999999992
40
0.484374999999992
40
0.499999999999995
40
0.499999999999995
40
0.515624999999999
40
0.515624999999999
40
0.531250000000002
40
0.531250000000002
40
0.562500000000006
40
0.578125000000007
40
0.578125000000007
40
0.593750000000008
40
0.593750000000008
40
0.609375000000009
40
0.609375000000009
40
0.62500000000001
40
0.62500000000001
40
0.640625000000011
40
0.640625000000011
40
0.656250000000012
40
0.687500000000014
40
0.687500000000014
40
0.718750000000016
40
0.718750000000016
40
0.734375000000017
40
0.734375000000017
40
0.750000000000018
40
0.750000000000018
40
0.781250000000017
40
0.781250000000017
40
0.812500000000016
40
0.812500000000016
40
0.843750000000016
40
0.843750000000016
40
0.859375000000014
40
0.859375000000014
40
0.875000000000013
40
0.875000000000013
40
0.882812500000012
40
0.882812500000012
40
0.890625000000011
40
0.890625000000011
40
0.906250000000009
40
0.906250000000009
40
0.937500000000006
40
0.937500000000006
40
0.968750000000003
40
0.968750000000003
40
1
40
1
40
1
40
1
41
1
10
51.4707118327194
20
-2.59306503639897
30
0
41
1
10
51.3534004546911
20
-2.56030056838443
30
0
41
1
10
51.2366327763847
20
-2.52432325725133
30
0
41
1
10
51.0620839750116
20
-2.46574333855213
30
0
41
1
10
51.0039589914311
20
-2.4454750577622
30
0
41
1
10
50.8875008407908
20
-2.40373152395506
30
0
41
1
10
50.8292004055271
20
-2.38223779748182
30
0
41
1
10
50.6547406100907
20
-2.31540223839033
30
0
41
1
10
50.5387534326428
20
-2.26790345683702
30
0
41
1
10
50.3069276586292
20
-2.16743219863872
30
0
41
1
10
50.1911407238807
20
-2.11441776683014
30
0
41
1
10
49.9596005031682
20
-2.00298404246846
30
0
41
1
10
49.8438133646355
20
-1.94459632830092
30
0
41
1
10
49.669844054707
20
-1.85322650121589
30
0
41
1
10
49.6118160335051
20
-1.82212754037766
30
0
41
1
10
49.4955977369831
20
-1.75872896506309
30
0
41
1
10
49.437373787195
20
-1.72646621371518
30
0
41
1
10
49.3204410956938
20
-1.66112675573345
30
0
41
1
10
49.261773375591
20
-1.62800626732383
30
0
41
1
10
49.1443634696844
20
-1.56045616058805
30
0
41
1
10
49.0854934091916
20
-1.52604224821238
30
0
41
1
10
48.9093917559435
20
-1.42158864413892
30
0
41
1
10
48.792517209987
20
-1.35025331782836
30
0
41
1
10
48.5595816193158
20
-1.20451570773764
30
0
41
1
10
48.443526142223
20
-1.13010495958187
30
0
41
1
10
48.269742222115
20
-1.01660880291095
30
0
41
1
10
48.211866479704
20
-0.978460444682952
30
0
41
1
10
48.0961953061485
20
-0.901564211158245
30
0
41
1
10
48.0384168004396
20
-0.86279283081393
30
0
41
1
10
47.9228258218173
20
-0.784807655366905
30
0
41
1
10
47.864958900253
20
-0.745669116114385
30
0
41
1
10
47.7779004041496
20
-0.686961935908897
30
0
41
1
10
47.7488494076772
20
-0.667377079342145
30
0
41
1
10
47.6907755752341
20
-0.628047714611625
30
0
41
1
10
47.6617444621628
20
-0.608314700881607
30
0
41
1
10
47.5165273626418
20
-0.509435370276606
30
0
41
1
10
47.4000303007977
20
-0.429832262421229
30
0
41
1
10
47.1670679254047
20
-0.268626884646693
30
0
41
1
10
47.050507500164
20
-0.187157632569608
30
0
41
1
10
46.8753497462586
20
-0.0638901377616889
30
0
41
1
10
46.8169139111348
20
-0.0226191760336292
30
0
41
1
10
46.6998917781559
20
0.0602218647569543
30
0
41
1
10
46.6413851671329
20
0.101717978518423
30
0
41
1
10
46.4660749798924
20
0.22579232419119
30
0
41
1
10
46.3492800464114
20
0.308039378600796
30
0
41
1
10
46.1732858854152
20
0.429426746513172
30
0
41
1
10
46.1146113285739
20
0.469735310723962
30
0
41
1
10
45.997330348813
20
0.55016810576771
30
0
41
1
10
45.9387072320148
20
0.590268413666053
30
0
41
1
10
45.8213447027579
20
0.670024265127921
30
0
41
1
10
45.7625979340908
20
0.709669855083547
30
0
41
1
10
45.6450306816571
20
0.788576080593543
30
0
41
1
10
45.5861807689655
20
0.827860642761266
30
0
41
1
10
45.4098439475349
20
0.945122549491913
30
0
41
1
10
45.2341785724012
20
1.06094836225259
30
0
41
1
10
45.0591386114417
20
1.17405982132971
30
0
41
1
10
44.942543227316
20
1.24880409083838
30
0
41
1
10
44.8843457761551
20
1.28590842606042
30
0
41
1
10
44.7676128141325
20
1.35889791943419
30
0
41
1
10
44.7089551628828
20
1.3946332744126
30
0
41
1
10
44.5915048428783
20
1.46516730302383
30
0
41
1
10
44.5327841375266
20
1.50005188863207
30
0
41
1
10
44.415128845357
20
1.56878179758067
30
0
41
1
10
44.3561105359729
20
1.60259869792088
30
0
41
1
10
44.2385195491851
20
1.66917074963504
30
0
41
1
10
44.0626079808697
20
1.7674700872399
30
0
41
1
10
43.8879724603511
20
1.86091885582775
30
0
41
1
10
43.6559998823908
20
1.98088303427386
30
0
41
1
10
43.5405240352428
20
2.03861093251035
30
0
41
1
10
43.3671753746382
20
2.12091440570725
30
0
41
1
10
43.3093568696478
20
2.14762462961863
30
0
41
1
10
43.1935629930436
20
2.19953780127841
30
0
41
1
10
43.1355843431004
20
2.22473893383929
30
0
41
1
10
42.9615023853909
20
2.29819079308965
30
0
41
1
10
42.8452880416102
20
2.34432740086973
30
0
41
1
10
42.6128571866648
20
2.43114203568004
30
0
41
1
10
42.4966006715504
20
2.47177594419867
30
0
41
1
10
42.263509779362
20
2.54699954113488
30
0
41
1
10
42.14667714475
20
2.58159342490669
30
0
41
1
10
41.9707512793218
20
2.62868995990769
30
0
41
1
10
41.9121991631199
20
2.64353705082644
30
0
41
1
10
41.795387859908
20
2.67148923386398
30
0
41
1
10
41.7371186987249
20
2.68460393813794
30
0
41
1
10
41.6496690839377
20
2.70289191774705
30
0
41
1
10
41.620510090614
20
2.70875716289797
30
0
41
1
10
41.5621282914874
20
2.72001671142766
30
0
41
1
10
41.5329177590696
20
2.72541692961596
30
0
41
1
10
41.4454129449859
20
2.74100624383326
30
0
41
1
10
41.3872050870303
20
2.75056560674474
30
0
41
1
10
41.2128474689009
20
2.7766898318294
30
0
41
1
10
41.0968771234544
20
2.79067492778643
30
0
41
1
10
40.8651318453385
20
2.81170775012481
30
0
41
1
10
40.7494092787674
20
2.81876583847028
30
0
41
1
10
40.5179474687365
20
2.82586361995524
30
0
41
1
10
40.4022098093428
20
2.82589951879848
30
0
41
1
10
40.2862116525924
20
2.82238867175357
30
0
0
SPLINE
5
1A1
100
AcDbEntity
8
1
62
256
6
ByLayer
370
18
48
1
60
0
100
AcDbSpline
70
4
71
3
72
102
73
98
40
0
40
0
40
0
40
0
40
0.0172010460286336
40
0.0172010460286336
40
0.0344020920572671
40
0.0344020920572671
40
0.0688041841145342
40
0.0688041841145342
40
0.103206276171801
40
0.103206276171801
40
0.137608368229068
40
0.137608368229068
40
0.154809414257702
40
0.154809414257702
40
0.172010460286336
40
0.172010460286336
40
0.189211506314969
40
0.189211506314969
40
0.206412552343603
40
0.206412552343603
40
0.240814644400867
40
0.240814644400867
40
0.275216736458132
40
0.275216736458132
40
0.283817259472449
40
0.283817259472449
40
0.292417782486766
40
0.292417782486766
40
0.309618828515402
40
0.309618828515402
40
0.344020920572673
40
0.344020920572673
40
0.378423012629945
40
0.378423012629945
40
0.39562405865858
40
0.39562405865858
40
0.412825104687215
40
0.412825104687215
40
0.430026150715849
40
0.430026150715849
40
0.447227196744484
40
0.447227196744484
40
0.481629288801751
40
0.481629288801751
40
0.516031380859018
40
0.516031380859018
40
0.524631903873337
40
0.524631903873337
40
0.533232426887655
40
0.533232426887655
40
0.550433472916295
40
0.550433472916295
40
0.567634518944934
40
0.567634518944934
40
0.584835564973574
40
0.584835564973574
40
0.619237657030852
40
0.619237657030852
40
0.636438703059493
40
0.636438703059493
40
0.653639749088133
40
0.653639749088133
40
0.670840795116774
40
0.670840795116774
40
0.688041841145414
40
0.688041841145414
40
0.722443933202696
40
0.722443933202696
40
0.756846025259977
40
0.756846025259977
40
0.774047071288616
40
0.774047071288616
40
0.791248117317255
40
0.791248117317255
40
0.799848640331575
40
0.799848640331575
40
0.808449163345895
40
0.808449163345895
40
0.825650209374532
40
0.825650209374532
40
0.860052301431808
40
0.860052301431808
40
0.894454393489085
40
0.894454393489085
40
0.911655439517723
40
0.911655439517723
40
0.928856485546361
40
0.928856485546361
40
0.946057531574999
40
0.946057531574999
40
0.963258577603638
40
0.963258577603638
40
0.980459623632276
40
0.980459623632276
40
0.997660669660914
40
0.997660669660914
40
1
40
1
40
1
40
1
41
1
10
38.1448161549201
20
1.84535287063116
30
0
41
1
10
38.2145206284691
20
1.80849074778078
30
0
41
1
10
38.2840184512313
20
1.77080839059826
30
0
41
1
10
38.4226865722257
20
1.69390215247824
30
0
41
1
10
38.4917981848788
20
1.65460803785521
30
0
41
1
10
38.6990317336941
20
1.53487824828363
30
0
41
1
10
38.8373774985767
20
1.4530048908108
30
0
41
1
10
39.1139937724573
20
1.28474131252994
30
0
41
1
10
39.2523395635386
20
1.19844110621915
30
0
41
1
10
39.5291217810193
20
1.02152114619074
30
0
41
1
10
39.667555348125
20
0.930895934740619
30
0
41
1
10
39.8754128409451
20
0.791812808183664
30
0
41
1
10
39.9447011512789
20
0.744880883132566
30
0
41
1
10
40.0834556575263
20
0.650095725028535
30
0
41
1
10
40.152974408486
20
0.60231775085694
30
0
41
1
10
40.2925398272227
20
0.506346219410517
30
0
41
1
10
40.3626388069667
20
0.458065589911087
30
0
41
1
10
40.5024233206323
20
0.361628429636198
30
0
41
1
10
40.5722097243523
20
0.313411596129754
30
0
41
1
10
40.7812701117182
20
0.168785115113565
30
0
41
1
10
40.9202454816148
20
0.0723984174274506
30
0
41
1
10
41.1973735485135
20
-0.120369184012617
30
0
41
1
10
41.3355397605525
20
-0.216729855634469
30
0
41
1
10
41.5078088682999
20
-0.337055406865801
30
0
41
1
10
41.5422383073732
20
-0.36111771908017
30
0
41
1
10
41.6110511283554
20
-0.409232177513786
30
0
41
1
10
41.6454555363847
20
-0.433253914210951
30
0
41
1
10
41.7488493008016
20
-0.504945063242758
30
0
41
1
10
41.8178714512021
20
-0.552453176098112
30
0
41
1
10
42.0252579817429
20
-0.694064214818553
30
0
41
1
10
42.1639795445313
20
-0.787202195914233
30
0
41
1
10
42.4423609478681
20
-0.970922566600194
30
0
41
1
10
42.5820848708487
20
-1.06148767988748
30
0
41
1
10
42.7923221335767
20
-1.19524270917231
30
0
41
1
10
42.8621725584518
20
-1.23927746028295
30
0
41
1
10
43.0014206164427
20
-1.32624182167484
30
0
41
1
10
43.0707889693048
20
-1.36920820710535
30
0
41
1
10
43.2092783496787
20
-1.45376398339852
30
0
41
1
10
43.2784326453553
20
-1.49531108169279
30
0
41
1
10
43.4167951030401
20
-1.57668291968056
30
0
41
1
10
43.4859826631522
20
-1.61653494787004
30
0
41
1
10
43.6935651655221
20
-1.73363488557175
30
0
41
1
10
43.8319538829304
20
-1.80846516352051
30
0
41
1
10
44.1086380182414
20
-1.95182154474537
30
0
41
1
10
44.2469510369895
20
-2.02032845434698
30
0
41
1
10
44.4197601337961
20
-2.10194843211218
30
0
41
1
10
44.4543225152105
20
-2.11806637884862
30
0
41
1
10
44.5234896953737
20
-2.14984751572817
30
0
41
1
10
44.5581053736467
20
-2.16550084468056
30
0
41
1
10
44.6618982317054
20
-2.21188589900498
30
0
41
1
10
44.7309898822869
20
-2.24206336461259
30
0
41
1
10
44.8698397119458
20
-2.3001153459341
30
0
41
1
10
44.9395713140455
20
-2.3280230220663
30
0
41
1
10
45.0793939703682
20
-2.38183013383002
30
0
41
1
10
45.1495944065717
20
-2.40774624185906
30
0
41
1
10
45.3595405993331
20
-2.48194111498199
30
0
41
1
10
45.4989495769574
20
-2.52680586351465
30
0
41
1
10
45.7072682270319
20
-2.58732018942359
30
0
41
1
10
45.7765793301968
20
-2.60635549321964
30
0
41
1
10
45.9150186632097
20
-2.64211608967614
30
0
41
1
10
45.9841674219908
20
-2.65883288376293
30
0
41
1
10
46.1221790864646
20
-2.68999984094694
30
0
41
1
10
46.1910049359603
20
-2.70446203847772
30
0
41
1
10
46.3285979237658
20
-2.73098287011354
30
0
41
1
10
46.3975203028384
20
-2.74298453999532
30
0
41
1
10
46.6045338650251
20
-2.77532231835019
30
0
41
1
10
46.7429689428683
20
-2.79196839773536
30
0
41
1
10
47.0205313556479
20
-2.81555335815864
30
0
41
1
10
47.1596687907226
20
-2.8224849914665
30
0
41
1
10
47.3689877843713
20
-2.82540584773363
30
0
41
1
10
47.438860965199
20
-2.82513158017284
30
0
41
1
10
47.578808262087
20
-2.82202677124715
30
0
41
1
10
47.6486060436678
20
-2.81919978513713
30
0
41
1
10
47.7529063485268
20
-2.81305372450706
30
0
41
1
10
47.787607575641
20
-2.81068558170313
30
0
41
1
10
47.8569699918982
20
-2.8053254056035
30
0
41
1
10
47.891654967132
20
-2.80233798002052
30
0
41
1
10
47.9956848106529
20
-2.79246145990947
30
0
41
1
10
48.0649964565468
20
-2.78465616634315
30
0
41
1
10
48.2728523603907
20
-2.75766182304409
30
0
41
1
10
48.4113102254632
20
-2.73490188168131
30
0
41
1
10
48.6880486584421
20
-2.68005575633359
30
0
41
1
10
48.8263147102981
20
-2.6479609112196
30
0
41
1
10
49.0336684579991
20
-2.59280392108113
30
0
41
1
10
49.1027891958362
20
-2.57325475527588
30
0
41
1
10
49.2409307902786
20
-2.53172622257281
30
0
41
1
10
49.3099198145863
20
-2.50972111197117
30
0
41
1
10
49.4481186060196
20
-2.46343872588057
30
0
41
1
10
49.5174446886273
20
-2.43924840720149
30
0
41
1
10
49.6564528975984
20
-2.38871569164016
30
0
41
1
10
49.7261456991739
20
-2.36238013219392
30
0
41
1
10
49.8659280506531
20
-2.3075807582911
30
0
41
1
10
49.9361112085319
20
-2.27907741437585
30
0
41
1
10
50.0762539760887
20
-2.22020442014738
30
0
41
1
10
50.1462437095797
20
-2.18982620973202
30
0
41
1
10
50.2256543979931
20
-2.15424980988274
30
0
41
1
10
50.2351596918828
20
-2.14997334402466
30
0
41
1
10
50.244663430814
20
-2.14567955448825
30
0
0
SPLINE
5
1A2
100
AcDbEntity
8
1
62
256
6
ByLayer
370
18
48
1
60
0
100
AcDbSpline
70
4
71
3
72
8
73
4
40
0
40
0
40
0
40
0
40
1
40
1
40
1
40
1
41
1
10
60.6274672319401
20
3.99822318040347
30
0
41
1
10
60.5927978459648
20
4.00179248756925
30
0
41
1
10
60.5581140152671
20
4.00492431765423
30
0
41
1
10
60.5234127223267
20
4.00761471961687
30
0
0
SPLINE
5
1A3
100
AcDbEntity
8
1
62
256
6
ByLayer
370
18
48
1
60
0
100
AcDbSpline
70
4
71
3
72
10
73
6
40
0
40
0
40
0
40
0
40
0.450408261129186
40
0.450408261129186
40
1
40
1
40
1
40
1
41
1
10
60.9960541002486
20
-3.95526569670457
30
0
41
1
10
60.9461490944075
20
-3.86905892232659
30
0
41
1
10
60.8960029204508
20
-3.78102345088558
30
0
41
1
10
60.7841036129455
20
-3.58171761231972
30
0
41
1
10
60.7222646467014
20
-3.4696635595038
30
0
41
1
10
60.6600648602309
20
-3.3552890905068
30
0
0
SPLINE
5
1A4
100
AcDbEntity
8
1
62
256
6
ByLayer
370
18
48
1
60
0
100
AcDbSpline
70
4
71
3
72
26
73
22
40
0
40
0
40
0
40
0
40
0.125
40
0.125
40
0.25
40
0.25
40
0.375
40
0.375
40
0.5
40
0.5
40
0.625000000000001
40
0.625000000000001
40
0.750000000000001
40
0.750000000000001
40
0.8125
40
0.8125
40
0.875
40
0.875
40
0.9375
40
0.9375
40
1
40
1
40
1
40
1
41
1
10
60.6600648602309
20
-3.35528909050691
30
0
41
1
10
60.6526178094936
20
-3.34159527382351
30
0
41
1
10
60.643962003476
20
-3.32941510095111
30
0
41
1
10
60.6247794494298
20
-3.30738036695448
30
0
41
1
10
60.6141444867784
20
-3.29748717419238
30
0
41
1
10
60.5919112543429
20
-3.28047741660998
30
0
41
1
10
60.5802522388816
20
-3.27326784545156
30
0
41
1
10
60.5559150147663
20
-3.26133719119838
30
0
41
1
10
60.5431273790713
20
-3.25660688829555
30
0
41
1
10
60.5174176498853
20
-3.25014473816444
30
0
41
1
10
60.5044163129209
20
-3.24834670112472
30
0
41
1
10
60.4781301168279
20
-3.24800879512938
30
0
41
1
10
60.4646989347246
20
-3.24951986456404
30
0
41
1
10
60.4452952992077
20
-3.25480573916096
30
0
41
1
10
60.4389250178954
20
-3.25706755906387
30
0
41
1
10
60.426415629142
20
-3.26275023105109
30
0
41
1
10
60.4202514777723
20
-3.26619753703773
30
0
41
1
10
60.4085935127068
20
-3.27423238131684
30
0
41
1
10
60.4030535205423
20
-3.27883282816208
30
0
41
1
10
60.3926508326966
20
-3.28940047669238
30
0
41
1
10
60.3878038570566
20
-3.29537251468514
30
0
41
1
10
60.3835195670989
20
-3.30195307289682
30
0
0
SPLINE
5
1A5
100
AcDbEntity
8
1
62
256
6
ByLayer
370
18
48
1
60
0
100
AcDbSpline
70
4
71
3
72
10
73
6
40
0
40
0
40
0
40
0
40
0.5
40
0.5
40
1
40
1
40
1
40
1
41
1
10
60.3835195670917
20
-3.30195307291328
30
0
41
1
10
60.3237153472804
20
-3.39381080284389
30
0
41
1
10
60.2642321815415
20
-3.48370140973063
30
0
41
1
10
60.145793397903
20
-3.65924133903945
30
0
41
1
10
60.0869931220583
20
-3.74462252119923
30
0
41
1
10
60.0285410311552
20
-3.82758637698024
30
0
0
SPLINE
5
1A6
100
AcDbEntity
8
1
62
256
6
ByLayer
370
18
48
1
60
0
100
AcDbSpline
70
4
71
3
72
8
73
4
40
0
40
0
40
0
40
0
40
1
40
1
40
1
40
1
41
1
10
59.9245715408187
20
-3.79479835371305
30
0
41
1
10
59.959220691103
20
-3.80614639383546
30
0
41
1
10
59.9938760749688
20
-3.81707608084304
30
0
41
1
10
60.0285410311552
20
-3.82758637698024
30
0
0
SPLINE
5
1A7
100
AcDbEntity
8
1
62
256
6
ByLayer
370
18
48
1
60
0
100
AcDbSpline
70
4
71
3
72
10
73
6
40
0
40
0
40
0
40
0
40
0.5
40
0.5
40
1
40
1
40
1
40
1
41
1
10
59.9245715408204
20
-3.7947983536985
30
0
41
1
10
59.8638181602191
20
-3.67385635173989
30
0
41
1
10
59.8027032644506
20
-3.55138919260059
30
0
41
1
10
59.6797338286887
20
-3.30387493859436
30
0
41
1
10
59.6179201132224
20
-3.17888940979833
30
0
41
1
10
59.5557599900328
20
-3.05296884481106
30
0
0
SPLINE
5
1A8
100
AcDbEntity
8
1
62
256
6
ByLayer
370
18
48
1
60
0
100
AcDbSpline
70
4
71
3
72
26
73
22
40
0
40
0
40
0
40
0
40
0.12499999999998
40
0.12499999999998
40
0.24999999999996
40
0.24999999999996
40
0.37499999999994
40
0.37499999999994
40
0.499999999999921
40
0.499999999999921
40
0.624999999999901
40
0.624999999999901
40
0.749999999999881
40
0.749999999999881
40
0.812499999999911
40
0.812499999999911
40
0.87499999999994
40
0.87499999999994
40
0.93749999999997
40
0.93749999999997
40
1
40
1
40
1
40
1
41
1
10
59.5557599900328
20
-3.05296884481058
30
0
41
1
10
59.5483091035682
20
-3.03787524806196
30
0
41
1
10
59.5396477686359
20
-3.02402167835223
30
0
41
1
10
59.5204519564014
20
-2.99822369260781
30
0
41
1
10
59.5098087028656
20
-2.98621773379009
30
0
41
1
10
59.487560157531
20
-2.96474878547031
30
0
41
1
10
59.4758941513045
20
-2.9551810136725
30
0
41
1
10
59.4515449968286
20
-2.93827820278384
30
0
41
1
10
59.4387534107055
20
-2.9309115875424
30
0
41
1
10
59.4130409213163
20
-2.91907933132825
30
0
41
1
10
59.4000394873529
20
-2.91453144600624
30
0
41
1
10
59.3737553118007
20
-2.90852940593359
30
0
41
1
10
59.3603293369909
20
-2.90709388567331
30
0
41
1
10
59.3409393773635
20
-2.90799845440955
30
0
41
1
10
59.3345738766202
20
-2.90880066797251
30
0
41
1
10
59.3220747676738
20
-2.91156353341387
30
0
41
1
10
59.3159170303082
20
-2.91354384767595
30
0
41
1
10
59.304271801054
20
-2.91873592224178
30
0
41
1
10
59.29873793828
20
-2.92195029747498
30
0
41
1
10
59.2883464505088
20
-2.92982881977605
30
0
41
1
10
59.2835039343655
20
-2.93450142496209
30
0
41
1
10
59.2792226801705
20
-2.93987749735035
30
0
0
SPLINE
5
1A9
100
AcDbEntity
8
1
62
256
6
ByLayer
370
18
48
1
60
0
100
AcDbSpline
70
4
71
3
72
10
73
6
40
0
40
0
40
0
40
0
40
0.5
40
0.5
40
1
40
1
40
1
40
1
41
1
10
59.2792226801637
20
-2.93987749736809
30
0
41
1
10
59.2193538165091
20
-3.01505624879411
30
0
41
1
10
59.1598452710118
20
-3.0870659199237
30
0
41
1
10
59.0413762101216
20
-3.22474599620514
30
0
41
1
10
58.9825589670435
20
-3.29027914593829
30
0
41
1
10
58.9240807034527
20
-3.35257894323072
30
0
0
SPLINE
5
1AA
100
AcDbEntity
8
1
62
256
6
ByLayer
370
18
48
1
60
0
100
AcDbSpline
70
4
71
3
72
8
73
4
40
0
40
0
40
0
40
0
40
1
40
1
40
1
40
1
41
1
10
58.8200526326571
20
-3.29405833779097
30
0
41
1
10
58.8547457059121
20
-3.31392218311956
30
0
41
1
10
58.8894125996206
20
-3.33343463646631
30
0
41
1
10
58.9240807034527
20
-3.35257894323072
30
0
0
SPLINE
5
1AB
100
AcDbEntity
8
1
62
256
6
ByLayer
370
18
48
1
60
0
100
AcDbSpline
70
4
71
3
72
12
73
8
40
0
40
0
40
0
40
0
40
0.25
40
0.25
40
0.5
40
0.5
40
1
40
1
40
1
40
1
41
1
10
58.8200526326585
20
-3.2940583377806
30
0
41
1
10
58.789719282076
20
-3.22967200887595
30
0
41
1
10
58.759294527539
20
-3.16525426196327
30
0
41
1
10
58.6982166051658
20
-3.03637364497547
30
0
41
1
10
58.6675552988377
20
-2.97188933140177
30
0
41
1
10
58.5753095468641
20
-2.77858347094744
30
0
41
1
10
58.5134682348572
20
-2.64985202872654
30
0
41
1
10
58.4512609037371
20
-2.52163331929083
30
0
0
SPLINE
5
1AC
100
AcDbEntity
8
1
62
256
6
ByLayer
370
18
48
1
60
0
100
AcDbSpline
70
4
71
3
72
26
73
22
40
0
40
0
40
0
40
0
40
0.12499999999998
40
0.12499999999998
40
0.249999999999961
40
0.249999999999961
40
0.374999999999941
40
0.374999999999941
40
0.499999999999922
40
0.499999999999922
40
0.624999999999902
40
0.624999999999902
40
0.749999999999882
40
0.749999999999882
40
0.812499999999912
40
0.812499999999912
40
0.874999999999941
40
0.874999999999941
40
0.937499999999971
40
0.937499999999971
40
1
40
1
40
1
40
1
41
1
10
58.4512609037359
20
-2.52163331928853
30
0
41
1
10
58.4438177510789
20
-2.50629185694584
30
0
41
1
10
58.4351645752617
20
-2.49181934964295
30
0
41
1
10
58.4159815491819
20
-2.4642200298982
30
0
41
1
10
58.4053423398246
20
-2.45101255688525
30
0
41
1
10
58.3830964092271
20
-2.42671162142852
30
0
41
1
10
58.3714299181572
20
-2.41551051276593
30
0
41
1
10
58.3470760548308
20
-2.39491792083308
30
0
41
1
10
58.3342803823645
20
-2.38547471792285
30
0
41
1
10
58.3085606394394
20
-2.36917864967225
30
0
41
1
10
58.2955551092184
20
-2.36223326157187
30
0
41
1
10
58.2692619188456
20
-2.35104466561856
30
0
41
1
10
58.2558335149665
20
-2.34678762149906
30
0
41
1
10
58.236446591301
20
-2.34327702923523
30
0
41
1
10
58.230082339836
20
-2.34257179101758
30
0
41
1
10
58.2175861986856
20
-2.34223518592813
30
0
41
1
10
58.2114320723888
20
-2.34261580116507
30
0
41
1
10
58.1997958867958
20
-2.34460912989556
30
0
41
1
10
58.1942667183012
20
-2.3462140150356
30
0
41
1
10
58.1838846408917
20
-2.35084940464836
30
0
41
1
10
58.1790485054896
20
-2.35388983358496
30
0
41
1
10
58.1747726968522
20
-2.35767333931875
30
0
0
SPLINE
5
1AD
100
AcDbEntity
8
1
62
256
6
ByLayer
370
18
48
1
60
0
100
AcDbSpline
70
4
71
3
72
10
73
6
40
0
40
0
40
0
40
0
40
0.5
40
0.5
40
1
40
1
40
1
40
1
41
1
10
58.174772696845
20
-2.35767333933782
30
0
41
1
10
58.1149128066762
20
-2.41064115361135
30
0
41
1
10
58.0554106945656
20
-2.4596722089542
30
0
41
1
10
57.9369500223297
20
-2.54990635352422
30
0
41
1
10
57.8781354840071
20
-2.59103456706211
30
0
41
1
10
57.8196623830132
20
-2.62826955617515
30
0
0
SPLINE
5
1AE
100
AcDbEntity
8
1
62
256
6
ByLayer
370
18
48
1
60
0
100
AcDbSpline
70
4
71
3
72
8
73
4
40
0
40
0
40
0
40
0
40
1
40
1
40
1
40
1
41
1
10
57.7156627871518
20
-2.54894989234228
30
0
41
1
10
57.7503141456091
20
-2.57566791276778
30
0
41
1
10
57.7849791990091
20
-2.60210910448973
30
0
41
1
10
57.8196623830132
20
-2.62826955617518
30
0
0
SPLINE
5
1AF
100
AcDbEntity
8
1
62
256
6
ByLayer
370
18
48
1
60
0
100
AcDbSpline
70
4
71
3
72
10
73
6
40
0
40
0
40
0
40
0
40
0.5
40
0.5
40
1
40
1
40
1
40
1
41
1
10
57.7156627871537
20
-2.54894989233216
30
0
41
1
10
57.654884035421
20
-2.42181618894799
30
0
41
1
10
57.593762168343
20
-2.29582569852911
30
0
41
1
10
57.4707920336698
20
-2.04670496230273
30
0
41
1
10
57.4089804432846
20
-1.92361833214997
30
0
41
1
10
57.3468004852586
20
-1.80243152280011
30
0
0
SPLINE
5
1B0
100
AcDbEntity
8
1
62
256
6
ByLayer
370
18
48
1
60
0
100
AcDbSpline
70
4
71
3
72
28
73
24
40
0
40
0
40
0
40
0
40
0.125
40
0.125
40
0.250000000000001
40
0.250000000000001
40
0.375000000000001
40
0.375000000000001
40
0.500000000000001
40
0.500000000000001
40
0.625000000000001
40
0.625000000000001
40
0.687500000000001
40
0.687500000000001
40
0.750000000000001
40
0.750000000000001
40
0.812500000000001
40
0.812500000000001
40
0.875
40
0.875
40
0.9375
40
0.9375
40
1
40
1
40
1
40
1
41
1
10
57.3468004852584
20
-1.8024315227984
30
0
41
1
10
57.3393675917522
20
-1.78794504392547
30
0
41
1
10
57.3307310571053
20
-1.77389311903369
30
0
41
1
10
57.3115907007429
20
-1.74647204203296
30
0
41
1
10
57.3009787308933
20
-1.73301057221789
30
0
41
1
10
57.278785815865
20
-1.70761311825814
30
0
41
1
10
57.2671454397787
20
-1.6955741625568
30
0
41
1
10
57.2428356307115
20
-1.67275040528662
30
0
41
1
10
57.2300547414894
20
-1.66189418701782
30
0
41
1
10
57.2043420277345
20
-1.64227988513414
30
0
41
1
10
57.1913314836998
20
-1.63342944880881
30
0
41
1
10
57.1715924862916
20
-1.62175259985582
30
0
41
1
10
57.1649753943892
20
-1.61812923886555
30
0
41
1
10
57.1516628467639
20
-1.61149471870721
30
0
41
1
10
57.1450746791878
20
-1.60853833771128
30
0
41
1
10
57.1321157177775
20
-1.60343463253949
30
0
41
1
10
57.1257351450151
20
-1.60128155318566
30
0
41
1
10
57.113209224485
20
-1.59789176543296
30
0
41
1
10
57.10703853977
20
-1.59665832994023
30
0
41
1
10
57.095374358843
20
-1.59534029769361
30
0
41
1
10
57.0898344201591
20
-1.59523762374889
30
0
41
1
10
57.0794372094253
20
-1.59633196390067
30
0
41
1
10
57.0745946118203
20
-1.59754130238022
30
0
41
1
10
57.0703156474732
20
-1.5994791544565
30
0
0
SPLINE
5
1B1
100
AcDbEntity
8
1
62
256
6
ByLayer
370
18
48
1
60
0
100
AcDbSpline
70
4
71
3
72
10
73
6
40
0
40
0
40
0
40
0
40
0.5
40
0.5
40
1
40
1
40
1
40
1
41
1
10
57.0703156474668
20
-1.59947915447267
30
0
41
1
10
57.0104632075918
20
-1.62658505336358
30
0
41
1
10
56.950969708705
20
-1.64921776881033
30
0
41
1
10
56.8325333498609
20
-1.68554682793206
30
0
41
1
10
56.7737408687655
20
-1.69923783940888
30
0
41
1
10
56.7152970392903
20
-1.70861117921157
30
0
0
SPLINE
5
1B2
100
AcDbEntity
8
1
62
256
6
ByLayer
370
18
48
1
60
0
100
AcDbSpline
70
4
71
3
72
8
73
4
40
0
40
0
40
0
40
0
40
1
40
1
40
1
40
1
41
1
10
56.6112753983955
20
-1.61444931319906
30
0
41
1
10
56.6459380371692
20
-1.64602326759237
30
0
41
1
10
56.6806102221783
20
-1.67741206500102
30
0
41
1
10
56.7152970392903
20
-1.70861117921157
30
0
0
SPLINE
5
1B3
100
AcDbEntity
8
1
62
256
6
ByLayer
370
18
48
1
60
0
100
AcDbSpline
70
4
71
3
72
10
73
6
40
0
40
0
40
0
40
0
40
0.5
40
0.5
40
1
40
1
40
1
40
1
41
1
10
56.6112753983972
20
-1.6144493131917
30
0
41
1
10
56.5505057978798
20
-1.49882622526107
30
0
41
1
10
56.489397505957
20
-1.38561019377849
30
0
41
1
10
56.3664539327718
20
-1.16451891342558
30
0
41
1
10
56.3046561324014
20
-1.05667424989457
30
0
41
1
10
56.2425053198042
20
-0.951940000711573
30
0
0
SPLINE
5
1B4
100
AcDbEntity
8
1
62
256
6
ByLayer
370
18
48
1
60
0
100
AcDbSpline
70
4
71
3
72
26
73
22
40
0
40
0
40
0
40
0
40
0.12500000000002
40
0.12500000000002
40
0.25000000000004
40
0.25000000000004
40
0.375000000000059
40
0.375000000000059
40
0.500000000000079
40
0.500000000000079
40
0.625000000000099
40
0.625000000000099
40
0.750000000000119
40
0.750000000000119
40
0.812500000000089
40
0.812500000000089
40
0.875000000000059
40
0.875000000000059
40
0.93750000000003
40
0.93750000000003
40
1
40
1
40
1
40
1
41
1
10
56.2425053198042
20
-0.951940000710749
30
0
41
1
10
56.2350493352673
20
-0.939375451515787
30
0
41
1
10
56.2263829934218
20
-0.926779967526244
30
0
41
1
10
56.207177284274
20
-0.901557835060913
30
0
41
1
10
56.1965296991282
20
-0.888833850952523
30
0
41
1
10
56.1742755263851
20
-0.864214621367864
30
0
41
1
10
56.1626075728003
20
-0.852226269974921
30
0
41
1
10
56.1382574161306
20
-0.82884097891008
30
0
41
1
10
56.1254671489621
20
-0.817363456171677
30
0
41
1
10
56.0997590201634
20
-0.795821781752068
30
0
41
1
10
56.0867606956681
20
-0.785667154367474
30
0
41
1
10
56.0604840374765
20
-0.766705625123507
30
0
41
1
10
56.0470621934314
20
-0.757820029641209
30
0
41
1
10
56.0276740976097
20
-0.746385974181834
30
0
41
1
10
56.0213088085673
20
-0.742869706041773
30
0
41
1
10
56.008809123216
20
-0.736515654153465
30
0
41
1
10
56.002650013402
20
-0.733671863459449
30
0
41
1
10
55.991000254449
20
-0.728960002317592
30
0
41
1
10
55.9854635141643
20
-0.727064910509199
30
0
41
1
10
55.9750654356676
20
-0.72435653838852
30
0
41
1
10
55.9702188503691
20
-0.723556093956717
30
0
41
1
10
55.9659339704896
20
-0.723426047370367
30
0
0
SPLINE
5
1B5
100
AcDbEntity
8
1
62
256
6
ByLayer
370
18
48
1
60
0
100
AcDbSpline
70
4
71
3
72
10
73
6
40
0
40
0
40
0
40
0
40
0.5
40
0.5
40
1
40
1
40
1
40
1
41
1
10
55.9659339704827
20
-0.723426047385516
30
0
41
1
10
55.9060825801481
20
-0.721609550967401
30
0
41
1
10
55.8465882074708
20
-0.715276795182859
30
0
41
1
10
55.7281398273489
20
-0.693712152535539
30
0
41
1
10
55.6693201267128
20
-0.678588555314292
30
0
41
1
10
55.6108279842268
20
-0.659329055617491
30
0
0
SPLINE
5
1B6
100
AcDbEntity
8
1
62
256
6
ByLayer
370
18
48
1
60
0
100
AcDbSpline
70
4
71
3
72
8
73
4
40
0
40
0
40
0
40
0
40
1
40
1
40
1
40
1
41
1
10
55.5067507650749
20
-0.557035030876875
30
0
41
1
10
55.5414463379234
20
-0.591189694397741
30
0
41
1
10
55.5761467709191
20
-0.625279773822342
30
0
41
1
10
55.6108279842268
20
-0.659329055617491
30
0
0
SPLINE
5
1B7
100
AcDbEntity
8
1
62
256
6
ByLayer
370
18
48
1
60
0
100
AcDbSpline
70
4
71
3
72
10
73
6
40
0
40
0
40
0
40
0
40
0.5
40
0.5
40
1
40
1
40
1
40
1
41
1
10
55.5067507650748
20
-0.55703503087696
30
0
41
1
10
55.4460321021898
20
-0.461372338212073
30
0
41
1
10
55.3849540113701
20
-0.369243820442108
30
0
41
1
10
55.2620272540678
20
-0.19252239191897
30
0
41
1
10
55.2002173019493
20
-0.107946408572786
30
0
41
1
10
55.1380422595834
20
-0.0275263754801074
30
0
0
SPLINE
5
1B8
100
AcDbEntity
8
1
62
256
6
ByLayer
370
18
48
1
60
0
100
AcDbSpline
70
4
71
3
72
26
73
22
40
0
40
0
40
0
40
0
40
0.125
40
0.125
40
0.25
40
0.25
40
0.375
40
0.375
40
0.5
40
0.5
40
0.625
40
0.625
40
0.75
40
0.75
40
0.8125
40
0.8125
40
0.875
40
0.875
40
0.9375
40
0.9375
40
1
40
1
40
1
40
1
41
1
10
55.1380422595822
20
-0.027526375475901
30
0
41
1
10
55.1305932092482
20
-0.0178914343229337
30
0
41
1
10
55.1219339755492
20
-0.0077625625089581
30
0
41
1
10
55.1027392260018
20
0.0132345389746718
30
0
41
1
10
55.0920944333111
20
0.0241990842384894
30
0
41
1
10
55.0698405470858
20
0.0460620529003108
30
0
41
1
10
55.0581711976046
20
0.0570333186776395
30
0
41
1
10
55.0338146939096
20
0.0790802092855927
30
0
41
1
10
55.021019680153
20
0.0902413145691412
30
0
41
1
10
54.9953034212929
20
0.111915245091808
30
0
41
1
10
54.9823006181173
20
0.122508279659826
30
0
41
1
10
54.9560146171033
20
0.143198858517479
30
0
41
1
10
54.9425910521477
20
0.153395507837331
30
0
41
1
10
54.923209255026
20
0.167517861181608
30
0
41
1
10
54.9168464697945
20
0.172052321514485
30
0
41
1
10
54.9043526456613
20
0.180726513451333
30
0
41
1
10
54.898199028051
20
0.184879268601719
30
0
41
1
10
54.8865625042734
20
0.192458243171842
30
0
41
1
10
54.8810326486426
20
0.195918419033035
30
0
41
1
10
54.8706485502088
20
0.202066719672644
30
0
41
1
10
54.8658105858127
20
0.204741693358301
30
0
41
1
10
54.861532989694
20
0.206867812327772
30
0
0
SPLINE
5
1B9
100
AcDbEntity
8
1
62
256
6
ByLayer
370
18
48
1
60
0
100
AcDbSpline
70
4
71
3
72
10
73
6
40
0
40
0
40
0
40
0
40
0.5
40
0.5
40
1
40
1
40
1
40
1
41
1
10
54.8615329896864
20
0.206867812316688
30
0
41
1
10
54.8016761663246
20
0.236618804240436
30
0
41
1
10
54.742176695921
20
0.270721824888057
30
0
41
1
10
54.6237234441043
20
0.347558708177076
30
0
41
1
10
54.5649143009155
20
0.390159847916465
30
0
41
1
10
54.506448402554
20
0.436769131655098
30
0
0
SPLINE
5
1BA
100
AcDbEntity
8
1
62
256
6
ByLayer
370
18
48
1
60
0
100
AcDbSpline
70
4
71
3
72
8
73
4
40
0
40
0
40
0
40
0
40
1
40
1
40
1
40
1
41
1
10
54.4023995691934
20
0.539830528267345
30
0
41
1
10
54.4370732960395
20
0.505529381365591
30
0
41
1
10
54.4717549988623
20
0.471174334805596
30
0
41
1
10
54.506448402554
20
0.436769131655069
30
0
0
SPLINE
5
1BB
100
AcDbEntity
8
1
62
256
6
ByLayer
370
18
48
1
60
0
100
AcDbSpline
70
4
71
3
72
10
73
6
40
0
40
0
40
0
40
0
40
0.5
40
0.5
40
1
40
1
40
1
40
1
41
1
10
54.4023995691934
20
0.539830528267231
30
0
41
1
10
54.3416645341824
20
0.608752105294087
30
0
41
1
10
54.2805918317916
20
0.673392741357901
30
0
41
1
10
54.1576840432215
20
0.793582812229403
30
0
41
1
10
54.0958592956819
20
0.849033347880749
30
0
41
1
10
54.0335658795059
20
0.899239650338899
30
0
0
SPLINE
5
1BC
100
AcDbEntity
8
1
62
256
6
ByLayer
370
18
48
1
60
0
100
AcDbSpline
70
4
71
3
72
26
73
22
40
0
40
0
40
0
40
0
40
0.125
40
0.125
40
0.25
40
0.25
40
0.375
40
0.375
40
0.5
40
0.5
40
0.624999999999999
40
0.624999999999999
40
0.749999999999999
40
0.749999999999999
40
0.812499999999999
40
0.812499999999999
40
0.874999999999999
40
0.874999999999999
40
0.9375
40
0.9375
40
1
40
1
40
1
40
1
41
1
10
54.0335658795059
20
0.899239650338927
30
0
41
1
10
54.0261319476366
20
0.905231137959845
30
0
41
1
10
54.0174890593583
20
0.912132535010556
30
0
41
1
10
53.9983205825394
20
0.927313411357318
30
0
41
1
10
53.9876842597753
20
0.935680099202955
30
0
41
1
10
53.9654345646733
20
0.953108692950593
30
0
41
1
10
53.9537628360488
20
0.962217477436809
30
0
41
1
10
53.9293942349239
20
0.981226968045945
30
0
41
1
10
53.9165895273851
20
0.991211496851264
30
0
41
1
10
53.8908555745196
20
1.01134745940399
30
0
41
1
10
53.8778431534604
20
1.02156284682744
30
0
41
1
10
53.8515375414766
20
1.04239079824103
30
0
41
1
10
53.838108624709
20
1.0531140715066
30
0
41
1
10
53.8187325559191
20
1.0688342591848
30
0
41
1
10
53.8123724706589
20
1.07403657041172
30
0
41
1
10
53.799885711489
20
1.0843600812114
30
0
41
1
10
53.7937396041848
20
1.08949878410851
30
0
41
1
10
53.7821214425955
20
1.09935194468633
30
0
41
1
10
53.7766013940126
20
1.10410533601839
30
0
41
1
10
53.7662374806235
20
1.113206739699
30
0
41
1
10
53.7614119730037
20
1.11754062844943
30
0
41
1
10
53.7571449337253
20
1.12148797889603
30
0
0
SPLINE
5
1BD
100
AcDbEntity
8
1
62
256
6
ByLayer
370
18
48
1
60
0
100
AcDbSpline
70
4
71
3
72
10
73
6
40
0
40
0
40
0
40
0
40
0.5
40
0.5
40
1
40
1
40
1
40
1
41
1
10
53.757144933718
20
1.12148797888767
30
0
41
1
10
53.7109907819282
20
1.16418423729996
30
0
41
1
10
53.6650528119922
20
1.20921978910692
30
0
41
1
10
53.5735337704922
20
1.30395351737411
30
0
41
1
10
53.5279497224018
20
1.35363490751985
30
0
41
1
10
53.4826308658604
20
1.40538336097066
30
0
0
SPLINE
5
1BE
100
AcDbEntity
8
1
62
256
6
ByLayer
370
18
48
1
60
0
100
AcDbSpline
70
4
71
3
72
8
73
4
40
0
40
0
40
0
40
0
40
1
40
1
40
1
40
1
41
1
10
53.4826308658503
20
1.40538336098271
30
0
41
1
10
53.3420171281113
20
1.51907198946947
30
0
41
1
10
53.2008060389876
20
1.62204694167957
30
0
41
1
10
53.0582416742788
20
1.71400038955304
30
0
0
SPLINE
5
1BF
100
AcDbEntity
8
1
62
256
6
ByLayer
370
18
48
1
60
0
100
AcDbSpline
70
4
71
3
72
8
73
4
40
0
40
0
40
0
40
0
40
1
40
1
40
1
40
1
41
1
10
53.0582416742786
20
1.71400038955318
30
0
41
1
10
53.0153954764839
20
1.73058189801389
30
0
41
1
10
52.9724105951252
20
1.74477952629343
30
0
41
1
10
52.9292242397242
20
1.75647748576242
30
0
0
SPLINE
5
1C0
100
AcDbEntity
8
1
62
256
6
ByLayer
370
18
48
1
60
0
100
AcDbSpline
70
4
71
3
72
28
73
24
40
0
40
0
40
0
40
0
40
0.12500000000005
40
0.12500000000005
40
0.187500000000074
40
0.187500000000074
40
0.250000000000098
40
0.250000000000098
40
0.375000000000145
40
0.375000000000145
40
0.437500000000131
40
0.437500000000131
40
0.500000000000116
40
0.500000000000116
40
0.625000000000087
40
0.625000000000087
40
0.750000000000058
40
0.750000000000058
40
0.875000000000029
40
0.875000000000029
40
0.937500000000015
40
0.937500000000015
40
1
40
1
40
1
40
1
41
1
10
52.9292242397236
20
1.75647748576358
30
0
41
1
10
52.9223241811228
20
1.75834651604168
30
0
41
1
10
52.9143856712392
20
1.76132178866774
30
0
41
1
10
52.901258935496
20
1.76705865529604
30
0
41
1
10
52.8966762215395
20
1.76918792416424
30
0
41
1
10
52.8871182783511
20
1.7738576706783
30
0
41
1
10
52.8821459042753
20
1.77639803793798
30
0
41
1
10
52.8669349437759
20
1.78447046371954
30
0
41
1
10
52.8563197301753
20
1.79048924775802
30
0
41
1
10
52.8397441612277
20
1.80042371670271
30
0
41
1
10
52.8341091609957
20
1.80388780916428
30
0
41
1
10
52.8226180161265
20
1.81113103155454
30
0
41
1
10
52.8167357936323
20
1.81492775524853
30
0
41
1
10
52.7990195464687
20
1.82663984503529
30
0
41
1
10
52.7870798084793
20
1.83489240321862
30
0
41
1
10
52.7629606094075
20
1.85238444662156
30
0
41
1
10
52.7507487871577
20
1.86164596137843
30
0
41
1
10
52.7262043757913
20
1.88133874633863
30
0
41
1
10
52.714227391556
20
1.89148129457598
30
0
41
1
10
52.6968418427469
20
1.90728160019614
30
0
41
1
10
52.6911110123919
20
1.91268233938888
30
0
41
1
10
52.6801970804412
20
1.92341930982326
30
0
41
1
10
52.6749840564528
20
1.92877993702729
30
0
41
1
10
52.6700505148563
20
1.93413206155037
30
0
0
SPLINE
5
1C1
100
AcDbEntity
8
1
62
256
6
ByLayer
370
18
48
1
60
0
100
AcDbSpline
70
4
71
3
72
16
73
12
40
0
40
0
40
0
40
0
40
0.124999999999997
40
0.124999999999997
40
0.249999999999994
40
0.249999999999994
40
0.374999999999991
40
0.374999999999991
40
0.499999999999988
40
0.499999999999988
40
1
40
1
40
1
40
1
41
1
10
52.6700505148564
20
1.93413206155037
30
0
41
1
10
52.640915671821
20
1.94830880033925
30
0
41
1
10
52.6116676688475
20
1.96198695262811
30
0
41
1
10
52.5529196593482
20
1.98832259573044
30
0
41
1
10
52.5234381668902
20
2.00100311588582
30
0
41
1
10
52.4641190017284
20
2.02522250884672
30
0
41
1
10
52.4342004442528
20
2.03666068798296
30
0
41
1
10
52.3736863648099
20
2.05803021372023
30
0
41
1
10
52.3432009873412
20
2.06796611801369
30
0
41
1
10
52.1899600307579
20
2.11376845111889
30
0
41
1
10
52.0643684974104
20
2.13818326492424
30
0
41
1
10
51.9342461001384
20
2.15011521437896
30
0
0
SPLINE
5
1C2
100
AcDbEntity
8
1
62
256
6
ByLayer
370
18
48
1
60
0
100
AcDbSpline
70
4
71
3
72
14
73
10
40
0
40
0
40
0
40
0
40
0.499999999999999
40
0.499999999999999
40
0.749999999999971
40
0.749999999999971
40
0.874999999999985
40
0.874999999999985
40
1
40
1
40
1
40
1
41
1
10
51.9342461001384
20
2.15011521437896
30
0
41
1
10
51.8634849470497
20
2.15660386291074
30
0
41
1
10
51.7883286235763
20
2.16871011692436
30
0
41
1
10
51.6715329878707
20
2.19743033920307
30
0
41
1
10
51.631914892972
20
2.20875857322247
30
0
41
1
10
51.571690479894
20
2.22863463748069
30
0
41
1
10
51.5515098401593
20
2.23573292469445
30
0
41
1
10
51.5111444542568
20
2.250839322708
30
0
41
1
10
51.4909345319681
20
2.25885551727401
30
0
41
1
10
51.4707118327194
20
2.26734611398078
30
0
0
SPLINE
5
1C3
100
AcDbEntity
8
1
62
256
6
ByLayer
370
18
48
1
60
0
100
AcDbSpline
70
4
71
3
72
54
73
50
40
0
40
0
40
0
40
0
40
0.0641292801797467
40
0.0641292801797467
40
0.0961939202696201
40
0.0961939202696201
40
0.128258560359493
40
0.128258560359493
40
0.19238784053924
40
0.19238784053924
40
0.256517120718987
40
0.256517120718987
40
0.320646400898733
40
0.320646400898733
40
0.352711040988604
40
0.352711040988604
40
0.384775681078475
40
0.384775681078475
40
0.416840321168346
40
0.416840321168346
40
0.448904961258217
40
0.448904961258217
40
0.513034241437958
40
0.513034241437958
40
0.5771635216177
40
0.5771635216177
40
0.609228161707571
40
0.609228161707571
40
0.641292801797442
40
0.641292801797442
40
0.673357441887312
40
0.673357441887312
40
0.68938976193225
40
0.68938976193225
40
0.705422081977188
40
0.705422081977188
40
0.76955136215694
40
0.76955136215694
40
0.833680642336692
40
0.833680642336692
40
0.865745282426568
40
0.865745282426568
40
0.897809922516444
40
0.897809922516444
40
0.961939202696195
40
0.961939202696195
40
0.994003842786074
40
0.994003842786074
40
1
40
1
40
1
40
1
41
1
10
51.4707118327194
20
2.26734611398075
30
0
41
1
10
51.3534004546911
20
2.31659985541765
30
0
41
1
10
51.2366327763847
20
2.36278552489716
30
0
41
1
10
51.0620839750116
20
2.42736575742865
30
0
41
1
10
51.0039589914311
20
2.44807342753387
30
0
41
1
10
50.8875008407908
20
2.4876594190969
30
0
41
1
10
50.8292004055271
20
2.50656867910763
30
0
41
1
10
50.6547406100907
20
2.56111886732418
30
0
41
1
10
50.5387534326427
20
2.59438362369335
30
0
41
1
10
50.3069276586291
20
2.65440993839627
30
0
41
1
10
50.1911407238808
20
2.68120455331811
30
0
41
1
10
49.9596005031682
20
2.72818684070629
30
0
41
1
10
49.8438133646355
20
2.74835788899171
30
0
41
1
10
49.669844054707
20
2.77347140446059
30
0
41
1
10
49.6118160335052
20
2.78098803241568
30
0
41
1
10
49.4955977369831
20
2.79427509326584
30
0
41
1
10
49.4373737871953
20
2.80003570832093
30
0
41
1
10
49.3204410956941
20
2.8097581468069
30
0
41
1
10
49.261773375591
20
2.81373331586505
30
0
41
1
10
49.1443634696844
20
2.81994779991496
30
0
41
1
10
49.0854934091917
20
2.82217761737954
30
0
41
1
10
48.9093917559435
20
2.82617247509256
30
0
41
1
10
48.792517209987
20
2.82526308055898
30
0
41
1
10
48.5595816193158
20
2.81637869085432
30
0
41
1
10
48.4435261422231
20
2.80839923443733
30
0
41
1
10
48.269742222115
20
2.79119639692246
30
0
41
1
10
48.211866479704
20
2.78459007462453
30
0
41
1
10
48.0961953061485
20
2.7696400060764
30
0
41
1
10
48.0384168004396
20
2.76129050010448
30
0
41
1
10
47.9228258218174
20
2.74288734297227
30
0
41
1
10
47.8649589002531
20
2.73285096180069
30
0
41
1
10
47.7779004041496
20
2.71663026766262
30
0
41
1
10
47.7488494076772
20
2.71102544100802
30
0
41
1
10
47.6907755752341
20
2.69938377105262
30
0
41
1
10
47.6617444621628
20
2.69334974334012
30
0
41
1
10
47.5165273626419
20
2.66215021813662
30
0
41
1
10
47.4000303007977
20
2.63397589363933
30
0
41
1
10
47.1670679254047
20
2.57076509630687
30
0
41
1
10
47.050507500164
20
2.53576425720851
30
0
41
1
10
46.8753497462587
20
2.47810027211935
30
0
41
1
10
46.8169139111348
20
2.45801591107369
30
0
41
1
10
46.6998917781559
20
2.41611790950933
30
0
41
1
10
46.6413851671329
20
2.39433936854442
30
0
41
1
10
46.4660749798924
20
2.32685316872411
30
0
41
1
10
46.3492800464113
20
2.27894333935768
30
0
41
1
10
46.1732858854152
20
2.20363624740583
30
0
41
1
10
46.1146113285739
20
2.17785573953259
30
0
41
1
10
46.0450049399514
20
2.14639992380142
30
0
41
1
10
46.0340396487428
20
2.14141963256733
30
0
41
1
10
46.0230744712038
20
2.13641511209715
30
0
0
SPLINE
5
1C4
100
AcDbEntity
8
1
62
256
6
ByLayer
370
18
48
1
60
0
100
AcDbSpline
70
4
71
3
72
74
73
70
40
0
40
0
40
0
40
0
40
0.0248049736892734
40
0.0248049736892734
40
0.0498099743639131
40
0.0498099743639131
40
0.0998199757131892
40
0.0998199757131892
40
0.149829977062465
40
0.149829977062465
40
0.162332477399783
40
0.162332477399783
40
0.1748349777371
40
0.1748349777371
40
0.199839978411735
40
0.199839978411735
40
0.224844979086369
40
0.224844979086369
40
0.249849979761004
40
0.249849979761004
40
0.299859981110273
40
0.299859981110273
40
0.324864981784908
40
0.324864981784908
40
0.349869982459543
40
0.349869982459543
40
0.374874983134177
40
0.374874983134177
40
0.399879983808812
40
0.399879983808812
40
0.449889985158081
40
0.449889985158081
40
0.499899986507351
40
0.499899986507351
40
0.524904987181985
40
0.524904987181985
40
0.54990998785662
40
0.54990998785662
40
0.562412488193937
40
0.562412488193937
40
0.574914988531255
40
0.574914988531255
40
0.599919989205886
40
0.599919989205886
40
0.649929990555152
40
0.649929990555152
40
0.699939991904418
40
0.699939991904418
40
0.724944992579049
40
0.724944992579049
40
0.749949993253681
40
0.749949993253681
40
0.774954993928312
40
0.774954993928312
40
0.799959994602943
40
0.799959994602943
40
0.824964995277574
40
0.824964995277574
40
0.849969995952206
40
0.849969995952206
40
0.899979997301465
40
0.899979997301465
40
0.924984997976096
40
0.924984997976096
40
0.937487498313414
40
0.937487498313414
40
0.949989998650731
40
0.949989998650731
40
1
40
1
40
1
40
1
41
1
10
43.1416954065962
20
2.82499999961325
30
0
41
1
10
43.2103847481161
20
2.82499995684978
30
0
41
1
10
43.2789860591636
20
2.82375341799997
30
0
41
1
10
43.4167951030401
20
2.81880558152847
30
0
41
1
10
43.4859826631522
20
2.81508591853145
30
0
41
1
10
43.6935651655221
20
2.80028921759705
30
0
41
1
10
43.8319538829305
20
2.78558218083853
30
0
41
1
10
44.1086380182414
20
2.7465548621895
30
0
41
1
10
44.2469510369895
20
2.72223959339007
30
0
41
1
10
44.4197601337961
20
2.68568141598678
30
0
41
1
10
44.4543225152106
20
2.67806249884441
30
0
41
1
10
44.5234896953737
20
2.66222541098676
30
0
41
1
10
44.5581053736468
20
2.65401333640014
30
0
41
1
10
44.6618982317054
20
2.62841286141327
30
0
41
1
10
44.730989882287
20
2.61003105133358
30
0
41
1
10
44.8698397119458
20
2.57109858220085
30
0
41
1
10
44.9395713140455
20
2.55054660642432
30
0
41
1
10
45.0793939703682
20
2.50712624844664
30
0
41
1
10
45.1495944065718
20
2.48422905180789
30
0
41
1
10
45.3595405993331
20
2.41252555441704
30
0
41
1
10
45.4989495769575
20
2.36063323715021
30
0
41
1
10
45.7072682270319
20
2.27679337779131
30
0
41
1
10
45.7765793301969
20
2.24784762394285
30
0
41
1
10
45.9150186632097
20
2.18802679942121
30
0
41
1
10
45.9841674219908
20
2.15717229137528
30
0
41
1
10
46.1221790864646
20
2.09343135753673
30
0
41
1
10
46.1910049359603
20
2.06050539493856
30
0
41
1
10
46.3285979237659
20
1.99281766741745
30
0
41
1
10
46.3975203028383
20
1.95821674279389
30
0
41
1
10
46.6045338650252
20
1.85205136129312
30
0
41
1
10
46.7429689428683
20
1.77823477366493
30
0
41
1
10
47.0205313556479
20
1.62439989556083
30
0
41
1
10
47.1596687907226
20
1.5443894774024
30
0
41
1
10
47.3689877843713
20
1.41970115211546
30
0
41
1
10
47.438860965199
20
1.37735573233186
30
0
41
1
10
47.578808262087
20
1.29105606443054
30
0
41
1
10
47.6486060436679
20
1.24726301039198
30
0
41
1
10
47.7529063485268
20
1.18077184358685
30
0
41
1
10
47.7876075756411
20
1.15845663233515
30
0
41
1
10
47.8569699918982
20
1.11364733786598
30
0
41
1
10
47.8916549671319
20
1.09118581594296
30
0
41
1
10
47.9956848106528
20
1.0235838035027
30
0
41
1
10
48.0649964565468
20
0.978214646735807
30
0
41
1
10
48.2728523603907
20
0.841281518910819
30
0
41
1
10
48.4113102254633
20
0.748883627886698
30
0
41
1
10
48.6880486584421
20
0.561974149507677
30
0
41
1
10
48.8263147102981
20
0.467441513048414
30
0
41
1
10
49.0336684579991
20
0.324169808337189
30
0
41
1
10
49.1027891958361
20
0.276182046787568
30
0
41
1
10
49.2409307902787
20
0.179584351596873
30
0
41
1
10
49.3099198145862
20
0.130926900006386
30
0
41
1
10
49.4481186060197
20
0.0334480494131526
30
0
41
1
10
49.5174446886274
20
-0.0152011504237066
30
0
41
1
10
49.6564528975984
20
-0.112459378336354
30
0
41
1
10
49.7261456991739
20
-0.16105283251656
30
0
41
1
10
49.865928050653
20
-0.258140638500265
30
0
41
1
10
49.936111208532
20
-0.306697682418218
30
0
41
1
10
50.0762539760887
20
-0.403259722752694
30
0
41
1
10
50.1462437095797
20
-0.451286117394972
30
0
41
1
10
50.3559551625517
20
-0.594628259222645
30
0
41
1
10
50.4954217765775
20
-0.689204932137358
30
0
41
1
10
50.7042146789203
20
-0.82943186309285
30
0
41
1
10
50.7737092081544
20
-0.875949334885405
30
0
41
1
10
50.8778371881153
20
-0.945322533213812
30
0
41
1
10
50.9125203994334
20
-0.968389259135449
30
0
41
1
10
50.9819698835388
20
-1.01422350795349
30
0
41
1
10
51.0167374357933
20
-1.03698959725929
30
0
41
1
10
51.1907228272832
20
-1.15015756491314
30
0
41
1
10
51.3304393515813
20
-1.23849970122728
30
0
41
1
10
51.4707118327194
20
-1.3246204017297
30
0
0
SPLINE
5
1C5
100
AcDbEntity
8
1
62
256
6
ByLayer
370
18
48
1
60
0
100
AcDbSpline
70
4
71
3
72
16
73
12
40
0
40
0
40
0
40
0
40
0.250000000000013
40
0.250000000000013
40
0.500000000000027
40
0.500000000000027
40
0.75000000000004
40
0.75000000000004
40
0.87500000000002
40
0.87500000000002
40
1
40
1
40
1
40
1
41
1
10
51.4707118327194
20
-1.32462040172967
30
0
41
1
10
51.5114847736288
20
-1.3496530681812
30
0
41
1
10
51.5518210302576
20
-1.37580948854838
30
0
41
1
10
51.631471925807
20
-1.43048308248382
30
0
41
1
10
51.670787418006
20
-1.45899880444489
30
0
41
1
10
51.7483014321899
20
-1.51850011550087
30
0
41
1
10
51.7865005357657
20
-1.5494840320066
30
0
41
1
10
51.8429114604297
20
-1.59792779560087
30
0
41
1
10
51.8615308747329
20
-1.61437405974266
30
0
41
1
10
51.8982480668232
20
-1.64774007554351
30
0
41
1
10
51.9163682070421
20
-1.66467884318558
30
0
41
1
10
51.9342461001385
20
-1.68187712802461
30
0
0
SPLINE
5
1C6
100
AcDbEntity
8
1
62
256
6
ByLayer
370
18
48
1
60
0
100
AcDbSpline
70
4
71
3
72
16
73
12
40
0
40
0
40
0
40
0
40
0.250000000000006
40
0.250000000000006
40
0.500000000000012
40
0.500000000000012
40
0.625000000000015
40
0.625000000000015
40
0.750000000000018
40
0.750000000000018
40
1
40
1
40
1
40
1
41
1
10
51.9342461001384
20
-1.68187712802461
30
0
41
1
10
52.0103221177896
20
-1.75506120032748
30
0
41
1
10
52.0864312131484
20
-1.82792091741166
30
0
41
1
10
52.2386762720388
20
-1.97305448311244
30
0
41
1
10
52.3147858599115
20
-2.04534928486862
30
0
41
1
10
52.42899064158
20
-2.15335168150079
30
0
41
1
10
52.4670669934598
20
-2.18927799323424
30
0
41
1
10
52.5433148879327
20
-2.26092258257236
30
0
41
1
10
52.5814924117407
20
-2.29663702520631
30
0
41
1
10
52.6953259877492
20
-2.40412400560294
30
0
41
1
10
52.7705464023132
20
-2.4760320750618
30
0
41
1
10
52.8452757095726
20
-2.54802778802602
30
0
0
SPLINE
5
1C7
100
AcDbEntity
8
1
62
256
6
ByLayer
370
18
48
1
60
0
100
AcDbSpline
70
4
71
3
72
8
73
4
40
0
40
0
40
0
40
0
40
1
40
1
40
1
40
1
41
1
10
52.8452757095726
20
-2.54802778802599
30
0
41
1
10
52.8618717281719
20
-2.54123297299265
30
0
41
1
10
52.8785001060398
20
-2.5340814863668
30
0
41
1
10
52.8951664325206
20
-2.52656173128068
30
0
0
SPLINE
5
1C8
100
AcDbEntity
8
1
62
256
6
ByLayer
370
18
48
1
60
0
100
AcDbSpline
70
4
71
3
72
28
73
24
40
0
40
0
40
0
40
0
40
0.125000000000031
40
0.125000000000031
40
0.250000000000061
40
0.250000000000061
40
0.375000000000092
40
0.375000000000092
40
0.500000000000122
40
0.500000000000122
40
0.625000000000153
40
0.625000000000153
40
0.687500000000127
40
0.687500000000127
40
0.750000000000102
40
0.750000000000102
40
0.812500000000076
40
0.812500000000076
40
0.875000000000051
40
0.875000000000051
40
0.937500000000025
40
0.937500000000025
40
1
40
1
40
1
40
1
41
1
10
52.8951664325206
20
-2.52656173128085
30
0
41
1
10
52.9028464511969
20
-2.52309654898232
30
0
41
1
10
52.9117998837022
20
-2.52145240337327
30
0
41
1
10
52.9316183801951
20
-2.52086675518302
30
0
41
1
10
52.9426137702445
20
-2.52198293675008
30
0
41
1
10
52.9654737703357
20
-2.52654370305041
30
0
41
1
10
52.9774037764295
20
-2.52996966464113
30
0
41
1
10
53.0021757296074
20
-2.53898697087382
30
0
41
1
10
53.0150838046347
20
-2.54462885623181
30
0
41
1
10
53.0408550071686
20
-2.55776990159711
30
0
41
1
10
53.0538272034933
20
-2.56529764848756
30
0
41
1
10
53.0733952229558
20
-2.57822401737903
30
0
41
1
10
53.0799729860421
20
-2.58283665462923
30
0
41
1
10
53.0929299978461
20
-2.59251402143042
30
0
41
1
10
53.0993150999443
20
-2.5975787298355
30
0
41
1
10
53.1118772684944
20
-2.60820303558853
30
0
41
1
10
53.1180545670866
20
-2.61376208089672
30
0
41
1
10
53.130165948556
20
-2.62545178621963
30
0
41
1
10
53.136105211984
20
-2.63159589913869
30
0
41
1
10
53.1473406376793
20
-2.64417399832112
30
0
41
1
10
53.1526816916861
20
-2.65064782765134
30
0
41
1
10
53.162721442419
20
-2.66402439790949
30
0
41
1
10
53.1674308466613
20
-2.67095390024954
30
0
41
1
10
53.1716245916401
20
-2.67794217570801
30
0
0
SPLINE
5
1C9
100
AcDbEntity
8
1
62
256
6
ByLayer
370
18
48
1
60
0
100
AcDbSpline
70
4
71
3
72
10
73
6
40
0
40
0
40
0
40
0
40
0.5
40
0.5
40
1
40
1
40
1
40
1
41
1
10
53.1716245916414
20
-2.67794217570861
30
0
41
1
10
53.2148493878499
20
-2.74997010875742
30
0
41
1
10
53.2578596871361
20
-2.82278932082485
30
0
41
1
10
53.3435126115456
20
-2.97001590447729
30
0
41
1
10
53.3861594841633
20
-3.04441842108258
30
0
41
1
10
53.4285668527489
20
-3.11940190269846
30
0
0
SPLINE
5
1CA
100
AcDbEntity
8
1
62
256
6
ByLayer
370
18
48
1
60
0
100
AcDbSpline
70
4
71
3
72
8
73
4
40
0
40
0
40
0
40
0
40
1
40
1
40
1
40
1
41
1
10
53.4285668527488
20
-3.11940190269823
30
0
41
1
10
53.5037484562417
20
-3.19388378892651
30
0
41
1
10
53.5786077623396
20
-3.26822569007572
30
0
41
1
10
53.6532146838226
20
-3.34233658349893
30
0
0
SPLINE
5
1CB
100
AcDbEntity
8
1
62
256
6
ByLayer
370
18
48
1
60
0
100
AcDbSpline
70
4
71
3
72
10
73
6
40
0
40
0
40
0
40
0
40
0.5
40
0.5
40
1
40
1
40
1
40
1
41
1
10
53.6532146838226
20
-3.34233658349899
30
0
41
1
10
53.71016662895
20
-3.30201939612061
30
0
41
1
10
53.7674877326491
20
-3.25783989515756
30
0
41
1
10
53.882903415067
20
-3.16177990598254
30
0
41
1
10
53.9409696430517
20
-3.10994666510752
30
0
41
1
10
53.9994430847322
20
-3.05421126788053
30
0
0
SPLINE
5
1CC
100
AcDbEntity
8
1
62
256
6
ByLayer
370
18
48
1
60
0
100
AcDbSpline
70
4
71
3
72
8
73
4
40
0
40
0
40
0
40
0
40
1
40
1
40
1
40
1
41
1
10
54.7373281878603
20
-3.82984915513271
30
0
41
1
10
54.702651522583
20
-3.81939907697509
30
0
41
1
10
54.6679991561279
20
-3.80853254474769
30
0
41
1
10
54.6333683568099
20
-3.79725112785786
30
0
0
SPLINE
5
1CD
100
AcDbEntity
8
1
62
256
6
ByLayer
370
18
48
1
60
0
100
AcDbSpline
70
4
71
3
72
8
73
4
40
0
40
0
40
0
40
0
40
1
40
1
40
1
40
1
41
1
10
55.8417508828887
20
-4.01733928871923
30
0
41
1
10
55.807038099538
20
-4.01613236814231
30
0
41
1
10
55.772361535582
20
-4.01447807675339
30
0
41
1
10
55.7377226727892
20
-4.01237604426944
30
0
0
SPLINE
5
1CE
100
AcDbEntity
8
1
62
256
6
ByLayer
370
18
48
1
60
0
100
AcDbSpline
70
4
71
3
72
10
73
6
40
0
40
0
40
0
40
0
40
0.5
40
0.5
40
1
40
1
40
1
40
1
41
1
10
63.3286209586926
20
0.192746228670899
30
0
41
1
10
63.2687766410273
20
0.221298893814549
30
0
41
1
10
63.2092755502552
20
0.254187129591202
30
0
41
1
10
63.0908210695264
20
0.328889492344587
30
0
41
1
10
63.0320301267411
20
0.370510327531889
30
0
41
1
10
62.9735690773441
20
0.416216048574512
30
0
0
SPLINE
5
1CF
100
AcDbEntity
8
1
62
256
6
ByLayer
370
18
48
1
60
0
100
AcDbSpline
70
4
71
3
72
8
73
4
40
0
40
0
40
0
40
0
40
1
40
1
40
1
40
1
41
1
10
62.8696635717279
20
0.518761045728468
30
0
41
1
10
62.9042975889364
20
0.484617163818029
30
0
41
1
10
62.9389311924502
20
0.450433898278362
30
0
41
1
10
62.9735690773441
20
0.416216048574512
30
0
0
SPLINE
5
1D0
100
AcDbEntity
8
1
62
256
6
ByLayer
370
18
48
1
60
0
100
AcDbSpline
70
4
71
3
72
10
73
6
40
0
40
0
40
0
40
0
40
0.5
40
0.5
40
1
40
1
40
1
40
1
41
1
10
62.8696635717281
20
0.518761045728439
30
0
41
1
10
62.8089003223208
20
0.58817119981461
30
0
41
1
10
62.7477870224903
20
0.653287192340429
30
0
41
1
10
62.6248226282466
20
0.774554629715709
30
0
41
1
10
62.563011870012
20
0.8307158779497
30
0
41
1
10
62.5008438248465
20
0.882023612383705
30
0
0
SPLINE
5
1D1
100
AcDbEntity
8
1
62
256
6
ByLayer
370
18
48
1
60
0
100
AcDbSpline
70
4
71
3
72
8
73
4
40
0
40
0
40
0
40
0
40
1
40
1
40
1
40
1
41
1
10
61.7652331060794
20
1.5789723009427
30
0
41
1
10
61.7999196524312
20
1.54726838171433
30
0
41
1
10
61.8345867106582
20
1.51538938348264
30
0
41
1
10
61.8692076071284
20
1.48331001012247
30
0
0
SPLINE
5
1D2
100
AcDbEntity
8
1
62
256
6
ByLayer
370
18
48
1
60
0
100
AcDbSpline
70
4
71
3
72
8
73
4
40
0
40
0
40
0
40
0
40
1
40
1
40
1
40
1
41
1
10
60.6608601908391
20
2.51927872622019
30
0
41
1
10
60.6955159632546
20
2.49233293329854
30
0
41
1
10
60.7301700613388
20
2.46512065631222
30
0
41
1
10
60.7648237546242
20
2.43764343673053
30
0
0
SPLINE
5
1D3
100
AcDbEntity
8
1
62
256
6
ByLayer
370
18
48
1
60
0
100
AcDbSpline
70
4
71
3
72
8
73
4
40
0
40
0
40
0
40
0
40
1
40
1
40
1
40
1
41
1
10
59.5564320313386
20
3.27167192124122
30
0
41
1
10
59.5910980080514
20
3.2516067928338
30
0
41
1
10
59.6257642437036
20
3.23119031606245
30
0
41
1
10
59.6604358797411
20
3.21042649799554
30
0
0
SPLINE
5
1D4
100
AcDbEntity
8
1
62
256
6
ByLayer
370
18
48
1
60
0
100
AcDbSpline
70
4
71
3
72
8
73
4
40
0
40
0
40
0
40
0
40
1
40
1
40
1
40
1
41
1
10
58.4519368617521
20
3.78190439830209
30
0
41
1
10
58.4865978284376
20
3.77021677459555
30
0
41
1
10
58.5212551149694
20
3.75811659990816
30
0
41
1
10
58.5559153525578
20
3.74560709619766
30
0
0
SPLINE
5
1D5
100
AcDbEntity
8
1
62
256
6
ByLayer
370
18
48
1
60
0
100
AcDbSpline
70
4
71
3
72
8
73
4
40
0
40
0
40
0
40
0
40
1
40
1
40
1
40
1
41
1
10
57.3475290986208
20
4.00941512147332
30
0
41
1
10
57.382190450915
20
4.00692818981793
30
0
41
1
10
57.4168507564206
20
4.00399556741715
30
0
41
1
10
57.4515164164418
20
4.00061895298253
30
0
0
SPLINE
5
1D6
100
AcDbEntity
8
1
62
256
6
ByLayer
370
18
48
1
60
0
100
AcDbSpline
70
4
71
3
72
43
73
39
40
0
40
0
40
0
40
0
40
0.0062407770712885
40
0.0062407770712885
40
0.0459911459884352
40
0.0459911459884352
40
0.0857415149055817
40
0.0857415149055817
40
0.125491883822728
40
0.204992621657022
40
0.204992621657022
40
0.284493359491315
40
0.284493359491315
40
0.324243728408462
40
0.324243728408462
40
0.363994097325609
40
0.363994097325609
40
0.443494835159902
40
0.443494835159902
40
0.522995572994195
40
0.522995572994195
40
0.602496310828488
40
0.602496310828488
40
0.642246679745635
40
0.642246679745635
40
0.681997048662781
40
0.681997048662781
40
0.701872233121354
40
0.701872233121354
40
0.721747417579928
40
0.721747417579928
40
0.761497786497081
40
0.761497786497081
40
0.840998524331387
40
0.840998524331387
40
0.920499262165694
40
0.920499262165694
40
1
40
1
40
1
40
1
41
1
10
44.6778835589652
20
-2.82500013197853
30
0
41
1
10
44.6686679479659
20
-2.82499800872162
30
0
41
1
10
44.6594498074266
20
-2.82497400907954
30
0
41
1
10
44.5915048428783
20
-2.82463681906884
30
0
41
1
10
44.5327841375266
20
-2.82345507551224
30
0
41
1
10
44.415128845357
20
-2.81931543479141
30
0
41
1
10
44.3561105359729
20
-2.81636187979581
30
0
41
1
10
44.2385195491851
20
-2.80869801079655
30
0
41
1
10
44.0626079808697
20
-2.79456086003495
30
0
41
1
10
43.8879724603511
20
-2.77252983570543
30
0
41
1
10
43.6559998823908
20
-2.73616899633791
30
0
41
1
10
43.5405240352428
20
-2.71445330673347
30
0
41
1
10
43.3671753746382
20
-2.67693869073722
30
0
41
1
10
43.3093568696478
20
-2.66362002642685
30
0
41
1
10
43.1935629930437
20
-2.63542261088364
30
0
41
1
10
43.1355843431004
20
-2.62054696552735
30
0
41
1
10
42.9615023853909
20
-2.57356740376943
30
0
41
1
10
42.8452880416103
20
-2.53909944984699
30
0
41
1
10
42.6128571866648
20
-2.4636006114934
30
0
41
1
10
42.4966006715505
20
-2.42258119939711
30
0
41
1
10
42.2635097793621
20
-2.33420380918892
30
0
41
1
10
42.14667714475
20
-2.28684806650082
30
0
41
1
10
41.9707512793218
20
-2.2111393115292
30
0
41
1
10
41.9121991631199
20
-2.1852069323661
30
0
41
1
10
41.795387859908
20
-2.13204917043652
30
0
41
1
10
41.7371186987249
20
-2.10479906276169
30
0
41
1
10
41.6496690839377
20
-2.0631793428247
30
0
41
1
10
41.6205100906141
20
-2.04918382914064
30
0
41
1
10
41.5621282914874
20
-2.02100016734911
30
0
41
1
10
41.5329177590696
20
-2.0067999911727
30
0
41
1
10
41.4454129449859
20
-1.96368540966748
30
0
41
1
10
41.3872050870303
20
-1.93429711704326
30
0
41
1
10
41.2128474689009
20
-1.84431686235231
30
0
41
1
10
41.0968771234544
20
-1.78200349574203
30
0
41
1
10
40.8651318453385
20
-1.65310916931043
30
0
41
1
10
40.7494092787674
20
-1.58646826759315
30
0
41
1
10
40.5179474687366
20
-1.44913900205833
30
0
41
1
10
40.4022098093429
20
-1.37844644380692
30
0
41
1
10
40.2862116525924
20
-1.30602595104528
30
0
0
SPLINE
5
1D7
100
AcDbEntity
8
1
62
256
6
ByLayer
370
18
48
1
60
0
100
AcDbSpline
70
4
71
3
72
34
73
30
40
0
40
0
40
0
40
0
40
0.0568795867092308
40
0.0568795867092308
40
0.113759173418462
40
0.113759173418462
40
0.227518346836931
40
0.227518346836931
40
0.3412775202554
40
0.3412775202554
40
0.455036693673869
40
0.455036693673869
40
0.511916280383108
40
0.511916280383108
40
0.568795867092346
40
0.568795867092346
40
0.625675453801584
40
0.625675453801584
40
0.682555040510823
40
0.682555040510823
40
0.7963142139293
40
0.7963142139293
40
0.910073387347777
40
0.910073387347777
40
0.938513180702398
40
0.938513180702398
40
0.966952974057019
40
0.966952974057019
40
1
40
1
40
1
40
1
41
1
10
38.1448161549201
20
-2.77510007399542
30
0
41
1
10
38.2145206284692
20
-2.78421007666557
30
0
41
1
10
38.2840184512313
20
-2.79208306665939
30
0
41
1
10
38.4226865722258
20
-2.80533502966188
30
0
41
1
10
38.4917981848788
20
-2.81072207197695
30
0
41
1
10
38.6990317336941
20
-2.82308434928729
30
0
41
1
10
38.8373774985767
20
-2.82626168279742
30
0
41
1
10
39.1139937724572
20
-2.82284906351009
30
0
41
1
10
39.2523395635386
20
-2.81624857927457
30
0
41
1
10
39.5291217810193
20
-2.79325482139518
30
0
41
1
10
39.6675553481253
20
-2.77685744438196
30
0
41
1
10
39.8754128409452
20
-2.74473818190145
30
0
41
1
10
39.9447011512789
20
-2.73276393608424
30
0
41
1
10
40.0834556575262
20
-2.70628584044516
30
0
41
1
10
40.1529744084861
20
-2.69180206887828
30
0
41
1
10
40.2925398272227
20
-2.66044854319898
30
0
41
1
10
40.3626388069667
20
-2.64354764308072
30
0
41
1
10
40.5024233206322
20
-2.60757515781836
30
0
41
1
10
40.5722097243522
20
-2.58848646146592
30
0
41
1
10
40.7812701117183
20
-2.527983502052
30
0
41
1
10
40.9202454816148
20
-2.48334151800819
30
0
41
1
10
41.1973735485135
20
-2.38554026470357
30
0
41
1
10
41.3355397605526
20
-2.33238819329631
30
0
41
1
10
41.5078088682999
20
-2.26060871401816
30
0
41
1
10
41.5422383073732
20
-2.24598323354263
30
0
41
1
10
41.6110511283555
20
-2.21619117400545
30
0
41
1
10
41.6454555363847
20
-2.20104275845915
30
0
41
1
10
41.719967959054
20
-2.16787279430872
30
0
41
1
10
41.7600471779956
20
-2.14973824105732
30
0
41
1
10
41.8001604719539
20
-2.13130094635332
30
0
0
SPLINE
5
1D8
100
AcDbEntity
8
1
62
256
6
ByLayer
370
18
48
1
60
0
100
AcDbSpline
70
4
71
3
72
14
73
10
40
0
40
0
40
0
40
0
40
0.292894881436389
40
0.292894881436389
40
0.646447440718157
40
0.646447440718157
40
0.823223720359079
40
0.823223720359079
40
1
40
1
40
1
40
1
41
1
10
51.6120993065461
20
2.83617440223713
30
0
41
1
10
51.6449459079562
20
2.84140512159138
30
0
41
1
10
51.6774368113951
20
2.84815247001382
30
0
41
1
10
51.7483014321899
20
2.86638323269088
30
0
41
1
10
51.7865005357657
20
2.87855429355898
30
0
41
1
10
51.8429114604297
20
2.90033349024947
30
0
41
1
10
51.8615308747329
20
2.90817091873671
30
0
41
1
10
51.8982480668232
20
2.92498559533726
30
0
41
1
10
51.9163682070421
20
2.93397109440693
30
0
41
1
10
51.9342461001384
20
2.94356969392109
30
0
0
SPLINE
5
1D9
100
AcDbEntity
8
1
62
256
6
ByLayer
370
18
48
1
60
0
100
AcDbSpline
70
4
71
3
72
14
73
10
40
0
40
0
40
0
40
0
40
0.499999999999984
40
0.499999999999984
40
0.749999999999992
40
0.749999999999992
40
0.874999999999996
40
0.874999999999996
40
1
40
1
40
1
40
1
41
1
10
51.9342461001384
20
2.94356969392109
30
0
41
1
10
52.0454864984292
20
3.00329440685212
30
0
41
1
10
52.1568743731684
20
3.05942546736264
30
0
41
1
10
52.3240285814675
20
3.13848179837405
30
0
41
1
10
52.3797556088084
20
3.1639707699311
30
0
41
1
10
52.4634229553935
20
3.2009995094067
30
0
41
1
10
52.4913321062847
20
3.21314838945321
30
0
41
1
10
52.5472009701902
20
3.23707575887903
30
0
41
1
10
52.5751587673787
20
3.24885408473199
30
0
41
1
10
52.6030045669552
20
3.26031182467605
30
0
0
SPLINE
5
1DA
100
AcDbEntity
8
1
62
256
6
ByLayer
370
18
48
1
60
0
100
AcDbSpline
70
4
71
3
72
22
73
18
40
0
40
0
40
0
40
0
40
0.124999999999957
40
0.124999999999957
40
0.249999999999914
40
0.249999999999914
40
0.499999999999942
40
0.499999999999942
40
0.624999999999956
40
0.624999999999956
40
0.749999999999971
40
0.749999999999971
40
0.812499999999978
40
0.812499999999978
40
0.874999999999985
40
0.874999999999985
40
1
40
1
40
1
40
1
41
1
10
52.6030045669538
20
3.26031182468148
30
0
41
1
10
52.6112567295609
20
3.25527510036809
30
0
41
1
10
52.619705996479
20
3.25088296735316
30
0
41
1
10
52.6369789296745
20
3.24335308806542
30
0
41
1
10
52.6458591291651
20
3.24020281716545
30
0
41
1
10
52.672553651139
20
3.23286287070351
30
0
41
1
10
52.6904329843954
20
3.23067039774233
30
0
41
1
10
52.717298374197
20
3.23201043374013
30
0
41
1
10
52.7263154927906
20
3.23326656825239
30
0
41
1
10
52.7437769649499
20
3.2375295709324
30
0
41
1
10
52.752279659424
20
3.2405262165621
30
0
41
1
10
52.7646177970472
20
3.24656148170507
30
0
41
1
10
52.7686833784922
20
3.24884770054032
30
0
41
1
10
52.7765219077146
20
3.25392363962382
30
0
41
1
10
52.7802930603848
20
3.2567075238766
30
0
41
1
10
52.7911310672523
20
3.26584820474102
30
0
41
1
10
52.7977327450343
20
3.27297577924185
30
0
41
1
10
52.8035381518098
20
3.28143349256553
30
0
0
SPLINE
5
1DB
100
AcDbEntity
8
1
62
256
6
ByLayer
370
18
48
1
60
0
100
AcDbSpline
70
4
71
3
72
8
73
4
40
0
40
0
40
0
40
0
40
1
40
1
40
1
40
1
41
1
10
52.8035381518098
20
3.28143349256555
30
0
41
1
10
52.8209420252271
20
3.30678864471562
30
0
41
1
10
52.8383132241971
20
3.33194863073857
30
0
41
1
10
52.8556527815976
20
3.35690595601201
30
0
0
SPLINE
5
1DC
100
AcDbEntity
8
1
62
256
6
ByLayer
370
18
48
1
60
0
100
AcDbSpline
70
4
71
3
72
8
73
4
40
0
40
0
40
0
40
0
40
1
40
1
40
1
40
1
41
1
10
52.8556527815976
20
3.35690595601204
30
0
41
1
10
53.0339701806624
20
3.41976144924016
30
0
41
1
10
53.2096462216197
20
3.47010733498559
30
0
41
1
10
53.3838092253763
20
3.50685544706911
30
0
0
SPLINE
5
1DD
100
AcDbEntity
8
1
62
256
6
ByLayer
370
18
48
1
60
0
100
AcDbSpline
70
4
71
3
72
10
73
6
40
0
40
0
40
0
40
0
40
0.5
40
0.5
40
1
40
1
40
1
40
1
41
1
10
53.383809225376
20
3.5068554470698
30
0
41
1
10
53.4246684970612
20
3.4259791161798
30
0
41
1
10
53.4657299219582
20
3.34471457562142
30
0
41
1
10
53.5482341501158
20
3.18164623667502
30
0
41
1
10
53.5896531352746
20
3.099881350522
30
0
41
1
10
53.6312995186973
20
3.01790139379747
30
0
0
SPLINE
5
1DE
100
AcDbEntity
8
1
62
256
6
ByLayer
370
18
48
1
60
0
100
AcDbSpline
70
4
71
3
72
28
73
24
40
0
40
0
40
0
40
0
40
0.12500000000003
40
0.12500000000003
40
0.250000000000059
40
0.250000000000059
40
0.375000000000089
40
0.375000000000089
40
0.500000000000119
40
0.500000000000119
40
0.625000000000148
40
0.625000000000148
40
0.687500000000123
40
0.687500000000123
40
0.750000000000099
40
0.750000000000099
40
0.812500000000074
40
0.812500000000074
40
0.875000000000049
40
0.875000000000049
40
0.937500000000025
40
0.937500000000025
40
1
40
1
40
1
40
1
41
1
10
53.6312995186973
20
3.01790139379747
30
0
41
1
10
53.638991753467
20
3.00275940494475
30
0
41
1
10
53.6479607244763
20
2.98892422180498
30
0
41
1
10
53.6678113940905
20
2.96320478044382
30
0
41
1
10
53.6788234713094
20
2.95124906809417
30
0
41
1
10
53.7017098431013
20
2.92996681048757
30
0
41
1
10
53.713650599644
20
2.92052743567206
30
0
41
1
10
53.738437620423
20
2.90388389819864
30
0
41
1
10
53.751348282111
20
2.89667780751495
30
0
41
1
10
53.7771172999454
20
2.8850830433303
30
0
41
1
10
53.7900851222583
20
2.88060466399688
30
0
41
1
10
53.8096418875699
20
2.87607711029472
30
0
41
1
10
53.8162147227093
20
2.87493444958381
30
0
41
1
10
53.8291590763964
20
2.87350296045975
30
0
41
1
10
53.8355378333432
20
2.87320710954197
30
0
41
1
10
53.8480874590295
20
2.87352261576316
30
0
41
1
10
53.8542585583394
20
2.87413295807619
30
0
41
1
10
53.8663579643876
20
2.87639155184337
30
0
41
1
10
53.8722921870616
20
2.87805210526307
30
0
41
1
10
53.88351991694
20
2.88247017293523
30
0
41
1
10
53.8888580438454
20
2.88523117659625
30
0
41
1
10
53.8988939347144
20
2.89203746806993
30
0
41
1
10
53.9036034288973
20
2.89610721391586
30
0
41
1
10
53.9077986295337
20
2.90083510026483
30
0
0
SPLINE
5
1DF
100
AcDbEntity
8
1
62
256
6
ByLayer
370
18
48
1
60
0
100
AcDbSpline
70
4
71
3
72
10
73
6
40
0
40
0
40
0
40
0
40
0.5
40
0.5
40
1
40
1
40
1
40
1
41
1
10
53.907798629535
20
2.90083510026793
30
0
41
1
10
53.9681967601076
20
2.9689022850819
30
0
41
1
10
54.0281358508801
20
3.03347696592826
30
0
41
1
10
54.1473299044306
20
3.15569687033039
30
0
41
1
10
54.2064652071963
20
3.21330405205745
30
0
41
1
10
54.2652356489635
20
3.26749966761685
30
0
0
SPLINE
5
1E0
100
AcDbEntity
8
1
62
256
6
ByLayer
370
18
48
1
60
0
100
AcDbSpline
70
4
71
3
72
8
73
4
40
0
40
0
40
0
40
0
40
1
40
1
40
1
40
1
41
1
10
54.3692200536778
20
3.20601539193518
30
0
41
1
10
54.3345347554464
20
3.22686258372639
30
0
41
1
10
54.2998742583619
20
3.24735814269363
30
0
41
1
10
54.2652356489635
20
3.2674996676169
30
0
0
SPLINE
5
1E1
100
AcDbEntity
8
1
62
256
6
ByLayer
370
18
48
1
60
0
100
AcDbSpline
70
4
71
3
72
10
73
6
40
0
40
0
40
0
40
0
40
0.5
40
0.5
40
1
40
1
40
1
40
1
41
1
10
54.3692200536779
20
3.20601539193567
30
0
41
1
10
54.4293975176226
20
3.08249051974403
30
0
41
1
10
54.4900093842732
20
2.95927708108906
30
0
41
1
10
54.6121944566887
20
2.71397066387311
30
0
41
1
10
54.6737159356719
20
2.59194991402237
30
0
41
1
10
54.7357035968408
20
2.4709481215092
30
0
0
SPLINE
5
1E2
100
AcDbEntity
8
1
62
256
6
ByLayer
370
18
48
1
60
0
100
AcDbSpline
70
4
71
3
72
28
73
24
40
0
40
0
40
0
40
0
40
0.125000000000029
40
0.125000000000029
40
0.250000000000059
40
0.250000000000059
40
0.375000000000088
40
0.375000000000088
40
0.500000000000117
40
0.500000000000117
40
0.625000000000147
40
0.625000000000147
40
0.687500000000122
40
0.687500000000122
40
0.750000000000098
40
0.750000000000098
40
0.812500000000073
40
0.812500000000073
40
0.875000000000049
40
0.875000000000049
40
0.937500000000024
40
0.937500000000024
40
1
40
1
40
1
40
1
41
1
10
54.7357035968408
20
2.4709481215084
30
0
41
1
10
54.7433892611505
20
2.45594547193914
30
0
41
1
10
54.7523508143925
20
2.44179958991273
30
0
41
1
10
54.7721878854738
20
2.41479325828769
30
0
41
1
10
54.7831947320328
20
2.40183942113626
30
0
41
1
10
54.8060753954948
20
2.37804338802422
30
0
41
1
10
54.8180143718018
20
2.36708845388043
30
0
41
1
10
54.8428010282009
20
2.34692479902722
30
0
41
1
10
54.8557133454906
20
2.33769993282425
30
0
41
1
10
54.8814869915105
20
2.32170384529854
30
0
41
1
10
54.8944581052363
20
2.3148292010039
30
0
41
1
10
54.9140212404506
20
2.30637095483098
30
0
41
1
10
54.9205964069628
20
2.30385336240724
30
0
41
1
10
54.9335421679161
20
2.29959503638628
30
0
41
1
10
54.9399213796115
20
2.29784604109673
30
0
41
1
10
54.9524712901817
20
2.29516728706042
30
0
41
1
10
54.9586422204885
20
2.29423661690296
30
0
41
1
10
54.9707404594637
20
2.29331052933804
30
0
41
1
10
54.9766717426759
20
2.29332419320213
30
0
41
1
10
54.9878921135386
20
2.29442662246626
30
0
41
1
10
54.9932260096355
20
2.29550797130051
30
0
41
1
10
55.0032525905379
20
2.29890265523747
30
0
41
1
10
55.0079561825598
20
2.30123352855657
30
0
41
1
10
55.0121456772978
20
2.30423908682994
30
0
0
SPLINE
5
1E3
100
AcDbEntity
8
1
62
256
6
ByLayer
370
18
48
1
60
0
100
AcDbSpline
70
4
71
3
72
10
73
6
40
0
40
0
40
0
40
0
40
0.5
40
0.5
40
1
40
1
40
1
40
1
41
1
10
55.012145677299
20
2.30423908683321
30
0
41
1
10
55.072529607341
20
2.34755873081917
30
0
41
1
10
55.1324764164326
20
2.38686857935213
30
0
41
1
10
55.2516787429794
20
2.45723157128364
30
0
41
1
10
55.3107972214527
20
2.48823546471351
30
0
41
1
10
55.369519212791
20
2.51510386033908
30
0
0
SPLINE
5
1E4
100
AcDbEntity
8
1
62
256
6
ByLayer
370
18
48
1
60
0
100
AcDbSpline
70
4
71
3
72
8
73
4
40
0
40
0
40
0
40
0
40
1
40
1
40
1
40
1
41
1
10
55.4735422595156
20
2.4331978493596
30
0
41
1
10
55.4388828275202
20
2.46079760573846
30
0
41
1
10
55.4042095960505
20
2.48810002760155
30
0
41
1
10
55.3695192127909
20
2.51510386033917
30
0
0
SPLINE
5
1E5
100
AcDbEntity
8
1
62
256
6
ByLayer
370
18
48
1
60
0
100
AcDbSpline
70
4
71
3
72
10
73
6
40
0
40
0
40
0
40
0
40
0.5
40
0.5
40
1
40
1
40
1
40
1
41
1
10
55.4735422595149
20
2.43319784934997
30
0
41
1
10
55.5337529419154
20
2.3142120256224
30
0
41
1
10
55.594345811751
20
2.19673889711956
30
0
41
1
10
55.7165119227417
20
1.96555374627346
30
0
41
1
10
55.7780486339409
20
1.85192503189964
30
0
41
1
10
55.8400701088157
20
1.74068061082556
30
0
0
SPLINE
5
1E6
100
AcDbEntity
8
1
62
256
6
ByLayer
370
18
48
1
60
0
100
AcDbSpline
70
4
71
3
72
27
73
23
40
0
40
0
40
0
40
0
40
0.125
40
0.125
40
0.250000000000001
40
0.250000000000001
40
0.375000000000001
40
0.375000000000001
40
0.500000000000001
40
0.500000000000001
40
0.625000000000001
40
0.625000000000001
40
0.687500000000001
40
0.687500000000001
40
0.750000000000001
40
0.812500000000001
40
0.812500000000001
40
0.875
40
0.875
40
0.9375
40
0.9375
40
1
40
1
40
1
40
1
41
1
10
55.8400701088158
20
1.74068061082451
30
0
41
1
10
55.8477622151798
20
1.72688371352336
30
0
41
1
10
55.8567298766514
20
1.7134306586178
30
0
41
1
10
55.876576027802
20
1.68704868480395
30
0
41
1
10
55.8875851733151
20
1.67401311666484
30
0
41
1
10
55.910466385369
20
1.64938073999247
30
0
41
1
10
55.9224046439145
20
1.63767741009531
30
0
41
1
10
55.9471879141335
20
1.61539396970073
30
0
41
1
10
55.9600978574161
20
1.604783917535
30
0
41
1
10
55.9858679675666
20
1.58546603831317
30
0
41
1
10
55.9988374755989
20
1.57664909986326
30
0
41
1
10
56.018397880498
20
1.56479785942051
30
0
41
1
10
56.0249722232953
20
1.56106075672341
30
0
41
1
10
56.0379197951272
20
1.55422536297144
30
0
41
1
10
56.0506801887255
20
1.5480134434209
30
0
41
1
10
56.0630239043666
20
1.54313981767703
30
0
41
1
10
56.0751241732029
20
1.53902773359729
30
0
41
1
10
56.0810584761878
20
1.53735777003732
30
0
41
1
10
56.0922849468449
20
1.53499496238123
30
0
41
1
10
56.0976217792335
20
1.53428387305348
30
0
41
1
10
56.1076538454583
20
1.53395441745803
30
0
41
1
10
56.1123612117869
20
1.53434584505391
30
0
41
1
10
56.1165545195153
20
1.53538417191388
30
0
0
SPLINE
5
1E7
100
AcDbEntity
8
1
62
256
6
ByLayer
370
18
48
1
60
0
100
AcDbSpline
70
4
71
3
72
10
73
6
40
0
40
0
40
0
40
0
40
0.5
40
0.5
40
1
40
1
40
1
40
1
41
1
10
56.1165545195153
20
1.53538417191561
30
0
41
1
10
56.1769283566772
20
1.55033365352375
30
0
41
1
10
56.2368707881368
20
1.56098400501207
30
0
41
1
10
56.3560848664824
20
1.57358539035809
30
0
41
1
10
56.415227643862
20
1.57556563238936
30
0
41
1
10
56.4739911301926
20
1.57331577748536
30
0
0
SPLINE
5
1E8
100
AcDbEntity
8
1
62
256
6
ByLayer
370
18
48
1
60
0
100
AcDbSpline
70
4
71
3
72
8
73
4
40
0
40
0
40
0
40
0
40
1
40
1
40
1
40
1
41
1
10
56.5779528855133
20
1.47791994046867
30
0
41
1
10
56.5432965075958
20
1.50989525846691
30
0
41
1
10
56.5086428280822
20
1.54169398769446
30
0
41
1
10
56.4739911301926
20
1.57331577748539
30
0
0
SPLINE
5
1E9
100
AcDbEntity
8
1
62
256
6
ByLayer
370
18
48
1
60
0
100
AcDbSpline
70
4
71
3
72
10
73
6
40
0
40
0
40
0
40
0
40
0.5
40
0.5
40
1
40
1
40
1
40
1
41
1
10
56.5779528855125
20
1.47791994046207
30
0
41
1
10
56.6381790683041
20
1.37301919623863
30
0
41
1
10
56.6988076938606
20
1.27083059929277
30
0
41
1
10
56.8209525839461
20
1.07233236811078
30
0
41
1
10
56.8824177726227
20
0.976057450629241
30
0
41
1
10
56.9443266511695
20
0.883197419207448
30
0
0
SPLINE
5
1EA
100
AcDbEntity
8
1
62
256
6
ByLayer
370
18
48
1
60
0
100
AcDbSpline
70
4
71
3
72
28
73
24
40
0
40
0
40
0
40
0
40
0.125
40
0.125
40
0.250000000000001
40
0.250000000000001
40
0.375000000000001
40
0.375000000000001
40
0.500000000000001
40
0.500000000000001
40
0.625000000000002
40
0.625000000000002
40
0.687500000000001
40
0.687500000000001
40
0.750000000000001
40
0.750000000000001
40
0.812500000000001
40
0.812500000000001
40
0.875000000000001
40
0.875000000000001
40
0.9375
40
0.9375
40
1
40
1
40
1
40
1
41
1
10
56.9443266511696
20
0.883197419206397
30
0
41
1
10
56.9520348433564
20
0.871635540111271
30
0
41
1
10
56.9610224091564
20
0.859875045730149
30
0
41
1
10
56.9809089467985
20
0.836071382013643
30
0
41
1
10
56.9919384177901
20
0.823915680567865
30
0
41
1
10
57.0148506759811
20
0.800260882222574
30
0
41
1
10
57.0268012553687
20
0.788668484562493
30
0
41
1
10
57.0516007948677
20
0.765895374171691
30
0
41
1
10
57.0645121618381
20
0.754675352565698
30
0
41
1
10
57.0902758625047
20
0.733434650473015
30
0
41
1
10
57.1032379728553
20
0.723306850395176
30
0
41
1
10
57.1227821955885
20
0.70890062353422
30
0
41
1
10
57.1293497602671
20
0.704206816001403
30
0
41
1
10
57.1422816614171
20
0.695272667388252
30
0
41
1
10
57.148654310352
20
0.691024071317372
30
0
41
1
10
57.1611920577804
20
0.682994154626897
30
0
41
1
10
57.1673573874573
20
0.679212314663602
30
0
41
1
10
57.17944566583
20
0.672179200287644
30
0
41
1
10
57.1853755021244
20
0.66892787128657
30
0
41
1
10
57.1965964237178
20
0.663230356951601
30
0
41
1
10
57.2019318500612
20
0.660756555855812
30
0
41
1
10
57.2119636761459
20
0.656681710681596
30
0
41
1
10
57.216673218328
20
0.655081086584715
30
0
41
1
10
57.220870005114
20
0.65405260256108
30
0
0
SPLINE
5
1EB
100
AcDbEntity
8
1
62
256
6
ByLayer
370
18
48
1
60
0
100
AcDbSpline
70
4
71
3
72
10
73
6
40
0
40
0
40
0
40
0
40
0.5
40
0.5
40
1
40
1
40
1
40
1
41
1
10
57.2208700051139
20
0.654052602562842
30
0
41
1
10
57.2812679169044
20
0.639251210329917
30
0
41
1
10
57.3412306144197
20
0.620140705804914
30
0
41
1
10
57.4604838142252
20
0.573274396605314
30
0
41
1
10
57.519646727395
20
0.545608226197828
30
0
41
1
10
57.5784354516908
20
0.513856974115498
30
0
0
SPLINE
5
1EC
100
AcDbEntity
8
1
62
256
6
ByLayer
370
18
48
1
60
0
100
AcDbSpline
70
4
71
3
72
8
73
4
40
0
40
0
40
0
40
0
40
1
40
1
40
1
40
1
41
1
10
57.6823989746019
20
0.411207015368262
30
0
41
1
10
57.6477265041071
20
0.445469324831322
30
0
41
1
10
57.6130728060649
20
0.479686804327741
30
0
41
1
10
57.5784354516908
20
0.51385697411547
30
0
0
SPLINE
5
1ED
100
AcDbEntity
8
1
62
256
6
ByLayer
370
18
48
1
60
0
100
AcDbSpline
70
4
71
3
72
10
73
6
40
0
40
0
40
0
40
0
40
0.5
40
0.5
40
1
40
1
40
1
40
1
41
1
10
57.6823989746019
20
0.411207015368348
30
0
41
1
10
57.7425767988987
20
0.327927334648734
30
0
41
1
10
57.8031739209948
20
0.248368850581812
30
0
41
1
10
57.9252930058768
20
0.0971052172191662
30
0
41
1
10
57.9867637746891
20
0.0254184050442632
30
0
41
1
10
58.0486949444861
20
-0.0419428155588264
30
0
0
SPLINE
5
1EE
100
AcDbEntity
8
1
62
256
6
ByLayer
370
18
48
1
60
0
100
AcDbSpline
70
4
71
3
72
30
73
26
40
0
40
0
40
0
40
0
40
0.124999999999913
40
0.124999999999913
40
0.249999999999826
40
0.249999999999826
40
0.374999999999739
40
0.374999999999739
40
0.437499999999733
40
0.437499999999733
40
0.499999999999727
40
0.499999999999727
40
0.624999999999795
40
0.624999999999795
40
0.68749999999983
40
0.68749999999983
40
0.749999999999864
40
0.749999999999864
40
0.812499999999898
40
0.812499999999898
40
0.874999999999932
40
0.874999999999932
40
0.937499999999966
40
0.937499999999966
40
1
40
1
40
1
40
1
41
1
10
58.0486949444861
20
-0.0419428155599348
30
0
41
1
10
58.0563934330897
20
-0.0503162984255141
30
0
41
1
10
58.0653713584302
20
-0.0594130600590006
30
0
41
1
10
58.085243274098
20
-0.0786681060514809
30
0
41
1
10
58.0962695432847
20
-0.088937874264019
30
0
41
1
10
58.1191833954257
20
-0.109654866263298
30
0
41
1
10
58.1311365588995
20
-0.120171068074484
30
0
41
1
10
58.1497445508195
20
-0.136186272870532
30
0
41
1
10
58.1560850447586
20
-0.141585174252072
30
0
41
1
10
58.1688864291246
20
-0.152379900933113
30
0
41
1
10
58.1753104032866
20
-0.15774510382451
30
0
41
1
10
58.1946433126871
20
-0.173755161459496
30
0
41
1
10
58.2076124562932
20
-0.18431560052872
30
0
41
1
10
58.2271668128332
20
-0.200008941013152
30
0
41
1
10
58.2337371545159
20
-0.205242872460303
30
0
41
1
10
58.2466657196336
20
-0.215468881577891
30
0
41
1
10
58.253036117502
20
-0.220471330885687
30
0
41
1
10
58.265567634157
20
-0.230244323655114
30
0
41
1
10
58.2717290304488
20
-0.235015053738806
30
0
41
1
10
58.2838076346311
20
-0.244296372552043
30
0
41
1
10
58.2897281472251
20
-0.248808861672899
30
0
41
1
10
58.300928819987
20
-0.257265715376661
30
0
41
1
10
58.3062535417727
20
-0.261244703542673
30
0
41
1
10
58.3162636690029
20
-0.268622453646259
30
0
41
1
10
58.3209611308908
20
-0.272029195176344
30
0
41
1
10
58.3251471067556
20
-0.274989861583947
30
0
0
SPLINE
5
1EF
100
AcDbEntity
8
1
62
256
6
ByLayer
370
18
48
1
60
0
100
AcDbSpline
70
4
71
3
72
10
73
6
40
0
40
0
40
0
40
0
40
0.5
40
0.5
40
1
40
1
40
1
40
1
41
1
10
58.3251471067556
20
-0.2749898615821
30
0
41
1
10
58.3855955963338
20
-0.317744005004044
30
0
41
1
10
58.4455876794839
20
-0.364646430063317
30
0
41
1
10
58.5648550120795
20
-0.466856236321007
30
0
41
1
10
58.6239867842539
20
-0.522018920433055
30
0
41
1
10
58.6827144427611
20
-0.5810574563248
30
0
0
SPLINE
5
1F0
100
AcDbEntity
8
1
62
256
6
ByLayer
370
18
48
1
60
0
100
AcDbSpline
70
4
71
3
72
8
73
4
40
0
40
0
40
0
40
0
40
1
40
1
40
1
40
1
41
1
10
58.7867842133996
20
-0.684105152701193
30
0
41
1
10
58.7520714467474
20
-0.649836783419175
30
0
41
1
10
58.7173958456951
20
-0.615473390868544
30
0
41
1
10
58.6827144427611
20
-0.581057456324771
30
0
0
SPLINE
5
1F1
100
AcDbEntity
8
1
62
256
6
ByLayer
370
18
48
1
60
0
100
AcDbSpline
70
4
71
3
72
10
73
6
40
0
40
0
40
0
40
0
40
0.5
40
0.5
40
1
40
1
40
1
40
1
41
1
10
58.7867842133997
20
-0.68410515270125
30
0
41
1
10
58.8469188083515
20
-0.740096135366002
30
0
41
1
10
58.9074970240631
20
-0.7915611686592
30
0
41
1
10
59.029620494602
20
-0.88521281019257
30
0
41
1
10
59.0911174432113
20
-0.92739663263643
30
0
41
1
10
59.1530977650515
20
-0.964615146423085
30
0
0
SPLINE
5
1F2
100
AcDbEntity
8
1
62
256
6
ByLayer
370
18
48
1
60
0
100
AcDbSpline
70
4
71
3
72
30
73
26
40
0
40
0
40
0
40
0
40
0.125000000000037
40
0.125000000000037
40
0.250000000000075
40
0.250000000000075
40
0.375000000000113
40
0.375000000000113
40
0.437500000000094
40
0.437500000000094
40
0.500000000000075
40
0.500000000000075
40
0.625000000000116
40
0.625000000000116
40
0.687500000000097
40
0.687500000000097
40
0.750000000000077
40
0.750000000000077
40
0.812500000000058
40
0.812500000000058
40
0.875000000000039
40
0.875000000000039
40
0.937500000000019
40
0.937500000000019
40
1
40
1
40
1
40
1
41
1
10
59.1530977650516
20
-0.964615146424222
30
0
41
1
10
59.1607981150019
20
-0.969239123394317
30
0
41
1
10
59.1697776110669
20
-0.9750629266033
30
0
41
1
10
59.1896516102175
20
-0.988477949671363
30
0
41
1
10
59.2006784904062
20
-0.996170143391879
30
0
41
1
10
59.2235925820961
20
-1.01255230529353
30
0
41
1
10
59.2355454692097
20
-1.02128412014252
30
0
41
1
10
59.2541524492653
20
-1.03515875289918
30
0
41
1
10
59.2604925373615
20
-1.03993261516195
30
0
41
1
10
59.2732931297204
20
-1.04967219762392
30
0
41
1
10
59.2797167497809
20
-1.05460953812391
30
0
41
1
10
59.2990488518084
20
-1.06963156150121
30
0
41
1
10
59.3120178278384
20
-1.07992242958915
30
0
41
1
10
59.3315723795389
20
-1.09586139356935
30
0
41
1
10
59.3381428600691
20
-1.10128895558273
30
0
41
1
10
59.3510716886729
20
-1.11213672930978
30
0
41
1
10
59.3574421953927
20
-1.1175660489607
30
0
41
1
10
59.3699739183051
20
-1.12844369637759
30
0
41
1
10
59.3761354014395
20
-1.13389195420379
30
0
41
1
10
59.3882139991842
20
-1.14481589413023
30
0
41
1
10
59.3941345022597
20
-1.15029728508137
30
0
41
1
10
59.4053348069191
20
-1.16096513821898
30
0
41
1
10
59.4106591716163
20
-1.16619091933367
30
0
41
1
10
59.4206681801834
20
-1.17639098714989
30
0
41
1
10
59.4253651265676
20
-1.18138176457009
30
0
41
1
10
59.429550723229
20
-1.18608042348569
30
0
0
SPLINE
5
1F3
100
AcDbEntity
8
1
62
256
6
ByLayer
370
18
48
1
60
0
100
AcDbSpline
70
4
71
3
72
10
73
6
40
0
40
0
40
0
40
0
40
0.5
40
0.5
40
1
40
1
40
1
40
1
41
1
10
59.4295507232289
20
-1.18608042348399
30
0
41
1
10
59.4899553753748
20
-1.25388935977489
30
0
41
1
10
59.5499212604426
20
-1.32512637962657
30
0
41
1
10
59.6691667792457
20
-1.4744938241671
30
0
41
1
10
59.7283144544376
20
-1.5524188552927
30
0
41
1
10
59.7870720670866
20
-1.63345252174361
30
0
0
SPLINE
5
1F4
100
AcDbEntity
8
1
62
256
6
ByLayer
370
18
48
1
60
0
100
AcDbSpline
70
4
71
3
72
8
73
4
40
0
40
0
40
0
40
0
40
1
40
1
40
1
40
1
41
1
10
59.8911223231444
20
-1.72740412912646
30
0
41
1
10
59.8564477132188
20
-1.69625295744635
30
0
41
1
10
59.8217643039019
20
-1.66493552960978
30
0
41
1
10
59.7870720670866
20
-1.63345252174358
30
0
0
SPLINE
5
1F5
100
AcDbEntity
8
1
62
256
6
ByLayer
370
18
48
1
60
0
100
AcDbSpline
70
4
71
3
72
10
73
6
40
0
40
0
40
0
40
0
40
0.5
40
0.5
40
1
40
1
40
1
40
1
41
1
10
59.8911223231437
20
-1.72740412912154
30
0
41
1
10
59.9513412245365
20
-1.75121527011234
30
0
41
1
10
60.0119433192995
20
-1.77040029302987
30
0
41
1
10
60.1340382472598
20
-1.79924741983501
30
0
41
1
10
60.1954779667838
20
-1.80895646517675
30
0
41
1
10
60.2573903506255
20
-1.81356418446231
30
0
0
SPLINE
5
1F6
100
AcDbEntity
8
1
62
256
6
ByLayer
370
18
48
1
60
0
100
AcDbSpline
70
4
71
3
72
30
73
26
40
0
40
0
40
0
40
0
40
0.124999999999912
40
0.124999999999912
40
0.249999999999824
40
0.249999999999824
40
0.374999999999735
40
0.374999999999735
40
0.437499999999729
40
0.437499999999729
40
0.499999999999723
40
0.499999999999723
40
0.624999999999791
40
0.624999999999791
40
0.687499999999826
40
0.687499999999826
40
0.749999999999861
40
0.749999999999861
40
0.812499999999896
40
0.812499999999896
40
0.87499999999993
40
0.87499999999993
40
0.937499999999965
40
0.937499999999965
40
1
40
1
40
1
40
1
41
1
10
60.2573903506255
20
-1.81356418446322
30
0
41
1
10
60.2651039650119
20
-1.81413825652385
30
0
41
1
10
60.274096820006
20
-1.81630912863105
30
0
41
1
10
60.2939918554947
20
-1.8230016223464
30
0
41
1
10
60.3050251753818
20
-1.82760652095408
30
0
41
1
10
60.3279430915158
20
-1.83855806974483
30
0
41
1
10
60.3398955078899
20
-1.84491751216666
30
0
41
1
10
60.358498264405
20
-1.85571015464339
30
0
41
1
10
60.3648359565223
20
-1.85953376550037
30
0
41
1
10
60.3776325290828
20
-1.86755380017388
30
0
41
1
10
60.3840540142386
20
-1.87172569249725
30
0
41
1
10
60.4033794301775
20
-1.88473022123901
30
0
41
1
10
60.4163436389557
20
-1.89404324742966
30
0
41
1
10
60.4358902335009
20
-1.90912527317965
30
0
41
1
10
60.4424582894123
20
-1.91437033600218
30
0
41
1
10
60.4553881753331
20
-1.92509167107613
30
0
41
1
10
60.4617594463913
20
-1.93057298479803
30
0
41
1
10
60.4742932403387
20
-1.94180330801194
30
0
41
1
10
60.4804560081993
20
-1.94755200666572
30
0
41
1
10
60.4925375678346
20
-1.95936133554787
30
0
41
1
10
60.4984632513112
20
-1.96543450771415
30
0
41
1
10
60.509674718196
20
-1.97757982102095
30
0
41
1
10
60.5150047793656
20
-1.98369284233067
30
0
41
1
10
60.5250250265175
20
-1.99601240958447
30
0
41
1
10
60.5297293652378
20
-2.00224487631561
30
0
41
1
10
60.5339223873115
20
-2.00835972029711
30
0
0
SPLINE
5
1F7
100
AcDbEntity
8
1
62
256
6
ByLayer
370
18
48
1
60
0
100
AcDbSpline
70
4
71
3
72
10
73
6
40
0
40
0
40
0
40
0
40
0.5
40
0.5
40
1
40
1
40
1
40
1
41
1
10
60.5339223873115
20
-2.00835972029586
30
0
41
1
10
60.5943381063626
20
-2.09646626720436
30
0
41
1
10
60.6543170306344
20
-2.18710951399865
30
0
41
1
10
60.7735954330885
20
-2.37343676912215
30
0
41
1
10
60.8327666505911
20
-2.46888647879695
30
0
41
1
10
60.8915604250663
20
-2.56646193852774
30
0
0
SPLINE
5
1F8
100
AcDbEntity
8
1
62
256
6
ByLayer
370
18
48
1
60
0
100
AcDbSpline
70
4
71
3
72
8
73
4
40
0
40
0
40
0
40
0
40
1
40
1
40
1
40
1
41
1
10
60.9955495905783
20
-2.6450120595606
30
0
41
1
10
60.9608749836829
20
-2.61911404700396
30
0
41
1
10
60.9262127488445
20
-2.59293002138307
30
0
41
1
10
60.8915604250662
20
-2.56646193852774
30
0
0
SPLINE
5
1F9
100
AcDbEntity
8
1
62
256
6
ByLayer
370
18
48
1
60
0
100
AcDbSpline
70
4
71
3
72
10
73
6
40
0
40
0
40
0
40
0
40
0.5
40
0.5
40
1
40
1
40
1
40
1
41
1
10
60.9955495905776
20
-2.64501205955162
30
0
41
1
10
61.0557114281903
20
-2.634957705289
30
0
41
1
10
61.1162813489647
20
-2.6202149350066
30
0
41
1
10
61.2383444258343
20
-2.5812897506012
30
0
41
1
10
61.2997884317765
20
-2.55715214406018
30
0
41
1
10
61.361687596583
20
-2.52820286610591
30
0
0
SPLINE
5
1FA
100
AcDbEntity
8
1
62
256
6
ByLayer
370
18
48
1
60
0
100
AcDbSpline
70
4
71
3
72
29
73
25
40
0
40
0
40
0
40
0
40
0.124999999999965
40
0.124999999999965
40
0.24999999999993
40
0.24999999999993
40
0.374999999999894
40
0.374999999999894
40
0.437499999999913
40
0.437499999999913
40
0.499999999999932
40
0.499999999999932
40
0.62499999999989
40
0.62499999999989
40
0.687499999999908
40
0.687499999999908
40
0.749999999999927
40
0.812499999999945
40
0.812499999999945
40
0.874999999999963
40
0.874999999999963
40
0.937499999999982
40
0.937499999999982
40
1
40
1
40
1
40
1
41
1
10
61.3616875965831
20
-2.52820286610662
30
0
41
1
10
61.3694045527132
20
-2.52459376558534
30
0
41
1
10
61.3784051689731
20
-2.52284849201905
30
0
41
1
10
61.3983234873578
20
-2.52211338874494
30
0
41
1
10
61.4093741829329
20
-2.52318284588352
30
0
41
1
10
61.4323273117666
20
-2.52769369858135
30
0
41
1
10
61.4442966474862
20
-2.53111544193268
30
0
41
1
10
61.4629231753116
20
-2.53789314341731
30
0
41
1
10
61.4692695775637
20
-2.54044087831019
30
0
41
1
10
61.482074983439
20
-2.546061798289
30
0
41
1
10
61.4884999011174
20
-2.5491180939421
30
0
41
1
10
61.5078323022322
20
-2.55902320145464
30
0
41
1
10
61.5207966443534
20
-2.56659584423889
30
0
41
1
10
61.5403370238818
20
-2.57960200283696
30
0
41
1
10
61.5469004667885
20
-2.58424199279557
30
0
41
1
10
61.5598096781114
20
-2.59396355683725
30
0
41
1
10
61.5725308157627
20
-2.60414053506929
30
0
41
1
10
61.5848335808977
20
-2.61531153228532
30
0
41
1
10
61.5968919413176
20
-2.62705659225316
30
0
41
1
10
61.6028025815203
20
-2.63322806950808
30
0
41
1
10
61.6139859174986
20
-2.64586500615906
30
0
41
1
10
61.6193028433808
20
-2.65237015445644
30
0
41
1
10
61.6292994789339
20
-2.66581324025614
30
0
41
1
10
61.6339928532244
20
-2.67278188975419
30
0
41
1
10
61.6381774220336
20
-2.67981707572687
30
0
0
SPLINE
5
1FB
100
AcDbEntity
8
1
62
256
6
ByLayer
370
18
48
1
60
0
100
AcDbSpline
70
4
71
3
72
10
73
6
40
0
40
0
40
0
40
0
40
0.5
40
0.5
40
1
40
1
40
1
40
1
41
1
10
61.6381774220336
20
-2.67981707572591
30
0
41
1
10
61.6986529663164
20
-2.78148984542284
30
0
41
1
10
61.7586524127337
20
-2.88473551376154
30
0
41
1
10
61.8779359711404
20
-3.09421732237573
30
0
41
1
10
61.9370996898445
20
-3.20016075989767
30
0
41
1
10
61.9958948776234
20
-3.30712616095477
30
0
0
SPLINE
5
1FC
100
AcDbEntity
8
1
62
256
6
ByLayer
370
18
48
1
60
0
100
AcDbSpline
70
4
71
3
72
8
73
4
40
0
40
0
40
0
40
0
40
1
40
1
40
1
40
1
41
1
10
62.099940506228
20
-3.36504326734243
30
0
41
1
10
62.0652344334454
20
-3.34611482887479
30
0
41
1
10
62.0305532958747
20
-3.32680894479395
30
0
41
1
10
61.9958948776234
20
-3.3071261609548
30
0
0
SPLINE
5
1FD
100
AcDbEntity
8
1
62
256
6
ByLayer
370
18
48
1
60
0
100
AcDbSpline
70
4
71
3
72
10
73
6
40
0
40
0
40
0
40
0
40
0.5
40
0.5
40
1
40
1
40
1
40
1
41
1
10
62.099940506228
20
-3.36504326734288
30
0
41
1
10
62.160060708419
20
-3.32235873008278
30
0
41
1
10
62.2206123143053
20
-3.27526356463056
30
0
41
1
10
62.3426851546602
20
-3.17232954087169
30
0
41
1
10
62.4041546728617
20
-3.11655737867849
30
0
41
1
10
62.4660977990875
20
-3.05646048564992
30
0
0
SPLINE
5
1FE
100
AcDbEntity
8
1
62
256
6
ByLayer
370
18
48
1
60
0
100
AcDbSpline
70
4
71
3
72
10
73
6
40
0
40
0
40
0
40
0
40
0.5
40
0.5
40
1
40
1
40
1
40
1
41
1
10
65.9999999999967
20
-1.43027029884359
30
0
41
1
10
66.0072035017602
20
-1.44324484686803
30
0
41
1
10
66.0112292711952
20
-1.45685364206497
30
0
41
1
10
66.0116609642022
20
-1.48641639235459
30
0
41
1
10
66.0080643153247
20
-1.50236870658657
30
0
41
1
10
65.9999999999983
20
-1.52019729892982
30
0
0
SPLINE
5
1FF
100
AcDbEntity
8
1
62
256
6
ByLayer
370
18
48
1
60
0
100
AcDbSpline
70
4
71
3
72
27
73
23
40
0
40
0
40
0
40
0
40
0.125000000000001
40
0.125000000000001
40
0.250000000000001
40
0.250000000000001
40
0.375000000000002
40
0.375000000000002
40
0.406250000000002
40
0.406250000000002
40
0.437500000000001
40
0.500000000000001
40
0.500000000000001
40
0.625
40
0.625
40
0.75
40
0.75
40
0.8125
40
0.8125
40
0.875
40
0.875
40
1
40
1
40
1
40
1
41
1
10
62.9705374611592
20
0.488461155923744
30
0
41
1
10
62.9637018301726
20
0.622453002806566
30
0
41
1
10
62.9570421214959
20
0.754632985137448
30
0
41
1
10
62.9444436888428
20
1.0154885765925
30
0
41
1
10
62.9385047146253
20
1.14416382337387
30
0
41
1
10
62.9271893879304
20
1.39799664594312
30
0
41
1
10
62.9218192261311
20
1.52315466210916
30
0
41
1
10
62.9150044184924
20
1.67731403017146
30
0
41
1
10
62.9136325253259
20
1.7080735904575
30
0
41
1
10
62.9108739249013
20
1.76907187865837
30
0
41
1
10
62.9067127495834
20
1.85982895161044
30
0
41
1
10
62.9024279287185
20
1.9483890653305
30
0
41
1
10
62.8936081124139
20
2.1226250637755
30
0
41
1
10
62.8873740991734
20
2.23494301532423
30
0
41
1
10
62.8742377139625
20
2.45198439234818
30
0
41
1
10
62.8673336629119
20
2.55670823154313
30
0
41
1
10
62.8570142097182
20
2.70800695012485
30
0
41
1
10
62.8535859412982
20
2.75747371143504
30
0
41
1
10
62.8469124214842
20
2.85443818105602
30
0
41
1
10
62.8437111683736
20
2.90167806901124
30
0
41
1
10
62.8343656255975
20
3.03943925116272
30
0
41
1
10
62.8284017532569
20
3.12612336801467
30
0
41
1
10
62.8224075313596
20
3.20762471295376
30
0
0
SPLINE
5
200
100
AcDbEntity
8
1
62
256
6
ByLayer
370
18
48
1
60
0
100
AcDbSpline
70
4
71
3
72
28
73
24
40
0
40
0
40
0
40
0
40
0.124999999999999
40
0.124999999999999
40
0.249999999999999
40
0.249999999999999
40
0.312499999999998
40
0.312499999999998
40
0.343749999999998
40
0.343749999999998
40
0.374999999999998
40
0.499999999999998
40
0.624999999999998
40
0.624999999999998
40
0.749999999999998
40
0.749999999999998
40
0.781249999999998
40
0.781249999999998
40
0.812499999999998
40
0.812499999999998
40
0.874999999999999
40
0.874999999999999
40
1
40
1
40
1
40
1
41
1
10
62.9705374611592
20
0.488461155923744
30
0
41
1
10
62.9651984842022
20
0.620862252267358
30
0
41
1
10
62.9598862171544
20
0.751829951684982
30
0
41
1
10
62.9490814680496
20
1.01096226849884
30
0
41
1
10
62.9435640741426
20
1.13912738719404
30
0
41
1
10
62.9351119986733
20
1.32923420215167
30
0
41
1
10
62.9322702045444
20
1.3922453650768
30
0
41
1
10
62.9279846918272
20
1.48621178112703
30
0
41
1
10
62.9265503462055
20
1.51748619049823
30
0
41
1
10
62.9236893107645
20
1.57956950339812
30
0
41
1
10
62.9165527348483
20
1.73364730982982
30
0
41
1
10
62.9039502502425
20
2.00089263964105
30
0
41
1
10
62.8931713548027
20
2.22427204517533
30
0
41
1
10
62.8824378259067
20
2.4405550903108
30
0
41
1
10
62.8770693807676
20
2.54515100491511
30
0
41
1
10
62.8702532423821
20
2.67138446185763
30
0
41
1
10
62.8688857506416
20
2.69639753017546
30
0
41
1
10
62.8661513507695
20
2.74574949481905
30
0
41
1
10
62.8647829187169
20
2.77011678902656
30
0
41
1
10
62.8606690351324
20
2.84230427327759
30
0
41
1
10
62.8579105032349
20
2.88921642382948
30
0
41
1
10
62.8496090764334
20
3.02630390099162
30
0
41
1
10
62.8440590734422
20
3.1128198043227
30
0
41
1
10
62.8385117207016
20
3.19433082977309
30
0
0
SPLINE
5
201
100
AcDbEntity
8
1
62
256
6
ByLayer
370
18
48
1
60
0
100
AcDbSpline
70
4
71
3
72
8
73
4
40
0
40
0
40
0
40
0
40
1
40
1
40
1
40
1
41
1
10
62.8224075313597
20
3.20762471295373
30
0
41
1
10
62.82777425024
20
3.20320044924731
30
0
41
1
10
62.8331423105518
20
3.19876915115321
30
0
41
1
10
62.8385117207014
20
3.19433082977304
30
0
0
SPLINE
5
202
100
AcDbEntity
8
1
62
256
6
ByLayer
370
18
48
1
60
0
100
AcDbSpline
70
4
71
3
72
93
73
89
40
0
40
0
40
0
40
0
40
0.0625000000000177
40
0.0625000000000177
40
0.125000000000035
40
0.125000000000035
40
0.156250000000047
40
0.156250000000047
40
0.187500000000058
40
0.187500000000058
40
0.203125000000064
40
0.203125000000064
40
0.218750000000069
40
0.218750000000069
40
0.250000000000081
40
0.250000000000081
40
0.312500000000106
40
0.312500000000106
40
0.343750000000117
40
0.343750000000117
40
0.359375000000123
40
0.359375000000123
40
0.375000000000129
40
0.375000000000129
40
0.406250000000143
40
0.406250000000143
40
0.421875000000148
40
0.421875000000148
40
0.437500000000154
40
0.437500000000154
40
0.468750000000163
40
0.468750000000163
40
0.484375000000166
40
0.484375000000166
40
0.492187500000167
40
0.492187500000167
40
0.500000000000169
40
0.500000000000169
40
0.51562500000017
40
0.51562500000017
40
0.523437500000169
40
0.523437500000169
40
0.531250000000169
40
0.531250000000169
40
0.546875000000168
40
0.546875000000168
40
0.554687500000167
40
0.558593750000167
40
0.558593750000167
40
0.562500000000167
40
0.562500000000167
40
0.578125000000163
40
0.578125000000163
40
0.585937500000161
40
0.585937500000161
40
0.593750000000159
40
0.593750000000159
40
0.609375000000155
40
0.609375000000155
40
0.625000000000151
40
0.625000000000151
40
0.632812500000149
40
0.632812500000149
40
0.640625000000147
40
0.640625000000147
40
0.656250000000143
40
0.656250000000143
40
0.687500000000137
40
0.687500000000137
40
0.695312500000135
40
0.695312500000135
40
0.703125000000132
40
0.703125000000132
40
0.718750000000126
40
0.718750000000126
40
0.750000000000112
40
0.750000000000112
40
0.781250000000098
40
0.781250000000098
40
0.812500000000084
40
0.812500000000084
40
0.84375000000007
40
0.84375000000007
40
0.875000000000056
40
0.875000000000056
40
0.937500000000028
40
0.937500000000028
40
1
40
1
40
1
40
1
41
1
10
40.2862912750415
20
-1.30608059869047
30
0
41
1
10
40.1498159787502
20
-1.22609063354454
30
0
41
1
10
40.011156498636
20
-1.1486141279035
30
0
41
1
10
39.7278070652757
20
-1.00295125225062
30
0
41
1
10
39.5831014270882
20
-0.934798227392008
30
0
41
1
10
39.3602501476551
20
-0.842911753340957
30
0
41
1
10
39.285007001528
20
-0.813995317258616
30
0
41
1
10
39.1322934617048
20
-0.760351964113084
30
0
41
1
10
39.0548062494132
20
-0.735661509665903
30
0
41
1
10
38.937176345899
20
-0.701316203800644
30
0
41
1
10
38.8977079018616
20
-0.690317043468383
30
0
41
1
10
38.8187354255845
20
-0.669242277530032
30
0
41
1
10
38.7791846582525
20
-0.659135987834503
30
0
41
1
10
38.6603455598674
20
-0.630073238274917
30
0
41
1
10
38.5808353835684
20
-0.612615163197489
30
0
41
1
10
38.3414098414497
20
-0.566363786790106
30
0
41
1
10
38.1805956470038
20
-0.543724882651304
30
0
41
1
10
37.9372327001883
20
-0.524681162728854
30
0
41
1
10
37.8557526296493
20
-0.520832778068097
30
0
41
1
10
37.732924377972
20
-0.519305010805908
30
0
41
1
10
37.6918806238631
20
-0.519500620332934
30
0
41
1
10
37.6095725883883
20
-0.521430577686459
30
0
41
1
10
37.5684234135536
20
-0.523172376265023
30
0
41
1
10
37.4453987993794
20
-0.530854749654708
30
0
41
1
10
37.3637770119765
20
-0.53919884245758
30
0
41
1
10
37.2420677221472
20
-0.557591922016229
30
0
41
1
10
37.2016190312783
20
-0.564706275205566
30
0
41
1
10
37.1209944592012
20
-0.581141759671965
30
0
41
1
10
37.080812030926
20
-0.590472173665944
30
0
41
1
10
36.9619534728736
20
-0.621863246810335
30
0
41
1
10
36.884550693974
20
-0.647331776204396
30
0
41
1
10
36.7719806758438
20
-0.694127561186548
30
0
41
1
10
36.7350552098463
20
-0.711179401466978
30
0
41
1
10
36.6807562112736
20
-0.73937956055417
30
0
41
1
10
36.6628387905582
20
-0.749218298044099
30
0
41
1
10
36.6274119781894
20
-0.769872939435402
30
0
41
1
10
36.6099438048851
20
-0.780669070411477
30
0
41
1
10
36.5588395395774
20
-0.814265505883128
30
0
41
1
10
36.5263122668551
20
-0.838372913131195
30
0
41
1
10
36.480255491249
20
-0.877512470918191
30
0
41
1
10
36.4653604220437
20
-0.891056862965002
30
0
41
1
10
36.4365782924325
20
-0.919233254229283
30
0
41
1
10
36.4226470923023
20
-0.933923753312854
30
0
41
1
10
36.3832156919999
20
-0.978971697033529
30
0
41
1
10
36.3598887731656
20
-1.01049283320688
30
0
41
1
10
36.3295835775752
20
-1.06003851231483
30
0
41
1
10
36.3156003006362
20
-1.08537593873731
30
0
41
1
10
36.3034332656744
20
-1.11157198504313
30
0
41
1
10
36.2957346483696
20
-1.12922908546204
30
0
41
1
10
36.2920819817797
20
-1.13818045680082
30
0
41
1
10
36.2750111872369
20
-1.18305826371037
30
0
41
1
10
36.2651703575336
20
-1.21923822172477
30
0
41
1
10
36.2555687000277
20
-1.27377662208838
30
0
41
1
10
36.2532321714931
20
-1.29200154348203
30
0
41
1
10
36.250217600756
20
-1.32852185940283
30
0
41
1
10
36.2495430683672
20
-1.346897865725
30
0
41
1
10
36.2498918082438
20
-1.40131199240486
30
0
41
1
10
36.2532271619065
20
-1.43672594776757
30
0
41
1
10
36.2649275766907
20
-1.50603169188585
30
0
41
1
10
36.2733025168928
20
-1.53992203115965
30
0
41
1
10
36.2890500246128
20
-1.58971739775933
30
0
41
1
10
36.2948468962576
20
-1.60617437904912
30
0
41
1
10
36.3072906815544
20
-1.63842376473181
30
0
41
1
10
36.3139472294428
20
-1.65425399993418
30
0
41
1
10
36.3350756014915
20
-1.70093961332233
30
0
41
1
10
36.3507000013878
20
-1.73099319923378
30
0
41
1
10
36.4013180744255
20
-1.81841506027894
30
0
41
1
10
36.4400113747006
20
-1.87306930116233
30
0
41
1
10
36.4927891650747
20
-1.93781460011815
30
0
41
1
10
36.5035781362543
20
-1.9505919682106
30
0
41
1
10
36.5254585462813
20
-1.97567248916306
30
0
41
1
10
36.5365627606245
20
-1.98799201179924
30
0
41
1
10
36.5703241524477
20
-2.02433156235557
30
0
41
1
10
36.5934191136467
20
-2.04773911553659
30
0
41
1
10
36.6643227066829
20
-2.11571087334539
30
0
41
1
10
36.7137274924565
20
-2.15804430741227
30
0
41
1
10
36.8158246422192
20
-2.23776844263816
30
0
41
1
10
36.8685216245104
20
-2.2751537071951
30
0
41
1
10
36.9765175850017
20
-2.34564317034054
30
0
41
1
10
37.0318368623674
20
-2.37875442508604
30
0
41
1
10
37.1445020543315
20
-2.44109618210456
30
0
41
1
10
37.2014710606996
20
-2.47012606850197
30
0
41
1
10
37.3162847404251
20
-2.52440839213159
30
0
41
1
10
37.3741417208116
20
-2.54965219778688
30
0
41
1
10
37.5487611553936
20
-2.62012396822158
30
0
41
1
10
37.6665446191666
20
-2.66012653147803
30
0
41
1
10
37.9041265848637
20
-2.72725790122246
30
0
41
1
10
38.0239324153426
20
-2.75436667037042
30
0
41
1
10
38.1448074144806
20
-2.77510131462162
30
0
0
SPLINE
5
203
100
AcDbEntity
8
1
62
256
6
ByLayer
370
18
48
1
60
0
100
AcDbSpline
70
4
71
3
72
24
73
20
40
0
40
0
40
0
40
0
40
0.0330375347100862
40
0.0330375347100862
40
0.127973153017589
40
0.127973153017589
40
0.317844389632593
40
0.317844389632593
40
0.412780007940094
40
0.412780007940094
40
0.507715626247594
40
0.507715626247594
40
0.6975868628626
40
0.6975868628626
40
0.887458099477605
40
0.887458099477605
40
0.982393717785111
40
0.982393717785111
40
1
40
1
40
1
40
1
41
1
10
38.14480752592
20
-2.77510026351112
30
0
41
1
10
38.147952108687
20
-2.74544022592218
30
0
41
1
10
38.1516114458505
20
-2.71568066546453
30
0
41
1
10
38.1678668313783
20
-2.60000268807781
30
0
41
1
10
38.1852027697922
20
-2.51301528620883
30
0
41
1
10
38.2464400725442
20
-2.25723107528694
30
0
41
1
10
38.2987151229384
20
-2.08940519834184
30
0
41
1
10
38.3974193190353
20
-1.84804944000894
30
0
41
1
10
38.433324359579
20
-1.77024528165276
30
0
41
1
10
38.5116978046081
20
-1.62042268126302
30
0
41
1
10
38.5544726505743
20
-1.54792799650986
30
0
41
1
10
38.6921897060375
20
-1.34398990403116
30
0
41
1
10
38.7946490647832
20
-1.22821674785121
30
0
41
1
10
39.0191933178447
20
-1.04023262789198
30
0
41
1
10
39.1351004056814
20
-0.973140876416721
30
0
41
1
10
39.3138655694392
20
-0.908798937890055
30
0
41
1
10
39.3743440317936
20
-0.893611091804559
30
0
41
1
10
39.4445536774405
20
-0.883190588180327
30
0
41
1
10
39.4555128617597
20
-0.881772949090077
30
0
41
1
10
39.4664477217495
20
-0.880565883444007
30
0
0
SPLINE
5
204
100
AcDbEntity
8
SK1
62
256
6
ByLayer
370
18
48
1
60
0
100
AcDbSpline
70
4
71
3
72
25
73
21
40
0
40
0
40
0
40
0
40
0.0625082014576385
40
0.0625082014576385
40
0.125016402915277
40
0.125016402915277
40
0.250032805830554
40
0.250032805830554
40
0.50006561166111
40
0.50006561166111
40
0.625082014576388
40
0.625082014576388
40
0.687590216034027
40
0.718844316762846
40
0.718844316762846
40
0.750098417491665
40
0.750098417491665
40
0.875114820406944
40
0.875114820406944
40
1
40
1
40
1
40
1
41
1
10
-22.8
20
3.09999999999997
30
0
41
1
10
-22.8255580387326
20
3.09999999999997
30
0
41
1
10
-22.8507859698115
20
3.09999999999997
30
0
41
1
10
-22.900515272324
20
3.09999999999997
30
0
41
1
10
-22.9250377452358
20
3.09999999999997
30
0
41
1
10
-22.9972279312134
20
3.09999999999997
30
0
41
1
10
-23.0434983576829
20
3.09999999999997
30
0
41
1
10
-23.1757222997548
20
3.09999999999997
30
0
41
1
10
-23.2551635800205
20
3.09999999999997
30
0
41
1
10
-23.3559652856179
20
3.09999999999997
30
0
41
1
10
-23.386487399267
20
3.09999999999997
30
0
41
1
10
-23.4268208094404
20
3.09999999999997
30
0
41
1
10
-23.4456232733698
20
3.09999999999997
30
0
41
1
10
-23.4622079504984
20
3.09999999999997
30
0
41
1
10
-23.4727515433793
20
3.09999999999997
30
0
41
1
10
-23.4777720281785
20
3.09999999999997
30
0
41
1
10
-23.5014388703221
20
3.09999999999997
30
0
41
1
10
-23.5158360601473
20
3.09999999999997
30
0
41
1
10
-23.5351008121296
20
3.09999999999999
30
0
41
1
10
-23.5399770631821
20
3.09999999999994
30
0
41
1
10
-23.5400000000041
20
3.09999999999994
30
0
0
SPLINE
5
205
100
AcDbEntity
8
SK1
62
256
6
ByLayer
370
18
48
1
60
0
100
AcDbSpline
70
4
71
3
72
25
73
21
40
0
40
0
40
0
40
0
40
0.124885187144057
40
0.124885187144057
40
0.249901588980621
40
0.249901588980621
40
0.281155689439761
40
0.281155689439761
40
0.312409789898902
40
0.374917990817184
40
0.374917990817184
40
0.499934392653747
40
0.499934392653747
40
0.749967196326874
40
0.749967196326874
40
0.874983598163437
40
0.874983598163437
40
0.937491799081719
40
0.937491799081719
40
1
40
1
40
1
40
1
41
1
10
-23.5400000000088
20
-3.10000000000005
30
0
41
1
10
-23.5399770638559
20
-3.10000000000005
30
0
41
1
10
-23.5351008127947
20
-3.10000000000002
30
0
41
1
10
-23.5158360601473
20
-3.10000000000002
30
0
41
1
10
-23.5014388703221
20
-3.10000000000002
30
0
41
1
10
-23.4777720281785
20
-3.10000000000002
30
0
41
1
10
-23.4727515433793
20
-3.10000000000002
30
0
41
1
10
-23.4622079504984
20
-3.10000000000002
30
0
41
1
10
-23.4456232733698
20
-3.10000000000002
30
0
41
1
10
-23.4268208094403
20
-3.10000000000002
30
0
41
1
10
-23.3864873992669
20
-3.10000000000002
30
0
41
1
10
-23.3559652856179
20
-3.10000000000002
30
0
41
1
10
-23.2551635800205
20
-3.10000000000002
30
0
41
1
10
-23.1757222997547
20
-3.10000000000002
30
0
41
1
10
-23.0434983576829
20
-3.10000000000002
30
0
41
1
10
-22.9972279312133
20
-3.10000000000002
30
0
41
1
10
-22.9250377452358
20
-3.10000000000002
30
0
41
1
10
-22.9005152723239
20
-3.10000000000002
30
0
41
1
10
-22.8507859698115
20
-3.10000000000002
30
0
41
1
10
-22.8255580387326
20
-3.10000000000002
30
0
41
1
10
-22.8
20
-3.10000000000002
30
0
0
SPLINE
5
206
100
AcDbEntity
8
SK1
62
256
6
ByLayer
370
18
48
1
60
0
100
AcDbSpline
70
4
71
3
72
42
73
38
40
0
40
0
40
0
40
0
40
0.0624999999999998
40
0.0624999999999998
40
0.0937499999999997
40
0.0937499999999997
40
0.125
40
0.125
40
0.25
40
0.25
40
0.375
40
0.375
40
0.390625
40
0.390625
40
0.40625
40
0.40625
40
0.4375
40
0.4375
40
0.5
40
0.5625
40
0.5625
40
0.624999999999999
40
0.624999999999999
40
0.640624999999999
40
0.640624999999999
40
0.656249999999999
40
0.687499999999999
40
0.687499999999999
40
0.75
40
0.75
40
0.875
40
0.875
40
0.9375
40
0.9375
40
0.96875
40
0.96875
40
1
40
1
40
1
40
1
41
1
10
-22.8
20
-2.26618622359246
30
0
41
1
10
-22.8508894316494
20
-2.17995526185629
30
0
41
1
10
-22.9004658050821
20
-2.09275503916427
30
0
41
1
10
-22.9724426999165
20
-1.96019220081689
30
0
41
1
10
-22.996036028223
20
-1.91571008013594
30
0
41
1
10
-23.0423408985636
20
-1.82609493008272
30
0
41
1
10
-23.0650757832331
20
-1.78091234802616
30
0
41
1
10
-23.1758387500034
20
-1.55417609606832
30
0
41
1
10
-23.2554566958293
20
-1.36974721051177
30
0
41
1
10
-23.3897816515624
20
-0.992468314566707
30
0
41
1
10
-23.444474755522
20
-0.799613603282126
30
0
41
1
10
-23.486994699949
20
-0.57622580404788
30
0
41
1
10
-23.4914541484178
20
-0.551315357845539
30
0
41
1
10
-23.4998243597224
20
-0.501308982638278
30
0
41
1
10
-23.5037398055586
20
-0.476178764178911
30
0
41
1
10
-23.5145929273497
20
-0.400801949397191
30
0
41
1
10
-23.5206393479445
20
-0.350580412204295
30
0
41
1
10
-23.5351619313951
20
-0.200006058842433
30
0
41
1
10
-23.5448636827396
20
0.0005186273750724
30
0
41
1
10
-23.535110928051
20
0.200557804829629
30
0
41
1
10
-23.5158360601473
20
0.400359347393845
30
0
41
1
10
-23.5014388703221
20
0.500141333692056
30
0
41
1
10
-23.4777720281785
20
0.62472730657376
30
0
41
1
10
-23.4727515433793
20
0.649653694457953
30
0
41
1
10
-23.4622079504984
20
0.69924920209607
30
0
41
1
10
-23.4456232733698
20
0.773343264923909
30
0
41
1
10
-23.4268208094403
20
0.846574765308077
30
0
41
1
10
-23.386487399267
20
0.991976579143682
30
0
41
1
10
-23.3559652856179
20
1.08749807377382
30
0
41
1
10
-23.2551635800205
20
1.37047065302403
30
0
41
1
10
-23.1757222997547
20
1.55435848789429
30
0
41
1
10
-23.0434983576829
20
1.82511003621912
30
0
41
1
10
-22.9972279312134
20
1.91450654932038
30
0
41
1
10
-22.9250377452358
20
2.04751832711881
30
0
41
1
10
-22.9005152723239
20
2.09166174892783
30
0
41
1
10
-22.8507859698115
20
2.17932232815221
30
0
41
1
10
-22.8255580387326
20
2.22287871968496
30
0
41
1
10
-22.8
20
2.26618622359243
30
0
0
SPLINE
5
207
100
AcDbEntity
8
1
62
256
6
ByLayer
370
18
48
1
60
0
100
AcDbSpline
70
4
71
2
72
6
73
3
40
0
40
0
40
0
40
1
40
1
40
1
41
1
10
55.3868974494895
20
-3.4070418950719
30
0
41
1
10
55.5211486844462
20
-3.63858620890443
30
0
41
1
10
55.6552439793215
20
-3.87022367195687
30
0
0
SPLINE
5
208
100
AcDbEntity
8
1
62
256
6
ByLayer
370
18
48
1
60
0
100
AcDbSpline
70
4
71
2
72
6
73
3
40
0
40
0
40
0
40
1
40
1
40
1
41
1
10
63.3310942396326
20
-3.90027650263914
30
0
41
1
10
63.474531676641
20
-3.65268763392109
30
0
41
1
10
63.6183549353175
20
-3.40472756900317
30
0
0
SPLINE
5
209
100
AcDbEntity
8
1
62
256
6
ByLayer
370
18
48
1
60
0
100
AcDbSpline
70
4
71
1
72
4
73
2
40
0
40
0
40
1
40
1
41
1
10
60.9956070281293
20
-3.95450960044275
30
0
41
1
10
61.0294246678718
20
-4.01290300763819
30
0
0
SPLINE
5
20A
100
AcDbEntity
8
1
62
256
6
ByLayer
370
18
48
1
60
0
100
AcDbSpline
70
4
71
2
72
6
73
3
40
0
40
0
40
0
40
1
40
1
40
1
41
1
10
64.5868487685076
20
-3.55944405883432
30
0
41
1
10
64.6310995954255
20
-3.48314425402441
30
0
41
1
10
64.6753680625509
20
-3.40685514940839
30
0
0
SPLINE
5
20B
100
AcDbEntity
8
1
62
256
6
ByLayer
370
18
48
1
60
0
100
AcDbSpline
70
4
71
2
72
6
73
3
40
0
40
0
40
0
40
1
40
1
40
1
41
1
10
55.865530811101
20
-3.99509235213597
30
0
41
1
10
56.0376743243119
20
-3.69877996759988
30
0
41
1
10
56.2098726335289
20
-3.40296803199902
30
0
0
SPLINE
5
20C
100
AcDbEntity
8
1
62
256
6
ByLayer
370
18
48
1
60
0
100
AcDbSpline
70
4
71
1
72
4
73
2
40
0
40
0
40
1
40
1
41
1
10
66
20
3.01544032312731
30
0
41
1
10
65.7888085514427
20
3.22660342148728
30
0
0
SPLINE
5
20D
100
AcDbEntity
8
1
62
256
6
ByLayer
370
18
48
1
60
0
100
AcDbSpline
70
4
71
2
72
6
73
3
40
0
40
0
40
0
40
1
40
1
40
1
41
1
10
57.3202884125274
20
4.00224996017724
30
0
41
1
10
57.1454381390438
20
3.70068739650188
30
0
41
1
10
56.9705299118387
20
3.39953042564207
30
0
0
SPLINE
5
20E
100
AcDbEntity
8
1
62
256
6
ByLayer
370
18
48
1
60
0
100
AcDbSpline
70
4
71
1
72
4
73
2
40
0
40
0
40
1
40
1
41
1
10
64.0490546264381
20
-3.70412635729644
30
0
41
1
10
64.5873941456424
20
-3.55902556010088
30
0
0
SPLINE
5
20F
100
AcDbEntity
8
1
62
256
6
ByLayer
370
18
48
1
60
0
100
AcDbSpline
70
4
71
2
72
6
73
3
40
0
40
0
40
0
40
1
40
1
40
1
41
1
10
63.8533025592783
20
-3.40686293184663
30
0
41
1
10
63.9397462110157
20
-3.55591957524868
30
0
41
1
10
64.0261353989136
20
-3.70501119727422
30
0
0
SPLINE
5
210
100
AcDbEntity
8
1
62
256
6
ByLayer
370
18
48
1
60
0
100
AcDbSpline
70
4
71
2
72
6
73
3
40
0
40
0
40
0
40
1
40
1
40
1
41
1
10
57.7963392397172
20
3.4071087237198
30
0
41
1
10
57.6206141786974
20
3.70996054928997
30
0
41
1
10
57.4451259280727
20
4.0129526746662
30
0
0
SPLINE
5
211
100
AcDbEntity
8
1
62
256
6
ByLayer
370
18
48
1
60
0
100
AcDbSpline
70
4
71
3
72
11
73
7
40
0
40
0
40
0
40
0
40
0.244142216104637
40
0.500456927053919
40
0.756500487618711
40
1
40
1
40
1
40
1
41
1
10
55.1486321551582
20
-3.41025495086527
30
0
41
1
10
55.1595819423967
20
-3.39017302763782
30
0
41
1
10
55.189684541951
20
-3.35926417070667
30
0
41
1
10
55.2710001298668
20
-3.333554360829
30
0
41
1
10
55.3523786169622
20
-3.36187970745777
30
0
41
1
10
55.3824992305661
20
-3.3947445724566
30
0
41
1
10
55.393471212115
20
-3.41578861019909
30
0
0
SPLINE
5
212
100
AcDbEntity
8
1
62
256
6
ByLayer
370
18
48
1
60
0
100
AcDbSpline
70
4
71
3
72
11
73
7
40
0
40
0
40
0
40
0
40
0.244077055446724
40
0.500503088858054
40
0.756622550262243
40
1
40
1
40
1
40
1
41
1
10
63.6150304371837
20
-3.41029029552462
30
0
41
1
10
63.6260074678282
20
-3.39017031755506
30
0
41
1
10
63.6561592365315
20
-3.35918498177139
30
0
41
1
10
63.7374933562117
20
-3.33345495185603
30
0
41
1
10
63.8189027603902
20
-3.36176254390705
30
0
41
1
10
63.8490727800064
20
-3.3947115443525
30
0
41
1
10
63.8600733650748
20
-3.41580015998758
30
0
0
SPLINE
5
213
100
AcDbEntity
8
1
62
256
6
ByLayer
370
18
48
1
60
0
100
AcDbSpline
70
4
71
3
72
11
73
7
40
0
40
0
40
0
40
0
40
0.244771317629069
40
0.499600462165222
40
0.754665818806881
40
1
40
1
40
1
40
1
41
1
10
58.0334863211758
20
3.40847310092389
30
0
41
1
10
58.0229038112521
20
3.38904535429478
30
0
41
1
10
57.9934707637492
20
3.35931961752485
30
0
41
1
10
57.9124837266157
20
3.33377125471819
30
0
41
1
10
57.8315522203829
20
3.36200699826773
30
0
41
1
10
57.8021340489334
20
3.39358975397749
30
0
41
1
10
57.7915710033455
20
3.41396306930079
30
0
0
SPLINE
5
214
100
AcDbEntity
8
1
62
256
6
ByLayer
370
18
48
1
60
0
100
AcDbSpline
70
4
71
2
72
6
73
3
40
0
40
0
40
0
40
1
40
1
40
1
41
1
10
54.7993899692032
20
-4.0129192905413
30
0
41
1
10
54.9748830399299
20
-3.70994056075122
30
0
41
1
10
55.1506066413487
20
-3.40709963929333
30
0
0
SPLINE
5
215
100
AcDbEntity
8
1
62
256
6
ByLayer
370
18
48
1
60
0
100
AcDbSpline
70
4
71
1
72
4
73
2
40
0
40
0
40
1
40
1
41
1
10
63.1267369527002
20
-3.95864681148871
30
0
41
1
10
63.3269567126158
20
-3.90458111960882
30
0
0
SPLINE
5
216
100
AcDbEntity
8
1
62
256
6
ByLayer
370
18
48
1
60
0
100
AcDbSpline
70
4
71
2
72
6
73
3
40
0
40
0
40
0
40
1
40
1
40
1
41
1
10
62.7935654286668
20
-3.40445702967003
30
0
41
1
10
62.952899881639
20
-3.67939649109522
30
0
41
1
10
63.1117470495647
20
-3.95381181897
30
0
0
SPLINE
5
217
100
AcDbEntity
8
1
62
256
6
ByLayer
370
18
48
1
60
0
100
AcDbSpline
70
4
71
2
72
6
73
3
40
0
40
0
40
0
40
1
40
1
40
1
41
1
10
54.3270703665471
20
-3.40430019273117
30
0
41
1
10
54.5035526473426
20
-3.7088134635917
30
0
41
1
10
54.6795440429326
20
-4.01287713381114
30
0
0
SPLINE
5
218
100
AcDbEntity
8
1
62
256
6
ByLayer
370
18
48
1
60
0
100
AcDbSpline
70
4
71
2
72
6
73
3
40
0
40
0
40
0
40
1
40
1
40
1
41
1
10
58.3837298817759
20
4.01311547147742
30
0
41
1
10
58.2083356722772
20
3.71010675302995
30
0
41
1
10
58.0327378908232
20
3.40721683241236
30
0
0
SPLINE
5
219
100
AcDbEntity
8
1
62
256
6
ByLayer
370
18
48
1
60
0
100
AcDbSpline
70
4
71
2
72
6
73
3
40
0
40
0
40
0
40
1
40
1
40
1
41
1
10
58.8546704194143
20
3.40703856366295
30
0
41
1
10
58.6789381308016
20
3.70990503566952
30
0
41
1
10
58.5034351936843
20
4.01291866328779
30
0
0
SPLINE
5
21A
100
AcDbEntity
8
1
62
256
6
ByLayer
370
18
48
1
60
0
100
AcDbSpline
70
4
71
3
72
10
73
6
40
0
40
0
40
0
40
0
40
0.467955760562049
40
0.72962168615412
40
1
40
1
40
1
40
1
41
1
10
62.5608379900852
20
-3.40312148130749
30
0
41
1
10
62.5819027981172
20
-3.36631856660225
30
0
41
1
10
62.6259605415458
20
-3.33624869606049
30
0
41
1
10
62.747227266073
20
-3.35075534152597
30
0
41
1
10
62.7811056664338
20
-3.38397860165881
30
0
41
1
10
62.7950289157835
20
-3.40711807237497
30
0
0
SPLINE
5
21B
100
AcDbEntity
8
1
62
256
6
ByLayer
370
18
48
1
60
0
100
AcDbSpline
70
4
71
3
72
10
73
6
40
0
40
0
40
0
40
0
40
0.468377001770345
40
0.729917642375928
40
1
40
1
40
1
40
1
41
1
10
54.0944586203168
20
-3.40308015164771
30
0
41
1
10
54.1154535464586
20
-3.36626524872287
30
0
41
1
10
54.1594508473055
20
-3.33622198405718
30
0
41
1
10
54.2807588399826
20
-3.35066112382793
30
0
41
1
10
54.3146442864838
20
-3.38390063740351
30
0
41
1
10
54.328576022729
20
-3.40704183072086
30
0
0
SPLINE
5
21C
100
AcDbEntity
8
1
62
256
6
ByLayer
370
18
48
1
60
0
100
AcDbSpline
70
4
71
3
72
10
73
6
40
0
40
0
40
0
40
0
40
0.466109674407185
40
0.728267590500051
40
1
40
1
40
1
40
1
41
1
10
59.0891537325325
20
3.40379741441774
30
0
41
1
10
59.0678153562462
20
3.36672106163539
30
0
41
1
10
59.0235248986237
20
3.33615863893016
30
0
41
1
10
58.902413107512
20
3.35068227239972
30
0
41
1
10
58.8685716225746
20
3.383834907389
30
0
41
1
10
58.8546885443672
20
3.40700734663756
30
0
0
SPLINE
5
21D
100
AcDbEntity
8
1
62
256
6
ByLayer
370
18
48
1
60
0
100
AcDbSpline
70
4
71
2
72
6
73
3
40
0
40
0
40
0
40
1
40
1
40
1
41
1
10
53.7410905061032
20
-4.01291219444428
30
0
41
1
10
53.9161407157493
20
-3.71068866996384
30
0
41
1
10
54.0912877768043
20
-3.40874877359281
30
0
0
SPLINE
5
21E
100
AcDbEntity
8
1
62
256
6
ByLayer
370
18
48
1
60
0
100
AcDbSpline
70
4
71
2
72
6
73
3
40
0
40
0
40
0
40
1
40
1
40
1
41
1
10
62.2075934040247
20
-4.01272796760401
30
0
41
1
10
62.3826847874585
20
-3.71044883778302
30
0
41
1
10
62.5578775093501
20
-3.40845898130075
30
0
0
SPLINE
5
21F
100
AcDbEntity
8
1
62
256
6
ByLayer
370
18
48
1
60
0
100
AcDbSpline
70
4
71
2
72
6
73
3
40
0
40
0
40
0
40
1
40
1
40
1
41
1
10
53.272537097768
20
-3.41064639741185
30
0
41
1
10
53.4224454834978
20
-3.66925000797383
30
0
41
1
10
53.5722036170461
20
-3.92788027610155
30
0
0
SPLINE
5
220
100
AcDbEntity
8
1
62
256
6
ByLayer
370
18
48
1
60
0
100
AcDbSpline
70
4
71
2
72
6
73
3
40
0
40
0
40
0
40
1
40
1
40
1
41
1
10
61.7388961391669
20
-3.41053018837957
30
0
41
1
10
61.9145543023718
20
-3.71353326517678
30
0
41
1
10
62.0899891828981
20
-4.01649801001847
30
0
0
SPLINE
5
221
100
AcDbEntity
8
1
62
256
6
ByLayer
370
18
48
1
60
0
100
AcDbSpline
70
4
71
3
72
13
73
9
40
0
40
0
40
0
40
0
40
0.239707557192346
40
0.368573155840221
40
0.50046183111502
40
0.632280201521493
40
0.760946559759702
40
1
40
1
40
1
40
1
41
1
10
61.4831980001466
20
-3.41892501124968
30
0
41
1
10
61.4946126123529
20
-3.39635256577969
30
0
41
1
10
61.5186169340741
20
-3.36865158676784
30
0
41
1
10
61.5668863220445
20
-3.34332940701924
30
0
41
1
10
61.6087312013921
20
-3.33529259834532
30
0
41
1
10
61.6505773037967
20
-3.33928557789292
30
0
41
1
10
61.6988414372834
20
-3.35932909992053
30
0
41
1
10
61.7228531052492
20
-3.38279996892956
30
0
41
1
10
61.7342870094487
20
-3.40249023831657
30
0
0
SPLINE
5
222
100
AcDbEntity
8
1
62
256
6
ByLayer
370
18
48
1
60
0
100
AcDbSpline
70
4
71
2
72
6
73
3
40
0
40
0
40
0
40
1
40
1
40
1
41
1
10
53.1273732350821
20
-3.35792285638888
30
0
41
1
10
53.2129396124056
20
-3.31622517678991
30
0
41
1
10
53.2676946822708
20
-3.40214303401217
30
0
0
SPLINE
5
223
100
AcDbEntity
8
1
62
256
6
ByLayer
370
18
48
1
60
0
100
AcDbSpline
70
4
71
2
72
6
73
3
40
0
40
0
40
0
40
1
40
1
40
1
41
1
10
59.4435654180663
20
4.0156181932131
30
0
41
1
10
59.2686695475758
20
3.71340576401963
30
0
41
1
10
59.0937042349085
20
3.41139028634279
30
0
0
SPLINE
5
224
100
AcDbEntity
8
1
62
256
6
ByLayer
370
18
48
1
60
0
100
AcDbSpline
70
4
71
2
72
6
73
3
40
0
40
0
40
0
40
1
40
1
40
1
41
1
10
60.0539132025402
20
3.35762987598386
30
0
41
1
10
59.9673724757878
20
3.31719136656
30
0
41
1
10
59.9171494923415
20
3.39887016540303
30
0
0
SPLINE
5
225
100
AcDbEntity
8
1
62
256
6
ByLayer
370
18
48
1
60
0
100
AcDbSpline
70
4
71
2
72
6
73
3
40
0
40
0
40
0
40
1
40
1
40
1
41
1
10
59.9110887480539
20
3.41012024711492
30
0
41
1
10
59.7356752222966
20
3.71253421177244
30
0
41
1
10
59.5604104417669
20
4.01513010137589
30
0
0
LINE
5
7F
100
AcDbEntity
8
80
62
256
6
ByLayer
370
18
48
1
60
0
100
AcDbLine
10
0
20
0
30
0
11
-5
21
0
31
0
39
0
210
0
220
0
230
1
0
LINE
5
80
100
AcDbEntity
8
81
62
256
6
ByLayer
370
18
48
1
60
0
100
AcDbLine
10
67.55
20
0
30
0
11
72.55
21
0
31
0
39
0
210
0
220
0
230
1
0
LINE
5
81
100
AcDbEntity
8
4
62
256
6
ByLayer
370
18
48
0.05
60
0
100
AcDbLine
10
0
20
0
30
0
11
67.55
21
0
31
0
39
0
210
0
220
0
230
1
0
LINE
5
83
100
AcDbEntity
8
SK4
62
256
6
ByLayer
370
18
48
0.05
60
0
100
AcDbLine
10
-24
20
0
30
0
11
67.55
21
0
31
0
39
0
210
0
220
0
230
1
0
LINE
5
85
100
AcDbEntity
8
1
62
256
6
ByLayer
370
18
48
1
60
0
100
AcDbLine
10
0
20
4
30
0
11
0
21
-4
31
0
39
0
210
0
220
0
230
1
0
LINE
5
86
100
AcDbEntity
8
1
62
256
6
ByLayer
370
18
48
1
60
0
100
AcDbLine
10
66
20
3.01544
30
0
11
66
21
3.012766
31
0
39
0
210
0
220
0
230
1
0
LINE
5
87
100
AcDbEntity
8
1
62
256
6
ByLayer
370
18
48
1
60
0
100
AcDbLine
10
64.589298
20
-3.555223
30
0
11
64.584353
21
-3.562245
31
0
39
0
210
0
220
0
230
1
0
LINE
5
88
100
AcDbEntity
8
1
62
256
6
ByLayer
370
18
48
1
60
0
100
AcDbLine
10
64.021345
20
-3.696408
30
0
11
64.023659
21
-3.700739
31
0
39
0
210
0
220
0
230
1
0
LINE
5
89
100
AcDbEntity
8
1
62
256
6
ByLayer
370
18
48
1
60
0
100
AcDbLine
10
63.618303
20
-3.404825
30
0
11
63.614448
21
-3.411129
31
0
39
0
210
0
220
0
230
1
0
LINE
5
8A
100
AcDbEntity
8
1
62
256
6
ByLayer
370
18
48
1
60
0
100
AcDbLine
10
55.1482
20
-3.410883
30
0
11
55.150492
21
-3.407296
31
0
39
0
210
0
220
0
230
1
0
LINE
5
8B
100
AcDbEntity
8
1
62
256
6
ByLayer
370
18
48
1
60
0
100
AcDbLine
10
62.793683
20
-3.40468
30
0
11
62.795714
21
-3.408275
31
0
39
0
210
0
220
0
230
1
0
LINE
5
8C
100
AcDbEntity
8
1
62
256
6
ByLayer
370
18
48
1
60
0
100
AcDbLine
10
54.327101
20
-3.404359
30
0
11
54.328811
21
-3.407444
31
0
39
0
210
0
220
0
230
1
0
LINE
5
8D
100
AcDbEntity
8
1
62
256
6
ByLayer
370
18
48
1
60
0
100
AcDbLine
10
54.09131
20
-3.408713
30
0
11
54.094367
21
-3.403261
31
0
39
0
210
0
220
0
230
1
0
LINE
5
8E
100
AcDbEntity
8
1
62
256
6
ByLayer
370
18
48
1
60
0
100
AcDbLine
10
62.557873
20
-3.408467
30
0
11
62.560472
21
-3.403839
31
0
39
0
210
0
220
0
230
1
0
LINE
5
8F
100
AcDbEntity
8
1
62
256
6
ByLayer
370
18
48
1
60
0
100
AcDbLine
10
59.090431
20
3.406181
30
0
11
59.093814
21
3.411542
31
0
39
0
210
0
220
0
230
1
0
LINE
5
90
100
AcDbEntity
8
1
62
256
6
ByLayer
370
18
48
1
60
0
100
AcDbLine
10
55.847615
20
-4.01978
30
0
11
55.841751
21
-4.017339
31
0
39
0
210
0
220
0
230
1
0
LINE
5
91
100
AcDbEntity
8
1
62
256
6
ByLayer
370
18
48
1
60
0
100
AcDbLine
10
53.708751
20
-4.01978
30
0
11
53.708751
21
-3.984606
31
0
39
0
210
0
220
0
230
1
0
LINE
5
92
100
AcDbEntity
8
1
62
256
6
ByLayer
370
18
48
1
60
0
100
AcDbLine
10
61.73481
20
-3.40353
30
0
11
61.73893
21
-3.410579
31
0
39
0
210
0
220
0
230
1
0
LINE
5
93
100
AcDbEntity
8
1
62
256
6
ByLayer
370
18
48
1
60
0
100
AcDbLine
10
53.268842
20
-3.404412
30
0
11
53.272645
21
-3.410804
31
0
39
0
210
0
220
0
230
1
0
LINE
5
94
100
AcDbEntity
8
1
62
256
6
ByLayer
370
13
48
1
60
0
100
AcDbLine
10
51.934246
20
-1.681877
30
0
11
51.934246
21
-2.828724
31
0
39
0
210
0
220
0
230
1
0
LINE
5
95
100
AcDbEntity
8
1
62
256
6
ByLayer
370
13
48
1
60
0
100
AcDbLine
10
51.934246
20
2.94357
30
0
11
51.934246
21
2.150115
31
0
39
0
210
0
220
0
230
1
0
LINE
5
96
100
AcDbEntity
8
1
62
256
6
ByLayer
370
13
48
1
60
0
100
AcDbLine
10
51.470712
20
-2.593065
30
0
11
51.470712
21
-1.32462
31
0
39
0
210
0
220
0
230
1
0
LINE
5
97
100
AcDbEntity
8
1
62
256
6
ByLayer
370
13
48
1
60
0
100
AcDbLine
10
51.470712
20
2.267346
30
0
11
51.470712
21
2.825
31
0
39
0
210
0
220
0
230
1
0
LINE
5
98
100
AcDbEntity
8
1
62
256
6
ByLayer
370
13
48
1
60
0
100
AcDbLine
10
31.096238
20
-2.825
30
0
11
31.096238
21
2.825
31
0
39
0
210
0
220
0
230
1
0
LINE
5
99
100
AcDbEntity
8
1
62
256
6
ByLayer
370
18
48
1
60
0
100
AcDbLine
10
61.482948
20
-3.418833
30
0
11
61.488001
21
-3.419234
31
0
39
0
210
0
220
0
230
1
0
LINE
5
9A
100
AcDbEntity
8
1
62
256
6
ByLayer
370
13
48
1
60
0
100
AcDbLine
10
30.905225
20
2.841711
30
0
11
30.905225
21
-2.841711
31
0
39
0
210
0
220
0
230
1
0
LINE
5
9B
100
AcDbEntity
8
1
62
256
6
ByLayer
370
18
48
1
60
0
100
AcDbLine
10
24.336244
20
4
30
0
11
24.336244
21
-4
31
0
39
0
210
0
220
0
230
1
0
LINE
5
9C
100
AcDbEntity
8
SK1
62
256
6
ByLayer
370
18
48
1
60
0
100
AcDbLine
10
-24
20
2.64
30
0
11
-24
21
-2.64
31
0
39
0
210
0
220
0
230
1
0
LINE
5
9E
100
AcDbEntity
8
SK1
62
256
6
ByLayer
370
18
48
1
60
0
100
AcDbLine
10
-15
20
3.1
30
0
11
-14.26
21
3.84
31
0
39
0
210
0
220
0
230
1
0
LINE
5
9F
100
AcDbEntity
8
SK1
62
256
6
ByLayer
370
18
48
1
60
0
100
AcDbLine
10
-22.8
20
3.1
30
0
11
-15
21
3.1
31
0
39
0
210
0
220
0
230
1
0
LINE
5
A0
100
AcDbEntity
8
SK1
62
256
6
ByLayer
370
18
48
1
60
0
100
AcDbLine
10
-22.8
20
2.266186
30
0
11
-22.8
21
3.1
31
0
39
0
210
0
220
0
230
1
0
LINE
5
A1
100
AcDbEntity
8
SK1
62
256
6
ByLayer
370
18
48
1
60
0
100
AcDbLine
10
-15
20
2.266186
30
0
11
-22.8
21
2.266186
31
0
39
0
210
0
220
0
230
1
0
LINE
5
A2
100
AcDbEntity
8
SK1
62
256
6
ByLayer
370
18
48
1
60
0
100
AcDbLine
10
-22.8
20
-2.266186
30
0
11
-15
21
-2.266186
31
0
39
0
210
0
220
0
230
1
0
LINE
5
A3
100
AcDbEntity
8
SK1
62
256
6
ByLayer
370
18
48
1
60
0
100
AcDbLine
10
-22.8
20
-3.1
30
0
11
-22.8
21
-2.266186
31
0
39
0
210
0
220
0
230
1
0
LINE
5
A4
100
AcDbEntity
8
SK1
62
256
6
ByLayer
370
18
48
1
60
0
100
AcDbLine
10
-15
20
-3.1
30
0
11
-22.8
21
-3.1
31
0
39
0
210
0
220
0
230
1
0
LINE
5
A5
100
AcDbEntity
8
SK1
62
256
6
ByLayer
370
18
48
1
60
0
100
AcDbLine
10
-15
20
-3.1
30
0
11
-14.26
21
-3.84
31
0
39
0
210
0
220
0
230
1
0
LINE
5
A6
100
AcDbEntity
8
SK1
62
256
6
ByLayer
370
18
48
1
60
0
100
AcDbLine
10
-15
20
2.266186
30
0
11
-15
21
-2.266186
31
0
39
0
210
0
220
0
230
1
0
LINE
5
A7
100
AcDbEntity
8
SK1
62
256
6
ByLayer
370
18
48
1
60
0
100
AcDbLine
10
-14.1
20
3.84
30
0
11
-14.1
21
-3.84
31
0
39
0
210
0
220
0
230
1
0
LINE
5
A8
100
AcDbEntity
8
SK1
62
256
6
ByLayer
370
18
48
1
60
0
100
AcDbLine
10
0
20
4
30
0
11
0
21
-4
31
0
39
0
210
0
220
0
230
1
0
LINE
5
A9
100
AcDbEntity
8
SK1
62
256
6
ByLayer
370
18
48
1
60
0
100
AcDbLine
10
-13.94
20
-4
30
0
11
-13.94
21
4
31
0
39
0
210
0
220
0
230
1
0
LINE
5
AA
100
AcDbEntity
8
1
62
256
6
ByLayer
370
18
48
1
60
0
100
AcDbLine
10
24.336244
20
4
30
0
11
0
21
4
31
0
39
0
210
0
220
0
230
1
0
LINE
5
AB
100
AcDbEntity
8
1
62
256
6
ByLayer
370
18
48
1
60
0
100
AcDbLine
10
0
20
-4
30
0
11
24.336244
21
-4
31
0
39
0
210
0
220
0
230
1
0
LINE
5
AC
100
AcDbEntity
8
1
62
256
6
ByLayer
370
18
48
1
60
0
100
AcDbLine
10
56.228512
20
-3.378355
30
0
11
56.229694
21
-3.378381
31
0
39
0
210
0
220
0
230
1
0
LINE
5
AD
100
AcDbEntity
8
1
62
256
6
ByLayer
370
18
48
1
60
0
100
AcDbLine
10
64.695018
20
-3.378103
30
0
11
64.696106
21
-3.378107
31
0
39
0
210
0
220
0
230
1
0
LINE
5
AE
100
AcDbEntity
8
1
62
256
6
ByLayer
370
18
48
1
60
0
100
AcDbLine
10
55.747949
20
-4.01978
30
0
11
55.84762
21
-4.01978
31
0
39
0
210
0
220
0
230
1
0
LINE
5
AF
100
AcDbEntity
8
1
62
256
6
ByLayer
370
18
48
1
60
0
100
AcDbLine
10
57.435118
20
4.01978
30
0
11
57.33544
21
4.01978
31
0
39
0
210
0
220
0
230
1
0
LINE
5
B0
100
AcDbEntity
8
1
62
256
6
ByLayer
370
18
48
1
60
0
100
AcDbLine
10
53.708751
20
-4.01978
30
0
11
53.731034
21
-4.01978
31
0
39
0
210
0
220
0
230
1
0
LINE
5
B1
100
AcDbEntity
8
1
62
256
6
ByLayer
370
18
48
1
60
0
100
AcDbLine
10
54.689681
20
-4.01978
30
0
11
54.789303
21
-4.01978
31
0
39
0
210
0
220
0
230
1
0
LINE
5
B2
100
AcDbEntity
8
1
62
256
6
ByLayer
370
18
48
1
60
0
100
AcDbLine
10
58.493388
20
4.01978
30
0
11
58.393684
21
4.01978
31
0
39
0
210
0
220
0
230
1
0
LINE
5
B3
100
AcDbEntity
8
1
62
256
6
ByLayer
370
18
48
1
60
0
100
AcDbLine
10
67.55
20
0
30
0
11
66
21
1.55
31
0
39
0
210
0
220
0
230
1
0
LINE
5
B4
100
AcDbEntity
8
1
62
256
6
ByLayer
370
18
48
1
60
0
100
AcDbLine
10
66
20
-1.55
30
0
11
67.55
21
0
31
0
39
0
210
0
220
0
230
1
0
LINE
5
B5
100
AcDbEntity
8
1
62
256
6
ByLayer
370
18
48
1
60
0
100
AcDbLine
10
53.586131
20
-3.946102
30
0
11
53.708751
21
-4.01978
31
0
39
0
210
0
220
0
230
1
0
LINE
5
B6
100
AcDbEntity
8
1
62
256
6
ByLayer
370
18
48
1
60
0
100
AcDbLine
10
62.097763
20
-4.01978
30
0
11
62.197433
21
-4.01978
31
0
39
0
210
0
220
0
230
1
0
LINE
5
B7
100
AcDbEntity
8
1
62
256
6
ByLayer
370
18
48
1
60
0
100
AcDbLine
10
59.551691
20
4.01978
30
0
11
59.451979
21
4.01978
31
0
39
0
210
0
220
0
230
1
0
LINE
5
B8
100
AcDbEntity
8
1
62
256
6
ByLayer
370
18
48
1
60
0
100
AcDbLine
10
31.096238
20
-2.825
30
0
11
38.906056
21
-2.825
31
0
39
0
210
0
220
0
230
1
0
LINE
5
B9
100
AcDbEntity
8
1
62
256
6
ByLayer
370
18
48
1
60
0
100
AcDbLine
10
44.677082
20
-2.825
30
0
11
47.380101
21
-2.825
31
0
39
0
210
0
220
0
230
1
0
LINE
5
BA
100
AcDbEntity
8
1
62
256
6
ByLayer
370
18
48
1
60
0
100
AcDbLine
10
51.470712
20
2.825
30
0
11
48.897345
21
2.825
31
0
39
0
210
0
220
0
230
1
0
LINE
5
BB
100
AcDbEntity
8
1
62
256
6
ByLayer
370
18
48
1
60
0
100
AcDbLine
10
43.141326
20
2.825
30
0
11
40.45881
21
2.825
31
0
39
0
210
0
220
0
230
1
0
LINE
5
BC
100
AcDbEntity
8
1
62
256
6
ByLayer
370
18
48
1
60
0
100
AcDbLine
10
36.260896
20
2.825
30
0
11
31.096238
21
2.825
31
0
39
0
210
0
220
0
230
1
0
LINE
5
BD
100
AcDbEntity
8
1
62
256
6
ByLayer
370
18
48
1
60
0
100
AcDbLine
10
30.905225
20
2.841711
30
0
11
24.336244
21
4
31
0
39
0
210
0
220
0
230
1
0
LINE
5
BE
100
AcDbEntity
8
1
62
256
6
ByLayer
370
18
48
1
60
0
100
AcDbLine
10
24.336244
20
-4
30
0
11
30.905225
21
-2.841711
31
0
39
0
210
0
220
0
230
1
0
LINE
5
BF
100
AcDbEntity
8
SK1
62
256
6
ByLayer
370
18
48
1
60
0
100
AcDbLine
10
-24
20
-2.64
30
0
11
-23.54
21
-3.1
31
0
39
0
210
0
220
0
230
1
0
LINE
5
C0
100
AcDbEntity
8
SK1
62
256
6
ByLayer
370
18
48
1
60
0
100
AcDbLine
10
-23.54
20
3.1
30
0
11
-24
21
2.64
31
0
39
0
210
0
220
0
230
1
0
LINE
5
C1
100
AcDbEntity
8
SK1
62
256
6
ByLayer
370
18
48
1
60
0
100
AcDbLine
10
-14.1
20
3.84
30
0
11
-14.26
21
3.84
31
0
39
0
210
0
220
0
230
1
0
LINE
5
C2
100
AcDbEntity
8
SK1
62
256
6
ByLayer
370
18
48
1
60
0
100
AcDbLine
10
-14.26
20
-3.84
30
0
11
-14.1
21
-3.84
31
0
39
0
210
0
220
0
230
1
0
LINE
5
C3
100
AcDbEntity
8
SK1
62
256
6
ByLayer
370
18
48
1
60
0
100
AcDbLine
10
-14.1
20
-3.84
30
0
11
-13.94
21
-4
31
0
39
0
210
0
220
0
230
1
0
LINE
5
C4
100
AcDbEntity
8
SK1
62
256
6
ByLayer
370
18
48
1
60
0
100
AcDbLine
10
-13.94
20
4
30
0
11
-14.1
21
3.84
31
0
39
0
210
0
220
0
230
1
0
LINE
5
C5
100
AcDbEntity
8
SK1
62
256
6
ByLayer
370
18
48
1
60
0
100
AcDbLine
10
0
20
4
30
0
11
-13.94
21
4
31
0
39
0
210
0
220
0
230
1
0
LINE
5
C6
100
AcDbEntity
8
SK1
62
256
6
ByLayer
370
18
48
1
60
0
100
AcDbLine
10
-13.94
20
-4
30
0
11
0
21
-4
31
0
39
0
210
0
220
0
230
1
0
LINE
5
C7
100
AcDbEntity
8
SK2
62
256
6
ByLayer
370
18
48
1
60
0
100
AcDbLine
10
13.198122
20
-4
30
0
11
13.198122
21
16.841828
31
0
39
0
210
0
220
0
230
1
0
LINE
5
C9
100
AcDbEntity
8
1
62
256
6
ByLayer
370
18
48
1
60
1
100
AcDbLine
10
13.198122
20
4
30
0
11
13.658906
21
0.500002
31
0
39
0
210
0
220
0
230
1
0
LINE
5
CA
100
AcDbEntity
8
1
62
256
6
ByLayer
370
18
48
1
60
1
100
AcDbLine
10
13.658906
20
0.500002
30
0
11
12.737338
21
0.499998
31
0
39
0
210
0
220
0
230
1
0
LINE
5
CB
100
AcDbEntity
8
1
62
256
6
ByLayer
370
18
48
1
60
1
100
AcDbLine
10
12.737338
20
0.499998
30
0
11
13.198122
21
4
31
0
39
0
210
0
220
0
230
1
0
LINE
5
CC
100
AcDbEntity
8
1
62
256
6
ByLayer
370
18
48
1
60
1
100
AcDbLine
10
13.198122
20
-4
30
0
11
12.737338
21
-0.500002
31
0
39
0
210
0
220
0
230
1
0
LINE
5
CD
100
AcDbEntity
8
1
62
256
6
ByLayer
370
18
48
1
60
1
100
AcDbLine
10
12.737338
20
-0.500002
30
0
11
13.658906
21
-0.499998
31
0
39
0
210
0
220
0
230
1
0
LINE
5
CE
100
AcDbEntity
8
1
62
256
6
ByLayer
370
18
48
1
60
1
100
AcDbLine
10
13.658906
20
-0.499998
30
0
11
13.198122
21
-4
31
0
39
0
210
0
220
0
230
1
0
LINE
5
CF
100
AcDbEntity
8
2
62
256
6
ByLayer
370
18
48
1
60
0
100
AcDbLine
10
66
20
-41.51978
30
0
11
-24
21
-41.51978
31
0
39
0
210
0
220
0
230
1
0
LINE
5
D1
100
AcDbEntity
8
2
62
256
6
ByLayer
370
18
48
1
60
0
100
AcDbLine
10
-24
20
-4.2275
30
0
11
-24
21
-43.51978
31
0
39
0
210
0
220
0
230
1
0
LINE
5
D2
100
AcDbEntity
8
2
62
256
6
ByLayer
370
18
48
1
60
0
100
AcDbLine
10
66
20
-5.60728
30
0
11
66
21
-43.51978
31
0
39
0
210
0
220
0
230
1
0
LINE
5
D3
100
AcDbEntity
8
1
62
256
6
ByLayer
370
18
48
1
60
1
100
AcDbLine
10
-24
20
-41.51978
30
0
11
-20.500002
21
-41.058996
31
0
39
0
210
0
220
0
230
1
0
LINE
5
D4
100
AcDbEntity
8
1
62
256
6
ByLayer
370
18
48
1
60
1
100
AcDbLine
10
-20.500002
20
-41.058996
30
0
11
-20.499998
21
-41.980563
31
0
39
0
210
0
220
0
230
1
0
LINE
5
D5
100
AcDbEntity
8
1
62
256
6
ByLayer
370
18
48
1
60
1
100
AcDbLine
10
-20.499998
20
-41.980563
30
0
11
-24
21
-41.51978
31
0
39
0
210
0
220
0
230
1
0
LINE
5
D6
100
AcDbEntity
8
1
62
256
6
ByLayer
370
18
48
1
60
1
100
AcDbLine
10
66
20
-41.51978
30
0
11
62.500002
21
-41.980563
31
0
39
0
210
0
220
0
230
1
0
LINE
5
D7
100
AcDbEntity
8
1
62
256
6
ByLayer
370
18
48
1
60
1
100
AcDbLine
10
62.500002
20
-41.980563
30
0
11
62.499998
21
-41.058996
31
0
39
0
210
0
220
0
230
1
0
LINE
5
D8
100
AcDbEntity
8
1
62
256
6
ByLayer
370
18
48
1
60
1
100
AcDbLine
10
62.499998
20
-41.058996
30
0
11
66
21
-41.51978
31
0
39
0
210
0
220
0
230
1
0
LINE
5
22A
100
AcDbEntity
8
1
62
256
6
ByLayer
370
18
48
1
60
1
100
AcDbLine
10
13.198122
20
4
30
0
11
13.658906
21
0.500002
31
0
39
0
210
0
220
0
230
1
0
LINE
5
22B
100
AcDbEntity
8
1
62
256
6
ByLayer
370
18
48
1
60
1
100
AcDbLine
10
13.658906
20
0.500002
30
0
11
12.737338
21
0.499998
31
0
39
0
210
0
220
0
230
1
0
LINE
5
22C
100
AcDbEntity
8
1
62
256
6
ByLayer
370
18
48
1
60
1
100
AcDbLine
10
12.737338
20
0.499998
30
0
11
13.198122
21
4
31
0
39
0
210
0
220
0
230
1
0
LINE
5
22E
100
AcDbEntity
8
1
62
256
6
ByLayer
370
18
48
1
60
1
100
AcDbLine
10
13.198122
20
-4
30
0
11
12.737338
21
-0.500002
31
0
39
0
210
0
220
0
230
1
0
LINE
5
22F
100
AcDbEntity
8
1
62
256
6
ByLayer
370
18
48
1
60
1
100
AcDbLine
10
12.737338
20
-0.500002
30
0
11
13.658906
21
-0.499998
31
0
39
0
210
0
220
0
230
1
0
LINE
5
230
100
AcDbEntity
8
1
62
256
6
ByLayer
370
18
48
1
60
1
100
AcDbLine
10
13.658906
20
-0.499998
30
0
11
13.198122
21
-4
31
0
39
0
210
0
220
0
230
1
0
LINE
5
233
100
AcDbEntity
8
1
62
256
6
ByLayer
370
18
48
1
60
1
100
AcDbLine
10
-24
20
-41.51978
30
0
11
-20.500002
21
-41.058996
31
0
39
0
210
0
220
0
230
1
0
LINE
5
234
100
AcDbEntity
8
1
62
256
6
ByLayer
370
18
48
1
60
1
100
AcDbLine
10
-20.500002
20
-41.058996
30
0
11
-20.499998
21
-41.980563
31
0
39
0
210
0
220
0
230
1
0
LINE
5
235
100
AcDbEntity
8
1
62
256
6
ByLayer
370
18
48
1
60
1
100
AcDbLine
10
-20.499998
20
-41.980563
30
0
11
-24
21
-41.51978
31
0
39
0
210
0
220
0
230
1
0
LINE
5
237
100
AcDbEntity
8
1
62
256
6
ByLayer
370
18
48
1
60
1
100
AcDbLine
10
66
20
-41.51978
30
0
11
62.500002
21
-41.980563
31
0
39
0
210
0
220
0
230
1
0
LINE
5
238
100
AcDbEntity
8
1
62
256
6
ByLayer
370
18
48
1
60
1
100
AcDbLine
10
62.500002
20
-41.980563
30
0
11
62.499998
21
-41.058996
31
0
39
0
210
0
220
0
230
1
0
LINE
5
239
100
AcDbEntity
8
1
62
256
6
ByLayer
370
18
48
1
60
1
100
AcDbLine
10
62.499998
20
-41.058996
30
0
11
66
21
-41.51978
31
0
39
0
210
0
220
0
230
1
0
MTEXT
5
226
100
AcDbEntity
8
SK2
62
256
6
ByLayer
370
18
48
1
60
0
100
AcDbMText
10
11.857007
20
9.658437
30
0
210
0
220
0
230
1
1
%%c
40
3
41
0
44
1.084337
50
90
71
7
72
5
7
iso_b_vert
0
MTEXT
5
229
100
AcDbEntity
8
SK2
62
256
6
ByLayer
370
18
48
1
60
0
100
AcDbMText
10
11.857007
20
15.635
30
0
210
0
220
0
230
1
1
\W0.5404;8
40
3
41
0
44
1.084337
50
90
71
7
72
5
7
iso_b_vert
0
MTEXT
5
232
100
AcDbEntity
8
2
62
256
6
ByLayer
370
18
48
1
60
0
100
AcDbMText
10
19.367172
20
-40.634665
30
0
210
0
220
0
230
1
1
\W0.6740;90
40
3
41
0
44
1.084337
50
0
71
7
72
5
7
iso_b_vert
0
MTEXT
5
23B
100
AcDbEntity
8
SK6
62
256
6
ByLayer
370
18
48
1
60
0
100
AcDbMText
10
3.262067
20
-82.114886
30
0
210
0
220
0
230
1
1
\W0.7260;T300-XM100DF-5/16   C110
40
3
41
0
44
1.084337
50
0
71
7
72
5
7
iso_b_vert
0
HATCH
5
22D
100
AcDbEntity
8
SK2
62
256
6
ByLayer
370
13
48
1
60
0
100
AcDbHatch
10
0
20
0
30
0
210
0
220
0
230
1
2
ANSI31
70
0
71
0
91
1
92
5
93
3
72
1
10
13.1981219309746
20
4.00000000000003
11
13.6589056725274
21
0.500001692553212
72
1
10
13.6589056725274
20
0.500001692553212
11
12.7373381894218
21
0.499998307446845
72
1
10
12.7373381894218
20
0.499998307446845
11
13.1981219309746
21
4.00000000000003
97
0
75
0
76
1
52
0
41
0.0062
77
0
78
1
53
45
43
0
44
0
45
-0.0139193969876572
46
0.0139193969876572
79
0
47
0
98
1
10
0
20
0
0
HATCH
5
231
100
AcDbEntity
8
SK2
62
256
6
ByLayer
370
13
48
1
60
0
100
AcDbHatch
10
0
20
0
30
0
210
0
220
0
230
1
2
ANSI31
70
0
71
0
91
1
92
5
93
3
72
1
10
13.1981219309746
20
-3.99999999999997
11
12.7373381894218
21
-0.500001692553155
72
1
10
12.7373381894218
20
-0.500001692553155
11
13.6589056725274
21
-0.499998307446788
72
1
10
13.6589056725274
20
-0.499998307446788
11
13.1981219309746
21
-3.99999999999997
97
0
75
0
76
1
52
0
41
0.0062
77
0
78
1
53
45
43
0
44
0
45
-0.0139193969876572
46
0.0139193969876572
79
0
47
0
98
1
10
0
20
0
0
HATCH
5
236
100
AcDbEntity
8
2
62
256
6
ByLayer
370
13
48
1
60
0
100
AcDbHatch
10
0
20
0
30
0
210
0
220
0
230
1
2
ANSI31
70
0
71
0
91
1
92
5
93
3
72
1
10
-24
20
-41.5197795963975
11
-20.5000016925532
21
-41.0589958548447
72
1
10
-20.5000016925532
20
-41.0589958548447
11
-20.4999983074468
21
-41.9805633379502
72
1
10
-20.4999983074468
20
-41.9805633379502
11
-24
21
-41.5197795963975
97
0
75
0
76
1
52
0
41
0.0062
77
0
78
1
53
45
43
0
44
0
45
-0.0139193969876572
46
0.0139193969876572
79
0
47
0
98
1
10
0
20
0
0
HATCH
5
23A
100
AcDbEntity
8
2
62
256
6
ByLayer
370
13
48
1
60
0
100
AcDbHatch
10
0
20
0
30
0
210
0
220
0
230
1
2
ANSI31
70
0
71
0
91
1
92
5
93
3
72
1
10
66
20
-41.5197795963975
11
62.5000016925532
21
-41.9805633379502
72
1
10
62.5000016925532
20
-41.9805633379502
11
62.4999983074468
21
-41.0589958548447
72
1
10
62.4999983074468
20
-41.0589958548447
11
66
21
-41.5197795963975
97
0
75
0
76
1
52
0
41
0.0062
77
0
78
1
53
45
43
0
44
0
45
-0.0139193969876572
46
0.0139193969876572
79
0
47
0
98
1
10
0
20
0
0
DIMENSION
5
23E
100
AcDbEntity
8
2
62
256
6
ByLayer
370
18
48
1
60
0
100
AcDbDimension
2
_U0
10
85.5
20
-4.01978
30
0
11
85.5
21
26.117292
31
0
70
32
71
1
72
1
41
1
210
0
220
0
230
1
3
Standard
100
AcDbAlignedDimension
13
66
23
4.01978
33
0
14
66
24
-4.01978
34
0
50
90
100
AcDbRotatedDimension
1001
ACAD
1000
DSTYLE
1002
{
1070
   371
1070
    13
1070
   372
1070
    13
1070
     3
1000

1070
   170
1070
     0
1070
   144
1040
1.0
1070
   277
1070
     2
1070
   284
1070
     8
1070
   278
1070
    46
1070
   146
1040
1.166667
1070
   345
1005
16
1070
   347
1005
16
1070
   346
1005
16
1070
   344
1005
0
1070
   343
1005
0
1070
   172
1070
     1
1070
    76
1070
     0
1070
    75
1070
     0
1070
   282
1070
     0
1070
   281
1070
     0
1070
    71
1070
     0
1070
    74
1070
     0
1070
   279
1070
     0
1070
   173
1070
     1
1070
   340
1005
227
1070
   271
1070
     3
1070
   272
1070
     3
1070
    77
1070
     1
1070
    73
1070
     0
1070
   171
1070
     3
1070
   274
1070
     4
1070
   177
1070
     2
1070
   176
1070
     2
1070
   178
1070
     2
1070
    78
1070
     8
1070
    48
1040
-0.1
1070
    41
1040
3.5
1070
   147
1040
1.5
1070
    42
1040
1.5875
1070
    44
1040
2.0
1070
   140
1040
3.0
1002
}
1001
ACAD_DSTYLE_DIM_LINETYPE
1070
   380
1005
16
1001
ACAD_DSTYLE_DIM_EXT1_LINETYPE
1070
   381
1005
16
1001
ACAD_DSTYLE_DIM_EXT2_LINETYPE
1070
   382
1005
16
0
DIMENSION
5
259
100
AcDbEntity
8
SK2
62
256
6
ByLayer
370
18
48
1
60
0
100
AcDbDimension
2
_U1
10
63.09
20
13.169191
30
0
11
64.545
21
13.169191
31
0
70
32
71
1
72
1
41
1
210
0
220
0
230
1
3
Standard
100
AcDbAlignedDimension
13
66
23
4.01978
33
0
14
63.09
24
0
34
0
50
0
100
AcDbRotatedDimension
1001
ACAD
1000
DSTYLE
1002
{
1070
   371
1070
    13
1070
   372
1070
    13
1070
   170
1070
     0
1070
   144
1040
1.0
1070
   277
1070
     2
1070
   284
1070
     8
1070
   278
1070
    46
1070
   146
1040
1.166667
1070
   345
1005
16
1070
   347
1005
16
1070
   346
1005
16
1070
   344
1005
0
1070
   343
1005
0
1070
   172
1070
     1
1070
    76
1070
     0
1070
    75
1070
     0
1070
   282
1070
     0
1070
   281
1070
     0
1070
    71
1070
     0
1070
    74
1070
     0
1070
   279
1070
     0
1070
   173
1070
     1
1070
   340
1005
227
1070
   271
1070
     3
1070
   272
1070
     3
1070
    77
1070
     1
1070
    73
1070
     1
1070
   171
1070
     3
1070
   274
1070
     4
1070
   177
1070
     2
1070
   176
1070
     2
1070
   178
1070
     2
1070
    78
1070
     8
1070
    48
1040
-0.1
1070
    41
1040
3.5
1070
   147
1040
1.5
1070
    42
1040
1.5875
1070
    44
1040
2.0
1070
   140
1040
3.0
1002
}
1001
ACAD_DSTYLE_DIM_LINETYPE
1070
   380
1005
16
1001
ACAD_DSTYLE_DIM_EXT1_LINETYPE
1070
   381
1005
16
1001
ACAD_DSTYLE_DIM_EXT2_LINETYPE
1070
   382
1005
16
0
DIMENSION
5
273
100
AcDbEntity
8
SK2
62
256
6
ByLayer
370
18
48
1
60
0
100
AcDbDimension
2
_U2
10
54
20
-11.01978
30
0
11
79.714286
21
-11.01978
31
0
70
32
71
1
72
1
41
1
210
0
220
0
230
1
3
Standard
100
AcDbAlignedDimension
13
66
23
-4.01978
33
0
14
54
24
-4.01978
34
0
50
0
100
AcDbRotatedDimension
1001
ACAD
1000
DSTYLE
1002
{
1070
   371
1070
    13
1070
   372
1070
    13
1070
   170
1070
     0
1070
   144
1040
1.0
1070
   277
1070
     2
1070
   284
1070
     8
1070
   278
1070
    46
1070
   146
1040
0.833333
1070
   345
1005
16
1070
   347
1005
16
1070
   346
1005
16
1070
   344
1005
0
1070
   343
1005
0
1070
   172
1070
     1
1070
    76
1070
     0
1070
    75
1070
     0
1070
   282
1070
     0
1070
   281
1070
     0
1070
    47
1040
0.5
1070
    72
1070
     0
1070
    71
1070
     1
1070
    74
1070
     0
1070
   279
1070
     0
1070
   173
1070
     1
1070
   340
1005
227
1070
   271
1070
     1
1070
   272
1070
     3
1070
    77
1070
     1
1070
    73
1070
     1
1070
   171
1070
     3
1070
   274
1070
     4
1070
   177
1070
     2
1070
   176
1070
     2
1070
   178
1070
     2
1070
    78
1070
     8
1070
    48
1040
0.5
1070
    41
1040
3.5
1070
   147
1040
1.5
1070
    42
1040
1.5875
1070
    44
1040
2.0
1070
   140
1040
3.0
1002
}
1001
ACAD_DSTYLE_DIM_LINETYPE
1070
   380
1005
16
1001
ACAD_DSTYLE_DIM_EXT1_LINETYPE
1070
   381
1005
16
1001
ACAD_DSTYLE_DIM_EXT2_LINETYPE
1070
   382
1005
16
0
DIMENSION
5
28E
100
AcDbEntity
8
SK2
62
256
6
ByLayer
370
18
48
1
60
0
100
AcDbDimension
2
_U3
10
31
20
-33.51978
30
0
11
48.5
21
-33.51978
31
0
70
32
71
1
72
1
41
1
210
0
220
0
230
1
3
Standard
100
AcDbAlignedDimension
13
66
23
-4.01978
33
0
14
31
24
-2.825
34
0
50
0
100
AcDbRotatedDimension
1001
ACAD
1000
DSTYLE
1002
{
1070
   371
1070
    13
1070
   372
1070
    13
1070
   170
1070
     0
1070
   144
1040
1.0
1070
   277
1070
     2
1070
   284
1070
     8
1070
   278
1070
    46
1070
   146
1040
1.166667
1070
   345
1005
16
1070
   347
1005
16
1070
   346
1005
16
1070
   344
1005
0
1070
   343
1005
0
1070
   172
1070
     1
1070
    76
1070
     0
1070
    75
1070
     0
1070
   282
1070
     0
1070
   281
1070
     0
1070
    71
1070
     0
1070
    74
1070
     0
1070
   279
1070
     0
1070
   173
1070
     1
1070
   340
1005
227
1070
   271
1070
     1
1070
   272
1070
     3
1070
    77
1070
     1
1070
    73
1070
     1
1070
   171
1070
     3
1070
   274
1070
     4
1070
   177
1070
     2
1070
   176
1070
     2
1070
   178
1070
     2
1070
    78
1070
     8
1070
    48
1040
-0.1
1070
    41
1040
3.5
1070
   147
1040
1.5
1070
    42
1040
1.5875
1070
    44
1040
2.0
1070
   140
1040
3.0
1002
}
1001
ACAD_DSTYLE_DIM_LINETYPE
1070
   380
1005
16
1001
ACAD_DSTYLE_DIM_EXT1_LINETYPE
1070
   381
1005
16
1001
ACAD_DSTYLE_DIM_EXT2_LINETYPE
1070
   382
1005
16
0
DIMENSION
5
2A6
100
AcDbEntity
8
2
62
256
6
ByLayer
370
18
48
1
60
0
100
AcDbDimension
2
_U4
10
36.25
20
-22.51978
30
0
11
51.125
21
-22.51978
31
0
70
32
71
1
72
1
41
1
210
0
220
0
230
1
3
Standard
100
AcDbAlignedDimension
13
66
23
-4.01978
33
0
14
36.25
24
0
34
0
50
0
100
AcDbRotatedDimension
1001
ACAD
1000
DSTYLE
1002
{
1070
   371
1070
    13
1070
   372
1070
    13
1070
   170
1070
     0
1070
   144
1040
1.0
1070
   277
1070
     2
1070
   284
1070
     8
1070
   278
1070
    46
1070
   146
1040
1.166667
1070
   345
1005
16
1070
   347
1005
16
1070
   346
1005
16
1070
   344
1005
0
1070
   343
1005
0
1070
   172
1070
     1
1070
    76
1070
     0
1070
    75
1070
     0
1070
   282
1070
     0
1070
   281
1070
     0
1070
    71
1070
     0
1070
    74
1070
     0
1070
   279
1070
     0
1070
   173
1070
     1
1070
   340
1005
227
1070
   271
1070
     1
1070
   272
1070
     3
1070
    77
1070
     1
1070
    73
1070
     1
1070
   171
1070
     3
1070
   274
1070
     4
1070
   177
1070
     2
1070
   176
1070
     2
1070
   178
1070
     2
1070
    78
1070
     8
1070
    48
1040
-0.1
1070
    41
1040
3.5
1070
   147
1040
1.5
1070
    42
1040
1.5875
1070
    44
1040
2.0
1070
   140
1040
3.0
1002
}
1001
ACAD_DSTYLE_DIM_LINETYPE
1070
   380
1005
16
1001
ACAD_DSTYLE_DIM_EXT1_LINETYPE
1070
   381
1005
16
1001
ACAD_DSTYLE_DIM_EXT2_LINETYPE
1070
   382
1005
16
0
ENDSEC
0
SECTION
2
OBJECTS
0
DICTIONARY
5
32e
330
0
100
AcDbDictionary
280
0
281
1
3
ACAD_GROUP
350
32f
3
ACAD_MLINESTYLE
350
330
0
DICTIONARY
5
32f
330
0
100
AcDbDictionary
280
0
281
1
0
DICTIONARY
5
330
330
0
100
AcDbDictionary
280
0
281
1
3
Standard
350
18
0
MLINESTYLE
5
18
330
330
100
AcDbMlineStyle
2
Standard
70
0
3

62
256
51
90
52
90
71
2
49
-0.5
62
256
6
ByLayer
49
0.5
62
256
6
ByLayer
0
RASTERVARIABLES
5
31c
330

100
AcDbRasterVariables
90
0
70
1
71
1
72
1
0
ENDSEC
0
EOF
