0
SECTION
2
HEADER
9
$ACADVER
1
AC1015
9
$DWGCODEPAGE
3
ANSI_1252
9
$HANDSEED
5
305
9
$ANGBASE
50
0
9
$ANGDIR
70
0
9
$ATTMODE
70
1
9
$AUNITS
70
0
9
$AUPREC
70
0
9
$CECOLOR
62
256
9
$CELTSCALE
40
1
9
$CELTYPE
6
ByLayer
9
$CELWEIGHT
370
18
9
$CLAYER
8
0
9
$CMLJUST
70
0
9
$CMLSCALE
40
1
9
$CMLSTYLE
2
Standard
9
$DIMSTYLE
2
Standard
9
$TEXTSIZE
40
0.2
9
$TEXTSTYLE
7
Standard
9
$LUNITS
70
2
9
$LUPREC
70
4
9
$EXTNAMES
290
1
9
$INSUNITS
70
4
9
$LTSCALE
40
1
9
$LWDISPLAY
290
1
9
$PDMODE
70
0
9
$PDSIZE
40
0
9
$PLINEGEN
70
0
0
ENDSEC
0
SECTION
2
CLASSES
0
CLASS
1
RASTERVARIABLES
2
AcDbRasterVariables
3
ISM
90
0
280
0
281
0
0
ENDSEC
0
SECTION
2
TABLES
0
TABLE
2
VPORT
5
2fb
100
AcDbSymbolTable
0
VPORT
5
1
100
AcDbSymbolTableRecord
100
AcDbViewportTableRecord
2
*Active
70
0
10
0
20
0
11
1
21
1
12
-1
22
1
13
0
23
0
14
0.5
24
0.5
15
10
25
10
16
0
26
0
36
1
17
0
27
0
37
0
0
ENDTAB
0
TABLE
2
LTYPE
5
2fc
100
AcDbSymbolTable
0
LTYPE
5
14
100
AcDbSymbolTableRecord
100
AcDbLinetypeTableRecord
70
0
2
ByBlock
3

72
65
73
0
40
0
0
LTYPE
5
15
100
AcDbSymbolTableRecord
100
AcDbLinetypeTableRecord
70
0
2
ByLayer
3

72
65
73
0
40
0
0
LTYPE
5
16
100
AcDbSymbolTableRecord
100
AcDbLinetypeTableRecord
70
0
2
Continuous
3
Solid line
72
65
73
0
40
0
0
LTYPE
5
6E
100
AcDbSymbolTableRecord
100
AcDbLinetypeTableRecord
70
0
2
CENTER
3
____ _ ____ _ ____ _ ____
72
65
73
4
40
47.5
49
22
74
0
49
-8.5
74
0
49
8.5
74
0
49
-8.5
74
0
0
LTYPE
5
6F
100
AcDbSymbolTableRecord
100
AcDbLinetypeTableRecord
70
0
2
DASHED
3
__ __ __ __ __ __ __ __ __
72
65
73
2
40
25.72
49
12.86
74
0
49
-12.86
74
0
0
ENDTAB
0
TABLE
2
LAYER
5
2fd
100
AcDbSymbolTable
0
LAYER
5
10
100
AcDbSymbolTableRecord
100
AcDbLayerTableRecord
2
0
70
0
62
7
6
Continuous
290
1
370
-3
390
0
0
LAYER
5
71
100
AcDbSymbolTableRecord
100
AcDbLayerTableRecord
2
81
70
0
62
-3
6
Continuous
290
1
370
-3
390
0
0
LAYER
5
73
100
AcDbSymbolTableRecord
100
AcDbLayerTableRecord
2
80
70
0
62
-6
6
Continuous
290
1
370
-3
390
0
0
LAYER
5
75
100
AcDbSymbolTableRecord
100
AcDbLayerTableRecord
2
1
70
0
62
4
6
Continuous
290
1
370
-3
390
0
0
LAYER
5
81
100
AcDbSymbolTableRecord
100
AcDbLayerTableRecord
2
4
70
0
62
-2
6
CENTER
290
1
370
-3
390
0
0
LAYER
5
C7
100
AcDbSymbolTableRecord
100
AcDbLayerTableRecord
2
2
70
0
62
7
6
Continuous
290
1
370
-3
390
0
0
LAYER
5
20B
100
AcDbSymbolTableRecord
100
AcDbLayerTableRecord
2
Defpoints
70
0
62
7
6
Continuous
290
0
370
-3
390
0
0
LAYER
5
2e7
100
AcDbSymbolTableRecord
100
AcDbLayerTableRecord
2
SK4
70
0
62
2
6
CENTER
290
1
370
-3
390
0
0
LAYER
5
2e8
100
AcDbSymbolTableRecord
100
AcDbLayerTableRecord
2
SK1
70
0
62
4
6
Continuous
290
1
370
-3
390
0
0
LAYER
5
2e9
100
AcDbSymbolTableRecord
100
AcDbLayerTableRecord
2
SK2
70
0
62
7
6
Continuous
290
1
370
-3
390
0
0
LAYER
5
2ea
100
AcDbSymbolTableRecord
100
AcDbLayerTableRecord
2
SK6
70
0
62
5
6
Continuous
290
1
370
-3
390
0
0
ENDTAB
0
TABLE
2
STYLE
5
2fe
100
AcDbSymbolTable
0
STYLE
5
11
100
AcDbSymbolTableRecord
100
AcDbTextStyleTableRecord
2
Standard
3
txt
70
0
71
0
40
0
41
1
42
0
50
0
0
STYLE
5
1F1
100
AcDbSymbolTableRecord
100
AcDbTextStyleTableRecord
2
iso_b_vert
3
simplex.shx
70
0
71
0
40
0
41
1
42
0
50
0
0
STYLE
5
1F2
100
AcDbSymbolTableRecord
100
AcDbTextStyleTableRecord
2
DWGDirectTextStyle
3
simplex
70
0
71
0
40
0
41
1
42
0
50
0
0
ENDTAB
0
TABLE
2
DIMSTYLE
5
2ff
100
AcDbSymbolTable
100
AcDbDimStyleTable
0
DIMSTYLE
105
27
100
AcDbSymbolTableRecord
100
AcDbDimStyleTableRecord
2
Standard
70
0
3
<>
41
0.18
42
0.0625
44
0.18
140
0.18
147
0.09
73
0
74
0
77
1
271
2
275
0
278
52
280
0
340
11
0
ENDTAB
0
TABLE
2
VIEW
5
300
100
AcDbSymbolTable
0
ENDTAB
0
TABLE
2
UCS
5
301
100
AcDbSymbolTable
0
ENDTAB
0
TABLE
2
APPID
5
302
100
AcDbSymbolTable
0
APPID
5
12
100
AcDbSymbolTableRecord
100
AcDbRegAppTableRecord
2
ACAD
70
0
0
APPID
5
207
100
AcDbSymbolTableRecord
100
AcDbRegAppTableRecord
2
ACAD_DSTYLE_DIMBREAK
70
0
0
APPID
5
2A6
100
AcDbSymbolTableRecord
100
AcDbRegAppTableRecord
2
ACAD_DSTYLE_DIM_LINETYPE
70
0
0
APPID
5
2A7
100
AcDbSymbolTableRecord
100
AcDbRegAppTableRecord
2
ACAD_DSTYLE_DIM_EXT1_LINETYPE
70
0
0
APPID
5
2A8
100
AcDbSymbolTableRecord
100
AcDbRegAppTableRecord
2
ACAD_DSTYLE_DIM_EXT2_LINETYPE
70
0
0
APPID
5
2E3
100
AcDbSymbolTableRecord
100
AcDbRegAppTableRecord
2
ACAD_MLEADERVER
70
0
0
ENDTAB
0
TABLE
2
BLOCK_RECORD
5
303
100
AcDbSymbolTable
0
BLOCK_RECORD
5
1F
100
AcDbSymbolTableRecord
100
AcDbBlockTableRecord
2
*Model_Space
340
0
70
0
0
BLOCK_RECORD
5
1B
100
AcDbSymbolTableRecord
100
AcDbBlockTableRecord
2
*Paper_Space
340
0
70
0
0
BLOCK_RECORD
5
23
100
AcDbSymbolTableRecord
100
AcDbBlockTableRecord
2
*Paper_Space0
340
0
70
0
0
BLOCK_RECORD
5
20C
100
AcDbSymbolTableRecord
100
AcDbBlockTableRecord
2
*D1
340
0
70
0
0
BLOCK_RECORD
5
21A
100
AcDbSymbolTableRecord
100
AcDbBlockTableRecord
2
_U0
340
0
70
0
0
BLOCK_RECORD
5
226
100
AcDbSymbolTableRecord
100
AcDbBlockTableRecord
2
*D3
340
0
70
0
0
BLOCK_RECORD
5
233
100
AcDbSymbolTableRecord
100
AcDbBlockTableRecord
2
_U1
340
0
70
0
0
BLOCK_RECORD
5
240
100
AcDbSymbolTableRecord
100
AcDbBlockTableRecord
2
*D5
340
0
70
0
0
BLOCK_RECORD
5
24E
100
AcDbSymbolTableRecord
100
AcDbBlockTableRecord
2
_U2
340
0
70
0
0
BLOCK_RECORD
5
25B
100
AcDbSymbolTableRecord
100
AcDbBlockTableRecord
2
*D7
340
0
70
0
0
BLOCK_RECORD
5
267
100
AcDbSymbolTableRecord
100
AcDbBlockTableRecord
2
_U3
340
0
70
0
0
BLOCK_RECORD
5
273
100
AcDbSymbolTableRecord
100
AcDbBlockTableRecord
2
*D9
340
0
70
0
0
BLOCK_RECORD
5
27F
100
AcDbSymbolTableRecord
100
AcDbBlockTableRecord
2
_U4
340
0
70
0
0
ENDTAB
0
ENDSEC
0
SECTION
2
BLOCKS
0
BLOCK
5
20
100
AcDbEntity
8
0
100
AcDbBlockBegin
2
*Model_Space
70
0
10
0
20
0
30
0
3
*Model_Space
0
ENDBLK
5
21
100
AcDbEntity
8
0
100
AcDbBlockEnd
0
BLOCK
5
1C
100
AcDbEntity
8
0
100
AcDbBlockBegin
2
*Paper_Space
70
0
10
0
20
0
30
0
3
*Paper_Space
0
ENDBLK
5
1D
100
AcDbEntity
8
0
100
AcDbBlockEnd
0
BLOCK
5
24
100
AcDbEntity
8
0
100
AcDbBlockBegin
2
*Paper_Space0
70
0
10
0
20
0
30
0
3
*Paper_Space0
0
ENDBLK
5
25
100
AcDbEntity
8
0
100
AcDbBlockEnd
0
BLOCK
5
20D
100
AcDbEntity
8
0
100
AcDbBlockBegin
2
*D1
70
1
10
0
20
0
30
0
3
*D1
0
LINE
5
20F
100
AcDbEntity
8
0
62
256
6
ByLayer
370
-2
48
1
60
0
100
AcDbLine
10
73.5875
20
4.825745
30
0
11
93.5
21
4.825745
31
0
39
0
210
0
220
0
230
1
0
LINE
5
210
100
AcDbEntity
8
0
62
256
6
ByLayer
370
-2
48
1
60
0
100
AcDbLine
10
73.5875
20
-4.825745
30
0
11
93.5
21
-4.825745
31
0
39
0
210
0
220
0
230
1
0
LINE
5
211
100
AcDbEntity
8
0
62
256
6
ByLayer
370
-2
48
1
60
0
100
AcDbLine
10
91.5
20
4.825745
30
0
11
91.5
21
35.715829
31
0
39
0
210
0
220
0
230
1
0
LINE
5
212
100
AcDbEntity
8
0
62
256
6
ByLayer
370
-2
48
1
60
0
100
AcDbLine
10
91.5
20
8.325745
30
0
11
91.5
21
11.825745
31
0
39
0
210
0
220
0
230
1
0
LINE
5
213
100
AcDbEntity
8
0
62
256
6
ByLayer
370
-2
48
1
60
0
100
AcDbLine
10
91.5
20
-8.325745
30
0
11
91.5
21
-11.825745
31
0
39
0
210
0
220
0
230
1
0
SOLID
5
214
100
AcDbEntity
8
0
62
256
6
ByLayer
370
-1
48
1
60
0
100
AcDbTrace
10
90.916667
20
8.325745
30
0
11
92.083333
21
8.325745
31
0
12
91.5
22
4.825745
32
0
13
91.5
23
4.825745
33
0
39
0
210
0
220
0
230
1
0
SOLID
5
215
100
AcDbEntity
8
0
62
256
6
ByLayer
370
-1
48
1
60
0
100
AcDbTrace
10
92.083333
20
-8.325745
30
0
11
90.916667
21
-8.325745
31
0
12
91.5
22
-4.825745
32
0
13
91.5
23
-4.825745
33
0
39
0
210
0
220
0
230
1
0
MTEXT
5
216
100
AcDbEntity
8
0
62
256
6
ByLayer
370
18
48
1
60
0
100
AcDbMText
10
85.5
20
25.644401
30
0
210
0
220
0
230
1
1
\A1;9.651
40
3
41
0
44
1
50
90
71
5
72
5
7
iso_b_vert
0
POINT
5
217
100
AcDbEntity
8
Defpoints
62
0
6
ByLayer
370
-1
48
1
60
0
100
AcDbPoint
10
72
20
4.825745
30
0
39
0
210
0
220
0
230
1
50
360
0
POINT
5
218
100
AcDbEntity
8
Defpoints
62
0
6
ByLayer
370
-1
48
1
60
0
100
AcDbPoint
10
72
20
-4.825745
30
0
39
0
210
0
220
0
230
1
50
360
0
POINT
5
219
100
AcDbEntity
8
Defpoints
62
0
6
ByLayer
370
-1
48
1
60
0
100
AcDbPoint
10
91.5
20
-4.825745
30
0
39
0
210
0
220
0
230
1
50
360
0
ENDBLK
5
20E
100
AcDbEntity
8
0
100
AcDbBlockEnd
0
BLOCK
5
221
100
AcDbEntity
8
0
100
AcDbBlockBegin
2
_U0
70
0
10
0
20
0
30
0
3
_U0
0
MTEXT
5
21B
100
AcDbEntity
8
2
62
256
6
ByLayer
370
18
48
1
60
0
100
AcDbMText
10
90.908886
20
14.960745
30
0
210
0
220
0
230
1
1
\W0.7169;UNC 3/8-16
40
3
41
0
44
1.084337
50
90
71
7
72
5
7
iso_b_vert
0
LINE
5
21C
100
AcDbEntity
8
2
62
256
6
ByLayer
370
13
48
1
60
0
100
AcDbLine
10
73.5875
20
4.825745
30
0
11
93.5
21
4.825745
31
0
39
0
210
0
220
0
230
1
0
LINE
5
21D
100
AcDbEntity
8
2
62
256
6
ByLayer
370
13
48
1
60
0
100
AcDbLine
10
73.5875
20
-4.825745
30
0
11
93.5
21
-4.825745
31
0
39
0
210
0
220
0
230
1
0
LINE
5
21E
100
AcDbEntity
8
2
62
256
6
ByLayer
370
13
48
1
60
0
100
AcDbLine
10
91.5
20
-4.825745
30
0
11
91.5
21
36.463056
31
0
39
0
210
0
220
0
230
1
0
SOLID
5
21F
100
AcDbEntity
8
2
62
256
6
ByLayer
370
18
48
1
60
0
100
AcDbTrace
10
91.5
20
4.825745
30
0
11
91.960784
21
1.325747
31
0
12
91.039216
22
1.325743
32
0
13
91.039216
23
1.325743
33
0
39
0
210
0
220
0
230
1
0
SOLID
5
220
100
AcDbEntity
8
2
62
256
6
ByLayer
370
18
48
1
60
0
100
AcDbTrace
10
91.5
20
-4.825745
30
0
11
91.039216
21
-1.325747
31
0
12
91.960784
22
-1.325743
32
0
13
91.960784
23
-1.325743
33
0
39
0
210
0
220
0
230
1
0
ENDBLK
5
222
100
AcDbEntity
8
0
100
AcDbBlockEnd
0
BLOCK
5
227
100
AcDbEntity
8
0
100
AcDbBlockBegin
2
*D3
70
1
10
0
20
0
30
0
3
*D3
0
LINE
5
229
100
AcDbEntity
8
0
62
256
6
ByLayer
370
-2
48
1
60
0
100
AcDbLine
10
72
20
6.413245
30
0
11
72
21
15.85
31
0
39
0
210
0
220
0
230
1
0
LINE
5
22A
100
AcDbEntity
8
0
62
256
6
ByLayer
370
-2
48
1
60
0
100
AcDbLine
10
67.63
20
1.5875
30
0
11
67.63
21
15.85
31
0
39
0
210
0
220
0
230
1
0
LINE
5
22B
100
AcDbEntity
8
0
62
256
6
ByLayer
370
-2
48
1
60
0
100
AcDbLine
10
75.5
20
13.85
30
0
11
79
21
13.85
31
0
39
0
210
0
220
0
230
1
0
LINE
5
22C
100
AcDbEntity
8
0
62
256
6
ByLayer
370
-2
48
1
60
0
100
AcDbLine
10
64.13
20
13.85
30
0
11
60.63
21
13.85
31
0
39
0
210
0
220
0
230
1
0
SOLID
5
22D
100
AcDbEntity
8
0
62
256
6
ByLayer
370
-1
48
1
60
0
100
AcDbTrace
10
75.5
20
14.433333
30
0
11
75.5
21
13.266667
31
0
12
72
22
13.85
32
0
13
72
23
13.85
33
0
39
0
210
0
220
0
230
1
0
SOLID
5
22E
100
AcDbEntity
8
0
62
256
6
ByLayer
370
-1
48
1
60
0
100
AcDbTrace
10
64.13
20
13.266667
30
0
11
64.13
21
14.433333
31
0
12
67.63
22
13.85
32
0
13
67.63
23
13.85
33
0
39
0
210
0
220
0
230
1
0
MTEXT
5
22F
100
AcDbEntity
8
0
62
256
6
ByLayer
370
18
48
1
60
0
100
AcDbMText
10
69.815
20
19.85
30
0
210
0
220
0
230
1
1
\A1;4.37
40
3
41
0
44
1
50
0
71
5
72
5
7
iso_b_vert
0
POINT
5
230
100
AcDbEntity
8
Defpoints
62
0
6
ByLayer
370
-1
48
1
60
0
100
AcDbPoint
10
72
20
4.825745
30
0
39
0
210
0
220
0
230
1
50
360
0
POINT
5
231
100
AcDbEntity
8
Defpoints
62
0
6
ByLayer
370
-1
48
1
60
0
100
AcDbPoint
10
67.63
20
0
30
0
39
0
210
0
220
0
230
1
50
360
0
POINT
5
232
100
AcDbEntity
8
Defpoints
62
0
6
ByLayer
370
-1
48
1
60
0
100
AcDbPoint
10
67.63
20
13.85
30
0
39
0
210
0
220
0
230
1
50
360
0
ENDBLK
5
228
100
AcDbEntity
8
0
100
AcDbBlockEnd
0
BLOCK
5
23B
100
AcDbEntity
8
0
100
AcDbBlockBegin
2
_U1
70
0
10
0
20
0
30
0
3
_U1
0
MTEXT
5
234
100
AcDbEntity
8
SK2
62
256
6
ByLayer
370
18
48
1
60
0
100
AcDbMText
10
66.322101
20
14.632634
30
0
210
0
220
0
230
1
1
\W0.6474;'C'
40
3.5
41
0
44
1.084337
50
0
71
7
72
5
7
iso_b_vert
0
MTEXT
5
235
100
AcDbEntity
8
SK2
62
256
6
ByLayer
370
18
48
1
60
0
100
AcDbMText
10
66.295601
20
21.735114
30
0
210
0
220
0
230
1
1
\W0.7640;4.37
40
3
41
0
44
1.084337
50
0
71
7
72
5
7
iso_b_vert
0
LINE
5
236
100
AcDbEntity
8
SK2
62
256
6
ByLayer
370
13
48
1
60
0
100
AcDbLine
10
72
20
6.413245
30
0
11
72
21
15.85
31
0
39
0
210
0
220
0
230
1
0
LINE
5
237
100
AcDbEntity
8
SK2
62
256
6
ByLayer
370
13
48
1
60
0
100
AcDbLine
10
67.63
20
1.5875
30
0
11
67.63
21
15.85
31
0
39
0
210
0
220
0
230
1
0
LINE
5
238
100
AcDbEntity
8
SK2
62
256
6
ByLayer
370
13
48
1
60
0
100
AcDbLine
10
79.5
20
13.85
30
0
11
60.13
21
13.85
31
0
39
0
210
0
220
0
230
1
0
SOLID
5
239
100
AcDbEntity
8
SK2
62
256
6
ByLayer
370
18
48
1
60
0
100
AcDbTrace
10
72
20
13.85
30
0
11
75.499998
21
14.310784
31
0
12
75.500002
22
13.389216
32
0
13
75.500002
23
13.389216
33
0
39
0
210
0
220
0
230
1
0
SOLID
5
23A
100
AcDbEntity
8
SK2
62
256
6
ByLayer
370
18
48
1
60
0
100
AcDbTrace
10
67.63
20
13.85
30
0
11
64.130002
21
13.389216
31
0
12
64.129998
22
14.310784
32
0
13
64.129998
23
14.310784
33
0
39
0
210
0
220
0
230
1
0
ENDBLK
5
23C
100
AcDbEntity
8
0
100
AcDbBlockEnd
0
BLOCK
5
241
100
AcDbEntity
8
0
100
AcDbBlockBegin
2
*D5
70
1
10
0
20
0
30
0
3
*D5
0
LINE
5
243
100
AcDbEntity
8
0
62
256
6
ByLayer
370
-2
48
1
60
0
100
AcDbLine
10
72
20
-6.413245
30
0
11
72
21
-13.825745
31
0
39
0
210
0
220
0
230
1
0
LINE
5
244
100
AcDbEntity
8
0
62
256
6
ByLayer
370
-2
48
1
60
0
100
AcDbLine
10
57
20
-6.413245
30
0
11
57
21
-13.825745
31
0
39
0
210
0
220
0
230
1
0
LINE
5
245
100
AcDbEntity
8
0
62
256
6
ByLayer
370
-2
48
1
60
0
100
AcDbLine
10
72
20
-11.825745
30
0
11
92.428571
21
-11.825745
31
0
39
0
210
0
220
0
230
1
0
LINE
5
246
100
AcDbEntity
8
0
62
256
6
ByLayer
370
-2
48
1
60
0
100
AcDbLine
10
75.5
20
-11.825745
30
0
11
79
21
-11.825745
31
0
39
0
210
0
220
0
230
1
0
LINE
5
247
100
AcDbEntity
8
0
62
256
6
ByLayer
370
-2
48
1
60
0
100
AcDbLine
10
53.5
20
-11.825745
30
0
11
50
21
-11.825745
31
0
39
0
210
0
220
0
230
1
0
SOLID
5
248
100
AcDbEntity
8
0
62
256
6
ByLayer
370
-1
48
1
60
0
100
AcDbTrace
10
75.5
20
-11.242412
30
0
11
75.5
21
-12.409078
31
0
12
72
22
-11.825745
32
0
13
72
23
-11.825745
33
0
39
0
210
0
220
0
230
1
0
SOLID
5
249
100
AcDbEntity
8
0
62
256
6
ByLayer
370
-1
48
1
60
0
100
AcDbTrace
10
53.5
20
-12.409078
30
0
11
53.5
21
-11.242412
31
0
12
57
22
-11.825745
32
0
13
57
23
-11.825745
33
0
39
0
210
0
220
0
230
1
0
MTEXT
5
24A
100
AcDbEntity
8
0
62
256
6
ByLayer
370
18
48
1
60
0
100
AcDbMText
10
85.714286
20
-5.825745
30
0
210
0
220
0
230
1
1
\A1;15
40
3
41
0
44
1
50
0
71
5
72
5
7
iso_b_vert
0
POINT
5
24B
100
AcDbEntity
8
Defpoints
62
0
6
ByLayer
370
-1
48
1
60
0
100
AcDbPoint
10
72
20
-4.825745
30
0
39
0
210
0
220
0
230
1
50
360
0
POINT
5
24C
100
AcDbEntity
8
Defpoints
62
0
6
ByLayer
370
-1
48
1
60
0
100
AcDbPoint
10
57
20
-4.825745
30
0
39
0
210
0
220
0
230
1
50
360
0
POINT
5
24D
100
AcDbEntity
8
Defpoints
62
0
6
ByLayer
370
-1
48
1
60
0
100
AcDbPoint
10
57
20
-11.825745
30
0
39
0
210
0
220
0
230
1
50
360
0
ENDBLK
5
242
100
AcDbEntity
8
0
100
AcDbBlockEnd
0
BLOCK
5
256
100
AcDbEntity
8
0
100
AcDbBlockBegin
2
_U2
70
0
10
0
20
0
30
0
3
_U2
0
MTEXT
5
24F
100
AcDbEntity
8
SK2
62
256
6
ByLayer
370
18
48
1
60
0
100
AcDbMText
10
78.159
20
-10.940631
30
0
210
0
220
0
230
1
1
\W0.5321;15
40
3
41
0
44
1.084337
50
0
71
7
72
5
7
iso_b_vert
0
MTEXT
5
250
100
AcDbEntity
8
SK2
62
256
6
ByLayer
370
18
48
1
60
0
100
AcDbMText
10
83.466271
20
-10.58815
30
0
210
0
220
0
230
1
1
\W0.8315;\W0.4158;%%p\W0.8315;0.5
40
2.5
41
0
44
1.084337
50
0
71
7
72
5
7
iso_b_vert
0
LINE
5
251
100
AcDbEntity
8
SK2
62
256
6
ByLayer
370
13
48
1
60
0
100
AcDbLine
10
72
20
-6.413245
30
0
11
72
21
-13.825745
31
0
39
0
210
0
220
0
230
1
0
LINE
5
252
100
AcDbEntity
8
SK2
62
256
6
ByLayer
370
13
48
1
60
0
100
AcDbLine
10
57
20
-6.413245
30
0
11
57
21
-13.825745
31
0
39
0
210
0
220
0
230
1
0
LINE
5
253
100
AcDbEntity
8
SK2
62
256
6
ByLayer
370
13
48
1
60
0
100
AcDbLine
10
57
20
-11.825745
30
0
11
90.583008
21
-11.825745
31
0
39
0
210
0
220
0
230
1
0
SOLID
5
254
100
AcDbEntity
8
SK2
62
256
6
ByLayer
370
18
48
1
60
0
100
AcDbTrace
10
72
20
-11.825745
30
0
11
68.500002
21
-12.286529
31
0
12
68.499998
22
-11.364961
32
0
13
68.499998
23
-11.364961
33
0
39
0
210
0
220
0
230
1
0
SOLID
5
255
100
AcDbEntity
8
SK2
62
256
6
ByLayer
370
18
48
1
60
0
100
AcDbTrace
10
57
20
-11.825745
30
0
11
60.499998
21
-11.364961
31
0
12
60.500002
22
-12.286529
32
0
13
60.500002
23
-12.286529
33
0
39
0
210
0
220
0
230
1
0
ENDBLK
5
257
100
AcDbEntity
8
0
100
AcDbBlockEnd
0
BLOCK
5
25C
100
AcDbEntity
8
0
100
AcDbBlockBegin
2
*D7
70
1
10
0
20
0
30
0
3
*D7
0
LINE
5
25E
100
AcDbEntity
8
0
62
256
6
ByLayer
370
-2
48
1
60
0
100
AcDbLine
10
72
20
-6.413245
30
0
11
72
21
-36.325745
31
0
39
0
210
0
220
0
230
1
0
LINE
5
25F
100
AcDbEntity
8
0
62
256
6
ByLayer
370
-2
48
1
60
0
100
AcDbLine
10
33
20
-5.2125
30
0
11
33
21
-36.325745
31
0
39
0
210
0
220
0
230
1
0
LINE
5
260
100
AcDbEntity
8
0
62
256
6
ByLayer
370
-2
48
1
60
0
100
AcDbLine
10
68.5
20
-34.325745
30
0
11
36.5
21
-34.325745
31
0
39
0
210
0
220
0
230
1
0
SOLID
5
261
100
AcDbEntity
8
0
62
256
6
ByLayer
370
-1
48
1
60
0
100
AcDbTrace
10
68.5
20
-34.909078
30
0
11
68.5
21
-33.742412
31
0
12
72
22
-34.325745
32
0
13
72
23
-34.325745
33
0
39
0
210
0
220
0
230
1
0
SOLID
5
262
100
AcDbEntity
8
0
62
256
6
ByLayer
370
-1
48
1
60
0
100
AcDbTrace
10
36.5
20
-33.742412
30
0
11
36.5
21
-34.909078
31
0
12
33
22
-34.325745
32
0
13
33
23
-34.325745
33
0
39
0
210
0
220
0
230
1
0
MTEXT
5
263
100
AcDbEntity
8
0
62
256
6
ByLayer
370
18
48
1
60
0
100
AcDbMText
10
52.5
20
-28.325745
30
0
210
0
220
0
230
1
1
\A1;39
40
3
41
0
44
1
50
0
71
5
72
5
7
iso_b_vert
0
POINT
5
264
100
AcDbEntity
8
Defpoints
62
0
6
ByLayer
370
-1
48
1
60
0
100
AcDbPoint
10
72
20
-4.825745
30
0
39
0
210
0
220
0
230
1
50
360
0
POINT
5
265
100
AcDbEntity
8
Defpoints
62
0
6
ByLayer
370
-1
48
1
60
0
100
AcDbPoint
10
33
20
-3.625
30
0
39
0
210
0
220
0
230
1
50
360
0
POINT
5
266
100
AcDbEntity
8
Defpoints
62
0
6
ByLayer
370
-1
48
1
60
0
100
AcDbPoint
10
33
20
-34.325745
30
0
39
0
210
0
220
0
230
1
50
360
0
ENDBLK
5
25D
100
AcDbEntity
8
0
100
AcDbBlockEnd
0
BLOCK
5
26E
100
AcDbEntity
8
0
100
AcDbBlockBegin
2
_U3
70
0
10
0
20
0
30
0
3
_U3
0
MTEXT
5
268
100
AcDbEntity
8
SK2
62
256
6
ByLayer
370
18
48
1
60
0
100
AcDbMText
10
50.867172
20
-33.440631
30
0
210
0
220
0
230
1
1
\W0.6927;39
40
3
41
0
44
1.084337
50
0
71
7
72
5
7
iso_b_vert
0
LINE
5
269
100
AcDbEntity
8
SK2
62
256
6
ByLayer
370
13
48
1
60
0
100
AcDbLine
10
72
20
-6.413245
30
0
11
72
21
-36.325745
31
0
39
0
210
0
220
0
230
1
0
LINE
5
26A
100
AcDbEntity
8
SK2
62
256
6
ByLayer
370
13
48
1
60
0
100
AcDbLine
10
33
20
-5.2125
30
0
11
33
21
-36.325745
31
0
39
0
210
0
220
0
230
1
0
LINE
5
26B
100
AcDbEntity
8
SK2
62
256
6
ByLayer
370
13
48
1
60
0
100
AcDbLine
10
72
20
-34.325745
30
0
11
33
21
-34.325745
31
0
39
0
210
0
220
0
230
1
0
SOLID
5
26C
100
AcDbEntity
8
SK2
62
256
6
ByLayer
370
18
48
1
60
0
100
AcDbTrace
10
72
20
-34.325745
30
0
11
68.500002
21
-34.786529
31
0
12
68.499998
22
-33.864961
32
0
13
68.499998
23
-33.864961
33
0
39
0
210
0
220
0
230
1
0
SOLID
5
26D
100
AcDbEntity
8
SK2
62
256
6
ByLayer
370
18
48
1
60
0
100
AcDbTrace
10
33
20
-34.325745
30
0
11
36.499998
21
-33.864961
31
0
12
36.500002
22
-34.786529
32
0
13
36.500002
23
-34.786529
33
0
39
0
210
0
220
0
230
1
0
ENDBLK
5
26F
100
AcDbEntity
8
0
100
AcDbBlockEnd
0
BLOCK
5
274
100
AcDbEntity
8
0
100
AcDbBlockBegin
2
*D9
70
1
10
0
20
0
30
0
3
*D9
0
LINE
5
276
100
AcDbEntity
8
0
62
256
6
ByLayer
370
-2
48
1
60
0
100
AcDbLine
10
72
20
-6.413245
30
0
11
72
21
-25.325745
31
0
39
0
210
0
220
0
230
1
0
LINE
5
277
100
AcDbEntity
8
0
62
256
6
ByLayer
370
-2
48
1
60
0
100
AcDbLine
10
38.85
20
-1.5875
30
0
11
38.85
21
-25.325745
31
0
39
0
210
0
220
0
230
1
0
LINE
5
278
100
AcDbEntity
8
0
62
256
6
ByLayer
370
-2
48
1
60
0
100
AcDbLine
10
68.5
20
-23.325745
30
0
11
42.35
21
-23.325745
31
0
39
0
210
0
220
0
230
1
0
SOLID
5
279
100
AcDbEntity
8
0
62
256
6
ByLayer
370
-1
48
1
60
0
100
AcDbTrace
10
68.5
20
-23.909078
30
0
11
68.5
21
-22.742412
31
0
12
72
22
-23.325745
32
0
13
72
23
-23.325745
33
0
39
0
210
0
220
0
230
1
0
SOLID
5
27A
100
AcDbEntity
8
0
62
256
6
ByLayer
370
-1
48
1
60
0
100
AcDbTrace
10
42.35
20
-22.742412
30
0
11
42.35
21
-23.909078
31
0
12
38.85
22
-23.325745
32
0
13
38.85
23
-23.325745
33
0
39
0
210
0
220
0
230
1
0
MTEXT
5
27B
100
AcDbEntity
8
0
62
256
6
ByLayer
370
18
48
1
60
0
100
AcDbMText
10
55.425
20
-17.325745
30
0
210
0
220
0
230
1
1
\A1;33.2
40
3
41
0
44
1
50
0
71
5
72
5
7
iso_b_vert
0
POINT
5
27C
100
AcDbEntity
8
Defpoints
62
0
6
ByLayer
370
-1
48
1
60
0
100
AcDbPoint
10
72
20
-4.825745
30
0
39
0
210
0
220
0
230
1
50
360
0
POINT
5
27D
100
AcDbEntity
8
Defpoints
62
0
6
ByLayer
370
-1
48
1
60
0
100
AcDbPoint
10
38.85
20
0
30
0
39
0
210
0
220
0
230
1
50
360
0
POINT
5
27E
100
AcDbEntity
8
Defpoints
62
0
6
ByLayer
370
-1
48
1
60
0
100
AcDbPoint
10
38.85
20
-23.325745
30
0
39
0
210
0
220
0
230
1
50
360
0
ENDBLK
5
275
100
AcDbEntity
8
0
100
AcDbBlockEnd
0
BLOCK
5
286
100
AcDbEntity
8
0
100
AcDbBlockBegin
2
_U4
70
0
10
0
20
0
30
0
3
_U4
0
MTEXT
5
280
100
AcDbEntity
8
2
62
256
6
ByLayer
370
18
48
1
60
0
100
AcDbMText
10
52.063544
20
-22.440631
30
0
210
0
220
0
230
1
1
\W0.7346;33.2
40
3
41
0
44
1.084337
50
0
71
7
72
5
7
iso_b_vert
0
LINE
5
281
100
AcDbEntity
8
2
62
256
6
ByLayer
370
13
48
1
60
0
100
AcDbLine
10
72
20
-6.413245
30
0
11
72
21
-25.325745
31
0
39
0
210
0
220
0
230
1
0
LINE
5
282
100
AcDbEntity
8
2
62
256
6
ByLayer
370
13
48
1
60
0
100
AcDbLine
10
38.85
20
-1.5875
30
0
11
38.85
21
-25.325745
31
0
39
0
210
0
220
0
230
1
0
LINE
5
283
100
AcDbEntity
8
2
62
256
6
ByLayer
370
13
48
1
60
0
100
AcDbLine
10
72
20
-23.325745
30
0
11
38.85
21
-23.325745
31
0
39
0
210
0
220
0
230
1
0
SOLID
5
284
100
AcDbEntity
8
2
62
256
6
ByLayer
370
18
48
1
60
0
100
AcDbTrace
10
72
20
-23.325745
30
0
11
68.500002
21
-23.786529
31
0
12
68.499998
22
-22.864961
32
0
13
68.499998
23
-22.864961
33
0
39
0
210
0
220
0
230
1
0
SOLID
5
285
100
AcDbEntity
8
2
62
256
6
ByLayer
370
18
48
1
60
0
100
AcDbTrace
10
38.85
20
-23.325745
30
0
11
42.349998
21
-22.864961
31
0
12
42.350002
22
-23.786529
32
0
13
42.350002
23
-23.786529
33
0
39
0
210
0
220
0
230
1
0
ENDBLK
5
287
100
AcDbEntity
8
0
100
AcDbBlockEnd
0
ENDSEC
0
SECTION
2
ENTITIES
0
ARC
5
D0
100
AcDbEntity
8
SK1
62
256
6
ByLayer
370
18
48
1
60
0
100
AcDbCircle
39
0
10
-21
20
0
30
0
40
4.79999999999972
210
0
220
0
230
1
100
AcDbArc
50
326.44269
51
33.55731
0
ARC
5
D1
100
AcDbEntity
8
1
62
256
6
ByLayer
370
18
48
1
60
0
100
AcDbCircle
39
0
10
33.131233
20
-5.125
30
0
40
1.5
210
0
220
0
230
1
100
AcDbArc
50
90
51
100
0
ARC
5
D2
100
AcDbEntity
8
1
62
256
6
ByLayer
370
18
48
1
60
0
100
AcDbCircle
39
0
10
33.131233
20
5.125
30
0
40
1.5
210
0
220
0
230
1
100
AcDbArc
50
260
51
270
0
POINT
5
70
100
AcDbEntity
8
81
62
256
6
ByLayer
370
18
48
1
60
0
100
AcDbPoint
10
73.65
20
0
30
0
39
0
210
0
220
0
230
1
50
360
0
POINT
5
72
100
AcDbEntity
8
80
62
256
6
ByLayer
370
18
48
1
60
0
100
AcDbPoint
10
0
20
0
30
0
39
0
210
0
220
0
230
1
50
360
0
POINT
5
74
100
AcDbEntity
8
1
62
256
6
ByLayer
370
18
48
1
60
1
100
AcDbPoint
10
72
20
4.825745
30
0
39
0
210
0
220
0
230
1
50
360
0
POINT
5
76
100
AcDbEntity
8
1
62
256
6
ByLayer
370
18
48
1
60
1
100
AcDbPoint
10
72
20
-4.825745
30
0
39
0
210
0
220
0
230
1
50
360
0
POINT
5
77
100
AcDbEntity
8
1
62
256
6
ByLayer
370
18
48
1
60
1
100
AcDbPoint
10
72
20
4.825745
30
0
39
0
210
0
220
0
230
1
50
360
0
POINT
5
78
100
AcDbEntity
8
1
62
256
6
ByLayer
370
18
48
1
60
1
100
AcDbPoint
10
67.63
20
0
30
0
39
0
210
0
220
0
230
1
50
360
0
POINT
5
79
100
AcDbEntity
8
1
62
256
6
ByLayer
370
18
48
1
60
1
100
AcDbPoint
10
72
20
-4.825745
30
0
39
0
210
0
220
0
230
1
50
360
0
POINT
5
7A
100
AcDbEntity
8
1
62
256
6
ByLayer
370
18
48
1
60
1
100
AcDbPoint
10
57
20
-4.825745
30
0
39
0
210
0
220
0
230
1
50
360
0
POINT
5
7B
100
AcDbEntity
8
1
62
256
6
ByLayer
370
18
48
1
60
1
100
AcDbPoint
10
72
20
-4.825745
30
0
39
0
210
0
220
0
230
1
50
360
0
POINT
5
7C
100
AcDbEntity
8
1
62
256
6
ByLayer
370
18
48
1
60
1
100
AcDbPoint
10
33
20
-3.625
30
0
39
0
210
0
220
0
230
1
50
360
0
POINT
5
7D
100
AcDbEntity
8
1
62
256
6
ByLayer
370
18
48
1
60
1
100
AcDbPoint
10
72
20
-4.825745
30
0
39
0
210
0
220
0
230
1
50
360
0
POINT
5
7E
100
AcDbEntity
8
1
62
256
6
ByLayer
370
18
48
1
60
1
100
AcDbPoint
10
38.85
20
0
30
0
39
0
210
0
220
0
230
1
50
360
0
SPLINE
5
D3
100
AcDbEntity
8
1
62
256
6
ByLayer
370
18
48
1
60
0
100
AcDbSpline
70
4
71
3
72
8
73
4
40
0
40
0
40
0
40
0
40
1
40
1
40
1
40
1
41
1
10
71.1637224924636
20
3.86809552009129
30
0
41
1
10
71.1699765973964
20
3.88283203965258
30
0
41
1
10
71.1762676726813
20
3.89394649023905
30
0
41
1
10
71.1826202942241
20
3.90132711684919
30
0
0
SPLINE
5
D4
100
AcDbEntity
8
1
62
256
6
ByLayer
370
13
48
1
60
0
100
AcDbSpline
70
4
71
3
72
8
73
4
40
0
40
0
40
0
40
0
40
1
40
1
40
1
40
1
41
1
10
70.0499383250977
20
-3.90737369842904
30
0
41
1
10
70.0465887847186
20
-3.91308691694937
30
0
41
1
10
70.0432392431082
20
-3.91777101521197
30
0
41
1
10
70.0398896991609
20
-3.92141964923701
30
0
0
SPLINE
5
D5
100
AcDbEntity
8
1
62
256
6
ByLayer
370
18
48
1
60
0
100
AcDbSpline
70
4
71
3
72
10
73
6
40
0
40
0
40
0
40
0
40
0.309868152438793
40
0.309868152438793
40
1
40
1
40
1
40
1
41
1
10
60.5800317228337
20
4.77178722813628
30
0
41
1
10
60.5837944733241
20
4.78249138951355
30
0
41
1
10
60.5875569343116
20
4.79161119351471
30
0
41
1
10
60.5997020016155
20
4.81592933718818
30
0
41
1
10
60.6080879077335
20
4.82485409273662
30
0
41
1
10
60.6165400038745
20
4.82568172487876
30
0
0
SPLINE
5
D6
100
AcDbEntity
8
1
62
256
6
ByLayer
370
18
48
1
60
0
100
AcDbSpline
70
4
71
3
72
8
73
4
40
0
40
0
40
0
40
0
40
1
40
1
40
1
40
1
41
1
10
61.301795806524
20
3.92736900803195
30
0
41
1
10
61.304871424941
20
3.92531520810579
30
0
41
1
10
61.3079470431557
20
3.92239086959469
30
0
41
1
10
61.311022660803
20
3.91859758430158
30
0
0
SPLINE
5
D7
100
AcDbEntity
8
1
62
256
6
ByLayer
370
18
48
1
60
0
100
AcDbSpline
70
4
71
3
72
8
73
4
40
0
40
0
40
0
40
0
40
1
40
1
40
1
40
1
41
1
10
69.0635000107929
20
-4.34958455316058
30
0
41
1
10
69.0667914475575
20
-4.35751565237845
30
0
41
1
10
69.0700745599356
20
-4.36430562492939
30
0
41
1
10
69.0733486898475
20
-4.3699613884408
30
0
0
SPLINE
5
D8
100
AcDbEntity
8
1
62
256
6
ByLayer
370
13
48
1
60
0
100
AcDbSpline
70
4
71
3
72
8
73
4
40
0
40
0
40
0
40
0
40
1
40
1
40
1
40
1
41
1
10
58.9043106605108
20
-3.93009420934979
30
0
41
1
10
58.9143222990771
20
-3.93341444634453
30
0
41
1
10
58.9243339412351
20
-3.9275038233672
30
0
41
1
10
58.934345589535
20
-3.9123421722397
30
0
0
SPLINE
5
D9
100
AcDbEntity
8
1
62
256
6
ByLayer
370
18
48
1
60
0
100
AcDbSpline
70
4
71
3
72
8
73
4
40
0
40
0
40
0
40
0
40
1
40
1
40
1
40
1
41
1
10
68.8104983728808
20
-3.91628388985202
30
0
41
1
10
68.8084781462305
20
-3.913553623018
30
0
41
1
10
68.8064579195946
20
-3.91044732553334
30
0
41
1
10
68.8044376929777
20
-3.90696506746337
30
0
0
SPLINE
5
DA
100
AcDbEntity
8
1
62
256
6
ByLayer
370
13
48
1
60
0
100
AcDbSpline
70
4
71
3
72
9
73
5
40
0
40
0
40
0
40
0
40
0.0619303143927107
40
1
40
1
40
1
40
1
41
1
10
68.8044376929793
20
-3.90696506746608
30
0
41
1
10
68.8040999520517
20
-3.90638290452426
30
0
41
1
10
68.7986463881498
20
-3.89681294363248
30
0
41
1
10
68.7931928243918
20
-3.88450336845332
30
0
41
1
10
68.7880770016363
20
-3.87057781868563
30
0
0
SPLINE
5
DB
100
AcDbEntity
8
1
62
256
6
ByLayer
370
13
48
1
60
0
100
AcDbSpline
70
4
71
3
72
8
73
4
40
0
40
0
40
0
40
0
40
1
40
1
40
1
40
1
41
1
10
57.6524643545819
20
-3.79160936148375
30
0
41
1
10
57.6656400236599
20
-3.84573283123115
30
0
41
1
10
57.6788156926614
20
-3.88433956749014
30
0
41
1
10
57.6919913610645
20
-3.90703355799582
30
0
0
SPLINE
5
DC
100
AcDbEntity
8
1
62
256
6
ByLayer
370
18
48
1
60
0
100
AcDbSpline
70
4
71
3
72
8
73
4
40
0
40
0
40
0
40
0
40
1
40
1
40
1
40
1
41
1
10
57.6919916159603
20
-3.90703399703068
30
0
41
1
10
57.6940380658023
20
-3.91055880441556
30
0
41
1
10
57.6960845156298
20
-3.91369972596277
30
0
41
1
10
57.6981309654409
20
-3.91645527780875
30
0
0
SPLINE
5
DD
100
AcDbEntity
8
1
62
256
6
ByLayer
370
13
48
1
60
0
100
AcDbSpline
70
4
71
3
72
9
73
5
40
0
40
0
40
0
40
0
40
0.0503955957676922
40
1
40
1
40
1
40
1
41
1
10
61.6643356862794
20
3.91285234531338
30
0
41
1
10
61.6654326860108
20
3.91449933771602
30
0
41
1
10
61.687200455781
20
3.94497648190429
30
0
41
1
10
61.7089682233583
20
3.93159712176785
30
0
41
1
10
61.7296389943222
20
3.87977854989859
30
0
0
SPLINE
5
DE
100
AcDbEntity
8
1
62
256
6
ByLayer
370
13
48
1
60
0
100
AcDbSpline
70
4
71
3
72
9
73
5
40
0
40
0
40
0
40
0
40
0.588051465432355
40
1
40
1
40
1
40
1
41
1
10
68.4607967480079
20
-3.91009205493557
30
0
41
1
10
68.4429127858612
20
-3.9387704020989
30
0
41
1
10
68.4125005334097
20
-3.93739059299975
30
0
41
1
10
68.3820886242765
20
-3.85074668859701
30
0
41
1
10
68.3695604747473
20
-3.80105243270529
30
0
0
SPLINE
5
DF
100
AcDbEntity
8
1
62
256
6
ByLayer
370
13
48
1
60
0
100
AcDbSpline
70
4
71
3
72
9
73
5
40
0
40
0
40
0
40
0
40
0.664233437771619
40
1
40
1
40
1
40
1
41
1
10
62.9091097420369
20
3.90210192787163
30
0
41
1
10
62.9251374849187
20
3.87188960661462
30
0
41
1
10
62.9492671486639
20
3.79097674378039
30
0
41
1
10
62.9733967692462
20
3.6585804282341
30
0
41
1
10
62.981498690917
20
3.60857235717907
30
0
0
SPLINE
5
E0
100
AcDbEntity
8
1
62
256
6
ByLayer
370
18
48
1
60
0
100
AcDbSpline
70
4
71
3
72
18
73
14
40
0
40
0
40
0
40
0
40
0.233621537369763
40
0.233621537369763
40
0.489081024913177
40
0.489081024913177
40
0.552945896799029
40
0.552945896799029
40
0.616810768684882
40
0.616810768684882
40
0.744540512456588
40
0.744540512456588
40
1
40
1
40
1
40
1
41
1
10
68.0101601147658
20
-4.66994290355996
30
0
41
1
10
68.0024111508297
20
-4.67193660653382
30
0
41
1
10
67.9947461477836
20
-4.66757414999717
30
0
41
1
10
67.9787711335456
20
-4.64521865742688
30
0
41
1
10
67.9704534569216
20
-4.6259928554897
30
0
41
1
10
67.9599843893304
20
-4.59243280889808
30
0
41
1
10
67.9578867444345
20
-4.58524384823616
30
0
41
1
10
67.9536793977887
20
-4.56990772536309
30
0
41
1
10
67.951567705937
20
-4.56175185518589
30
0
41
1
10
67.945231177408
20
-4.53594365013151
30
0
41
1
10
67.9409975534304
20
-4.51693872700275
30
0
41
1
10
67.9282142981828
20
-4.45462694630083
30
0
41
1
10
67.9196039389379
20
-4.40598369267221
30
0
41
1
10
67.9109955338004
20
-4.34999746293263
30
0
0
SPLINE
5
E1
100
AcDbEntity
8
1
62
256
6
ByLayer
370
18
48
1
60
0
100
AcDbSpline
70
4
71
3
72
18
73
14
40
0
40
0
40
0
40
0
40
0.287956182791538
40
0.287956182791538
40
0.575912365583076
40
0.575912365583076
40
0.647901411280961
40
0.647901411280961
40
0.719890456978846
40
0.719890456978846
40
0.863868548374616
40
0.863868548374616
40
1
40
1
40
1
40
1
41
1
10
67.6064033939572
20
-4.30340868719071
30
0
41
1
10
67.614565926493
20
-4.36918000519532
30
0
41
1
10
67.6226577318057
20
-4.42770182241037
30
0
41
1
10
67.6388561314555
20
-4.53041447797389
30
0
41
1
10
67.6469797246174
20
-4.57462260919155
30
0
41
1
10
67.657354350274
20
-4.62090041662916
30
0
41
1
10
67.6594377037115
20
-4.62970297988045
30
0
41
1
10
67.6636183900918
20
-4.64638745414464
30
0
41
1
10
67.6657174242309
20
-4.6542741186677
30
0
41
1
10
67.6719977495233
20
-4.67641488617269
30
0
41
1
10
67.6761722364315
20
-4.68919497669924
30
0
41
1
10
67.6842597555449
20
-4.71025111934352
30
0
41
1
10
67.6881734776314
20
-4.71873687266435
30
0
41
1
10
67.6920731489506
20
-4.72548218073368
30
0
0
SPLINE
5
E2
100
AcDbEntity
8
1
62
256
6
ByLayer
370
13
48
1
60
0
100
AcDbSpline
70
4
71
3
72
9
73
5
40
0
40
0
40
0
40
0
40
0.602331365238699
40
1
40
1
40
1
40
1
41
1
10
67.1177469427992
20
-3.44309568088616
30
0
41
1
10
67.1381798527959
20
-3.59650547818549
30
0
41
1
10
67.1721028920051
20
-3.79490363078412
30
0
41
1
10
67.2060259257171
20
-3.89003184016175
30
0
41
1
10
67.2195160526832
20
-3.91117375128846
30
0
0
SPLINE
5
E3
100
AcDbEntity
8
1
62
256
6
ByLayer
370
13
48
1
60
0
100
AcDbSpline
70
4
71
3
72
10
73
6
40
0
40
0
40
0
40
0
40
0.150184779648834
40
0.713934309612992
40
1
40
1
40
1
40
1
41
1
10
57.2339796872012
20
-3.69378233483161
30
0
41
1
10
57.2397375868436
20
-3.7244449048336
30
0
41
1
10
57.2671089281064
20
-3.85653832007452
30
0
41
1
10
57.3054474057347
20
-3.94790017892373
30
0
41
1
10
57.338028184119
20
-3.92697788650634
30
0
41
1
10
57.3489955658723
20
-3.90891718171545
30
0
0
SPLINE
5
E4
100
AcDbEntity
8
1
62
256
6
ByLayer
370
18
48
1
60
0
100
AcDbSpline
70
4
71
3
72
8
73
4
40
0
40
0
40
0
40
0
40
1
40
1
40
1
40
1
41
1
10
63.2486190162786
20
3.90767101948998
30
0
41
1
10
63.2523840171652
20
3.91405724300569
30
0
41
1
10
63.256149018048
20
3.91914487533046
30
0
41
1
10
63.2599140189526
20
3.92292928368423
30
0
0
SPLINE
5
E5
100
AcDbEntity
8
1
62
256
6
ByLayer
370
13
48
1
60
0
100
AcDbSpline
70
4
71
3
72
10
73
6
40
0
40
0
40
0
40
0
40
0.204885898578353
40
0.667478453413301
40
1
40
1
40
1
40
1
41
1
10
63.2599140189526
20
3.92292928368426
30
0
41
1
10
63.2694867673494
20
3.93255137672455
30
0
41
1
10
63.3006729223437
20
3.93645176186757
30
0
41
1
10
63.3473952709656
20
3.80712438504514
30
0
41
1
10
63.3845448650961
20
3.58206799763161
30
0
41
1
10
63.4000810502892
20
3.46829987589285
30
0
0
SPLINE
5
E6
100
AcDbEntity
8
1
62
256
6
ByLayer
370
18
48
1
60
0
100
AcDbSpline
70
4
71
3
72
26
73
22
40
0
40
0
40
0
40
0
40
0.081127807414571
40
0.081127807414571
40
0.234273172845476
40
0.387418538276382
40
0.387418538276382
40
0.425704879634108
40
0.425704879634108
40
0.463991220991834
40
0.463991220991834
40
0.540563903707287
40
0.540563903707287
40
0.693709269138191
40
0.846854634569095
40
0.846854634569095
40
0.923427317284547
40
0.923427317284547
40
0.961713658642274
40
0.961713658642274
40
1
40
1
40
1
40
1
41
1
10
63.7928100657739
20
4.82574891428206
30
0
41
1
10
63.7972674984258
20
4.82575693921498
30
0
41
1
10
63.8017126344659
20
4.82350204129398
30
0
41
1
10
63.8145491812957
20
4.81057433936999
30
0
41
1
10
63.8313148733193
20
4.77783368268237
30
0
41
1
10
63.848079025629
20
4.71355113088765
30
0
41
1
10
63.8586250624219
20
4.66326244134305
30
0
41
1
10
63.8607379334694
20
4.6526978891853
30
0
41
1
10
63.8649737258961
20
4.63054376854095
30
0
41
1
10
63.8670965794812
20
4.61895276196947
30
0
41
1
10
63.8734484587858
20
4.58284027411477
30
0
41
1
10
63.8776723876933
20
4.55691866943451
30
0
41
1
10
63.8903113005195
20
4.47371906854403
30
0
41
1
10
63.9070701187518
20
4.34831997360749
30
0
41
1
10
63.9237676694655
20
4.19443638420555
30
0
41
1
10
63.9363826387712
20
4.06819284426302
30
0
41
1
10
63.9406051070546
20
4.02430330409186
30
0
41
1
10
63.9469639938501
20
3.95570607680747
30
0
41
1
10
63.9490898184538
20
3.93235717701808
30
0
41
1
10
63.9533410705892
20
3.88482821414047
30
0
41
1
10
63.9554619118392
20
3.86070028638574
30
0
41
1
10
63.9575783014819
20
3.83621310665183
30
0
0
SPLINE
5
E7
100
AcDbEntity
8
1
62
256
6
ByLayer
370
18
48
1
60
0
100
AcDbSpline
70
4
71
3
72
8
73
4
40
0
40
0
40
0
40
0
40
1
40
1
40
1
40
1
41
1
10
64.4922759220335
20
3.90970717548708
30
0
41
1
10
64.4959290099846
20
3.9038045453934
30
0
41
1
10
64.4995820963746
20
3.89667792581721
30
0
41
1
10
64.5032351800524
20
3.88833033939042
30
0
0
SPLINE
5
E8
100
AcDbEntity
8
1
62
256
6
ByLayer
370
13
48
1
60
0
100
AcDbSpline
70
4
71
3
72
11
73
7
40
0
40
0
40
0
40
0
40
0.0680592862237059
40
0.504003117413609
40
0.939946948603512
40
1
40
1
40
1
40
1
41
1
10
64.503235580963
20
3.88832942327312
30
0
41
1
10
64.5066098614967
20
3.8806188416668
30
0
41
1
10
64.5315975867
20
3.81580502037309
30
0
41
1
10
64.5781984294173
20
3.58863425595288
30
0
41
1
10
64.6244025774035
20
3.1959233239603
30
0
41
1
10
64.6489933256653
20
2.94398962975848
30
0
41
1
10
64.651970661876
20
2.91287880702109
30
0
0
SPLINE
5
E9
100
AcDbEntity
8
1
62
256
6
ByLayer
370
13
48
1
60
0
100
AcDbSpline
70
4
71
3
72
11
73
7
40
0
40
0
40
0
40
0
40
0.113296086787573
40
0.506126339072446
40
0.898956591357319
40
1
40
1
40
1
40
1
41
1
10
66.6992253487876
20
-3.27583648999413
30
0
41
1
10
66.7054588823564
20
-3.3294574373879
30
0
41
1
10
66.7333058623652
20
-3.55565252714737
30
0
41
1
10
66.7827660175135
20
-3.84588600483875
30
0
41
1
10
66.8315521753581
20
-3.94258414733855
30
0
41
1
10
66.8587249690227
20
-3.9278779862008
30
0
41
1
10
66.864284350159
20
-3.92202343829064
30
0
0
SPLINE
5
EA
100
AcDbEntity
8
1
62
256
6
ByLayer
370
18
48
1
60
0
100
AcDbSpline
70
4
71
3
72
8
73
4
40
0
40
0
40
0
40
0
40
1
40
1
40
1
40
1
41
1
10
66.8642840521422
20
-3.92202375212747
30
0
41
1
10
66.8678922508299
20
-3.91822404769735
30
0
41
1
10
66.8715004497051
20
-3.91322559921244
30
0
41
1
10
66.8751086485789
20
-3.90703503997526
30
0
0
SPLINE
5
EB
100
AcDbEntity
8
1
62
256
6
ByLayer
370
13
48
1
60
0
100
AcDbSpline
70
4
71
3
72
11
73
7
40
0
40
0
40
0
40
0
40
0.259709884553527
40
0.627526416248587
40
0.995342947943646
40
1
40
1
40
1
40
1
41
1
10
65.4474171269371
20
-2.64883346648594
30
0
41
1
10
65.462678037867
20
-2.82425965870323
30
0
41
1
10
65.4995523548791
20
-3.21316292227016
30
0
41
1
10
65.5580400879925
20
-3.67063632181006
30
0
41
1
10
65.6015405596131
20
-3.84955868058384
30
0
41
1
10
65.6234276208792
20
-3.89550712897997
30
0
41
1
10
65.6237012756778
20
-3.89607473391192
30
0
0
SPLINE
5
EC
100
AcDbEntity
8
1
62
256
6
ByLayer
370
18
48
1
60
0
100
AcDbSpline
70
4
71
3
72
11
73
7
40
0
40
0
40
0
40
0
40
0.088896556442746
40
0.498091932981033
40
0.978211654766025
40
1
40
1
40
1
40
1
41
1
10
72
20
0.191641618264924
30
0
41
1
10
72
20
0.127764940712808
30
0
41
1
10
71.9999999999999
20
-0.231096413673072
30
0
41
1
10
72
20
-0.940371767527665
30
0
41
1
10
72
20
-1.55371976307654
30
0
41
1
10
72
20
-1.8601428219047
30
0
41
1
10
72
20
-1.8733847519602
30
0
0
SPLINE
5
ED
100
AcDbEntity
8
1
62
256
6
ByLayer
370
18
48
1
60
0
100
AcDbSpline
70
4
71
3
72
10
73
6
40
0
40
0
40
0
40
0
40
0.394122047672089
40
0.788048540524254
40
1
40
1
40
1
40
1
41
1
10
71.6000000453136
20
-1.90115067175179
30
0
41
1
10
71.6000000532969
20
-1.6130976723091
30
0
41
1
10
71.6000000031491
20
-0.993729674288375
30
0
41
1
10
71.5999999392776
20
-0.152006294846814
30
0
41
1
10
71.5999999247761
20
0.354370485590977
30
0
41
1
10
71.5999999216597
20
0.529400412779381
30
0
0
SPLINE
5
EE
100
AcDbEntity
8
1
62
256
6
ByLayer
370
18
48
1
60
0
100
AcDbSpline
70
4
71
3
72
28
73
24
40
0
40
0
40
0
40
0
40
0.0624999999999998
40
0.0624999999999998
40
0.125
40
0.125
40
0.249999999999999
40
0.249999999999999
40
0.374999999999999
40
0.374999999999999
40
0.499999999999998
40
0.499999999999998
40
0.562499999999998
40
0.562499999999998
40
0.624999999999998
40
0.624999999999998
40
0.687499999999998
40
0.687499999999998
40
0.749999999999998
40
0.749999999999998
40
0.874999999999999
40
0.874999999999999
40
1
40
1
40
1
40
1
41
1
10
71.4046106159821
20
0.688517410497127
30
0
41
1
10
71.4081107991859
20
0.633667618286268
30
0
41
1
10
71.4116507805907
20
0.578529950050779
30
0
41
1
10
71.4187401058852
20
0.468419452083935
30
0
41
1
10
71.4222916023688
20
0.413371417075837
30
0
41
1
10
71.4329051320686
20
0.248244840573363
30
0
41
1
10
71.4399256221606
20
0.138183742711618
30
0
41
1
10
71.4535442226002
20
-0.0819116066807055
30
0
41
1
10
71.4601258246598
20
-0.191946831032851
30
0
41
1
10
71.4733251656398
20
-0.411961732189781
30
0
41
1
10
71.4799154600969
20
-0.521943160313214
30
0
41
1
10
71.4898890423246
20
-0.686868872466448
30
0
41
1
10
71.4932187922337
20
-0.741686877095248
30
0
41
1
10
71.4998770946924
20
-0.850657092909614
30
0
41
1
10
71.5032089634958
20
-0.904863999100201
30
0
41
1
10
71.5098822247971
20
-1.01271907461691
30
0
41
1
10
71.5132253827949
20
-1.06640315097434
30
0
41
1
10
71.5199280878065
20
-1.17302699558829
30
0
41
1
10
71.5232851922559
20
-1.22593687932755
30
0
41
1
10
71.5333946043317
20
-1.3834647478765
30
0
41
1
10
71.540190999687
20
-1.48694939103615
30
0
41
1
10
71.5539116481082
20
-1.68975647430463
30
0
41
1
10
71.5608683354808
20
-1.78917577415754
30
0
41
1
10
71.5678136281667
20
-1.88613974606164
30
0
0
SPLINE
5
EF
100
AcDbEntity
8
1
62
256
6
ByLayer
370
13
48
1
60
0
100
AcDbSpline
70
4
71
3
72
11
73
7
40
0
40
0
40
0
40
0
40
0.105599850196473
40
0.466000268436014
40
0.826400686675555
40
1
40
1
40
1
40
1
41
1
10
64.8906392124977
20
3.90888122452259
30
0
41
1
10
64.8969720927403
20
3.89842253307225
30
0
41
1
10
64.9249183814954
20
3.83603662594518
30
0
41
1
10
64.9744780798833
20
3.59888011423428
30
0
41
1
10
65.0281157310341
20
3.1472005422026
30
0
41
1
10
65.0601399859183
20
2.80435746176593
30
0
41
1
10
65.0705508315143
20
2.68608047393693
30
0
0
SPLINE
5
F0
100
AcDbEntity
8
1
62
256
6
ByLayer
370
13
48
1
60
0
100
AcDbSpline
70
4
71
3
72
10
73
6
40
0
40
0
40
0
40
0
40
0.315615914363807
40
0.675645718412618
40
1
40
1
40
1
40
1
41
1
10
66.1423625761048
20
3.69013525324843
30
0
41
1
10
66.1613096932361
20
3.5884937873426
30
0
41
1
10
66.2018701800166
20
3.3041346131254
30
0
41
1
10
66.2619025575108
20
2.69371992969306
30
0
41
1
10
66.3029876646973
20
2.17057003582687
30
0
41
1
10
66.3224594108956
20
1.90562109799603
30
0
0
SPLINE
5
F1
100
AcDbEntity
8
1
62
256
6
ByLayer
370
13
48
1
60
0
100
AcDbSpline
70
4
71
3
72
11
73
7
40
0
40
0
40
0
40
0
40
0.0177309938236431
40
0.37805239254142
40
0.738373791259197
40
1
40
1
40
1
40
1
41
1
10
65.0288893388698
20
-2.40165167114799
30
0
41
1
10
65.0299529068733
20
-2.41475271402382
30
0
41
1
10
65.0526298347866
20
-2.6927193358452
30
0
41
1
10
65.0969202334888
20
-3.17763501640516
30
0
41
1
10
65.1558405088659
20
-3.63370661127539
30
0
41
1
10
65.1931471069519
20
-3.8027738375487
30
0
41
1
10
65.2088403854576
20
-3.85162656379876
30
0
0
SPLINE
5
F2
100
AcDbEntity
8
1
62
256
6
ByLayer
370
13
48
1
60
0
100
AcDbSpline
70
4
71
3
72
11
73
7
40
0
40
0
40
0
40
0
40
0.168288805019477
40
0.528795482581157
40
0.889302160142837
40
1
40
1
40
1
40
1
41
1
10
63.7770858672035
20
-1.5724165019659
30
0
41
1
10
63.7871752633721
20
-1.71630235467524
30
0
41
1
10
63.818878068329
20
-2.15663388468963
30
0
41
1
10
63.8721942826147
20
-2.81757521073359
30
0
41
1
10
63.9220577423303
20
-3.29381107496269
30
0
41
1
10
63.9503078040785
20
-3.49952278492972
30
0
41
1
10
63.9569444571114
20
-3.54418744052748
30
0
0
SPLINE
5
F3
100
AcDbEntity
8
1
62
256
6
ByLayer
370
18
48
1
60
0
100
AcDbSpline
70
4
71
3
72
28
73
24
40
0
40
0
40
0
40
0
40
0.0625000000000005
40
0.0625000000000005
40
0.125000000000001
40
0.125000000000001
40
0.250000000000001
40
0.250000000000001
40
0.375000000000001
40
0.375000000000001
40
0.500000000000001
40
0.500000000000001
40
0.531250000000001
40
0.531250000000001
40
0.5625
40
0.5625
40
0.625
40
0.625
40
0.75
40
0.75
40
0.875
40
0.875
40
1
40
1
40
1
40
1
41
1
10
71.4022185978513
20
-1.80662030834654
30
0
41
1
10
71.3982744298831
20
-1.7559194624146
30
0
41
1
10
71.3943153922611
20
-1.70458403515991
30
0
41
1
10
71.3863638581519
20
-1.60074149640835
30
0
41
1
10
71.3823893101263
20
-1.54846568185081
30
0
41
1
10
71.3704597822356
20
-1.3905976990219
30
0
41
1
10
71.3624980043737
20
-1.28396788885172
30
0
41
1
10
71.3465360318467
20
-1.06798715658289
30
0
41
1
10
71.3385384284387
20
-0.958632095658658
30
0
41
1
10
71.3225107149159
20
-0.73717762851922
30
0
41
1
10
71.3144693456672
20
-0.625084502686605
30
0
41
1
10
71.304358948268
20
-0.483218176226728
30
0
41
1
10
71.3023340865523
20
-0.454757146925175
30
0
41
1
10
71.298278776727
20
-0.397657391075342
30
0
41
1
10
71.2962490667007
20
-0.369028891006707
30
0
41
1
10
71.2901828181543
20
-0.283311639933601
30
0
41
1
10
71.2861579676633
20
-0.226247850012015
30
0
41
1
10
71.2741566403263
20
-0.0552963077051345
30
0
41
1
10
71.2663169600297
20
0.0583539358971166
30
0
41
1
10
71.2509671609336
20
0.285030028523664
30
0
41
1
10
71.2434079359848
20
0.398054870295312
30
0
41
1
10
71.2281399853068
20
0.623462207343238
30
0
41
1
10
71.2204049832114
20
0.735843395199794
30
0
41
1
10
71.2125120602653
20
0.84789160595534
30
0
0
SPLINE
5
F4
100
AcDbEntity
8
1
62
256
6
ByLayer
370
18
48
1
60
0
100
AcDbSpline
70
4
71
3
72
26
73
22
40
0
40
0
40
0
40
0
40
0.125
40
0.125
40
0.250000000000001
40
0.250000000000001
40
0.3125
40
0.3125
40
0.375
40
0.375
40
0.5
40
0.5
40
0.625
40
0.625
40
0.75
40
0.75
40
0.8125
40
0.8125
40
0.875
40
0.875
40
1
40
1
40
1
40
1
41
1
10
70.0352608892822
20
1.85617880562975
30
0
41
1
10
70.0428875354406
20
1.74128062139533
30
0
41
1
10
70.0504397531481
20
1.62434837952151
30
0
41
1
10
70.0655443465384
20
1.38654404433521
30
0
41
1
10
70.0731058618174
20
1.26567312632261
30
0
41
1
10
70.0845450818819
20
1.08141968561623
30
0
41
1
10
70.0883723865978
20
1.0195097297333
30
0
41
1
10
70.096061584934
20
0.894694194314866
30
0
41
1
10
70.0999319574909
20
0.83164956850743
30
0
41
1
10
70.1115080511323
20
0.642573867674997
30
0
41
1
10
70.1191978692225
20
0.516313093133562
30
0
41
1
10
70.1345614607835
20
0.26338121027581
30
0
41
1
10
70.1422285262437
20
0.136709736095895
30
0
41
1
10
70.1574707321914
20
-0.117052725247959
30
0
41
1
10
70.165043875048
20
-0.244143960820537
30
0
41
1
10
70.1764727708763
20
-0.435089976449831
30
0
41
1
10
70.180297496829
20
-0.49883260481775
30
0
41
1
10
70.1879737443163
20
-0.626244299928885
30
0
41
1
10
70.1918065420505
20
-0.689613656946989
30
0
41
1
10
70.2032976420569
20
-0.878721948232112
30
0
41
1
10
70.2109479440008
20
-1.00346374071731
30
0
41
1
10
70.2186065658313
20
-1.12686498178556
30
0
0
SPLINE
5
F5
100
AcDbEntity
8
1
62
256
6
ByLayer
370
13
48
1
60
0
100
AcDbSpline
70
4
71
3
72
11
73
7
40
0
40
0
40
0
40
0
40
0.174729039125562
40
0.475319533199278
40
0.775910027272994
40
1
40
1
40
1
40
1
41
1
10
70.0820235021204
20
-0.908312211921412
30
0
41
1
10
70.0715175488851
20
-0.749267857275754
30
0
41
1
10
70.0429379565456
20
-0.310215065732052
30
0
41
1
10
69.9962847187707
20
0.419878073153796
30
0
41
1
10
69.9466635571995
20
1.17877732313792
30
0
41
1
10
69.9151160344529
20
1.63215797929152
30
0
41
1
10
69.9016421503558
20
1.81804135467439
30
0
0
SPLINE
5
F6
100
AcDbEntity
8
1
62
256
6
ByLayer
370
13
48
1
60
0
100
AcDbSpline
70
4
71
3
72
12
73
8
40
0
40
0
40
0
40
0
40
0.0509403629410684
40
0.351531578403891
40
0.652122793866715
40
0.952714009329538
40
1
40
1
40
1
40
1
41
1
10
69.6634149284931
20
-0.590353250429217
30
0
41
1
10
69.6603520352933
20
-0.543240865445199
30
0
41
1
10
69.6392154749322
20
-0.217229231623889
30
0
41
1
10
69.6000051432906
20
0.396305251947723
30
0
41
1
10
69.5457846225681
20
1.22669624196425
30
0
41
1
10
69.5067943396222
20
1.78332054916706
30
0
41
1
10
69.4858774393492
20
2.06139079441516
30
0
41
1
10
69.4830342602705
20
2.09878861876757
30
0
0
SPLINE
5
F7
100
AcDbEntity
8
1
62
256
6
ByLayer
370
13
48
1
60
0
100
AcDbSpline
70
4
71
3
72
11
73
7
40
0
40
0
40
0
40
0
40
0.108550916515175
40
0.409368128077613
40
0.710185339640051
40
1
40
1
40
1
40
1
41
1
10
67.9929438549533
20
0.694779733915112
30
0
41
1
10
67.9864219332733
20
0.794659556841481
30
0
41
1
10
67.9618263587728
20
1.16869581491881
30
0
41
1
10
67.9191566603039
20
1.79288614175766
30
0
41
1
10
67.8655967729304
20
2.49533184093104
30
0
41
1
10
67.8301107637608
20
2.88697080165329
30
0
41
1
10
67.81269820135
20
3.05727985021653
30
0
0
SPLINE
5
F8
100
AcDbEntity
8
1
62
256
6
ByLayer
370
13
48
1
60
0
100
AcDbSpline
70
4
71
3
72
11
73
7
40
0
40
0
40
0
40
0
40
0.232480988034742
40
0.533281275682116
40
0.83408156332949
40
1
40
1
40
1
40
1
41
1
10
68.4115630966154
20
0.373659302797933
30
0
41
1
10
68.3975944337887
20
0.590013980446429
30
0
41
1
10
68.3655521304229
20
1.0823780123722
30
0
41
1
10
68.3154361922882
20
1.8140235079365
30
0
41
1
10
68.2693196658514
20
2.41650879020574
30
0
41
1
10
68.2412767871015
20
2.73644395702269
30
0
41
1
10
68.2313075479956
20
2.84355263544418
30
0
0
SPLINE
5
F9
100
AcDbEntity
8
1
62
256
6
ByLayer
370
18
48
1
60
0
100
AcDbSpline
70
4
71
3
72
29
73
25
40
0
40
0
40
0
40
0
40
0.125
40
0.125
40
0.250000000000001
40
0.250000000000001
40
0.312500000000001
40
0.343750000000001
40
0.343750000000001
40
0.375000000000001
40
0.375000000000001
40
0.500000000000001
40
0.500000000000001
40
0.625
40
0.625
40
0.75
40
0.75
40
0.78125
40
0.78125
40
0.812499999999999
40
0.812499999999999
40
0.874999999999999
40
0.874999999999999
40
1
40
1
40
1
40
1
41
1
10
68.5775873651448
20
3.1117256955929
30
0
41
1
10
68.5856382624383
20
3.0064476776428
30
0
41
1
10
68.5937034452594
20
2.89698494751511
30
0
41
1
10
68.6098170846215
20
2.66969020046872
30
0
41
1
10
68.6178551458139
20
2.55185975660729
30
0
41
1
10
68.6298767792636
20
2.36873462549775
30
0
41
1
10
68.6358804425098
20
2.27557536357548
30
0
41
1
10
68.6418876362325
20
2.17998374259389
30
0
41
1
10
68.6458959077335
20
2.11570999807046
30
0
41
1
10
68.6479044175161
20
2.08325743922444
30
0
41
1
10
68.6579284091516
20
1.92016799619728
30
0
41
1
10
68.6658546621542
20
1.78749275565033
30
0
41
1
10
68.6816533537346
20
1.5179339729778
30
0
41
1
10
68.6895297601307
20
1.38105218485174
30
0
41
1
10
68.7053981262034
20
1.10314110441945
30
0
41
1
10
68.7133979543557
20
0.962111788394481
30
0
41
1
10
68.7234966091651
20
0.783174074263059
30
0
41
1
10
68.725521199579
20
0.74725358917604
30
0
41
1
10
68.7295804250487
20
0.675143654849961
30
0
41
1
10
68.7316171139342
20
0.638917608354348
30
0
41
1
10
68.7377267900891
20
0.530115458515525
30
0
41
1
10
68.7417943730457
20
0.457504975279562
30
0
41
1
10
68.7539835255942
20
0.239447366537519
30
0
41
1
10
68.7620998190994
20
0.0937749729758082
30
0
41
1
10
68.7701729942632
20
-0.0522050073737148
30
0
0
SPLINE
5
FA
100
AcDbEntity
8
1
62
256
6
ByLayer
370
18
48
1
60
0
100
AcDbSpline
70
4
71
3
72
26
73
22
40
0
40
0
40
0
40
0
40
0.125
40
0.125
40
0.250000000000001
40
0.250000000000001
40
0.375000000000001
40
0.375000000000001
40
0.437500000000001
40
0.437500000000001
40
0.500000000000002
40
0.500000000000002
40
0.625000000000002
40
0.625000000000002
40
0.750000000000002
40
0.750000000000002
40
0.812500000000002
40
0.812500000000002
40
0.875000000000001
40
0.875000000000001
40
1
40
1
40
1
40
1
41
1
10
69.4179747284007
20
-0.562276712810132
30
0
41
1
10
69.409718855361
20
-0.425217662062806
30
0
41
1
10
69.401489862869
20
-0.288201878114109
30
0
41
1
10
69.3851694881008
20
-0.0142508519424211
30
0
41
1
10
69.3771084360982
20
0.122685844789459
30
0
41
1
10
69.3610275637601
20
0.396472952069303
30
0
41
1
10
69.3529788314502
20
0.533321860420159
30
0
41
1
10
69.3407687068974
20
0.738519973075256
30
0
41
1
10
69.3366713012858
20
0.807012029369645
30
0
41
1
10
69.3285045653855
20
0.942572540384987
30
0
41
1
10
69.3244257550016
20
1.00980158352104
30
0
41
1
10
69.3121825550654
20
1.20986340792658
30
0
41
1
10
69.3040039633868
20
1.34107581351961
30
0
41
1
10
69.2875617788868
20
1.59920762003148
30
0
41
1
10
69.2793132255931
20
1.72612618068419
30
0
41
1
10
69.2669463172504
20
1.91319080332104
30
0
41
1
10
69.2628244347756
20
1.97499250348864
30
0
41
1
10
69.254576230087
20
2.09746506427803
30
0
41
1
10
69.2504422790128
20
2.15824061221909
30
0
41
1
10
69.2381046238021
20
2.3374777512627
30
0
41
1
10
69.2299548086091
20
2.45318124804643
30
0
41
1
10
69.2218411452223
20
2.56513258415478
30
0
0
SPLINE
5
FB
100
AcDbEntity
8
1
62
256
6
ByLayer
370
13
48
1
60
0
100
AcDbSpline
70
4
71
3
72
10
73
6
40
0
40
0
40
0
40
0
40
0.292109130758399
40
0.652767186794038
40
1
40
1
40
1
40
1
41
1
10
63.3585580703157
20
-1.27164521326546
30
0
41
1
10
63.3760635159548
20
-1.5293480234526
30
0
41
1
10
63.4151824279496
20
-2.08478780540452
30
0
41
1
10
63.4751100858808
20
-2.82421543669526
30
0
41
1
10
63.517532559988
20
-3.2284288713519
30
0
41
1
10
63.5383414343191
20
-3.39205765881457
30
0
0
SPLINE
5
FC
100
AcDbEntity
8
1
62
256
6
ByLayer
370
13
48
1
60
0
100
AcDbSpline
70
4
71
3
72
11
73
7
40
0
40
0
40
0
40
0
40
0.0820788333179887
40
0.442746183141395
40
0.803413532964802
40
1
40
1
40
1
40
1
41
1
10
62.1067522420055
20
-0.328517706739063
30
0
41
1
10
62.1116709109068
20
-0.404780649845378
30
0
41
1
10
62.138202986953
20
-0.81514312507619
30
0
41
1
10
62.1863484642192
20
-1.54297996170948
30
0
41
1
10
62.2413559589835
20
-2.28886820273658
30
0
41
1
10
62.2747500387955
20
-2.6785295435036
30
0
41
1
10
62.286530709915
20
-2.80686395110158
30
0
0
SPLINE
5
FD
100
AcDbEntity
8
1
62
256
6
ByLayer
370
13
48
1
60
0
100
AcDbSpline
70
4
71
3
72
11
73
7
40
0
40
0
40
0
40
0
40
0.205927699674392
40
0.566772151827817
40
0.927616603981242
40
1
40
1
40
1
40
1
41
1
10
61.6882255106838
20
-0.0061620005530472
30
0
41
1
10
61.7005598864969
20
-0.198079603798163
30
0
41
1
10
61.734507595345
20
-0.726238985510577
30
0
41
1
10
61.7900687636629
20
-1.56474596282095
30
0
41
1
10
61.8376311507611
20
-2.2074137895093
30
0
41
1
10
61.8635800772287
20
-2.519607863186
30
0
41
1
10
61.8679156046559
20
-2.57063333100098
30
0
0
SPLINE
5
FE
100
AcDbEntity
8
1
62
256
6
ByLayer
370
13
48
1
60
0
100
AcDbSpline
70
4
71
3
72
11
73
7
40
0
40
0
40
0
40
0
40
0.191635057640503
40
0.551706257698333
40
0.911777457756164
40
1
40
1
40
1
40
1
41
1
10
66.5609747621224
20
3.56614973889955
30
0
41
1
10
66.5724777272684
20
3.49083445760223
30
0
41
1
10
66.605594099387
20
3.24217004854819
30
0
41
1
10
66.6603238850094
20
2.68953252130808
30
0
41
1
10
66.7088462934159
20
2.06779954303724
30
0
41
1
10
66.7357552898999
20
1.69153589601044
30
0
41
1
10
66.7410508803466
20
1.61642300321864
30
0
0
SPLINE
5
FF
100
AcDbEntity
8
1
62
256
6
ByLayer
370
18
48
1
60
0
100
AcDbSpline
70
4
71
3
72
8
73
4
40
0
40
0
40
0
40
0
40
1
40
1
40
1
40
1
41
1
10
67.4608866496174
20
1.09971566573631
30
0
41
1
10
67.4575964620212
20
1.16892576634368
30
0
41
1
10
67.4543896556772
20
1.23752957157421
30
0
41
1
10
67.45125884654
20
1.30553796339311
30
0
0
SPLINE
5
100
100
AcDbEntity
8
1
62
256
6
ByLayer
370
18
48
1
60
0
100
AcDbSpline
70
4
71
3
72
30
73
26
40
0
40
0
40
0
40
0
40
0.0312499999999999
40
0.0312499999999999
40
0.0624999999999998
40
0.0624999999999998
40
0.125
40
0.125
40
0.250000000000001
40
0.375000000000002
40
0.375000000000002
40
0.437500000000002
40
0.468750000000002
40
0.468750000000002
40
0.500000000000002
40
0.500000000000002
40
0.625000000000001
40
0.625000000000001
40
0.750000000000001
40
0.750000000000001
40
0.875
40
0.875
40
0.9375
40
0.9375
40
1
40
1
40
1
40
1
41
1
10
67.096441554431
20
4.21402040247236
30
0
41
1
10
67.0985476484614
20
4.1943877074842
30
0
41
1
10
67.1006569373157
20
4.17428464683374
30
0
41
1
10
67.1048845745331
20
4.13312831910434
30
0
41
1
10
67.1070044699968
20
4.11205933076099
30
0
41
1
10
67.1133722937807
20
4.04751254380801
30
0
41
1
10
67.1176068130375
20
4.00293112290524
30
0
41
1
10
67.1302772315731
20
3.86463456541455
30
0
41
1
10
67.1470751603242
20
3.66812179043049
30
0
41
1
10
67.1637803840806
20
3.44785242432738
30
0
41
1
10
67.1763792592222
20
3.27365582965854
30
0
41
1
10
67.1827004158951
20
3.18430503081174
30
0
41
1
10
67.1890575992172
20
3.09152012289681
30
0
41
1
10
67.1933035121308
20
3.02889132390391
30
0
41
1
10
67.1954318907465
20
2.99716863634887
30
0
41
1
10
67.2060358276501
20
2.83750805825625
30
0
41
1
10
67.2144393088327
20
2.70578098438156
30
0
41
1
10
67.2311862186262
20
2.43458059204744
30
0
41
1
10
67.2395369502875
20
2.29510694654053
30
0
41
1
10
67.2563264704227
20
2.00842969798143
30
0
41
1
10
67.2647470510198
20
1.86122580559808
30
0
41
1
10
67.2774441163938
20
1.63445536395469
30
0
41
1
10
67.2816963521674
20
1.5577192004065
30
0
41
1
10
67.2901462396877
20
1.40390638848353
30
0
41
1
10
67.2943539339086
20
1.32665352291028
30
0
41
1
10
67.2985543456942
20
1.249060756745
30
0
0
SPLINE
5
101
100
AcDbEntity
8
1
62
256
6
ByLayer
370
18
48
1
60
0
100
AcDbSpline
70
4
71
3
72
10
73
6
40
0
40
0
40
0
40
0
40
0.388052164063643
40
0.388052164063643
40
1
40
1
40
1
40
1
41
1
10
66.5639784410501
20
-4.44199573170175
30
0
41
1
10
66.5359768721117
20
-4.49020690352913
30
0
41
1
10
66.5080380903053
20
-4.53830046038755
30
0
41
1
10
66.4362063993727
20
-4.66189421686849
30
0
41
1
10
66.3923929333169
20
-4.73722557448656
30
0
41
1
10
66.3487052766731
20
-4.81223473216554
30
0
0
SPLINE
5
102
100
AcDbEntity
8
1
62
256
6
ByLayer
370
18
48
1
60
0
100
AcDbSpline
70
4
71
3
72
32
73
28
40
0
40
0
40
0
40
0
40
0.125000000000035
40
0.125000000000035
40
0.187500000000053
40
0.187500000000053
40
0.250000000000071
40
0.250000000000071
40
0.375000000000059
40
0.375000000000059
40
0.437500000000053
40
0.437500000000053
40
0.500000000000047
40
0.500000000000047
40
0.625000000000035
40
0.625000000000035
40
0.687500000000029
40
0.687500000000029
40
0.750000000000023
40
0.750000000000023
40
0.812500000000018
40
0.812500000000018
40
0.875000000000012
40
0.875000000000012
40
0.937500000000006
40
0.937500000000006
40
1
40
1
40
1
40
1
41
1
10
65.6274971322677
20
-3.90350603376663
30
0
41
1
10
65.616318594645
20
-3.88418803623978
30
0
41
1
10
65.603331734249
20
-3.86708871436306
30
0
41
1
10
65.5817007557796
20
-3.84404738506487
30
0
41
1
10
65.5741247943511
20
-3.8368110138882
30
0
41
1
10
65.5582709889637
20
-3.82319124201851
30
0
41
1
10
65.5500485115749
20
-3.81685963395228
30
0
41
1
10
65.5247713597309
20
-3.79938026300314
30
0
41
1
10
65.5070242857147
20
-3.78964981406168
30
0
41
1
10
65.4791137012876
20
-3.77790190875638
30
0
41
1
10
65.4695749992497
20
-3.77446559352811
30
0
41
1
10
65.4504037940901
20
-3.76869511452503
30
0
41
1
10
65.4407311864559
20
-3.7663415753
30
0
41
1
10
65.4114613911983
20
-3.76090555084662
30
0
41
1
10
65.391616179217
20
-3.759415162062
30
0
41
1
10
65.3613248210765
20
-3.76097660537212
30
0
41
1
10
65.3511383632783
20
-3.76214880289501
30
0
41
1
10
65.3310876028656
20
-3.76586065966964
30
0
41
1
10
65.3211627864683
20
-3.7683999041989
30
0
41
1
10
65.301547263993
20
-3.77500174681302
30
0
41
1
10
65.2918153442325
20
-3.77908363674149
30
0
41
1
10
65.2728174953415
20
-3.78896004381338
30
0
41
1
10
65.2636815503317
20
-3.79467999052798
30
0
41
1
10
65.2462215423955
20
-3.80785787002967
30
0
41
1
10
65.2378543561461
20
-3.81535863630168
30
0
41
1
10
65.2222782684336
20
-3.83223570066622
30
0
41
1
10
65.2151770633121
20
-3.8414805623799
30
0
41
1
10
65.2088403854576
20
-3.85162656379876
30
0
0
SPLINE
5
103
100
AcDbEntity
8
1
62
256
6
ByLayer
370
18
48
1
60
0
100
AcDbSpline
70
4
71
3
72
10
73
6
40
0
40
0
40
0
40
0
40
0.5
40
0.5
40
1
40
1
40
1
40
1
41
1
10
65.2088403854576
20
-3.85162656379876
30
0
41
1
10
65.119459175314
20
-3.99473970695826
30
0
41
1
10
65.0305794057468
20
-4.13461729111305
30
0
41
1
10
64.8534732649916
20
-4.4083472113729
30
0
41
1
10
64.7655659120106
20
-4.54164938410472
30
0
41
1
10
64.6781860365141
20
-4.67125034857196
30
0
0
SPLINE
5
104
100
AcDbEntity
8
1
62
256
6
ByLayer
370
18
48
1
60
0
100
AcDbSpline
70
4
71
3
72
8
73
4
40
0
40
0
40
0
40
0
40
1
40
1
40
1
40
1
41
1
10
64.5143299474706
20
-4.62983461477322
30
0
41
1
10
64.568967550078
20
-4.64444709626625
30
0
41
1
10
64.6235778095104
20
-4.65825417951305
30
0
41
1
10
64.6781860365145
20
-4.6712503485725
30
0
0
SPLINE
5
105
100
AcDbEntity
8
1
62
256
6
ByLayer
370
18
48
1
60
0
100
AcDbSpline
70
4
71
3
72
14
73
10
40
0
40
0
40
0
40
0
40
0.25
40
0.25
40
0.5
40
0.5
40
0.75
40
0.75
40
1
40
1
40
1
40
1
41
1
10
64.5143299474717
20
-4.62983461476085
30
0
41
1
10
64.4685285077345
20
-4.54196412823487
30
0
41
1
10
64.4225484698712
20
-4.45330540571487
30
0
41
1
10
64.3303253410928
20
-4.27475363597082
30
0
41
1
10
64.2840644126478
20
-4.18482632547907
30
0
41
1
10
64.1911765955188
20
-4.00369450182305
30
0
41
1
10
64.1445253782723
20
-3.91244169973172
30
0
41
1
10
64.050963779761
20
-3.72902363180469
30
0
41
1
10
64.0040431340234
20
-3.63683857666359
30
0
41
1
10
63.9569444571114
20
-3.54418744052734
30
0
0
SPLINE
5
106
100
AcDbEntity
8
1
62
256
6
ByLayer
370
18
48
1
60
0
100
AcDbSpline
70
4
71
3
72
32
73
28
40
0
40
0
40
0
40
0
40
0.124999999999847
40
0.124999999999847
40
0.187499999999791
40
0.187499999999791
40
0.249999999999735
40
0.249999999999735
40
0.37499999999967
40
0.37499999999967
40
0.437499999999664
40
0.437499999999664
40
0.499999999999657
40
0.499999999999657
40
0.624999999999701
40
0.624999999999701
40
0.687499999999751
40
0.687499999999751
40
0.749999999999801
40
0.749999999999801
40
0.812499999999851
40
0.812499999999851
40
0.8749999999999
40
0.8749999999999
40
0.93749999999995
40
0.93749999999995
40
1
40
1
40
1
40
1
41
1
10
63.9569444571114
20
-3.54418744052748
30
0
41
1
10
63.9457741441364
20
-3.52221352839248
30
0
41
1
10
63.932797842283
20
-3.50205276837301
30
0
41
1
10
63.9111833060056
20
-3.47395249523601
30
0
41
1
10
63.9036129360541
20
-3.46495009954515
30
0
41
1
10
63.8877700729128
20
-3.44764526650002
30
0
41
1
10
63.8795521553512
20
-3.43940675988426
30
0
41
1
10
63.854288393792
20
-3.41607805070052
30
0
41
1
10
63.8365488110352
20
-3.40225645061284
30
0
41
1
10
63.8086451267724
20
-3.3840755788182
30
0
41
1
10
63.79910703387
20
-3.37844021791443
30
0
41
1
10
63.7799356857229
20
-3.36824559201349
30
0
41
1
10
63.7702624857717
20
-3.36365775025038
30
0
41
1
10
63.7409893345533
20
-3.35144520838082
30
0
41
1
10
63.7211397619367
20
-3.34534095723814
30
0
41
1
10
63.6908389367617
20
-3.33978217917229
30
0
41
1
10
63.6806477434862
20
-3.338546620036
30
0
41
1
10
63.6605887447902
20
-3.33748337907733
30
0
41
1
10
63.6506601683757
20
-3.33764105796652
30
0
41
1
10
63.6310381663792
20
-3.3394878842166
30
0
41
1
10
63.6213032755903
20
-3.3411862418358
30
0
41
1
10
63.6023021549503
20
-3.34634464049517
30
0
41
1
10
63.5931657667489
20
-3.34976256035409
30
0
41
1
10
63.5757071828872
20
-3.35845899723347
30
0
41
1
10
63.5673418855953
20
-3.36376888710009
30
0
41
1
10
63.5517716510235
20
-3.37645859324215
30
0
41
1
10
63.5446741823388
20
-3.38373654924587
30
0
41
1
10
63.5383414343191
20
-3.39205765881457
30
0
0
SPLINE
5
107
100
AcDbEntity
8
1
62
256
6
ByLayer
370
18
48
1
60
0
100
AcDbSpline
70
4
71
3
72
10
73
6
40
0
40
0
40
0
40
0
40
0.5
40
0.5
40
1
40
1
40
1
40
1
41
1
10
63.5383414343191
20
-3.39205765881457
30
0
41
1
10
63.4489515626406
20
-3.50951423757917
30
0
41
1
10
63.3600602675551
20
-3.621416613203
30
0
41
1
10
63.1829533103614
20
-3.83456061546397
30
0
41
1
10
63.095055712071
20
-3.93543630226222
30
0
41
1
10
63.0076865198979
20
-4.03062779772679
30
0
0
SPLINE
5
108
100
AcDbEntity
8
1
62
256
6
ByLayer
370
18
48
1
60
0
100
AcDbSpline
70
4
71
3
72
12
73
8
40
0
40
0
40
0
40
0
40
0.500000000000007
40
0.500000000000007
40
0.750000000000004
40
0.750000000000004
40
1
40
1
40
1
40
1
41
1
10
62.8438392876554
20
-3.94303717913653
30
0
41
1
10
62.7523138175253
20
-3.75307900318722
30
0
41
1
10
62.6600463282427
20
-3.56286878662783
30
0
41
1
10
62.5206869884519
20
-3.27844783683085
30
0
41
1
10
62.4740616657474
20
-3.18376323548549
30
0
41
1
10
62.3805161626175
20
-2.99489040804556
30
0
41
1
10
62.333608822744
20
-2.90072948060572
30
0
41
1
10
62.286530709915
20
-2.80686395110155
30
0
0
SPLINE
5
109
100
AcDbEntity
8
1
62
256
6
ByLayer
370
18
48
1
60
0
100
AcDbSpline
70
4
71
3
72
32
73
28
40
0
40
0
40
0
40
0
40
0.125000000000058
40
0.125000000000058
40
0.187500000000067
40
0.187500000000067
40
0.250000000000075
40
0.250000000000075
40
0.375000000000092
40
0.375000000000092
40
0.4375000000001
40
0.4375000000001
40
0.500000000000107
40
0.500000000000107
40
0.625000000000123
40
0.625000000000123
40
0.687500000000103
40
0.687500000000103
40
0.750000000000082
40
0.750000000000082
40
0.812500000000062
40
0.812500000000062
40
0.875000000000041
40
0.875000000000041
40
0.937500000000021
40
0.937500000000021
40
1
40
1
40
1
40
1
41
1
10
62.286530709915
20
-2.80686395110158
30
0
41
1
10
62.2753533561412
20
-2.78457826105597
30
0
41
1
10
62.2623668673497
20
-2.76351199026732
30
0
41
1
10
62.2407342908155
20
-2.73336335905447
30
0
41
1
10
62.2331574344863
20
-2.72356046411454
30
0
41
1
10
62.2173009071447
20
-2.70442831175896
30
0
41
1
10
62.2090759247207
20
-2.6951689323856
30
0
41
1
10
62.1837919354664
20
-2.66850222784035
30
0
41
1
10
62.1660396750361
20
-2.65208135433198
30
0
41
1
10
62.1381203820138
20
-2.62943247699536
30
0
41
1
10
62.1285789028974
20
-2.62220892087711
30
0
41
1
10
62.1094028057016
20
-2.60869521569595
30
0
41
1
10
62.0997279099697
20
-2.60237020117467
30
0
41
1
10
62.0704518397512
20
-2.58470298899206
30
0
41
1
10
62.0506032082354
20
-2.57464339012102
30
0
41
1
10
62.0203086372135
20
-2.56255571595554
30
0
41
1
10
62.0101248322482
20
-2.55904293653722
30
0
41
1
10
61.9900802026325
20
-2.55330881398467
30
0
41
1
10
61.9801589240045
20
-2.55106049891523
30
0
41
1
10
61.9605514903423
20
-2.54793418497818
30
0
41
1
10
61.9508229923993
20
-2.5470541460021
30
0
41
1
10
61.9318388069461
20
-2.54691198201627
30
0
41
1
10
61.9227099379441
20
-2.54764467999692
30
0
41
1
10
61.9052642759619
20
-2.55089190980104
30
0
41
1
10
61.8969044532761
20
-2.55342283219886
30
0
41
1
10
61.8813424600149
20
-2.56052880936045
30
0
41
1
10
61.8742473784707
20
-2.56504274840654
30
0
41
1
10
61.8679156046559
20
-2.57063333100078
30
0
0
SPLINE
5
10A
100
AcDbEntity
8
1
62
256
6
ByLayer
370
18
48
1
60
0
100
AcDbSpline
70
4
71
3
72
12
73
8
40
0
40
0
40
0
40
0
40
0.50000000000001
40
0.50000000000001
40
0.750000000000005
40
0.750000000000005
40
1
40
1
40
1
40
1
41
1
10
61.8679156046559
20
-2.57063333100098
30
0
41
1
10
61.7785107786277
20
-2.64957251595138
30
0
41
1
10
61.6896170002649
20
-2.72114934057433
30
0
41
1
10
61.5567849384922
20
-2.81817449537743
30
0
41
1
10
61.512659814474
20
-2.84874142608166
30
0
41
1
10
61.4247245436089
20
-2.9063941599118
30
0
41
1
10
61.3809035482276
20
-2.93349048579032
30
0
41
1
10
61.3372076202168
20
-2.95883935264737
30
0
0
SPLINE
5
10B
100
AcDbEntity
8
1
62
256
6
ByLayer
370
18
48
1
60
0
100
AcDbSpline
70
4
71
3
72
32
73
28
40
0
40
0
40
0
40
0
40
0.12499999999998
40
0.12499999999998
40
0.187499999999992
40
0.187499999999992
40
0.250000000000004
40
0.250000000000004
40
0.375000000000077
40
0.375000000000077
40
0.437500000000086
40
0.437500000000086
40
0.500000000000096
40
0.500000000000096
40
0.625000000000114
40
0.625000000000114
40
0.687500000000095
40
0.687500000000095
40
0.750000000000076
40
0.750000000000076
40
0.812500000000057
40
0.812500000000057
40
0.875000000000038
40
0.875000000000038
40
0.937500000000019
40
0.937500000000019
40
1
40
1
40
1
40
1
41
1
10
57.2339796872014
20
-3.69378233483329
30
0
41
1
10
57.2455094620269
20
-3.68048069774082
30
0
41
1
10
57.2589575055066
20
-3.66993324061642
30
0
41
1
10
57.2813416574995
20
-3.65724260718457
30
0
41
1
10
57.2891802388889
20
-3.65354756040773
30
0
41
1
10
57.3055743553807
20
-3.64717761598254
30
0
41
1
10
57.3140738322616
20
-3.64453013252299
30
0
41
1
10
57.3400631038527
20
-3.63818078803257
30
0
41
1
10
57.3581760296326
20
-3.63599471509363
30
0
41
1
10
57.3864283841399
20
-3.63563390067779
30
0
41
1
10
57.3960605810977
20
-3.63600901061196
30
0
41
1
10
57.4155466212153
20
-3.63777152719877
30
0
41
1
10
57.425327851887
20
-3.63914892968032
30
0
41
1
10
57.4547705846603
20
-3.64476428297277
30
0
41
1
10
57.4745298651487
20
-3.65046011250706
30
0
41
1
10
57.5043275334499
20
-3.66231519467468
30
0
41
1
10
57.5143418077974
20
-3.66685629209093
30
0
41
1
10
57.5340177258686
20
-3.67699259767568
30
0
41
1
10
57.5437045756197
20
-3.68259079212621
30
0
41
1
10
57.56274176912
20
-3.69493780558986
30
0
41
1
10
57.5720923056605
20
-3.70168536692432
30
0
41
1
10
57.5904010496789
20
-3.71649945883277
30
0
41
1
10
57.5993358935627
20
-3.72456273788328
30
0
41
1
10
57.6162065670391
20
-3.74169629140999
30
0
41
1
10
57.6242100608153
20
-3.75081608027907
30
0
41
1
10
57.6392239446579
20
-3.77032826131347
30
0
41
1
10
57.6462346116254
20
-3.78074508262199
30
0
41
1
10
57.6524643545787
20
-3.79160936147934
30
0
0
SPLINE
5
10C
100
AcDbEntity
8
1
62
256
6
ByLayer
370
18
48
1
60
0
100
AcDbSpline
70
4
71
3
72
12
73
8
40
0
40
0
40
0
40
0
40
0.499999999999992
40
0.499999999999992
40
0.749999999999996
40
0.749999999999996
40
1
40
1
40
1
40
1
41
1
10
57.6524643545819
20
-3.79160936148375
30
0
41
1
10
57.7429645748615
20
-3.94943603863308
30
0
41
1
10
57.8327304635141
20
-4.10716948825944
30
0
41
1
10
57.9666198269663
20
-4.34345372909888
30
0
41
1
10
58.0110562562218
20
-4.42204430023344
30
0
41
1
10
58.099527691732
20
-4.5787343092029
30
0
41
1
10
58.143576592563
20
-4.65685443421629
30
0
41
1
10
58.1874822939445
20
-4.73474825795853
30
0
0
SPLINE
5
10D
100
AcDbEntity
8
1
62
256
6
ByLayer
370
18
48
1
60
0
100
AcDbSpline
70
4
71
3
72
12
73
8
40
0
40
0
40
0
40
0
40
0.25
40
0.25
40
0.499999999999999
40
0.499999999999999
40
1
40
1
40
1
40
1
41
1
10
58.35134144398
20
-4.76240581676305
30
0
41
1
10
58.3966323541272
20
-4.69850404142864
30
0
41
1
10
58.4420926365705
20
-4.6331958843104
30
0
41
1
10
58.5334276194876
20
-4.49977365393434
30
0
41
1
10
58.5793156516291
20
-4.43164076886868
30
0
41
1
10
58.7176435804112
20
-4.22316292210843
30
0
41
1
10
58.8104960453062
20
-4.07912313207095
30
0
41
1
10
58.9043106605108
20
-3.93009420934979
30
0
0
SPLINE
5
10E
100
AcDbEntity
8
1
62
256
6
ByLayer
370
18
48
1
60
0
100
AcDbSpline
70
4
71
3
72
32
73
28
40
0
40
0
40
0
40
0
40
0.125000000000089
40
0.125000000000089
40
0.187500000000111
40
0.187500000000111
40
0.250000000000134
40
0.250000000000134
40
0.375000000000178
40
0.375000000000178
40
0.437500000000199
40
0.437500000000199
40
0.500000000000221
40
0.500000000000221
40
0.625000000000208
40
0.625000000000208
40
0.687500000000174
40
0.687500000000174
40
0.750000000000139
40
0.750000000000139
40
0.812500000000104
40
0.812500000000104
40
0.875000000000069
40
0.875000000000069
40
0.937500000000035
40
0.937500000000035
40
1
40
1
40
1
40
1
41
1
10
58.9043106605108
20
-3.93009420934979
30
0
41
1
10
58.9158466358306
20
-3.91176877070998
30
0
41
1
10
58.9293031249895
20
-3.89607844155944
30
0
41
1
10
58.9517014650924
20
-3.87554508681481
30
0
41
1
10
58.9595450378853
20
-3.86921364778209
30
0
41
1
10
58.9759495603062
20
-3.85752803478584
30
0
41
1
10
58.9844544385302
20
-3.85222027040382
30
0
41
1
10
59.0104585940258
20
-3.83798814598791
30
0
41
1
10
59.02858052141
20
-3.8306311250289
30
0
41
1
10
59.0568444512449
20
-3.82261908959347
30
0
41
1
10
59.0664808997543
20
-3.82045299898033
30
0
41
1
10
59.0859704661164
20
-3.81720399961273
30
0
41
1
10
59.0957529787099
20
-3.81612882666224
30
0
41
1
10
59.1251980272224
20
-3.81453798007257
30
0
41
1
10
59.1449567946797
20
-3.81562935181347
30
0
41
1
10
59.1747504200102
20
-3.82088518014351
30
0
41
1
10
59.1847618247009
20
-3.82326705291834
30
0
41
1
10
59.2044271899476
20
-3.8292795178055
30
0
41
1
10
59.2141086077084
20
-3.83290747258539
30
0
41
1
10
59.2331347791083
20
-3.84150749931805
30
0
41
1
10
59.2424796871977
20
-3.84647797266135
30
0
41
1
10
59.2607769379744
20
-3.85795505364484
30
0
41
1
10
59.2697049023367
20
-3.86446324642722
30
0
41
1
10
59.2865634498244
20
-3.87882793799503
30
0
41
1
10
59.2945613757292
20
-3.8867211096412
30
0
41
1
10
59.3095654504927
20
-3.90414378982791
30
0
41
1
10
59.3165724958062
20
-3.91370039972799
30
0
41
1
10
59.3228000519189
20
-3.92394544808275
30
0
0
SPLINE
5
10F
100
AcDbEntity
8
1
62
256
6
ByLayer
370
18
48
1
60
0
100
AcDbSpline
70
4
71
3
72
12
73
8
40
0
40
0
40
0
40
0
40
0.5
40
0.5
40
0.75
40
0.75
40
1
40
1
40
1
40
1
41
1
10
59.3228000519219
20
-3.92394544808886
30
0
41
1
10
59.4133162281358
20
-4.07285500193123
30
0
41
1
10
59.5030924319209
20
-4.21904129525208
30
0
41
1
10
59.6369935458412
20
-4.43414746465101
30
0
41
1
10
59.6814328888363
20
-4.50504424342066
30
0
41
1
10
59.7699132904672
20
-4.64509408819399
30
0
41
1
10
59.8139683272045
20
-4.71427441743029
30
0
41
1
10
59.8578804944182
20
-4.78264889300544
30
0
0
SPLINE
5
110
100
AcDbEntity
8
1
62
256
6
ByLayer
370
18
48
1
60
0
100
AcDbSpline
70
4
71
3
72
8
73
4
40
0
40
0
40
0
40
0
40
1
40
1
40
1
40
1
41
1
10
60.021747715314
20
-4.75936921406824
30
0
41
1
10
59.9670522613973
20
-4.76795871488366
30
0
41
1
10
59.9124365894318
20
-4.77571963390952
30
0
41
1
10
59.8578804944181
20
-4.78264889300547
30
0
0
SPLINE
5
111
100
AcDbEntity
8
1
62
256
6
ByLayer
370
18
48
1
60
0
100
AcDbSpline
70
4
71
3
72
12
73
8
40
0
40
0
40
0
40
0
40
0.25
40
0.25
40
0.5
40
0.5
40
1
40
1
40
1
40
1
41
1
10
60.0217477153137
20
-4.75936921405395
30
0
41
1
10
60.0670318954741
20
-4.67803018240068
30
0
41
1
10
60.1124890107687
20
-4.59589112498668
30
0
41
1
10
60.2038189805893
20
-4.43004033246317
30
0
41
1
10
60.2497047981642
20
-4.34630475262202
30
0
41
1
10
60.3880194726925
20
-4.0929131655962
30
0
41
1
10
60.4808517762101
20
-3.92152921994943
30
0
41
1
10
60.5746411102841
20
-3.74781643371955
30
0
0
SPLINE
5
112
100
AcDbEntity
8
1
62
256
6
ByLayer
370
18
48
1
60
0
100
AcDbSpline
70
4
71
3
72
32
73
28
40
0
40
0
40
0
40
0
40
0.125000000000126
40
0.125000000000126
40
0.187500000000167
40
0.187500000000167
40
0.250000000000208
40
0.250000000000208
40
0.37500000000024
40
0.37500000000024
40
0.437500000000256
40
0.437500000000256
40
0.500000000000271
40
0.500000000000271
40
0.625000000000245
40
0.625000000000245
40
0.687500000000205
40
0.687500000000205
40
0.750000000000164
40
0.750000000000164
40
0.812500000000123
40
0.812500000000123
40
0.875000000000082
40
0.875000000000082
40
0.937500000000041
40
0.937500000000041
40
1
40
1
40
1
40
1
41
1
10
60.5746411102841
20
-3.74781643371955
30
0
41
1
10
60.5861828351391
20
-3.72643932082872
30
0
41
1
10
60.5996470156728
20
-3.70729363296067
30
0
41
1
10
60.6220577974861
20
-3.6811245119232
30
0
41
1
10
60.6299056789062
20
-3.67283687926493
30
0
41
1
10
60.6463190095523
20
-3.65709032927481
30
0
41
1
10
60.6548284523988
20
-3.64969175243232
30
0
41
1
10
60.6808448483094
20
-3.6291033205874
30
0
41
1
10
60.6989738868799
20
-3.61736351594084
30
0
41
1
10
60.72724649288
20
-3.60255672923319
30
0
41
1
10
60.7368859769398
20
-3.59808025992953
30
0
41
1
10
60.7563779544653
20
-3.59016611123314
30
0
41
1
10
60.7661612460923
20
-3.5867523538291
30
0
41
1
10
60.7956073100958
20
-3.5781211257312
30
0
41
1
10
60.815365013637
20
-3.57448667653114
30
0
41
1
10
60.8451541053758
20
-3.57257158470492
30
0
41
1
10
60.8551627424634
20
-3.57253625948297
30
0
41
1
10
60.8748191605571
20
-3.57377661857072
30
0
41
1
10
60.8844959352627
20
-3.57504327328257
30
0
41
1
10
60.9035126133927
20
-3.57896966630824
30
0
41
1
10
60.9128526445335
20
-3.58162761933687
30
0
41
1
10
60.9311396936311
20
-3.58853126235169
30
0
41
1
10
60.9400619208492
20
-3.59278394844361
30
0
41
1
10
60.9569099953128
20
-3.60283297603428
30
0
41
1
10
60.9649029744683
20
-3.60864932095561
30
0
41
1
10
60.9798981196609
20
-3.62210520600257
30
0
41
1
10
60.9869019792482
20
-3.62977150996426
30
0
41
1
10
60.9931276046393
20
-3.6382925290072
30
0
0
SPLINE
5
113
100
AcDbEntity
8
1
62
256
6
ByLayer
370
18
48
1
60
0
100
AcDbSpline
70
4
71
3
72
10
73
6
40
0
40
0
40
0
40
0
40
0.5
40
0.5
40
1
40
1
40
1
40
1
41
1
10
60.9931276046422
20
-3.63829252901419
30
0
41
1
10
61.0836729946185
20
-3.76222208529586
30
0
41
1
10
61.1734713159007
20
-3.88108072707485
30
0
41
1
10
61.3520318493812
20
-4.10864340624619
30
0
41
1
10
61.4404684257713
20
-4.21686265261536
30
0
41
1
10
61.5283043888992
20
-4.31982687142198
30
0
0
SPLINE
5
114
100
AcDbEntity
8
1
62
256
6
ByLayer
370
18
48
1
60
0
100
AcDbSpline
70
4
71
3
72
8
73
4
40
0
40
0
40
0
40
0
40
1
40
1
40
1
40
1
41
1
10
61.6921724482513
20
-4.24811685224643
30
0
41
1
10
61.6374808739634
20
-4.27276604753962
30
0
41
1
10
61.5828617409759
20
-4.29667100418794
30
0
41
1
10
61.5283043888991
20
-4.31982687142218
30
0
0
SPLINE
5
115
100
AcDbEntity
8
1
62
256
6
ByLayer
370
18
48
1
60
0
100
AcDbSpline
70
4
71
3
72
12
73
8
40
0
40
0
40
0
40
0
40
0.249999999999999
40
0.249999999999999
40
0.5
40
0.5
40
1
40
1
40
1
40
1
41
1
10
61.6921724482513
20
-4.24811685224645
30
0
41
1
10
61.7374459523659
20
-4.15811518533488
30
0
41
1
10
61.7828916203373
20
-4.06800527842378
30
0
41
1
10
61.8742012952396
20
-3.88760400449766
30
0
41
1
10
61.9200780905332
20
-3.79728746338083
30
0
41
1
10
62.0583710364989
20
-3.5262797521373
30
0
41
1
10
62.1511996954173
20
-3.34601446317683
30
0
41
1
10
62.2449740606241
20
-3.16631788887915
30
0
0
SPLINE
5
116
100
AcDbEntity
8
1
62
256
6
ByLayer
370
18
48
1
60
0
100
AcDbSpline
70
4
71
3
72
14
73
10
40
0
40
0
40
0
40
0
40
0.336856190652107
40
0.336856190652107
40
0.505284285978216
40
0.505284285978216
40
0.673712381304325
40
0.673712381304325
40
1
40
1
40
1
40
1
41
1
10
62.2449740606242
20
-3.16631788887915
30
0
41
1
10
62.256523105287
20
-3.14418685383851
30
0
41
1
10
62.2699967534739
20
-3.12364200723911
30
0
41
1
10
62.2924223663226
20
-3.09464568497498
30
0
41
1
10
62.3002753120748
20
-3.08529092237862
30
0
41
1
10
62.3166988143548
20
-3.06717190118692
30
0
41
1
10
62.3252133893489
20
-3.05847543568151
30
0
41
1
10
62.3506990030273
20
-3.03425394799342
30
0
41
1
10
62.3682429309073
20
-3.01980518224235
30
0
41
1
10
62.3864619202641
20
-3.00678596729898
30
0
0
SPLINE
5
117
100
AcDbEntity
8
1
62
256
6
ByLayer
370
18
48
1
60
0
100
AcDbSpline
70
4
71
3
72
10
73
6
40
0
40
0
40
0
40
0
40
0.5
40
0.5
40
1
40
1
40
1
40
1
41
1
10
68.2313075479956
20
2.84355263544418
30
0
41
1
10
68.2895633416194
20
2.89396132462295
30
0
41
1
10
68.3475108192319
20
2.94147590884154
30
0
41
1
10
68.4629208689814
20
3.03085410234837
30
0
41
1
10
68.5204229225114
20
3.07274147783585
30
0
41
1
10
68.5775873651448
20
3.11172569559304
30
0
0
SPLINE
5
118
100
AcDbEntity
8
1
62
256
6
ByLayer
370
18
48
1
60
0
100
AcDbSpline
70
4
71
3
72
8
73
4
40
0
40
0
40
0
40
0
40
1
40
1
40
1
40
1
41
1
10
68.5775873651448
20
3.11172569559312
30
0
41
1
10
68.7916151380182
20
2.93330011567875
30
0
41
1
10
69.0062161052872
20
2.7508990090264
30
0
41
1
10
69.2218411452223
20
2.56513258415475
30
0
0
SPLINE
5
119
100
AcDbEntity
8
1
62
256
6
ByLayer
370
18
48
1
60
0
100
AcDbSpline
70
4
71
3
72
8
73
4
40
0
40
0
40
0
40
0
40
1
40
1
40
1
40
1
41
1
10
69.2218411452223
20
2.56513258415475
30
0
41
1
10
69.3082782739642
20
2.40652574278249
30
0
41
1
10
69.3952538754965
20
2.25101357659329
30
0
41
1
10
69.4830342602705
20
2.09878861876797
30
0
0
SPLINE
5
11A
100
AcDbEntity
8
1
62
256
6
ByLayer
370
18
48
1
60
0
100
AcDbSpline
70
4
71
3
72
32
73
28
40
0
40
0
40
0
40
0
40
0.124999999999956
40
0.124999999999956
40
0.187499999999933
40
0.187499999999933
40
0.249999999999911
40
0.249999999999911
40
0.374999999999816
40
0.374999999999816
40
0.437499999999796
40
0.437499999999796
40
0.499999999999775
40
0.499999999999775
40
0.62499999999979
40
0.62499999999979
40
0.687499999999825
40
0.687499999999825
40
0.74999999999986
40
0.74999999999986
40
0.812499999999895
40
0.812499999999895
40
0.87499999999993
40
0.87499999999993
40
0.937499999999965
40
0.937499999999965
40
1
40
1
40
1
40
1
41
1
10
69.4830342602705
20
2.09878861876797
30
0
41
1
10
69.4946259568932
20
2.07868679836639
30
0
41
1
10
69.5081533356988
20
2.05922306989771
30
0
41
1
10
69.5306618262329
20
2.03077154631021
30
0
41
1
10
69.5385429001388
20
2.02141411809842
30
0
41
1
10
69.5550224361449
20
2.00293802990024
30
0
41
1
10
69.5635624755901
20
1.99388935763935
30
0
41
1
10
69.5896625843345
20
1.96762106854317
30
0
41
1
10
69.6078383517345
20
1.95111228509515
30
0
41
1
10
69.6361555038044
20
1.92772244874837
30
0
41
1
10
69.6458076261369
20
1.92013020314357
30
0
41
1
10
69.6653010481098
20
1.9055378872543
30
0
41
1
10
69.6750812176288
20
1.89858074740223
30
0
41
1
10
69.7045082623455
20
1.87870130768323
30
0
41
1
10
69.7242405682088
20
1.86675452240073
30
0
41
1
10
69.7539797227486
20
1.85096709451796
30
0
41
1
10
69.7639656338826
20
1.84604445125777
30
0
41
1
10
69.7835683389161
20
1.83718366836806
30
0
41
1
10
69.793219589921
20
1.83322333741396
30
0
41
1
10
69.8121885632008
20
1.82630932219791
30
0
41
1
10
69.8215065314611
20
1.82335443487395
30
0
41
1
10
69.8397513040479
20
1.81858186523687
30
0
41
1
10
69.8486532290641
20
1.81678037390569
30
0
41
1
10
69.8654673391034
20
1.81457335104031
30
0
41
1
10
69.8734458838911
20
1.8141473599849
30
0
41
1
10
69.8884173601913
20
1.8148549021663
30
0
41
1
10
69.895416326522
20
1.81600336770356
30
0
41
1
10
69.901642150353
20
1.81804135467314
30
0
0
SPLINE
5
11B
100
AcDbEntity
8
1
62
256
6
ByLayer
370
18
48
1
60
0
100
AcDbSpline
70
4
71
3
72
8
73
4
40
0
40
0
40
0
40
0
40
1
40
1
40
1
40
1
41
1
10
69.9016421503555
20
1.81804135467877
30
0
41
1
10
69.9463551520035
20
1.83267789390914
30
0
41
1
10
69.9908844991576
20
1.84537426313079
30
0
41
1
10
70.0352608892822
20
1.85617880562989
30
0
0
SPLINE
5
11C
100
AcDbEntity
8
1
62
256
6
ByLayer
370
18
48
1
60
0
100
AcDbSpline
70
4
71
3
72
14
73
10
40
0
40
0
40
0
40
0
40
0.25
40
0.25
40
0.375
40
0.375
40
0.5
40
0.5
40
1
40
1
40
1
40
1
41
1
10
70.0352608892823
20
1.85617880562989
30
0
41
1
10
70.1313570736863
20
1.77227639871813
30
0
41
1
10
70.2280057076812
20
1.68809651500729
30
0
41
1
10
70.3739398300984
20
1.56156403953372
30
0
41
1
10
70.4227437440465
20
1.51934189800653
30
0
41
1
10
70.5206857495678
20
1.43482762054904
30
0
41
1
10
70.5698666533506
20
1.39249826826728
30
0
41
1
10
70.8160345432622
20
1.18124646230825
30
0
41
1
10
71.0137498995353
20
1.01369658761723
30
0
41
1
10
71.2125120602631
20
0.847891605952611
30
0
0
SPLINE
5
11D
100
AcDbEntity
8
1
62
256
6
ByLayer
370
18
48
1
60
0
100
AcDbSpline
70
4
71
3
72
18
73
14
40
0
40
0
40
0
40
0
40
0.12499999999994
40
0.12499999999994
40
0.249999999999879
40
0.249999999999879
40
0.499999999999876
40
0.499999999999876
40
0.624999999999874
40
0.624999999999874
40
0.749999999999873
40
0.749999999999873
40
1
40
1
40
1
40
1
41
1
10
71.2125120602637
20
0.847891605952441
30
0
41
1
10
71.2194616587192
20
0.84076412056794
30
0
41
1
10
71.2266932440077
20
0.833585305721812
30
0
41
1
10
71.2413872866888
20
0.819422992609987
30
0
41
1
10
71.2488820378125
20
0.812405348200258
30
0
41
1
10
71.2717797984373
20
0.791528120360965
30
0
41
1
10
71.287592979457
20
0.777843385906266
30
0
41
1
10
71.3120877261035
20
0.757624370599643
30
0
41
1
10
71.3204181149619
20
0.750908694684966
30
0
41
1
10
71.3371396011873
20
0.737734733999048
30
0
41
1
10
71.3455245897304
20
0.731279667187664
30
0
41
1
10
71.3707437769264
20
0.712296742213937
30
0
41
1
10
71.3876415213488
20
0.70014671275311
30
0
41
1
10
71.4046106159821
20
0.688517410497127
30
0
0
SPLINE
5
11E
100
AcDbEntity
8
1
62
256
6
ByLayer
370
18
48
1
60
0
100
AcDbSpline
70
4
71
3
72
8
73
4
40
0
40
0
40
0
40
0
40
1
40
1
40
1
40
1
41
1
10
71.4046106159821
20
0.688517410497127
30
0
41
1
10
71.4694709718384
20
0.635101599294728
30
0
41
1
10
71.5345865286125
20
0.582045747426207
30
0
41
1
10
71.5999999216597
20
0.529400412779665
30
0
0
SPLINE
5
11F
100
AcDbEntity
8
1
62
256
6
ByLayer
370
18
48
1
60
0
100
AcDbSpline
70
4
71
3
72
10
73
6
40
0
40
0
40
0
40
0
40
0.5
40
0.5
40
1
40
1
40
1
40
1
41
1
10
71.5999999216597
20
0.529400412779637
30
0
41
1
10
71.6640183247105
20
0.464107118042676
30
0
41
1
10
71.7292051022321
20
0.40298026246802
30
0
41
1
10
71.8626194071151
20
0.289827851740256
30
0
41
1
10
71.930619300216
20
0.23798375133228
30
0
41
1
10
72.0000000000003
20
0.191641618264697
30
0
0
SPLINE
5
120
100
AcDbEntity
8
1
62
256
6
ByLayer
370
18
48
1
60
0
100
AcDbSpline
70
4
71
3
72
61
73
57
40
0
40
0
40
0
40
0
40
0.0156249999999999
40
0.0156249999999999
40
0.0312499999999998
40
0.0312499999999998
40
0.0624999999999998
40
0.0624999999999998
40
0.125
40
0.125
40
0.15625
40
0.15625
40
0.1875
40
0.1875
40
0.21875
40
0.21875
40
0.25
40
0.25
40
0.265625
40
0.265625
40
0.28125
40
0.28125
40
0.3125
40
0.3125
40
0.375
40
0.375
40
0.4375
40
0.4375
40
0.5
40
0.5625
40
0.5625
40
0.625
40
0.625
40
0.65625
40
0.65625
40
0.671875
40
0.671875
40
0.6875
40
0.6875
40
0.71875
40
0.71875
40
0.75
40
0.75
40
0.78125
40
0.78125
40
0.812499999999999
40
0.812499999999999
40
0.875
40
0.875
40
0.890625
40
0.890625
40
0.90625
40
0.90625
40
0.9375
40
0.9375
40
1
40
1
40
1
40
1
41
1
10
72
20
0.191641618264924
30
0
41
1
10
72.0000000000001
20
0.19139861073225
30
0
41
1
10
72
20
0.191662640510714
30
0
41
1
10
72
20
0.193209200561768
30
0
41
1
10
72
20
0.194494047300964
30
0
41
1
10
72
20
0.199878252337214
30
0
41
1
10
72.0000000000001
20
0.205468314647959
30
0
41
1
10
72.0000000000001
20
0.228100113704869
30
0
41
1
10
72
20
0.250986957530671
30
0
41
1
10
72
20
0.296814094260384
30
0
41
1
10
72.0000000000001
20
0.3140324831638
30
0
41
1
10
72
20
0.352440938826959
30
0
41
1
10
72.0000000000001
20
0.373724175580946
30
0
41
1
10
72
20
0.419484431826362
30
0
41
1
10
72
20
0.444021777867505
30
0
41
1
10
72
20
0.496347302196767
30
0
41
1
10
72
20
0.524104627874721
30
0
41
1
10
72.0000000000001
20
0.56818541599975
30
0
41
1
10
72
20
0.583370885400171
30
0
41
1
10
72
20
0.613825242456841
30
0
41
1
10
72
20
0.629143163876819
30
0
41
1
10
72
20
0.675287631032717
30
0
41
1
10
72
20
0.706326165850072
30
0
41
1
10
72
20
0.800286793922595
30
0
41
1
10
72.0000000000001
20
0.864057858793217
30
0
41
1
10
72.0000000000001
20
0.993895564550513
30
0
41
1
10
72
20
1.05999736285361
30
0
41
1
10
72
20
1.19424507919621
30
0
41
1
10
72
20
1.33054482442969
30
0
41
1
10
72.0000000000001
20
1.47094426348698
30
0
41
1
10
72.0000000000001
20
1.61339731148541
30
0
41
1
10
72.0000000000001
20
1.68568593336789
30
0
41
1
10
72.0000000000001
20
1.79551538508818
30
0
41
1
10
72.0000000000001
20
1.83234002348777
30
0
41
1
10
72.0000000000001
20
1.88791417932413
30
0
41
1
10
72
20
1.90649904149547
30
0
41
1
10
72.0000000000001
20
1.94375969408716
30
0
41
1
10
72
20
1.96240973538207
30
0
41
1
10
72
20
2.01964553920357
30
0
41
1
10
72
20
2.05919396605947
30
0
41
1
10
72
20
2.14089080790276
30
0
41
1
10
72
20
2.1830615570295
30
0
41
1
10
72
20
2.2701330367114
30
0
41
1
10
72
20
2.31505018584235
30
0
41
1
10
72
20
2.40766860100251
30
0
41
1
10
72.0000000000001
20
2.45464187414947
30
0
41
1
10
72.0000000000001
20
2.59748224290661
30
0
41
1
10
72.0000000000001
20
2.69527922111922
30
0
41
1
10
72.0000000000001
20
2.82072610196721
30
0
41
1
10
72
20
2.84597601258619
30
0
41
1
10
72
20
2.89680242257046
30
0
41
1
10
72.0000000000001
20
2.92242959973308
30
0
41
1
10
72.0000000000001
20
2.99945397175404
30
0
41
1
10
72
20
3.05070874573283
30
0
41
1
10
71.9999999999999
20
3.20420128500615
30
0
41
1
10
72
20
3.30616971267372
30
0
41
1
10
72
20
3.40777174417383
30
0
0
SPLINE
5
121
100
AcDbEntity
8
1
62
256
6
ByLayer
370
18
48
1
60
0
100
AcDbSpline
70
4
71
3
72
14
73
10
40
0
40
0
40
0
40
0
40
0.499999999999977
40
0.499999999999977
40
0.749999999999989
40
0.749999999999989
40
0.874999999999995
40
0.874999999999995
40
1
40
1
40
1
40
1
41
1
10
72
20
3.40777174417383
30
0
41
1
10
71.9343935084772
20
3.47486920819654
30
0
41
1
10
71.8682671989599
20
3.5418129618669
30
0
41
1
10
71.7682701574992
20
3.64228300759146
30
0
41
1
10
71.7348016414006
20
3.67578376321899
30
0
41
1
10
71.6843961882967
20
3.72608340067859
30
0
41
1
10
71.6675636130299
20
3.74285493848225
30
0
41
1
10
71.633832571027
20
3.77641789306233
30
0
41
1
10
71.6169188861244
20
3.79322564035357
30
0
41
1
10
71.6000000453136
20
3.81001631133663
30
0
0
SPLINE
5
122
100
AcDbEntity
8
1
62
256
6
ByLayer
370
18
48
1
60
0
100
AcDbSpline
70
4
71
3
72
10
73
6
40
0
40
0
40
0
40
0
40
0.5
40
0.5
40
1
40
1
40
1
40
1
41
1
10
71.6000000453136
20
3.81001631133663
30
0
41
1
10
71.5299024553983
20
3.82716451929505
30
0
41
1
10
71.460085777325
20
3.84335212211505
30
0
41
1
10
71.3210227505751
20
3.87377624760796
30
0
41
1
10
71.2516794052741
20
3.88804608644867
30
0
41
1
10
71.1826202942241
20
3.90132711684916
30
0
0
SPLINE
5
123
100
AcDbEntity
8
1
62
256
6
ByLayer
370
18
48
1
60
0
100
AcDbSpline
70
4
71
3
72
30
73
26
40
0
40
0
40
0
40
0
40
0.125000000000072
40
0.125000000000072
40
0.187500000000085
40
0.187500000000085
40
0.250000000000099
40
0.250000000000099
40
0.375000000000076
40
0.375000000000076
40
0.500000000000052
40
0.500000000000052
40
0.625000000000029
40
0.625000000000029
40
0.750000000000005
40
0.750000000000005
40
0.812499999999993
40
0.812499999999993
40
0.874999999999981
40
0.874999999999981
40
0.906249999999974
40
0.906249999999974
40
0.937499999999967
40
0.937499999999967
40
1
40
1
40
1
40
1
41
1
10
71.1826202942242
20
3.9013271168489
30
0
41
1
10
71.1707489765289
20
3.88498882764174
30
0
41
1
10
71.1573976269704
20
3.87047795340064
30
0
41
1
10
71.1354569613028
20
3.85106034418411
30
0
41
1
10
71.1277919481233
20
3.84496866337676
30
0
41
1
10
71.1120804807452
20
3.83374098186277
30
0
41
1
10
71.1040125832087
20
3.8285818140391
30
0
41
1
10
71.0792052948887
20
3.81441013714769
30
0
41
1
10
71.0618459560444
20
3.80667949268465
30
0
41
1
10
71.0256255757901
20
3.79480983313425
30
0
41
1
10
71.0071890692
20
3.79080490883672
30
0
41
1
10
70.9697103517281
20
3.78677039281428
30
0
41
1
10
70.9506692659789
20
3.78672886980041
30
0
41
1
10
70.9119360564872
20
3.79144618042088
30
0
41
1
10
70.8928280567787
20
3.79613977858605
30
0
41
1
10
70.8648819765199
20
3.8073506485363
30
0
41
1
10
70.8556134248577
20
3.81183118684953
30
0
41
1
10
70.8376878133198
20
3.82226482429098
30
0
41
1
10
70.8290611343132
20
3.82818620807387
30
0
41
1
10
70.816685267372
20
3.83824519381105
30
0
41
1
10
70.8126543649386
20
3.84179513918508
30
0
41
1
10
70.804797088744
20
3.84932160561163
30
0
41
1
10
70.8009555134485
20
3.85331634489037
30
0
41
1
10
70.7899154107859
20
3.86583518928515
30
0
41
1
10
70.7831837262917
20
3.87489068832576
30
0
41
1
10
70.7771481046796
20
3.88473514066928
30
0
0
SPLINE
5
124
100
AcDbEntity
8
1
62
256
6
ByLayer
370
18
48
1
60
0
100
AcDbSpline
70
4
71
3
72
8
73
4
40
0
40
0
40
0
40
0
40
1
40
1
40
1
40
1
41
1
10
70.7771481046797
20
3.88473514066928
30
0
41
1
10
70.7584952779478
20
3.91515899352723
30
0
41
1
10
70.7398633689722
20
3.94546013310625
30
0
41
1
10
70.721251345502
20
3.97563804876305
30
0
0
SPLINE
5
125
100
AcDbEntity
8
1
62
256
6
ByLayer
370
18
48
1
60
0
100
AcDbSpline
70
4
71
3
72
12
73
8
40
0
40
0
40
0
40
0
40
0.499999999999987
40
0.499999999999987
40
0.749999999999994
40
0.749999999999994
40
1
40
1
40
1
40
1
41
1
10
70.721251345502
20
3.97563804876305
30
0
41
1
10
70.5549432246529
20
3.99706238207167
30
0
41
1
10
70.3898850287238
20
4.01239977993978
30
0
41
1
10
70.1437388627882
20
4.02584240463565
30
0
41
1
10
70.0619398124066
20
4.02871811203016
30
0
41
1
10
69.8986909607057
20
4.03124935163822
30
0
41
1
10
69.8172520889715
20
4.03089667434497
30
0
41
1
10
69.7358489544031
20
4.02899089477378
30
0
0
SPLINE
5
126
100
AcDbEntity
8
1
62
256
6
ByLayer
370
18
48
1
60
0
100
AcDbSpline
70
4
71
3
72
8
73
4
40
0
40
0
40
0
40
0
40
1
40
1
40
1
40
1
41
1
10
69.7358489544027
20
4.0289908947741
30
0
41
1
10
69.6659855996065
20
3.89433018259086
30
0
41
1
10
69.595817188912
20
3.75831504013169
30
0
41
1
10
69.5251967299491
20
3.6209738555857
30
0
0
SPLINE
5
127
100
AcDbEntity
8
1
62
256
6
ByLayer
370
18
48
1
60
0
100
AcDbSpline
70
4
71
3
72
32
73
28
40
0
40
0
40
0
40
0
40
0.124999999999967
40
0.124999999999967
40
0.187499999999971
40
0.187499999999971
40
0.249999999999975
40
0.249999999999975
40
0.374999999999985
40
0.374999999999985
40
0.437499999999964
40
0.437499999999964
40
0.499999999999943
40
0.499999999999943
40
0.624999999999957
40
0.624999999999957
40
0.687499999999964
40
0.687499999999964
40
0.749999999999971
40
0.749999999999971
40
0.812499999999978
40
0.812499999999978
40
0.874999999999986
40
0.874999999999986
40
0.937499999999993
40
0.937499999999993
40
1
40
1
40
1
40
1
41
1
10
69.5251967299491
20
3.62097385558568
30
0
41
1
10
69.5140441940591
20
3.59928463815024
30
0
41
1
10
69.501086678299
20
3.579471387154
30
0
41
1
10
69.4794946848218
20
3.55197129589297
30
0
41
1
10
69.471930949027
20
3.54318236292323
30
0
41
1
10
69.4560988042742
20
3.52633113072292
30
0
41
1
10
69.4478829858896
20
3.51832935814431
30
0
41
1
10
69.4226247632027
20
3.49574354801817
30
0
41
1
10
69.4048844899207
20
3.48245924679992
30
0
41
1
10
69.3769734228982
20
3.46515186925547
30
0
41
1
10
69.3674296425989
20
3.45981846653362
30
0
41
1
10
69.3482462713878
20
3.45024215366274
30
0
41
1
10
69.3385670729905
20
3.4459719547454
30
0
41
1
10
69.309276547883
20
3.43473860755134
30
0
41
1
10
69.2894162051766
20
3.4293216830244
30
0
41
1
10
69.2591030108669
20
3.42485597855696
30
0
41
1
10
69.2489087365343
20
3.42399554831951
30
0
41
1
10
69.2288478161024
20
3.42368676835403
30
0
41
1
10
69.2189200521395
20
3.42422589367334
30
0
41
1
10
69.1993033496489
20
3.42684412902292
30
0
41
1
10
69.1895724544709
20
3.42893431098406
30
0
41
1
10
69.1705853647152
20
3.43487736771886
30
0
41
1
10
69.1614579897116
20
3.43868285646173
30
0
41
1
10
69.1440203365331
20
3.4481424846218
30
0
41
1
10
69.1356671619958
20
3.45382991240098
30
0
41
1
10
69.1201219302296
20
3.46725000782226
30
0
41
1
10
69.1130370477958
20
3.47487577650409
30
0
41
1
10
69.106715813027
20
3.48352408950109
30
0
0
SPLINE
5
128
100
AcDbEntity
8
1
62
256
6
ByLayer
370
18
48
1
60
0
100
AcDbSpline
70
4
71
3
72
10
73
6
40
0
40
0
40
0
40
0
40
0.5
40
0.5
40
1
40
1
40
1
40
1
41
1
10
69.106715813027
20
3.48352408950109
30
0
41
1
10
69.049589205567
20
3.56168109518686
30
0
41
1
10
68.9926631634119
20
3.6376724112821
30
0
41
1
10
68.8791336403725
20
3.78543510062664
30
0
41
1
10
68.8224845661616
20
3.85726337795731
30
0
41
1
10
68.7661239507574
20
3.9268085898126
30
0
0
SPLINE
5
129
100
AcDbEntity
8
1
62
256
6
ByLayer
370
18
48
1
60
0
100
AcDbSpline
70
4
71
3
72
10
73
6
40
0
40
0
40
0
40
0
40
0.5
40
0.5
40
1
40
1
40
1
40
1
41
1
10
68.766123950757
20
3.92680858981268
30
0
41
1
10
68.6854502053287
20
3.911310388229
30
0
41
1
10
68.6052139052152
20
3.89407146494878
30
0
41
1
10
68.4455021551964
20
3.85616296895552
30
0
41
1
10
68.3660239352005
20
3.83549596861587
30
0
41
1
10
68.2868035139151
20
3.81320493491916
30
0
0
SPLINE
5
12A
100
AcDbEntity
8
1
62
256
6
ByLayer
370
18
48
1
60
0
100
AcDbSpline
70
4
71
3
72
10
73
6
40
0
40
0
40
0
40
0
40
0.5
40
0.5
40
1
40
1
40
1
40
1
41
1
10
68.2868035139151
20
3.81320493491916
30
0
41
1
10
68.215622668778
20
3.66652342676431
30
0
41
1
10
68.1440913102022
20
3.51975059881244
30
0
41
1
10
67.999968278217
20
3.22617504666937
30
0
41
1
10
67.9275636927671
20
3.0796793563014
30
0
41
1
10
67.8547115934686
20
2.93365611183944
30
0
0
SPLINE
5
12B
100
AcDbEntity
8
1
62
256
6
ByLayer
370
18
48
1
60
0
100
AcDbSpline
70
4
71
3
72
8
73
4
40
0
40
0
40
0
40
0
40
1
40
1
40
1
40
1
41
1
10
55.7427479997395
20
-3.92901326499853
30
0
41
1
10
55.6969257065392
20
-4.00705875097017
30
0
41
1
10
55.6512363627787
20
-4.08474390752977
30
0
41
1
10
55.6056592727579
20
-4.16207020454357
30
0
0
SPLINE
5
12C
100
AcDbEntity
8
1
62
256
6
ByLayer
370
18
48
1
60
0
100
AcDbSpline
70
4
71
3
72
26
73
22
40
0
40
0
40
0
40
0
40
0.116373190345939
40
0.116373190345939
40
0.204735871311314
40
0.204735871311314
40
0.293098552276689
40
0.293098552276689
40
0.469823914207517
40
0.469823914207517
40
0.558186595172931
40
0.558186595172931
40
0.646549276138344
40
0.646549276138344
40
0.734911957103758
40
0.734911957103758
40
0.823274638069172
40
0.823274638069172
40
0.911637319034586
40
0.911637319034586
40
1
40
1
40
1
40
1
41
1
10
64.5791674992752
20
3.83376161926151
30
0
41
1
10
64.5909519293382
20
3.82803404109467
30
0
41
1
10
64.6030638791199
20
3.82321371145039
30
0
41
1
10
64.6249144070607
20
3.81626783359803
30
0
41
1
10
64.6345588339605
20
3.81377224631544
30
0
41
1
10
64.6540500486257
20
3.80986628530647
30
0
41
1
10
64.6638311484896
20
3.80846479486957
30
0
41
1
10
64.6932651044663
20
3.80589856904965
30
0
41
1
10
64.713007219641
20
3.80634418723767
30
0
41
1
10
64.7427666555043
20
3.81062948352962
30
0
41
1
10
64.7527630464343
20
3.81268551452885
30
0
41
1
10
64.7723944858707
20
3.81805641275142
30
0
41
1
10
64.7820598644947
20
3.82136858003472
30
0
41
1
10
64.8010558080684
20
3.82934777818392
30
0
41
1
10
64.8103864884269
20
3.83401317282414
30
0
41
1
10
64.8286567559877
20
3.84489170841306
30
0
41
1
10
64.8375737770864
20
3.85110828375815
30
0
41
1
10
64.8544149452667
20
3.86492358837276
30
0
41
1
10
64.8624061562012
20
3.87255662826314
30
0
41
1
10
64.8774005319619
20
3.88949289251596
30
0
41
1
10
64.8844081600455
20
3.89882724848624
30
0
41
1
10
64.8906392124951
20
3.9088812245171
30
0
0
SPLINE
5
12D
100
AcDbEntity
8
1
62
256
6
ByLayer
370
18
48
1
60
0
100
AcDbSpline
70
4
71
3
72
10
73
6
40
0
40
0
40
0
40
0
40
0.5
40
0.5
40
1
40
1
40
1
40
1
41
1
10
64.8906392124977
20
3.90888122452259
30
0
41
1
10
64.9811881824767
20
4.05498450020693
30
0
41
1
10
65.0709951757487
20
4.19800758335188
30
0
41
1
10
65.249607739257
20
4.47790156907953
30
0
41
1
10
65.3381235993728
20
4.61432009789456
30
0
41
1
10
65.4260325487895
20
4.74711497154593
30
0
0
SPLINE
5
12E
100
AcDbEntity
8
1
62
256
6
ByLayer
370
18
48
1
60
0
100
AcDbSpline
70
4
71
3
72
10
73
6
40
0
40
0
40
0
40
0
40
0.5
40
0.5
40
1
40
1
40
1
40
1
41
1
10
65.5898208806291
20
4.71682806912978
30
0
41
1
10
65.6804001916413
20
4.55066358237571
30
0
41
1
10
65.7716611453868
20
4.38174209288837
30
0
41
1
10
65.9559600257211
20
4.03885889470934
30
0
41
1
10
66.0487051175128
20
3.86543250864301
30
0
41
1
10
66.1423625761048
20
3.69013525324843
30
0
0
SPLINE
5
12F
100
AcDbEntity
8
1
62
256
6
ByLayer
370
18
48
1
60
0
100
AcDbSpline
70
4
71
3
72
32
73
28
40
0
40
0
40
0
40
0
40
0.124999999999983
40
0.124999999999983
40
0.187499999999954
40
0.187499999999954
40
0.249999999999924
40
0.249999999999924
40
0.374999999999864
40
0.374999999999864
40
0.437499999999861
40
0.437499999999861
40
0.499999999999858
40
0.499999999999858
40
0.624999999999851
40
0.624999999999851
40
0.687499999999876
40
0.687499999999876
40
0.749999999999901
40
0.749999999999901
40
0.812499999999926
40
0.812499999999926
40
0.87499999999995
40
0.87499999999995
40
0.937499999999975
40
0.937499999999975
40
1
40
1
40
1
40
1
41
1
10
66.1423625761048
20
3.69013525324843
30
0
41
1
10
66.1539411013127
20
3.66846390191142
30
0
41
1
10
66.1674510959858
20
3.6489659769527
30
0
41
1
10
66.1899313357476
20
3.62219493861465
30
0
41
1
10
66.1978025859245
20
3.61369418930511
30
0
41
1
10
66.2142618491291
20
3.59749641536268
30
0
41
1
10
66.2227913445058
20
3.5898634156886
30
0
41
1
10
66.2488626630745
20
3.56854850023368
30
0
41
1
10
66.2670210991124
20
3.55629187987617
30
0
41
1
10
66.2953208689064
20
3.54065263672251
30
0
41
1
10
66.3049678638477
20
3.53588745958464
30
0
41
1
10
66.3244600335606
20
3.52738125379588
30
0
41
1
10
66.3342409353179
20
3.52366393659975
30
0
41
1
10
66.3636719525935
20
3.51409641935641
30
0
41
1
10
66.3834077532879
20
3.50980284007812
30
0
41
1
10
66.4131563887495
20
3.50683692458574
30
0
41
1
10
66.4231482900345
20
3.50643918304911
30
0
41
1
10
66.4427699194815
20
3.50694717805035
30
0
41
1
10
66.4524315137427
20
3.50784337274283
30
0
41
1
10
66.4714215468435
20
3.51102003526989
30
0
41
1
10
66.4807499843974
20
3.51329859740065
30
0
41
1
10
66.4990157703201
20
3.51943117359443
30
0
41
1
10
66.5079291571642
20
3.52329318638087
30
0
41
1
10
66.5247637251589
20
3.53257098205893
30
0
41
1
10
66.5327516774847
20
3.53800385830866
30
0
41
1
10
66.5477400193978
20
3.55069768727987
30
0
41
1
10
66.5547451570585
20
3.55798748968198
30
0
41
1
10
66.5609747621199
20
3.56614973889325
30
0
0
SPLINE
5
130
100
AcDbEntity
8
1
62
256
6
ByLayer
370
18
48
1
60
0
100
AcDbSpline
70
4
71
3
72
10
73
6
40
0
40
0
40
0
40
0
40
0.5
40
0.5
40
1
40
1
40
1
40
1
41
1
10
66.5609747621224
20
3.56614973889955
30
0
41
1
10
66.6515469070419
20
3.68482057135182
30
0
41
1
10
66.7413689942319
20
3.79814885646411
30
0
41
1
10
66.9200067409116
20
4.01441142034861
30
0
41
1
10
67.0085306235158
20
4.11698775468938
30
0
41
1
10
67.096441554431
20
4.21402040247241
30
0
0
SPLINE
5
131
100
AcDbEntity
8
1
62
256
6
ByLayer
370
18
48
1
60
0
100
AcDbSpline
70
4
71
3
72
10
73
6
40
0
40
0
40
0
40
0
40
0.5
40
0.5
40
1
40
1
40
1
40
1
41
1
10
67.2602635307458
20
4.13637566276407
30
0
41
1
10
67.3508393190008
20
3.95593688128548
30
0
41
1
10
67.4420593228547
20
3.77551813796092
30
0
41
1
10
67.6263284815232
20
3.41508076306059
30
0
41
1
10
67.7190562248624
20
3.23568140619596
30
0
41
1
10
67.81269820135
20
3.05727985021653
30
0
0
SPLINE
5
132
100
AcDbEntity
8
1
62
256
6
ByLayer
370
18
48
1
60
0
100
AcDbSpline
70
4
71
3
72
32
73
28
40
0
40
0
40
0
40
0
40
0.124999999999975
40
0.124999999999975
40
0.187499999999962
40
0.187499999999962
40
0.249999999999949
40
0.249999999999949
40
0.374999999999922
40
0.374999999999922
40
0.437499999999935
40
0.437499999999935
40
0.499999999999948
40
0.499999999999948
40
0.624999999999919
40
0.624999999999919
40
0.687499999999932
40
0.687499999999932
40
0.749999999999946
40
0.749999999999946
40
0.812499999999959
40
0.812499999999959
40
0.874999999999973
40
0.874999999999973
40
0.937499999999986
40
0.937499999999986
40
1
40
1
40
1
40
1
41
1
10
67.81269820135
20
3.05727985021653
30
0
41
1
10
67.8242833157168
20
3.03520852593706
30
0
41
1
10
67.8378022551328
20
3.01462492560466
30
0
41
1
10
67.8602978640171
20
2.98545314527377
30
0
41
1
10
67.8681745855135
20
2.9760198830736
30
0
41
1
10
67.8846455095626
20
2.95770495725065
30
0
41
1
10
67.89318122439
20
2.94889408812841
30
0
41
1
10
67.919269849301
20
2.92376293210941
30
0
41
1
10
67.9374391542943
20
2.90857204962862
30
0
41
1
10
67.9657501004466
20
2.88796318571286
30
0
41
1
10
67.9754005395317
20
2.88143839185392
30
0
41
1
10
67.9948944275392
20
2.86924355149995
30
0
41
1
10
68.0046755844753
20
2.8636085398245
30
0
41
1
10
68.0341069298782
20
2.84806518464589
30
0
41
1
10
68.0538435481063
20
2.83949543852421
30
0
41
1
10
68.0835892960222
20
2.82960165323649
30
0
41
1
10
68.09357820641
20
2.82679510487702
30
0
41
1
10
68.1131885102764
20
2.82238882215216
30
0
41
1
10
68.1228435042426
20
2.82077246589094
30
0
41
1
10
68.1418198122238
20
2.81880150502823
30
0
41
1
10
68.1511411489536
20
2.8184450588287
30
0
41
1
10
68.1693925942909
20
2.81916383413136
30
0
41
1
10
68.1782982808015
20
2.82025168815892
30
0
41
1
10
68.1951193334355
20
2.82398536194256
30
0
41
1
10
68.203101214363
20
2.82662939832918
30
0
41
1
10
68.2180789582303
20
2.83370709158183
30
0
41
1
10
68.2250802810769
20
2.8381641866184
30
0
41
1
10
68.2313075479931
20
2.8435526354379
30
0
0
SPLINE
5
133
100
AcDbEntity
8
1
62
256
6
ByLayer
370
18
48
1
60
0
100
AcDbSpline
70
4
71
3
72
16
73
12
40
0
40
0
40
0
40
0
40
0.25
40
0.25
40
0.5
40
0.5
40
0.749999999999999
40
0.749999999999999
40
0.875
40
0.875
40
1
40
1
40
1
40
1
41
1
10
71.567813628167
20
-1.88613974606182
30
0
41
1
10
71.5542921357185
20
-1.87624233932158
30
0
41
1
10
71.5406040965769
20
-1.86702320759798
30
0
41
1
10
71.5128976326434
20
-1.85001595582574
30
0
41
1
10
71.4988584188507
20
-1.84221517799557
30
0
41
1
10
71.4705083324632
20
-1.82830974077527
30
0
41
1
10
71.4565163896303
20
-1.82235924285698
30
0
41
1
10
71.4358600366357
20
-1.81510270242205
30
0
41
1
10
71.4290301706827
20
-1.81296379749389
30
0
41
1
10
71.4154968237121
20
-1.80930292720319
30
0
41
1
10
71.4087592352643
20
-1.80777634744806
30
0
41
1
10
71.4022185978511
20
-1.80662030834662
30
0
0
SPLINE
5
134
100
AcDbEntity
8
1
62
256
6
ByLayer
370
18
48
1
60
0
100
AcDbSpline
70
4
71
3
72
14
73
10
40
0
40
0
40
0
40
0
40
0.25
40
0.25
40
0.5
40
0.5
40
0.75
40
0.75
40
1
40
1
40
1
40
1
41
1
10
71.4022185978512
20
-1.8066203083466
30
0
41
1
10
71.3015644225502
20
-1.75711489919618
30
0
41
1
10
71.2013363338809
20
-1.70597696670237
30
0
41
1
10
71.0021246613684
20
-1.59985578725391
30
0
41
1
10
70.9031073407123
20
-1.54491448136673
30
0
41
1
10
70.7060879150108
20
-1.4313992253326
30
0
41
1
10
70.6080731913093
20
-1.37284232937944
30
0
41
1
10
70.412785571627
20
-1.25238485224327
30
0
41
1
10
70.3155228998854
20
-1.19047090868037
30
0
41
1
10
70.2186065658313
20
-1.12686498178556
30
0
0
SPLINE
5
135
100
AcDbEntity
8
1
62
256
6
ByLayer
370
18
48
1
60
0
100
AcDbSpline
70
4
71
3
72
8
73
4
40
0
40
0
40
0
40
0
40
1
40
1
40
1
40
1
41
1
10
70.2186065658313
20
-1.12686498178556
30
0
41
1
10
70.1732227048483
20
-1.05266224045616
30
0
41
1
10
70.1277087069649
20
-0.97979576898382
30
0
41
1
10
70.0820235021204
20
-0.908312211921412
30
0
0
SPLINE
5
136
100
AcDbEntity
8
1
62
256
6
ByLayer
370
18
48
1
60
0
100
AcDbSpline
70
4
71
3
72
34
73
30
40
0
40
0
40
0
40
0
40
0.124999999999925
40
0.124999999999925
40
0.187499999999908
40
0.187499999999908
40
0.249999999999891
40
0.249999999999891
40
0.374999999999857
40
0.374999999999857
40
0.437499999999841
40
0.437499999999841
40
0.499999999999824
40
0.499999999999824
40
0.62499999999979
40
0.62499999999979
40
0.687499999999801
40
0.687499999999801
40
0.749999999999812
40
0.749999999999812
40
0.812499999999823
40
0.812499999999823
40
0.874999999999835
40
0.874999999999835
40
0.906249999999865
40
0.906249999999865
40
0.937499999999895
40
0.937499999999895
40
1
40
1
40
1
40
1
41
1
10
70.0820235021185
20
-0.908312211916865
30
0
41
1
10
70.0708635439379
20
-0.890850245616463
30
0
41
1
10
70.0579017557629
20
-0.873330702362409
30
0
41
1
10
70.0363125373954
20
-0.847011510569786
30
0
41
1
10
70.0287512305763
20
-0.838231024218004
30
0
41
1
10
70.0129275372878
20
-0.82065578068736
30
0
41
1
10
70.0047199089004
20
-0.811924033529579
30
0
41
1
10
69.9794855768179
20
-0.786114172818969
30
0
41
1
10
69.9617649047107
20
-0.76931749174409
30
0
41
1
10
69.933887266634
20
-0.744690138240372
30
0
41
1
10
69.9243556720933
20
-0.736561812505613
30
0
41
1
10
69.9051949237277
20
-0.720780417147239
30
0
41
1
10
69.8955264131704
20
-0.713091262490678
30
0
41
1
10
69.8662651925046
20
-0.690622585777817
30
0
41
1
10
69.8464212460444
20
-0.676430593912301
30
0
41
1
10
69.8161154130379
20
-0.656470755673695
30
0
41
1
10
69.8059133844072
20
-0.650040478950245
30
0
41
1
10
69.7858295392562
20
-0.637990304821528
30
0
41
1
10
69.7758868220616
20
-0.632328502047216
30
0
41
1
10
69.7562351153892
20
-0.621797343522189
30
0
41
1
10
69.746485282894
20
-0.616908295946729
30
0
41
1
10
69.7274514577905
20
-0.608135603316526
30
0
41
1
10
69.7183003266811
20
-0.604310153490047
30
0
41
1
10
69.7051872600559
20
-0.599498140392029
30
0
41
1
10
69.7009189037063
20
-0.598049247851691
30
0
41
1
10
69.6926048236912
20
-0.595487322962015
30
0
41
1
10
69.6885429446668
20
-0.594370628017998
30
0
41
1
10
69.6768531274777
20
-0.591606979330436
30
0
41
1
10
69.6697504472265
20
-0.590543620391969
30
0
41
1
10
69.6634149284932
20
-0.590353250429217
30
0
0
SPLINE
5
137
100
AcDbEntity
8
1
62
256
6
ByLayer
370
18
48
1
60
0
100
AcDbSpline
70
4
71
3
72
8
73
4
40
0
40
0
40
0
40
0
40
1
40
1
40
1
40
1
41
1
10
69.6634149284932
20
-0.590353250429246
30
0
41
1
10
69.581240579853
20
-0.587884071764108
30
0
41
1
10
69.499463320358
20
-0.578495602550618
30
0
41
1
10
69.4179747284007
20
-0.562276712810103
30
0
0
SPLINE
5
138
100
AcDbEntity
8
1
62
256
6
ByLayer
370
18
48
1
60
0
100
AcDbSpline
70
4
71
3
72
12
73
8
40
0
40
0
40
0
40
0
40
0.25
40
0.25
40
0.5
40
0.5
40
1
40
1
40
1
40
1
41
1
10
69.4179747284007
20
-0.562276712810075
30
0
41
1
10
69.3635725241489
20
-0.521490503083271
30
0
41
1
10
69.3092055144936
20
-0.480231455665802
30
0
41
1
10
69.2005512627437
20
-0.396724446622244
30
0
41
1
10
69.1462068994445
20
-0.354423066112901
30
0
41
1
10
68.983949728415
20
-0.226570610992212
30
0
41
1
10
68.8766798119226
20
-0.139987892166147
30
0
41
1
10
68.7701729942627
20
-0.0522050073737432
30
0
0
SPLINE
5
139
100
AcDbEntity
8
1
62
256
6
ByLayer
370
18
48
1
60
0
100
AcDbSpline
70
4
71
3
72
10
73
6
40
0
40
0
40
0
40
0
40
0.5
40
0.5
40
1
40
1
40
1
40
1
41
1
10
68.7701729942631
20
-0.0522050073737148
30
0
41
1
10
68.7109114676156
20
0.0247955317481967
30
0
41
1
10
68.6513372710609
20
0.0989597959959951
30
0
41
1
10
68.531826472711
20
0.240991690696376
30
0
41
1
10
68.4718527141487
20
0.308929277167664
30
0
41
1
10
68.4115630966154
20
0.373659302797933
30
0
0
SPLINE
5
13A
100
AcDbEntity
8
1
62
256
6
ByLayer
370
18
48
1
60
0
100
AcDbSpline
70
4
71
3
72
32
73
28
40
0
40
0
40
0
40
0
40
0.125000000000016
40
0.125000000000016
40
0.187500000000023
40
0.187500000000023
40
0.250000000000031
40
0.250000000000031
40
0.374999999999998
40
0.374999999999998
40
0.437499999999981
40
0.437499999999981
40
0.499999999999964
40
0.499999999999964
40
0.624999999999931
40
0.624999999999931
40
0.687499999999942
40
0.687499999999942
40
0.749999999999954
40
0.749999999999954
40
0.812499999999965
40
0.812499999999965
40
0.874999999999977
40
0.874999999999977
40
0.937499999999989
40
0.937499999999989
40
1
40
1
40
1
40
1
41
1
10
68.4115630966137
20
0.373659302802025
30
0
41
1
10
68.4004029098707
20
0.385641451693942
30
0
41
1
10
68.3874425206844
20
0.398447108567524
30
0
41
1
10
68.3658583016837
20
0.41859202610695
30
0
41
1
10
68.358299128914
20
0.425467142065401
30
0
41
1
10
68.3424805537773
20
0.439524575222322
30
0
41
1
10
68.3342761126809
20
0.446657176553174
30
0
41
1
10
68.3090509930354
20
0.468163448556965
30
0
41
1
10
68.2913367070233
20
0.482722126460487
30
0
41
1
10
68.2634663076959
20
0.504928106758115
30
0
41
1
10
68.2539366421695
20
0.512407556904606
30
0
41
1
10
68.2347782748047
20
0.527236882077148
30
0
41
1
10
68.2251102598099
20
0.534618569185028
30
0
41
1
10
68.1958477657229
20
0.556680594358511
30
0
41
1
10
68.1759987671586
20
0.571277855137936
30
0
41
1
10
68.1456847931092
20
0.5930666475561
30
0
41
1
10
68.1354784223745
20
0.600318002531907
30
0
41
1
10
68.1153875583623
20
0.614431724293297
30
0
41
1
10
68.1054419466428
20
0.621338149392471
30
0
41
1
10
68.0857850863164
20
0.634832855256803
30
0
41
1
10
68.0760342377077
20
0.641448124877599
30
0
41
1
10
68.0569939590036
20
0.654203542588988
30
0
41
1
10
68.0478403152356
20
0.660253534840308
30
0
41
1
10
68.0303525665181
20
0.671637218659782
30
0
41
1
10
68.0219760171939
20
0.67699812356895
30
0
41
1
10
68.0063852957736
20
0.686751242314614
30
0
41
1
10
67.9992808604039
20
0.691075819848749
30
0
41
1
10
67.9929438549533
20
0.694779733915112
30
0
0
SPLINE
5
13B
100
AcDbEntity
8
1
62
256
6
ByLayer
370
18
48
1
60
0
100
AcDbSpline
70
4
71
3
72
10
73
6
40
0
40
0
40
0
40
0
40
0.5
40
0.5
40
1
40
1
40
1
40
1
41
1
10
67.9929438549526
20
0.694779733916874
30
0
41
1
10
67.9036415611346
20
0.746975999930498
30
0
41
1
10
67.814818576488
20
0.806894959225446
30
0
41
1
10
67.637840999426
20
0.941830240755621
30
0
41
1
10
67.5500429041595
20
1.01650668842518
30
0
41
1
10
67.4627306580363
20
1.09801015270992
30
0
0
SPLINE
5
13C
100
AcDbEntity
8
1
62
256
6
ByLayer
370
18
48
1
60
0
100
AcDbSpline
70
4
71
3
72
14
73
10
40
0
40
0
40
0
40
0
40
0.25
40
0.25
40
0.5
40
0.5
40
0.75
40
0.75
40
1
40
1
40
1
40
1
41
1
10
67.2985543456942
20
1.249060756745
30
0
41
1
10
67.2527314642683
20
1.28816679668736
30
0
41
1
10
67.2067372929562
20
1.32523174983658
30
0
41
1
10
67.1144906708266
20
1.39509772257
30
0
41
1
10
67.0682207778887
20
1.42791547716652
30
0
41
1
10
66.9753162195435
20
1.48926998311688
30
0
41
1
10
66.9286576042485
20
1.51781888101192
30
0
41
1
10
66.8350839598448
20
1.57046363830779
30
0
41
1
10
66.7881578662135
20
1.59457559509798
30
0
41
1
10
66.7410508803466
20
1.61642300321864
30
0
0
SPLINE
5
13D
100
AcDbEntity
8
1
62
256
6
ByLayer
370
18
48
1
60
0
100
AcDbSpline
70
4
71
3
72
34
73
30
40
0
40
0
40
0
40
0
40
0.124999999999999
40
0.124999999999999
40
0.187499999999998
40
0.187499999999998
40
0.249999999999998
40
0.249999999999998
40
0.374999999999998
40
0.374999999999998
40
0.437499999999972
40
0.437499999999972
40
0.499999999999946
40
0.499999999999946
40
0.624999999999948
40
0.624999999999948
40
0.68749999999995
40
0.68749999999995
40
0.749999999999951
40
0.749999999999951
40
0.812499999999953
40
0.812499999999953
40
0.874999999999954
40
0.874999999999954
40
0.906249999999955
40
0.906249999999955
40
0.937499999999956
40
0.937499999999956
40
1
40
1
40
1
40
1
41
1
10
66.7410508803467
20
1.61642300321867
30
0
41
1
10
66.7298892278248
20
1.62159958527883
30
0
41
1
10
66.7169250743514
20
1.6282736835565
30
0
41
1
10
66.6953319180465
20
1.64001668914938
30
0
41
1
10
66.6877692235191
20
1.64422658933313
30
0
41
1
10
66.6719426284285
20
1.65321414348392
30
0
41
1
10
66.6637331189332
20
1.65796144720167
30
0
41
1
10
66.6384939793476
20
1.67279480274129
30
0
41
1
10
66.6207704382429
20
1.68351441316563
30
0
41
1
10
66.5928889893308
20
1.70086626205199
30
0
41
1
10
66.5833565765014
20
1.70687864592745
30
0
41
1
10
66.5641946004502
20
1.71913745487831
30
0
41
1
10
66.5545255570441
20
1.7254080478794
30
0
41
1
10
66.5252629469301
20
1.74466902699962
30
0
41
1
10
66.505418584683
20
1.75809887196468
30
0
41
1
10
66.4751171912933
20
1.77937598054714
30
0
41
1
10
66.4649188273921
20
1.78666697821384
30
0
41
1
10
66.444842402055
20
1.80132209220116
30
0
41
1
10
66.4349034050001
20
1.80872814796109
30
0
41
1
10
66.4152563717047
20
1.82372840140658
30
0
41
1
10
66.4055063952268
20
1.8313561250115
30
0
41
1
10
66.3864771378811
20
1.84670445715085
30
0
41
1
10
66.3773279411504
20
1.85431867335751
30
0
41
1
10
66.3642178989783
20
1.86564915426709
30
0
41
1
10
66.3599505795445
20
1.86941072675492
30
0
41
1
10
66.351638752689
20
1.8769015093275
30
0
41
1
10
66.3475780818299
20
1.88064612914513
30
0
41
1
10
66.3358927083056
20
1.89170536114756
30
0
41
1
10
66.3287927712724
20
1.89881339614672
30
0
41
1
10
66.3224594108956
20
1.90562109799598
30
0
0
SPLINE
5
13E
100
AcDbEntity
8
1
62
256
6
ByLayer
370
18
48
1
60
0
100
AcDbSpline
70
4
71
3
72
10
73
6
40
0
40
0
40
0
40
0
40
0.5
40
0.5
40
1
40
1
40
1
40
1
41
1
10
66.3224594108956
20
1.90562109799598
30
0
41
1
10
66.2330978636296
20
2.00167544108942
30
0
41
1
10
66.1442309538983
20
2.10423695141728
30
0
41
1
10
65.9671555611956
20
2.32137873407555
30
0
41
1
10
65.8792763165249
20
2.43563885392047
30
0
41
1
10
65.7919296009024
20
2.55528479338494
30
0
0
SPLINE
5
13F
100
AcDbEntity
8
1
62
256
6
ByLayer
370
18
48
1
60
0
100
AcDbSpline
70
4
71
3
72
14
73
10
40
0
40
0
40
0
40
0
40
0.25
40
0.25
40
0.5
40
0.5
40
0.75
40
0.75
40
1
40
1
40
1
40
1
41
1
10
65.6280924049162
20
2.68570212890376
30
0
41
1
10
65.5822573412221
20
2.69461081916484
30
0
41
1
10
65.5362870851487
20
2.70133420430057
30
0
41
1
10
65.4440113410377
20
2.71036336652756
30
0
41
1
10
65.3976848481258
20
2.71266937941371
30
0
41
1
10
65.3047412104839
20
2.71280473284071
30
0
41
1
10
65.2581132642714
20
2.71063540847535
30
0
41
1
10
65.1645511640243
20
2.70177216292456
30
0
41
1
10
65.1176420175083
20
2.69509467217296
30
0
41
1
10
65.0705508315143
20
2.6860804739369
30
0
0
SPLINE
5
140
100
AcDbEntity
8
1
62
256
6
ByLayer
370
18
48
1
60
0
100
AcDbSpline
70
4
71
3
72
32
73
28
40
0
40
0
40
0
40
0
40
0.125000000000007
40
0.125000000000007
40
0.18750000000001
40
0.18750000000001
40
0.250000000000014
40
0.250000000000014
40
0.375000000000019
40
0.375000000000019
40
0.437500000000022
40
0.437500000000022
40
0.500000000000025
40
0.500000000000025
40
0.624999999999976
40
0.624999999999976
40
0.68749999999998
40
0.68749999999998
40
0.749999999999984
40
0.749999999999984
40
0.812499999999988
40
0.812499999999988
40
0.874999999999992
40
0.874999999999992
40
0.937499999999996
40
0.937499999999996
40
1
40
1
40
1
40
1
41
1
10
65.070550831514
20
2.68608047393749
30
0
41
1
10
65.0593951626919
20
2.68394505500305
30
0
41
1
10
65.0464403913871
20
2.68382229665545
30
0
41
1
10
65.0248630290723
20
2.68597388221915
30
0
41
1
10
65.0173058656136
20
2.68708940179096
30
0
41
1
10
65.0014898991052
20
2.69008450128888
30
0
41
1
10
64.9932852095383
20
2.69195567373058
30
0
41
1
10
64.968057506413
20
2.69857471800481
30
0
41
1
10
64.9503376723598
20
2.70433052247455
30
0
41
1
10
64.9224535967564
20
2.71499398044486
30
0
41
1
10
64.9129179558652
20
2.71890236960036
30
0
41
1
10
64.8937475860465
20
2.72728841444339
30
0
41
1
10
64.8840735406815
20
2.73177984371083
30
0
41
1
10
64.8547941696685
20
2.74618249071139
30
0
41
1
10
64.8349355314834
20
2.75700223503037
30
0
41
1
10
64.8046158654248
20
2.7754801802474
30
0
41
1
10
64.7944104743154
20
2.78203049120844
30
0
41
1
10
64.7743249493143
20
2.7956604831349
30
0
41
1
10
64.7643837077246
20
2.80277535267325
30
0
41
1
10
64.7447379470257
20
2.81768527760281
30
0
41
1
10
64.7349937901882
20
2.82551304066141
30
0
41
1
10
64.7159672050881
20
2.84183831978754
30
0
41
1
10
64.7068207595161
20
2.85021587390307
30
0
41
1
10
64.6893476431155
20
2.86745527679352
30
0
41
1
10
64.6809791629306
20
2.87636388822088
30
0
41
1
10
64.665401322255
20
2.8945496174608
30
0
41
1
10
64.6583027451857
20
2.9036897397481
30
0
41
1
10
64.6519706618759
20
2.91287880702148
30
0
0
SPLINE
5
141
100
AcDbEntity
8
1
62
256
6
ByLayer
370
18
48
1
60
0
100
AcDbSpline
70
4
71
3
72
10
73
6
40
0
40
0
40
0
40
0
40
0.5
40
0.5
40
1
40
1
40
1
40
1
41
1
10
64.6519706618756
20
2.912878807022
30
0
41
1
10
64.5625924957709
20
3.04258366732373
30
0
41
1
10
64.4737158128617
20
3.176710300861
30
0
41
1
10
64.2966326917132
20
3.45312818782142
30
0
41
1
10
64.2087536944276
20
3.59492167444321
30
0
41
1
10
64.1213991936259
20
3.73994793301503
30
0
0
SPLINE
5
142
100
AcDbEntity
8
1
62
256
6
ByLayer
370
18
48
1
60
0
100
AcDbSpline
70
4
71
3
72
8
73
4
40
0
40
0
40
0
40
0
40
1
40
1
40
1
40
1
41
1
10
63.9575783014819
20
3.83621310665183
30
0
41
1
10
64.0121869154469
20
3.80477392715645
30
0
41
1
10
64.0667880773708
20
3.77268142974518
30
0
41
1
10
64.121399193624
20
3.73994793302691
30
0
0
SPLINE
5
143
100
AcDbEntity
8
1
62
256
6
ByLayer
370
18
48
1
60
0
100
AcDbSpline
70
4
71
3
72
14
73
10
40
0
40
0
40
0
40
0
40
0.25
40
0.25
40
0.5
40
0.5
40
0.75
40
0.75
40
1
40
1
40
1
40
1
41
1
10
63.9575783014819
20
3.83621310665183
30
0
41
1
10
63.9117546251156
20
3.81400004459749
30
0
41
1
10
63.8657573943511
20
3.78966758477094
30
0
41
1
10
63.7735076568888
20
3.73680684283053
30
0
41
1
10
63.7272372894215
20
3.7082704099526
30
0
41
1
10
63.6343376174468
20
3.64694901365886
30
0
41
1
10
63.5876833861743
20
3.61414308561962
30
0
41
1
10
63.4941107040108
20
3.5443605014859
30
0
41
1
10
63.4471863453477
20
3.50738624785126
30
0
41
1
10
63.4000810502892
20
3.46829987589285
30
0
0
SPLINE
5
144
100
AcDbEntity
8
1
62
256
6
ByLayer
370
18
48
1
60
0
100
AcDbSpline
70
4
71
3
72
32
73
28
40
0
40
0
40
0
40
0
40
0.12500000000001
40
0.12500000000001
40
0.187499999999994
40
0.187499999999994
40
0.249999999999979
40
0.249999999999979
40
0.374999999999947
40
0.374999999999947
40
0.43749999999993
40
0.43749999999993
40
0.499999999999914
40
0.499999999999914
40
0.624999999999936
40
0.624999999999936
40
0.687499999999947
40
0.687499999999947
40
0.749999999999958
40
0.749999999999958
40
0.812499999999968
40
0.812499999999968
40
0.874999999999979
40
0.874999999999979
40
0.937499999999989
40
0.937499999999989
40
1
40
1
40
1
40
1
41
1
10
63.4000810502885
20
3.46829987589339
30
0
41
1
10
63.3889177263159
20
3.45903692928528
30
0
41
1
10
63.3759508701028
20
3.4520890155153
30
0
41
1
10
63.354352095869
20
3.44437117805813
30
0
41
1
10
63.3467872567009
20
3.44225943677424
30
0
41
1
10
63.3309557055101
20
3.43892132674296
30
0
41
1
10
63.3227431980582
20
3.43770947475892
30
0
41
1
10
63.2974950692131
20
3.43539796023401
30
0
41
1
10
63.2797649347302
20
3.43558405531033
30
0
41
1
10
63.2518719692441
20
3.43844900058173
30
0
41
1
10
63.242335832384
20
3.43984735264772
30
0
41
1
10
63.2231667501844
20
3.44349083880371
30
0
41
1
10
63.2134941050191
20
3.44573812572992
30
0
41
1
10
63.1842204574217
20
3.45379157000571
30
0
41
1
10
63.1643676782253
20
3.46088206535475
30
0
41
1
10
63.1340559305622
20
3.4746382611961
30
0
41
1
10
63.1238573644248
20
3.4797611682142
30
0
41
1
10
63.1037846745115
20
3.4909323221944
30
0
41
1
10
63.0938494862027
20
3.49700541881254
30
0
41
1
10
63.0742155184768
20
3.51024650417591
30
0
41
1
10
63.0644757540922
20
3.51744635476243
30
0
41
1
10
63.0454644605078
20
3.53300433791034
30
0
41
1
10
63.0363245657506
20
3.5412493995791
30
0
41
1
10
63.0188620062722
20
3.55877848009999
30
0
41
1
10
63.0104968946114
20
3.56811315505155
30
0
41
1
10
62.994926399499
20
3.58779082125108
30
0
41
1
10
62.9878299114935
20
3.59798483278274
30
0
41
1
10
62.9814986909174
20
3.60857235717671
30
0
0
SPLINE
5
145
100
AcDbEntity
8
1
62
256
6
ByLayer
370
18
48
1
60
0
100
AcDbSpline
70
4
71
3
72
10
73
6
40
0
40
0
40
0
40
0
40
0.5
40
0.5
40
1
40
1
40
1
40
1
41
1
10
62.9814986909174
20
3.60857235717671
30
0
41
1
10
62.8921248535312
20
3.75802974412724
30
0
41
1
10
62.8032517360711
20
3.90930062005899
30
0
41
1
10
62.6261670108292
20
4.21504183508341
30
0
41
1
10
62.5382794568048
20
4.3689809985637
30
0
41
1
10
62.4509231490324
20
4.52374898603864
30
0
0
SPLINE
5
146
100
AcDbEntity
8
1
62
256
6
ByLayer
370
18
48
1
60
0
100
AcDbSpline
70
4
71
3
72
12
73
8
40
0
40
0
40
0
40
0
40
0.25
40
0.25
40
0.5
40
0.5
40
1
40
1
40
1
40
1
41
1
10
62.2870797718895
20
4.57543650750549
30
0
41
1
10
62.2412503151893
20
4.52443650746807
30
0
41
1
10
62.195287065284
20
4.47167501320874
30
0
41
1
10
62.1030250526214
20
4.36261849401185
30
0
41
1
10
62.0567139920189
20
4.30630814663832
30
0
41
1
10
61.9172518549856
20
4.13213243353266
30
0
41
1
10
61.8238181703782
20
4.00934644389477
30
0
41
1
10
61.7296389943222
20
3.87977854989859
30
0
0
SPLINE
5
147
100
AcDbEntity
8
1
62
256
6
ByLayer
370
18
48
1
60
0
100
AcDbSpline
70
4
71
3
72
32
73
28
40
0
40
0
40
0
40
0
40
0.124999999999951
40
0.124999999999951
40
0.187499999999906
40
0.187499999999906
40
0.249999999999861
40
0.249999999999861
40
0.374999999999819
40
0.374999999999819
40
0.437499999999798
40
0.437499999999798
40
0.499999999999777
40
0.499999999999777
40
0.62499999999979
40
0.62499999999979
40
0.687499999999825
40
0.687499999999825
40
0.74999999999986
40
0.74999999999986
40
0.812499999999895
40
0.812499999999895
40
0.87499999999993
40
0.87499999999993
40
0.937499999999965
40
0.937499999999965
40
1
40
1
40
1
40
1
41
1
10
61.7296389943222
20
3.87977854989859
30
0
41
1
10
61.7184714635159
20
3.86441471355713
30
0
41
1
10
61.7055014723852
20
3.85142404092736
30
0
41
1
10
61.6839020973654
20
3.83471530675294
30
0
41
1
10
61.6763377192179
20
3.82961890845218
30
0
41
1
10
61.6605086616887
20
3.8203345155251
30
0
41
1
10
61.6522987347593
20
3.81618249469793
30
0
41
1
10
61.6270588123572
20
3.80521897738936
30
0
41
1
10
61.6093360499701
20
3.79982622081494
30
0
41
1
10
61.5814557288955
20
3.79458891308281
30
0
41
1
10
61.5719244565759
20
3.7933269108654
30
0
41
1
10
61.5527644094096
20
3.79183304106982
30
0
41
1
10
61.5430959594649
20
3.7915913345816
30
0
41
1
10
61.5138333384762
20
3.79241631749736
30
0
41
1
10
61.4939858539652
20
3.79500141041447
30
0
41
1
10
61.4636762668164
20
3.80253452765783
30
0
41
1
10
61.4534753700746
20
3.80567481133326
30
0
41
1
10
61.433395551999
20
3.81317803808591
30
0
41
1
10
61.4234556928553
20
3.81755258190128
30
0
41
1
10
61.4038106513727
20
3.82769422809548
30
0
41
1
10
61.3940645816745
20
3.83348749483565
30
0
41
1
10
61.3750389270863
20
3.84660472264682
30
0
41
1
10
61.3658916703862
20
3.85383097792158
30
0
41
1
10
61.3484146973315
20
3.86976734301393
30
0
41
1
10
61.3400422038105
20
3.87852615896605
30
0
41
1
10
61.3244595832079
20
3.89758806723145
30
0
41
1
10
61.3173579528145
20
3.90774462443508
30
0
41
1
10
61.3110226608031
20
3.91859758430152
30
0
0
SPLINE
5
148
100
AcDbEntity
8
1
62
256
6
ByLayer
370
18
48
1
60
0
100
AcDbSpline
70
4
71
3
72
10
73
6
40
0
40
0
40
0
40
0
40
0.5
40
0.5
40
1
40
1
40
1
40
1
41
1
10
61.3110226608031
20
3.91859758430152
30
0
41
1
10
61.2216285088467
20
4.07173829853207
30
0
41
1
10
61.1327327006609
20
4.22393279790663
30
0
41
1
10
60.9556247597962
20
4.52635137795559
30
0
41
1
10
60.8677393470714
20
4.67601228932801
30
0
41
1
10
60.780383268022
20
4.82397529733623
30
0
0
SPLINE
5
149
100
AcDbEntity
8
1
62
256
6
ByLayer
370
18
48
1
60
0
100
AcDbSpline
70
4
71
3
72
12
73
8
40
0
40
0
40
0
40
0
40
0.25
40
0.25
40
0.500000000000001
40
0.500000000000001
40
1
40
1
40
1
40
1
41
1
10
60.6165400038745
20
4.82568172487876
30
0
41
1
10
60.5707200579777
20
4.75143896492418
30
0
41
1
10
60.524764321254
20
4.67594105471747
30
0
41
1
10
60.4325157926602
20
4.5224484848535
30
0
41
1
10
60.3862038889059
20
4.44442096780688
30
0
41
1
10
60.2468255902148
20
4.20687176839985
30
0
41
1
10
60.1532935233187
20
4.04384034235457
30
0
41
1
10
60.0590804396991
20
3.87656075872084
30
0
0
SPLINE
5
14A
100
AcDbEntity
8
1
62
256
6
ByLayer
370
18
48
1
60
0
100
AcDbSpline
70
4
71
3
72
32
73
28
40
0
40
0
40
0
40
0
40
0.124999999999946
40
0.124999999999946
40
0.187499999999918
40
0.187499999999918
40
0.24999999999989
40
0.24999999999989
40
0.374999999999881
40
0.374999999999881
40
0.437499999999876
40
0.437499999999876
40
0.499999999999871
40
0.499999999999871
40
0.624999999999861
40
0.624999999999861
40
0.687499999999884
40
0.687499999999884
40
0.749999999999907
40
0.749999999999907
40
0.812499999999931
40
0.812499999999931
40
0.874999999999954
40
0.874999999999954
40
0.937499999999977
40
0.937499999999977
40
1
40
1
40
1
40
1
41
1
10
60.0590804396992
20
3.87656075872093
30
0
41
1
10
60.0479163000579
20
3.85673832473324
30
0
41
1
10
60.0349487808887
20
3.83908371652953
30
0
41
1
10
60.0133486052102
20
3.81515036181509
30
0
41
1
10
60.0057832239116
20
3.80760658140244
30
0
41
1
10
59.989950318
20
3.79335282198744
30
0
41
1
10
59.9817368348299
20
3.78669586017301
30
0
41
1
10
59.9564856418505
20
3.76823006877356
30
0
41
1
10
59.9387529466943
20
3.75782314727957
30
0
41
1
10
59.9108559114084
20
3.74503439633901
30
0
41
1
10
59.901318458015
20
3.74124531743064
30
0
41
1
10
59.882146968002
20
3.73477397887277
30
0
41
1
10
59.8724732021128
20
3.73207086435221
30
0
41
1
10
59.8431968208857
20
3.72558866306397
30
0
41
1
10
59.8233430108768
20
3.72340426450401
30
0
41
1
10
59.7930330461674
20
3.72393002763079
30
0
41
1
10
59.7828361527032
20
3.72475818182616
30
0
41
1
10
59.7627670760568
20
3.72780098956253
30
0
41
1
10
59.7528338881397
20
3.7300129934716
30
0
41
1
10
59.7332038613126
20
3.73597476639949
30
0
41
1
10
59.7234659426245
20
3.73974243920915
30
0
41
1
10
59.7044584591791
20
3.74901126342959
30
0
41
1
10
59.6953202386534
20
3.75444138733755
30
0
41
1
10
59.6778606150118
20
3.76706695604247
30
0
41
1
10
59.6694967547838
20
3.77430324038372
30
0
41
1
10
59.6539287719823
20
3.7906881246777
30
0
41
1
10
59.6468333817795
20
3.79970775497438
30
0
41
1
10
59.6405030735021
20
3.80964990246477
30
0
0
SPLINE
5
14B
100
AcDbEntity
8
1
62
256
6
ByLayer
370
18
48
1
60
0
100
AcDbSpline
70
4
71
3
72
10
73
6
40
0
40
0
40
0
40
0
40
0.5
40
0.5
40
1
40
1
40
1
40
1
41
1
10
59.640503073502
20
3.80964990246469
30
0
41
1
10
59.5511131802301
20
3.95004235479252
30
0
41
1
10
59.4622263309183
20
4.08679829373651
30
0
41
1
10
59.2851206171476
20
4.35341563094141
30
0
41
1
10
59.1972262433807
20
4.48276272677063
30
0
41
1
10
59.1098638552945
20
4.60806039996339
30
0
0
SPLINE
5
14C
100
AcDbEntity
8
1
62
256
6
ByLayer
370
18
48
1
60
0
100
AcDbSpline
70
4
71
3
72
8
73
4
40
0
40
0
40
0
40
0
40
1
40
1
40
1
40
1
41
1
10
58.9460545991466
20
4.55959869237071
30
0
41
1
10
59.0006482392719
20
4.57655116948658
30
0
41
1
10
59.0552476300125
20
4.59270545459654
30
0
41
1
10
59.1098638552923
20
4.60806039998238
30
0
0
SPLINE
5
14D
100
AcDbEntity
8
1
62
256
6
ByLayer
370
18
48
1
60
0
100
AcDbSpline
70
4
71
3
72
14
73
10
40
0
40
0
40
0
40
0
40
0.25
40
0.25
40
0.5
40
0.5
40
0.75
40
0.75
40
1
40
1
40
1
40
1
41
1
10
58.9460545991466
20
4.55959869237068
30
0
41
1
10
58.9002259904051
20
4.47005790723867
30
0
41
1
10
58.8542605408067
20
4.37990234321296
30
0
41
1
10
58.7619894258818
20
4.19838115380608
30
0
41
1
10
58.7156642641837
20
4.10697831664115
30
0
41
1
10
58.6227385466833
20
3.92325509403045
30
0
41
1
10
58.5761147237372
20
3.83088884036988
30
0
41
1
10
58.4825754419094
20
3.64537178399132
30
0
41
1
10
58.435676670572
20
3.55225161062089
30
0
41
1
10
58.3886081345474
20
3.45878079602147
30
0
0
SPLINE
5
14E
100
AcDbEntity
8
1
62
256
6
ByLayer
370
18
48
1
60
0
100
AcDbSpline
70
4
71
3
72
32
73
28
40
0
40
0
40
0
40
0
40
0.125000000000027
40
0.125000000000027
40
0.187500000000041
40
0.187500000000041
40
0.250000000000055
40
0.250000000000055
40
0.375000000000083
40
0.375000000000083
40
0.437500000000098
40
0.437500000000098
40
0.500000000000112
40
0.500000000000112
40
0.625000000000085
40
0.625000000000085
40
0.687500000000071
40
0.687500000000071
40
0.750000000000057
40
0.750000000000057
40
0.812500000000043
40
0.812500000000043
40
0.875000000000029
40
0.875000000000029
40
0.937500000000014
40
0.937500000000014
40
1
40
1
40
1
40
1
41
1
10
58.3886081345474
20
3.45878079602147
30
0
41
1
10
58.3774471415101
20
3.43661679435371
30
0
41
1
10
58.3644873136496
20
3.41618768149596
30
0
41
1
10
58.3429063066259
20
3.38759092432738
30
0
41
1
10
58.3353485479616
20
3.37840705428579
30
0
41
1
10
58.3195328563027
20
3.36070846658899
30
0
41
1
10
58.3113290003957
20
3.35225853215036
30
0
41
1
10
58.2861053720567
20
3.32826043904541
30
0
41
1
10
58.2683905479799
20
3.3139438529906
30
0
41
1
10
58.2405058615867
20
3.29495702144504
30
0
41
1
10
58.2309694174491
20
3.28904084694989
30
0
41
1
10
58.2117958059747
20
3.27827486425861
30
0
41
1
10
58.2021190261913
20
3.27339543795065
30
0
41
1
10
58.1728295243417
20
3.26029003873504
30
0
41
1
10
58.1529618127629
20
3.25356701091147
30
0
41
1
10
58.1226304743182
20
3.24703048159765
30
0
41
1
10
58.1124226489196
20
3.2454594596895
30
0
41
1
10
58.0923350202345
20
3.24372311414675
30
0
41
1
10
58.0823939805012
20
3.24354083445178
30
0
41
1
10
58.0627518558341
20
3.24469619638219
30
0
41
1
10
58.0530122173515
20
3.24604081389458
30
0
41
1
10
58.033992351438
20
3.25048491417337
30
0
41
1
10
58.0248500387202
20
3.25354605029304
30
0
41
1
10
58.0073857664893
20
3.26152533577013
30
0
41
1
10
57.9990236922204
20
3.26647047005818
30
0
41
1
10
57.9834499770412
20
3.27844259393947
30
0
41
1
10
57.9763526883448
20
3.28536897550032
30
0
41
1
10
57.9700211316281
20
3.29334552998438
30
0
0
SPLINE
5
14F
100
AcDbEntity
8
1
62
256
6
ByLayer
370
18
48
1
60
0
100
AcDbSpline
70
4
71
3
72
10
73
6
40
0
40
0
40
0
40
0
40
0.5
40
0.5
40
1
40
1
40
1
40
1
41
1
10
57.9700211316281
20
3.29334552998438
30
0
41
1
10
57.880627114433
20
3.40596495054905
30
0
41
1
10
57.7917273770472
20
3.51279963433964
30
0
41
1
10
57.6146138447277
20
3.71505094433167
30
0
41
1
10
57.5267291294801
20
3.81009406994622
30
0
41
1
10
57.4393736552387
20
3.89919950037049
30
0
0
SPLINE
5
150
100
AcDbEntity
8
1
62
256
6
ByLayer
370
18
48
1
60
0
100
AcDbSpline
70
4
71
3
72
8
73
4
40
0
40
0
40
0
40
0
40
1
40
1
40
1
40
1
41
1
10
57.2755265175468
20
3.80564678522413
30
0
41
1
10
57.3301365012696
20
3.83751028342496
30
0
41
1
10
57.3847491864908
20
3.86869583301993
30
0
41
1
10
57.439373655236
20
3.89919950039177
30
0
0
SPLINE
5
151
100
AcDbEntity
8
1
62
256
6
ByLayer
370
18
48
1
60
0
100
AcDbSpline
70
4
71
3
72
12
73
8
40
0
40
0
40
0
40
0
40
0.384689235492507
40
0.384689235492507
40
0.769378470985014
40
0.769378470985014
40
1
40
1
40
1
40
1
41
1
10
57.2755265175468
20
3.80564678522413
30
0
41
1
10
57.2297056664369
20
3.71040509363911
30
0
41
1
10
57.1837474314726
20
3.61526276754606
30
0
41
1
10
57.0914934085695
20
3.42520775265123
30
0
41
1
10
57.0451779124139
20
3.33025266842338
30
0
41
1
10
56.9708673572587
20
3.17877974359044
30
0
41
1
10
56.9429620561763
20
3.12209373559668
30
0
41
1
10
56.9150013120514
20
3.06551702246611
30
0
0
SPLINE
5
152
100
AcDbEntity
8
1
62
256
6
ByLayer
370
18
48
1
60
0
100
AcDbSpline
70
4
71
3
72
32
73
28
40
0
40
0
40
0
40
0
40
0.124999999999929
40
0.124999999999929
40
0.187499999999914
40
0.187499999999914
40
0.2499999999999
40
0.2499999999999
40
0.374999999999872
40
0.374999999999872
40
0.437499999999885
40
0.437499999999885
40
0.499999999999898
40
0.499999999999898
40
0.624999999999923
40
0.624999999999923
40
0.687499999999936
40
0.687499999999936
40
0.749999999999949
40
0.749999999999949
40
0.812499999999962
40
0.812499999999962
40
0.874999999999974
40
0.874999999999974
40
0.937499999999987
40
0.937499999999987
40
1
40
1
40
1
40
1
41
1
10
61.6882255106838
20
-0.0061620005530472
30
0
41
1
10
61.6997726598109
20
-0.018219711871609
30
0
41
1
10
61.7132415620255
20
-0.0311775604653235
30
0
41
1
10
61.7356569238216
20
-0.0516093653645555
30
0
41
1
10
61.7435059538702
20
-0.0585909010287082
30
0
41
1
10
61.7599207449188
20
-0.0728808351935868
30
0
41
1
10
61.7684296665699
20
-0.0801385116260747
30
0
41
1
10
61.7944446913807
20
-0.101939414344173
30
0
41
1
10
61.8125716324389
20
-0.116629379654427
30
0
41
1
10
61.8408398352299
20
-0.138925720796152
30
0
41
1
10
61.8504773370118
20
-0.146427977560933
30
0
41
1
10
61.8699668692341
20
-0.161419877475169
30
0
41
1
10
61.8797490464758
20
-0.168856573875558
30
0
41
1
10
61.9091922304117
20
-0.191010109742365
30
0
41
1
10
61.9289486756481
20
-0.205572475443432
30
0
41
1
10
61.9587367055977
20
-0.22715110561478
30
0
41
1
10
61.9687456873
20
-0.234337175974304
30
0
41
1
10
61.9884058997308
20
-0.248333288427318
30
0
41
1
10
61.998084684765
20
-0.255163899366039
30
0
41
1
10
62.0171053554229
20
-0.268477345290251
30
0
41
1
10
62.0264473887098
20
-0.274960955334677
30
0
41
1
10
62.0447383750641
20
-0.287542717477635
30
0
41
1
10
62.0536646830679
20
-0.293624327064066
30
0
41
1
10
62.0705196139833
20
-0.30498179650931
30
0
41
1
10
62.078515705737
20
-0.310304236648506
30
0
41
1
10
62.0935161863078
20
-0.320128125374538
30
0
41
1
10
62.1005235376583
20
-0.324630190955702
30
0
41
1
10
62.1067522420028
20
-0.328517706743128
30
0
0
SPLINE
5
153
100
AcDbEntity
8
1
62
256
6
ByLayer
370
18
48
1
60
0
100
AcDbSpline
70
4
71
3
72
10
73
6
40
0
40
0
40
0
40
0
40
0.5
40
0.5
40
1
40
1
40
1
40
1
41
1
10
62.1067522420055
20
-0.328517706739035
30
0
41
1
10
62.1972484528271
20
-0.384999027542477
30
0
41
1
10
62.2870160220254
20
-0.448954609952182
30
0
41
1
10
62.4655543011689
20
-0.591338239917889
30
0
41
1
10
62.5540277988489
20
-0.669537875413113
30
0
41
1
10
62.6418794336996
20
-0.75448989203511
30
0
0
SPLINE
5
154
100
AcDbEntity
8
1
62
256
6
ByLayer
370
18
48
1
60
0
100
AcDbSpline
70
4
71
3
72
12
73
8
40
0
40
0
40
0
40
0
40
0.250000000000001
40
0.250000000000001
40
0.500000000000001
40
0.500000000000001
40
1
40
1
40
1
40
1
41
1
10
62.8057019139587
20
-0.907397188709041
30
0
41
1
10
62.8510243360162
20
-0.945813921348304
30
0
41
1
10
62.8965034686773
20
-0.982290508310911
30
0
41
1
10
62.9878440587897
20
-1.05132061249665
30
0
41
1
10
63.0337151309691
20
-1.08389368440115
30
0
41
1
10
63.1719679043633
20
-1.17543455599912
30
0
41
1
10
63.2647664756318
20
-1.22794112192094
30
0
41
1
10
63.3585580703153
20
-1.27164521326043
30
0
0
SPLINE
5
155
100
AcDbEntity
8
1
62
256
6
ByLayer
370
18
48
1
60
0
100
AcDbSpline
70
4
71
3
72
32
73
28
40
0
40
0
40
0
40
0
40
0.124999999999962
40
0.124999999999962
40
0.187499999999964
40
0.187499999999964
40
0.249999999999966
40
0.249999999999966
40
0.374999999999971
40
0.374999999999971
40
0.437499999999974
40
0.437499999999974
40
0.499999999999978
40
0.499999999999978
40
0.624999999999982
40
0.624999999999982
40
0.687499999999985
40
0.687499999999985
40
0.749999999999988
40
0.749999999999988
40
0.812499999999991
40
0.812499999999991
40
0.874999999999994
40
0.874999999999994
40
0.937499999999997
40
0.937499999999997
40
1
40
1
40
1
40
1
41
1
10
63.3585580703153
20
-1.2716452132604
30
0
41
1
10
63.3701112660034
20
-1.2770286585608
30
0
41
1
10
63.3835883025895
20
-1.28411724332341
30
0
41
1
10
63.4060169447851
20
-1.29666107294417
30
0
41
1
10
63.4138705971185
20
-1.30116982452401
30
0
41
1
10
63.4302948810742
20
-1.31081197755376
30
0
41
1
10
63.4388087540922
20
-1.31591297999063
30
0
41
1
10
63.4648371164667
20
-1.33178989875995
30
0
41
1
10
63.4829718043444
20
-1.34321162983389
30
0
41
1
10
63.5112492626319
20
-1.36156840597516
30
0
41
1
10
63.5208899547655
20
-1.36791691561479
30
0
41
1
10
63.5403819952319
20
-1.38095067429799
30
0
41
1
10
63.5501649629871
20
-1.38758960853906
30
0
41
1
10
63.5796091152024
20
-1.40788805486324
30
0
41
1
10
63.5993643465766
20
-1.42192226531475
30
0
41
1
10
63.6291475842896
20
-1.44389424642165
30
0
41
1
10
63.6391536593866
20
-1.45141483285408
30
0
41
1
10
63.6588045565163
20
-1.46650397917097
30
0
41
1
10
63.6684785345629
20
-1.47409224934211
30
0
41
1
10
63.687489380942
20
-1.48937642512126
30
0
41
1
10
63.696826385415
20
-1.49707256003688
30
0
41
1
10
63.7151070562027
20
-1.5125990270559
30
0
41
1
10
63.724027522205
20
-1.52041418980579
30
0
41
1
10
63.7408719623036
20
-1.53572408039074
30
0
41
1
10
63.7488631802917
20
-1.54327427653715
30
0
41
1
10
63.7638549552769
20
-1.55813243885936
30
0
41
1
10
63.7708591162568
20
-1.56545117709149
30
0
41
1
10
63.7770858672008
20
-1.57241650196789
30
0
0
SPLINE
5
156
100
AcDbEntity
8
1
62
256
6
ByLayer
370
18
48
1
60
0
100
AcDbSpline
70
4
71
3
72
10
73
6
40
0
40
0
40
0
40
0
40
0.5
40
0.5
40
1
40
1
40
1
40
1
41
1
10
63.7770858672035
20
-1.5724165019659
30
0
41
1
10
63.8676099185968
20
-1.67367788736075
30
0
41
1
10
63.9574005251997
20
-1.78109399777213
30
0
41
1
10
64.1359750607219
20
-2.00775757676192
30
0
41
1
10
64.224460808971
20
-2.12663265676667
30
0
41
1
10
64.3123191973549
20
-2.25076732640517
30
0
0
SPLINE
5
157
100
AcDbEntity
8
1
62
256
6
ByLayer
370
18
48
1
60
0
100
AcDbSpline
70
4
71
3
72
12
73
8
40
0
40
0
40
0
40
0
40
0.250000000000001
40
0.250000000000001
40
0.5
40
0.5
40
1
40
1
40
1
40
1
41
1
10
64.4761360850984
20
-2.38690993477093
30
0
41
1
10
64.5214454547974
20
-2.39663073561891
30
0
41
1
10
64.5669110974338
20
-2.40428612377363
30
0
41
1
10
64.6582263379456
20
-2.41542848512086
30
0
41
1
10
64.7040848948213
20
-2.41893039866289
30
0
41
1
10
64.8423075639716
20
-2.42293709636925
30
0
41
1
10
64.9351083783448
20
-2.41678054436179
30
0
41
1
10
65.0288893388698
20
-2.40165167114802
30
0
0
SPLINE
5
158
100
AcDbEntity
8
1
62
256
6
ByLayer
370
18
48
1
60
0
100
AcDbSpline
70
4
71
3
72
32
73
28
40
0
40
0
40
0
40
0
40
0.124999999999978
40
0.124999999999978
40
0.187499999999944
40
0.187499999999944
40
0.24999999999991
40
0.24999999999991
40
0.374999999999843
40
0.374999999999843
40
0.437499999999837
40
0.437499999999837
40
0.49999999999983
40
0.49999999999983
40
0.624999999999873
40
0.624999999999873
40
0.687499999999894
40
0.687499999999894
40
0.749999999999915
40
0.749999999999915
40
0.812499999999936
40
0.812499999999936
40
0.874999999999957
40
0.874999999999957
40
0.937499999999979
40
0.937499999999979
40
1
40
1
40
1
40
1
41
1
10
65.0288893388698
20
-2.40165167114799
30
0
41
1
10
65.0404498516244
20
-2.39978671337008
30
0
41
1
10
65.0539364466936
20
-2.40025370945307
30
0
41
1
10
65.0763798963514
20
-2.40358008032823
30
0
41
1
10
65.0842385799319
20
-2.40513845156849
30
0
41
1
10
65.1006728895013
20
-2.40911169353575
30
0
41
1
10
65.1091918468446
20
-2.41151587266771
30
0
41
1
10
65.1352335085013
20
-2.41978823335359
30
0
41
1
10
65.1533754249223
20
-2.4267330107927
30
0
41
1
10
65.1816610064597
20
-2.43920614763135
30
0
41
1
10
65.1913043077897
20
-2.44372815078924
30
0
41
1
10
65.2107983359138
20
-2.45342310927495
30
0
41
1
10
65.2205818166236
20
-2.4585606826102
30
0
41
1
10
65.2500260084678
20
-2.47485162818418
30
0
41
1
10
65.2697792710999
20
-2.48686803372306
30
0
41
1
10
65.2995562480521
20
-2.50689793228563
30
0
41
1
10
65.3095590059022
20
-2.51395326820696
30
0
41
1
10
65.3292006075947
20
-2.52852983230082
30
0
41
1
10
65.3388697638575
20
-2.5360675330366
30
0
41
1
10
65.3578707487669
20
-2.5516927690947
30
0
41
1
10
65.3672027080483
20
-2.5597799573894
30
0
41
1
10
65.3854728065356
20
-2.57659187005748
30
0
41
1
10
65.3943877830604
20
-2.58530476160738
30
0
41
1
10
65.4112220039393
20
-2.60292738656767
30
0
41
1
10
65.4192083471652
20
-2.61189560385233
30
0
41
1
10
65.4341912020287
20
-2.63019176323667
30
0
41
1
10
65.4411922620295
20
-2.63954018997089
30
0
41
1
10
65.4474171269346
20
-2.64883346648574
30
0
0
SPLINE
5
159
100
AcDbEntity
8
1
62
256
6
ByLayer
370
18
48
1
60
0
100
AcDbSpline
70
4
71
3
72
10
73
6
40
0
40
0
40
0
40
0
40
0.5
40
0.5
40
1
40
1
40
1
40
1
41
1
10
65.4474171269371
20
-2.64883346648594
30
0
41
1
10
65.5379676392286
20
-2.78401888209635
30
0
41
1
10
65.6277810371656
20
-2.92336987214631
30
0
41
1
10
65.8063935365449
20
-3.20998489293458
30
0
41
1
10
65.8948935200515
20
-3.35677362574805
30
0
41
1
10
65.9827614006585
20
-3.50675618352412
30
0
0
SPLINE
5
15A
100
AcDbEntity
8
1
62
256
6
ByLayer
370
18
48
1
60
0
100
AcDbSpline
70
4
71
3
72
12
73
8
40
0
40
0
40
0
40
0
40
0.25
40
0.25
40
0.5
40
0.5
40
1
40
1
40
1
40
1
41
1
10
66.1466014906605
20
-3.61160722321017
30
0
41
1
10
66.1919004016958
20
-3.59163564580052
30
0
41
1
10
66.2373547253058
20
-3.56969085659176
30
0
41
1
10
66.3286448989127
20
-3.52184143044281
30
0
41
1
10
66.3744871901773
20
-3.49595295326489
30
0
41
1
10
66.5126643645031
20
-3.41216415984223
30
0
41
1
10
66.605458589935
20
-3.3480722835109
30
0
41
1
10
66.699225348788
20
-3.27583648999794
30
0
0
SPLINE
5
15B
100
AcDbEntity
8
1
62
256
6
ByLayer
370
18
48
1
60
0
100
AcDbSpline
70
4
71
3
72
32
73
28
40
0
40
0
40
0
40
0
40
0.125000000000062
40
0.125000000000062
40
0.187500000000094
40
0.187500000000094
40
0.250000000000126
40
0.250000000000126
40
0.375000000000188
40
0.375000000000188
40
0.437500000000191
40
0.437500000000191
40
0.500000000000194
40
0.500000000000194
40
0.625000000000145
40
0.625000000000145
40
0.687500000000121
40
0.687500000000121
40
0.750000000000097
40
0.750000000000097
40
0.812500000000073
40
0.812500000000073
40
0.875000000000048
40
0.875000000000048
40
0.937500000000024
40
0.937500000000024
40
1
40
1
40
1
40
1
41
1
10
66.699225348788
20
-3.27583648999794
30
0
41
1
10
66.7107921057101
20
-3.26692572167389
30
0
41
1
10
66.724287086443
20
-3.26072509825153
30
0
41
1
10
66.7467444977883
20
-3.25448514898616
30
0
41
1
10
66.7546080822727
20
-3.2529289666918
30
0
41
1
10
66.7710525776371
20
-3.25081383635566
30
0
41
1
10
66.7795769670957
20
-3.25026695814989
30
0
41
1
10
66.8056332043198
20
-3.25006023408352
30
0
41
1
10
66.8237837924265
20
-3.25179362664417
30
0
41
1
10
66.852079788827
20
-3.25706377451814
30
0
41
1
10
66.8617267424835
20
-3.2592808360462
30
0
41
1
10
66.8812233787986
20
-3.26461128382664
30
0
41
1
10
66.8910076488239
20
-3.26770364610022
30
0
41
1
10
66.9204526279818
20
-3.27826135992999
30
0
41
1
10
66.9402043156252
20
-3.28698551978283
30
0
41
1
10
66.969975600564
20
-3.30294537362565
30
0
41
1
10
66.9799747565465
20
-3.30878524586683
30
0
41
1
10
66.9996051532616
20
-3.32129691742222
30
0
41
1
10
67.009268618288
20
-3.32798052076905
30
0
41
1
10
67.0282581512976
20
-3.34227954522785
30
0
41
1
10
67.037584356438
20
-3.34989408002667
30
0
41
1
10
67.0558427614882
20
-3.36619374597186
30
0
41
1
10
67.0647509545843
20
-3.3748708183864
30
0
41
1
10
67.0815731749155
20
-3.39291581166413
30
0
41
1
10
67.0895539995059
20
-3.40233886651856
30
0
41
1
10
67.1045270550288
20
-3.42210538933989
30
0
41
1
10
67.1115244120255
20
-3.43247660807361
30
0
41
1
10
67.1177469427967
20
-3.44309568088397
30
0
0
SPLINE
5
15C
100
AcDbEntity
8
1
62
256
6
ByLayer
370
18
48
1
60
0
100
AcDbSpline
70
4
71
3
72
12
73
8
40
0
40
0
40
0
40
0
40
0.50000000000001
40
0.50000000000001
40
0.750000000000005
40
0.750000000000005
40
1
40
1
40
1
40
1
41
1
10
67.1177469427992
20
-3.44309568088616
30
0
41
1
10
67.2002930246157
20
-3.58396486824495
30
0
41
1
10
67.2822241384267
20
-3.72626741202211
30
0
41
1
10
67.4044607943805
20
-3.9416871347461
30
0
41
1
10
67.4450854299315
20
-4.01380344095961
30
0
41
1
10
67.5259712776334
20
-4.15833096532171
30
0
41
1
10
67.5662553874042
20
-4.23078263318763
30
0
41
1
10
67.6064033939572
20
-4.30340868719074
30
0
0
SPLINE
5
15D
100
AcDbEntity
8
1
62
256
6
ByLayer
370
18
48
1
60
0
100
AcDbSpline
70
4
71
3
72
8
73
4
40
0
40
0
40
0
40
0
40
1
40
1
40
1
40
1
41
1
10
67.6064033939571
20
-4.30340868719071
30
0
41
1
10
67.7074757678549
20
-4.32216929005901
30
0
41
1
10
67.8089871659265
20
-4.33770277579416
30
0
41
1
10
67.9109955338005
20
-4.34999746293272
30
0
0
SPLINE
5
15E
100
AcDbEntity
8
1
62
256
6
ByLayer
370
18
48
1
60
0
100
AcDbSpline
70
4
71
3
72
12
73
8
40
0
40
0
40
0
40
0
40
0.250000000000005
40
0.250000000000005
40
0.500000000000009
40
0.500000000000009
40
1
40
1
40
1
40
1
41
1
10
67.9109955338004
20
-4.34999746293258
30
0
41
1
10
67.9486720900888
20
-4.30881564021479
30
0
41
1
10
67.9864670708025
20
-4.26650290928245
30
0
41
1
10
68.0623424499829
20
-4.17957914305455
30
0
41
1
10
68.1004418904047
20
-4.1349421088625
30
0
41
1
10
68.2150768853898
20
-3.9976485095776
30
0
41
1
10
68.291983171571
20
-3.90159571901955
30
0
41
1
10
68.3695604747474
20
-3.80105243270526
30
0
0
SPLINE
5
15F
100
AcDbEntity
8
1
62
256
6
ByLayer
370
18
48
1
60
0
100
AcDbSpline
70
4
71
3
72
32
73
28
40
0
40
0
40
0
40
0
40
0.125000000000026
40
0.125000000000026
40
0.187500000000039
40
0.187500000000039
40
0.250000000000052
40
0.250000000000052
40
0.375000000000079
40
0.375000000000079
40
0.437500000000065
40
0.437500000000065
40
0.500000000000052
40
0.500000000000052
40
0.625000000000081
40
0.625000000000081
40
0.687500000000067
40
0.687500000000067
40
0.750000000000054
40
0.750000000000054
40
0.81250000000004
40
0.81250000000004
40
0.875000000000027
40
0.875000000000027
40
0.937500000000013
40
0.937500000000013
40
1
40
1
40
1
40
1
41
1
10
68.3695604747473
20
-3.80105243270529
30
0
41
1
10
68.3811322628325
20
-3.78605493272823
30
0
41
1
10
68.3946343590326
20
-3.77385521061899
30
0
41
1
10
68.4171041007875
20
-3.75872329782249
30
0
41
1
10
68.42497208438
20
-3.75422113278103
30
0
41
1
10
68.4414259060385
20
-3.74624778028246
30
0
41
1
10
68.4499553081593
20
-3.74281003126387
30
0
41
1
10
68.4760254015574
20
-3.73415204790697
30
0
41
1
10
68.4941848742886
20
-3.73049284817196
30
0
41
1
10
68.5224926247299
20
-3.72800356893151
30
0
41
1
10
68.5321439191536
20
-3.72768085021014
30
0
41
1
10
68.5516444093988
20
-3.72808323237231
30
0
41
1
10
68.5614301282031
20
-3.72880296648907
30
0
41
1
10
68.5908779242005
20
-3.73250827417127
30
0
41
1
10
68.6106294446465
20
-3.73701384626759
30
0
41
1
10
68.6403971634167
20
-3.74720651881188
30
0
41
1
10
68.6503933055433
20
-3.75120991779792
30
0
41
1
10
68.6700132480627
20
-3.76032565476945
30
0
41
1
10
68.6796712838831
20
-3.7654433767278
30
0
41
1
10
68.6986497577112
20
-3.77689183266404
30
0
41
1
10
68.7079703709131
20
-3.78322127179212
30
0
41
1
10
68.7262171449052
20
-3.79726755339203
30
0
41
1
10
68.7351180946727
20
-3.80498075640088
30
0
41
1
10
68.7519273470426
20
-3.82151544616758
30
0
41
1
10
68.7599020891514
20
-3.83038285617707
30
0
41
1
10
68.7748642327947
20
-3.84949720341552
30
0
41
1
10
68.7818572670902
20
-3.85977606334461
30
0
41
1
10
68.7880770016342
20
-3.87057781868268
30
0
0
SPLINE
5
160
100
AcDbEntity
8
1
62
256
6
ByLayer
370
18
48
1
60
0
100
AcDbSpline
70
4
71
3
72
8
73
4
40
0
40
0
40
0
40
0
40
1
40
1
40
1
40
1
41
1
10
68.7880770016366
20
-3.87057781868651
30
0
41
1
10
68.880574609854
20
-4.03121755761819
30
0
41
1
10
68.972311265713
20
-4.19094380914117
30
0
41
1
10
69.0635000107928
20
-4.34958455316058
30
0
0
SPLINE
5
161
100
AcDbEntity
8
1
62
256
6
ByLayer
370
18
48
1
60
0
100
AcDbSpline
70
4
71
3
72
12
73
8
40
0
40
0
40
0
40
0
40
0.499999999999986
40
0.499999999999986
40
0.749999999999993
40
0.749999999999993
40
1
40
1
40
1
40
1
41
1
10
69.0635000107929
20
-4.34958455316058
30
0
41
1
10
69.1982799636153
20
-4.33381968149811
30
0
41
1
10
69.3334030007188
20
-4.31272544002678
30
0
41
1
10
69.5367976211186
20
-4.27322733906658
30
0
41
1
10
69.6047241430359
20
-4.2587486514511
30
0
41
1
10
69.7407958874105
20
-4.2272034491194
30
0
41
1
10
69.8089968946633
20
-4.21011798717407
30
0
41
1
10
69.8775158832266
20
-4.19170549674885
30
0
0
SPLINE
5
162
100
AcDbEntity
8
1
62
256
6
ByLayer
370
18
48
1
60
0
100
AcDbSpline
70
4
71
3
72
8
73
4
40
0
40
0
40
0
40
0
40
1
40
1
40
1
40
1
41
1
10
69.8775158832266
20
-4.19170549674891
30
0
41
1
10
69.9313577532774
20
-4.10304375886534
30
0
41
1
10
69.9854604215715
20
-4.01294333687451
30
0
41
1
10
70.0398896991609
20
-3.92141964923704
30
0
0
SPLINE
5
163
100
AcDbEntity
8
1
62
256
6
ByLayer
370
18
48
1
60
0
100
AcDbSpline
70
4
71
3
72
32
73
28
40
0
40
0
40
0
40
0
40
0.125000000000086
40
0.125000000000086
40
0.187500000000108
40
0.187500000000108
40
0.25000000000013
40
0.25000000000013
40
0.375000000000175
40
0.375000000000175
40
0.437500000000197
40
0.437500000000197
40
0.500000000000218
40
0.500000000000218
40
0.625000000000206
40
0.625000000000206
40
0.687500000000172
40
0.687500000000172
40
0.750000000000137
40
0.750000000000137
40
0.812500000000103
40
0.812500000000103
40
0.875000000000069
40
0.875000000000069
40
0.937500000000034
40
0.937500000000034
40
1
40
1
40
1
40
1
41
1
10
70.0398896991609
20
-3.92141964923701
30
0
41
1
10
70.0514680990768
20
-3.90195038739537
30
0
41
1
10
70.0649788931969
20
-3.88506705077137
30
0
41
1
10
70.0874622202751
20
-3.86267662757044
30
0
41
1
10
70.0953348447185
20
-3.85571482916927
30
0
41
1
10
70.1117979818418
20
-3.84274516750548
30
0
41
1
10
70.1203321105191
20
-3.83678844834054
30
0
41
1
10
70.1464146452099
20
-3.82061737884013
30
0
41
1
10
70.1645810644477
20
-3.81196452738609
30
0
41
1
10
70.1928964942168
20
-3.80199079618478
30
0
41
1
10
70.2025502822297
20
-3.79916500721723
30
0
41
1
10
70.2220524697029
20
-3.79460110919681
30
0
41
1
10
70.2318386089248
20
-3.79287305622242
30
0
41
1
10
70.2612864015605
20
-3.78933330033729
30
0
41
1
10
70.2810362282214
20
-3.78913841025673
30
0
41
1
10
70.3107985948753
20
-3.79246997634348
30
0
41
1
10
70.3207916436314
20
-3.79420737559215
30
0
41
1
10
70.3404029012796
20
-3.7989502281599
30
0
41
1
10
70.3500564534586
20
-3.80195307890199
30
0
41
1
10
70.369025743785
20
-3.80932201089777
30
0
41
1
10
70.3783416762868
20
-3.81368655984161
30
0
41
1
10
70.3965787858785
20
-3.82396982025759
30
0
41
1
10
70.4054745553822
20
-3.82989077279856
30
0
41
1
10
70.4222743898024
20
-3.84313788274923
30
0
41
1
10
70.4302447239233
20
-3.85049596688367
30
0
41
1
10
70.4451989472076
20
-3.86690129529438
30
0
41
1
10
70.4521892175763
20
-3.87598135407546
30
0
41
1
10
70.4584073566336
20
-3.88580247045164
30
0
0
SPLINE
5
164
100
AcDbEntity
8
1
62
256
6
ByLayer
370
18
48
1
60
0
100
AcDbSpline
70
4
71
3
72
8
73
4
40
0
40
0
40
0
40
0
40
1
40
1
40
1
40
1
41
1
10
70.4584073566359
20
-3.88580247045658
30
0
41
1
10
70.4792621350796
20
-3.91874113654623
30
0
41
1
10
70.5000772811004
20
-3.95149714213062
30
0
41
1
10
70.5208557048618
20
-3.984070621418
30
0
0
SPLINE
5
165
100
AcDbEntity
8
1
62
256
6
ByLayer
370
18
48
1
60
0
100
AcDbSpline
70
4
71
3
72
16
73
12
40
0
40
0
40
0
40
0
40
0.125
40
0.125
40
0.25
40
0.25
40
0.5
40
0.5
40
0.75
40
0.75
40
1
40
1
40
1
40
1
41
1
10
70.5208557048618
20
-3.98407062141797
30
0
41
1
10
70.565335007372
20
-3.96743302296341
30
0
41
1
10
70.6099765014484
20
-3.95028465838865
30
0
41
1
10
70.6992781735381
20
-3.91510186292695
30
0
41
1
10
70.7439674559038
20
-3.89705710020692
30
0
41
1
10
70.8781683829034
20
-3.84158876141638
30
0
41
1
10
70.9678165154521
20
-3.80283261484388
30
0
41
1
10
71.1475237398733
20
-3.72187606141796
30
0
41
1
10
71.2375685816658
20
-3.67967404161627
30
0
41
1
10
71.418108398335
20
-3.5918921719564
30
0
41
1
10
71.5087451185468
20
-3.54632995806142
30
0
41
1
10
71.5999999216597
20
-3.49920161806745
30
0
0
SPLINE
5
166
100
AcDbEntity
8
1
62
256
6
ByLayer
370
18
48
1
60
0
100
AcDbSpline
70
4
71
3
72
10
73
6
40
0
40
0
40
0
40
0
40
0.5
40
0.5
40
1
40
1
40
1
40
1
41
1
10
71.5999999216597
20
-3.49920161806745
30
0
41
1
10
71.6640183247105
20
-3.41938079488327
30
0
41
1
10
71.7292051022322
20
-3.33895760291054
30
0
41
1
10
71.8626194071151
20
-3.17732307754611
30
0
41
1
10
71.930619300216
20
-3.09637975604321
30
0
41
1
10
72.0000000000003
20
-3.01596296927622
30
0
0
SPLINE
5
167
100
AcDbEntity
8
1
62
256
6
ByLayer
370
18
48
1
60
0
100
AcDbSpline
70
4
71
3
72
64
73
60
40
0
40
0
40
0
40
0
40
0.0312612451714993
40
0.0312612451714993
40
0.0468918677572488
40
0.0468918677572488
40
0.0625224903429984
40
0.0625224903429984
40
0.125044980685997
40
0.125044980685997
40
0.156306225857496
40
0.156306225857496
40
0.171936848443245
40
0.171936848443245
40
0.187567471028995
40
0.187567471028995
40
0.250089961371994
40
0.250089961371994
40
0.265720583957743
40
0.265720583957743
40
0.281351206543493
40
0.281351206543493
40
0.312612451714992
40
0.312612451714992
40
0.37513494205799
40
0.37513494205799
40
0.437657432400988
40
0.437657432400988
40
0.500179922743987
40
0.500179922743987
40
0.625224903429983
40
0.625224903429983
40
0.656486148601482
40
0.656486148601482
40
0.672116771187232
40
0.672116771187232
40
0.687747393772981
40
0.687747393772981
40
0.719008638944481
40
0.719008638944481
40
0.73463926153023
40
0.73463926153023
40
0.75026988411598
40
0.75026988411598
40
0.812792374458978
40
0.812792374458978
40
0.844053619630478
40
0.844053619630478
40
0.859684242216227
40
0.859684242216227
40
0.875314864801976
40
0.875314864801976
40
0.937837355144975
40
0.937837355144975
40
0.969098600316474
40
0.969098600316474
40
0.984729222902223
40
0.984729222902223
40
1
40
1
40
1
40
1
41
1
10
71.9999999999999
20
-3.01596296927565
30
0
41
1
10
72
20
-2.9714928426387
30
0
41
1
10
72
20
-2.92785448312034
30
0
41
1
10
72
20
-2.86366614655654
30
0
41
1
10
72
20
-2.84243435341219
30
0
41
1
10
71.9999999999999
20
-2.80065486438232
30
0
41
1
10
72
20
-2.78013017551413
30
0
41
1
10
72.0000000000001
20
-2.6793138870178
30
0
41
1
10
72
20
-2.60441773328978
30
0
41
1
10
72.0000000000001
20
-2.50046571873906
30
0
41
1
10
72.0000000000001
20
-2.46723319534678
30
0
41
1
10
72
20
-2.41954702548537
30
0
41
1
10
72
20
-2.40401107443921
30
0
41
1
10
72
20
-2.37366674664108
30
0
41
1
10
72
20
-2.35885163568364
30
0
41
1
10
72
20
-2.28730816661602
30
0
41
1
10
72
20
-2.23754068467397
30
0
41
1
10
72.0000000000001
20
-2.18435538927969
30
0
41
1
10
72
20
-2.17427607586163
30
0
41
1
10
72
20
-2.15422052785308
30
0
41
1
10
72.0000000000001
20
-2.14429582746382
30
0
41
1
10
72.0000000000001
20
-2.11473560225588
30
0
41
1
10
72
20
-2.09533842953652
30
0
41
1
10
72.0000000000001
20
-2.03809601356699
30
0
41
1
10
72.0000000000001
20
-2.00120427913421
30
0
41
1
10
72
20
-1.92999694530133
30
0
41
1
10
72
20
-1.89567544040833
30
0
41
1
10
72
20
-1.82960755104972
30
0
41
1
10
72.0000000000001
20
-1.7979266322281
30
0
41
1
10
72.0000000000001
20
-1.70697350501484
30
0
41
1
10
72
20
-1.65178311262878
30
0
41
1
10
72
20
-1.58948991877409
30
0
41
1
10
72
20
-1.57736391822917
30
0
41
1
10
72
20
-1.55969891061312
30
0
41
1
10
72
20
-1.55390282960474
30
0
41
1
10
71.9999999999999
20
-1.54246175282782
30
0
41
1
10
72
20
-1.53672434539874
30
0
41
1
10
72
20
-1.5214527216703
30
0
41
1
10
72.0000000000001
20
-1.51347140562569
30
0
41
1
10
72
20
-1.50464820065886
30
0
41
1
10
72
20
-1.50224051709628
30
0
41
1
10
72
20
-1.49852407347709
30
0
41
1
10
72
20
-1.4972147461647
30
0
41
1
10
72
20
-1.49351646075863
30
0
41
1
10
72
20
-1.49960249734289
30
0
41
1
10
72.0000000000001
20
-1.52163641005421
30
0
41
1
10
72
20
-1.53114701725716
30
0
41
1
10
72
20
-1.54876089166987
30
0
41
1
10
72
20
-1.5551890382016
30
0
41
1
10
72
20
-1.56916714054753
30
0
41
1
10
72
20
-1.5767347030563
30
0
41
1
10
72
20
-1.61704293219282
30
0
41
1
10
72.0000000000001
20
-1.65732720042246
30
0
41
1
10
72.0000000000001
20
-1.72949375356328
30
0
41
1
10
72
20
-1.75549914593947
30
0
41
1
10
72
20
-1.79749345274644
30
0
41
1
10
72.0000000000001
20
-1.81199078528263
30
0
41
1
10
72
20
-1.84166560986674
30
0
41
1
10
72
20
-1.85682067267274
30
0
41
1
10
72
20
-1.8722906137663
30
0
0
SPLINE
5
168
100
AcDbEntity
8
1
62
256
6
ByLayer
370
18
48
1
60
0
100
AcDbSpline
70
4
71
3
72
14
73
10
40
0
40
0
40
0
40
0
40
0.499999999999979
40
0.499999999999979
40
0.74999999999999
40
0.74999999999999
40
0.874999999999995
40
0.874999999999995
40
1
40
1
40
1
40
1
41
1
10
72
20
-1.87338475196012
30
0
41
1
10
71.9343935084772
20
-1.87633780572168
30
0
41
1
10
71.8682671989599
20
-1.87981842650336
30
0
41
1
10
71.7682701574992
20
-1.88649897307329
30
0
41
1
10
71.7348016414006
20
-1.88899002745805
30
0
41
1
10
71.6843961882968
20
-1.89319352404266
30
0
41
1
10
71.66756361303
20
-1.89466333218923
30
0
41
1
10
71.6338325710271
20
-1.89777151512399
30
0
41
1
10
71.6169188861244
20
-1.89947632027679
30
0
41
1
10
71.6000000453136
20
-1.90115067175179
30
0
0
SPLINE
5
169
100
AcDbEntity
8
1
62
256
6
ByLayer
370
18
48
1
60
0
100
AcDbSpline
70
4
71
3
72
8
73
4
40
0
40
0
40
0
40
0
40
1
40
1
40
1
40
1
41
1
10
71.6000000453136
20
-1.90115067175179
30
0
41
1
10
71.5892653388762
20
-1.89616669464536
30
0
41
1
10
71.5785361501198
20
-1.89116355218647
30
0
41
1
10
71.567813628167
20
-1.88613974606179
30
0
0
SPLINE
5
16A
100
AcDbEntity
8
1
62
256
6
ByLayer
370
18
48
1
60
0
100
AcDbSpline
70
4
71
3
72
14
73
10
40
0
40
0
40
0
40
0
40
0.0739338933795902
40
0.0739338933795902
40
0.228278244482992
40
0.228278244482992
40
0.382622595586394
40
0.382622595586394
40
1
40
1
40
1
40
1
41
1
10
58.3922575864394
20
-4.82574506500737
30
0
41
1
10
58.3912489809007
20
-4.82574311746799
30
0
41
1
10
58.3902398411337
20
-4.82562582556722
30
0
41
1
10
58.3871222004504
20
-4.82490617753919
30
0
41
1
10
58.385011669155
20
-4.82391476299546
30
0
41
1
10
58.3807837368572
20
-4.82091118010462
30
0
41
1
10
58.3786642237209
20
-4.81889533523298
30
0
41
1
10
58.3681016908065
20
-4.80631115103049
30
0
41
1
10
58.3597239524512
20
-4.78823645661882
30
0
41
1
10
58.35134144398
20
-4.76240581676305
30
0
0
SPLINE
5
16B
100
AcDbEntity
8
1
62
256
6
ByLayer
370
18
48
1
60
0
100
AcDbSpline
70
4
71
3
72
12
73
8
40
0
40
0
40
0
40
0
40
0.513843359520472
40
0.513843359520472
40
0.770765039280708
40
0.770765039280708
40
1
40
1
40
1
40
1
41
1
10
58.1874822939445
20
-4.73474825795856
30
0
41
1
10
58.1958538617679
20
-4.76563891339899
30
0
41
1
10
58.2042091028084
20
-4.78875131051663
30
0
41
1
10
58.2167952704339
20
-4.81159538891996
30
0
41
1
10
58.2210002530904
20
-4.81723572977737
30
0
41
1
10
58.2289960060056
20
-4.82410488430597
30
0
41
1
10
58.2327910297866
20
-4.82573564445698
30
0
41
1
10
58.2365723660044
20
-4.825744491394
30
0
0
SPLINE
5
16C
100
AcDbEntity
8
1
62
256
6
ByLayer
370
18
48
1
60
0
100
AcDbSpline
70
4
71
3
72
16
73
12
40
0
40
0
40
0
40
0
40
0.0733190473278015
40
0.0733190473278015
40
0.382212698218534
40
0.382212698218534
40
0.536659523663901
40
0.536659523663901
40
0.691106349109267
40
0.691106349109267
40
1
40
1
40
1
40
1
41
1
10
62.20532163068
20
4.82574686528
30
0
41
1
10
62.2073128518442
20
4.82575016018328
30
0
41
1
10
62.2093040236537
20
4.82530489752085
30
0
41
1
10
62.2196843777693
20
4.82064657639918
30
0
41
1
10
62.2280744420599
20
4.80892513465363
30
0
41
1
10
62.240748416579
20
4.77907153638458
30
0
41
1
10
62.2449987626027
20
4.76703067922097
30
0
41
1
10
62.2534652880402
20
4.73907210630864
30
0
41
1
10
62.2576883938025
20
4.72314438229171
30
0
41
1
10
62.270327012185
20
4.66962050517807
30
0
41
1
10
62.2787091307627
20
4.62629758022439
30
0
41
1
10
62.2870797718895
20
4.57543650750549
30
0
0
SPLINE
5
16D
100
AcDbEntity
8
1
62
256
6
ByLayer
370
18
48
1
60
0
100
AcDbSpline
70
4
71
3
72
18
73
14
40
0
40
0
40
0
40
0
40
0.280959605808511
40
0.280959605808511
40
0.561919211617023
40
0.561919211617023
40
0.63215911306915
40
0.63215911306915
40
0.702399014521277
40
0.702399014521277
40
0.842878817425531
40
0.842878817425531
40
1
40
1
40
1
40
1
41
1
10
62.4509231490199
20
4.52374898605913
30
0
41
1
10
62.4425381985854
20
4.57959908552334
30
0
41
1
10
62.4341591243079
20
4.62778839781225
30
0
41
1
10
62.4173627298581
20
4.70891820515968
30
0
41
1
10
62.4089562034385
20
4.74185960462799
30
0
41
1
10
62.398395047182
20
4.77326428363548
30
0
41
1
10
62.396279923891
20
4.77905543955168
30
0
41
1
10
62.3920418287559
20
4.7896472635951
30
0
41
1
10
62.3899177144922
20
4.79444868741376
30
0
41
1
10
62.3835659062384
20
4.80728417511853
30
0
41
1
10
62.3793470737569
20
4.81378233816662
30
0
41
1
10
62.3704196052061
20
4.82327083818547
30
0
41
1
10
62.365714820701
20
4.82575912882569
30
0
41
1
10
62.361016936161
20
4.82574864072475
30
0
0
SPLINE
5
16E
100
AcDbEntity
8
1
62
256
6
ByLayer
370
18
48
1
60
0
100
AcDbSpline
70
4
71
3
72
18
73
14
40
0
40
0
40
0
40
0
40
0.0957123268202312
40
0.0957123268202312
40
0.321784245115173
40
0.321784245115173
40
0.434820204262645
40
0.434820204262645
40
0.547856163410116
40
0.547856163410116
40
0.773928081705058
40
0.773928081705058
40
1
40
1
40
1
40
1
41
1
10
56.8048033015233
20
-4.82574686513689
30
0
41
1
10
56.8017548130709
20
-4.82574188629604
30
0
41
1
10
56.7987053013875
20
-4.82468040181064
30
0
41
1
10
56.7884373900116
20
-4.81756846461269
30
0
41
1
10
56.7812083591202
20
-4.80669241768743
30
0
41
1
10
56.7703320583348
20
-4.7814148769051
30
0
41
1
10
56.7667007478827
20
-4.77149306957816
30
0
41
1
10
56.7594194405708
20
-4.74860761782344
30
0
41
1
10
56.7557640160296
20
-4.73561602588458
30
0
41
1
10
56.7448576943235
20
-4.69242658010879
30
0
41
1
10
56.7376336786305
20
-4.65794297726842
30
0
41
1
10
56.723182345726
20
-4.57789320286247
30
0
41
1
10
56.7159657698972
20
-4.53232629090704
30
0
41
1
10
56.7087510905886
20
-4.48124095009587
30
0
0
SPLINE
5
16F
100
AcDbEntity
8
1
62
256
6
ByLayer
370
18
48
1
60
0
100
AcDbSpline
70
4
71
3
72
23
73
19
40
0
40
0
40
0
40
0
40
0.180558185600824
40
0.180558185600824
40
0.361116371201647
40
0.361116371201647
40
0.406255917601853
40
0.406255917601853
40
0.451395464002058
40
0.541674556802471
40
0.541674556802471
40
0.722232742403294
40
0.722232742403294
40
0.902790928004118
40
0.902790928004118
40
0.99307002080453
40
0.99307002080453
40
1
40
1
40
1
40
1
41
1
10
56.4091414476229
20
-3.98838224935355
30
0
41
1
10
56.4217952598751
20
-4.07287525538649
30
0
41
1
10
56.4343700736139
20
-4.15097893172083
30
0
41
1
10
56.4595674419504
20
-4.29446730483218
30
0
41
1
10
56.4722095528324
20
-4.35986259133247
30
0
41
1
10
56.4880833578907
20
-4.43342204754515
30
0
41
1
10
56.4912625906174
20
-4.447726091741
30
0
41
1
10
56.4975948267613
20
-4.47535803869093
30
0
41
1
10
56.5070669087796
20
-4.51540291590854
30
0
41
1
10
56.5164678617513
20
-4.55128817972707
30
0
41
1
10
56.5352046115238
20
-4.61761059867288
30
0
41
1
10
56.5476105061481
20
-4.65457451876316
30
0
41
1
10
56.5724553381997
20
-4.71423785900376
30
0
41
1
10
56.5848740238566
20
-4.73692611902541
30
0
41
1
10
56.6035286255385
20
-4.76005170404835
30
0
41
1
10
56.6097522182331
20
-4.76593983189997
30
0
41
1
10
56.6164687264818
20
-4.7702849427485
30
0
41
1
10
56.6169474178744
20
-4.77058363756157
30
0
41
1
10
56.6174259850685
20
-4.77087127840005
30
0
0
SPLINE
5
170
100
AcDbEntity
8
1
62
256
6
ByLayer
370
18
48
1
60
0
100
AcDbSpline
70
4
71
3
72
8
73
4
40
0
40
0
40
0
40
0
40
1
40
1
40
1
40
1
41
1
10
56.7087510905881
20
-4.48124095008382
30
0
41
1
10
56.7019243196841
20
-4.4123094255095
30
0
41
1
10
56.695165244722
20
-4.33523733874145
30
0
41
1
10
56.6884193786074
20
-4.25029805344116
30
0
0
SPLINE
5
171
100
AcDbEntity
8
1
62
256
6
ByLayer
370
13
48
1
60
0
100
AcDbSpline
70
4
71
3
72
10
73
6
40
0
40
0
40
0
40
0
40
0.362057469901668
40
0.890918623913827
40
1
40
1
40
1
40
1
41
1
10
55.9821377401495
20
-3.2553979240713
30
0
41
1
10
55.9969342419345
20
-3.38443076421964
30
0
41
1
10
56.033344148891
20
-3.66080591735778
30
0
41
1
10
56.0742119852318
20
-3.8448032268409
30
0
41
1
10
56.1002833133705
20
-3.89988139315153
30
0
41
1
10
56.10474123265
20
-3.90747429595797
30
0
0
SPLINE
5
172
100
AcDbEntity
8
1
62
256
6
ByLayer
370
13
48
1
60
0
100
AcDbSpline
70
4
71
3
72
11
73
7
40
0
40
0
40
0
40
0
40
0.0098193807853542
40
0.371854482227422
40
0.733889583669491
40
1
40
1
40
1
40
1
41
1
10
55.5636487851879
20
-3.06402196878634
30
0
41
1
10
55.5642350001869
20
-3.06973579902612
30
0
41
1
10
55.5864346373186
20
-3.28517361693733
30
0
41
1
10
55.6302478196117
20
-3.63952468352795
30
0
41
1
10
55.6893612246623
20
-3.90040812653388
30
0
41
1
10
55.7268612709694
20
-3.93684953496859
30
0
41
1
10
55.7427479997395
20
-3.92901326499853
30
0
0
SPLINE
5
173
100
AcDbEntity
8
1
62
256
6
ByLayer
370
18
48
1
60
0
100
AcDbSpline
70
4
71
3
72
25
73
21
40
0
40
0
40
0
40
0
40
0.0991744833735625
40
0.227863842891625
40
0.227863842891625
40
0.292208522650657
40
0.292208522650657
40
0.356553202409688
40
0.356553202409688
40
0.485242561927751
40
0.485242561927751
40
0.613931921445813
40
0.613931921445813
40
0.742621280963875
40
0.742621280963875
40
0.806965960722906
40
0.806965960722906
40
0.871310640481937
40
0.871310640481937
40
1
40
1
40
1
40
1
41
1
10
55.6018210968019
20
-4.16063532515312
30
0
41
1
10
55.5975246209072
20
-4.15805471902931
30
0
41
1
10
55.5876697956801
20
-4.1446129757029
30
0
41
1
10
55.577799436454
20
-4.11397857915998
30
0
41
1
10
55.5693676582439
20
-4.07962765185781
30
0
41
1
10
55.5665455347998
20
-4.0667755073269
30
0
41
1
10
55.5608778832903
20
-4.03821812082444
30
0
41
1
10
55.5580287128126
20
-4.02248403614232
30
0
41
1
10
55.5495286346043
20
-3.97146191651089
30
0
41
1
10
55.5438991154985
20
-3.93224151061977
30
0
41
1
10
55.5326630416751
20
-3.84363892987983
30
0
41
1
10
55.5270549342013
20
-3.79425537615126
30
0
41
1
10
55.5157804005675
20
-3.68530709873537
30
0
41
1
10
55.5101208826795
20
-3.62574653386406
30
0
41
1
10
55.5015834393738
20
-3.52859792324128
30
0
41
1
10
55.4987276882354
20
-3.49489217126199
30
0
41
1
10
55.4929993792903
20
-3.424896076594
30
0
41
1
10
55.4901460992107
20
-3.38884293197506
30
0
41
1
10
55.4816052992767
20
-3.27757584326937
30
0
41
1
10
55.4759331367544
20
-3.19925913453116
30
0
41
1
10
55.4702510631961
20
-3.11687775928024
30
0
0
SPLINE
5
174
100
AcDbEntity
8
1
62
256
6
ByLayer
370
18
48
1
60
0
100
AcDbSpline
70
4
71
3
72
26
73
22
40
0
40
0
40
0
40
0
40
0.0729915428077821
40
0.109487314211673
40
0.109487314211673
40
0.145983085615565
40
0.145983085615565
40
0.291966171231128
40
0.291966171231128
40
0.437949256846692
40
0.437949256846692
40
0.583932342462255
40
0.583932342462255
40
0.620428113866146
40
0.620428113866146
40
0.656923885270037
40
0.656923885270037
40
0.729915428077819
40
0.729915428077819
40
0.875898513693383
40
1
40
1
40
1
40
1
41
1
10
64.1213991936162
20
3.739947933027
30
0
41
1
10
64.1171964925985
20
3.79062641901686
30
0
41
1
10
64.1108762042265
20
3.8644717686939
30
0
41
1
10
64.1045294532809
20
3.93500694915625
30
0
41
1
10
64.1002914403879
20
3.98128629418696
30
0
41
1
10
64.0981662146485
20
4.00408319079816
30
0
41
1
10
64.087572381722
20
4.11563937506961
30
0
41
1
10
64.0791818145919
20
4.19739126659857
30
0
41
1
10
64.0624366198733
20
4.34638565538211
30
0
41
1
10
64.054064713795
20
4.41362652179865
30
0
41
1
10
64.0372850943434
20
4.53363227051213
30
0
41
1
10
64.0288863519123
20
4.58639819750178
30
0
41
1
10
64.0183303117556
20
4.64305812389733
30
0
41
1
10
64.0162159703814
20
4.65392410861617
30
0
41
1
10
64.0119788148058
20
4.67471313009992
30
0
41
1
10
64.0098613618997
20
4.68460900178584
30
0
41
1
10
64.0035247010342
20
4.71273919302214
30
0
41
1
10
63.9993140707891
20
4.72945045869591
30
0
41
1
10
63.9866921231609
20
4.77356852684466
30
0
41
1
10
63.97116820863
20
4.81317172106932
30
0
41
1
10
63.9556908693319
20
4.82574962928101
30
0
41
1
10
63.9485549409506
20
4.82574593252619
30
0
0
SPLINE
5
175
100
AcDbEntity
8
1
62
256
6
ByLayer
370
18
48
1
60
0
100
AcDbSpline
70
4
71
3
72
32
73
28
40
0
40
0
40
0
40
0
40
0.034530694097067
40
0.034530694097067
40
0.0690117407364576
40
0.0690117407364576
40
0.103492787375848
40
0.17245488065463
40
0.17245488065463
40
0.310379067212192
40
0.310379067212192
40
0.448303253769754
40
0.448303253769754
40
0.517265347048535
40
0.517265347048535
40
0.551746393687925
40
0.551746393687925
40
0.586227440327316
40
0.586227440327316
40
0.724151626884877
40
0.724151626884877
40
0.862075813442438
40
0.862075813442438
40
0.931037906721218
40
0.965518953360609
40
0.965518953360609
40
1
40
1
40
1
40
1
41
1
10
66.3298020082696
20
-4.82574718230791
30
0
41
1
10
66.3276879745339
20
-4.8257451221713
30
0
41
1
10
66.3255697411064
20
-4.82523631228835
30
0
41
1
10
66.3213259613029
20
-4.82319929182779
30
0
41
1
10
66.3191991888284
20
-4.82166922435957
30
0
41
1
10
66.3149461829545
20
-4.81758564907071
30
0
41
1
10
66.3085805924472
20
-4.80994057530157
30
0
41
1
10
66.3022544923883
20
-4.79779228826774
30
0
41
1
10
66.2896411326413
20
-4.76759483390481
30
0
41
1
10
66.2812866790003
20
-4.73960964335393
30
0
41
1
10
66.264548008679
20
-4.66812060428282
30
0
41
1
10
66.2561476983073
20
-4.624617269824
30
0
41
1
10
66.2434860765139
20
-4.54751574752768
30
0
41
1
10
66.2392558396504
20
-4.51983717110386
30
0
41
1
10
66.2328900983629
20
-4.47529136734423
30
0
41
1
10
66.2307640695379
20
-4.45993128048528
30
0
41
1
10
66.2265277181084
20
-4.42837485961525
30
0
41
1
10
66.2244143949193
20
-4.41215810036166
30
0
41
1
10
66.2138671237491
20
-4.32890484040314
30
0
41
1
10
66.2054904060552
20
-4.25537646384981
30
0
41
1
10
66.1887086677826
20
-4.0947921112319
30
0
41
1
10
66.1803191673098
20
-4.00773524126996
30
0
41
1
10
66.1677140270471
20
-3.86693779699661
30
0
41
1
10
66.1614051723052
20
-3.79398139524582
30
0
41
1
10
66.1550725389591
20
-3.71713277322925
30
0
41
1
10
66.1508431647472
20
-3.66502604742914
30
0
41
1
10
66.1487230234616
20
-3.63851435491421
30
0
41
1
10
66.1466014906605
20
-3.61160722321014
30
0
0
SPLINE
5
176
100
AcDbEntity
8
1
62
256
6
ByLayer
370
18
48
1
60
0
100
AcDbSpline
70
4
71
3
72
31
73
27
40
0
40
0
40
0
40
0
40
0.0660108814320599
40
0.0660108814320599
40
0.0990163221480898
40
0.0990163221480898
40
0.13202176286412
40
0.13202176286412
40
0.264043525728239
40
0.396065288592359
40
0.396065288592359
40
0.528087051456478
40
0.528087051456478
40
0.594097932888538
40
0.594097932888538
40
0.660108814320598
40
0.660108814320598
40
0.792130577184717
40
0.792130577184717
40
0.924152340048837
40
0.924152340048837
40
0.957157780764866
40
0.957157780764866
40
0.990163221480896
40
0.990163221480896
40
1
40
1
40
1
40
1
41
1
10
65.9827614006586
20
-3.50675618352412
30
0
41
1
10
65.986969185062
20
-3.56200901354166
30
0
41
1
10
65.9911848703838
20
-3.61594704110877
30
0
41
1
10
65.9975334378732
20
-3.69484227220485
30
0
41
1
10
65.9996564657067
20
-3.72083596632589
30
0
41
1
10
66.003891935207
20
-3.77188268273366
30
0
41
1
10
66.0060062213673
20
-3.79695960429584
30
0
41
1
10
66.0165682102572
20
-3.92013613587591
30
0
41
1
10
66.0334042783507
20
-4.1031209013673
30
0
41
1
10
66.0501287432662
20
-4.25859651358573
30
0
41
1
10
66.0668959064327
20
-4.40024169124422
30
0
41
1
10
66.0753119691429
20
-4.46415057865457
30
0
41
1
10
66.0880687518426
20
-4.54926915174099
30
0
41
1
10
66.0923080053684
20
-4.57563369349609
30
0
41
1
10
66.1007510446482
20
-4.62434153379036
30
0
41
1
10
66.1049571252744
20
-4.64670004081805
30
0
41
1
10
66.1175439640292
20
-4.7078740160471
30
0
41
1
10
66.1258906737717
20
-4.74080225081929
30
0
41
1
10
66.1426382350255
20
-4.79104452994318
30
0
41
1
10
66.151052254629
20
-4.80835926440164
30
0
41
1
10
66.1616255012939
20
-4.82001109854227
30
0
41
1
10
66.1637430152875
20
-4.82184068839786
30
0
41
1
10
66.1679846444718
20
-4.82448752926629
30
0
41
1
10
66.1701116344407
20
-4.82530445827078
30
0
41
1
10
66.1728642383013
20
-4.8256994355238
30
0
41
1
10
66.1734957879177
20
-4.82574481605479
30
0
41
1
10
66.174126900712
20
-4.82574502317195
30
0
0
SPLINE
5
177
100
AcDbEntity
8
1
62
256
6
ByLayer
370
18
48
1
60
0
100
AcDbSpline
70
4
71
3
72
23
73
19
40
0
40
0
40
0
40
0
40
0.249999999999999
40
0.249999999999999
40
0.374999999999999
40
0.374999999999999
40
0.437499999999999
40
0.437499999999999
40
0.499999999999999
40
0.499999999999999
40
0.625
40
0.75
40
0.75
40
0.875
40
0.875
40
0.9375
40
0.9375
40
1
40
1
40
1
40
1
41
1
10
55.1953227701848
20
2.21321612829524
30
0
41
1
10
55.1850697456541
20
2.39504296123158
30
0
41
1
10
55.1751884914916
20
2.56331682578201
30
0
41
1
10
55.1608360933415
20
2.79605225213268
30
0
41
1
10
55.1561320006322
20
2.87033395161731
30
0
41
1
10
55.1491610404676
20
2.97671869542137
30
0
41
1
10
55.1468512028812
20
3.01133933778613
30
0
41
1
10
55.1422492700159
20
3.07886707572018
30
0
41
1
10
55.1399525481454
20
3.11184565082908
30
0
41
1
10
55.1331533394079
20
3.20736528232689
30
0
41
1
10
55.1243116819389
20
3.32595726915932
30
0
41
1
10
55.1159055694905
20
3.42749274025212
30
0
41
1
10
55.1076692696647
20
3.52052323901063
30
0
41
1
10
55.1036247668537
20
3.56277996535326
30
0
41
1
10
55.0976664131125
20
3.61967208738341
30
0
41
1
10
55.0957001645121
20
3.6375534758179
30
0
41
1
10
55.0918116940409
20
3.67111713925254
30
0
41
1
10
55.0898856866866
20
3.68682559481439
30
0
41
1
10
55.0879993869668
20
3.70128706423719
30
0
0
SPLINE
5
178
100
AcDbEntity
8
1
62
256
6
ByLayer
370
18
48
1
60
0
100
AcDbSpline
70
4
71
3
72
64
73
60
40
0
40
0
40
0
40
0
40
0.108119814134643
40
0.108119814134643
40
0.216239628269286
40
0.216239628269286
40
0.324359442403929
40
0.324359442403929
40
0.351389395937591
40
0.351389395937591
40
0.378419349471253
40
0.378419349471253
40
0.432479256538584
40
0.432479256538584
40
0.486539163605915
40
0.486539163605915
40
0.540599070673246
40
0.540599070673246
40
0.554114047440075
40
0.554114047440075
40
0.567629024206905
40
0.567629024206905
40
0.59465897774057
40
0.59465897774057
40
0.648718884807907
40
0.648718884807907
40
0.702778791875244
40
0.702778791875244
40
0.756838698942581
40
0.756838698942581
40
0.770353675709413
40
0.770353675709413
40
0.783868652476244
40
0.810898606009906
40
0.810898606009906
40
0.837928559543569
40
0.837928559543569
40
0.8514435363104
40
0.8514435363104
40
0.864958513077231
40
0.864958513077231
40
0.891988466610899
40
0.891988466610899
40
0.919018420144567
40
0.919018420144567
40
0.932533396911398
40
0.932533396911398
40
0.94604837367823
40
0.94604837367823
40
0.959563350445062
40
0.959563350445062
40
0.966320838828478
40
0.966320838828478
40
0.973078327211894
40
0.973078327211894
40
0.97983581559531
40
0.97983581559531
40
0.986593303978726
40
1
40
1
40
1
40
1
41
1
10
44.4850208463231
20
-3.60297632051174
30
0
41
1
10
44.3026686649205
20
-3.58764654557433
30
0
41
1
10
44.1172312674913
20
-3.56504227235635
30
0
41
1
10
43.7371233505656
20
-3.51104868392562
30
0
41
1
10
43.5424396399616
20
-3.479676937092
30
0
41
1
10
43.1409461488647
20
-3.41481405390414
30
0
41
1
10
42.9341315574827
20
-3.38133856821443
30
0
41
1
10
42.6660921051157
20
-3.34277492684325
30
0
41
1
10
42.6120072031725
20
-3.33522744997467
30
0
41
1
10
42.5028157451628
20
-3.32059271183229
30
0
41
1
10
42.4480114755255
20
-3.31354655726489
30
0
41
1
10
42.2831213894008
20
-3.29343036102173
30
0
41
1
10
42.1724778667313
20
-3.28138668683559
30
0
41
1
10
41.949625849003
20
-3.26093851353528
30
0
41
1
10
41.8374249767007
20
-3.25251448495175
30
0
41
1
10
41.6112045449153
20
-3.24040186010282
30
0
41
1
10
41.4972044131401
20
-3.23666492076876
30
0
41
1
10
41.3532744160139
20
-3.23588036930616
30
0
41
1
10
41.3244164239034
20
-3.23591845744042
30
0
41
1
10
41.2665461374108
20
-3.23641237731863
30
0
41
1
10
41.2375299749606
20
-3.23689356894087
30
0
41
1
10
41.1509487407836
20
-3.23902457278203
30
0
41
1
10
41.0935843504648
20
-3.24127508325151
30
0
41
1
10
40.9219135332842
20
-3.24896755595543
30
0
41
1
10
40.808164669812
20
-3.2556752437981
30
0
41
1
10
40.5822671138457
20
-3.27244719987786
30
0
41
1
10
40.4701077853811
20
-3.28248860446743
30
0
41
1
10
40.2475257774182
20
-3.30577520608281
30
0
41
1
10
40.1371079770903
20
-3.31903965897504
30
0
41
1
10
40.0004436414847
20
-3.33773614358012
30
0
41
1
10
39.9731553613184
20
-3.34158483098193
30
0
41
1
10
39.9189435894198
20
-3.34946321525572
30
0
41
1
10
39.8381137565261
20
-3.36155971565387
30
0
41
1
10
39.7588173223575
20
-3.37447706565212
30
0
41
1
10
39.6546128338908
20
-3.39238999588241
30
0
41
1
10
39.603271515995
20
-3.40169145443795
30
0
41
1
10
39.5275833797377
20
-3.41613405210333
30
0
41
1
10
39.5025377658553
20
-3.4210374353984
30
0
41
1
10
39.4531213815191
20
-3.4309615742738
30
0
41
1
10
39.4287735263463
20
-3.43597729855554
30
0
41
1
10
39.3568785919292
20
-3.45116144736713
30
0
41
1
10
39.3104758732476
20
-3.46146846875217
30
0
41
1
10
39.2211724290025
20
-3.48229025438724
30
0
41
1
10
39.1782717220373
20
-3.49280677044692
30
0
41
1
10
39.1169964418585
20
-3.50856801231862
30
0
41
1
10
39.0970787162861
20
-3.51381686764307
30
0
41
1
10
39.0583744407176
20
-3.52427331907151
30
0
41
1
10
39.03972277293
20
-3.52944476698386
30
0
41
1
10
39.0040227604298
20
-3.53960378213409
30
0
41
1
10
38.9869574041346
20
-3.5445959586794
30
0
41
1
10
38.962620466733
20
-3.55191660781304
30
0
41
1
10
38.9546983323646
20
-3.55432606933678
30
0
41
1
10
38.9393755402258
20
-3.55909385984296
30
0
41
1
10
38.9320917132644
20
-3.56146815986438
30
0
41
1
10
38.9183176389216
20
-3.56618573883301
30
0
41
1
10
38.9118593931352
20
-3.56851877289972
30
0
41
1
10
38.8999204770975
20
-3.57308132640523
30
0
41
1
10
38.8835122269417
20
-3.5797529059314
30
0
41
1
10
38.8712956481458
20
-3.58597617996992
30
0
41
1
10
38.8650686600568
20
-3.58987680377291
30
0
0
SPLINE
5
179
100
AcDbEntity
8
1
62
256
6
ByLayer
370
18
48
1
60
0
100
AcDbSpline
70
4
71
3
72
36
73
32
40
0
40
0
40
0
40
0
40
0.0176408335905552
40
0.0176408335905552
40
0.054392017719033
40
0.054392017719033
40
0.0911432018475113
40
0.0911432018475113
40
0.127894385975989
40
0.127894385975989
40
0.201396754232945
40
0.201396754232945
40
0.238147938361424
40
0.238147938361424
40
0.274899122489902
40
0.274899122489902
40
0.348401490746866
40
0.348401490746866
40
0.421903859003831
40
0.421903859003831
40
0.495406227260795
40
0.495406227260795
40
0.56890859551776
40
0.56890859551776
40
0.642410963774725
40
0.642410963774725
40
0.789415700288654
40
0.789415700288654
40
0.936420436802583
40
0.936420436802583
40
1
40
1
40
1
40
1
41
1
10
38.8567569308215
20
-3.59589700936866
30
0
41
1
10
38.8547372696285
20
-3.59765170661146
30
0
41
1
10
38.8531754747774
20
-3.59933709477289
30
0
41
1
10
38.8498068137465
20
-3.60426933284296
30
0
41
1
10
38.8493814225508
20
-3.60725494851332
30
0
41
1
10
38.8517320156499
20
-3.61253438785883
30
0
41
1
10
38.8545268767465
20
-3.61483127025358
30
0
41
1
10
38.8629628632294
20
-3.61872098807453
30
0
41
1
10
38.8685445230854
20
-3.62029221803749
30
0
41
1
10
38.8886703459054
20
-3.6239823661158
30
0
41
1
10
38.906548691277
20
-3.62508252285207
30
0
41
1
10
38.9382861240148
20
-3.62495156817664
30
0
41
1
10
38.9496930953484
20
-3.62460966868952
30
0
41
1
10
38.9739500040613
20
-3.62335924394998
30
0
41
1
10
38.9867267852736
20
-3.62245419482602
30
0
41
1
10
39.0265958600538
20
-3.61897557604612
30
0
41
1
10
39.055263024965
20
-3.61563922078989
30
0
41
1
10
39.1157518991803
20
-3.60719492639643
30
0
41
1
10
39.1475862485085
20
-3.60208572826582
30
0
41
1
10
39.213753182588
20
-3.59026537388499
30
0
41
1
10
39.2480879303391
20
-3.58355325287249
30
0
41
1
10
39.3187891662166
20
-3.56864218134655
30
0
41
1
10
39.3552308597383
20
-3.56042418323247
30
0
41
1
10
39.4292775510155
20
-3.54271370550603
30
0
41
1
10
39.4669176963954
20
-3.53321608350416
30
0
41
1
10
39.581336990809
20
-3.50292273945738
30
0
41
1
10
39.6595974268597
20
-3.48033406833247
30
0
41
1
10
39.8188583182027
20
-3.43078573767562
30
0
41
1
10
39.8998691926568
20
-3.40382229122218
30
0
41
1
10
40.0173595405342
20
-3.36220978119394
30
0
41
1
10
40.0530213803839
20
-3.34925571310967
30
0
41
1
10
40.0888527339251
20
-3.33591446910427
30
0
0
SPLINE
5
17A
100
AcDbEntity
8
1
62
256
6
ByLayer
370
13
48
1
60
0
100
AcDbSpline
70
4
71
3
72
11
73
7
40
0
40
0
40
0
40
0
40
0.0979396111296778
40
0.460030245164668
40
0.822120879199659
40
1
40
1
40
1
40
1
41
1
10
55.4254270164102
20
3.70201685723023
30
0
41
1
10
55.4312730911229
20
3.67142796419037
30
0
41
1
10
55.458732575133
20
3.51380214770637
30
0
41
1
10
55.5078054666517
20
3.11746831922361
30
0
41
1
10
55.5616499857554
20
2.51298634806943
30
0
41
1
10
55.5938811080402
20
2.0931436135655
30
0
41
1
10
55.6044988207855
20
1.94968777325204
30
0
0
SPLINE
5
17B
100
AcDbEntity
8
1
62
256
6
ByLayer
370
18
48
1
60
0
100
AcDbSpline
70
4
71
3
72
28
73
24
40
0
40
0
40
0
40
0
40
0.125
40
0.250000000000001
40
0.250000000000001
40
0.281250000000001
40
0.281250000000001
40
0.312500000000001
40
0.312500000000001
40
0.375000000000002
40
0.375000000000002
40
0.500000000000002
40
0.625000000000002
40
0.625000000000002
40
0.687500000000002
40
0.687500000000002
40
0.718750000000002
40
0.718750000000002
40
0.750000000000001
40
0.750000000000001
40
0.875000000000001
40
0.875000000000001
40
1
40
1
40
1
40
1
41
1
10
65.4260325487894
20
4.7471149715459
30
0
41
1
10
65.4344390032388
20
4.71824724667547
30
0
41
1
10
65.4512263698884
20
4.64498878518543
30
0
41
1
10
65.4680010553457
20
4.54088691668201
30
0
41
1
10
65.4785510177953
20
4.4659572848916
30
0
41
1
10
65.4806645359427
20
4.45047688545708
30
0
41
1
10
65.4849013442209
20
4.41851660400738
30
0
41
1
10
65.4870276190391
20
4.40201235314203
30
0
41
1
10
65.4933960064322
20
4.35122251967593
30
0
41
1
10
65.4976314619875
20
4.31564279198841
30
0
41
1
10
65.5103048283944
20
4.20384775861632
30
0
41
1
10
65.5271086333276
20
4.04133031217657
30
0
41
1
10
65.5438319367396
20
3.85237145884668
30
0
41
1
10
65.5564547288213
20
3.70061932477674
30
0
41
1
10
65.5606783548166
20
3.6483601559363
30
0
41
1
10
65.5670384967738
20
3.56741467857697
30
0
41
1
10
65.569162591733
20
3.54000651967601
30
0
41
1
10
65.5734191914556
20
3.48432757092147
30
0
41
1
10
65.5755467682425
20
3.45612053235553
30
0
41
1
10
65.5861523290921
20
3.31366457172504
30
0
41
1
10
65.5945601766295
20
3.19477158247008
30
0
41
1
10
65.6113225176948
20
2.9474156146768
30
0
41
1
10
65.619685794927
20
2.81895230135575
30
0
41
1
10
65.6280924049162
20
2.68570212890376
30
0
0
SPLINE
5
17C
100
AcDbEntity
8
1
62
256
6
ByLayer
370
18
48
1
60
0
100
AcDbSpline
70
4
71
3
72
28
73
24
40
0
40
0
40
0
40
0
40
0.124999999999999
40
0.124999999999999
40
0.249999999999998
40
0.249999999999998
40
0.312499999999997
40
0.343749999999997
40
0.343749999999997
40
0.374999999999997
40
0.374999999999997
40
0.499999999999998
40
0.499999999999998
40
0.624999999999999
40
0.624999999999999
40
0.75
40
0.75
40
0.78125
40
0.78125
40
0.8125
40
0.875
40
0.875
40
1
40
1
40
1
40
1
41
1
10
65.7919296008915
20
2.55528479339617
30
0
41
1
10
65.7834805361231
20
2.69201967502562
30
0
41
1
10
65.775092419442
20
2.82371094518837
30
0
41
1
10
65.7583460541623
20
3.07719318933633
30
0
41
1
10
65.7499815091106
20
3.19898366679354
30
0
41
1
10
65.7373426197134
20
3.37415948957036
30
0
41
1
10
65.7310055229296
20
3.45986671679029
30
0
41
1
10
65.724639775386
20
3.5427053005213
30
0
41
1
10
65.7203886060036
20
3.5972858091923
30
0
41
1
10
65.7182596984602
20
3.62424812860837
30
0
41
1
10
65.7076547313986
20
3.7566808263978
30
0
41
1
10
65.6992518709577
20
3.85566117049456
30
0
41
1
10
65.682476986588
20
4.04010545822595
30
0
41
1
10
65.6740885767659
20
4.12556792037168
30
0
41
1
10
65.6572786922819
20
4.28298000608021
30
0
41
1
10
65.6488644510652
20
4.35493076460452
30
0
41
1
10
65.6382835925052
20
4.43617103898401
30
0
41
1
10
65.6361616660488
20
4.45199997480032
30
0
41
1
10
65.6319197011426
20
4.48269567090844
30
0
41
1
10
65.6255707270838
20
4.52722106645831
30
0
41
1
10
65.6192488194064
20
4.56724738158428
30
0
41
1
10
65.60661275145
20
4.64140355055409
30
0
41
1
10
65.5982110352082
20
4.68299366857275
30
0
41
1
10
65.5898208806209
20
4.71682806914353
30
0
0
SPLINE
5
17D
100
AcDbEntity
8
1
62
256
6
ByLayer
370
18
48
1
60
0
100
AcDbSpline
70
4
71
3
72
104
73
100
40
0
40
0
40
0
40
0
40
0.0624999999999642
40
0.0624999999999642
40
0.124999999999929
40
0.124999999999929
40
0.187499999999893
40
0.187499999999893
40
0.203124999999886
40
0.203124999999886
40
0.218749999999878
40
0.218749999999878
40
0.249999999999867
40
0.249999999999867
40
0.281249999999857
40
0.281249999999857
40
0.312499999999846
40
0.312499999999846
40
0.320312499999845
40
0.320312499999845
40
0.328124999999844
40
0.328124999999844
40
0.343749999999847
40
0.343749999999847
40
0.374999999999847
40
0.374999999999847
40
0.406249999999847
40
0.406249999999847
40
0.437499999999848
40
0.437499999999848
40
0.445312499999846
40
0.445312499999846
40
0.453124999999845
40
0.468749999999841
40
0.468749999999841
40
0.484374999999838
40
0.484374999999838
40
0.492187499999836
40
0.492187499999836
40
0.499999999999835
40
0.499999999999835
40
0.515624999999834
40
0.515624999999834
40
0.531249999999834
40
0.531249999999834
40
0.539062499999835
40
0.539062499999835
40
0.546874999999837
40
0.546874999999837
40
0.554687499999838
40
0.554687499999838
40
0.55859374999984
40
0.55859374999984
40
0.562499999999842
40
0.562499999999842
40
0.566406249999843
40
0.566406249999843
40
0.570312499999845
40
0.578124999999848
40
0.578124999999848
40
0.585937499999852
40
0.585937499999852
40
0.593749999999855
40
0.593749999999855
40
0.601562499999859
40
0.601562499999859
40
0.609374999999862
40
0.609374999999862
40
0.62499999999987
40
0.62499999999987
40
0.632812499999873
40
0.632812499999873
40
0.640624999999876
40
0.640624999999876
40
0.656249999999881
40
0.656249999999881
40
0.671874999999886
40
0.671874999999886
40
0.68749999999989
40
0.68749999999989
40
0.703124999999895
40
0.703124999999895
40
0.718749999999899
40
0.718749999999899
40
0.749999999999909
40
0.749999999999909
40
0.781249999999918
40
0.781249999999918
40
0.812499999999927
40
0.812499999999927
40
0.843749999999937
40
0.843749999999937
40
0.859374999999941
40
0.859374999999941
40
0.874999999999946
40
0.874999999999946
40
0.937499999999973
40
0.937499999999973
40
1
40
1
40
1
40
1
41
1
10
44.4850208463232
20
2.1470167052031
30
0
41
1
10
44.3026686649205
20
2.25923948744944
30
0
41
1
10
44.1172312674913
20
2.36118868966662
30
0
41
1
10
43.7371233505656
20
2.54381603578827
30
0
41
1
10
43.5424396399616
20
2.62448576669448
30
0
41
1
10
43.1409461488647
20
2.76476139752182
30
0
41
1
10
42.9341315574827
20
2.82437097351883
30
0
41
1
10
42.6660921051157
20
2.88595189452607
30
0
41
1
10
42.6120072031725
20
2.8976208828723
30
0
41
1
10
42.5028157451628
20
2.91965025666895
30
0
41
1
10
42.4480114755254
20
2.92994906562913
30
0
41
1
10
42.2831213894008
20
2.95868308891804
30
0
41
1
10
42.1724778667314
20
2.97495981063941
30
0
41
1
10
41.949625849003
20
3.0018193051379
30
0
41
1
10
41.8374249767008
20
3.01242817965502
30
0
41
1
10
41.6112045449153
20
3.02748717029448
30
0
41
1
10
41.4972044131401
20
3.03200510558761
30
0
41
1
10
41.3532744160139
20
3.03295874197991
30
0
41
1
10
41.3244164239035
20
3.03291250635891
30
0
41
1
10
41.2665461374108
20
3.03231197262929
30
0
41
1
10
41.2375299749606
20
3.03172688339552
30
0
41
1
10
41.1509487407836
20
3.02912787040989
30
0
41
1
10
41.0935843504648
20
3.02637413715763
30
0
41
1
10
40.9219135332842
20
3.01686487353081
30
0
41
1
10
40.808164669812
20
3.008482947446
30
0
41
1
10
40.5822671138457
20
2.98680291185406
30
0
41
1
10
40.4701077853812
20
2.97353698087187
30
0
41
1
10
40.2475257774182
20
2.94127422030067
30
0
41
1
10
40.1371079770903
20
2.92227052472305
30
0
41
1
10
40.0004436414847
20
2.8936843333108
30
0
41
1
10
39.9731553613184
20
2.88771696746244
30
0
41
1
10
39.9189435894198
20
2.87530204680002
30
0
41
1
10
39.8381137565261
20
2.85594669408704
30
0
41
1
10
39.7588173223575
20
2.83424076661262
30
0
41
1
10
39.6546128338909
20
2.8028581405226
30
0
41
1
10
39.6032715159951
20
2.78594842631543
30
0
41
1
10
39.5275833797378
20
2.75837258815767
30
0
41
1
10
39.5025377658553
20
2.74879557878339
30
0
41
1
10
39.453121381519
20
2.72890009717261
30
0
41
1
10
39.4287735263462
20
2.71859245770887
30
0
41
1
10
39.3568785919292
20
2.68649651734586
30
0
41
1
10
39.3104758732476
20
2.66354116864801
30
0
41
1
10
39.2211724290026
20
2.61389519731657
30
0
41
1
10
39.1782717220373
20
2.58720588047731
30
0
41
1
10
39.1169964418585
20
2.54374283133458
30
0
41
1
10
39.0970787162861
20
2.52868748867672
30
0
41
1
10
39.0583744407177
20
2.49728822443478
30
0
41
1
10
39.0397227729301
20
2.4810505457215
30
0
41
1
10
39.0040227604298
20
2.44749290290207
30
0
41
1
10
38.9869574041346
20
2.43015936273642
30
0
41
1
10
38.9626204667331
20
2.40324879998957
30
0
41
1
10
38.9546983323646
20
2.39413758415037
30
0
41
1
10
38.9393755402258
20
2.37555122747725
30
0
41
1
10
38.9320917132644
20
2.36601337342034
30
0
41
1
10
38.9183176389215
20
2.34641595503419
30
0
41
1
10
38.9118593931352
20
2.33639667420627
30
0
41
1
10
38.8999204770975
20
2.31608540645385
30
0
41
1
10
38.8834241153908
20
2.28513115615104
30
0
41
1
10
38.8711645640827
20
2.25268679648897
30
0
41
1
10
38.8586717399905
20
2.20802775586907
30
0
41
1
10
38.8543590361866
20
2.18484790332624
30
0
41
1
10
38.8498068137465
20
2.13833426931672
30
0
41
1
10
38.8493814225508
20
2.11488451271785
30
0
41
1
10
38.8517320156499
20
2.06759766301991
30
0
41
1
10
38.8545268767465
20
2.04372233169101
30
0
41
1
10
38.8629628632293
20
1.9957431568445
30
0
41
1
10
38.8685445230853
20
1.97192878784844
30
0
41
1
10
38.8886703459054
20
1.90086964042976
30
0
41
1
10
38.9065486912769
20
1.85399867319862
30
0
41
1
10
38.9382861240148
20
1.78409962672484
30
0
41
1
10
38.9496930953484
20
1.76086924998759
30
0
41
1
10
38.9739500040613
20
1.71450504161598
30
0
41
1
10
38.9867267852735
20
1.69151296397604
30
0
41
1
10
39.0265958600537
20
1.62319591809046
30
0
41
1
10
39.0552630249649
20
1.57842706306917
30
0
41
1
10
39.1157518991802
20
1.4899659211155
30
0
41
1
10
39.1475862485085
20
1.44628033067909
30
0
41
1
10
39.2137531825879
20
1.35968055491574
30
0
41
1
10
39.248087930339
20
1.31676720976498
30
0
41
1
10
39.3187891662164
20
1.2314927997983
30
0
41
1
10
39.3552308597382
20
1.18905223700435
30
0
41
1
10
39.4292775510154
20
1.10515872326781
30
0
41
1
10
39.4669176963954
20
1.06365945869774
30
0
41
1
10
39.581336990809
20
0.940204640408268
30
0
41
1
10
39.6595974268596
20
0.859277314292257
30
0
41
1
10
39.8188583182026
20
0.699128860030328
30
0
41
1
10
39.8998691926567
20
0.619916602625665
30
0
41
1
10
40.0639045709478
20
0.462567988388543
30
0
41
1
10
40.1469336191394
20
0.384435472872497
30
0
41
1
10
40.3145282292073
20
0.228822197339838
30
0
41
1
10
40.3990959561794
20
0.151343241914816
30
0
41
1
10
40.5268615794118
20
0.035393464704299
30
0
41
1
10
40.5695713249811
20
-0.0031852975676259
30
0
41
1
10
40.6550088196497
20
-0.0800239557960936
30
0
41
1
10
40.6977665682116
20
-0.118312543286294
30
0
41
1
10
40.9116778679051
20
-0.309191066368697
30
0
41
1
10
41.0831406862155
20
-0.460160913875797
30
0
41
1
10
41.4260312961179
20
-0.759477439690272
30
0
41
1
10
41.597461856291
20
-0.907817042628551
30
0
41
1
10
41.7691506887516
20
-1.05449736443737
30
0
0
SPLINE
5
17E
100
AcDbEntity
8
1
62
256
6
ByLayer
370
18
48
1
60
0
100
AcDbSpline
70
4
71
3
72
29
73
25
40
0
40
0
40
0
40
0
40
0.124999999999999
40
0.124999999999999
40
0.249999999999998
40
0.249999999999998
40
0.312499999999998
40
0.312499999999998
40
0.343749999999998
40
0.343749999999998
40
0.374999999999999
40
0.374999999999999
40
0.499999999999999
40
0.499999999999999
40
0.624999999999999
40
0.624999999999999
40
0.749999999999999
40
0.749999999999999
40
0.781249999999999
40
0.781249999999999
40
0.812499999999999
40
0.874999999999999
40
0.874999999999999
40
1
40
1
40
1
40
1
41
1
10
64.6781860365139
20
-4.6712503485725
30
0
41
1
10
64.6697642329364
20
-4.63086803574646
30
0
41
1
10
64.6614007783727
20
-4.58291384926957
30
0
41
1
10
64.6446556891241
20
-4.47207796575123
30
0
41
1
10
64.6362568988872
20
-4.4091967149383
30
0
41
1
10
64.623596968479
20
-4.30350525452028
30
0
41
1
10
64.6193676323447
20
-4.26637632960265
30
0
41
1
10
64.6130041871731
20
-4.20778028215267
30
0
41
1
10
64.6108767084432
20
-4.18773453032307
30
0
41
1
10
64.6066317991671
20
-4.1468392800553
30
0
41
1
10
64.6045144157304
20
-4.12599197107403
30
0
41
1
10
64.5939481436028
20
-4.01977942108957
30
0
41
1
10
64.5855616210402
20
-3.92850129100933
30
0
41
1
10
64.568769218917
20
-3.73365280619896
30
0
41
1
10
64.5603771096377
20
-3.63008143594831
30
0
41
1
10
64.5435735928579
20
-3.41059268699601
30
0
41
1
10
64.5351625355015
20
-3.29467643882876
30
0
41
1
10
64.5245575762516
20
-3.1417988855294
30
0
41
1
10
64.5224351668056
20
-3.11087154264774
30
0
41
1
10
64.5182007455925
20
-3.04855308112173
30
0
41
1
10
64.5118563052266
20
-2.95427583489777
30
0
41
1
10
64.5055292487389
20
-2.85762638420644
30
0
41
1
10
64.4928998262764
20
-2.66121093431221
30
0
41
1
10
64.4845160153031
20
-2.52611935402686
30
0
41
1
10
64.4761360850983
20
-2.38690993477096
30
0
0
SPLINE
5
17F
100
AcDbEntity
8
1
62
256
6
ByLayer
370
18
48
1
60
0
100
AcDbSpline
70
4
71
3
72
29
73
25
40
0
40
0
40
0
40
0
40
0.125000000000001
40
0.125000000000001
40
0.250000000000002
40
0.250000000000002
40
0.312500000000002
40
0.312500000000002
40
0.343750000000002
40
0.343750000000002
40
0.375000000000002
40
0.375000000000002
40
0.500000000000002
40
0.625000000000002
40
0.625000000000002
40
0.687500000000002
40
0.687500000000002
40
0.718750000000002
40
0.718750000000002
40
0.750000000000001
40
0.750000000000001
40
0.875000000000001
40
0.875000000000001
40
1
40
1
40
1
40
1
41
1
10
64.3123191973549
20
-2.25076732640514
30
0
41
1
10
64.3207239549542
20
-2.39294794394004
30
0
41
1
10
64.3291082126647
20
-2.53077191557639
30
0
41
1
10
64.3458970854888
20
-2.79780137583745
30
0
41
1
10
64.3542899384914
20
-2.92700753452971
30
0
41
1
10
64.3669284984937
20
-3.11423047976555
30
0
41
1
10
64.3711503072858
20
-3.17553835841957
30
0
41
1
10
64.3775100239172
20
-3.26581540767111
30
0
41
1
10
64.3796331461136
20
-3.2956066149365
30
0
41
1
10
64.3838673046581
20
-3.35429221424508
30
0
41
1
10
64.3859812667648
20
-3.38322818913844
30
0
41
1
10
64.3965431015624
20
-3.52589478114038
30
0
41
1
10
64.4133792752871
20
-3.74130809838604
30
0
41
1
10
64.4301093277712
20
-3.93158574592934
30
0
41
1
10
64.4426965339205
20
-4.0647964386641
30
0
41
1
10
64.4468996331771
20
-4.10761416461381
30
0
41
1
10
64.4532323649424
20
-4.1694258481235
30
0
41
1
10
64.4553482541685
20
-4.18962705763977
30
0
41
1
10
64.4595901068643
20
-4.2292157422014
30
0
41
1
10
64.4617187148289
20
-4.2486271520342
30
0
41
1
10
64.4723529324443
20
-4.34332502161107
30
0
41
1
10
64.4807908999031
20
-4.4112380499528
30
0
41
1
10
64.4975858353194
20
-4.53189846845453
30
0
41
1
10
64.5059428377518
20
-4.58464432717611
30
0
41
1
10
64.5143299474787
20
-4.62983461477248
30
0
0
SPLINE
5
180
100
AcDbEntity
8
1
62
256
6
ByLayer
370
18
48
1
60
0
100
AcDbSpline
70
4
71
3
72
27
73
23
40
0
40
0
40
0
40
0
40
0.125
40
0.125
40
0.15625
40
0.15625
40
0.1875
40
0.1875
40
0.250000000000001
40
0.250000000000001
40
0.375000000000002
40
0.375000000000002
40
0.500000000000003
40
0.500000000000003
40
0.562500000000003
40
0.562500000000003
40
0.625000000000003
40
0.625000000000003
40
0.750000000000002
40
0.750000000000002
40
0.875000000000001
40
1
40
1
40
1
40
1
41
1
10
55.5402067501493
20
3.86318424134271
30
0
41
1
10
55.5527262898624
20
3.82350982978616
30
0
41
1
10
55.5652447031441
20
3.77755743691614
30
0
41
1
10
55.5809771483073
20
3.71212564808832
30
0
41
1
10
55.5841269166646
20
3.6986382291893
30
0
41
1
10
55.5904336921078
20
3.67085298641081
30
0
41
1
10
55.5935898425969
20
3.65655760325723
30
0
41
1
10
55.6030196073232
20
3.61268921067563
30
0
41
1
10
55.609271389471
20
3.58206061239878
30
0
41
1
10
55.627944589124
20
3.48611128960897
30
0
41
1
10
55.6402811656271
20
3.41673458423207
30
0
41
1
10
55.6649144729004
20
3.26742042747691
30
0
41
1
10
55.677228494063
20
3.18749252464772
30
0
41
1
10
55.6957194367252
20
3.0596092653096
30
0
41
1
10
55.7018860501586
20
3.01564714940565
30
0
41
1
10
55.7142355423689
20
2.92501533406019
30
0
41
1
10
55.7204331423095
20
2.87822758645584
30
0
41
1
10
55.7389013134141
20
2.73510265113791
30
0
41
1
10
55.7510827557153
20
2.63576779209637
30
0
41
1
10
55.7753886575563
20
2.42956025259434
30
0
41
1
10
55.7996135258966
20
2.21580341978861
30
0
41
1
10
55.8237435782474
20
1.98698994365526
30
0
41
1
10
55.8358512074213
20
1.86875059361447
30
0
0
SPLINE
5
181
100
AcDbEntity
8
1
62
256
6
ByLayer
370
18
48
1
60
0
100
AcDbSpline
70
4
71
3
72
29
73
25
40
0
40
0
40
0
40
0
40
0.125000000000002
40
0.125000000000002
40
0.250000000000004
40
0.250000000000004
40
0.281250000000004
40
0.281250000000004
40
0.312500000000005
40
0.375000000000004
40
0.375000000000004
40
0.500000000000004
40
0.500000000000004
40
0.625000000000004
40
0.625000000000004
40
0.687500000000004
40
0.687500000000004
40
0.718750000000004
40
0.718750000000004
40
0.750000000000004
40
0.750000000000004
40
0.875000000000002
40
0.875000000000002
40
1
40
1
40
1
40
1
41
1
10
56.4265562390209
20
1.43849292240213
30
0
41
1
10
56.4206089124095
20
1.57765304174333
30
0
41
1
10
56.4146677558766
20
1.7143349480109
30
0
41
1
10
56.4027484021038
20
1.9826962826138
30
0
41
1
10
56.3967703136542
20
2.11437626459792
30
0
41
1
10
56.3892058352179
20
2.27572351977255
30
0
41
1
10
56.3876917654882
20
2.30775743261731
30
0
41
1
10
56.3846698750645
20
2.37118075838813
30
0
41
1
10
56.3801424444998
20
2.46543232401345
30
0
41
1
10
56.3756312760848
20
2.55706179004599
30
0
41
1
10
56.3666259517913
20
2.73687344136042
30
0
41
1
10
56.3606467966225
20
2.85216000396502
30
0
41
1
10
56.3486713831794
20
3.07360542290761
30
0
41
1
10
56.3426688403683
20
3.17976196935993
30
0
41
1
10
56.3335854467129
20
3.33198925010629
30
0
41
1
10
56.3305466269151
20
3.38156268301484
30
0
41
1
10
56.3259698549423
20
3.45413236766478
30
0
41
1
10
56.324442145318
20
3.47800664592683
30
0
41
1
10
56.3213966447773
20
3.52489639299256
30
0
41
1
10
56.3198768170206
20
3.54794435476072
30
0
41
1
10
56.3122899987606
20
3.66121866531213
30
0
41
1
10
56.3062620108968
20
3.74556373581723
30
0
41
1
10
56.2941974678945
20
3.90194253001579
30
0
41
1
10
56.2881499793074
20
3.9739699880501
30
0
41
1
10
56.2820771316763
20
4.03979879928951
30
0
0
SPLINE
5
182
100
AcDbEntity
8
1
62
256
6
ByLayer
370
13
48
1
60
0
100
AcDbSpline
70
4
71
3
72
10
73
6
40
0
40
0
40
0
40
0
40
0.308706085898447
40
0.670609396563695
40
1
40
1
40
1
40
1
41
1
10
56.6772222317865
20
3.26903980683338
30
0
41
1
10
56.6956585896289
20
3.10970022968033
30
0
41
1
10
56.7357083568571
20
2.70676330106633
30
0
41
1
10
56.7954299099813
20
1.95236521191393
30
0
41
1
10
56.8367149704055
20
1.35409328727485
30
0
41
1
10
56.8563866733875
20
1.05936972411843
30
0
0
SPLINE
5
183
100
AcDbEntity
8
1
62
256
6
ByLayer
370
18
48
1
60
0
100
AcDbSpline
70
4
71
3
72
8
73
4
40
0
40
0
40
0
40
0
40
1
40
1
40
1
40
1
41
1
10
67.4627306580363
20
1.09801015270989
30
0
41
1
10
67.4589149183554
20
1.16770091490756
30
0
41
1
10
67.4550917152314
20
1.23687509022778
30
0
41
1
10
67.451258846541
20
1.30553796339296
30
0
0
SPLINE
5
184
100
AcDbEntity
8
1
62
256
6
ByLayer
370
13
48
1
60
0
100
AcDbSpline
70
4
71
3
72
10
73
6
40
0
40
0
40
0
40
0
40
0.356790844271673
40
0.717812770124819
40
1
40
1
40
1
40
1
41
1
10
60.4364223473895
20
0.950386863556531
30
0
41
1
10
60.4577824518066
20
0.627903458070762
30
0
41
1
10
60.5007559679976
20
-0.0415282482420025
30
0
41
1
10
60.5606232694171
20
-0.971771577058007
30
0
41
1
10
60.5991304596018
20
-1.533942758835
30
0
41
1
10
60.6160242461957
20
-1.76871038953024
30
0
0
SPLINE
5
185
100
AcDbEntity
8
1
62
256
6
ByLayer
370
13
48
1
60
0
100
AcDbSpline
70
4
71
3
72
11
73
7
40
0
40
0
40
0
40
0
40
0.27063933171746
40
0.631971351427762
40
0.993303371138063
40
1
40
1
40
1
40
1
41
1
10
58.7660912334474
20
2.12802080540339
30
0
41
1
10
58.7822797751903
20
1.916218825242
30
0
41
1
10
58.8200817250516
20
1.3910553746112
30
0
41
1
10
58.8794970716759
20
0.488259705355233
30
0
41
1
10
58.9231244595317
20
-0.196159895389144
30
0
41
1
10
58.9451384335217
20
-0.53550936698565
30
0
41
1
10
58.9455389985698
20
-0.541682095721001
30
0
0
SPLINE
5
186
100
AcDbEntity
8
1
62
256
6
ByLayer
370
18
48
1
60
0
100
AcDbSpline
70
4
71
3
72
30
73
26
40
0
40
0
40
0
40
0
40
0.0624999999999996
40
0.0624999999999996
40
0.0937499999999995
40
0.0937499999999995
40
0.124999999999999
40
0.124999999999999
40
0.249999999999999
40
0.249999999999999
40
0.374999999999998
40
0.374999999999998
40
0.499999999999997
40
0.499999999999997
40
0.531249999999997
40
0.531249999999997
40
0.562499999999998
40
0.624999999999998
40
0.624999999999998
40
0.749999999999999
40
0.875
40
0.875
40
0.9375
40
0.9375
40
1
40
1
40
1
40
1
41
1
10
63.0076865198979
20
-4.03062779772682
30
0
41
1
10
63.0034777978773
20
-3.98647578960487
30
0
41
1
10
62.9992606168655
20
-3.94054618091357
30
0
41
1
10
62.9929167223041
20
-3.86893676519492
30
0
41
1
10
62.9907979766629
20
-3.84460201875464
30
0
41
1
10
62.986557231692
20
-3.79506765107854
30
0
41
1
10
62.9844421174415
20
-3.76994891120845
30
0
41
1
10
62.9738880585256
20
-3.64261807805991
30
0
41
1
10
62.9655149665523
20
-3.5352078873062
30
0
41
1
10
62.9487494593046
20
-3.30960470055629
30
0
41
1
10
62.9403691482642
20
-3.19141065027273
30
0
41
1
10
62.9235937596353
20
-2.94421466298954
30
0
41
1
10
62.9151990074123
20
-2.81521358968237
30
0
41
1
10
62.9046224203999
20
-2.6469905039707
30
0
41
1
10
62.9025007072767
20
-2.61296384698213
30
0
41
1
10
62.8982687532537
20
-2.54458065594884
30
0
41
1
10
62.8919296684164
20
-2.44139227004169
30
0
41
1
10
62.8856090880695
20
-2.3363846258803
30
0
41
1
10
62.8729939678525
20
-2.12398183570838
30
0
41
1
10
62.8562485818151
20
-1.83442261762073
30
0
41
1
10
62.8395304334099
20
-1.53227466103078
30
0
41
1
10
62.8268875624572
20
-1.30085064313687
30
0
41
1
10
62.8226546017365
20
-1.2229057244154
30
0
41
1
10
62.8141523154417
20
-1.06537332728837
30
0
41
1
10
62.8099191684243
20
-0.98645571080462
30
0
41
1
10
62.8057019139494
20
-0.907397188710689
30
0
0
SPLINE
5
187
100
AcDbEntity
8
1
62
256
6
ByLayer
370
18
48
1
60
0
100
AcDbSpline
70
4
71
3
72
29
73
25
40
0
40
0
40
0
40
0
40
0.125
40
0.125
40
0.15625
40
0.15625
40
0.1875
40
0.25
40
0.25
40
0.375
40
0.375
40
0.5
40
0.5
40
0.5625
40
0.5625
40
0.625
40
0.625
40
0.75
40
0.875
40
0.875
40
0.9375
40
0.96875
40
0.96875
40
1
40
1
40
1
40
1
41
1
10
62.6418794336996
20
-0.75448989203511
30
0
41
1
10
62.6502726463001
20
-0.912681556785657
30
0
41
1
10
62.6587008492766
20
-1.07008245503937
30
0
41
1
10
62.6692990270875
20
-1.26581163300798
30
0
41
1
10
62.6714237038601
20
-1.30493607847933
30
0
41
1
10
62.6756577439659
20
-1.38264885061699
30
0
41
1
10
62.6819940700427
20
-1.49856484202934
30
0
41
1
10
62.6882940997444
20
-1.61254336344271
30
0
41
1
10
62.7008739348088
20
-1.83795617737991
30
0
41
1
10
62.7092481336584
20
-1.98484455150719
30
0
41
1
10
62.7260205099974
20
-2.27190577422075
30
0
41
1
10
62.7344082854185
20
-2.41207930504538
30
0
41
1
10
62.7470439408971
20
-2.61719567582384
30
0
41
1
10
62.751266578102
20
-2.68472473944061
30
0
41
1
10
62.7597453815659
20
-2.81796201523701
30
0
41
1
10
62.7639675426952
20
-2.88313199890663
30
0
41
1
10
62.7766158198892
20
-3.07438774037797
30
0
41
1
10
62.7934142537122
20
-3.31807288502591
30
0
41
1
10
62.8101188914006
20
-3.53956642577421
30
0
41
1
10
62.8226961306314
20
-3.69728305846601
30
0
41
1
10
62.8289980328908
20
-3.77403662892783
30
0
41
1
10
62.8353460680159
20
-3.84758134912761
30
0
41
1
10
62.8395884434032
20
-3.8958897614919
30
0
41
1
10
62.8417170087248
20
-3.91970776202348
30
0
41
1
10
62.8438392876554
20
-3.94303717913653
30
0
0
SPLINE
5
188
100
AcDbEntity
8
1
62
256
6
ByLayer
370
13
48
1
60
0
100
AcDbSpline
70
4
71
3
72
11
73
7
40
0
40
0
40
0
40
0
40
0.184359998753689
40
0.54601045833971
40
0.907660917925731
40
1
40
1
40
1
40
1
41
1
10
57.0957571863813
20
3.07901977670016
30
0
41
1
10
57.1067751386049
20
2.97243676422599
30
0
41
1
10
57.1394064970664
20
2.63083229609165
30
0
41
1
10
57.193651273509
20
1.94860137318059
30
0
41
1
10
57.2423965725333
20
1.23965317214626
30
0
41
1
10
57.2695284621788
20
0.827722129164954
30
0
41
1
10
57.2750469456492
20
0.743404546242942
30
0
0
SPLINE
5
189
100
AcDbEntity
8
1
62
256
6
ByLayer
370
18
48
1
60
0
100
AcDbSpline
70
4
71
3
72
30
73
26
40
0
40
0
40
0
40
0
40
0.0312500000000001
40
0.0312500000000001
40
0.0625000000000002
40
0.125
40
0.125
40
0.250000000000001
40
0.375000000000001
40
0.375000000000001
40
0.437500000000001
40
0.437500000000001
40
0.500000000000001
40
0.500000000000001
40
0.625000000000001
40
0.625000000000001
40
0.750000000000001
40
0.750000000000001
40
0.812500000000001
40
0.812500000000001
40
0.843750000000001
40
0.843750000000001
40
0.875000000000001
40
0.875000000000001
40
1
40
1
40
1
40
1
41
1
10
57.63058991177
20
3.5536836439789
30
0
41
1
10
57.6327025539684
20
3.52634207474534
30
0
41
1
10
57.6348218425999
20
3.49853931782891
30
0
41
1
10
57.6390493393471
20
3.44236548085774
30
0
41
1
10
57.6453796429941
20
3.35717603653339
30
0
41
1
10
57.6516935302657
20
3.26923346805197
30
0
41
1
10
57.6642975372383
20
3.08973606012569
30
0
41
1
10
57.6810334726828
20
2.8407905085071
30
0
41
1
10
57.6977340244758
20
2.57280232742232
30
0
41
1
10
57.7103541614231
20
2.36453037549845
30
0
41
1
10
57.7145794049815
20
2.29389082902887
30
0
41
1
10
57.7230689432062
20
2.15012796990467
30
0
41
1
10
57.7273013746421
20
2.0775328966933
30
0
41
1
10
57.7399449573989
20
1.85803109323615
30
0
41
1
10
57.748309579446
20
1.70924504390084
30
0
41
1
10
57.765007872653
20
1.40687701400384
30
0
41
1
10
57.7733495099397
20
1.25329527173631
30
0
41
1
10
57.7859480317744
20
1.01930023407729
30
0
41
1
10
57.790158138203
20
0.940696863721342
30
0
41
1
10
57.7964906177182
20
0.821870165902794
30
0
41
1
10
57.7986043783216
20
0.782107587752506
30
0
41
1
10
57.8028385955384
20
0.702271826711382
30
0
41
1
10
57.8049620147451
20
0.662142427690469
30
0
41
1
10
57.8155494879275
20
0.461647094540268
30
0
41
1
10
57.8239346306739
20
0.301493208858148
30
0
41
1
10
57.8323020512869
20
0.141577268360123
30
0
0
SPLINE
5
18A
100
AcDbEntity
8
1
62
256
6
ByLayer
370
13
48
1
60
0
100
AcDbSpline
70
4
71
3
72
11
73
7
40
0
40
0
40
0
40
0
40
0.119738616113491
40
0.481041732426228
40
0.842344848738964
40
1
40
1
40
1
40
1
41
1
10
60.0178942633371
20
1.2599280162886
30
0
41
1
10
60.0250571153479
20
1.15437054594676
30
0
41
1
10
60.0538334016827
20
0.724213102129937
30
0
41
1
10
60.1042232118851
20
-0.0612375690736826
30
0
41
1
10
60.1568808542658
20
-0.878801495476637
30
0
41
1
10
60.1879253448419
20
-1.33672472770232
30
0
41
1
10
60.197356403226
20
-1.47276873922948
30
0
0
SPLINE
5
18B
100
AcDbEntity
8
1
62
256
6
ByLayer
370
18
48
1
60
0
100
AcDbSpline
70
4
71
3
72
29
73
25
40
0
40
0
40
0
40
0
40
0.125
40
0.125
40
0.1875
40
0.1875
40
0.21875
40
0.21875
40
0.25
40
0.25
40
0.375
40
0.375
40
0.499999999999999
40
0.499999999999999
40
0.624999999999999
40
0.624999999999999
40
0.656249999999999
40
0.656249999999999
40
0.687499999999999
40
0.75
40
0.75
40
0.875
40
0.875
40
1
40
1
40
1
40
1
41
1
10
57.9961195230083
20
-0.0136173530945314
30
0
41
1
10
57.9877532485878
20
0.146216872604242
30
0
41
1
10
57.9794042754345
20
0.30606160448221
30
0
41
1
10
57.9668006297344
20
0.54583908474001
30
0
41
1
10
57.96258321016
20
0.625766496871222
30
0
41
1
10
57.9562303791354
20
0.745659935361203
30
0
41
1
10
57.9541061851035
20
0.785667709380391
30
0
41
1
10
57.9498595511046
20
0.865483655337982
30
0
41
1
10
57.9477408815366
20
0.90522114760509
30
0
41
1
10
57.93716906846
20
1.1030658973564
30
0
41
1
10
57.9287838139852
20
1.25865167556552
30
0
41
1
10
57.9120608461819
20
1.56458094893182
30
0
41
1
10
57.9037159517441
20
1.7149237591168
30
0
41
1
10
57.8869280852875
20
2.01034381220254
30
0
41
1
10
57.8785029775384
20
2.15542242638011
30
0
41
1
10
57.8679080461574
20
2.33337003725643
30
0
41
1
10
57.8657850317928
20
2.3687981817277
30
0
41
1
10
57.8615546538574
20
2.43891165297788
30
0
41
1
10
57.8552234843813
20
2.54311929037218
30
0
41
1
10
57.8489270054978
20
2.64447145062252
30
0
41
1
10
57.8363506095773
20
2.84342572909876
30
0
41
1
10
57.8279743087646
20
2.97107037202258
30
0
41
1
10
57.8112089605203
20
3.2164592420655
30
0
41
1
10
57.8028264711986
20
3.33420402548649
30
0
41
1
10
57.7944050806803
20
3.44689092174215
30
0
0
SPLINE
5
18C
100
AcDbEntity
8
1
62
256
6
ByLayer
370
13
48
1
60
0
100
AcDbSpline
70
4
71
3
72
11
73
7
40
0
40
0
40
0
40
0
40
0.0333488675639534
40
0.394888782251369
40
0.756428696938785
40
1
40
1
40
1
40
1
41
1
10
58.347556056675
20
2.39191095189059
30
0
41
1
10
58.3495497049112
20
2.36729778065345
30
0
41
1
10
58.3731567805216
20
2.07319778391627
30
0
41
1
10
58.4183772102402
20
1.45138271630603
30
0
41
1
10
58.4761653787501
20
0.572117944904591
30
0
41
1
10
58.5123397382645
20
0.0073975269884556
30
0
41
1
10
58.5269007553639
20
-0.218819032509884
30
0
0
SPLINE
5
18D
100
AcDbEntity
8
1
62
256
6
ByLayer
370
18
48
1
60
0
100
AcDbSpline
70
4
71
3
72
27
73
23
40
0
40
0
40
0
40
0
40
0.124999999999998
40
0.249999999999996
40
0.249999999999996
40
0.281249999999996
40
0.281249999999996
40
0.312499999999996
40
0.312499999999996
40
0.374999999999996
40
0.374999999999996
40
0.499999999999997
40
0.499999999999997
40
0.624999999999998
40
0.624999999999998
40
0.749999999999998
40
0.749999999999998
40
0.812499999999999
40
0.812499999999999
40
0.874999999999999
40
0.874999999999999
40
1
40
1
40
1
40
1
41
1
10
67.4512588465408
20
1.30553796339311
30
0
41
1
10
67.4433181533975
20
1.45148682318242
30
0
41
1
10
67.4274716720727
20
1.7386752831209
30
0
41
1
10
67.4116096150869
20
2.01648177156972
30
0
41
1
10
67.4016201356864
20
2.18710914212625
30
0
41
1
10
67.399618255888
20
2.22108420286634
30
0
41
1
10
67.3956065621588
20
2.28873051714876
30
0
41
1
10
67.3935944002229
20
2.32244078299604
30
0
41
1
10
67.3875629168784
20
2.42282251260013
30
0
41
1
10
67.3835582741592
20
2.48858909330355
30
0
41
1
10
67.3715846339882
20
2.68249350879353
30
0
41
1
10
67.3636580636941
20
2.80724357034995
30
0
41
1
10
67.3478173738819
20
3.04787561580824
30
0
41
1
10
67.339891400299
20
3.16375688978871
30
0
41
1
10
67.3239954049366
20
3.38658603090198
30
0
41
1
10
67.3160302111208
20
3.49353489147671
30
0
41
1
10
67.303994014412
20
3.64702518113325
30
0
41
1
10
67.299993484266
20
3.69668481927155
30
0
41
1
10
67.2920138926876
20
3.79285182237211
30
0
41
1
10
67.2880314607153
20
3.83939328139351
30
0
41
1
10
67.2761047423675
20
3.97445661784741
30
0
41
1
10
67.268183428676
20
4.05842745141837
30
0
41
1
10
67.2602635307458
20
4.13637566276401
30
0
0
SPLINE
5
18E
100
AcDbEntity
8
1
62
256
6
ByLayer
370
18
48
1
60
0
100
AcDbSpline
70
4
71
3
72
28
73
24
40
0
40
0
40
0
40
0
40
0.125
40
0.125
40
0.250000000000001
40
0.250000000000001
40
0.281250000000001
40
0.281250000000001
40
0.3125
40
0.375
40
0.375
40
0.5
40
0.624999999999999
40
0.624999999999999
40
0.687499999999999
40
0.687499999999999
40
0.718749999999999
40
0.718749999999999
40
0.749999999999999
40
0.749999999999999
40
0.874999999999999
40
0.874999999999999
40
1
40
1
40
1
40
1
41
1
10
61.3372076202169
20
-2.9588393526474
30
0
41
1
10
61.3288156581935
20
-2.83227295728557
30
0
41
1
10
61.3204258081893
20
-2.70113897564423
30
0
41
1
10
61.3036347593744
20
-2.42973626109048
30
0
41
1
10
61.2952338592376
20
-2.28946815764076
30
0
41
1
10
61.2846564931585
20
-2.10825377914006
30
0
41
1
10
61.282534140156
20
-2.07166726326219
30
0
41
1
10
61.2782930792301
20
-1.99815005859762
30
0
41
1
10
61.2719421714132
20
-1.88745564535208
30
0
41
1
10
61.2656117214372
20
-1.77552113139444
30
0
41
1
10
61.252979621121
20
-1.55002641053721
30
0
41
1
10
61.236219118726
20
-1.24503916993126
30
0
41
1
10
61.219500502528
20
-0.931499805557024
30
0
41
1
10
61.2068610144922
20
-0.693084382681718
30
0
41
1
10
61.2026289332539
20
-0.613068209633781
30
0
41
1
10
61.1962530454979
20
-0.49221027910005
30
0
41
1
10
61.194124261182
20
-0.451806738699105
30
0
41
1
10
61.1898812564361
20
-0.371178212741768
30
0
41
1
10
61.1877640834948
20
-0.330897300496133
30
0
41
1
10
61.1771981238612
20
-0.12965784174034
30
0
41
1
10
61.1688124882193
20
0.030806842518416
30
0
41
1
10
61.1520753089254
20
0.350700901689919
30
0
41
1
10
61.1437136562172
20
0.510129703917954
30
0
41
1
10
61.1353013809233
20
0.669033547507382
30
0
0
SPLINE
5
18F
100
AcDbEntity
8
1
62
256
6
ByLayer
370
18
48
1
60
0
100
AcDbSpline
70
4
71
3
72
29
73
25
40
0
40
0
40
0
40
0
40
0.125
40
0.125
40
0.249999999999999
40
0.249999999999999
40
0.374999999999999
40
0.374999999999999
40
0.406249999999999
40
0.406249999999999
40
0.437499999999999
40
0.499999999999999
40
0.499999999999999
40
0.624999999999998
40
0.624999999999998
40
0.749999999999998
40
0.749999999999998
40
0.781249999999998
40
0.781249999999998
40
0.812499999999999
40
0.812499999999999
40
0.874999999999999
40
0.874999999999999
40
1
40
1
40
1
40
1
41
1
10
60.9714654047308
20
0.822379064337525
30
0
41
1
10
60.9799299413991
20
0.663329816549151
30
0
41
1
10
60.9883259747193
20
0.503979890908084
30
0
41
1
10
61.0050670211011
20
0.184698100941716
30
0
41
1
10
61.0134167298897
20
0.024766451011601
30
0
41
1
10
61.0302162700015
20
-0.29567344760261
30
0
41
1
10
61.0386501960055
20
-0.456182474200006
30
0
41
1
10
61.0492602739615
20
-0.657191555880217
30
0
41
1
10
61.0513821867225
20
-0.697341166256223
30
0
41
1
10
61.055612110365
20
-0.777248922296849
30
0
41
1
10
61.0619431093701
20
-0.896653798519367
30
0
41
1
10
61.0682407223242
20
-1.01470293708897
30
0
41
1
10
61.0808202721715
20
-1.24901855719972
30
0
41
1
10
61.089200714597
20
-1.40285567035485
30
0
41
1
10
61.1059857246248
20
-1.70581428988385
30
0
41
1
10
61.1143811709163
20
-1.85493642977022
30
0
41
1
10
61.1249235855292
20
-2.03832220511112
30
0
41
1
10
61.1270347230977
20
-2.07484814367737
30
0
41
1
10
61.1312644458161
20
-2.14759429518387
30
0
41
1
10
61.1333860412934
20
-2.18386545445372
30
0
41
1
10
61.1397401680242
20
-2.29177905825071
30
0
41
1
10
61.1439602794132
20
-2.36248973960707
30
0
41
1
10
61.1566044668997
20
-2.57100047734409
30
0
41
1
10
61.1650018870087
20
-2.70518860303173
30
0
41
1
10
61.1733790651969
20
-2.8346445199922
30
0
0
SPLINE
5
190
100
AcDbEntity
8
1
62
256
6
ByLayer
370
18
48
1
60
0
100
AcDbSpline
70
4
71
3
72
30
73
26
40
0
40
0
40
0
40
0
40
0.0624999999999992
40
0.0624999999999992
40
0.124999999999998
40
0.124999999999998
40
0.249999999999997
40
0.374999999999996
40
0.374999999999996
40
0.437499999999995
40
0.437499999999995
40
0.468749999999995
40
0.468749999999995
40
0.499999999999995
40
0.499999999999995
40
0.624999999999996
40
0.624999999999996
40
0.749999999999997
40
0.749999999999997
40
0.874999999999998
40
0.874999999999998
40
0.906249999999999
40
0.906249999999999
40
0.937499999999999
40
1
40
1
40
1
40
1
41
1
10
59.6666628267782
20
-1.5700689969386
30
0
41
1
10
59.6624439557698
20
-1.49376214668524
30
0
41
1
10
59.6582003718004
20
-1.41634655160934
30
0
41
1
10
59.6497494985418
20
-1.26126715541645
30
0
41
1
10
59.6455329387736
20
-1.18344803104446
30
0
41
1
10
59.6329124106284
20
-0.94916713284033
30
0
41
1
10
59.6161686183764
20
-0.634600216913611
30
0
41
1
10
59.5994814457712
20
-0.315711857257128
30
0
41
1
10
59.5868745768066
20
-0.0749042058921816
30
0
41
1
10
59.5826543361711
20
0.0056389307882228
30
0
41
1
10
59.5762963107797
20
0.126872610129482
30
0
41
1
10
59.5741696989267
20
0.167405724103872
30
0
41
1
10
59.5699285127482
20
0.24820543387213
30
0
41
1
10
59.5678123263459
20
0.28850280781009
30
0
41
1
10
59.5572517940899
20
0.489482796792771
30
0
41
1
10
59.5488719204976
20
0.648648817387453
30
0
41
1
10
59.5321544557947
20
0.963819378935938
30
0
41
1
10
59.5238086452958
20
1.11982333184864
30
0
41
1
10
59.5070221108939
20
1.42864679729283
30
0
41
1
10
59.4985987102777
20
1.58146752421592
30
0
41
1
10
59.4880024098685
20
1.77043243277265
30
0
41
1
10
59.4858851157862
20
1.80802240705947
30
0
41
1
10
59.48166290081
20
1.88262028440437
30
0
41
1
10
59.4753432507588
20
1.99372957537702
30
0
41
1
10
59.4690557283466
20
2.10250132564715
30
0
41
1
10
59.4648681244333
20
2.17399139233433
30
0
0
SPLINE
5
191
100
AcDbEntity
8
1
62
256
6
ByLayer
370
18
48
1
60
0
100
AcDbSpline
70
4
71
3
72
30
73
26
40
0
40
0
40
0
40
0
40
0.125
40
0.125
40
0.1875
40
0.1875
40
0.21875
40
0.21875
40
0.250000000000001
40
0.250000000000001
40
0.375
40
0.375
40
0.5
40
0.5
40
0.5625
40
0.5625
40
0.59375
40
0.59375
40
0.624999999999999
40
0.624999999999999
40
0.749999999999999
40
0.749999999999999
40
0.875
40
0.875
40
1
40
1
40
1
40
1
41
1
10
59.3010370654206
20
2.3114025776552
30
0
41
1
10
59.3094012481491
20
2.17105693445842
30
0
41
1
10
59.3177537208296
20
2.02684194808444
30
0
41
1
10
59.3303733265557
20
1.80461520628458
30
0
41
1
10
59.3345980034885
20
1.72955392980708
30
0
41
1
10
59.3409649271052
20
1.61545312092161
30
0
41
1
10
59.3430922289622
20
1.5771634549863
30
0
41
1
10
59.3473322859783
20
1.50051597521659
30
0
41
1
10
59.3494480744283
20
1.46210397726904
30
0
41
1
10
59.3600071772493
20
1.26960739344082
30
0
41
1
10
59.3683874260878
20
1.1142161572358
30
0
41
1
10
59.3851061159986
20
0.80071413286862
30
0
41
1
10
59.3934509836194
20
0.642603556719166
30
0
41
1
10
59.4060510571108
20
0.403390363663021
30
0
41
1
10
59.4102613481618
20
0.323310605774537
30
0
41
1
10
59.4165937928466
20
0.202670505259448
30
0
41
1
10
59.4187074875708
20
0.162370355065718
30
0
41
1
10
59.4229414667873
20
0.0815947601591063
30
0
41
1
10
59.4250635687722
20
0.0410845948343024
30
0
41
1
10
59.435673391955
20
-0.161523416203892
30
0
41
1
10
59.4440752859674
20
-0.322252200731924
30
0
41
1
10
59.4608386567231
20
-0.641080881169614
30
0
41
1
10
59.4692161983351
20
-0.799179685708395
30
0
41
1
10
59.4859927847563
20
-1.11275724817926
30
0
41
1
10
59.4943847681055
20
-1.26823649586163
30
0
41
1
10
59.5028206730127
20
-1.42237093513657
30
0
0
SPLINE
5
192
100
AcDbEntity
8
1
62
256
6
ByLayer
370
18
48
1
60
0
100
AcDbSpline
70
4
71
3
72
8
73
4
40
0
40
0
40
0
40
0
40
1
40
1
40
1
40
1
41
1
10
62.8438392876554
20
-3.94303717913653
30
0
41
1
10
62.8984429694296
20
-3.97289868235274
30
0
41
1
10
62.9530433584076
20
-4.00210563432915
30
0
41
1
10
63.0076865198979
20
-4.03062779772682
30
0
0
SPLINE
5
193
100
AcDbEntity
8
1
62
256
6
ByLayer
370
18
48
1
60
0
100
AcDbSpline
70
4
71
3
72
8
73
4
40
0
40
0
40
0
40
0
40
1
40
1
40
1
40
1
41
1
10
61.1733790651883
20
-2.83464451999356
30
0
41
1
10
61.2279924436899
20
-2.87652632930704
30
0
41
1
10
61.2826007577245
20
-2.91792599835628
30
0
41
1
10
61.3372076202169
20
-2.9588393526474
30
0
0
SPLINE
5
194
100
AcDbEntity
8
1
62
256
6
ByLayer
370
18
48
1
60
0
100
AcDbSpline
70
4
71
3
72
12
73
8
40
0
40
0
40
0
40
0
40
0.500000000000001
40
0.500000000000001
40
0.75
40
0.75
40
1
40
1
40
1
40
1
41
1
10
61.1733790651897
20
-2.83464451998512
30
0
41
1
10
61.0818123408277
20
-2.65065172962994
30
0
41
1
10
60.9895270953218
20
-2.46929449114046
30
0
41
1
10
60.8501600601544
20
-2.20244406190489
30
0
41
1
10
60.8035353958948
20
-2.11433280902236
30
0
41
1
10
60.7099957083797
20
-1.94003332825054
30
0
41
1
10
60.6630935593776
20
-1.85386897328107
30
0
41
1
10
60.6160242461963
20
-1.76871038953828
30
0
0
SPLINE
5
195
100
AcDbEntity
8
1
62
256
6
ByLayer
370
18
48
1
60
0
100
AcDbSpline
70
4
71
3
72
34
73
30
40
0
40
0
40
0
40
0
40
0.125000000000007
40
0.125000000000007
40
0.187500000000031
40
0.187500000000031
40
0.250000000000055
40
0.250000000000055
40
0.375000000000054
40
0.375000000000054
40
0.437500000000053
40
0.437500000000053
40
0.500000000000053
40
0.500000000000053
40
0.625000000000051
40
0.625000000000051
40
0.68750000000005
40
0.68750000000005
40
0.750000000000049
40
0.750000000000049
40
0.812500000000048
40
0.812500000000048
40
0.875000000000047
40
0.875000000000047
40
0.906250000000046
40
0.906250000000046
40
0.937500000000046
40
0.937500000000046
40
1
40
1
40
1
40
1
41
1
10
60.6160242461962
20
-1.76871038953826
30
0
41
1
10
60.6048402777989
20
-1.74847616802603
30
0
41
1
10
60.5918465794295
20
-1.72873277199667
30
0
41
1
10
60.5702046339399
20
-1.69971714006681
30
0
41
1
10
60.5626248789588
20
-1.690146793341
30
0
41
1
10
60.5467633256381
20
-1.6712006695443
30
0
41
1
10
60.5385371229145
20
-1.66189426325727
30
0
41
1
10
60.5132494062603
20
-1.63468678403785
30
0
41
1
10
60.4954960761144
20
-1.61738122893271
30
0
41
1
10
60.4675786642642
20
-1.59261746708435
30
0
41
1
10
60.4580391482123
20
-1.58455390055278
30
0
41
1
10
60.4388676614429
20
-1.56911587837197
30
0
41
1
10
60.4291953927878
20
-1.56170397542948
30
0
41
1
10
60.399927827139
20
-1.54039123558829
30
0
41
1
10
60.3800857001203
20
-1.52739609430228
30
0
41
1
10
60.349799890085
20
-1.50998936751165
30
0
41
1
10
60.3396183270648
20
-1.50454675171898
30
0
41
1
10
60.3195759900237
20
-1.4947023473656
30
0
41
1
10
60.3096549375746
20
-1.49026381007897
30
0
41
1
10
60.2900458445183
20
-1.48245384864853
30
0
41
1
10
60.2803155767753
20
-1.47906902512145
30
0
41
1
10
60.2613249188139
20
-1.47360802406504
30
0
41
1
10
60.2521916193512
20
-1.47156389368612
30
0
41
1
10
60.2390993412795
20
-1.469637858721
30
0
41
1
10
60.2348369383235
20
-1.46918672054187
30
0
41
1
10
60.2265328733343
20
-1.46869806463385
30
0
41
1
10
60.2224751081627
20
-1.46866157068655
30
0
41
1
10
60.2107945812207
20
-1.46923132432988
30
0
41
1
10
60.2036935236971
20
-1.47050095705987
30
0
41
1
10
60.197356403226
20
-1.47276873922948
30
0
0
SPLINE
5
196
100
AcDbEntity
8
1
62
256
6
ByLayer
370
18
48
1
60
0
100
AcDbSpline
70
4
71
3
72
10
73
6
40
0
40
0
40
0
40
0
40
0.5
40
0.5
40
1
40
1
40
1
40
1
41
1
10
60.197356403226
20
-1.47276873922948
30
0
41
1
10
60.1079617010773
20
-1.50475924856522
30
0
41
1
10
60.019060280018
20
-1.5287175174939
30
0
41
1
10
59.8419386886383
20
-1.56108129052643
30
0
41
1
10
59.7540384894065
20
-1.56937847923814
30
0
41
1
10
59.6666628267783
20
-1.5700689969386
30
0
0
SPLINE
5
197
100
AcDbEntity
8
1
62
256
6
ByLayer
370
18
48
1
60
0
100
AcDbSpline
70
4
71
3
72
8
73
4
40
0
40
0
40
0
40
0
40
1
40
1
40
1
40
1
41
1
10
59.5028206730036
20
-1.42237093514089
30
0
41
1
10
59.5574675572312
20
-1.47187335952296
30
0
41
1
10
59.6120768755555
20
-1.52111062919729
30
0
41
1
10
59.6666628267782
20
-1.57006899693857
30
0
0
SPLINE
5
198
100
AcDbEntity
8
1
62
256
6
ByLayer
370
18
48
1
60
0
100
AcDbSpline
70
4
71
3
72
12
73
8
40
0
40
0
40
0
40
0
40
0.5
40
0.5
40
0.75
40
0.75
40
1
40
1
40
1
40
1
41
1
10
59.5028206730047
20
-1.42237093513464
30
0
41
1
10
59.4112997980645
20
-1.26411147150324
30
0
41
1
10
59.3190464716372
20
-1.11113546263701
30
0
41
1
10
59.1796873017769
20
-0.890673690909551
30
0
41
1
10
59.1330616915549
20
-0.818664769129356
30
0
41
1
10
59.0395152573647
20
-0.677779290955556
30
0
41
1
10
58.992609371149
20
-0.608924031317315
30
0
41
1
10
58.9455389985698
20
-0.541682095721029
30
0
0
SPLINE
5
199
100
AcDbEntity
8
1
62
256
6
ByLayer
370
18
48
1
60
0
100
AcDbSpline
70
4
71
3
72
32
73
28
40
0
40
0
40
0
40
0
40
0.125000000000042
40
0.125000000000042
40
0.187500000000044
40
0.187500000000044
40
0.250000000000045
40
0.250000000000045
40
0.375
40
0.375
40
0.437499999999978
40
0.437499999999978
40
0.499999999999956
40
0.499999999999956
40
0.624999999999966
40
0.624999999999966
40
0.687499999999972
40
0.687499999999972
40
0.749999999999978
40
0.749999999999978
40
0.812499999999983
40
0.812499999999983
40
0.874999999999989
40
0.874999999999989
40
0.937499999999994
40
0.937499999999994
40
1
40
1
40
1
40
1
41
1
10
58.9455389985698
20
-0.541682095721001
30
0
41
1
10
58.9343556735472
20
-0.525706262522505
30
0
41
1
10
58.9213620827356
20
-0.509439928778335
30
0
41
1
10
58.899719351869
20
-0.484725822432779
30
0
41
1
10
58.8921391730112
20
-0.476433557226699
30
0
41
1
10
58.8762763609172
20
-0.459744415671082
30
0
41
1
10
58.868048772457
20
-0.451407276582046
30
0
41
1
10
58.8427574058777
20
-0.426635702519121
30
0
41
1
10
58.8250012883212
20
-0.410343214254056
30
0
41
1
10
58.7970784462343
20
-0.386189061467263
30
0
41
1
10
58.7875368815889
20
-0.378173653908078
30
0
41
1
10
58.7683612646029
20
-0.362516465208302
30
0
41
1
10
58.7586868227146
20
-0.354838780005935
30
0
41
1
10
58.7294127860359
20
-0.332248626797252
30
0
41
1
10
58.7095663971734
20
-0.317771631509998
30
0
41
1
10
58.6792767644752
20
-0.29700557732798
30
0
41
1
10
58.6690956910157
20
-0.290249339267461
30
0
41
1
10
58.649055963804
20
-0.277413811504402
30
0
41
1
10
58.6391370186294
20
-0.271292085946101
30
0
41
1
10
58.6195339634075
20
-0.259694848360283
30
0
41
1
10
58.6098077248766
20
-0.254196175762502
30
0
41
1
10
58.5908266333339
20
-0.244051682954449
30
0
41
1
10
58.5816988083167
20
-0.239471346264992
30
0
41
1
10
58.5642542570791
20
-0.23139726152715
30
0
41
1
10
58.5558948334606
20
-0.227886692188804
30
0
41
1
10
58.5403309414382
20
-0.222231670849197
30
0
41
1
10
58.5332343437563
20
-0.220121854047847
30
0
41
1
10
58.5269007553638
20
-0.218819032509913
30
0
0
SPLINE
5
19A
100
AcDbEntity
8
1
62
256
6
ByLayer
370
18
48
1
60
0
100
AcDbSpline
70
4
71
3
72
12
73
8
40
0
40
0
40
0
40
0
40
0.500000000000011
40
0.500000000000011
40
0.750000000000005
40
0.750000000000005
40
1
40
1
40
1
40
1
41
1
10
58.5269007553638
20
-0.218819032509884
30
0
41
1
10
58.4374855576392
20
-0.200426292376164
30
0
41
1
10
58.348590881799
20
-0.173506556785327
30
0
41
1
10
58.2157386493243
20
-0.121935226412234
30
0
41
1
10
58.1715984775615
20
-0.10292470558008
30
0
41
1
10
58.0836428947667
20
-0.0611107791096401
30
0
41
1
10
58.0398172530723
20
-0.0383053659785446
30
0
41
1
10
57.9961195230083
20
-0.0136173530945598
30
0
0
SPLINE
5
19B
100
AcDbEntity
8
1
62
256
6
ByLayer
370
18
48
1
60
0
100
AcDbSpline
70
4
71
3
72
8
73
4
40
0
40
0
40
0
40
0
40
1
40
1
40
1
40
1
41
1
10
57.8323020512869
20
0.141577268360123
30
0
41
1
10
57.8869441358397
20
0.0898671262287962
30
0
41
1
10
57.9415503052484
20
0.0381171452711726
30
0
41
1
10
57.9961195230082
20
-0.0136173530945314
30
0
0
SPLINE
5
19C
100
AcDbEntity
8
1
62
256
6
ByLayer
370
18
48
1
60
0
100
AcDbSpline
70
4
71
3
72
8
73
4
40
0
40
0
40
0
40
0
40
1
40
1
40
1
40
1
41
1
10
57.8323020512868
20
0.141577268360152
30
0
41
1
10
57.6491976261577
20
0.372645766789276
30
0
41
1
10
57.4633114461058
20
0.57453289511264
30
0
41
1
10
57.2750469456492
20
0.743404546242942
30
0
0
SPLINE
5
19D
100
AcDbEntity
8
1
62
256
6
ByLayer
370
18
48
1
60
0
100
AcDbSpline
70
4
71
3
72
32
73
28
40
0
40
0
40
0
40
0
40
0.124999999999949
40
0.124999999999949
40
0.187499999999944
40
0.187499999999944
40
0.249999999999939
40
0.249999999999939
40
0.374999999999978
40
0.374999999999978
40
0.437499999999997
40
0.437499999999997
40
0.500000000000016
40
0.500000000000016
40
0.625000000000054
40
0.625000000000054
40
0.687500000000045
40
0.687500000000045
40
0.750000000000036
40
0.750000000000036
40
0.812500000000027
40
0.812500000000027
40
0.875000000000018
40
0.875000000000018
40
0.937500000000009
40
0.937500000000009
40
1
40
1
40
1
40
1
41
1
10
57.2750469456492
20
0.743404546242942
30
0
41
1
10
57.2638602916248
20
0.753438879487533
30
0
41
1
10
57.2508630588981
20
0.764517006690681
30
0
41
1
10
57.2292152883936
20
0.782332251556824
30
0
41
1
10
57.2216334922115
20
0.788475381716779
30
0
41
1
10
57.2057676829342
20
0.801155218327011
30
0
41
1
10
57.1975390188748
20
0.807647243768685
30
0
41
1
10
57.1722446107303
20
0.827383457687745
30
0
41
1
10
57.1544871190943
20
0.840955402641782
30
0
41
1
10
57.1265637574273
20
0.861972193258026
30
0
41
1
10
57.1170228405374
20
0.86910082963692
30
0
41
1
10
57.0978488984563
20
0.883341002670477
30
0
41
1
10
57.0881754150752
20
0.890483170611304
30
0
41
1
10
57.0589046912997
20
0.911995810742155
30
0
41
1
10
57.0390612395846
20
0.926449416399947
30
0
41
1
10
57.008775564911
20
0.948416853367036
30
0
41
1
10
56.9985963732964
20
0.955785064245759
30
0
41
1
10
56.9785589996787
20
0.970278560491977
30
0
41
1
10
56.9686406782712
20
0.977447481189188
30
0
41
1
10
56.9490376105884
20
0.99162559513718
30
0
41
1
10
56.9393103165678
20
0.998665611989594
30
0
41
1
10
56.9203278840463
20
1.01243291142518
30
0
41
1
10
56.9111986865942
20
1.01906892758893
30
0
41
1
10
56.8937503641092
20
1.0317976797491
30
0
41
1
10
56.8853880094441
20
1.03792229108018
30
0
41
1
10
56.8698204511176
20
1.04938442520307
30
0
41
1
10
56.8627219610601
20
1.05464322901892
30
0
41
1
10
56.8563866733875
20
1.05936972411843
30
0
0
SPLINE
5
19E
100
AcDbEntity
8
1
62
256
6
ByLayer
370
18
48
1
60
0
100
AcDbSpline
70
4
71
3
72
12
73
8
40
0
40
0
40
0
40
0
40
0.499999999999988
40
0.499999999999988
40
0.749999999999994
40
0.749999999999994
40
1
40
1
40
1
40
1
41
1
10
56.8563866733874
20
1.05936972411871
30
0
41
1
10
56.7841489359406
20
1.11326330080959
30
0
41
1
10
56.7122372535731
20
1.17198425752494
30
0
41
1
10
56.6047318718099
20
1.26692795618862
30
0
41
1
10
56.5689394993218
20
1.29973818820582
30
0
41
1
10
56.497591725215
20
1.36749394025233
30
0
41
1
10
56.4620257173059
20
1.40245317598578
30
0
41
1
10
56.4265562390285
20
1.43849292239778
30
0
0
SPLINE
5
19F
100
AcDbEntity
8
1
62
256
6
ByLayer
370
18
48
1
60
0
100
AcDbSpline
70
4
71
3
72
12
73
8
40
0
40
0
40
0
40
0
40
0.25
40
0.25
40
0.5
40
0.5
40
1
40
1
40
1
40
1
41
1
10
56.4265562390224
20
1.43849292240429
30
0
41
1
10
56.3778825065192
20
1.47832994771815
30
0
41
1
10
56.3290665758889
20
1.51723002299445
30
0
41
1
10
56.2310877063593
20
1.59310079236991
30
0
41
1
10
56.1818788416298
20
1.63009538968504
30
0
41
1
10
56.0339929078715
20
1.7378800464727
30
0
41
1
10
55.9351304545468
20
1.80545768083701
30
0
41
1
10
55.8358512074213
20
1.86875059361447
30
0
0
SPLINE
5
1A0
100
AcDbEntity
8
1
62
256
6
ByLayer
370
18
48
1
60
0
100
AcDbSpline
70
4
71
3
72
10
73
6
40
0
40
0
40
0
40
0
40
0.5
40
0.5
40
1
40
1
40
1
40
1
41
1
10
55.8358512074213
20
1.86875059361449
30
0
41
1
10
55.7975059764642
20
1.88527920641172
30
0
41
1
10
55.7590383899358
20
1.9003061157193
30
0
41
1
10
55.6819238901987
20
1.92729669659678
30
0
41
1
10
55.6432700141355
20
1.93926422651646
30
0
41
1
10
55.6044988207855
20
1.94968777325204
30
0
0
SPLINE
5
1A1
100
AcDbEntity
8
1
62
256
6
ByLayer
370
18
48
1
60
0
100
AcDbSpline
70
4
71
3
72
32
73
28
40
0
40
0
40
0
40
0
40
0.124999999999999
40
0.124999999999999
40
0.187500000000019
40
0.187500000000019
40
0.250000000000039
40
0.250000000000039
40
0.375000000000077
40
0.375000000000077
40
0.437500000000069
40
0.437500000000069
40
0.500000000000061
40
0.500000000000061
40
0.625000000000045
40
0.625000000000045
40
0.687500000000037
40
0.687500000000037
40
0.75000000000003
40
0.75000000000003
40
0.812500000000022
40
0.812500000000022
40
0.875000000000015
40
0.875000000000015
40
0.937500000000007
40
0.937500000000007
40
1
40
1
40
1
40
1
41
1
10
55.6044988207855
20
1.94968777325204
30
0
41
1
10
55.5936477651044
20
1.95260505477603
30
0
41
1
10
55.5810909673057
20
1.95710826936406
30
0
41
1
10
55.5602191197091
20
1.96570797839971
30
0
41
1
10
55.5529159036548
20
1.96888898129342
30
0
41
1
10
55.5376464744543
20
1.97585347167697
30
0
41
1
10
55.5297027583044
20
1.97962808079208
30
0
41
1
10
55.5053191719426
20
1.99163168194534
30
0
41
1
10
55.4882130126315
20
2.00058484317293
30
0
41
1
10
55.4613400448193
20
2.01544103120466
30
0
41
1
10
55.4521382117321
20
2.02065726068514
30
0
41
1
10
55.4335978681062
20
2.03143568349773
30
0
41
1
10
55.4242447652615
20
2.03700473519248
30
0
41
1
10
55.3959467759104
20
2.05427142301687
30
0
41
1
10
55.3767663658143
20
2.06651778430515
30
0
41
1
10
55.3475114806565
20
2.08623188050478
30
0
41
1
10
55.3376195804112
20
2.09307248197936
30
0
41
1
10
55.3180388708029
20
2.10701510209293
30
0
41
1
10
55.3083399779975
20
2.11412124635385
30
0
41
1
10
55.2891512270076
20
2.12864012025065
30
0
41
1
10
55.2796611175883
20
2.13605248380409
30
0
41
1
10
55.260930226235
20
2.15124153766129
30
0
41
1
10
55.2517157393587
20
2.15900244159368
30
0
41
1
10
55.2341482600498
20
2.174468597285
30
0
41
1
10
55.225726773442
20
2.18222765943653
30
0
41
1
10
55.2097220775851
20
2.19780915929508
30
0
41
1
10
55.2021488517631
20
2.20563221173936
30
0
41
1
10
55.195322770186
20
2.21321612829408
30
0
0
SPLINE
5
1A2
100
AcDbEntity
8
1
62
256
6
ByLayer
370
18
48
1
60
0
100
AcDbSpline
70
4
71
3
72
8
73
4
40
0
40
0
40
0
40
0
40
1
40
1
40
1
40
1
41
1
10
55.1953227701852
20
2.21321612829524
30
0
41
1
10
55.1369772297783
20
2.23870237423239
30
0
41
1
10
55.0783571605871
20
2.26268917004924
30
0
41
1
10
55.0194034857912
20
2.28511671043589
30
0
0
SPLINE
5
1A3
100
AcDbEntity
8
1
62
256
6
ByLayer
370
18
48
1
60
0
100
AcDbSpline
70
4
71
3
72
12
73
8
40
0
40
0
40
0
40
0
40
0.250000000000009
40
0.250000000000009
40
0.500000000000018
40
0.500000000000018
40
1
40
1
40
1
40
1
41
1
10
55.0194034857913
20
2.28511671043586
30
0
41
1
10
54.9694786673102
20
2.30410943458168
30
0
41
1
10
54.9180557726766
20
2.32419470024604
30
0
41
1
10
54.8119471909846
20
2.36604446516347
30
0
41
1
10
54.7571731991852
20
2.38772368455309
30
0
41
1
10
54.5887911076472
20
2.45691070395739
30
0
41
1
10
54.4711686596317
20
2.50851302628229
30
0
41
1
10
54.3498539884081
20
2.56930321924426
30
0
0
SPLINE
5
1A4
100
AcDbEntity
8
1
62
256
6
ByLayer
370
18
48
1
60
0
100
AcDbSpline
70
4
71
3
72
60
73
56
40
0
40
0
40
0
40
0
40
0.0801603252074198
40
0.0801603252074198
40
0.120240487811128
40
0.120240487811128
40
0.140280569112982
40
0.140280569112982
40
0.160320650414836
40
0.160320650414836
40
0.18036073171669
40
0.18036073171669
40
0.200400813018544
40
0.240480975622252
40
0.240480975622252
40
0.320641300829665
40
0.320641300829665
40
0.340681382131516
40
0.340681382131516
40
0.360721463433366
40
0.360721463433366
40
0.380761544735217
40
0.380761544735217
40
0.400801626037067
40
0.400801626037067
40
0.440881788640764
40
0.440881788640764
40
0.480961951244462
40
0.521042113848159
40
0.521042113848159
40
0.561122276451856
40
0.561122276451856
40
0.601202439055554
40
0.601202439055554
40
0.621242520357401
40
0.621242520357401
40
0.641282601659248
40
0.641282601659248
40
0.721442926866628
40
0.721442926866628
40
0.761523089470318
40
0.761523089470318
40
0.781563170772161
40
0.781563170772161
40
0.801603252074005
40
0.801603252074005
40
0.841683414677691
40
0.841683414677691
40
0.881763577281378
40
0.881763577281378
40
0.961923902488751
40
0.961923902488751
40
0.981963983790594
40
0.981963983790594
40
1
40
1
40
1
40
1
41
1
10
54.3498539884081
20
2.56930321924426
30
0
41
1
10
54.1421582879874
20
2.67337852669567
30
0
41
1
10
53.9360533761948
20
2.7708221794116
30
0
41
1
10
53.628299663745
20
2.90622334476356
30
0
41
1
10
53.5259575554558
20
2.94956924723994
30
0
41
1
10
53.3725632940777
20
3.01171927578005
30
0
41
1
10
53.3214640769136
20
3.03196747670572
30
0
41
1
10
53.2191657674969
20
3.07140781966695
30
0
41
1
10
53.1679258962753
20
3.09056976748795
30
0
41
1
10
53.0652862187872
20
3.12781836006582
30
0
41
1
10
53.013933037062
20
3.1459400595667
30
0
41
1
10
52.9113336913836
20
3.18130275804904
30
0
41
1
10
52.7575300884648
20
3.23297690941453
30
0
41
1
10
52.6039223709168
20
3.28045474122752
30
0
41
1
10
52.2967506285236
20
3.36960309843576
30
0
41
1
10
52.0920653637307
20
3.42130777489118
30
0
41
1
10
51.8354306144628
20
3.47550182027482
30
0
41
1
10
51.7840633857072
20
3.48581854131462
30
0
41
1
10
51.681221683964
20
3.505388615046
30
0
41
1
10
51.6297639296783
20
3.51464733175783
30
0
41
1
10
51.5265875876876
20
3.53204120325822
30
0
41
1
10
51.4748253325594
20
3.54016269005405
30
0
41
1
10
51.3709765497194
20
3.55527806214673
30
0
41
1
10
51.31895939425
20
3.56228051490027
30
0
41
1
10
51.163346848729
20
3.58161657558972
30
0
41
1
10
51.0599297210054
20
3.59228767703237
30
0
41
1
10
50.8537121419773
20
3.60921307638404
30
0
41
1
10
50.6480994227987
20
3.62171573550796
30
0
41
1
10
50.4433736371375
20
3.6253485190523
30
0
41
1
10
50.2389296959039
20
3.62454142904622
30
0
41
1
10
50.1368532554042
20
3.62191567248547
30
0
41
1
10
49.9326730066974
20
3.61224772211338
30
0
41
1
10
49.8305788027177
20
3.60519870669648
30
0
41
1
10
49.6768808685775
20
3.59144803792765
30
0
41
1
10
49.6255986666009
20
3.58633051061787
30
0
41
1
10
49.5230872377101
20
3.57499510911396
30
0
41
1
10
49.4718364881045
20
3.56878082554039
30
0
41
1
10
49.2155674020602
20
3.5349661126111
30
0
41
1
10
49.0105315049794
20
3.4991066102744
30
0
41
1
10
48.7015143556579
20
3.43224476051898
30
0
41
1
10
48.5983071422622
20
3.40776525790383
30
0
41
1
10
48.4430726857956
20
3.36775772913731
30
0
41
1
10
48.3912137429364
20
3.35386373697048
30
0
41
1
10
48.2876989964856
20
3.32510298218949
30
0
41
1
10
48.2360092450623
20
3.31022507838799
30
0
41
1
10
48.0810267173335
20
3.2641855296275
30
0
41
1
10
47.9777578137666
20
3.23166363048992
30
0
41
1
10
47.7716517792716
20
3.16283615152923
30
0
41
1
10
47.6688048138313
20
3.12653450011896
30
0
41
1
10
47.3610439515588
20
3.0118547199219
30
0
41
1
10
47.1568296698804
20
2.92774048852152
30
0
41
1
10
46.9017745488163
20
2.81374970677743
30
0
41
1
10
46.8507725467322
20
2.79051049763143
30
0
41
1
10
46.7537463122341
20
2.74564879503319
30
0
41
1
10
46.7077279476471
20
2.72410396990324
30
0
41
1
10
46.6616827906765
20
2.70223729564276
30
0
0
SPLINE
5
1A5
100
AcDbEntity
8
1
62
256
6
ByLayer
370
18
48
1
60
0
100
AcDbSpline
70
4
71
3
72
78
73
74
40
0
40
0
40
0
40
0
40
0.0010850585558044
40
0.0010850585558044
40
0.0183077299600116
40
0.0183077299600116
40
0.0355304013642187
40
0.0355304013642187
40
0.104421086981045
40
0.104421086981045
40
0.138866429789459
40
0.138866429789459
40
0.156089101193667
40
0.156089101193667
40
0.173311772597876
40
0.173311772597876
40
0.207757115406292
40
0.207757115406292
40
0.242202458214709
40
0.242202458214709
40
0.276647801023126
40
0.276647801023126
40
0.311093143831542
40
0.311093143831542
40
0.328315815235751
40
0.328315815235751
40
0.345538486639959
40
0.345538486639959
40
0.379983829448376
40
0.379983829448376
40
0.397206500852585
40
0.397206500852585
40
0.414429172256795
40
0.414429172256795
40
0.448874515065214
40
0.448874515065214
40
0.466097186469425
40
0.466097186469425
40
0.483319857873636
40
0.483319857873636
40
0.51776520068206
40
0.51776520068206
40
0.552210543490483
40
0.552210543490483
40
0.586655886298908
40
0.586655886298908
40
0.621101229107331
40
0.621101229107331
40
0.655546571915755
40
0.655546571915755
40
0.664157907617861
40
0.672769243319967
40
0.689991914724179
40
0.689991914724179
40
0.724437257532606
40
0.724437257532606
40
0.741659928936819
40
0.741659928936819
40
0.758882600341032
40
0.758882600341032
40
0.793327943149456
40
0.793327943149456
40
0.82777328595788
40
0.82777328595788
40
0.862218628766304
40
0.862218628766304
40
0.896663971574728
40
0.896663971574728
40
0.91388664297894
40
0.91388664297894
40
0.931109314383152
40
0.931109314383152
40
1
40
1
40
1
40
1
41
1
10
42.9350280646323
20
3.62500001163082
30
0
41
1
10
42.9391334975249
20
3.62500008890191
30
0
41
1
10
42.9432387540383
20
3.62499663397702
30
0
41
1
10
43.0125020264769
20
3.6248787350674
30
0
41
1
10
43.0776137857097
20
3.62387670826328
30
0
41
1
10
43.207770617518
20
3.62007773726742
30
0
41
1
10
43.272862812871
20
3.61728255742258
30
0
41
1
10
43.5987252236482
20
3.59887469651534
30
0
41
1
10
43.860303031213
20
3.56998312580092
30
0
41
1
10
44.2547718753127
20
3.50534987592764
30
0
41
1
10
44.3865783774329
20
3.48023527501641
30
0
41
1
10
44.5848982189531
20
3.43711709733455
30
0
41
1
10
44.6508731989235
20
3.42189065135995
30
0
41
1
10
44.782514196535
20
3.38973808236005
30
0
41
1
10
44.848135933439
20
3.3727830460243
30
0
41
1
10
45.0449078327404
20
3.31956180299599
30
0
41
1
10
45.1759229313574
20
3.28093162922252
30
0
41
1
10
45.4375708646032
20
3.19748971673192
30
0
41
1
10
45.5682222595829
20
3.1526863757091
30
0
41
1
10
45.8293425933615
20
3.0570895017988
30
0
41
1
10
45.9598171088156
20
3.00630117228761
30
0
41
1
10
46.2206789805636
20
2.89880487382786
30
0
41
1
10
46.3510286998966
20
2.84206436459567
30
0
41
1
10
46.5465695413801
20
2.75251512302515
30
0
41
1
10
46.6117798676902
20
2.72194942853815
30
0
41
1
10
46.7424120383621
20
2.65952785035171
30
0
41
1
10
46.807828636062
20
2.62766824825942
30
0
41
1
10
47.0043449627832
20
2.53010839164449
30
0
41
1
10
47.1357311244464
20
2.46244758946977
30
0
41
1
10
47.333488925168
20
2.35710020902761
30
0
41
1
10
47.3995208535501
20
2.32134089922084
30
0
41
1
10
47.5318206102048
20
2.24853177876744
30
0
41
1
10
47.5979518774859
20
2.2115561875809
30
0
41
1
10
47.7958051757364
20
2.09919972499779
30
0
41
1
10
47.9271779682383
20
2.0222670686598
30
0
41
1
10
48.1234455480006
20
1.90383375597185
30
0
41
1
10
48.1887737966333
20
1.86389530545338
30
0
41
1
10
48.3194321647029
20
1.78333924899499
30
0
41
1
10
48.384732920036
20
1.74268574178976
30
0
41
1
10
48.5805502904452
20
1.61960853434633
30
0
41
1
10
48.7110119649901
20
1.53610631099065
30
0
41
1
10
48.9719517841317
20
1.36646733245064
30
0
41
1
10
49.1024082525924
20
1.28030268129572
30
0
41
1
10
49.363407148073
20
1.10543015784231
30
0
41
1
10
49.4939666698123
20
1.01674616488529
30
0
41
1
10
49.7552060214255
20
0.83684393294169
30
0
41
1
10
49.8857820491966
20
0.745472850150065
30
0
41
1
10
50.1480797296051
20
0.561592441842947
30
0
41
1
10
50.2797200655806
20
0.46897497996838
30
0
41
1
10
50.4449254310038
20
0.352399110446584
30
0
41
1
10
50.5111149637429
20
0.305658961692785
30
0
41
1
10
50.6432652120631
20
0.212223094209151
30
0
41
1
10
50.7421316560888
20
0.142207294946417
30
0
41
1
10
50.9395518711522
20
0.0022754138610139
30
0
41
1
10
51.0707436152435
20
-0.0908873182457626
30
0
41
1
10
51.266941492172
20
-0.230388470796896
30
0
41
1
10
51.3322438843333
20
-0.276846175636194
30
0
41
1
10
51.4626708826905
20
-0.369652571957943
30
0
41
1
10
51.527803254267
20
-0.415989810984996
30
0
41
1
10
51.7232641163597
20
-0.554369126622447
30
0
41
1
10
51.8536023717477
20
-0.645857276085906
30
0
41
1
10
52.1144575035929
20
-0.827159881165926
30
0
41
1
10
52.2449788902424
20
-0.91696838040869
30
0
41
1
10
52.5062275301303
20
-1.09487420303546
30
0
41
1
10
52.6369504964347
20
-1.18297706335417
30
0
41
1
10
52.8987195396695
20
-1.35728940773686
30
0
41
1
10
53.0297226197946
20
-1.44355636937604
30
0
41
1
10
53.2266480499575
20
-1.57126715706204
30
0
41
1
10
53.2924116798959
20
-1.61348699882649
30
0
41
1
10
53.4242764503289
20
-1.69710057755052
30
0
41
1
10
53.4904125703946
20
-1.73853951928262
30
0
41
1
10
53.8209313964821
20
-1.94312578194504
30
0
41
1
10
54.0852959812828
20
-2.0988495368037
30
0
41
1
10
54.3498539884082
20
-2.24633528561145
30
0
0
SPLINE
5
1A6
100
AcDbEntity
8
1
62
256
6
ByLayer
370
18
48
1
60
0
100
AcDbSpline
70
4
71
3
72
16
73
12
40
0
40
0
40
0
40
0
40
0.25000000000001
40
0.25000000000001
40
0.500000000000019
40
0.500000000000019
40
0.750000000000029
40
0.750000000000029
40
0.875000000000014
40
0.875000000000014
40
1
40
1
40
1
40
1
41
1
10
54.3498539884081
20
-2.24633528561142
30
0
41
1
10
54.4071977034646
20
-2.27830324925918
30
0
41
1
10
54.4643288033006
20
-2.31181346337229
30
0
41
1
10
54.5778824416184
20
-2.38225350930409
30
0
41
1
10
54.6343066482085
20
-2.41917929325246
30
0
41
1
10
54.7462808541226
20
-2.4967873154427
30
0
41
1
10
54.8018245496046
20
-2.53747046102836
30
0
41
1
10
54.8844680223412
20
-2.60162424633765
30
0
41
1
10
54.9118958456815
20
-2.62352113060356
30
0
41
1
10
54.9661012563594
20
-2.66808563846169
30
0
41
1
10
54.9929243509279
20
-2.69079813571108
30
0
41
1
10
55.0194034857912
20
-2.71401627453741
30
0
0
SPLINE
5
1A7
100
AcDbEntity
8
1
62
256
6
ByLayer
370
18
48
1
60
0
100
AcDbSpline
70
4
71
3
72
10
73
6
40
0
40
0
40
0
40
0
40
0.5
40
0.5
40
1
40
1
40
1
40
1
41
1
10
55.0194034857914
20
-2.71401627453778
30
0
41
1
10
55.0957492905803
20
-2.78095983230696
30
0
41
1
10
55.1714665920478
20
-2.84803670379279
30
0
41
1
10
55.3217005571406
20
-2.98237183738198
30
0
41
1
10
55.3962351069871
20
-3.04961827357153
30
0
41
1
10
55.4702510631961
20
-3.11687775928027
30
0
0
SPLINE
5
1A8
100
AcDbEntity
8
1
62
256
6
ByLayer
370
18
48
1
60
0
100
AcDbSpline
70
4
71
3
72
8
73
4
40
0
40
0
40
0
40
0
40
1
40
1
40
1
40
1
41
1
10
55.4702510631961
20
-3.1168777592803
30
0
41
1
10
55.5012963192531
20
-3.10019409240567
30
0
41
1
10
55.5324249231548
20
-3.08257677273585
30
0
41
1
10
55.5636487851879
20
-3.06402196878634
30
0
0
SPLINE
5
1A9
100
AcDbEntity
8
1
62
256
6
ByLayer
370
18
48
1
60
0
100
AcDbSpline
70
4
71
3
72
32
73
28
40
0
40
0
40
0
40
0
40
0.124999999999951
40
0.124999999999951
40
0.187499999999928
40
0.187499999999928
40
0.249999999999904
40
0.249999999999904
40
0.374999999999855
40
0.374999999999855
40
0.437499999999831
40
0.437499999999831
40
0.499999999999807
40
0.499999999999807
40
0.624999999999813
40
0.624999999999813
40
0.687499999999845
40
0.687499999999845
40
0.749999999999876
40
0.749999999999876
40
0.812499999999907
40
0.812499999999907
40
0.874999999999938
40
0.874999999999938
40
0.937499999999969
40
0.937499999999969
40
1
40
1
40
1
40
1
41
1
10
55.5636487851879
20
-3.06402196878634
30
0
41
1
10
55.5751715248743
20
-3.05717457189422
30
0
41
1
10
55.5886101447928
20
-3.05290423804857
30
0
41
1
10
55.6109785943675
20
-3.04942099448843
30
0
41
1
10
55.6188116822404
20
-3.04875962921668
30
0
41
1
10
55.6351944480433
20
-3.04839018308297
30
0
41
1
10
55.643687950929
20
-3.04868756332073
30
0
41
1
10
55.6696611398504
20
-3.05090441574885
30
0
41
1
10
55.687764688545
20
-3.05412583203781
30
0
41
1
10
55.7160055868098
20
-3.06145925814292
30
0
41
1
10
55.7256337466722
20
-3.06433659634624
30
0
41
1
10
55.7451167587869
20
-3.07092633198772
30
0
41
1
10
55.7548970442495
20
-3.07461100300554
30
0
41
1
10
55.7843387418227
20
-3.08683767640903
30
0
41
1
10
55.8040997397729
20
-3.09653211507603
30
0
41
1
10
55.8339039311359
20
-3.11372281554676
30
0
41
1
10
55.8439219648562
20
-3.11993914838149
30
0
41
1
10
55.8636101418477
20
-3.13311931278861
30
0
41
1
10
55.8733032258096
20
-3.14009060400025
30
0
41
1
10
55.8923529362795
20
-3.15486625915287
30
0
41
1
10
55.9017098546455
20
-3.16266975574612
30
0
41
1
10
55.9200316014687
20
-3.17923587859289
30
0
41
1
10
55.9289737385038
20
-3.18799069020901
30
0
41
1
10
55.9458573847793
20
-3.20605580195362
30
0
41
1
10
55.9538668462904
20
-3.21542323724148
30
0
41
1
10
55.9688912832922
20
-3.23492821069496
30
0
41
1
10
55.9759057070111
20
-3.24508446616144
30
0
41
1
10
55.9821377401462
20
-3.25539792406917
30
0
0
SPLINE
5
1AA
100
AcDbEntity
8
1
62
256
6
ByLayer
370
18
48
1
60
0
100
AcDbSpline
70
4
71
3
72
12
73
8
40
0
40
0
40
0
40
0
40
0.500000000000001
40
0.500000000000001
40
0.75
40
0.75
40
1
40
1
40
1
40
1
41
1
10
55.9821377401495
20
-3.2553979240713
30
0
41
1
10
56.0541338890689
20
-3.37454511654266
30
0
41
1
10
56.1256691677864
20
-3.4953010652014
30
0
41
1
10
56.2324470995083
20
-3.67872881596782
30
0
41
1
10
56.2679699162265
20
-3.7402863073309
30
0
41
1
10
56.3387412401172
20
-3.86392832705494
30
0
41
1
10
56.3739975231802
20
-3.92602444329836
30
0
41
1
10
56.409141447623
20
-3.98838224935355
30
0
0
SPLINE
5
1AB
100
AcDbEntity
8
1
62
256
6
ByLayer
370
18
48
1
60
0
100
AcDbSpline
70
4
71
3
72
8
73
4
40
0
40
0
40
0
40
0
40
1
40
1
40
1
40
1
41
1
10
56.409141447623
20
-3.98838224935355
30
0
41
1
10
56.5026301566505
20
-4.07620841291762
30
0
41
1
10
56.59563087103
20
-4.16358481962681
30
0
41
1
10
56.6884193786074
20
-4.25029805344116
30
0
0
SPLINE
5
1AC
100
AcDbEntity
8
1
62
256
6
ByLayer
370
18
48
1
60
0
100
AcDbSpline
70
4
71
3
72
12
73
8
40
0
40
0
40
0
40
0
40
0.250000000000001
40
0.250000000000001
40
0.500000000000001
40
0.500000000000001
40
1
40
1
40
1
40
1
41
1
10
56.6884193786074
20
-4.25029805344116
30
0
41
1
10
56.7331047567229
20
-4.21109183150878
30
0
41
1
10
56.7779601427215
20
-4.17006795724757
30
0
41
1
10
56.8680810444529
20
-4.08439636554647
30
0
41
1
10
56.9133632276697
20
-4.03973026858148
30
0
41
1
10
57.0498358262828
20
-3.90037002112518
30
0
41
1
10
57.1414418366779
20
-3.80054113312909
30
0
41
1
10
57.2339796872014
20
-3.69378233483329
30
0
0
SPLINE
5
1AD
100
AcDbEntity
8
1
62
256
6
ByLayer
370
18
48
1
60
0
100
AcDbSpline
70
4
71
3
72
8
73
4
40
0
40
0
40
0
40
0
40
1
40
1
40
1
40
1
41
1
10
58.35134144398
20
-4.76240581676305
30
0
41
1
10
58.29665207034
20
-4.75401260414645
30
0
41
1
10
58.2420278967039
20
-4.7447942894965
30
0
41
1
10
58.1874822939444
20
-4.73474825795856
30
0
0
SPLINE
5
1AE
100
AcDbEntity
8
1
62
256
6
ByLayer
370
18
48
1
60
0
100
AcDbSpline
70
4
71
3
72
8
73
4
40
0
40
0
40
0
40
0
40
1
40
1
40
1
40
1
41
1
10
55.5143038958443
20
-4.10804721803402
30
0
41
1
10
55.3512907536332
20
-4.00993581533922
30
0
41
1
10
55.1866530012809
20
-3.90174578483868
30
0
41
1
10
55.0194034857912
20
-3.78351596630569
30
0
0
SPLINE
5
1AF
100
AcDbEntity
8
1
62
256
6
ByLayer
370
18
48
1
60
0
100
AcDbSpline
70
4
71
3
72
12
73
8
40
0
40
0
40
0
40
0
40
0.25
40
0.25
40
0.5
40
0.5
40
1
40
1
40
1
40
1
41
1
10
55.0194034857913
20
-3.78351596630569
30
0
41
1
10
54.9694786673101
20
-3.74822377300976
30
0
41
1
10
54.9180557726766
20
-3.71578848120615
30
0
41
1
10
54.8119471909847
20
-3.65643994573193
30
0
41
1
10
54.7571731991851
20
-3.62954543577519
30
0
41
1
10
54.5887911076472
20
-3.55779297084234
30
0
41
1
10
54.4711686596317
20
-3.52175734056468
30
0
41
1
10
54.3498539884081
20
-3.49925755102242
30
0
0
SPLINE
5
1B0
100
AcDbEntity
8
1
62
256
6
ByLayer
370
18
48
1
60
0
100
AcDbSpline
70
4
71
3
72
80
73
76
40
0
40
0
40
0
40
0
40
0.0624999999999977
40
0.0624999999999977
40
0.0937499999999952
40
0.0937499999999952
40
0.109374999999994
40
0.109374999999994
40
0.124999999999993
40
0.124999999999993
40
0.140624999999991
40
0.140624999999991
40
0.15624999999999
40
0.187499999999987
40
0.187499999999987
40
0.249999999999982
40
0.249999999999982
40
0.265624999999983
40
0.265624999999983
40
0.281249999999983
40
0.281249999999983
40
0.296874999999983
40
0.296874999999983
40
0.312499999999983
40
0.312499999999983
40
0.343749999999983
40
0.343749999999983
40
0.374999999999983
40
0.406249999999983
40
0.406249999999983
40
0.437499999999984
40
0.437499999999984
40
0.468749999999984
40
0.468749999999984
40
0.484374999999984
40
0.484374999999984
40
0.499999999999984
40
0.499999999999984
40
0.562499999999987
40
0.562499999999987
40
0.593749999999989
40
0.593749999999989
40
0.60937499999999
40
0.60937499999999
40
0.624999999999991
40
0.624999999999991
40
0.656249999999993
40
0.656249999999993
40
0.687499999999994
40
0.687499999999994
40
0.749999999999998
40
0.749999999999998
40
0.765624999999998
40
0.765624999999998
40
0.781249999999998
40
0.781249999999998
40
0.796874999999998
40
0.796874999999998
40
0.812499999999998
40
0.812499999999998
40
0.843749999999998
40
0.843749999999998
40
0.874999999999999
40
0.874999999999999
40
0.890624999999997
40
0.890624999999997
40
0.906249999999996
40
0.906249999999996
40
0.937499999999997
40
0.937499999999997
40
0.968749999999997
40
0.968749999999997
40
0.984374999999998
40
0.984374999999998
40
1
40
1
40
1
40
1
41
1
10
54.3498539884081
20
-3.49925755102242
30
0
41
1
10
54.1421582879874
20
-3.46073698709421
30
0
41
1
10
53.9360533761948
20
-3.41360844693566
30
0
41
1
10
53.6282996637451
20
-3.33058870575431
30
0
41
1
10
53.5259575554558
20
-3.30085507827263
30
0
41
1
10
53.3725632940777
20
-3.25332563364199
30
0
41
1
10
53.3214640769136
20
-3.23698633098485
30
0
41
1
10
53.2191657674969
20
-3.20343006021417
30
0
41
1
10
53.1679258962752
20
-3.18624094432468
30
0
41
1
10
53.065286218787
20
-3.15105036416423
30
0
41
1
10
53.013933037062
20
-3.13301756774018
30
0
41
1
10
52.9113336913836
20
-3.09595435042175
30
0
41
1
10
52.7575300884648
20
-3.03890694730521
30
0
41
1
10
52.6039223709168
20
-2.97754453396738
30
0
41
1
10
52.2967506285234
20
-2.84916561539183
30
0
41
1
10
52.0920653637306
20
-2.75600327170037
30
0
41
1
10
51.8354306144628
20
-2.63058494847607
30
0
41
1
10
51.7840633857071
20
-2.60505468864892
30
0
41
1
10
51.6812216839639
20
-2.55311975197293
30
0
41
1
10
51.6297639296783
20
-2.52669689983333
30
0
41
1
10
51.5265875876877
20
-2.47313323548912
30
0
41
1
10
51.4748253325594
20
-2.44604022477665
30
0
41
1
10
51.3709765497194
20
-2.39122092191116
30
0
41
1
10
51.3189593942501
20
-2.36346170241879
30
0
41
1
10
51.1633468487291
20
-2.2792048896369
30
0
41
1
10
51.0599297210054
20
-2.22170094224262
30
0
41
1
10
50.8537121419773
20
-2.10407714007957
30
0
41
1
10
50.6480994227987
20
-1.98384956267537
30
0
41
1
10
50.4433736371374
20
-1.85880363558758
30
0
41
1
10
50.2389296959039
20
-1.73154646396949
30
0
41
1
10
50.1368532554042
20
-1.66680559956586
30
0
41
1
10
49.9326730066974
20
-1.53550509442928
30
0
41
1
10
49.8305788027177
20
-1.46893070728845
30
0
41
1
10
49.6768808685774
20
-1.36842515574392
30
0
41
1
10
49.6255986666009
20
-1.33476063576487
30
0
41
1
10
49.5230872377101
20
-1.26690445902136
30
0
41
1
10
49.4718364881045
20
-1.23274094190063
30
0
41
1
10
49.2155674020603
20
-1.06079155691
30
0
41
1
10
49.0105315049794
20
-0.919562837058891
30
0
41
1
10
48.7015143556579
20
-0.704046735690127
30
0
41
1
10
48.5983071422622
20
-0.631537769345613
30
0
41
1
10
48.4430726857956
20
-0.52191915989232
30
0
41
1
10
48.3912137429363
20
-0.4852136915637
30
0
41
1
10
48.2876989964856
20
-0.411847167041628
30
0
41
1
10
48.2360092450623
20
-0.37515462180167
30
0
41
1
10
48.0810267173334
20
-0.265215791171414
30
0
41
1
10
47.9777578137665
20
-0.192198770428121
30
0
41
1
10
47.7716517792715
20
-0.0462245958726726
30
0
41
1
10
47.6688048138313
20
0.0267177751337329
30
0
41
1
10
47.3610439515588
20
0.24564495433961
30
0
41
1
10
47.1568296698804
20
0.391610242158322
30
0
41
1
10
46.9017745488163
20
0.572666419433546
30
0
41
1
10
46.8507725467322
20
0.608805344321553
30
0
41
1
10
46.7486395155212
20
0.680732982388975
30
0
41
1
10
46.6975005973667
20
0.716510900236528
30
0
41
1
10
46.5951653458429
20
0.787818460843852
30
0
41
1
10
46.5439759258027
20
0.823357647290521
30
0
41
1
10
46.441552883262
20
0.894205769773947
30
0
41
1
10
46.3903271637453
20
0.929525509476093
30
0
41
1
10
46.2363838616614
20
1.03486301351458
30
0
41
1
10
46.133619832058
20
1.10456361444434
30
0
41
1
10
45.927912472421
20
1.24303202037845
30
0
41
1
10
45.8249546667898
20
1.31177932334717
30
0
41
1
10
45.670191640464
20
1.41392842896698
30
0
41
1
10
45.6185476607644
20
1.44781358866553
30
0
41
1
10
45.5151169765417
20
1.51521267531706
30
0
41
1
10
45.4632918131808
20
1.54875425212299
30
0
41
1
10
45.3078716108257
20
1.6486216448051
30
0
41
1
10
45.2045903561909
20
1.71405282023261
30
0
41
1
10
44.9984996276348
20
1.8424140259651
30
0
41
1
10
44.8957138892545
20
1.90536968985648
30
0
41
1
10
44.7414379660611
20
1.99741742835073
30
0
41
1
10
44.6900623388473
20
2.02778364963226
30
0
41
1
10
44.5874269018875
20
2.08790380544588
30
0
41
1
10
44.5361714254317
20
2.11766220204515
30
0
41
1
10
44.484918914997
20
2.14705090559002
30
0
0
SPLINE
5
1B1
100
AcDbEntity
8
1
62
256
6
ByLayer
370
18
48
1
60
0
100
AcDbSpline
70
4
71
3
72
40
73
36
40
0
40
0
40
0
40
0
40
0.0056536619389632
40
0.0056536619389632
40
0.111903198595201
40
0.111903198595201
40
0.16502796692332
40
0.16502796692332
40
0.218152735251438
40
0.218152735251438
40
0.271277503579557
40
0.271277503579557
40
0.324402271907675
40
0.324402271907675
40
0.430651808563912
40
0.430651808563912
40
0.536901345220149
40
0.536901345220149
40
0.590026113548267
40
0.590026113548267
40
0.616588497712327
40
0.616588497712327
40
0.643150881876387
40
0.643150881876387
40
0.696275650204507
40
0.696275650204507
40
0.749400418532627
40
0.749400418532627
40
0.855649955188869
40
0.855649955188869
40
0.90877472351699
40
0.90877472351699
40
0.961899491845111
40
0.961899491845111
40
1
40
1
40
1
40
1
41
1
10
41.7691506908054
20
-1.05449641808445
30
0
41
1
10
41.7691545959636
20
-1.05270162310094
30
0
41
1
10
41.7692156223518
20
-1.05084319490348
30
0
41
1
10
41.7717009037102
20
-1.01263622904062
30
0
41
1
10
41.7914223929367
20
-0.956889737973142
30
0
41
1
10
41.8512847827998
20
-0.842126450590996
30
0
41
1
10
41.8766349216897
20
-0.798053891046408
30
0
41
1
10
41.9375210356648
20
-0.700259014259558
30
0
41
1
10
41.9729495030428
20
-0.646635837917216
30
0
41
1
10
42.0547170005359
20
-0.529047215222931
30
0
41
1
10
42.1021089202051
20
-0.463887336297546
30
0
41
1
10
42.2036272379051
20
-0.32885233085247
30
0
41
1
10
42.2560866232872
20
-0.260061006028934
30
0
41
1
10
42.4183881396763
20
-0.0499984142065273
30
0
41
1
10
42.5333295943235
20
0.0951042746488326
30
0
41
1
10
42.7779024517232
20
0.39627148384389
30
0
41
1
10
42.9037762167513
20
0.547712852812509
30
0
41
1
10
43.0979032389442
20
0.776146099246347
30
0
41
1
10
43.1634968945052
20
0.85250204205451
30
0
41
1
10
43.2633599543956
20
0.967388062559962
30
0
41
1
10
43.2969826875348
20
1.0058508870442
30
0
41
1
10
43.3641656221358
20
1.08226985800255
30
0
41
1
10
43.3977123840815
20
1.12024583690425
30
0
41
1
10
43.4979194174025
20
1.23191079387172
30
0
41
1
10
43.564262628772
20
1.30394369299429
30
0
41
1
10
43.696124636692
20
1.44370337884152
30
0
41
1
10
43.7609451290175
20
1.51063335624517
30
0
41
1
10
43.9458580335514
20
1.69685674884732
30
0
41
1
10
44.0607459903979
20
1.80591393335118
30
0
41
1
10
44.2098898311247
20
1.93843064569447
30
0
41
1
10
44.256148593099
20
1.97783854770449
30
0
41
1
10
44.3419858418464
20
2.0474447340788
30
0
41
1
10
44.3812895915271
20
2.07736434401727
30
0
41
1
10
44.4412086898523
20
2.11955319546647
30
0
41
1
10
44.4641487971141
20
2.13457545232922
30
0
41
1
10
44.4850140425579
20
2.14701264971401
30
0
0
SPLINE
5
1B2
100
AcDbEntity
8
1
62
256
6
ByLayer
370
18
48
1
60
0
100
AcDbSpline
70
4
71
3
72
70
73
66
40
0
40
0
40
0
40
0
40
0.0768757711732033
40
0.0768757711732033
40
0.115313656759803
40
0.115313656759803
40
0.134532599553102
40
0.134532599553102
40
0.153751542346401
40
0.153751542346401
40
0.230627313519602
40
0.230627313519602
40
0.269065199106201
40
0.269065199106201
40
0.2882841418995
40
0.2882841418995
40
0.3075030846928
40
0.3075030846928
40
0.345940970279399
40
0.345940970279399
40
0.384378855865998
40
0.384378855865998
40
0.422816741452597
40
0.422816741452597
40
0.461254627039196
40
0.461254627039196
40
0.480473569832497
40
0.480473569832497
40
0.499692512625798
40
0.499692512625798
40
0.538130398212397
40
0.538130398212397
40
0.557349341005695
40
0.557349341005695
40
0.576568283798993
40
0.576568283798993
40
0.615006169385587
40
0.615006169385587
40
0.634225112178883
40
0.634225112178883
40
0.653444054972178
40
0.653444054972178
40
0.691881940558772
40
0.691881940558772
40
0.730319826145366
40
0.730319826145366
40
0.768757711731959
40
0.768757711731959
40
0.807195597318553
40
0.807195597318553
40
0.845633482905147
40
0.845633482905147
40
0.855242954301793
40
0.86485242569844
40
0.884071368491732
40
0.884071368491732
40
0.922509254078321
40
0.922509254078321
40
0.941728196871615
40
0.941728196871615
40
0.960947139664909
40
0.960947139664909
40
0.999385025251497
40
0.999385025251497
40
1
40
1
40
1
40
1
41
1
10
41.7691100489899
20
-1.05454008288001
30
0
41
1
10
42.0324455649194
20
-1.23391711350405
30
0
41
1
10
42.2944797894631
20
-1.40739097748372
30
0
41
1
10
42.6865337496317
20
-1.65784507769715
30
0
41
1
10
42.817027450842
20
-1.73973258575296
30
0
41
1
10
43.0125020264769
20
-1.86013071913354
30
0
41
1
10
43.0776137857096
20
-1.89985994116503
30
0
41
1
10
43.2077706175179
20
-1.97847249084722
30
0
41
1
10
43.2728628128709
20
-2.01729849063247
30
0
41
1
10
43.5987252236482
20
-2.20864017727266
30
0
41
1
10
43.8603030312129
20
-2.35329002207237
30
0
41
1
10
44.2547718753126
20
-2.55665266924376
30
0
41
1
10
44.3865783774329
20
-2.62220210265161
30
0
41
1
10
44.584898218953
20
-2.71695546477585
30
0
41
1
10
44.6508731989235
20
-2.74782519724823
30
0
41
1
10
44.782514196535
20
-2.80814276772279
30
0
41
1
10
44.8481359334389
20
-2.83763681643336
30
0
41
1
10
45.0449078327404
20
-2.92367771541152
30
0
41
1
10
45.1759229313573
20
-2.97783732002239
30
0
41
1
10
45.4375708646032
20
-3.07995768701534
30
0
41
1
10
45.5682222595829
20
-3.12789982889788
30
0
41
1
10
45.8293425933615
20
-3.21749542559232
30
0
41
1
10
45.9598171088156
20
-3.25914622179707
30
0
41
1
10
46.2206789805635
20
-3.3360935758952
30
0
41
1
10
46.3510286998966
20
-3.37141090029968
30
0
41
1
10
46.54656954138
20
-3.41950022181788
30
0
41
1
10
46.6117798676901
20
-3.43470064997871
30
0
41
1
10
46.7424120383621
20
-3.46337107856115
30
0
41
1
10
46.8078286360619
20
-3.47684486974234
30
0
41
1
10
47.0043449627831
20
-3.51469652432095
30
0
41
1
10
47.1357311244464
20
-3.53649730257254
30
0
41
1
10
47.333488925168
20
-3.56395699369997
30
0
41
1
10
47.39952085355
20
-3.57223639312923
30
0
41
1
10
47.5318206102047
20
-3.58702787699866
30
0
41
1
10
47.5979518774858
20
-3.59352328920923
30
0
41
1
10
47.7958051757363
20
-3.61027576501505
30
0
41
1
10
47.9271779682383
20
-3.61782813262869
30
0
41
1
10
48.1234455480006
20
-3.62374617363736
30
0
41
1
10
48.1887737966332
20
-3.6248120141249
30
0
41
1
10
48.3194321647029
20
-3.62514243274023
30
0
41
1
10
48.3847329200359
20
-3.62440892057401
30
0
41
1
10
48.5805502904451
20
-3.61953670569844
30
0
41
1
10
48.7110119649901
20
-3.61272844406025
30
0
41
1
10
48.9719517841316
20
-3.59209421949697
30
0
41
1
10
49.1024082525924
20
-3.57826598123441
30
0
41
1
10
49.363407148073
20
-3.54360407429164
30
0
41
1
10
49.4939666698123
20
-3.52277716752599
30
0
41
1
10
49.7552060214254
20
-3.47402840954362
30
0
41
1
10
49.8857820491966
20
-3.44604476531089
30
0
41
1
10
50.1480797296051
20
-3.38329230131305
30
0
41
1
10
50.2797200655805
20
-3.34850573081664
30
0
41
1
10
50.4449254310037
20
-3.30073824524001
30
0
41
1
10
50.5111149637428
20
-3.28118964664921
30
0
41
1
10
50.6432652120629
20
-3.24052789089472
30
0
41
1
10
50.7421316560887
20
-3.20828939954933
30
0
41
1
10
50.9395518711522
20
-3.14151927342783
30
0
41
1
10
51.0707436152435
20
-3.09394751823112
30
0
41
1
10
51.2669414921719
20
-3.01806054399955
30
0
41
1
10
51.3322438843331
20
-2.99201039387845
30
0
41
1
10
51.4626708826905
20
-2.93841151621984
30
0
41
1
10
51.5278032542669
20
-2.91086790091742
30
0
41
1
10
51.7232641163596
20
-2.82627532735046
30
0
41
1
10
51.8536023717477
20
-2.76722486161501
30
0
41
1
10
51.9861166721076
20
-2.70462312449706
30
0
41
1
10
51.9882034305605
20
-2.70363666467372
30
0
41
1
10
51.9902902130665
20
-2.70264954961496
30
0
0
SPLINE
5
1B3
100
AcDbEntity
8
1
62
256
6
ByLayer
370
18
48
1
60
0
100
AcDbSpline
70
4
71
3
72
8
73
4
40
0
40
0
40
0
40
0
40
1
40
1
40
1
40
1
41
1
10
65.5898208806302
20
4.71682806914384
30
0
41
1
10
65.5352340963853
20
4.72773032261026
30
0
41
1
10
65.4806394703076
20
4.73782712646562
30
0
41
1
10
65.4260325487894
20
4.7471149715459
30
0
0
SPLINE
5
1B4
100
AcDbEntity
8
1
62
256
6
ByLayer
370
18
48
1
60
0
100
AcDbSpline
70
4
71
3
72
8
73
4
40
0
40
0
40
0
40
0
40
1
40
1
40
1
40
1
41
1
10
67.2602635307458
20
4.13637566276401
30
0
41
1
10
67.20573490066
20
4.16292772765746
30
0
41
1
10
67.151129270348
20
4.18881242572198
30
0
41
1
10
67.096441554431
20
4.21402040247236
30
0
0
SPLINE
5
1B5
100
AcDbEntity
8
1
62
256
6
ByLayer
370
18
48
1
60
0
100
AcDbSpline
70
4
71
3
72
8
73
4
40
0
40
0
40
0
40
0
40
1
40
1
40
1
40
1
41
1
10
67.4627306580363
20
1.09801015270989
30
0
41
1
10
67.4621159783009
20
1.09857863291396
30
0
41
1
10
67.4615013088355
20
1.09914713726431
30
0
41
1
10
67.4608866496174
20
1.09971566573634
30
0
0
SPLINE
5
1B6
100
AcDbEntity
8
1
62
256
6
ByLayer
370
18
48
1
60
0
100
AcDbSpline
70
4
71
3
72
8
73
4
40
0
40
0
40
0
40
0
40
1
40
1
40
1
40
1
41
1
10
67.2985543456942
20
1.249060756745
30
0
41
1
10
67.3526669917718
20
1.19947015261627
30
0
41
1
10
67.4067728597291
20
1.149683360235
30
0
41
1
10
67.4608866496174
20
1.09971566573634
30
0
0
SPLINE
5
1B7
100
AcDbEntity
8
1
62
256
6
ByLayer
370
18
48
1
60
0
100
AcDbSpline
70
4
71
3
72
8
73
4
40
0
40
0
40
0
40
0
40
1
40
1
40
1
40
1
41
1
10
65.6280924049162
20
2.68570212890376
30
0
41
1
10
65.6827008347933
20
2.64265466084382
30
0
41
1
10
65.737308295256
20
2.59917724047261
30
0
41
1
10
65.7919296009005
20
2.55528479339279
30
0
0
SPLINE
5
1B8
100
AcDbEntity
8
1
62
256
6
ByLayer
370
18
48
1
60
0
100
AcDbSpline
70
4
71
3
72
8
73
4
40
0
40
0
40
0
40
0
40
1
40
1
40
1
40
1
41
1
10
62.2870797718895
20
4.57543650750549
30
0
41
1
10
62.3416939239911
20
4.5589822911372
30
0
41
1
10
62.3963041474969
20
4.54175068129138
30
0
41
1
10
62.4509231490301
20
4.52374898605791
30
0
0
SPLINE
5
1B9
100
AcDbEntity
8
1
62
256
6
ByLayer
370
18
48
1
60
0
100
AcDbSpline
70
4
71
3
72
8
73
4
40
0
40
0
40
0
40
0
40
1
40
1
40
1
40
1
41
1
10
60.6165400038745
20
4.82568172487876
30
0
41
1
10
60.6711549394585
20
4.82594706272261
30
0
41
1
10
60.7257673684175
20
4.82537727920388
30
0
41
1
10
60.7803832680197
20
4.82397529735863
30
0
0
SPLINE
5
1BA
100
AcDbEntity
8
1
62
256
6
ByLayer
370
18
48
1
60
0
100
AcDbSpline
70
4
71
3
72
12
73
8
40
0
40
0
40
0
40
0
40
0.450700010705284
40
0.450700010705284
40
0.725350005352641
40
0.725350005352641
40
1
40
1
40
1
40
1
41
1
10
45.0460779275536
20
-3.62499952437361
30
0
41
1
10
44.9615972212097
20
-3.62499504683245
30
0
41
1
10
44.8772520857227
20
-3.62348135459391
30
0
41
1
10
44.7414379660612
20
-3.61867284802167
30
0
41
1
10
44.6900623388473
20
-3.61630201643501
30
0
41
1
10
44.5874269018875
20
-3.61045964226557
30
0
41
1
10
44.5361714254317
20
-3.60698664180885
30
0
41
1
10
44.484918914997
20
-3.60297164842825
30
0
0
SPLINE
5
1BB
100
AcDbEntity
8
1
62
256
6
ByLayer
370
18
48
1
60
0
100
AcDbSpline
70
4
71
3
72
8
73
4
40
0
40
0
40
0
40
0
40
1
40
1
40
1
40
1
41
1
10
53.6098617014797
20
3.62500082328265
30
0
41
1
10
53.8564894665505
20
3.62501523051463
30
0
41
1
10
54.1030875866401
20
3.61237803135686
30
0
41
1
10
54.3498539884083
20
3.58709785457367
30
0
0
SPLINE
5
1BC
100
AcDbEntity
8
1
62
256
6
ByLayer
370
18
48
1
60
0
100
AcDbSpline
70
4
71
3
72
16
73
12
40
0
40
0
40
0
40
0
40
0.25
40
0.25
40
0.5
40
0.5
40
0.75
40
0.75
40
0.875
40
0.875
40
1
40
1
40
1
40
1
41
1
10
54.3498539884082
20
3.5870978545737
30
0
41
1
10
54.4071977034646
20
3.58122323289246
30
0
41
1
10
54.4643288033006
20
3.57848340801888
30
0
41
1
10
54.5778824416183
20
3.57926393489248
30
0
41
1
10
54.6343066482084
20
3.5827792916505
30
0
41
1
10
54.7462808541224
20
3.5964076755973
30
0
41
1
10
54.8018245496044
20
3.60650455316917
30
0
41
1
10
54.8844680223409
20
3.62730908834433
30
0
41
1
10
54.9118958456812
20
3.63519873301758
30
0
41
1
10
54.966101256359
20
3.65291776406664
30
0
41
1
10
54.9929243509279
20
3.66275561434651
30
0
41
1
10
55.0194034857912
20
3.67359239754447
30
0
0
SPLINE
5
1BD
100
AcDbEntity
8
1
62
256
6
ByLayer
370
18
48
1
60
0
100
AcDbSpline
70
4
71
3
72
8
73
4
40
0
40
0
40
0
40
0
40
1
40
1
40
1
40
1
41
1
10
55.0194034857912
20
3.67359239754447
30
0
41
1
10
55.0423181335597
20
3.68297038784539
30
0
41
1
10
55.0651889798994
20
3.69220842136934
30
0
41
1
10
55.0879993869572
20
3.70128706423051
30
0
0
SPLINE
5
1BE
100
AcDbEntity
8
1
62
256
6
ByLayer
370
18
48
1
60
0
100
AcDbSpline
70
4
71
3
72
29
73
25
40
0
40
0
40
0
40
0
40
0.124999999999976
40
0.124999999999976
40
0.249999999999952
40
0.249999999999952
40
0.312499999999975
40
0.312499999999975
40
0.374999999999999
40
0.374999999999999
40
0.499999999999972
40
0.499999999999972
40
0.562499999999958
40
0.562499999999958
40
0.624999999999945
40
0.624999999999945
40
0.749999999999919
40
0.749999999999919
40
0.812499999999939
40
0.812499999999939
40
0.874999999999959
40
0.93749999999998
40
0.93749999999998
40
1
40
1
40
1
40
1
41
1
10
55.087999386954
20
3.70128706424521
30
0
41
1
10
55.1011288945778
20
3.69063655228712
30
0
41
1
10
55.1147306919562
20
3.68121796127767
30
0
41
1
10
55.1427868847613
20
3.66464402650863
30
0
41
1
10
55.1572423767306
20
3.65749013674619
30
0
41
1
10
55.1795592752185
20
3.64849145153369
30
0
41
1
10
55.1870915283946
20
3.64579055868222
30
0
41
1
10
55.2021388570342
20
3.64105541921288
30
0
41
1
10
55.2096811578771
20
3.63900968876556
30
0
41
1
10
55.2323576316577
20
3.63384148718507
30
0
41
1
10
55.2475410386511
20
3.63167836158468
30
0
41
1
10
55.2703963085561
20
3.63052718109299
30
0
41
1
10
55.2780281829029
20
3.63049455225672
30
0
41
1
10
55.2933166504656
20
3.63119430024148
30
0
41
1
10
55.3009211788852
20
3.63192705337241
30
0
41
1
10
55.3233756405692
20
3.63530664763746
30
0
41
1
10
55.3379615592606
20
3.63911941189963
30
0
41
1
10
55.3591339458156
20
3.64760448449377
30
0
41
1
10
55.3661101290924
20
3.65092217810448
30
0
41
1
10
55.3795179147368
20
3.65846706618342
30
0
41
1
10
55.3924152280762
20
3.6669226211572
30
0
41
1
10
55.4042080433101
20
3.67734622862363
30
0
41
1
10
55.4153770162408
20
3.68888346218884
30
0
41
1
10
55.4206338288736
20
3.69520382426919
30
0
41
1
10
55.4254270164102
20
3.70201685722967
30
0
0
SPLINE
5
1BF
100
AcDbEntity
8
1
62
256
6
ByLayer
370
18
48
1
60
0
100
AcDbSpline
70
4
71
3
72
8
73
4
40
0
40
0
40
0
40
0
40
1
40
1
40
1
40
1
41
1
10
55.4254270164101
20
3.70201685723023
30
0
41
1
10
55.463803605273
20
3.7565653101814
30
0
41
1
10
55.5020577801515
20
3.81028587145804
30
0
41
1
10
55.5402067501493
20
3.86318424134268
30
0
0
SPLINE
5
1C0
100
AcDbEntity
8
1
62
256
6
ByLayer
370
18
48
1
60
0
100
AcDbSpline
70
4
71
3
72
10
73
6
40
0
40
0
40
0
40
0
40
0.5
40
0.5
40
1
40
1
40
1
40
1
41
1
10
55.5402067501493
20
3.86318424134271
30
0
41
1
10
55.6661790505895
20
3.90299707827839
30
0
41
1
10
55.7908180834347
20
3.93776352961547
30
0
41
1
10
56.0379508811965
20
3.99680270351624
30
0
41
1
10
56.1604492993987
20
4.02108617553444
30
0
41
1
10
56.2820771316763
20
4.03979879928951
30
0
0
SPLINE
5
1C1
100
AcDbEntity
8
1
62
256
6
ByLayer
370
18
48
1
60
0
100
AcDbSpline
70
4
71
3
72
12
73
8
40
0
40
0
40
0
40
0
40
0.249999999999994
40
0.249999999999994
40
0.499999999999988
40
0.499999999999988
40
1
40
1
40
1
40
1
41
1
10
56.2820771316763
20
4.03979879928954
30
0
41
1
10
56.314614017395
20
3.97574677625784
30
0
41
1
10
56.3472390072229
20
3.91161677060484
30
0
41
1
10
56.4126977770023
20
3.78321232106555
30
0
41
1
10
56.4455435573698
20
3.7189140478755
30
0
41
1
10
56.5443306632835
20
3.52604917933823
30
0
41
1
10
56.610531704181
20
3.39749706612443
30
0
41
1
10
56.6772222317865
20
3.2690398068334
30
0
0
SPLINE
5
1C2
100
AcDbEntity
8
1
62
256
6
ByLayer
370
18
48
1
60
0
100
AcDbSpline
70
4
71
3
72
32
73
28
40
0
40
0
40
0
40
0
40
0.125000000000024
40
0.125000000000024
40
0.187500000000056
40
0.187500000000056
40
0.250000000000088
40
0.250000000000088
40
0.375000000000104
40
0.375000000000104
40
0.437500000000111
40
0.437500000000111
40
0.500000000000118
40
0.500000000000118
40
0.625000000000131
40
0.625000000000131
40
0.687500000000109
40
0.687500000000109
40
0.750000000000087
40
0.750000000000087
40
0.812500000000065
40
0.812500000000065
40
0.875000000000044
40
0.875000000000044
40
0.937500000000022
40
0.937500000000022
40
1
40
1
40
1
40
1
41
1
10
56.6772222317865
20
3.26903980683338
30
0
41
1
10
56.68874949412
20
3.24683634586737
30
0
41
1
10
56.702191740747
20
3.22631506106018
30
0
41
1
10
56.7245634143765
20
3.19746509836909
30
0
41
1
10
56.7323972380558
20
3.18817812107301
30
0
41
1
10
56.7487807801418
20
3.17023126538223
30
0
41
1
10
56.757273377224
20
3.16163991610046
30
0
41
1
10
56.7832445144334
20
3.13725475020863
30
0
41
1
10
56.8013460628938
20
3.12268119131986
30
0
41
1
10
56.8295834485227
20
3.10318806022141
30
0
41
1
10
56.8392101060356
20
3.09707121549391
30
0
41
1
10
56.8586915139999
20
3.08574178336167
30
0
41
1
10
56.8684711780962
20
3.08056927182434
30
0
41
1
10
56.8979116231184
20
3.06650616203069
30
0
41
1
10
56.917672641851
20
3.0590457845272
30
0
41
1
10
56.9474776309443
20
3.05103169925408
30
0
41
1
10
56.9574964437861
20
3.04888984927348
30
0
41
1
10
56.9771891818841
20
3.04586630211378
30
0
41
1
10
56.9868845885829
20
3.04497165289419
30
0
41
1
10
57.0059388169288
20
3.04450799965005
30
0
41
1
10
57.0152979802936
20
3.04493749438231
30
0
41
1
10
57.033623964593
20
3.04730586544957
30
0
41
1
10
57.0425702593699
20
3.04925705099262
30
0
41
1
10
57.059460948914
20
3.05475480371953
30
0
41
1
10
57.0674735958239
20
3.05830524807146
30
0
41
1
10
57.0825035602418
20
3.06725126157099
30
0
41
1
10
57.0895217534569
20
3.07267012960236
30
0
41
1
10
57.0957571863782
20
3.07901977669243
30
0
0
SPLINE
5
1C3
100
AcDbEntity
8
1
62
256
6
ByLayer
370
18
48
1
60
0
100
AcDbSpline
70
4
71
3
72
10
73
6
40
0
40
0
40
0
40
0
40
0.5
40
0.5
40
1
40
1
40
1
40
1
41
1
10
57.0957571863812
20
3.07901977670016
30
0
41
1
10
57.1861850084655
20
3.17110396149795
30
0
41
1
10
57.2758961762467
20
3.25669335079988
30
0
41
1
10
57.4543369382317
20
3.41513030208625
30
0
41
1
10
57.5427711557209
20
3.4877110022519
30
0
41
1
10
57.6305899117699
20
3.5536836439787
30
0
0
SPLINE
5
1C4
100
AcDbEntity
8
1
62
256
6
ByLayer
370
18
48
1
60
0
100
AcDbSpline
70
4
71
3
72
8
73
4
40
0
40
0
40
0
40
0
40
1
40
1
40
1
40
1
41
1
10
57.7944050806891
20
3.44689092174465
30
0
41
1
10
57.7398094420681
20
3.48311890339139
30
0
41
1
10
57.6852045123314
20
3.51871563234226
30
0
41
1
10
57.6305899117697
20
3.5536836439789
30
0
0
SPLINE
5
1C5
100
AcDbEntity
8
1
62
256
6
ByLayer
370
18
48
1
60
0
100
AcDbSpline
70
4
71
3
72
12
73
8
40
0
40
0
40
0
40
0
40
0.500000000000008
40
0.500000000000008
40
0.750000000000004
40
0.750000000000004
40
1
40
1
40
1
40
1
41
1
10
57.7944050806884
20
3.44689092173351
30
0
41
1
10
57.8850967182758
20
3.26669211432176
30
0
41
1
10
57.9764450848429
20
3.08830239878199
30
0
41
1
10
58.1147655414907
20
2.82391820245974
30
0
41
1
10
58.1610198907522
20
2.73646833505194
30
0
41
1
10
58.2539563477471
20
2.56306983159973
30
0
41
1
10
58.3006347179177
20
2.47711354099852
30
0
41
1
10
58.347556056675
20
2.39191095189059
30
0
0
SPLINE
5
1C6
100
AcDbEntity
8
1
62
256
6
ByLayer
370
18
48
1
60
0
100
AcDbSpline
70
4
71
3
72
32
73
28
40
0
40
0
40
0
40
0
40
0.124999999999948
40
0.124999999999948
40
0.187499999999943
40
0.187499999999943
40
0.249999999999938
40
0.249999999999938
40
0.374999999999928
40
0.374999999999928
40
0.437499999999896
40
0.437499999999896
40
0.499999999999865
40
0.499999999999865
40
0.624999999999857
40
0.624999999999857
40
0.687499999999881
40
0.687499999999881
40
0.749999999999905
40
0.749999999999905
40
0.812499999999929
40
0.812499999999929
40
0.874999999999952
40
0.874999999999952
40
0.937499999999976
40
0.937499999999976
40
1
40
1
40
1
40
1
41
1
10
58.347556056675
20
2.39191095189059
30
0
41
1
10
58.3590912839377
20
2.37096459241423
30
0
41
1
10
58.3725439448209
20
2.35090830000456
30
0
41
1
10
58.3949319650922
20
2.32185947590423
30
0
41
1
10
58.4027713759809
20
2.31235287750869
30
0
41
1
10
58.4191661206094
20
2.29367427160963
30
0
41
1
10
58.4276644261347
20
2.2845721065643
30
0
41
1
10
58.4536506418556
20
2.25827440748358
30
0
41
1
10
58.4717604530423
20
2.24191783489619
30
0
41
1
10
58.5000071155064
20
2.21901841059272
30
0
41
1
10
58.5096367570718
20
2.211637828916
30
0
41
1
10
58.5291203646099
20
2.19754335203015
30
0
41
1
10
58.5389005552817
20
2.19087985791293
30
0
41
1
10
58.5683408170393
20
2.17201593694409
30
0
41
1
10
58.5880993636268
20
2.1609235473673
30
0
41
1
10
58.6178969738622
20
2.14671456248814
30
0
41
1
10
58.627912120062
20
2.14236841274786
30
0
41
1
10
58.6475942239354
20
2.13474236391073
30
0
41
1
10
58.6572841745525
20
2.13144610722071
30
0
41
1
10
58.676327305475
20
2.12595891200141
30
0
41
1
10
58.6856807563538
20
2.12376657927644
30
0
41
1
10
58.7039950218957
20
2.12063635397371
30
0
41
1
10
58.7129352309387
20
2.11971327409736
30
0
41
1
10
58.7298147915947
20
2.11934769598614
30
0
41
1
10
58.7378222314833
20
2.11988989049684
30
0
41
1
10
58.7528428093509
20
2.1226432116575
30
0
41
1
10
58.7598577731936
20
2.12487187643515
30
0
41
1
10
58.7660912334444
20
2.12802080539626
30
0
0
SPLINE
5
1C7
100
AcDbEntity
8
1
62
256
6
ByLayer
370
18
48
1
60
0
100
AcDbSpline
70
4
71
3
72
10
73
6
40
0
40
0
40
0
40
0
40
0.5
40
0.5
40
1
40
1
40
1
40
1
41
1
10
58.7660912334474
20
2.12802080540339
30
0
41
1
10
58.8565443772952
20
2.1737146115513
30
0
41
1
10
58.9462787779233
20
2.21176040030574
30
0
41
1
10
59.1247589194797
20
2.27289824490455
30
0
41
1
10
59.2132079365274
20
2.29587990614789
30
0
41
1
10
59.3010370654206
20
2.31140257765512
30
0
0
SPLINE
5
1C8
100
AcDbEntity
8
1
62
256
6
ByLayer
370
18
48
1
60
0
100
AcDbSpline
70
4
71
3
72
8
73
4
40
0
40
0
40
0
40
0
40
1
40
1
40
1
40
1
41
1
10
59.4648681244333
20
2.17399139233433
30
0
41
1
10
59.4102665605141
20
2.22021590509323
30
0
41
1
10
59.3556569984481
20
2.26601975949154
30
0
41
1
10
59.3010370654206
20
2.31140257765517
30
0
0
SPLINE
5
1C9
100
AcDbEntity
8
1
62
256
6
ByLayer
370
18
48
1
60
0
100
AcDbSpline
70
4
71
3
72
10
73
6
40
0
40
0
40
0
40
0
40
0.5
40
0.5
40
1
40
1
40
1
40
1
41
1
10
59.4648681244333
20
2.17399139233433
30
0
41
1
10
59.555541447688
20
2.01219070049737
30
0
41
1
10
59.6468596577172
20
1.8547185237619
30
0
41
1
10
59.8312468788758
20
1.54916973317404
30
0
41
1
10
59.924064609414
20
1.40170175960211
30
0
41
1
10
60.0178942633371
20
1.2599280162886
30
0
0
SPLINE
5
1CA
100
AcDbEntity
8
1
62
256
6
ByLayer
370
18
48
1
60
0
100
AcDbSpline
70
4
71
3
72
32
73
28
40
0
40
0
40
0
40
0
40
0.12499999999999
40
0.12499999999999
40
0.187499999999986
40
0.187499999999986
40
0.249999999999982
40
0.249999999999982
40
0.375000000000022
40
0.375000000000022
40
0.437500000000043
40
0.437500000000043
40
0.500000000000064
40
0.500000000000064
40
0.625000000000049
40
0.625000000000049
40
0.687500000000041
40
0.687500000000041
40
0.750000000000033
40
0.750000000000033
40
0.812500000000025
40
0.812500000000025
40
0.875000000000017
40
0.875000000000017
40
0.937500000000008
40
0.937500000000008
40
1
40
1
40
1
40
1
41
1
10
60.0178942633371
20
1.2599280162886
30
0
41
1
10
60.0294350090761
20
1.2424903017112
30
0
41
1
10
60.0428953943812
20
1.22505030662242
30
0
41
1
10
60.06529711811
20
1.19891502418261
30
0
41
1
10
60.0731414524068
20
1.19020669985702
30
0
41
1
10
60.0895466814743
20
1.17279514463209
30
0
41
1
10
60.0980507255226
20
1.16415550033616
30
0
41
1
10
60.1240526405163
20
1.13875621666637
30
0
41
1
10
60.1421719216352
20
1.12236323511448
30
0
41
1
10
60.170430420904
20
1.09850086039003
30
0
41
1
10
60.1800644379247
20
1.09064329369528
30
0
41
1
10
60.1995512409056
20
1.07528776203281
30
0
41
1
10
60.2093325171604
20
1.06784412378872
30
0
41
1
10
60.2387744861407
20
1.04619125519128
30
0
41
1
10
60.2585321144003
20
1.0326492025203
30
0
41
1
10
60.2883251004977
20
1.01375941590794
30
0
41
1
10
60.2983370970016
20
1.00767250876325
30
0
41
1
10
60.3180073023491
20
0.996259732766504
30
0
41
1
10
60.3276912237286
20
0.990914484465691
30
0
41
1
10
60.3467222647875
20
0.980990878443265
30
0
41
1
10
60.3560695971042
20
0.976411380529186
30
0
41
1
10
60.3743715049658
20
0.968117969531136
30
0
41
1
10
60.383304053677
20
0.964420436042047
30
0
41
1
10
60.4001701656175
20
0.958232189055991
30
0
41
1
10
60.4081714435525
20
0.955708797125823
30
0
41
1
10
60.4231811099381
20
0.951976245378603
30
0
41
1
10
60.4301917344577
20
0.950776298745694
30
0
41
1
10
60.4364223473865
20
0.950386863550563
30
0
0
SPLINE
5
1CB
100
AcDbEntity
8
1
62
256
6
ByLayer
370
18
48
1
60
0
100
AcDbSpline
70
4
71
3
72
10
73
6
40
0
40
0
40
0
40
0
40
0.5
40
0.5
40
1
40
1
40
1
40
1
41
1
10
60.4364223473895
20
0.950386863556531
30
0
41
1
10
60.5268957605446
20
0.94473195742043
30
0
41
1
10
60.6166466887693
20
0.931071486803404
30
0
41
1
10
60.7951584809036
20
0.888191540720015
30
0
41
1
10
60.8836223473901
20
0.859038915279314
30
0
41
1
10
60.9714654047308
20
0.822379064337497
30
0
0
SPLINE
5
1CC
100
AcDbEntity
8
1
62
256
6
ByLayer
370
18
48
1
60
0
100
AcDbSpline
70
4
71
3
72
8
73
4
40
0
40
0
40
0
40
0
40
1
40
1
40
1
40
1
41
1
10
61.1353013809233
20
0.669033547507354
30
0
41
1
10
61.0806999762195
20
0.72031702453944
30
0
41
1
10
61.0260881546695
20
0.771432131177761
30
0
41
1
10
60.9714654047308
20
0.822379064337525
30
0
0
SPLINE
5
1CD
100
AcDbEntity
8
1
62
256
6
ByLayer
370
18
48
1
60
0
100
AcDbSpline
70
4
71
3
72
12
73
8
40
0
40
0
40
0
40
0
40
0.25
40
0.25
40
0.5
40
0.5
40
1
40
1
40
1
40
1
41
1
10
61.1353013809234
20
0.669033547507325
30
0
41
1
10
61.1806337194263
20
0.60600560935157
30
0
41
1
10
61.2261207835389
20
0.54457967729914
30
0
41
1
10
61.3174707930984
20
0.42497573706359
30
0
41
1
10
61.3633434582683
20
0.366773717265289
30
0
41
1
10
61.5016062963712
20
0.197384258541774
30
0
41
1
10
61.5944168252055
20
0.091794476514707
30
0
41
1
10
61.6882255106838
20
-0.0061620005530472
30
0
0
SPLINE
5
1CE
100
AcDbEntity
8
1
62
256
6
ByLayer
370
18
48
1
60
0
100
AcDbSpline
70
4
71
3
72
8
73
4
40
0
40
0
40
0
40
0
40
1
40
1
40
1
40
1
41
1
10
62.8057019139594
20
-0.907397188710547
30
0
41
1
10
62.7511047173351
20
-0.856532349071614
30
0
41
1
10
62.6964980750435
20
-0.805562184576729
30
0
41
1
10
62.6418794336996
20
-0.75448989203511
30
0
0
SPLINE
5
1CF
100
AcDbEntity
8
1
62
256
6
ByLayer
370
18
48
1
60
0
100
AcDbSpline
70
4
71
3
72
8
73
4
40
0
40
0
40
0
40
0
40
1
40
1
40
1
40
1
41
1
10
64.4761360850984
20
-2.38690993477093
30
0
41
1
10
64.4215422927026
20
-2.34189314732916
30
0
41
1
10
64.3669371132938
20
-2.2965112577177
30
0
41
1
10
64.3123191973548
20
-2.25076732640514
30
0
0
SPLINE
5
1D0
100
AcDbEntity
8
1
62
256
6
ByLayer
370
18
48
1
60
0
100
AcDbSpline
70
4
71
3
72
8
73
4
40
0
40
0
40
0
40
0
40
1
40
1
40
1
40
1
41
1
10
66.1466014906605
20
-3.61160722321014
30
0
41
1
10
66.0920002608426
20
-3.57724361803116
30
0
41
1
10
66.0373877679096
20
-3.54229168060914
30
0
41
1
10
65.9827614006583
20
-3.50675618352412
30
0
0
SPLINE
5
1D1
100
AcDbEntity
8
SK1
62
256
6
ByLayer
370
18
48
1
60
0
100
AcDbSpline
70
4
71
3
72
25
73
21
40
0
40
0
40
0
40
0
40
0.0624911313437096
40
0.0624911313437096
40
0.124982262687419
40
0.124982262687419
40
0.249964525374839
40
0.249964525374839
40
0.499929050749678
40
0.499929050749678
40
0.624911313437097
40
0.624911313437097
40
0.687402444780807
40
0.687402444780807
40
0.749893576124517
40
0.749893576124517
40
0.874875838811937
40
0.874875838811937
40
0.999858101499356
40
1
40
1
40
1
40
1
41
1
10
-26.6
20
3.99999999999997
30
0
41
1
10
-26.6283317627322
20
3.99999999999997
30
0
41
1
10
-26.6562643308211
20
3.99999999999997
30
0
41
1
10
-26.7110666479687
20
3.99999999999997
30
0
41
1
10
-26.737959342392
20
3.99999999999997
30
0
41
1
10
-26.8169929964967
20
3.99999999999997
30
0
41
1
10
-26.8674930803063
20
3.99999999999997
30
0
41
1
10
-27.0113525868834
20
3.99999999999997
30
0
41
1
10
-27.0971352747749
20
3.99999999999997
30
0
41
1
10
-27.2052465276027
20
3.99999999999997
30
0
41
1
10
-27.237840514736
20
3.99999999999997
30
0
41
1
10
-27.2807541784904
20
3.99999999999997
30
0
41
1
10
-27.2940615568609
20
3.99999999999997
30
0
41
1
10
-27.3185359592893
20
3.99999999999997
30
0
41
1
10
-27.3297140257202
20
3.99999999999997
30
0
41
1
10
-27.3595680314471
20
3.99999999999997
30
0
41
1
10
-27.3746632622382
20
3.99999999999997
30
0
41
1
10
-27.3948651379693
20
3.99999999999997
30
0
41
1
10
-27.3999766848891
20
3.99999999999997
30
0
41
1
10
-27.3999994900031
20
3.99999999999997
30
0
41
1
10
-27.4000004901031
20
3.99999999999997
30
0
0
SPLINE
5
1D2
100
AcDbEntity
8
SK1
62
256
6
ByLayer
370
18
48
1
60
0
100
AcDbSpline
70
4
71
3
72
25
73
21
40
0
40
0
40
0
40
0
40
0.0001418977972841
40
0.125124160572623
40
0.125124160572623
40
0.250106423347963
40
0.250106423347963
40
0.312597554735632
40
0.312597554735632
40
0.375088686123302
40
0.375088686123302
40
0.500070948898642
40
0.500070948898642
40
0.750035474449321
40
0.750035474449321
40
0.87501773722466
40
0.87501773722466
40
0.93750886861233
40
0.93750886861233
40
1
40
1
40
1
40
1
41
1
10
-27.4000004901028
20
-4.00000000000006
30
0
41
1
10
-27.3999994900028
20
-4.00000000000006
30
0
41
1
10
-27.3999766848604
20
-4.00000000000006
30
0
41
1
10
-27.3948651379692
20
-4.00000000000003
30
0
41
1
10
-27.3746632622382
20
-4.00000000000003
30
0
41
1
10
-27.3595680314471
20
-4.00000000000003
30
0
41
1
10
-27.3297140257202
20
-4.00000000000003
30
0
41
1
10
-27.3185359592893
20
-4.00000000000003
30
0
41
1
10
-27.2940615568609
20
-4.00000000000003
30
0
41
1
10
-27.2807541784904
20
-4.00000000000003
30
0
41
1
10
-27.237840514736
20
-4.00000000000003
30
0
41
1
10
-27.2052465276026
20
-4.00000000000003
30
0
41
1
10
-27.0971352747749
20
-4.00000000000003
30
0
41
1
10
-27.0113525868834
20
-4.00000000000003
30
0
41
1
10
-26.8674930803063
20
-4.00000000000003
30
0
41
1
10
-26.8169929964967
20
-4.00000000000003
30
0
41
1
10
-26.737959342392
20
-4.00000000000003
30
0
41
1
10
-26.7110666479686
20
-4.00000000000003
30
0
41
1
10
-26.656264330821
20
-4.00000000000003
30
0
41
1
10
-26.6283317627322
20
-4.00000000000003
30
0
41
1
10
-26.6
20
-4.00000000000003
30
0
0
SPLINE
5
1D3
100
AcDbEntity
8
SK1
62
256
6
ByLayer
370
18
48
1
60
0
100
AcDbSpline
70
4
71
3
72
40
73
36
40
0
40
0
40
0
40
0
40
0.0312500000000002
40
0.0312500000000002
40
0.0625000000000002
40
0.0625000000000002
40
0.125
40
0.125
40
0.25
40
0.25
40
0.375
40
0.375
40
0.390625
40
0.390625
40
0.40625
40
0.4375
40
0.4375
40
0.5
40
0.5625
40
0.5625
40
0.625000000000001
40
0.625000000000001
40
0.656250000000001
40
0.656250000000001
40
0.687500000000001
40
0.687500000000001
40
0.750000000000001
40
0.750000000000001
40
0.875
40
0.875
40
0.9375
40
0.9375
40
0.96875
40
0.96875
40
1
40
1
40
1
40
1
41
1
10
-26.6000000000001
20
-2.6532998322844
30
0
41
1
10
-26.6282295270018
20
-2.60223069642578
30
0
41
1
10
-26.6560584360806
20
-2.55086328800903
30
0
41
1
10
-26.710840332668
20
-2.44747632020474
30
0
41
1
10
-26.7378072191619
20
-2.39542929260023
30
0
41
1
10
-26.8171780972792
20
-2.23839595975545
30
0
41
1
10
-26.867848090985
20
-2.132932905199
30
0
41
1
10
-27.0120560926291
20
-1.81385201739292
30
0
41
1
10
-27.0978486134983
20
-1.59756195018454
30
0
41
1
10
-27.2417193148033
20
-1.15542022190147
30
0
41
1
10
-27.2997815074192
20
-0.929563044944445
30
0
41
1
10
-27.3446381375532
20
-0.668413761645752
30
0
41
1
10
-27.3493422956421
20
-0.639263426553782
30
0
41
1
10
-27.3581304448549
20
-0.580981403716038
30
0
41
1
10
-27.3703872878579
20
-0.49357522739129
30
0
41
1
10
-27.3798443637048
20
-0.406220055240397
30
0
41
1
10
-27.3949812685901
20
-0.231578522144048
30
0
41
1
10
-27.4050766381913
20
0.001093094398982
30
0
41
1
10
-27.3948651379692
20
0.233394774779043
30
0
41
1
10
-27.3746632622382
20
0.46551445757828
30
0
41
1
10
-27.3595680314471
20
0.581483316488828
30
0
41
1
10
-27.3297140257202
20
0.755305237060696
30
0
41
1
10
-27.3185359592893
20
0.813331433943461
30
0
41
1
10
-27.2940615568609
20
0.928380204804739
30
0
41
1
10
-27.2807541784904
20
0.985494870091117
30
0
41
1
10
-27.237840514736
20
1.15569355132649
30
0
41
1
10
-27.2052465276026
20
1.26763371778799
30
0
41
1
10
-27.0971352747749
20
1.59949962073122
30
0
41
1
10
-27.0113525868834
20
1.81549521327491
30
0
41
1
10
-26.8674930803063
20
2.13367480307187
30
0
41
1
10
-26.8169929964967
20
2.23875957323747
30
0
41
1
10
-26.737959342392
20
2.39512962098939
30
0
41
1
10
-26.7110666479687
20
2.44704311222699
30
0
41
1
10
-26.6562643308211
20
2.55048076102256
30
0
41
1
10
-26.6283317627322
20
2.60204574503041
30
0
41
1
10
-26.6
20
2.65329983228429
30
0
0
SPLINE
5
1D4
100
AcDbEntity
8
1
62
256
6
ByLayer
370
18
48
1
60
0
100
AcDbSpline
70
4
71
2
72
6
73
3
40
0
40
0
40
0
40
1
40
1
40
1
41
1
10
66.5642121028428
20
-4.4416497890625
30
0
41
1
10
66.7194632615939
20
-4.17419434685272
30
0
41
1
10
66.8751332515501
20
-3.90699281037044
30
0
0
SPLINE
5
1D5
100
AcDbEntity
8
1
62
256
6
ByLayer
370
18
48
1
60
0
100
AcDbSpline
70
4
71
2
72
6
73
3
40
0
40
0
40
0
40
1
40
1
40
1
41
1
10
69.895711549565
20
-4.17239572007159
30
0
41
1
10
69.9728790484694
20
-4.03970426266528
30
0
41
1
10
70.0501270324031
20
-3.90705073682022
30
0
0
SPLINE
5
1D6
100
AcDbEntity
8
1
62
256
6
ByLayer
370
18
48
1
60
0
100
AcDbSpline
70
4
71
2
72
6
73
3
40
0
40
0
40
0
40
1
40
1
40
1
41
1
10
60.5832160440664
20
4.77727591825143
30
0
41
1
10
60.5259119804344
20
4.67884088614468
30
0
41
1
10
60.4686009522251
20
4.58047472489474
30
0
0
SPLINE
5
1D7
100
AcDbEntity
8
1
62
256
6
ByLayer
370
18
48
1
60
0
100
AcDbSpline
70
4
71
2
72
6
73
3
40
0
40
0
40
0
40
1
40
1
40
1
41
1
10
60.1058814259306
20
3.95872773576781
30
0
41
1
10
60.0986764182334
20
3.94639350929251
30
0
41
1
10
60.0914713005462
20
3.93406037047953
30
0
0
SPLINE
5
1D8
100
AcDbEntity
8
1
62
256
6
ByLayer
370
18
48
1
60
0
100
AcDbSpline
70
4
71
2
72
6
73
3
40
0
40
0
40
0
40
1
40
1
40
1
41
1
10
58.9443344897721
20
-3.89414843758064
30
0
41
1
10
58.9685915864399
20
-3.84278691884035
30
0
41
1
10
59.0166715486531
20
-3.82889786246622
30
0
0
SPLINE
5
1D9
100
AcDbEntity
8
1
62
256
6
ByLayer
370
18
48
1
60
0
100
AcDbSpline
70
4
71
2
72
6
73
3
40
0
40
0
40
0
40
1
40
1
40
1
41
1
10
59.0573533893772
20
-3.82375890518702
30
0
41
1
10
59.0786234954865
20
-3.82397431823773
30
0
41
1
10
59.1031786982883
20
-3.82935706357031
30
0
0
SPLINE
5
1DA
100
AcDbEntity
8
1
62
256
6
ByLayer
370
18
48
1
60
0
100
AcDbSpline
70
4
71
1
72
4
73
2
40
0
40
0
40
1
40
1
41
1
10
72
20
3.41058246329629
30
0
41
1
10
71.7323448817115
20
3.67820644421036
30
0
0
SPLINE
5
1DB
100
AcDbEntity
8
1
62
256
6
ByLayer
370
18
48
1
60
0
100
AcDbSpline
70
4
71
1
72
4
73
2
40
0
40
0
40
1
40
1
41
1
10
69.1110739765674
20
-4.38620383882105
30
0
41
1
10
69.8825617922214
20
-4.18894422246404
30
0
0
SPLINE
5
1DC
100
AcDbEntity
8
1
62
256
6
ByLayer
370
18
48
1
60
0
100
AcDbSpline
70
4
71
3
72
11
73
7
40
0
40
0
40
0
40
0
40
0.242751814007833
40
0.499278336624245
40
0.756227952879868
40
1
40
1
40
1
40
1
41
1
10
61.6635786157063
20
3.9116980782095
30
0
41
1
10
61.6475284289627
20
3.8825690240547
30
0
41
1
10
61.6032474249959
20
3.83780622134179
30
0
41
1
10
61.4828796300333
20
3.80147437892629
30
0
41
1
10
61.3626525203945
20
3.84520421984993
30
0
41
1
10
61.3184155573331
20
3.89516810252056
30
0
41
1
10
61.3024181392921
20
3.92694155369466
30
0
0
SPLINE
5
1DD
100
AcDbEntity
8
1
62
256
6
ByLayer
370
18
48
1
60
0
100
AcDbSpline
70
4
71
2
72
6
73
3
40
0
40
0
40
0
40
1
40
1
40
1
41
1
10
68.8044969164851
20
-3.9070670431326
30
0
41
1
10
68.9398758999935
20
-4.13994237618115
30
0
41
1
10
69.0750773183781
20
-4.37293859030211
30
0
0
SPLINE
5
1DE
100
AcDbEntity
8
1
62
256
6
ByLayer
370
18
48
1
60
0
100
AcDbSpline
70
4
71
2
72
6
73
3
40
0
40
0
40
0
40
1
40
1
40
1
41
1
10
58.4093210753003
20
-4.81581199070757
30
0
41
1
10
58.671559734574
20
-4.36386225419511
30
0
41
1
10
58.9343746502504
20
-3.91229813667863
30
0
0
SPLINE
5
1DF
100
AcDbEntity
8
1
62
256
6
ByLayer
370
18
48
1
60
0
100
AcDbSpline
70
4
71
3
72
11
73
7
40
0
40
0
40
0
40
0
40
0.236681880671045
40
0.484629774348974
40
0.74283212245695
40
1
40
1
40
1
40
1
41
1
10
68.4625899085348
20
-3.90711777216771
30
0
41
1
10
68.4702548150804
20
-3.88870118957328
30
0
41
1
10
68.500421852838
20
-3.85765686387754
30
0
41
1
10
68.5985382902297
20
-3.80610644866493
30
0
41
1
10
68.734567454643
20
-3.82778771461921
30
0
41
1
10
68.7871504786655
20
-3.87848389537851
30
0
41
1
10
68.8088880649204
20
-3.91402797746034
30
0
0
SPLINE
5
1E0
100
AcDbEntity
8
1
62
256
6
ByLayer
370
18
48
1
60
0
100
AcDbSpline
70
4
71
2
72
6
73
3
40
0
40
0
40
0
40
1
40
1
40
1
41
1
10
57.697990290371
20
-3.91626525135217
30
0
41
1
10
57.9591757404559
20
-4.36619601187221
30
0
41
1
10
58.2201656531159
20
-4.81669580083332
30
0
0
SPLINE
5
1E1
100
AcDbEntity
8
1
62
256
6
ByLayer
370
18
48
1
60
0
100
AcDbSpline
70
4
71
3
72
11
73
7
40
0
40
0
40
0
40
0
40
0.273917146287626
40
0.536109366910897
40
0.778490953601395
40
1
40
1
40
1
40
1
41
1
10
57.3501686405011
20
-3.906943393381
30
0
41
1
10
57.3695918795154
20
-3.87428342335565
30
0
41
1
10
57.4188030533059
20
-3.82944264659551
30
0
41
1
10
57.5525681298558
20
-3.80602655453697
30
0
41
1
10
57.6505433922125
20
-3.85428472082288
30
0
41
1
10
57.6807872754327
20
-3.88440214271424
30
0
41
1
10
57.689152700267
20
-3.9018981381723
30
0
0
SPLINE
5
1E2
100
AcDbEntity
8
1
62
256
6
ByLayer
370
18
48
1
60
0
100
AcDbSpline
70
4
71
2
72
6
73
3
40
0
40
0
40
0
40
1
40
1
40
1
41
1
10
62.1857272943927
20
4.81163749154996
30
0
41
1
10
61.9235537603239
20
4.35919747148827
30
0
41
1
10
61.6607752917507
20
3.90711726932426
30
0
0
SPLINE
5
1E3
100
AcDbEntity
8
1
62
256
6
ByLayer
370
18
48
1
60
0
100
AcDbSpline
70
4
71
2
72
6
73
3
40
0
40
0
40
0
40
1
40
1
40
1
41
1
10
62.9092733013688
20
3.90179280142084
30
0
41
1
10
62.6444044300063
20
4.35691778988138
30
0
41
1
10
62.3807557944614
20
4.81145389270304
30
0
0
SPLINE
5
1E4
100
AcDbEntity
8
1
62
256
6
ByLayer
370
18
48
1
60
0
100
AcDbSpline
70
4
71
2
72
6
73
3
40
0
40
0
40
0
40
1
40
1
40
1
41
1
10
68.0265487380095
20
-4.65719037280212
30
0
41
1
10
68.2435486061523
20
-4.28334621292785
30
0
41
1
10
68.4607741973497
20
-3.91012820106931
30
0
0
SPLINE
5
1E5
100
AcDbEntity
8
1
62
256
6
ByLayer
370
18
48
1
60
0
100
AcDbSpline
70
4
71
3
72
11
73
7
40
0
40
0
40
0
40
0
40
0.231665478062743
40
0.478760282269631
40
0.737334138158182
40
1
40
1
40
1
40
1
41
1
10
63.2481197521945
20
3.9068165526034
30
0
41
1
10
63.2365583463574
20
3.88420543147384
30
0
41
1
10
63.2004970108437
20
3.84765385899397
30
0
41
1
10
63.0915644951368
20
3.804061316738
30
0
41
1
10
62.966699997308
20
3.83627208605472
30
0
41
1
10
62.922472478264
20
3.87802003084394
30
0
41
1
10
62.9063878106293
20
3.90700638914072
30
0
0
SPLINE
5
1E6
100
AcDbEntity
8
1
62
256
6
ByLayer
370
18
48
1
60
0
100
AcDbSpline
70
4
71
1
72
4
73
2
40
0
40
0
40
1
40
1
41
1
10
67.7212899918707
20
-4.74385183260421
30
0
41
1
10
68.0137458968431
20
-4.66902527518917
30
0
0
SPLINE
5
1E7
100
AcDbEntity
8
1
62
256
6
ByLayer
370
18
48
1
60
0
100
AcDbSpline
70
4
71
2
72
6
73
3
40
0
40
0
40
0
40
1
40
1
40
1
41
1
10
67.2187818049827
20
-3.91000655159732
30
0
41
1
10
67.4576259596971
20
-4.32101307708027
30
0
41
1
10
67.696219565241
20
-4.73263036507197
30
0
0
SPLINE
5
1E8
100
AcDbEntity
8
1
62
256
6
ByLayer
370
18
48
1
60
0
100
AcDbSpline
70
4
71
3
72
11
73
7
40
0
40
0
40
0
40
0
40
0.245007317896908
40
0.500277660912315
40
0.751780304766138
40
1
40
1
40
1
40
1
41
1
10
66.8650223796946
20
-3.92122950880363
30
0
41
1
10
66.8885095943091
20
-3.88342795362829
30
0
41
1
10
66.9438881179486
20
-3.82764814034616
30
0
41
1
10
67.0812890460178
20
-3.80595038434953
30
0
41
1
10
67.1798089223789
20
-3.85808004390901
30
0
41
1
10
67.2099351636207
20
-3.8885815345059
30
0
41
1
10
67.2170135004117
20
-3.90706037293052
30
0
0
SPLINE
5
1E9
100
AcDbEntity
8
1
62
256
6
ByLayer
370
18
48
1
60
0
100
AcDbSpline
70
4
71
2
72
6
73
3
40
0
40
0
40
0
40
1
40
1
40
1
41
1
10
56.8277854058471
20
-4.80535948862797
30
0
41
1
10
57.0899770361831
20
-4.35338437658379
30
0
41
1
10
57.3527329668282
20
-3.90233629136821
30
0
0
SPLINE
5
1EA
100
AcDbEntity
8
1
62
256
6
ByLayer
370
18
48
1
60
0
100
AcDbSpline
70
4
71
2
72
6
73
3
40
0
40
0
40
0
40
1
40
1
40
1
41
1
10
56.1045653698423
20
-3.90717381287604
30
0
41
1
10
56.3398044972107
20
-4.31182451434424
30
0
41
1
10
56.5745098733935
20
-4.71680923677707
30
0
0
SPLINE
5
1EB
100
AcDbEntity
8
1
62
256
6
ByLayer
370
18
48
1
60
0
100
AcDbSpline
70
4
71
3
72
13
73
9
40
0
40
0
40
0
40
0
40
0.241274024672812
40
0.369700670193615
40
0.500732176128844
40
0.631651715975545
40
0.759761568230823
40
1
40
1
40
1
40
1
41
1
10
55.73930182765
20
-3.9303481030891
30
0
41
1
10
55.7553692213351
20
-3.89790656880385
30
0
41
1
10
55.7900444385155
20
-3.85820063629035
30
0
41
1
10
55.8611816921549
20
-3.82134635421687
30
0
41
1
10
55.9228559317047
20
-3.81001706980015
30
0
41
1
10
55.9845334615572
20
-3.81642047991548
30
0
41
1
10
56.05566091849
20
-3.84680686698724
30
0
41
1
10
56.0903516163231
20
-3.88137830893859
30
0
41
1
10
56.1064635148895
20
-3.91031695354661
30
0
0
SPLINE
5
1EC
100
AcDbEntity
8
1
62
256
6
ByLayer
370
18
48
1
60
0
100
AcDbSpline
70
4
71
2
72
6
73
3
40
0
40
0
40
0
40
1
40
1
40
1
41
1
10
64.5800417452649
20
3.83640437029652
30
0
41
1
10
64.5191597113322
20
3.85869378293469
30
0
41
1
10
64.5063812581919
20
3.88083951288732
30
0
0
SPLINE
5
1ED
100
AcDbEntity
8
1
62
256
6
ByLayer
370
18
48
1
60
0
100
AcDbSpline
70
4
71
2
72
6
73
3
40
0
40
0
40
0
40
1
40
1
40
1
41
1
10
63.7816531459745
20
4.82339385856292
30
0
41
1
10
63.5208553012396
20
4.37298801219936
30
0
41
1
10
63.2599047118567
20
3.92291992595841
30
0
0
SPLINE
5
1EE
100
AcDbEntity
8
1
62
256
6
ByLayer
370
18
48
1
60
0
100
AcDbSpline
70
4
71
2
72
6
73
3
40
0
40
0
40
0
40
1
40
1
40
1
41
1
10
65.6236374742631
20
-3.89594227446841
30
0
41
1
10
65.8846907281855
20
-4.34405429789814
30
0
41
1
10
66.1455762052077
20
-4.79331284671758
30
0
0
SPLINE
5
1EF
100
AcDbEntity
8
1
62
256
6
ByLayer
370
18
48
1
60
0
100
AcDbSpline
70
4
71
2
72
6
73
3
40
0
40
0
40
0
40
1
40
1
40
1
41
1
10
64.4923584494107
20
3.90957362019182
30
0
41
1
10
64.230401010876
20
4.35960784915983
30
0
41
1
10
63.9687834709929
20
4.81052131808602
30
0
0
LINE
5
7F
100
AcDbEntity
8
80
62
256
6
ByLayer
370
18
48
1
60
0
100
AcDbLine
10
0
20
0
30
0
11
-5
21
0
31
0
39
0
210
0
220
0
230
1
0
LINE
5
80
100
AcDbEntity
8
4
62
256
6
ByLayer
370
18
48
0.05
60
0
100
AcDbLine
10
0
20
0
30
0
11
73.65
21
0
31
0
39
0
210
0
220
0
230
1
0
LINE
5
82
100
AcDbEntity
8
81
62
256
6
ByLayer
370
18
48
1
60
0
100
AcDbLine
10
73.65
20
0
30
0
11
78.65
21
0
31
0
39
0
210
0
220
0
230
1
0
LINE
5
83
100
AcDbEntity
8
SK4
62
256
6
ByLayer
370
18
48
0.05
60
0
100
AcDbLine
10
-28
20
0
30
0
11
73.65
21
0
31
0
39
0
210
0
220
0
230
1
0
LINE
5
85
100
AcDbEntity
8
1
62
256
6
ByLayer
370
18
48
1
60
0
100
AcDbLine
10
0
20
5
30
0
11
0
21
-5
31
0
39
0
210
0
220
0
230
1
0
LINE
5
86
100
AcDbEntity
8
1
62
256
6
ByLayer
370
18
48
1
60
0
100
AcDbLine
10
72
20
3.410582
30
0
11
72
21
3.407772
31
0
39
0
210
0
220
0
230
1
0
LINE
5
87
100
AcDbEntity
8
1
62
256
6
ByLayer
370
18
48
1
60
0
100
AcDbLine
10
69.881505
20
-4.18922
30
0
11
69.877516
21
-4.191705
31
0
39
0
210
0
220
0
230
1
0
LINE
5
88
100
AcDbEntity
8
1
62
256
6
ByLayer
370
18
48
1
60
0
100
AcDbLine
10
61.660832
20
3.907215
30
0
11
61.664336
21
3.912852
31
0
39
0
210
0
220
0
230
1
0
LINE
5
89
100
AcDbEntity
8
1
62
256
6
ByLayer
370
18
48
1
60
0
100
AcDbLine
10
62.905297
20
3.908844
30
0
11
62.90911
21
3.902102
31
0
39
0
210
0
220
0
230
1
0
LINE
5
8A
100
AcDbEntity
8
1
62
256
6
ByLayer
370
18
48
1
60
0
100
AcDbLine
10
57.348996
20
-3.908917
30
0
11
57.352728
21
-3.902346
31
0
39
0
210
0
220
0
230
1
0
LINE
5
8B
100
AcDbEntity
8
1
62
256
6
ByLayer
370
18
48
1
60
0
100
AcDbLine
10
65.623701
20
-3.896075
30
0
11
65.627497
21
-3.903506
31
0
39
0
210
0
220
0
230
1
0
LINE
5
8C
100
AcDbEntity
8
1
62
256
6
ByLayer
370
18
48
1
60
0
100
AcDbLine
10
60.780383
20
4.823975
30
0
11
60.773549
21
4.825745
31
0
39
0
210
0
220
0
230
1
0
LINE
5
8D
100
AcDbEntity
8
1
62
256
6
ByLayer
370
18
48
1
60
0
100
AcDbLine
10
56.708751
20
-4.825745
30
0
11
56.708751
21
-4.481241
31
0
39
0
210
0
220
0
230
1
0
LINE
5
8E
100
AcDbEntity
8
1
62
256
6
ByLayer
370
18
48
1
60
0
100
AcDbLine
10
56.104741
20
-3.907474
30
0
11
56.106813
21
-3.910871
31
0
39
0
210
0
220
0
230
1
0
LINE
5
8F
100
AcDbEntity
8
1
62
256
6
ByLayer
370
13
48
1
60
0
100
AcDbLine
10
55.019403
20
-2.714016
30
0
11
55.019403
21
-3.783516
31
0
39
0
210
0
220
0
230
1
0
LINE
5
90
100
AcDbEntity
8
1
62
256
6
ByLayer
370
13
48
1
60
0
100
AcDbLine
10
55.019403
20
3.673592
30
0
11
55.019403
21
2.285117
31
0
39
0
210
0
220
0
230
1
0
LINE
5
91
100
AcDbEntity
8
1
62
256
6
ByLayer
370
13
48
1
60
0
100
AcDbLine
10
54.349854
20
-3.499258
30
0
11
54.349854
21
-2.246335
31
0
39
0
210
0
220
0
230
1
0
LINE
5
92
100
AcDbEntity
8
1
62
256
6
ByLayer
370
13
48
1
60
0
100
AcDbLine
10
54.349854
20
2.569303
30
0
11
54.349854
21
3.587098
31
0
39
0
210
0
220
0
230
1
0
LINE
5
93
100
AcDbEntity
8
1
62
256
6
ByLayer
370
13
48
1
60
0
100
AcDbLine
10
33.131233
20
-3.625
30
0
11
33.131233
21
3.625
31
0
39
0
210
0
220
0
230
1
0
LINE
5
94
100
AcDbEntity
8
1
62
256
6
ByLayer
370
13
48
1
60
0
100
AcDbLine
10
32.870761
20
3.647788
30
0
11
32.870761
21
-3.647788
31
0
39
0
210
0
220
0
230
1
0
LINE
5
95
100
AcDbEntity
8
1
62
256
6
ByLayer
370
18
48
1
60
0
100
AcDbLine
10
25.201987
20
5
30
0
11
25.201987
21
-5
31
0
39
0
210
0
220
0
230
1
0
LINE
5
96
100
AcDbEntity
8
SK1
62
256
6
ByLayer
370
18
48
1
60
0
100
AcDbLine
10
-28
20
3.4
30
0
11
-28
21
-3.4
31
0
39
0
210
0
220
0
230
1
0
LINE
5
98
100
AcDbEntity
8
SK1
62
256
6
ByLayer
370
18
48
1
60
0
100
AcDbLine
10
-17
20
4
30
0
11
-16.2
21
4.8
31
0
39
0
210
0
220
0
230
1
0
LINE
5
99
100
AcDbEntity
8
SK1
62
256
6
ByLayer
370
18
48
1
60
0
100
AcDbLine
10
-26.6
20
4
30
0
11
-17
21
4
31
0
39
0
210
0
220
0
230
1
0
LINE
5
9A
100
AcDbEntity
8
SK1
62
256
6
ByLayer
370
18
48
1
60
0
100
AcDbLine
10
-26.6
20
2.6533
30
0
11
-26.6
21
4
31
0
39
0
210
0
220
0
230
1
0
LINE
5
9B
100
AcDbEntity
8
SK1
62
256
6
ByLayer
370
18
48
1
60
0
100
AcDbLine
10
-17
20
2.6533
30
0
11
-26.6
21
2.6533
31
0
39
0
210
0
220
0
230
1
0
LINE
5
9C
100
AcDbEntity
8
SK1
62
256
6
ByLayer
370
18
48
1
60
0
100
AcDbLine
10
-26.6
20
-2.6533
30
0
11
-17
21
-2.6533
31
0
39
0
210
0
220
0
230
1
0
LINE
5
9D
100
AcDbEntity
8
SK1
62
256
6
ByLayer
370
18
48
1
60
0
100
AcDbLine
10
-26.6
20
-4
30
0
11
-26.6
21
-2.6533
31
0
39
0
210
0
220
0
230
1
0
LINE
5
9E
100
AcDbEntity
8
SK1
62
256
6
ByLayer
370
18
48
1
60
0
100
AcDbLine
10
-17
20
-4
30
0
11
-26.6
21
-4
31
0
39
0
210
0
220
0
230
1
0
LINE
5
9F
100
AcDbEntity
8
SK1
62
256
6
ByLayer
370
18
48
1
60
0
100
AcDbLine
10
-17
20
-4
30
0
11
-16.2
21
-4.8
31
0
39
0
210
0
220
0
230
1
0
LINE
5
A0
100
AcDbEntity
8
SK1
62
256
6
ByLayer
370
18
48
1
60
0
100
AcDbLine
10
-17
20
2.6533
30
0
11
-17
21
-2.6533
31
0
39
0
210
0
220
0
230
1
0
LINE
5
A1
100
AcDbEntity
8
SK1
62
256
6
ByLayer
370
18
48
1
60
0
100
AcDbLine
10
0
20
5
30
0
11
0
21
-5
31
0
39
0
210
0
220
0
230
1
0
LINE
5
A2
100
AcDbEntity
8
SK1
62
256
6
ByLayer
370
18
48
1
60
0
100
AcDbLine
10
-15.9
20
4.8
30
0
11
-15.9
21
-4.8
31
0
39
0
210
0
220
0
230
1
0
LINE
5
A3
100
AcDbEntity
8
SK1
62
256
6
ByLayer
370
18
48
1
60
0
100
AcDbLine
10
-15.7
20
-5
30
0
11
-15.7
21
5
31
0
39
0
210
0
220
0
230
1
0
LINE
5
A4
100
AcDbEntity
8
1
62
256
6
ByLayer
370
18
48
1
60
0
100
AcDbLine
10
25.201987
20
5
30
0
11
0
21
5
31
0
39
0
210
0
220
0
230
1
0
LINE
5
A5
100
AcDbEntity
8
1
62
256
6
ByLayer
370
18
48
1
60
0
100
AcDbLine
10
0
20
-5
30
0
11
25.201987
21
-5
31
0
39
0
210
0
220
0
230
1
0
LINE
5
A6
100
AcDbEntity
8
1
62
256
6
ByLayer
370
18
48
1
60
0
100
AcDbLine
10
60.77355
20
4.825745
30
0
11
60.642585
21
4.825745
31
0
39
0
210
0
220
0
230
1
0
LINE
5
A7
100
AcDbEntity
8
1
62
256
6
ByLayer
370
18
48
1
60
0
100
AcDbLine
10
58.236585
20
-4.825745
30
0
11
58.392287
21
-4.825745
31
0
39
0
210
0
220
0
230
1
0
LINE
5
A8
100
AcDbEntity
8
1
62
256
6
ByLayer
370
18
48
1
60
0
100
AcDbLine
10
73.65
20
0
30
0
11
72
21
1.65
31
0
39
0
210
0
220
0
230
1
0
LINE
5
A9
100
AcDbEntity
8
1
62
256
6
ByLayer
370
18
48
1
60
0
100
AcDbLine
10
72
20
-1.65
30
0
11
73.65
21
0
31
0
39
0
210
0
220
0
230
1
0
LINE
5
AA
100
AcDbEntity
8
1
62
256
6
ByLayer
370
18
48
1
60
0
100
AcDbLine
10
62.361028
20
4.825745
30
0
11
62.205332
21
4.825745
31
0
39
0
210
0
220
0
230
1
0
LINE
5
AB
100
AcDbEntity
8
1
62
256
6
ByLayer
370
18
48
1
60
0
100
AcDbLine
10
56.708751
20
-4.825745
30
0
11
56.804817
21
-4.825745
31
0
39
0
210
0
220
0
230
1
0
LINE
5
AC
100
AcDbEntity
8
1
62
256
6
ByLayer
370
18
48
1
60
0
100
AcDbLine
10
56.617254
20
-4.770768
30
0
11
56.708751
21
-4.825745
31
0
39
0
210
0
220
0
230
1
0
LINE
5
AD
100
AcDbEntity
8
1
62
256
6
ByLayer
370
18
48
1
60
0
100
AcDbLine
10
55.511116
20
-4.106133
30
0
11
55.599939
21
-4.159504
31
0
39
0
210
0
220
0
230
1
0
LINE
5
AE
100
AcDbEntity
8
1
62
256
6
ByLayer
370
18
48
1
60
0
100
AcDbLine
10
63.948556
20
4.825745
30
0
11
63.792842
21
4.825745
31
0
39
0
210
0
220
0
230
1
0
LINE
5
AF
100
AcDbEntity
8
1
62
256
6
ByLayer
370
18
48
1
60
0
100
AcDbLine
10
66.174127
20
-4.825745
30
0
11
66.329794
21
-4.825745
31
0
39
0
210
0
220
0
230
1
0
LINE
5
B0
100
AcDbEntity
8
1
62
256
6
ByLayer
370
18
48
1
60
0
100
AcDbLine
10
33.131233
20
-3.625
30
0
11
38.935854
21
-3.625
31
0
39
0
210
0
220
0
230
1
0
LINE
5
B1
100
AcDbEntity
8
1
62
256
6
ByLayer
370
18
48
1
60
0
100
AcDbLine
10
45.045702
20
-3.625
30
0
11
48.272219
21
-3.625
31
0
39
0
210
0
220
0
230
1
0
LINE
5
B2
100
AcDbEntity
8
1
62
256
6
ByLayer
370
18
48
1
60
0
100
AcDbLine
10
53.610119
20
3.625
30
0
11
50.369486
21
3.625
31
0
39
0
210
0
220
0
230
1
0
LINE
5
B3
100
AcDbEntity
8
1
62
256
6
ByLayer
370
18
48
1
60
0
100
AcDbLine
10
42.934629
20
3.625
30
0
11
33.131233
21
3.625
31
0
39
0
210
0
220
0
230
1
0
LINE
5
B4
100
AcDbEntity
8
1
62
256
6
ByLayer
370
18
48
1
60
0
100
AcDbLine
10
32.870761
20
3.647788
30
0
11
25.201987
21
5
31
0
39
0
210
0
220
0
230
1
0
LINE
5
B5
100
AcDbEntity
8
1
62
256
6
ByLayer
370
18
48
1
60
0
100
AcDbLine
10
25.201987
20
-5
30
0
11
32.870761
21
-3.647788
31
0
39
0
210
0
220
0
230
1
0
LINE
5
B6
100
AcDbEntity
8
SK1
62
256
6
ByLayer
370
18
48
1
60
0
100
AcDbLine
10
-28
20
-3.4
30
0
11
-27.4
21
-4
31
0
39
0
210
0
220
0
230
1
0
LINE
5
B7
100
AcDbEntity
8
SK1
62
256
6
ByLayer
370
18
48
1
60
0
100
AcDbLine
10
-27.4
20
4
30
0
11
-28
21
3.4
31
0
39
0
210
0
220
0
230
1
0
LINE
5
B8
100
AcDbEntity
8
SK1
62
256
6
ByLayer
370
18
48
1
60
0
100
AcDbLine
10
-15.9
20
4.8
30
0
11
-16.2
21
4.8
31
0
39
0
210
0
220
0
230
1
0
LINE
5
B9
100
AcDbEntity
8
SK1
62
256
6
ByLayer
370
18
48
1
60
0
100
AcDbLine
10
-16.2
20
-4.8
30
0
11
-15.9
21
-4.8
31
0
39
0
210
0
220
0
230
1
0
LINE
5
BA
100
AcDbEntity
8
SK1
62
256
6
ByLayer
370
18
48
1
60
0
100
AcDbLine
10
0
20
5
30
0
11
-15.7
21
5
31
0
39
0
210
0
220
0
230
1
0
LINE
5
BB
100
AcDbEntity
8
SK1
62
256
6
ByLayer
370
18
48
1
60
0
100
AcDbLine
10
-15.7
20
-5
30
0
11
0
21
-5
31
0
39
0
210
0
220
0
230
1
0
LINE
5
BC
100
AcDbEntity
8
SK1
62
256
6
ByLayer
370
18
48
1
60
0
100
AcDbLine
10
-15.9
20
-4.8
30
0
11
-15.7
21
-5
31
0
39
0
210
0
220
0
230
1
0
LINE
5
BD
100
AcDbEntity
8
SK1
62
256
6
ByLayer
370
18
48
1
60
0
100
AcDbLine
10
-15.7
20
5
30
0
11
-15.9
21
4.8
31
0
39
0
210
0
220
0
230
1
0
LINE
5
BE
100
AcDbEntity
8
SK2
62
256
6
ByLayer
370
18
48
1
60
0
100
AcDbLine
10
12.750994
20
-5
30
0
11
12.750994
21
19.333771
31
0
39
0
210
0
220
0
230
1
0
LINE
5
C0
100
AcDbEntity
8
1
62
256
6
ByLayer
370
18
48
1
60
1
100
AcDbLine
10
12.750994
20
5
30
0
11
13.211777
21
1.500002
31
0
39
0
210
0
220
0
230
1
0
LINE
5
C1
100
AcDbEntity
8
1
62
256
6
ByLayer
370
18
48
1
60
1
100
AcDbLine
10
13.211777
20
1.500002
30
0
11
12.29021
21
1.499998
31
0
39
0
210
0
220
0
230
1
0
LINE
5
C2
100
AcDbEntity
8
1
62
256
6
ByLayer
370
18
48
1
60
1
100
AcDbLine
10
12.29021
20
1.499998
30
0
11
12.750994
21
5
31
0
39
0
210
0
220
0
230
1
0
LINE
5
C3
100
AcDbEntity
8
1
62
256
6
ByLayer
370
18
48
1
60
1
100
AcDbLine
10
12.750994
20
-5
30
0
11
12.29021
21
-1.500002
31
0
39
0
210
0
220
0
230
1
0
LINE
5
C4
100
AcDbEntity
8
1
62
256
6
ByLayer
370
18
48
1
60
1
100
AcDbLine
10
12.29021
20
-1.500002
30
0
11
13.211777
21
-1.499998
31
0
39
0
210
0
220
0
230
1
0
LINE
5
C5
100
AcDbEntity
8
1
62
256
6
ByLayer
370
18
48
1
60
1
100
AcDbLine
10
13.211777
20
-1.499998
30
0
11
12.750994
21
-5
31
0
39
0
210
0
220
0
230
1
0
LINE
5
C6
100
AcDbEntity
8
2
62
256
6
ByLayer
370
18
48
1
60
0
100
AcDbLine
10
72
20
-42.325745
30
0
11
-28
21
-42.325745
31
0
39
0
210
0
220
0
230
1
0
LINE
5
C8
100
AcDbEntity
8
2
62
256
6
ByLayer
370
18
48
1
60
0
100
AcDbLine
10
-28
20
-4.9875
30
0
11
-28
21
-44.325745
31
0
39
0
210
0
220
0
230
1
0
LINE
5
C9
100
AcDbEntity
8
2
62
256
6
ByLayer
370
18
48
1
60
0
100
AcDbLine
10
72
20
-6.413245
30
0
11
72
21
-44.325745
31
0
39
0
210
0
220
0
230
1
0
LINE
5
CA
100
AcDbEntity
8
1
62
256
6
ByLayer
370
18
48
1
60
1
100
AcDbLine
10
-28
20
-42.325745
30
0
11
-24.500002
21
-41.864961
31
0
39
0
210
0
220
0
230
1
0
LINE
5
CB
100
AcDbEntity
8
1
62
256
6
ByLayer
370
18
48
1
60
1
100
AcDbLine
10
-24.500002
20
-41.864961
30
0
11
-24.499998
21
-42.786529
31
0
39
0
210
0
220
0
230
1
0
LINE
5
CC
100
AcDbEntity
8
1
62
256
6
ByLayer
370
18
48
1
60
1
100
AcDbLine
10
-24.499998
20
-42.786529
30
0
11
-28
21
-42.325745
31
0
39
0
210
0
220
0
230
1
0
LINE
5
CD
100
AcDbEntity
8
1
62
256
6
ByLayer
370
18
48
1
60
1
100
AcDbLine
10
72
20
-42.325745
30
0
11
68.500002
21
-42.786529
31
0
39
0
210
0
220
0
230
1
0
LINE
5
CE
100
AcDbEntity
8
1
62
256
6
ByLayer
370
18
48
1
60
1
100
AcDbLine
10
68.500002
20
-42.786529
30
0
11
68.499998
21
-41.864961
31
0
39
0
210
0
220
0
230
1
0
LINE
5
CF
100
AcDbEntity
8
1
62
256
6
ByLayer
370
18
48
1
60
1
100
AcDbLine
10
68.499998
20
-41.864961
30
0
11
72
21
-42.325745
31
0
39
0
210
0
220
0
230
1
0
LINE
5
1F4
100
AcDbEntity
8
1
62
256
6
ByLayer
370
18
48
1
60
1
100
AcDbLine
10
12.750994
20
5
30
0
11
13.211777
21
1.500002
31
0
39
0
210
0
220
0
230
1
0
LINE
5
1F5
100
AcDbEntity
8
1
62
256
6
ByLayer
370
18
48
1
60
1
100
AcDbLine
10
13.211777
20
1.500002
30
0
11
12.29021
21
1.499998
31
0
39
0
210
0
220
0
230
1
0
LINE
5
1F6
100
AcDbEntity
8
1
62
256
6
ByLayer
370
18
48
1
60
1
100
AcDbLine
10
12.29021
20
1.499998
30
0
11
12.750994
21
5
31
0
39
0
210
0
220
0
230
1
0
LINE
5
1F8
100
AcDbEntity
8
1
62
256
6
ByLayer
370
18
48
1
60
1
100
AcDbLine
10
12.750994
20
-5
30
0
11
12.29021
21
-1.500002
31
0
39
0
210
0
220
0
230
1
0
LINE
5
1F9
100
AcDbEntity
8
1
62
256
6
ByLayer
370
18
48
1
60
1
100
AcDbLine
10
12.29021
20
-1.500002
30
0
11
13.211777
21
-1.499998
31
0
39
0
210
0
220
0
230
1
0
LINE
5
1FA
100
AcDbEntity
8
1
62
256
6
ByLayer
370
18
48
1
60
1
100
AcDbLine
10
13.211777
20
-1.499998
30
0
11
12.750994
21
-5
31
0
39
0
210
0
220
0
230
1
0
LINE
5
1FD
100
AcDbEntity
8
1
62
256
6
ByLayer
370
18
48
1
60
1
100
AcDbLine
10
-28
20
-42.325745
30
0
11
-24.500002
21
-41.864961
31
0
39
0
210
0
220
0
230
1
0
LINE
5
1FE
100
AcDbEntity
8
1
62
256
6
ByLayer
370
18
48
1
60
1
100
AcDbLine
10
-24.500002
20
-41.864961
30
0
11
-24.499998
21
-42.786529
31
0
39
0
210
0
220
0
230
1
0
LINE
5
1FF
100
AcDbEntity
8
1
62
256
6
ByLayer
370
18
48
1
60
1
100
AcDbLine
10
-24.499998
20
-42.786529
30
0
11
-28
21
-42.325745
31
0
39
0
210
0
220
0
230
1
0
LINE
5
201
100
AcDbEntity
8
1
62
256
6
ByLayer
370
18
48
1
60
1
100
AcDbLine
10
72
20
-42.325745
30
0
11
68.500002
21
-42.786529
31
0
39
0
210
0
220
0
230
1
0
LINE
5
202
100
AcDbEntity
8
1
62
256
6
ByLayer
370
18
48
1
60
1
100
AcDbLine
10
68.500002
20
-42.786529
30
0
11
68.499998
21
-41.864961
31
0
39
0
210
0
220
0
230
1
0
LINE
5
203
100
AcDbEntity
8
1
62
256
6
ByLayer
370
18
48
1
60
1
100
AcDbLine
10
68.499998
20
-41.864961
30
0
11
72
21
-42.325745
31
0
39
0
210
0
220
0
230
1
0
MTEXT
5
1F0
100
AcDbEntity
8
SK2
62
256
6
ByLayer
370
18
48
1
60
0
100
AcDbMText
10
11.409879
20
10.658437
30
0
210
0
220
0
230
1
1
%%c
40
3
41
0
44
1.084337
50
90
71
7
72
5
7
iso_b_vert
0
MTEXT
5
1F3
100
AcDbEntity
8
SK2
62
256
6
ByLayer
370
18
48
1
60
0
100
AcDbMText
10
11.409879
20
16.635
30
0
210
0
220
0
230
1
1
\W0.5321;10
40
3
41
0
44
1.084337
50
90
71
7
72
5
7
iso_b_vert
0
MTEXT
5
1FC
100
AcDbEntity
8
2
62
256
6
ByLayer
370
18
48
1
60
0
100
AcDbMText
10
19.621201
20
-41.440631
30
0
210
0
220
0
230
1
1
\W0.6217;100
40
3
41
0
44
1.084337
50
0
71
7
72
5
7
iso_b_vert
0
MTEXT
5
205
100
AcDbEntity
8
SK6
62
256
6
ByLayer
370
18
48
1
60
0
100
AcDbMText
10
4.887582
20
-82.114886
30
0
210
0
220
0
230
1
1
\W0.7277;T300-XM100DE-3/8    C110
40
3
41
0
44
1.084337
50
0
71
7
72
5
7
iso_b_vert
0
HATCH
5
1F7
100
AcDbEntity
8
SK2
62
256
6
ByLayer
370
13
48
1
60
0
100
AcDbHatch
10
0
20
0
30
0
210
0
220
0
230
1
2
ANSI31
70
0
71
0
91
1
92
5
93
3
72
1
10
12.7509937490128
20
5.00000000000003
11
13.2117774905656
21
1.50000169255321
72
1
10
13.2117774905656
20
1.50000169255321
11
12.2902100074601
21
1.49999830744685
72
1
10
12.2902100074601
20
1.49999830744685
11
12.7509937490128
21
5.00000000000003
97
0
75
0
76
1
52
0
41
0.0062
77
0
78
1
53
45
43
0
44
0
45
-0.0139193969876572
46
0.0139193969876572
79
0
47
0
98
1
10
0
20
0
0
HATCH
5
1FB
100
AcDbEntity
8
SK2
62
256
6
ByLayer
370
13
48
1
60
0
100
AcDbHatch
10
0
20
0
30
0
210
0
220
0
230
1
2
ANSI31
70
0
71
0
91
1
92
5
93
3
72
1
10
12.7509937490128
20
-4.99999999999997
11
12.2902100074601
21
-1.50000169255315
72
1
10
12.2902100074601
20
-1.50000169255315
11
13.2117774905656
21
-1.49999830744679
72
1
10
13.2117774905656
20
-1.49999830744679
11
12.7509937490128
21
-4.99999999999997
97
0
75
0
76
1
52
0
41
0.0062
77
0
78
1
53
45
43
0
44
0
45
-0.0139193969876572
46
0.0139193969876572
79
0
47
0
98
1
10
0
20
0
0
HATCH
5
200
100
AcDbEntity
8
2
62
256
6
ByLayer
370
13
48
1
60
0
100
AcDbHatch
10
0
20
0
30
0
210
0
220
0
230
1
2
ANSI31
70
0
71
0
91
1
92
5
93
3
72
1
10
-28
20
-42.3257449566585
11
-24.5000016925532
21
-41.8649612151057
72
1
10
-24.5000016925532
20
-41.8649612151057
11
-24.4999983074468
21
-42.7865286982113
72
1
10
-24.4999983074468
20
-42.7865286982113
11
-28
21
-42.3257449566585
97
0
75
0
76
1
52
0
41
0.0062
77
0
78
1
53
45
43
0
44
0
45
-0.0139193969876572
46
0.0139193969876572
79
0
47
0
98
1
10
0
20
0
0
HATCH
5
204
100
AcDbEntity
8
2
62
256
6
ByLayer
370
13
48
1
60
0
100
AcDbHatch
10
0
20
0
30
0
210
0
220
0
230
1
2
ANSI31
70
0
71
0
91
1
92
5
93
3
72
1
10
72
20
-42.3257449566585
11
68.5000016925532
21
-42.7865286982113
72
1
10
68.5000016925532
20
-42.7865286982113
11
68.4999983074468
21
-41.8649612151057
72
1
10
68.4999983074468
20
-41.8649612151057
11
72
21
-42.3257449566585
97
0
75
0
76
1
52
0
41
0.0062
77
0
78
1
53
45
43
0
44
0
45
-0.0139193969876572
46
0.0139193969876572
79
0
47
0
98
1
10
0
20
0
0
DIMENSION
5
208
100
AcDbEntity
8
2
62
256
6
ByLayer
370
18
48
1
60
0
100
AcDbDimension
2
_U0
10
91.5
20
-4.825745
30
0
11
91.5
21
25.644401
31
0
70
32
71
1
72
1
41
1
210
0
220
0
230
1
3
Standard
100
AcDbAlignedDimension
13
72
23
4.825745
33
0
14
72
24
-4.825745
34
0
50
90
100
AcDbRotatedDimension
1001
ACAD
1000
DSTYLE
1002
{
1070
   371
1070
    13
1070
   372
1070
    13
1070
     3
1000

1070
   170
1070
     0
1070
   144
1040
1.0
1070
   277
1070
     2
1070
   284
1070
     8
1070
   278
1070
    46
1070
   146
1040
1.166667
1070
   345
1005
16
1070
   347
1005
16
1070
   346
1005
16
1070
   344
1005
0
1070
   343
1005
0
1070
   172
1070
     1
1070
    76
1070
     0
1070
    75
1070
     0
1070
   282
1070
     0
1070
   281
1070
     0
1070
    71
1070
     0
1070
    74
1070
     0
1070
   279
1070
     0
1070
   173
1070
     1
1070
   340
1005
1F1
1070
   271
1070
     3
1070
   272
1070
     3
1070
    77
1070
     1
1070
    73
1070
     0
1070
   171
1070
     3
1070
   274
1070
     4
1070
   177
1070
     2
1070
   176
1070
     2
1070
   178
1070
     2
1070
    78
1070
     8
1070
    48
1040
-0.1
1070
    41
1040
3.5
1070
   147
1040
1.5
1070
    42
1040
1.5875
1070
    44
1040
2.0
1070
   140
1040
3.0
1002
}
1001
ACAD_DSTYLE_DIM_LINETYPE
1070
   380
1005
16
1001
ACAD_DSTYLE_DIM_EXT1_LINETYPE
1070
   381
1005
16
1001
ACAD_DSTYLE_DIM_EXT2_LINETYPE
1070
   382
1005
16
0
DIMENSION
5
223
100
AcDbEntity
8
SK2
62
256
6
ByLayer
370
18
48
1
60
0
100
AcDbDimension
2
_U1
10
67.63
20
13.85
30
0
11
69.815
21
13.85
31
0
70
32
71
1
72
1
41
1
210
0
220
0
230
1
3
Standard
100
AcDbAlignedDimension
13
72
23
4.825745
33
0
14
67.63
24
0
34
0
50
0
100
AcDbRotatedDimension
1001
ACAD
1000
DSTYLE
1002
{
1070
   371
1070
    13
1070
   372
1070
    13
1070
   170
1070
     0
1070
   144
1040
1.0
1070
   277
1070
     2
1070
   284
1070
     8
1070
   278
1070
    46
1070
   146
1040
1.166667
1070
   345
1005
16
1070
   347
1005
16
1070
   346
1005
16
1070
   344
1005
0
1070
   343
1005
0
1070
   172
1070
     1
1070
    76
1070
     0
1070
    75
1070
     0
1070
   282
1070
     0
1070
   281
1070
     0
1070
    71
1070
     0
1070
    74
1070
     0
1070
   279
1070
     0
1070
   173
1070
     1
1070
   340
1005
1F1
1070
   271
1070
     3
1070
   272
1070
     3
1070
    77
1070
     1
1070
    73
1070
     1
1070
   171
1070
     3
1070
   274
1070
     4
1070
   177
1070
     2
1070
   176
1070
     2
1070
   178
1070
     2
1070
    78
1070
     8
1070
    48
1040
-0.1
1070
    41
1040
3.5
1070
   147
1040
1.5
1070
    42
1040
1.5875
1070
    44
1040
2.0
1070
   140
1040
3.0
1002
}
1001
ACAD_DSTYLE_DIM_LINETYPE
1070
   380
1005
16
1001
ACAD_DSTYLE_DIM_EXT1_LINETYPE
1070
   381
1005
16
1001
ACAD_DSTYLE_DIM_EXT2_LINETYPE
1070
   382
1005
16
0
DIMENSION
5
23D
100
AcDbEntity
8
SK2
62
256
6
ByLayer
370
18
48
1
60
0
100
AcDbDimension
2
_U2
10
57
20
-11.825745
30
0
11
85.714286
21
-11.825745
31
0
70
32
71
1
72
1
41
1
210
0
220
0
230
1
3
Standard
100
AcDbAlignedDimension
13
72
23
-4.825745
33
0
14
57
24
-4.825745
34
0
50
0
100
AcDbRotatedDimension
1001
ACAD
1000
DSTYLE
1002
{
1070
   371
1070
    13
1070
   372
1070
    13
1070
   170
1070
     0
1070
   144
1040
1.0
1070
   277
1070
     2
1070
   284
1070
     8
1070
   278
1070
    46
1070
   146
1040
0.833333
1070
   345
1005
16
1070
   347
1005
16
1070
   346
1005
16
1070
   344
1005
0
1070
   343
1005
0
1070
   172
1070
     1
1070
    76
1070
     0
1070
    75
1070
     0
1070
   282
1070
     0
1070
   281
1070
     0
1070
    47
1040
0.5
1070
    72
1070
     0
1070
    71
1070
     1
1070
    74
1070
     0
1070
   279
1070
     0
1070
   173
1070
     1
1070
   340
1005
1F1
1070
   271
1070
     1
1070
   272
1070
     3
1070
    77
1070
     1
1070
    73
1070
     1
1070
   171
1070
     3
1070
   274
1070
     4
1070
   177
1070
     2
1070
   176
1070
     2
1070
   178
1070
     2
1070
    78
1070
     8
1070
    48
1040
0.5
1070
    41
1040
3.5
1070
   147
1040
1.5
1070
    42
1040
1.5875
1070
    44
1040
2.0
1070
   140
1040
3.0
1002
}
1001
ACAD_DSTYLE_DIM_LINETYPE
1070
   380
1005
16
1001
ACAD_DSTYLE_DIM_EXT1_LINETYPE
1070
   381
1005
16
1001
ACAD_DSTYLE_DIM_EXT2_LINETYPE
1070
   382
1005
16
0
DIMENSION
5
258
100
AcDbEntity
8
SK2
62
256
6
ByLayer
370
18
48
1
60
0
100
AcDbDimension
2
_U3
10
33
20
-34.325745
30
0
11
52.5
21
-34.325745
31
0
70
32
71
1
72
1
41
1
210
0
220
0
230
1
3
Standard
100
AcDbAlignedDimension
13
72
23
-4.825745
33
0
14
33
24
-3.625
34
0
50
0
100
AcDbRotatedDimension
1001
ACAD
1000
DSTYLE
1002
{
1070
   371
1070
    13
1070
   372
1070
    13
1070
   170
1070
     0
1070
   144
1040
1.0
1070
   277
1070
     2
1070
   284
1070
     8
1070
   278
1070
    46
1070
   146
1040
1.166667
1070
   345
1005
16
1070
   347
1005
16
1070
   346
1005
16
1070
   344
1005
0
1070
   343
1005
0
1070
   172
1070
     1
1070
    76
1070
     0
1070
    75
1070
     0
1070
   282
1070
     0
1070
   281
1070
     0
1070
    71
1070
     0
1070
    74
1070
     0
1070
   279
1070
     0
1070
   173
1070
     1
1070
   340
1005
1F1
1070
   271
1070
     1
1070
   272
1070
     3
1070
    77
1070
     1
1070
    73
1070
     1
1070
   171
1070
     3
1070
   274
1070
     4
1070
   177
1070
     2
1070
   176
1070
     2
1070
   178
1070
     2
1070
    78
1070
     8
1070
    48
1040
-0.1
1070
    41
1040
3.5
1070
   147
1040
1.5
1070
    42
1040
1.5875
1070
    44
1040
2.0
1070
   140
1040
3.0
1002
}
1001
ACAD_DSTYLE_DIM_LINETYPE
1070
   380
1005
16
1001
ACAD_DSTYLE_DIM_EXT1_LINETYPE
1070
   381
1005
16
1001
ACAD_DSTYLE_DIM_EXT2_LINETYPE
1070
   382
1005
16
0
DIMENSION
5
270
100
AcDbEntity
8
2
62
256
6
ByLayer
370
18
48
1
60
0
100
AcDbDimension
2
_U4
10
38.85
20
-23.325745
30
0
11
55.425
21
-23.325745
31
0
70
32
71
1
72
1
41
1
210
0
220
0
230
1
3
Standard
100
AcDbAlignedDimension
13
72
23
-4.825745
33
0
14
38.85
24
0
34
0
50
0
100
AcDbRotatedDimension
1001
ACAD
1000
DSTYLE
1002
{
1070
   371
1070
    13
1070
   372
1070
    13
1070
   170
1070
     0
1070
   144
1040
1.0
1070
   277
1070
     2
1070
   284
1070
     8
1070
   278
1070
    46
1070
   146
1040
1.166667
1070
   345
1005
16
1070
   347
1005
16
1070
   346
1005
16
1070
   344
1005
0
1070
   343
1005
0
1070
   172
1070
     1
1070
    76
1070
     0
1070
    75
1070
     0
1070
   282
1070
     0
1070
   281
1070
     0
1070
    71
1070
     0
1070
    74
1070
     0
1070
   279
1070
     0
1070
   173
1070
     1
1070
   340
1005
1F1
1070
   271
1070
     1
1070
   272
1070
     3
1070
    77
1070
     1
1070
    73
1070
     1
1070
   171
1070
     3
1070
   274
1070
     4
1070
   177
1070
     2
1070
   176
1070
     2
1070
   178
1070
     2
1070
    78
1070
     8
1070
    48
1040
-0.1
1070
    41
1040
3.5
1070
   147
1040
1.5
1070
    42
1040
1.5875
1070
    44
1040
2.0
1070
   140
1040
3.0
1002
}
1001
ACAD_DSTYLE_DIM_LINETYPE
1070
   380
1005
16
1001
ACAD_DSTYLE_DIM_EXT1_LINETYPE
1070
   381
1005
16
1001
ACAD_DSTYLE_DIM_EXT2_LINETYPE
1070
   382
1005
16
0
ENDSEC
0
SECTION
2
OBJECTS
0
DICTIONARY
5
2f8
330
0
100
AcDbDictionary
280
0
281
1
3
ACAD_GROUP
350
2f9
3
ACAD_MLINESTYLE
350
2fa
0
DICTIONARY
5
2f9
330
0
100
AcDbDictionary
280
0
281
1
0
DICTIONARY
5
2fa
330
0
100
AcDbDictionary
280
0
281
1
3
Standard
350
18
0
MLINESTYLE
5
18
330
2fa
100
AcDbMlineStyle
2
Standard
70
0
3

62
256
51
90
52
90
71
2
49
-0.5
62
256
6
ByLayer
49
0.5
62
256
6
ByLayer
0
RASTERVARIABLES
5
2e6
330

100
AcDbRasterVariables
90
0
70
1
71
1
72
1
0
ENDSEC
0
EOF
