0
SECTION
2
HEADER
9
$ACADVER
1
AC1015
9
$DWGCODEPAGE
3
ANSI_1252
9
$HANDSEED
5
2da
9
$ANGBASE
50
0
9
$ANGDIR
70
0
9
$ATTMODE
70
1
9
$AUNITS
70
0
9
$AUPREC
70
0
9
$CECOLOR
62
256
9
$CELTSCALE
40
1
9
$CELTYPE
6
ByLayer
9
$CELWEIGHT
370
18
9
$CLAYER
8
0
9
$CMLJUST
70
0
9
$CMLSCALE
40
1
9
$CMLSTYLE
2
Standard
9
$DIMSTYLE
2
Standard
9
$TEXTSIZE
40
0.2
9
$TEXTSTYLE
7
Standard
9
$LUNITS
70
2
9
$LUPREC
70
4
9
$EXTNAMES
290
1
9
$INSUNITS
70
4
9
$LTSCALE
40
1
9
$LWDISPLAY
290
1
9
$PDMODE
70
0
9
$PDSIZE
40
0
9
$PLINEGEN
70
0
0
ENDSEC
0
SECTION
2
CLASSES
0
CLASS
1
RASTERVARIABLES
2
AcDbRasterVariables
3
ISM
90
0
280
0
281
0
0
ENDSEC
0
SECTION
2
TABLES
0
TABLE
2
VPORT
5
2d0
100
AcDbSymbolTable
0
VPORT
5
1
100
AcDbSymbolTableRecord
100
AcDbViewportTableRecord
2
*Active
70
0
10
0
20
0
11
1
21
1
12
-1
22
1
13
0
23
0
14
0.5
24
0.5
15
10
25
10
16
0
26
0
36
1
17
0
27
0
37
0
0
ENDTAB
0
TABLE
2
LTYPE
5
2d1
100
AcDbSymbolTable
0
LTYPE
5
14
100
AcDbSymbolTableRecord
100
AcDbLinetypeTableRecord
70
0
2
ByBlock
3

72
65
73
0
40
0
0
LTYPE
5
15
100
AcDbSymbolTableRecord
100
AcDbLinetypeTableRecord
70
0
2
ByLayer
3

72
65
73
0
40
0
0
LTYPE
5
16
100
AcDbSymbolTableRecord
100
AcDbLinetypeTableRecord
70
0
2
Continuous
3
Solid line
72
65
73
0
40
0
0
LTYPE
5
6E
100
AcDbSymbolTableRecord
100
AcDbLinetypeTableRecord
70
0
2
CENTER
3
____ _ ____ _ ____ _ ____
72
65
73
4
40
47.5
49
22
74
0
49
-8.5
74
0
49
8.5
74
0
49
-8.5
74
0
0
LTYPE
5
6F
100
AcDbSymbolTableRecord
100
AcDbLinetypeTableRecord
70
0
2
DASHED
3
__ __ __ __ __ __ __ __ __
72
65
73
2
40
25.72
49
12.86
74
0
49
-12.86
74
0
0
ENDTAB
0
TABLE
2
LAYER
5
2d2
100
AcDbSymbolTable
0
LAYER
5
10
100
AcDbSymbolTableRecord
100
AcDbLayerTableRecord
2
0
70
0
62
7
6
Continuous
290
1
370
-3
390
0
0
LAYER
5
71
100
AcDbSymbolTableRecord
100
AcDbLayerTableRecord
2
80
70
0
62
-6
6
Continuous
290
1
370
-3
390
0
0
LAYER
5
73
100
AcDbSymbolTableRecord
100
AcDbLayerTableRecord
2
81
70
0
62
-3
6
Continuous
290
1
370
-3
390
0
0
LAYER
5
75
100
AcDbSymbolTableRecord
100
AcDbLayerTableRecord
2
1
70
0
62
4
6
Continuous
290
1
370
-3
390
0
0
LAYER
5
81
100
AcDbSymbolTableRecord
100
AcDbLayerTableRecord
2
4
70
0
62
-2
6
CENTER
290
1
370
-3
390
0
0
LAYER
5
C2
100
AcDbSymbolTableRecord
100
AcDbLayerTableRecord
2
2
70
0
62
7
6
Continuous
290
1
370
-3
390
0
0
LAYER
5
1E0
100
AcDbSymbolTableRecord
100
AcDbLayerTableRecord
2
Defpoints
70
0
62
7
6
Continuous
290
0
370
-3
390
0
0
LAYER
5
2bc
100
AcDbSymbolTableRecord
100
AcDbLayerTableRecord
2
SK4
70
0
62
2
6
CENTER
290
1
370
-3
390
0
0
LAYER
5
2bd
100
AcDbSymbolTableRecord
100
AcDbLayerTableRecord
2
SK1
70
0
62
4
6
Continuous
290
1
370
-3
390
0
0
LAYER
5
2be
100
AcDbSymbolTableRecord
100
AcDbLayerTableRecord
2
SK2
70
0
62
7
6
Continuous
290
1
370
-3
390
0
0
LAYER
5
2bf
100
AcDbSymbolTableRecord
100
AcDbLayerTableRecord
2
SK6
70
0
62
5
6
Continuous
290
1
370
-3
390
0
0
ENDTAB
0
TABLE
2
STYLE
5
2d3
100
AcDbSymbolTable
0
STYLE
5
11
100
AcDbSymbolTableRecord
100
AcDbTextStyleTableRecord
2
Standard
3
txt
70
0
71
0
40
0
41
1
42
0
50
0
0
STYLE
5
1C6
100
AcDbSymbolTableRecord
100
AcDbTextStyleTableRecord
2
iso_b_vert
3
simplex.shx
70
0
71
0
40
0
41
1
42
0
50
0
0
STYLE
5
1C7
100
AcDbSymbolTableRecord
100
AcDbTextStyleTableRecord
2
DWGDirectTextStyle
3
simplex
70
0
71
0
40
0
41
1
42
0
50
0
0
ENDTAB
0
TABLE
2
DIMSTYLE
5
2d4
100
AcDbSymbolTable
100
AcDbDimStyleTable
0
DIMSTYLE
105
27
100
AcDbSymbolTableRecord
100
AcDbDimStyleTableRecord
2
Standard
70
0
3
<>
41
0.18
42
0.0625
44
0.18
140
0.18
147
0.09
73
0
74
0
77
1
271
2
275
0
278
52
280
0
340
11
0
ENDTAB
0
TABLE
2
VIEW
5
2d5
100
AcDbSymbolTable
0
ENDTAB
0
TABLE
2
UCS
5
2d6
100
AcDbSymbolTable
0
ENDTAB
0
TABLE
2
APPID
5
2d7
100
AcDbSymbolTable
0
APPID
5
12
100
AcDbSymbolTableRecord
100
AcDbRegAppTableRecord
2
ACAD
70
0
0
APPID
5
1DC
100
AcDbSymbolTableRecord
100
AcDbRegAppTableRecord
2
ACAD_DSTYLE_DIMBREAK
70
0
0
APPID
5
27B
100
AcDbSymbolTableRecord
100
AcDbRegAppTableRecord
2
ACAD_DSTYLE_DIM_LINETYPE
70
0
0
APPID
5
27C
100
AcDbSymbolTableRecord
100
AcDbRegAppTableRecord
2
ACAD_DSTYLE_DIM_EXT1_LINETYPE
70
0
0
APPID
5
27D
100
AcDbSymbolTableRecord
100
AcDbRegAppTableRecord
2
ACAD_DSTYLE_DIM_EXT2_LINETYPE
70
0
0
APPID
5
2B8
100
AcDbSymbolTableRecord
100
AcDbRegAppTableRecord
2
ACAD_MLEADERVER
70
0
0
ENDTAB
0
TABLE
2
BLOCK_RECORD
5
2d8
100
AcDbSymbolTable
0
BLOCK_RECORD
5
1F
100
AcDbSymbolTableRecord
100
AcDbBlockTableRecord
2
*Model_Space
340
0
70
0
0
BLOCK_RECORD
5
1B
100
AcDbSymbolTableRecord
100
AcDbBlockTableRecord
2
*Paper_Space
340
0
70
0
0
BLOCK_RECORD
5
23
100
AcDbSymbolTableRecord
100
AcDbBlockTableRecord
2
*Paper_Space0
340
0
70
0
0
BLOCK_RECORD
5
1E1
100
AcDbSymbolTableRecord
100
AcDbBlockTableRecord
2
*D1
340
0
70
0
0
BLOCK_RECORD
5
1EF
100
AcDbSymbolTableRecord
100
AcDbBlockTableRecord
2
_U0
340
0
70
0
0
BLOCK_RECORD
5
1FB
100
AcDbSymbolTableRecord
100
AcDbBlockTableRecord
2
*D3
340
0
70
0
0
BLOCK_RECORD
5
208
100
AcDbSymbolTableRecord
100
AcDbBlockTableRecord
2
_U1
340
0
70
0
0
BLOCK_RECORD
5
215
100
AcDbSymbolTableRecord
100
AcDbBlockTableRecord
2
*D5
340
0
70
0
0
BLOCK_RECORD
5
223
100
AcDbSymbolTableRecord
100
AcDbBlockTableRecord
2
_U2
340
0
70
0
0
BLOCK_RECORD
5
230
100
AcDbSymbolTableRecord
100
AcDbBlockTableRecord
2
*D7
340
0
70
0
0
BLOCK_RECORD
5
23C
100
AcDbSymbolTableRecord
100
AcDbBlockTableRecord
2
_U3
340
0
70
0
0
BLOCK_RECORD
5
248
100
AcDbSymbolTableRecord
100
AcDbBlockTableRecord
2
*D9
340
0
70
0
0
BLOCK_RECORD
5
254
100
AcDbSymbolTableRecord
100
AcDbBlockTableRecord
2
_U4
340
0
70
0
0
ENDTAB
0
ENDSEC
0
SECTION
2
BLOCKS
0
BLOCK
5
20
100
AcDbEntity
8
0
100
AcDbBlockBegin
2
*Model_Space
70
0
10
0
20
0
30
0
3
*Model_Space
0
ENDBLK
5
21
100
AcDbEntity
8
0
100
AcDbBlockEnd
0
BLOCK
5
1C
100
AcDbEntity
8
0
100
AcDbBlockBegin
2
*Paper_Space
70
0
10
0
20
0
30
0
3
*Paper_Space
0
ENDBLK
5
1D
100
AcDbEntity
8
0
100
AcDbBlockEnd
0
BLOCK
5
24
100
AcDbEntity
8
0
100
AcDbBlockBegin
2
*Paper_Space0
70
0
10
0
20
0
30
0
3
*Paper_Space0
0
ENDBLK
5
25
100
AcDbEntity
8
0
100
AcDbBlockEnd
0
BLOCK
5
1E2
100
AcDbEntity
8
0
100
AcDbBlockBegin
2
*D1
70
1
10
0
20
0
30
0
3
*D1
0
LINE
5
1E4
100
AcDbEntity
8
0
62
256
6
ByLayer
370
-2
48
1
60
0
100
AcDbLine
10
58.5875
20
3.229283
30
0
11
78.5
21
3.229283
31
0
39
0
210
0
220
0
230
1
0
LINE
5
1E5
100
AcDbEntity
8
0
62
256
6
ByLayer
370
-2
48
1
60
0
100
AcDbLine
10
58.5875
20
-3.229283
30
0
11
78.5
21
-3.229283
31
0
39
0
210
0
220
0
230
1
0
LINE
5
1E6
100
AcDbEntity
8
0
62
256
6
ByLayer
370
-2
48
1
60
0
100
AcDbLine
10
76.5
20
3.229283
30
0
11
76.5
21
34.563025
31
0
39
0
210
0
220
0
230
1
0
LINE
5
1E7
100
AcDbEntity
8
0
62
256
6
ByLayer
370
-2
48
1
60
0
100
AcDbLine
10
76.5
20
6.729283
30
0
11
76.5
21
10.229283
31
0
39
0
210
0
220
0
230
1
0
LINE
5
1E8
100
AcDbEntity
8
0
62
256
6
ByLayer
370
-2
48
1
60
0
100
AcDbLine
10
76.5
20
-6.729283
30
0
11
76.5
21
-10.229283
31
0
39
0
210
0
220
0
230
1
0
SOLID
5
1E9
100
AcDbEntity
8
0
62
256
6
ByLayer
370
-1
48
1
60
0
100
AcDbTrace
10
75.916667
20
6.729283
30
0
11
77.083333
21
6.729283
31
0
12
76.5
22
3.229283
32
0
13
76.5
23
3.229283
33
0
39
0
210
0
220
0
230
1
0
SOLID
5
1EA
100
AcDbEntity
8
0
62
256
6
ByLayer
370
-1
48
1
60
0
100
AcDbTrace
10
77.083333
20
-6.729283
30
0
11
75.916667
21
-6.729283
31
0
12
76.5
22
-3.229283
32
0
13
76.5
23
-3.229283
33
0
39
0
210
0
220
0
230
1
0
MTEXT
5
1EB
100
AcDbEntity
8
0
62
256
6
ByLayer
370
18
48
1
60
0
100
AcDbMText
10
70.5
20
24.205882
30
0
210
0
220
0
230
1
1
\A1;6.459
40
3
41
0
44
1
50
90
71
5
72
5
7
iso_b_vert
0
POINT
5
1EC
100
AcDbEntity
8
Defpoints
62
0
6
ByLayer
370
-1
48
1
60
0
100
AcDbPoint
10
57
20
3.229283
30
0
39
0
210
0
220
0
230
1
50
360
0
POINT
5
1ED
100
AcDbEntity
8
Defpoints
62
0
6
ByLayer
370
-1
48
1
60
0
100
AcDbPoint
10
57
20
-3.229283
30
0
39
0
210
0
220
0
230
1
50
360
0
POINT
5
1EE
100
AcDbEntity
8
Defpoints
62
0
6
ByLayer
370
-1
48
1
60
0
100
AcDbPoint
10
76.5
20
-3.229283
30
0
39
0
210
0
220
0
230
1
50
360
0
ENDBLK
5
1E3
100
AcDbEntity
8
0
100
AcDbBlockEnd
0
BLOCK
5
1F6
100
AcDbEntity
8
0
100
AcDbBlockBegin
2
_U0
70
0
10
0
20
0
30
0
3
_U0
0
MTEXT
5
1F0
100
AcDbEntity
8
2
62
256
6
ByLayer
370
18
48
1
60
0
100
AcDbMText
10
75.908886
20
13.364283
30
0
210
0
220
0
230
1
1
\W0.7278;UNC 1/4-20
40
3
41
0
44
1.084337
50
90
71
7
72
5
7
iso_b_vert
0
LINE
5
1F1
100
AcDbEntity
8
2
62
256
6
ByLayer
370
13
48
1
60
0
100
AcDbLine
10
58.5875
20
3.229283
30
0
11
78.5
21
3.229283
31
0
39
0
210
0
220
0
230
1
0
LINE
5
1F2
100
AcDbEntity
8
2
62
256
6
ByLayer
370
13
48
1
60
0
100
AcDbLine
10
58.5875
20
-3.229283
30
0
11
78.5
21
-3.229283
31
0
39
0
210
0
220
0
230
1
0
LINE
5
1F3
100
AcDbEntity
8
2
62
256
6
ByLayer
370
13
48
1
60
0
100
AcDbLine
10
76.5
20
-10.729283
30
0
11
76.5
21
35.18248
31
0
39
0
210
0
220
0
230
1
0
SOLID
5
1F4
100
AcDbEntity
8
2
62
256
6
ByLayer
370
18
48
1
60
0
100
AcDbTrace
10
76.5
20
3.229283
30
0
11
76.039216
21
6.729282
31
0
12
76.960784
22
6.729285
32
0
13
76.960784
23
6.729285
33
0
39
0
210
0
220
0
230
1
0
SOLID
5
1F5
100
AcDbEntity
8
2
62
256
6
ByLayer
370
18
48
1
60
0
100
AcDbTrace
10
76.5
20
-3.229283
30
0
11
76.960784
21
-6.729282
31
0
12
76.039216
22
-6.729285
32
0
13
76.039216
23
-6.729285
33
0
39
0
210
0
220
0
230
1
0
ENDBLK
5
1F7
100
AcDbEntity
8
0
100
AcDbBlockEnd
0
BLOCK
5
1FC
100
AcDbEntity
8
0
100
AcDbBlockBegin
2
*D3
70
1
10
0
20
0
30
0
3
*D3
0
LINE
5
1FE
100
AcDbEntity
8
0
62
256
6
ByLayer
370
-2
48
1
60
0
100
AcDbLine
10
57
20
4.816783
30
0
11
57
21
14.147375
31
0
39
0
210
0
220
0
230
1
0
LINE
5
1FF
100
AcDbEntity
8
0
62
256
6
ByLayer
370
-2
48
1
60
0
100
AcDbLine
10
53.51
20
1.5875
30
0
11
53.51
21
14.147375
31
0
39
0
210
0
220
0
230
1
0
LINE
5
200
100
AcDbEntity
8
0
62
256
6
ByLayer
370
-2
48
1
60
0
100
AcDbLine
10
60.5
20
12.147375
30
0
11
64
21
12.147375
31
0
39
0
210
0
220
0
230
1
0
LINE
5
201
100
AcDbEntity
8
0
62
256
6
ByLayer
370
-2
48
1
60
0
100
AcDbLine
10
50.01
20
12.147375
30
0
11
46.51
21
12.147375
31
0
39
0
210
0
220
0
230
1
0
SOLID
5
202
100
AcDbEntity
8
0
62
256
6
ByLayer
370
-1
48
1
60
0
100
AcDbTrace
10
60.5
20
12.730708
30
0
11
60.5
21
11.564041
31
0
12
57
22
12.147375
32
0
13
57
23
12.147375
33
0
39
0
210
0
220
0
230
1
0
SOLID
5
203
100
AcDbEntity
8
0
62
256
6
ByLayer
370
-1
48
1
60
0
100
AcDbTrace
10
50.01
20
11.564041
30
0
11
50.01
21
12.730708
31
0
12
53.51
22
12.147375
32
0
13
53.51
23
12.147375
33
0
39
0
210
0
220
0
230
1
0
MTEXT
5
204
100
AcDbEntity
8
0
62
256
6
ByLayer
370
18
48
1
60
0
100
AcDbMText
10
55.255
20
18.147375
30
0
210
0
220
0
230
1
1
\A1;3.49
40
3
41
0
44
1
50
0
71
5
72
5
7
iso_b_vert
0
POINT
5
205
100
AcDbEntity
8
Defpoints
62
0
6
ByLayer
370
-1
48
1
60
0
100
AcDbPoint
10
57
20
3.229283
30
0
39
0
210
0
220
0
230
1
50
360
0
POINT
5
206
100
AcDbEntity
8
Defpoints
62
0
6
ByLayer
370
-1
48
1
60
0
100
AcDbPoint
10
53.51
20
0
30
0
39
0
210
0
220
0
230
1
50
360
0
POINT
5
207
100
AcDbEntity
8
Defpoints
62
0
6
ByLayer
370
-1
48
1
60
0
100
AcDbPoint
10
53.51
20
12.147375
30
0
39
0
210
0
220
0
230
1
50
360
0
ENDBLK
5
1FD
100
AcDbEntity
8
0
100
AcDbBlockEnd
0
BLOCK
5
210
100
AcDbEntity
8
0
100
AcDbBlockBegin
2
_U1
70
0
10
0
20
0
30
0
3
_U1
0
MTEXT
5
209
100
AcDbEntity
8
SK2
62
256
6
ByLayer
370
18
48
1
60
0
100
AcDbMText
10
51.762101
20
12.930008
30
0
210
0
220
0
230
1
1
\W0.6474;'C'
40
3.5
41
0
44
1.084337
50
0
71
7
72
5
7
iso_b_vert
0
MTEXT
5
20A
100
AcDbEntity
8
SK2
62
256
6
ByLayer
370
18
48
1
60
0
100
AcDbMText
10
51.735601
20
20.032489
30
0
210
0
220
0
230
1
1
\W0.7756;3.49
40
3
41
0
44
1.084337
50
0
71
7
72
5
7
iso_b_vert
0
LINE
5
20B
100
AcDbEntity
8
SK2
62
256
6
ByLayer
370
13
48
1
60
0
100
AcDbLine
10
57
20
4.816783
30
0
11
57
21
14.147375
31
0
39
0
210
0
220
0
230
1
0
LINE
5
20C
100
AcDbEntity
8
SK2
62
256
6
ByLayer
370
13
48
1
60
0
100
AcDbLine
10
53.51
20
1.5875
30
0
11
53.51
21
14.147375
31
0
39
0
210
0
220
0
230
1
0
LINE
5
20D
100
AcDbEntity
8
SK2
62
256
6
ByLayer
370
13
48
1
60
0
100
AcDbLine
10
64.5
20
12.147375
30
0
11
46.01
21
12.147375
31
0
39
0
210
0
220
0
230
1
0
SOLID
5
20E
100
AcDbEntity
8
SK2
62
256
6
ByLayer
370
18
48
1
60
0
100
AcDbTrace
10
57
20
12.147375
30
0
11
60.499998
21
12.608158
31
0
12
60.500002
22
11.686591
32
0
13
60.500002
23
11.686591
33
0
39
0
210
0
220
0
230
1
0
SOLID
5
20F
100
AcDbEntity
8
SK2
62
256
6
ByLayer
370
18
48
1
60
0
100
AcDbTrace
10
53.51
20
12.147375
30
0
11
50.010002
21
11.686591
31
0
12
50.009998
22
12.608158
32
0
13
50.009998
23
12.608158
33
0
39
0
210
0
220
0
230
1
0
ENDBLK
5
211
100
AcDbEntity
8
0
100
AcDbBlockEnd
0
BLOCK
5
216
100
AcDbEntity
8
0
100
AcDbBlockBegin
2
*D5
70
1
10
0
20
0
30
0
3
*D5
0
LINE
5
218
100
AcDbEntity
8
0
62
256
6
ByLayer
370
-2
48
1
60
0
100
AcDbLine
10
57
20
-4.816783
30
0
11
57
21
-12.229283
31
0
39
0
210
0
220
0
230
1
0
LINE
5
219
100
AcDbEntity
8
0
62
256
6
ByLayer
370
-2
48
1
60
0
100
AcDbLine
10
47
20
-4.816783
30
0
11
47
21
-12.229283
31
0
39
0
210
0
220
0
230
1
0
LINE
5
21A
100
AcDbEntity
8
0
62
256
6
ByLayer
370
-2
48
1
60
0
100
AcDbLine
10
57
20
-10.229283
30
0
11
77.428571
21
-10.229283
31
0
39
0
210
0
220
0
230
1
0
LINE
5
21B
100
AcDbEntity
8
0
62
256
6
ByLayer
370
-2
48
1
60
0
100
AcDbLine
10
60.5
20
-10.229283
30
0
11
64
21
-10.229283
31
0
39
0
210
0
220
0
230
1
0
LINE
5
21C
100
AcDbEntity
8
0
62
256
6
ByLayer
370
-2
48
1
60
0
100
AcDbLine
10
43.5
20
-10.229283
30
0
11
40
21
-10.229283
31
0
39
0
210
0
220
0
230
1
0
SOLID
5
21D
100
AcDbEntity
8
0
62
256
6
ByLayer
370
-1
48
1
60
0
100
AcDbTrace
10
60.5
20
-9.64595
30
0
11
60.5
21
-10.812617
31
0
12
57
22
-10.229283
32
0
13
57
23
-10.229283
33
0
39
0
210
0
220
0
230
1
0
SOLID
5
21E
100
AcDbEntity
8
0
62
256
6
ByLayer
370
-1
48
1
60
0
100
AcDbTrace
10
43.5
20
-10.812617
30
0
11
43.5
21
-9.64595
31
0
12
47
22
-10.229283
32
0
13
47
23
-10.229283
33
0
39
0
210
0
220
0
230
1
0
MTEXT
5
21F
100
AcDbEntity
8
0
62
256
6
ByLayer
370
18
48
1
60
0
100
AcDbMText
10
70.714286
20
-4.229283
30
0
210
0
220
0
230
1
1
\A1;10
40
3
41
0
44
1
50
0
71
5
72
5
7
iso_b_vert
0
POINT
5
220
100
AcDbEntity
8
Defpoints
62
0
6
ByLayer
370
-1
48
1
60
0
100
AcDbPoint
10
57
20
-3.229283
30
0
39
0
210
0
220
0
230
1
50
360
0
POINT
5
221
100
AcDbEntity
8
Defpoints
62
0
6
ByLayer
370
-1
48
1
60
0
100
AcDbPoint
10
47
20
-3.229283
30
0
39
0
210
0
220
0
230
1
50
360
0
POINT
5
222
100
AcDbEntity
8
Defpoints
62
0
6
ByLayer
370
-1
48
1
60
0
100
AcDbPoint
10
47
20
-10.229283
30
0
39
0
210
0
220
0
230
1
50
360
0
ENDBLK
5
217
100
AcDbEntity
8
0
100
AcDbBlockEnd
0
BLOCK
5
22B
100
AcDbEntity
8
0
100
AcDbBlockBegin
2
_U2
70
0
10
0
20
0
30
0
3
_U2
0
MTEXT
5
224
100
AcDbEntity
8
SK2
62
256
6
ByLayer
370
18
48
1
60
0
100
AcDbMText
10
63.159
20
-9.344169
30
0
210
0
220
0
230
1
1
\W0.5321;10
40
3
41
0
44
1.084337
50
0
71
7
72
5
7
iso_b_vert
0
MTEXT
5
225
100
AcDbEntity
8
SK2
62
256
6
ByLayer
370
18
48
1
60
0
100
AcDbMText
10
68.466271
20
-8.991688
30
0
210
0
220
0
230
1
1
\W0.8315;\W0.4158;%%p\W0.8315;0.5
40
2.5
41
0
44
1.084337
50
0
71
7
72
5
7
iso_b_vert
0
LINE
5
226
100
AcDbEntity
8
SK2
62
256
6
ByLayer
370
13
48
1
60
0
100
AcDbLine
10
57
20
-4.816783
30
0
11
57
21
-12.229283
31
0
39
0
210
0
220
0
230
1
0
LINE
5
227
100
AcDbEntity
8
SK2
62
256
6
ByLayer
370
13
48
1
60
0
100
AcDbLine
10
47
20
-4.816783
30
0
11
47
21
-12.229283
31
0
39
0
210
0
220
0
230
1
0
LINE
5
228
100
AcDbEntity
8
SK2
62
256
6
ByLayer
370
13
48
1
60
0
100
AcDbLine
10
47
20
-10.229283
30
0
11
75.583008
21
-10.229283
31
0
39
0
210
0
220
0
230
1
0
SOLID
5
229
100
AcDbEntity
8
SK2
62
256
6
ByLayer
370
18
48
1
60
0
100
AcDbTrace
10
57
20
-10.229283
30
0
11
53.500002
21
-10.690067
31
0
12
53.499998
22
-9.7685
32
0
13
53.499998
23
-9.7685
33
0
39
0
210
0
220
0
230
1
0
SOLID
5
22A
100
AcDbEntity
8
SK2
62
256
6
ByLayer
370
18
48
1
60
0
100
AcDbTrace
10
47
20
-10.229283
30
0
11
50.499998
21
-9.7685
31
0
12
50.500002
22
-10.690067
32
0
13
50.500002
23
-10.690067
33
0
39
0
210
0
220
0
230
1
0
ENDBLK
5
22C
100
AcDbEntity
8
0
100
AcDbBlockEnd
0
BLOCK
5
231
100
AcDbEntity
8
0
100
AcDbBlockBegin
2
*D7
70
1
10
0
20
0
30
0
3
*D7
0
LINE
5
233
100
AcDbEntity
8
0
62
256
6
ByLayer
370
-2
48
1
60
0
100
AcDbLine
10
57
20
-4.816783
30
0
11
57
21
-34.729283
31
0
39
0
210
0
220
0
230
1
0
LINE
5
234
100
AcDbEntity
8
0
62
256
6
ByLayer
370
-2
48
1
60
0
100
AcDbLine
10
27
20
-3.8625
30
0
11
27
21
-34.729283
31
0
39
0
210
0
220
0
230
1
0
LINE
5
235
100
AcDbEntity
8
0
62
256
6
ByLayer
370
-2
48
1
60
0
100
AcDbLine
10
53.5
20
-32.729283
30
0
11
30.5
21
-32.729283
31
0
39
0
210
0
220
0
230
1
0
SOLID
5
236
100
AcDbEntity
8
0
62
256
6
ByLayer
370
-1
48
1
60
0
100
AcDbTrace
10
53.5
20
-33.312617
30
0
11
53.5
21
-32.14595
31
0
12
57
22
-32.729283
32
0
13
57
23
-32.729283
33
0
39
0
210
0
220
0
230
1
0
SOLID
5
237
100
AcDbEntity
8
0
62
256
6
ByLayer
370
-1
48
1
60
0
100
AcDbTrace
10
30.5
20
-32.14595
30
0
11
30.5
21
-33.312617
31
0
12
27
22
-32.729283
32
0
13
27
23
-32.729283
33
0
39
0
210
0
220
0
230
1
0
MTEXT
5
238
100
AcDbEntity
8
0
62
256
6
ByLayer
370
18
48
1
60
0
100
AcDbMText
10
42
20
-26.729283
30
0
210
0
220
0
230
1
1
\A1;30
40
3
41
0
44
1
50
0
71
5
72
5
7
iso_b_vert
0
POINT
5
239
100
AcDbEntity
8
Defpoints
62
0
6
ByLayer
370
-1
48
1
60
0
100
AcDbPoint
10
57
20
-3.229283
30
0
39
0
210
0
220
0
230
1
50
360
0
POINT
5
23A
100
AcDbEntity
8
Defpoints
62
0
6
ByLayer
370
-1
48
1
60
0
100
AcDbPoint
10
27
20
-2.275
30
0
39
0
210
0
220
0
230
1
50
360
0
POINT
5
23B
100
AcDbEntity
8
Defpoints
62
0
6
ByLayer
370
-1
48
1
60
0
100
AcDbPoint
10
27
20
-32.729283
30
0
39
0
210
0
220
0
230
1
50
360
0
ENDBLK
5
232
100
AcDbEntity
8
0
100
AcDbBlockEnd
0
BLOCK
5
243
100
AcDbEntity
8
0
100
AcDbBlockBegin
2
_U3
70
0
10
0
20
0
30
0
3
_U3
0
MTEXT
5
23D
100
AcDbEntity
8
SK2
62
256
6
ByLayer
370
18
48
1
60
0
100
AcDbMText
10
40.367172
20
-31.844169
30
0
210
0
220
0
230
1
1
\W0.6740;30
40
3
41
0
44
1.084337
50
0
71
7
72
5
7
iso_b_vert
0
LINE
5
23E
100
AcDbEntity
8
SK2
62
256
6
ByLayer
370
13
48
1
60
0
100
AcDbLine
10
57
20
-4.816783
30
0
11
57
21
-34.729283
31
0
39
0
210
0
220
0
230
1
0
LINE
5
23F
100
AcDbEntity
8
SK2
62
256
6
ByLayer
370
13
48
1
60
0
100
AcDbLine
10
27
20
-3.8625
30
0
11
27
21
-34.729283
31
0
39
0
210
0
220
0
230
1
0
LINE
5
240
100
AcDbEntity
8
SK2
62
256
6
ByLayer
370
13
48
1
60
0
100
AcDbLine
10
57
20
-32.729283
30
0
11
27
21
-32.729283
31
0
39
0
210
0
220
0
230
1
0
SOLID
5
241
100
AcDbEntity
8
SK2
62
256
6
ByLayer
370
18
48
1
60
0
100
AcDbTrace
10
57
20
-32.729283
30
0
11
53.500002
21
-33.190067
31
0
12
53.499998
22
-32.2685
32
0
13
53.499998
23
-32.2685
33
0
39
0
210
0
220
0
230
1
0
SOLID
5
242
100
AcDbEntity
8
SK2
62
256
6
ByLayer
370
18
48
1
60
0
100
AcDbTrace
10
27
20
-32.729283
30
0
11
30.499998
21
-32.2685
31
0
12
30.500002
22
-33.190067
32
0
13
30.500002
23
-33.190067
33
0
39
0
210
0
220
0
230
1
0
ENDBLK
5
244
100
AcDbEntity
8
0
100
AcDbBlockEnd
0
BLOCK
5
249
100
AcDbEntity
8
0
100
AcDbBlockBegin
2
*D9
70
1
10
0
20
0
30
0
3
*D9
0
LINE
5
24B
100
AcDbEntity
8
0
62
256
6
ByLayer
370
-2
48
1
60
0
100
AcDbLine
10
57
20
-4.816783
30
0
11
57
21
-23.729283
31
0
39
0
210
0
220
0
230
1
0
LINE
5
24C
100
AcDbEntity
8
0
62
256
6
ByLayer
370
-2
48
1
60
0
100
AcDbLine
10
31.5
20
-1.5875
30
0
11
31.5
21
-23.729283
31
0
39
0
210
0
220
0
230
1
0
LINE
5
24D
100
AcDbEntity
8
0
62
256
6
ByLayer
370
-2
48
1
60
0
100
AcDbLine
10
53.5
20
-21.729283
30
0
11
35
21
-21.729283
31
0
39
0
210
0
220
0
230
1
0
SOLID
5
24E
100
AcDbEntity
8
0
62
256
6
ByLayer
370
-1
48
1
60
0
100
AcDbTrace
10
53.5
20
-22.312617
30
0
11
53.5
21
-21.14595
31
0
12
57
22
-21.729283
32
0
13
57
23
-21.729283
33
0
39
0
210
0
220
0
230
1
0
SOLID
5
24F
100
AcDbEntity
8
0
62
256
6
ByLayer
370
-1
48
1
60
0
100
AcDbTrace
10
35
20
-21.14595
30
0
11
35
21
-22.312617
31
0
12
31.5
22
-21.729283
32
0
13
31.5
23
-21.729283
33
0
39
0
210
0
220
0
230
1
0
MTEXT
5
250
100
AcDbEntity
8
0
62
256
6
ByLayer
370
18
48
1
60
0
100
AcDbMText
10
44.25
20
-15.729283
30
0
210
0
220
0
230
1
1
\A1;25.5
40
3
41
0
44
1
50
0
71
5
72
5
7
iso_b_vert
0
POINT
5
251
100
AcDbEntity
8
Defpoints
62
0
6
ByLayer
370
-1
48
1
60
0
100
AcDbPoint
10
57
20
-3.229283
30
0
39
0
210
0
220
0
230
1
50
360
0
POINT
5
252
100
AcDbEntity
8
Defpoints
62
0
6
ByLayer
370
-1
48
1
60
0
100
AcDbPoint
10
31.5
20
0
30
0
39
0
210
0
220
0
230
1
50
360
0
POINT
5
253
100
AcDbEntity
8
Defpoints
62
0
6
ByLayer
370
-1
48
1
60
0
100
AcDbPoint
10
31.5
20
-21.729283
30
0
39
0
210
0
220
0
230
1
50
360
0
ENDBLK
5
24A
100
AcDbEntity
8
0
100
AcDbBlockEnd
0
BLOCK
5
25B
100
AcDbEntity
8
0
100
AcDbBlockBegin
2
_U4
70
0
10
0
20
0
30
0
3
_U4
0
MTEXT
5
255
100
AcDbEntity
8
2
62
256
6
ByLayer
370
18
48
1
60
0
100
AcDbMText
10
40.888544
20
-20.844169
30
0
210
0
220
0
230
1
1
\W0.7346;25.5
40
3
41
0
44
1.084337
50
0
71
7
72
5
7
iso_b_vert
0
LINE
5
256
100
AcDbEntity
8
2
62
256
6
ByLayer
370
13
48
1
60
0
100
AcDbLine
10
57
20
-4.816783
30
0
11
57
21
-23.729283
31
0
39
0
210
0
220
0
230
1
0
LINE
5
257
100
AcDbEntity
8
2
62
256
6
ByLayer
370
13
48
1
60
0
100
AcDbLine
10
31.5
20
-1.5875
30
0
11
31.5
21
-23.729283
31
0
39
0
210
0
220
0
230
1
0
LINE
5
258
100
AcDbEntity
8
2
62
256
6
ByLayer
370
13
48
1
60
0
100
AcDbLine
10
57
20
-21.729283
30
0
11
31.5
21
-21.729283
31
0
39
0
210
0
220
0
230
1
0
SOLID
5
259
100
AcDbEntity
8
2
62
256
6
ByLayer
370
18
48
1
60
0
100
AcDbTrace
10
57
20
-21.729283
30
0
11
53.500002
21
-22.190067
31
0
12
53.499998
22
-21.2685
32
0
13
53.499998
23
-21.2685
33
0
39
0
210
0
220
0
230
1
0
SOLID
5
25A
100
AcDbEntity
8
2
62
256
6
ByLayer
370
18
48
1
60
0
100
AcDbTrace
10
31.5
20
-21.729283
30
0
11
34.999998
21
-21.2685
31
0
12
35.000002
22
-22.190067
32
0
13
35.000002
23
-22.190067
33
0
39
0
210
0
220
0
230
1
0
ENDBLK
5
25C
100
AcDbEntity
8
0
100
AcDbBlockEnd
0
ENDSEC
0
SECTION
2
ENTITIES
0
ARC
5
CB
100
AcDbEntity
8
SK1
62
256
6
ByLayer
370
18
48
1
60
0
100
AcDbCircle
39
0
10
-17.45
20
0
30
0
40
2.87999999999977
210
0
220
0
230
1
100
AcDbArc
50
328.287282
51
31.712718
0
ARC
5
CC
100
AcDbEntity
8
1
62
256
6
ByLayer
370
18
48
1
60
0
100
AcDbCircle
39
0
10
44.995786
20
3.175
30
0
40
0.9
210
0
220
0
230
1
100
AcDbArc
50
270
51
284.122252
0
ARC
5
CD
100
AcDbEntity
8
1
62
256
6
ByLayer
370
18
48
1
60
0
100
AcDbCircle
39
0
10
27.096238
20
-3.375
30
0
40
1.1
210
0
220
0
230
1
100
AcDbArc
50
90
51
100
0
ARC
5
CE
100
AcDbEntity
8
1
62
256
6
ByLayer
370
18
48
1
60
0
100
AcDbCircle
39
0
10
27.096238
20
3.375
30
0
40
1.1
210
0
220
0
230
1
100
AcDbArc
50
260
51
270
0
POINT
5
70
100
AcDbEntity
8
80
62
256
6
ByLayer
370
18
48
1
60
0
100
AcDbPoint
10
0
20
0
30
0
39
0
210
0
220
0
230
1
50
360
0
POINT
5
72
100
AcDbEntity
8
81
62
256
6
ByLayer
370
18
48
1
60
0
100
AcDbPoint
10
58.55
20
0
30
0
39
0
210
0
220
0
230
1
50
360
0
POINT
5
74
100
AcDbEntity
8
1
62
256
6
ByLayer
370
18
48
1
60
1
100
AcDbPoint
10
57
20
3.229283
30
0
39
0
210
0
220
0
230
1
50
360
0
POINT
5
76
100
AcDbEntity
8
1
62
256
6
ByLayer
370
18
48
1
60
1
100
AcDbPoint
10
57
20
-3.229283
30
0
39
0
210
0
220
0
230
1
50
360
0
POINT
5
77
100
AcDbEntity
8
1
62
256
6
ByLayer
370
18
48
1
60
1
100
AcDbPoint
10
57
20
3.229283
30
0
39
0
210
0
220
0
230
1
50
360
0
POINT
5
78
100
AcDbEntity
8
1
62
256
6
ByLayer
370
18
48
1
60
1
100
AcDbPoint
10
53.51
20
0
30
0
39
0
210
0
220
0
230
1
50
360
0
POINT
5
79
100
AcDbEntity
8
1
62
256
6
ByLayer
370
18
48
1
60
1
100
AcDbPoint
10
57
20
-3.229283
30
0
39
0
210
0
220
0
230
1
50
360
0
POINT
5
7A
100
AcDbEntity
8
1
62
256
6
ByLayer
370
18
48
1
60
1
100
AcDbPoint
10
47
20
-3.229283
30
0
39
0
210
0
220
0
230
1
50
360
0
POINT
5
7B
100
AcDbEntity
8
1
62
256
6
ByLayer
370
18
48
1
60
1
100
AcDbPoint
10
57
20
-3.229283
30
0
39
0
210
0
220
0
230
1
50
360
0
POINT
5
7C
100
AcDbEntity
8
1
62
256
6
ByLayer
370
18
48
1
60
1
100
AcDbPoint
10
27
20
-2.275
30
0
39
0
210
0
220
0
230
1
50
360
0
POINT
5
7D
100
AcDbEntity
8
1
62
256
6
ByLayer
370
18
48
1
60
1
100
AcDbPoint
10
57
20
-3.229283
30
0
39
0
210
0
220
0
230
1
50
360
0
POINT
5
7E
100
AcDbEntity
8
1
62
256
6
ByLayer
370
18
48
1
60
1
100
AcDbPoint
10
31.5
20
0
30
0
39
0
210
0
220
0
230
1
50
360
0
SPLINE
5
CF
100
AcDbEntity
8
1
62
256
6
ByLayer
370
18
48
1
60
0
100
AcDbSpline
70
4
71
3
72
10
73
6
40
0
40
0
40
0
40
0
40
0.453109898295008
40
0.453109898295008
40
1
40
1
40
1
40
1
41
1
10
56.3693719512851
20
2.45112919975861
30
0
41
1
10
56.3717998041447
20
2.45629209371978
30
0
41
1
10
56.3742394889848
20
2.46090428391526
30
0
41
1
10
56.379644097933
20
2.46983638636223
30
0
41
1
10
56.3826038635756
20
2.47388424996521
30
0
41
1
10
56.385567906823
20
2.47709523298411
30
0
0
SPLINE
5
D0
100
AcDbEntity
8
1
62
256
6
ByLayer
370
13
48
1
60
0
100
AcDbSpline
70
4
71
3
72
9
73
5
40
0
40
0
40
0
40
0
40
0.406570431346528
40
1
40
1
40
1
40
1
41
1
10
55.4949294716057
20
-2.48764918362829
30
0
41
1
10
55.4912050103079
20
-2.49402360452609
30
0
41
1
10
55.4820443425328
20
-2.50657985402907
30
0
41
1
10
55.4728837193975
20
-2.51135800701255
30
0
41
1
10
55.4674475332911
20
-2.5114669384119
30
0
0
SPLINE
5
D1
100
AcDbEntity
8
1
62
256
6
ByLayer
370
18
48
1
60
0
100
AcDbSpline
70
4
71
3
72
8
73
4
40
0
40
0
40
0
40
0
40
1
40
1
40
1
40
1
41
1
10
48.1375641139268
20
-2.48713589956526
30
0
41
1
10
48.1397229903417
20
-2.49083142451923
30
0
41
1
10
48.1418818666816
20
-2.49410311452076
30
0
41
1
10
48.1440407429872
20
-2.49695056339689
30
0
0
SPLINE
5
D2
100
AcDbEntity
8
1
62
256
6
ByLayer
370
18
48
1
60
0
100
AcDbSpline
70
4
71
3
72
11
73
7
40
0
40
0
40
0
40
0
40
0.54218705310708
40
0.864348539715933
40
0.864348539715933
40
1
40
1
40
1
40
1
41
1
10
55.3788046507881
20
-2.68630622964477
30
0
41
1
10
55.3760045382058
20
-2.69129484521955
30
0
41
1
10
55.3715285718767
20
-2.69813270335646
30
0
41
1
10
55.3670318146932
20
-2.70315569820553
30
0
41
1
10
55.3646461498006
20
-2.7054524170276
30
0
41
1
10
55.3639386714838
20
-2.70608755713391
30
0
41
1
10
55.3632312178405
20
-2.70667674272724
30
0
0
SPLINE
5
D3
100
AcDbEntity
8
1
62
256
6
ByLayer
370
18
48
1
60
0
100
AcDbSpline
70
4
71
3
72
8
73
4
40
0
40
0
40
0
40
0
40
1
40
1
40
1
40
1
41
1
10
55.3518488857474
20
-2.71216500802689
30
0
41
1
10
55.3479993450469
20
-2.71266086409076
30
0
41
1
10
55.3441676764466
20
-2.7117627113488
30
0
41
1
10
55.3403519107306
20
-2.70947452550456
30
0
0
SPLINE
5
D4
100
AcDbEntity
8
1
62
256
6
ByLayer
370
18
48
1
60
0
100
AcDbSpline
70
4
71
3
72
8
73
4
40
0
40
0
40
0
40
0
40
1
40
1
40
1
40
1
41
1
10
54.6716942836487
20
-2.77404218986274
30
0
41
1
10
54.6815123935334
20
-2.81102119390502
30
0
41
1
10
54.6913403564872
20
-2.83777867626705
30
0
41
1
10
54.7011414510384
20
-2.85411472309622
30
0
0
SPLINE
5
D5
100
AcDbEntity
8
1
62
256
6
ByLayer
370
13
48
1
60
0
100
AcDbSpline
70
4
71
3
72
9
73
5
40
0
40
0
40
0
40
0
40
0.987288544619196
40
1
40
1
40
1
40
1
41
1
10
50.0427344507817
20
2.48734119600283
30
0
41
1
10
50.0562959862016
20
2.51059271488438
30
0
41
1
10
50.0700321304993
20
2.51728663523923
30
0
41
1
10
50.083768265222
20
2.50630294551777
30
0
41
1
10
50.0839428714841
20
2.50616047262267
30
0
0
SPLINE
5
D6
100
AcDbEntity
8
1
62
256
6
ByLayer
370
13
48
1
60
0
100
AcDbSpline
70
4
71
3
72
9
73
5
40
0
40
0
40
0
40
0
40
0.727707661596605
40
1
40
1
40
1
40
1
41
1
10
54.4872701603732
20
-2.48684545926486
30
0
41
1
10
54.4789041861627
20
-2.4722790605997
30
0
41
1
10
54.4674078520951
20
-2.44350402906241
30
0
41
1
10
54.4559115377114
20
-2.4029522924103
30
0
41
1
10
54.4527811801124
20
-2.39105085518813
30
0
0
SPLINE
5
D7
100
AcDbEntity
8
1
62
256
6
ByLayer
370
13
48
1
60
0
100
AcDbSpline
70
4
71
3
72
9
73
5
40
0
40
0
40
0
40
0
40
0.340820062275223
40
1
40
1
40
1
40
1
41
1
10
51.0491219726638
20
2.48885614196695
30
0
41
1
10
51.054720582004
20
2.47957898550578
30
0
41
1
10
51.0711474390726
20
2.44400791351916
30
0
41
1
10
51.0875745520886
20
2.38395769044396
30
0
41
1
10
51.0984031187481
20
2.33435325919143
30
0
0
SPLINE
5
D8
100
AcDbEntity
8
1
62
256
6
ByLayer
370
13
48
1
60
0
100
AcDbSpline
70
4
71
3
72
9
73
5
40
0
40
0
40
0
40
0
40
0.0296674578867244
40
1
40
1
40
1
40
1
41
1
10
47.7930269497353
20
-2.4221025706176
30
0
41
1
10
47.7938196932811
20
-2.42470732338455
30
0
41
1
10
47.8205407081471
20
-2.51059095337959
30
0
41
1
10
47.8472629769112
20
-2.53156365025399
30
0
41
1
10
47.8731927784569
20
-2.49036099334268
30
0
0
SPLINE
5
D9
100
AcDbEntity
8
1
62
256
6
ByLayer
370
13
48
1
60
0
100
AcDbSpline
70
4
71
3
72
9
73
5
40
0
40
0
40
0
40
0
40
0.888452839241051
40
1
40
1
40
1
40
1
41
1
10
46.7786295440372
20
-2.10211525813739
30
0
41
1
10
46.804989804271
20
-2.28103446047584
30
0
41
1
10
46.8346597025465
20
-2.4219891020382
30
0
41
1
10
46.8643295626238
20
-2.48175453340323
30
0
41
1
10
46.8676391509228
20
-2.48741327004447
30
0
0
SPLINE
5
DA
100
AcDbEntity
8
1
62
256
6
ByLayer
370
18
48
1
60
0
100
AcDbSpline
70
4
71
3
72
8
73
4
40
0
40
0
40
0
40
0
40
1
40
1
40
1
40
1
41
1
10
54.226947999246
20
-2.48409548269765
30
0
41
1
10
54.2250361889056
20
-2.48759466715487
30
0
41
1
10
54.2231243772405
20
-2.49075868467005
30
0
41
1
10
54.221212564922
20
-2.49358711367384
30
0
0
SPLINE
5
DB
100
AcDbEntity
8
1
62
256
6
ByLayer
370
13
48
1
60
0
100
AcDbSpline
70
4
71
3
72
10
73
6
40
0
40
0
40
0
40
0
40
0.314280658771975
40
0.701304539090192
40
1
40
1
40
1
40
1
41
1
10
54.2212125649221
20
-2.49358711367384
30
0
41
1
10
54.2098919528838
20
-2.51033538290531
30
0
41
1
10
54.1846304153009
20
-2.52145144933186
30
0
41
1
10
54.1486104610082
20
-2.45313414550228
30
0
41
1
10
54.1239095812234
20
-2.35192694553706
30
0
41
1
10
54.1131500168394
20
-2.2980445907844
30
0
0
SPLINE
5
DC
100
AcDbEntity
8
1
62
256
6
ByLayer
370
13
48
1
60
0
100
AcDbSpline
70
4
71
3
72
10
73
6
40
0
40
0
40
0
40
0
40
0.270594752111471
40
0.656347957060707
40
1
40
1
40
1
40
1
41
1
10
53.0984946927256
20
-1.87447666883153
30
0
41
1
10
53.1089703461673
20
-1.96115789150593
30
0
41
1
10
53.1343798403013
20
-2.15325949481459
30
0
41
1
10
53.1730933583824
20
-2.36890536541964
30
0
41
1
10
53.201331115634
20
-2.45685223672552
30
0
41
1
10
53.2146350531953
20
-2.48211639197297
30
0
0
SPLINE
5
DD
100
AcDbEntity
8
1
62
256
6
ByLayer
370
18
48
1
60
0
100
AcDbSpline
70
4
71
3
72
9
73
5
40
0
40
0
40
0
40
0
40
0.952498621142538
40
1
40
1
40
1
40
1
41
1
10
53.2146347529071
20
-2.4821158217234
30
0
41
1
10
53.2162647319523
20
-2.48521117902598
30
0
41
1
10
53.2179759984955
20
-2.48820605553519
30
0
41
1
10
53.2196872650495
20
-2.49093179825701
30
0
41
1
10
53.2197685525705
20
-2.491060667527
30
0
0
SPLINE
5
DE
100
AcDbEntity
8
1
62
256
6
ByLayer
370
18
48
1
60
0
100
AcDbSpline
70
4
71
3
72
23
73
19
40
0
40
0
40
0
40
0
40
0.0379787647552247
40
0.0379787647552247
40
0.125435240686567
40
0.125435240686567
40
0.300348192549252
40
0.300348192549252
40
0.475261144411937
40
0.475261144411937
40
0.562717620343279
40
0.562717620343279
40
0.606445858308951
40
0.606445858308951
40
0.650174096274622
40
0.825087048137311
40
0.825087048137311
40
1
40
1
40
1
40
1
41
1
10
53.8635013527987
20
-3.09443773486814
30
0
41
1
10
53.8619312608021
20
-3.09503107581051
30
0
41
1
10
53.8603626753634
20
-3.0953627298257
30
0
41
1
10
53.855204934179
20
-3.09559295280707
30
0
41
1
10
53.8516358418469
20
-3.09436979841894
30
0
41
1
10
53.8409921423261
20
-3.08662884879573
30
0
41
1
10
53.8339932206428
20
-3.07604222879198
30
0
41
1
10
53.820083773135
20
-3.04429034364733
30
0
41
1
10
53.8131728748366
20
-3.0231239328765
30
0
41
1
10
53.8026451965012
20
-2.98355393567837
30
0
41
1
10
53.7991062213012
20
-2.96906398964927
30
0
41
1
10
53.7937629857839
20
-2.94531390567312
30
0
41
1
10
53.7919739002744
20
-2.9370501345436
30
0
41
1
10
53.7884009779957
20
-2.91991743091691
30
0
41
1
10
53.7794747165179
20
-2.87555420605978
30
0
41
1
10
53.7706012493927
20
-2.82357768508871
30
0
41
1
10
53.7563399365075
20
-2.73086286897234
30
0
41
1
10
53.7491547671519
20
-2.67977298693853
30
0
41
1
10
53.7419160973838
20
-2.62385717314965
30
0
0
SPLINE
5
DF
100
AcDbEntity
8
1
62
256
6
ByLayer
370
18
48
1
60
0
100
AcDbSpline
70
4
71
3
72
22
73
18
40
0
40
0
40
0
40
0
40
0.15469952290691
40
0.15469952290691
40
0.309399045813821
40
0.309399045813821
40
0.464098568720732
40
0.464098568720732
40
0.618798091627642
40
0.618798091627642
40
0.773497614534552
40
0.773497614534552
40
0.850847375988008
40
0.850847375988008
40
0.928197137441464
40
0.928197137441464
40
1
40
1
40
1
40
1
41
1
10
53.4915040364135
20
-2.53133279330569
30
0
41
1
10
53.4981683765037
20
-2.59585496910407
30
0
41
1
10
53.5047456527881
20
-2.65565831826112
30
0
41
1
10
53.5180316075378
20
-2.76607170627602
30
0
41
1
10
53.5247583862752
20
-2.81673438250527
30
0
41
1
10
53.5383375945575
20
-2.90858190289907
30
0
41
1
10
53.545075472076
20
-2.94900719554306
30
0
41
1
10
53.5585371936767
20
-3.01924736792699
30
0
41
1
10
53.5652650456853
20
-3.04908444050165
30
0
41
1
10
53.5788545914602
20
-3.09834309013866
30
0
41
1
10
53.5856926299771
20
-3.1177271555344
30
0
41
1
10
53.5960552061556
20
-3.13854968042719
30
0
41
1
10
53.5995359541716
20
-3.14411854273914
30
0
41
1
10
53.6064538537194
20
-3.15235514296577
30
0
41
1
10
53.6098967097924
20
-3.15504157569379
30
0
41
1
10
53.616500372859
20
-3.15750526118617
30
0
41
1
10
53.6196632260246
20
-3.15747886321259
30
0
41
1
10
53.6228109829613
20
-3.1562495920831
30
0
0
SPLINE
5
E0
100
AcDbEntity
8
1
62
256
6
ByLayer
370
13
48
1
60
0
100
AcDbSpline
70
4
71
3
72
10
73
6
40
0
40
0
40
0
40
0
40
0.0869884357969577
40
0.706258067070988
40
1
40
1
40
1
40
1
41
1
10
46.4387752606917
20
-1.94617285161914
30
0
41
1
10
46.4429707058466
20
-1.97909271482516
30
0
41
1
10
46.4770333398824
20
-2.23611381216943
30
0
41
1
10
46.5252611585048
20
-2.47586500789376
30
0
41
1
10
46.5692969040892
20
-2.51545541978041
30
0
41
1
10
46.5834646050477
20
-2.50985673736133
30
0
0
SPLINE
5
E1
100
AcDbEntity
8
1
62
256
6
ByLayer
370
18
48
1
60
0
100
AcDbSpline
70
4
71
3
72
8
73
4
40
0
40
0
40
0
40
0
40
1
40
1
40
1
40
1
41
1
10
51.3142486277456
20
2.49017807305833
30
0
41
1
10
51.3177537158409
20
2.49586501389848
30
0
41
1
10
51.3212588032304
20
2.50043097039983
30
0
41
1
10
51.3247638886157
20
2.50386592571672
30
0
0
SPLINE
5
E2
100
AcDbEntity
8
1
62
256
6
ByLayer
370
13
48
1
60
0
100
AcDbSpline
70
4
71
3
72
12
73
8
40
0
40
0
40
0
40
0
40
0.115379728285307
40
0.312715473873981
40
0.510051219462656
40
0.904722710640006
40
1
40
1
40
1
40
1
41
1
10
51.3247638886157
20
2.50386592571675
30
0
41
1
10
51.3291297058374
20
2.50814439126879
30
0
41
1
10
51.3409624397963
20
2.51498465717452
30
0
41
1
10
51.3602620262921
20
2.50488617075689
30
0
41
1
10
51.390129764214
20
2.44856902527457
30
0
41
1
10
51.4161356203882
20
2.34665753316955
30
0
41
1
10
51.4346746301488
20
2.24516281337392
30
0
41
1
10
51.4382797972411
20
2.22436621997645
30
0
0
SPLINE
5
E3
100
AcDbEntity
8
1
62
256
6
ByLayer
370
18
48
1
60
0
100
AcDbSpline
70
4
71
3
72
29
73
25
40
0
40
0
40
0
40
0
40
0.0312500000000003
40
0.0312500000000003
40
0.0625000000000006
40
0.0625000000000006
40
0.125000000000001
40
0.125000000000001
40
0.250000000000003
40
0.250000000000003
40
0.375000000000004
40
0.375000000000004
40
0.437500000000004
40
0.437500000000004
40
0.500000000000004
40
0.500000000000004
40
0.625000000000003
40
0.750000000000002
40
0.750000000000002
40
0.875000000000002
40
0.875000000000002
40
0.937500000000001
40
0.937500000000001
40
1
40
1
40
1
40
1
41
1
10
46.3342690446195
20
-2.92925743148723
30
0
41
1
10
46.3330793107288
20
-2.92846958964037
30
0
41
1
10
46.3318880510981
20
-2.92740170779811
30
0
41
1
10
46.3295012366975
20
-2.92469928178184
30
0
41
1
10
46.3283040767558
20
-2.92306181030475
30
0
41
1
10
46.3247204469904
20
-2.91731618996403
30
0
41
1
10
46.3223398135443
20
-2.91237651699331
30
0
41
1
10
46.3152046791223
20
-2.89428468254334
30
0
41
1
10
46.3104540949391
20
-2.87786541602858
30
0
41
1
10
46.3008721273361
20
-2.83642102475034
30
0
41
1
10
46.2960529081483
20
-2.81140285198219
30
0
41
1
10
46.2887979838007
20
-2.76738529385304
30
0
41
1
10
46.2863750458185
20
-2.75162906087388
30
0
41
1
10
46.2815190319491
20
-2.71791648941692
30
0
41
1
10
46.279083365379
20
-2.6999397852812
30
0
41
1
10
46.271772411124
20
-2.64276333028619
30
0
41
1
10
46.2621344965168
20
-2.55883359691444
30
0
41
1
10
46.2525998681352
20
-2.4599783558337
30
0
41
1
10
46.2430243820342
20
-2.35366313419686
30
0
41
1
10
46.2382066590899
20
-2.29677145564332
30
0
41
1
10
46.2309059978276
20
-2.20569608479445
30
0
41
1
10
46.228459846552
20
-2.17436168758118
30
0
41
1
10
46.2235476260539
20
-2.10981035549685
30
0
41
1
10
46.2210994587479
20
-2.07682977825641
30
0
41
1
10
46.2186565801472
20
-2.04315836953737
30
0
0
SPLINE
5
E4
100
AcDbEntity
8
1
62
256
6
ByLayer
370
18
48
1
60
0
100
AcDbSpline
70
4
71
3
72
9
73
5
40
0
40
0
40
0
40
0
40
0.223474362947428
40
1
40
1
40
1
40
1
41
1
10
52.3181644801776
20
2.49049896055982
30
0
41
1
10
52.3188961626099
20
2.48932817663851
30
0
41
1
10
52.3221702842053
20
2.48386989898816
30
0
41
1
10
52.325444401305
20
2.47743122567877
30
0
41
1
10
52.3279868337028
20
2.47184482746661
30
0
0
SPLINE
5
E5
100
AcDbEntity
8
1
62
256
6
ByLayer
370
13
48
1
60
0
100
AcDbSpline
70
4
71
3
72
9
73
5
40
0
40
0
40
0
40
0
40
0.297771152406864
40
1
40
1
40
1
40
1
41
1
10
52.3279868337028
20
2.47184482746664
30
0
41
1
10
52.3403782274196
20
2.44461764936469
30
0
41
1
10
52.3819917659238
20
2.30638563851699
30
0
41
1
10
52.423603385377
20
2.01696513532633
30
0
41
1
10
52.4528256144852
20
1.75788341070782
30
0
0
SPLINE
5
E6
100
AcDbEntity
8
1
62
256
6
ByLayer
370
18
48
1
60
0
100
AcDbSpline
70
4
71
3
72
27
73
23
40
0
40
0
40
0
40
0
40
0.0951229481803414
40
0.0951229481803414
40
0.245935790150287
40
0.245935790150287
40
0.321342211135261
40
0.321342211135261
40
0.359045421627747
40
0.359045421627747
40
0.396748632120233
40
0.396748632120233
40
0.547561474090174
40
0.547561474090174
40
0.698374316060115
40
0.698374316060115
40
0.773780737045085
40
0.81148394753757
40
0.81148394753757
40
0.849187158030056
40
0.849187158030056
40
1
40
1
40
1
40
1
41
1
10
51.7549075621796
20
3.22928581254951
30
0
41
1
10
51.7592758505361
20
3.22928160526226
30
0
41
1
10
51.7636572288575
20
3.22697742468338
30
0
41
1
10
51.7750129708003
20
3.21513619493891
30
0
41
1
10
51.7819969468155
20
3.20215428125198
30
0
41
1
10
51.7925400772673
20
3.17396677474267
30
0
41
1
10
51.7960661405604
20
3.16311563922406
30
0
41
1
10
51.8013751052167
20
3.14461183876858
30
0
41
1
10
51.8031503656097
20
3.13806249081529
30
0
41
1
10
51.8066891322651
20
3.12428484934634
30
0
41
1
10
51.8084539104026
20
3.11705318265578
30
0
41
1
10
51.8172563828779
20
3.07920000754137
30
0
41
1
10
51.824226207301
20
3.04350782669121
30
0
41
1
10
51.838121688703
20
2.96157082025519
30
0
41
1
10
51.8450607061051
20
2.91532582814992
30
0
41
1
10
51.8555152384425
20
2.8379869291725
30
0
41
1
10
51.8607509739589
20
2.79732062555587
30
0
41
1
10
51.8660077773895
20
2.7536113803973
30
0
41
1
10
51.8695185572308
20
2.72378767310866
30
0
41
1
10
51.8712795283935
20
2.70851136417153
30
0
41
1
10
51.8800600558134
20
2.63079400355633
30
0
41
1
10
51.8870269546439
20
2.56423393374251
30
0
41
1
10
51.8939904423959
20
2.49343305128716
30
0
0
SPLINE
5
E7
100
AcDbEntity
8
1
62
256
6
ByLayer
370
13
48
1
60
0
100
AcDbSpline
70
4
71
3
72
10
73
6
40
0
40
0
40
0
40
0
40
0.110491041628034
40
0.729502886826116
40
1
40
1
40
1
40
1
41
1
10
45.9873542591207
20
2.44870776423667
30
0
41
1
10
45.9926855246395
20
2.43398916316372
30
0
41
1
10
46.027884343393
20
2.31990597524094
30
0
41
1
10
46.0761334775097
20
2.01237096812594
30
0
41
1
10
46.1190527141595
20
1.61169537484375
30
0
41
1
10
46.1321043890136
20
1.48065497023586
30
0
0
SPLINE
5
E8
100
AcDbEntity
8
1
62
256
6
ByLayer
370
18
48
1
60
0
100
AcDbSpline
70
4
71
3
72
11
73
7
40
0
40
0
40
0
40
0
40
0.072942569266266
40
0.474400385500385
40
0.945306937197848
40
1
40
1
40
1
40
1
41
1
10
57
20
0.098954084360912
30
0
41
1
10
57
20
0.0659220841223487
30
0
41
1
10
57
20
-0.149373129990607
30
0
41
1
10
56.9999999999999
20
-0.581366249992101
30
0
41
1
10
57
20
-0.975201562368966
30
0
41
1
10
57
20
-1.17674594450398
30
0
41
1
10
57
20
-1.19747275676403
30
0
0
SPLINE
5
E9
100
AcDbEntity
8
1
62
256
6
ByLayer
370
18
48
1
60
0
100
AcDbSpline
70
4
71
3
72
10
73
6
40
0
40
0
40
0
40
0
40
0.398921411881599
40
0.79709820084999
40
1
40
1
40
1
40
1
41
1
10
56.7000000373155
20
-1.20336660041417
30
0
41
1
10
56.7000000427915
20
-1.0206611911691
30
0
41
1
10
56.6999999958809
20
-0.628505790576099
30
0
41
1
10
56.6999999370339
20
-0.10204020974038
30
0
41
1
10
56.6999999236786
20
0.212023077683654
30
0
41
1
10
56.6999999208682
20
0.316857406037002
30
0
0
SPLINE
5
EA
100
AcDbEntity
8
1
62
256
6
ByLayer
370
18
48
1
60
0
100
AcDbSpline
70
4
71
3
72
26
73
22
40
0
40
0
40
0
40
0
40
0.125000000000001
40
0.125000000000001
40
0.250000000000002
40
0.250000000000002
40
0.375000000000004
40
0.375000000000004
40
0.500000000000005
40
0.500000000000005
40
0.625000000000006
40
0.625000000000006
40
0.687500000000006
40
0.687500000000006
40
0.750000000000006
40
0.750000000000006
40
0.875000000000004
40
0.875000000000004
40
0.937500000000002
40
0.937500000000002
40
1
40
1
40
1
40
1
41
1
10
56.5433275857296
20
0.443683337725332
30
0
41
1
10
56.5483442187529
20
0.375091532238855
30
0
41
1
10
56.553435796134
20
0.305959635497857
30
0
41
1
10
56.5637083197548
20
0.167034778191379
30
0
41
1
10
56.5689293360558
20
0.0972751709246609
30
0
41
1
10
56.5788766321685
20
-0.0422076946266827
30
0
41
1
10
56.583529685292
20
-0.111836763555942
30
0
41
1
10
56.5924897339505
20
-0.250852499057885
30
0
41
1
10
56.5968268499223
20
-0.320337321780727
30
0
41
1
10
56.6053698429195
20
-0.457962859699904
30
0
41
1
10
56.6095699606873
20
-0.526219971548784
30
0
41
1
10
56.6156509213767
20
-0.627779642458023
30
0
41
1
10
56.6176313484114
20
-0.661503604534317
30
0
41
1
10
56.6215032378303
20
-0.728379318658057
30
0
41
1
10
56.623400149224
20
-0.761568011135921
30
0
41
1
10
56.6290556825501
20
-0.860381771019007
30
0
41
1
10
56.6327925212757
20
-0.92525472281136
30
0
41
1
10
56.6379668641913
20
-1.02110322114368
30
0
41
1
10
56.6396192618166
20
-1.05279712624818
30
0
41
1
10
56.6425641644979
20
-1.11551607964302
30
0
41
1
10
56.643916109848
20
-1.14655815251106
30
0
41
1
10
56.6446420276027
20
-1.17735529122123
30
0
0
SPLINE
5
EB
100
AcDbEntity
8
1
62
256
6
ByLayer
370
13
48
1
60
0
100
AcDbSpline
70
4
71
3
72
11
73
7
40
0
40
0
40
0
40
0
40
0.373087401499
40
0.680844800286935
40
0.98860219907487
40
1
40
1
40
1
40
1
41
1
10
52.7588629599252
20
-1.69054026832211
30
0
41
1
10
52.7769672994294
20
-1.85673974132286
30
0
41
1
10
52.8100062167547
20
-2.12325516238332
30
0
41
1
10
52.8579784816222
20
-2.38560872725796
30
0
41
1
10
52.8884008324909
20
-2.47255994311649
30
0
41
1
10
52.9038867173378
20
-2.49487367046987
30
0
41
1
10
52.9044397534559
20
-2.49564253935816
30
0
0
SPLINE
5
EC
100
AcDbEntity
8
1
62
256
6
ByLayer
370
13
48
1
60
0
100
AcDbSpline
70
4
71
3
72
10
73
6
40
0
40
0
40
0
40
0
40
0.286388708435671
40
0.901970642813563
40
1
40
1
40
1
40
1
41
1
10
51.7441901341637
20
-1.03690199445239
30
0
41
1
10
51.7580855569959
20
-1.19418559392659
30
0
41
1
10
51.8018486867074
20
-1.66655667118931
30
0
41
1
10
51.8503680459989
20
-2.07239483451684
30
0
41
1
10
51.8849920802832
20
-2.26378546970025
30
0
41
1
10
51.8897484116899
20
-2.28817161387693
30
0
0
SPLINE
5
ED
100
AcDbEntity
8
1
62
256
6
ByLayer
370
18
48
1
60
0
100
AcDbSpline
70
4
71
3
72
28
73
24
40
0
40
0
40
0
40
0
40
0.0625000000000013
40
0.0625000000000013
40
0.125000000000003
40
0.125000000000003
40
0.250000000000005
40
0.250000000000005
40
0.312500000000005
40
0.312500000000005
40
0.375000000000005
40
0.375000000000005
40
0.500000000000004
40
0.500000000000004
40
0.625000000000004
40
0.625000000000004
40
0.750000000000003
40
0.750000000000003
40
0.812500000000003
40
0.812500000000003
40
0.875000000000003
40
0.875000000000003
40
1
40
1
40
1
40
1
41
1
10
56.6243695697429
20
-1.16768089164333
30
0
41
1
10
56.6192880966743
20
-1.13594996275435
30
0
41
1
10
56.6147358559343
20
-1.10364507340415
30
0
41
1
10
56.6058970795907
20
-1.03836870074818
30
0
41
1
10
56.6016527668982
20
-1.0053910814645
30
0
41
1
10
56.5891412057912
20
-0.905508033160032
30
0
41
1
10
56.5810886066542
20
-0.837656151602033
30
0
41
1
10
56.5690375440569
20
-0.734054900217444
30
0
41
1
10
56.5650409578294
20
-0.699213510546542
30
0
41
1
10
56.5571303309058
20
-0.628897577264212
30
0
41
1
10
56.5532273418557
20
-0.593462870965027
30
0
41
1
10
56.541699420655
20
-0.487085328973762
30
0
41
1
10
56.5342024951553
20
-0.415797332574755
30
0
41
1
10
56.5193861617647
20
-0.27252230666096
30
0
41
1
10
56.5120611686095
20
-0.200536014760957
30
0
41
1
10
56.4977948959615
20
-0.0558288319659539
30
0
41
1
10
56.4909070168177
20
0.0169004586494168
30
0
41
1
10
56.4808290772785
20
0.126561104593634
30
0
41
1
10
56.4774874887271
20
0.16327415712135
30
0
41
1
10
56.4707913843982
20
0.236519555365419
30
0
41
1
10
56.4674422790293
20
0.273014258252601
30
0
41
1
10
56.4573701014513
20
0.382118602852643
30
0
41
1
10
56.4506228728775
20
0.454349491770216
30
0
41
1
10
56.4437735270149
20
0.52607368393987
30
0
0
SPLINE
5
EE
100
AcDbEntity
8
1
62
256
6
ByLayer
370
18
48
1
60
0
100
AcDbSpline
70
4
71
3
72
22
73
18
40
0
40
0
40
0
40
0
40
0.249999999999997
40
0.249999999999997
40
0.374999999999997
40
0.374999999999997
40
0.437499999999996
40
0.437499999999996
40
0.499999999999996
40
0.499999999999996
40
0.749999999999998
40
0.749999999999998
40
0.812499999999998
40
0.812499999999998
40
0.874999999999998
40
0.874999999999998
40
1
40
1
40
1
40
1
41
1
10
55.4595016739229
20
1.36838855080884
30
0
41
1
10
55.4719107600111
20
1.22286826473999
30
0
41
1
10
55.4840146675716
20
1.07115556029001
30
0
41
1
10
55.5023575808801
20
0.834772117633918
30
0
41
1
10
55.5084999629524
20
0.754500347487067
30
0
41
1
10
55.5178178978304
20
0.6318303435215
30
0
41
1
10
55.5209489416253
20
0.590463579013857
30
0
41
1
10
55.5271960245191
20
0.507734372833141
30
0
41
1
10
55.5303157940787
20
0.466314360393398
30
0
41
1
10
55.5458965284099
20
0.258941254457653
30
0
41
1
10
55.5582986766466
20
0.0921765201440792
30
0
41
1
10
55.5737690357526
20
-0.117385357185071
30
0
41
1
10
55.5768635488966
20
-0.159352938848258
30
0
41
1
10
55.5830657531927
20
-0.243398476978513
30
0
41
1
10
55.5861791373253
20
-0.285553314545098
30
0
41
1
10
55.5955136432914
20
-0.411602054242195
30
0
41
1
10
55.6017130240962
20
-0.494840348997798
30
0
41
1
10
55.6079244650866
20
-0.577288307486782
30
0
0
SPLINE
5
EF
100
AcDbEntity
8
1
62
256
6
ByLayer
370
13
48
1
60
0
100
AcDbSpline
70
4
71
3
72
11
73
7
40
0
40
0
40
0
40
0
40
0.2450874683424
40
0.531658648860405
40
0.81822982937841
40
1
40
1
40
1
40
1
41
1
10
55.5016871094574
20
-0.414679883160062
30
0
41
1
10
55.4897642700531
20
-0.268608235758848
30
0
41
1
10
55.4639005638082
20
0.0529805983528604
30
0
41
1
10
55.4240958273284
20
0.547397640426425
30
0
41
1
10
55.3873713052026
20
0.98230237294726
30
0
41
1
10
55.3645877988598
20
1.23260472554358
30
0
41
1
10
55.3557451798554
20
1.32595777255455
30
0
0
SPLINE
5
F0
100
AcDbEntity
8
1
62
256
6
ByLayer
370
13
48
1
60
0
100
AcDbSpline
70
4
71
3
72
10
73
6
40
0
40
0
40
0
40
0
40
0.238670280575079
40
0.854261963269474
40
1
40
1
40
1
40
1
41
1
10
52.6471667137742
20
2.47081349707815
30
0
41
1
10
52.6587466589738
20
2.44494791064122
30
0
41
1
10
52.7001942209446
20
2.30883249506201
30
0
41
1
10
52.7487129402254
20
1.97349217130849
30
0
41
1
10
52.7856516250952
20
1.62865705725992
30
0
41
1
10
52.7927226359094
20
1.55977974836301
30
0
0
SPLINE
5
F1
100
AcDbEntity
8
1
62
256
6
ByLayer
370
18
48
1
60
0
100
AcDbSpline
70
4
71
3
72
23
73
19
40
0
40
0
40
0
40
0
40
0.249999999999999
40
0.249999999999999
40
0.312499999999999
40
0.312499999999999
40
0.374999999999999
40
0.499999999999997
40
0.499999999999997
40
0.749999999999994
40
0.749999999999994
40
0.781249999999994
40
0.781249999999994
40
0.812499999999994
40
0.812499999999994
40
0.874999999999996
40
0.874999999999996
40
1
40
1
40
1
40
1
41
1
10
53.3829083452102
20
1.32356741831418
30
0
41
1
10
53.3708478450488
20
1.49168367728927
30
0
41
1
10
53.3589380166581
20
1.65247575058717
30
0
41
1
10
53.3440853063548
20
1.8440877236153
30
0
41
1
10
53.3411125732231
20
1.88199174818774
30
0
41
1
10
53.3351813500933
20
1.9566106260078
30
0
41
1
10
53.3263390424772
20
2.06634056519243
30
0
41
1
10
53.3175952829536
20
2.16964559304799
30
0
41
1
10
53.3000088812678
20
2.36804000607532
30
0
41
1
10
53.2881558523229
20
2.4894662140305
30
0
41
1
10
53.2747258967299
20
2.61324000992576
30
0
41
1
10
53.273231105589
20
2.6268139924093
30
0
41
1
10
53.2702347065983
20
2.65360179335363
30
0
41
1
10
53.268732585691
20
2.66682046541086
30
0
41
1
10
53.2642347545089
20
2.70576061445308
30
0
41
1
10
53.2612413131081
20
2.73082512853699
30
0
41
1
10
53.2522552079523
20
2.80339312359391
30
0
41
1
10
53.246233372748
20
2.84831266926037
30
0
41
1
10
53.2402342060341
20
2.88969590608042
30
0
0
SPLINE
5
F2
100
AcDbEntity
8
1
62
256
6
ByLayer
370
13
48
1
60
0
100
AcDbSpline
70
4
71
3
72
11
73
7
40
0
40
0
40
0
40
0
40
0.262957212379308
40
0.550094682320857
40
0.837232152262407
40
1
40
1
40
1
40
1
41
1
10
53.8073235730189
20
0.878650175421285
30
0
41
1
10
53.7945565240757
20
1.02717601975081
30
0
41
1
10
53.7678481676435
20
1.32685872426063
30
0
41
1
10
53.727198836483
20
1.73126362061842
30
0
41
1
10
53.6914149824865
20
2.02362984657137
30
0
41
1
10
53.6695717176821
20
2.16612579609935
30
0
41
1
10
53.6616692193574
20
2.2126155887749
30
0
0
SPLINE
5
F3
100
AcDbEntity
8
1
62
256
6
ByLayer
370
18
48
1
60
0
100
AcDbSpline
70
4
71
3
72
8
73
4
40
0
40
0
40
0
40
0
40
1
40
1
40
1
40
1
41
1
10
53.240234206034
20
2.88969590608073
30
0
41
1
10
53.2302451648814
20
2.96107098875785
30
0
41
1
10
53.2202934131559
20
3.02132853006353
30
0
41
1
10
53.2103115466498
20
3.07061390848861
30
0
0
SPLINE
5
F4
100
AcDbEntity
8
1
62
256
6
ByLayer
370
13
48
1
60
0
100
AcDbSpline
70
4
71
3
72
12
73
8
40
0
40
0
40
0
40
0
40
0.086146545598127
40
0.372978731604529
40
0.659810917610932
40
0.946643103617335
40
1
40
1
40
1
40
1
41
1
10
55.161734994868
20
-0.151149124528956
30
0
41
1
10
55.1575480452842
20
-0.0992221721177486
30
0
41
1
10
55.13942026364
20
0.126046959612069
30
0
41
1
10
55.1073514116894
20
0.524801829560687
30
0
41
1
10
55.0655296827111
20
1.02170809965031
30
0
41
1
10
55.035053450339
20
1.3521355626857
30
0
41
1
10
55.0185188056575
20
1.51669225642911
30
0
41
1
10
55.0159254369764
20
1.5421217894467
30
0
0
SPLINE
5
F5
100
AcDbEntity
8
1
62
256
6
ByLayer
370
13
48
1
60
0
100
AcDbSpline
70
4
71
3
72
10
73
6
40
0
40
0
40
0
40
0
40
0.571016937992837
40
0.880542494640773
40
1
40
1
40
1
40
1
41
1
10
46.327044863569
20
2.37731305651644
30
0
41
1
10
46.3545949942236
20
2.26659686936759
30
0
41
1
10
46.3970790140905
20
1.9932627136815
30
0
41
1
10
46.4453265038071
20
1.54036242714531
30
0
41
1
10
46.4660238454533
20
1.32348528147992
30
0
41
1
10
46.4717873670585
20
1.26156557918091
30
0
0
SPLINE
5
F6
100
AcDbEntity
8
1
62
256
6
ByLayer
370
18
48
1
60
0
100
AcDbSpline
70
4
71
3
72
17
73
13
40
0
40
0
40
0
40
0
40
0.249999999999996
40
0.249999999999996
40
0.374999999999994
40
0.374999999999994
40
0.437499999999993
40
0.437499999999993
40
0.499999999999991
40
0.749999999999996
40
0.749999999999996
40
1
40
1
40
1
40
1
41
1
10
46.7182506518197
20
2.89640638644522
30
0
41
1
10
46.728012225267
20
2.86229369078149
30
0
41
1
10
46.7377245136066
20
2.82378157511508
30
0
41
1
10
46.7522518484932
20
2.75931740234609
30
0
41
1
10
46.7570880097828
20
2.73671185005202
30
0
41
1
10
46.7643422622841
20
2.70110116454967
30
0
41
1
10
46.7667618981653
20
2.6889387732968
30
0
41
1
10
46.7715826911514
20
2.66414896743899
30
0
41
1
10
46.7836007895751
20
2.60095438650279
30
0
41
1
10
46.7954735421858
20
2.5317296167141
30
0
41
1
10
46.8144724301965
20
2.41341348151352
30
0
41
1
10
46.8239912453896
20
2.3504873013664
30
0
41
1
10
46.833572051765
20
2.28374892496654
30
0
0
SPLINE
5
F7
100
AcDbEntity
8
1
62
256
6
ByLayer
370
13
48
1
60
0
100
AcDbSpline
70
4
71
3
72
11
73
7
40
0
40
0
40
0
40
0
40
0.039636322194919
40
0.348603109724565
40
0.657569897254211
40
1
40
1
40
1
40
1
41
1
10
47.3416443016242
20
2.01280377108569
30
0
41
1
10
47.3435601123055
20
1.99858187994417
30
0
41
1
10
47.3604097698729
20
1.87108932034161
30
0
41
1
10
47.3921936771719
20
1.591210892389
30
0
41
1
10
47.4386119777311
20
1.10254375285606
30
0
41
1
10
47.4700973233363
20
0.730195900277664
30
0
41
1
10
47.4866488732112
20
0.529202007102413
30
0
0
SPLINE
5
F8
100
AcDbEntity
8
1
62
256
6
ByLayer
370
18
48
1
60
0
100
AcDbSpline
70
4
71
3
72
28
73
24
40
0
40
0
40
0
40
0
40
0.125000000000001
40
0.125000000000001
40
0.250000000000001
40
0.250000000000001
40
0.312500000000001
40
0.312500000000001
40
0.343750000000001
40
0.343750000000001
40
0.375000000000001
40
0.500000000000002
40
0.500000000000002
40
0.625000000000002
40
0.625000000000002
40
0.687500000000002
40
0.718750000000002
40
0.718750000000002
40
0.750000000000002
40
0.750000000000002
40
0.875000000000001
40
0.875000000000001
40
1
40
1
40
1
40
1
41
1
10
47.0571914720907
20
0.891974598133174
30
0
41
1
10
47.0502237138068
20
0.999477877522338
30
0
41
1
10
47.0433329425683
20
1.10478443500358
30
0
41
1
10
47.0295553748533
20
1.31107018217301
30
0
41
1
10
47.0226573148108
20
1.41204869922515
30
0
41
1
10
47.0121998255158
20
1.56021622659438
30
0
41
1
10
47.0086998071809
20
1.6090545215676
30
0
41
1
10
47.0034273631991
20
1.6814692126338
30
0
41
1
10
47.0016634867737
20
1.7055020638663
30
0
41
1
10
46.9981432976064
20
1.75306972820681
30
0
41
1
10
46.9893611864092
20
1.87074990248533
30
0
41
1
10
46.98066021186
20
1.98233336652328
30
0
41
1
10
46.9667450818011
20
2.15325608374866
30
0
41
1
10
46.9597967598274
20
2.23491193771403
30
0
41
1
10
46.9493215554682
20
2.35164667687454
30
0
41
1
10
46.9440700125917
20
2.40857393070999
30
0
41
1
10
46.9387778192192
20
2.46330657101794
30
0
41
1
10
46.9352379252457
20
2.49930151097593
30
0
41
1
10
46.933459257457
20
2.51707790693763
30
0
41
1
10
46.9245704416653
20
2.60434033093742
30
0
41
1
10
46.9174871806615
20
2.66894687372064
30
0
41
1
10
46.9034157370386
20
2.78810246514246
30
0
41
1
10
46.8964275126806
20
2.84265046316065
30
0
41
1
10
46.8894673655361
20
2.89217549661007
30
0
0
SPLINE
5
F9
100
AcDbEntity
8
1
62
256
6
ByLayer
370
18
48
1
60
0
100
AcDbSpline
70
4
71
3
72
17
73
13
40
0
40
0
40
0
40
0
40
0.250000000000003
40
0.250000000000003
40
0.500000000000006
40
0.500000000000006
40
0.562500000000005
40
0.562500000000005
40
0.625000000000005
40
0.750000000000003
40
0.750000000000003
40
1
40
1
40
1
40
1
41
1
10
46.8335720517669
20
2.28374892494443
30
0
41
1
10
46.8413989381385
20
2.19522349259157
30
0
41
1
10
46.8492159865147
20
2.10195607947614
30
0
41
1
10
46.8648924218374
20
1.90599985222971
30
0
41
1
10
46.8727626218339
20
1.80331247977242
30
0
41
1
10
46.882677495229
20
1.66886254159058
30
0
41
1
10
46.8846656060628
20
1.64164494475503
30
0
41
1
10
46.8886243024563
20
1.58695163590465
30
0
41
1
10
46.8945454061427
20
1.50440053647313
30
0
41
1
10
46.9004230038142
20
1.42033632473863
30
0
41
1
10
46.9121504636898
20
1.2502249030353
30
0
41
1
10
46.9199450793038
20
1.13418058373884
30
0
41
1
10
46.9277578518136
20
1.01550795164027
30
0
0
SPLINE
5
FA
100
AcDbEntity
8
1
62
256
6
ByLayer
370
18
48
1
60
0
100
AcDbSpline
70
4
71
3
72
24
73
20
40
0
40
0
40
0
40
0
40
0.124999999999998
40
0.124999999999998
40
0.249999999999996
40
0.249999999999996
40
0.374999999999995
40
0.374999999999995
40
0.437499999999994
40
0.437499999999994
40
0.499999999999994
40
0.499999999999994
40
0.749999999999998
40
0.749999999999998
40
0.812499999999998
40
0.812499999999998
40
0.874999999999999
40
0.874999999999999
40
1
40
1
40
1
40
1
41
1
10
54.9699399643397
20
-0.0986152972514276
30
0
41
1
10
54.9631344606378
20
-0.0060939670158575
30
0
41
1
10
54.9564143402515
20
0.0860059782199016
30
0
41
1
10
54.9430418219742
20
0.269384546912079
30
0
41
1
10
54.936382400256
20
0.360664372868769
30
0
41
1
10
54.9229662362205
20
0.542404720791694
30
0
41
1
10
54.9162008346723
20
0.632864905434474
30
0
41
1
10
54.9059092576392
20
0.767919441509207
30
0
41
1
10
54.9024782623549
20
0.812546030332697
30
0
41
1
10
54.8956304959417
20
0.900800559501533
30
0
41
1
10
54.8922108554149
20
0.944466210924077
30
0
41
1
10
54.875126850795
20
1.16050806216319
30
0
41
1
10
54.8614988058507
20
1.326081252324
30
0
41
1
10
54.8445430490105
20
1.52358383159424
30
0
41
1
10
54.8411521353718
20
1.56261817112781
30
0
41
1
10
54.8343604592811
20
1.63967522375924
30
0
41
1
10
54.830981015782
20
1.67744133456534
30
0
41
1
10
54.8208743092398
20
1.78849308503953
30
0
41
1
10
54.8141861507768
20
1.85953405072655
30
0
41
1
10
54.8074724893835
20
1.92765639747239
30
0
0
SPLINE
5
FB
100
AcDbEntity
8
1
62
256
6
ByLayer
370
18
48
1
60
0
100
AcDbSpline
70
4
71
3
72
28
73
24
40
0
40
0
40
0
40
0
40
0.124999999999999
40
0.124999999999999
40
0.249999999999998
40
0.249999999999998
40
0.312499999999998
40
0.312499999999998
40
0.374999999999998
40
0.374999999999998
40
0.499999999999998
40
0.499999999999998
40
0.624999999999997
40
0.624999999999997
40
0.687499999999997
40
0.687499999999997
40
0.718749999999997
40
0.718749999999997
40
0.749999999999997
40
0.749999999999997
40
0.874999999999998
40
0.874999999999998
40
1
40
1
40
1
40
1
41
1
10
54.2782852727677
20
2.35334533742679
30
0
41
1
10
54.2848199878264
20
2.2929479491402
30
0
41
1
10
54.2913174053842
20
2.22894596297624
30
0
41
1
10
54.3043699471161
20
2.09389537136721
30
0
41
1
10
54.3109530160686
20
2.02287524044581
30
0
41
1
10
54.3209071225556
20
1.91093303788557
30
0
41
1
10
54.3242372868165
20
1.87269368674367
30
0
41
1
10
54.3309083791345
20
1.7944308174014
30
0
41
1
10
54.3342248769212
20
1.75469473887111
30
0
41
1
10
54.3441233591325
20
1.63370273490361
30
0
41
1
10
54.3506575910827
20
1.55066534890619
30
0
41
1
10
54.363659841931
20
1.3799344653188
30
0
41
1
10
54.3701196425728
20
1.2922414699355
30
0
41
1
10
54.3798271869337
20
1.1572195668262
30
0
41
1
10
54.3830671612047
20
1.11163143744116
30
0
41
1
10
54.387949560251
20
1.04237129853359
30
0
41
1
10
54.3895808174031
20
1.0191381414372
30
0
41
1
10
54.392853022264
20
0.972376624966216
30
0
41
1
10
54.3944959286087
20
0.94881869152826
30
0
41
1
10
54.4027034440053
20
0.830774994665973
30
0
41
1
10
54.4092561484497
20
0.735409584773493
30
0
41
1
10
54.4224073452647
20
0.542865739127137
30
0
41
1
10
54.4290088124008
20
0.445687264588969
30
0
41
1
10
54.4356579987644
20
0.347588996729286
30
0
0
SPLINE
5
FC
100
AcDbEntity
8
1
62
256
6
ByLayer
370
13
48
1
60
0
100
AcDbSpline
70
4
71
3
72
12
73
8
40
0
40
0
40
0
40
0
40
0.135316314470523
40
0.4220420060793
40
0.708767697688076
40
0.995493389296853
40
1
40
1
40
1
40
1
41
1
10
54.14732785175
20
0.625107049522853
30
0
41
1
10
54.140748614169
20
0.704261555082979
30
0
41
1
10
54.1202284436236
20
0.948019005397839
30
0
41
1
10
54.0857674580793
20
1.33514525817617
30
0
41
1
10
54.0439446519346
20
1.74835607919465
30
0
41
1
10
54.0158436621775
20
1.97543407694502
30
0
41
1
10
54.0016836356881
20
2.07466332571502
30
0
41
1
10
54.0014645194547
20
2.07619518100992
30
0
0
SPLINE
5
FD
100
AcDbEntity
8
1
62
256
6
ByLayer
370
13
48
1
60
0
100
AcDbSpline
70
4
71
3
72
9
73
5
40
0
40
0
40
0
40
0
40
0.443977699178456
40
1
40
1
40
1
40
1
41
1
10
51.404558939143
20
-0.793545773557099
30
0
41
1
10
51.4260821862937
20
-1.04721952004451
30
0
41
1
10
51.4745604460474
20
-1.5885713120465
30
0
41
1
10
51.5230407474974
20
-1.99759644371522
30
0
41
1
10
51.5499968358287
20
-2.16708133212745
30
0
0
SPLINE
5
FE
100
AcDbEntity
8
1
62
256
6
ByLayer
370
13
48
1
60
0
100
AcDbSpline
70
4
71
3
72
11
73
7
40
0
40
0
40
0
40
0
40
0.206640198853558
40
0.514775075275569
40
0.822909951697581
40
1
40
1
40
1
40
1
41
1
10
50.0502391939979
20
0.239728570151669
30
0
41
1
10
50.0602540182264
20
0.115787935563986
30
0
41
1
10
50.0852027450917
20
-0.195215761525361
30
0
41
1
10
50.1250856165874
20
-0.68670742167302
30
0
41
1
10
50.1635372071154
20
-1.13188406733789
30
0
41
1
10
50.1870537967843
20
-1.38012727178807
30
0
41
1
10
50.1956364694199
20
-1.46674310105786
30
0
0
SPLINE
5
FF
100
AcDbEntity
8
1
62
256
6
ByLayer
370
13
48
1
60
0
100
AcDbSpline
70
4
71
3
72
10
73
6
40
0
40
0
40
0
40
0
40
0.190540665475771
40
0.499612283559324
40
1
40
1
40
1
40
1
41
1
10
47.6813192372707
20
1.84573047915657
30
0
41
1
10
47.6905258551736
20
1.76811573896956
30
0
41
1
10
47.7146663110107
20
1.54947148510681
30
0
41
1
10
47.7629845702469
20
1.04357953180542
30
0
41
1
10
47.8020963970541
20
0.569959286453155
30
0
41
1
10
47.8262743274216
20
0.27135806217936
30
0
0
SPLINE
5
100
100
AcDbEntity
8
1
62
256
6
ByLayer
370
13
48
1
60
0
100
AcDbSpline
70
4
71
3
72
12
73
8
40
0
40
0
40
0
40
0
40
0.0491840920486995
40
0.357356512646354
40
0.665528933244009
40
0.973701353841664
40
1
40
1
40
1
40
1
41
1
10
50.3898793294215
20
-0.0214178648964491
30
0
41
1
10
50.3922627570611
20
-0.0510403037232834
30
0
41
1
10
50.4095800092744
20
-0.266220397319756
30
0
41
1
10
50.4418310692205
20
-0.664391147920981
30
0
41
1
10
50.4866326737428
20
-1.18522561314359
30
0
41
1
10
50.5177747498971
20
-1.50738881083993
30
0
41
1
10
50.5339829955363
20
-1.65895943408589
30
0
41
1
10
50.5352574104559
20
-1.67077586334722
30
0
0
SPLINE
5
101
100
AcDbEntity
8
1
62
256
6
ByLayer
370
13
48
1
60
0
100
AcDbSpline
70
4
71
3
72
9
73
5
40
0
40
0
40
0
40
0
40
0.585621842518461
40
1
40
1
40
1
40
1
41
1
10
48.6959643293488
20
1.23165463577496
30
0
41
1
10
48.7243226378626
20
0.92446443108156
30
0
41
1
10
48.7727453055445
20
0.337185161425765
30
0
41
1
10
48.8211717466667
20
-0.269852567595365
30
0
41
1
10
48.8412386434449
20
-0.513891722946909
30
0
0
SPLINE
5
102
100
AcDbEntity
8
1
62
256
6
ByLayer
370
18
48
1
60
0
100
AcDbSpline
70
4
71
3
72
28
73
24
40
0
40
0
40
0
40
0
40
0.125000000000001
40
0.125000000000001
40
0.250000000000002
40
0.250000000000002
40
0.281250000000002
40
0.281250000000002
40
0.312500000000002
40
0.375000000000003
40
0.375000000000003
40
0.500000000000003
40
0.625000000000003
40
0.625000000000003
40
0.656250000000002
40
0.656250000000002
40
0.687500000000001
40
0.687500000000001
40
0.750000000000001
40
0.750000000000001
40
0.875000000000001
40
0.875000000000001
40
1
40
1
40
1
40
1
41
1
10
48.4117506759937
20
-0.44441085851642
30
0
41
1
10
48.4047929834221
20
-0.334113343663177
30
0
41
1
10
48.397885716807
20
-0.223294379313728
30
0
41
1
10
48.3840436347201
20
-0.0006202676318594
30
0
41
1
10
48.3771090960921
20
0.111234806275746
30
0
41
1
10
48.3682988072967
20
0.251715361520752
30
0
41
1
10
48.3665286494041
20
0.279851364930806
30
0
41
1
10
48.362993179772
20
0.33585793443703
30
0
41
1
10
48.3576902928432
20
0.41959412322521
30
0
41
1
10
48.3523948239406
20
0.502519335005616
30
0
41
1
10
48.3418240272649
20
0.667305953175031
30
0
41
1
10
48.327787964449
20
0.884190387101057
30
0
41
1
10
48.3138616222161
20
1.09545197639525
30
0
41
1
10
48.3051395926227
20
1.22568517298063
30
0
41
1
10
48.3033940774562
20
1.25164130263317
30
0
41
1
10
48.2998986657474
20
1.30337032550563
30
0
41
1
10
48.2981480252659
20
1.32915364371669
30
0
41
1
10
48.2929166944908
20
1.40577415123019
30
0
41
1
10
48.2894465432463
20
1.45603328820482
30
0
41
1
10
48.2790535406503
20
1.60439363700542
30
0
41
1
10
48.2721321054087
20
1.70008325620546
30
0
41
1
10
48.2582420208054
20
1.88512229791178
30
0
41
1
10
48.2512848392855
20
1.97447235180223
30
0
41
1
10
48.2442904753239
20
2.06059781586697
30
0
0
SPLINE
5
103
100
AcDbEntity
8
1
62
256
6
ByLayer
370
18
48
1
60
0
100
AcDbSpline
70
4
71
3
72
28
73
24
40
0
40
0
40
0
40
0
40
0.124999999999999
40
0.124999999999999
40
0.249999999999997
40
0.249999999999997
40
0.374999999999996
40
0.374999999999996
40
0.406249999999995
40
0.406249999999995
40
0.437499999999994
40
0.499999999999994
40
0.499999999999994
40
0.624999999999994
40
0.749999999999995
40
0.749999999999995
40
0.781249999999995
40
0.781249999999995
40
0.812499999999996
40
0.812499999999996
40
0.874999999999997
40
0.874999999999997
40
1
40
1
40
1
40
1
41
1
10
48.1143276519165
20
2.15879507604635
30
0
41
1
10
48.1213799242465
20
2.07502055322246
30
0
41
1
10
48.1283839184186
20
1.98802999831196
30
0
41
1
10
48.1423409201595
20
1.80783651556183
30
0
41
1
10
48.1492892901993
20
1.71463270216674
30
0
41
1
10
48.163227434367
20
1.5220288388839
30
0
41
1
10
48.1702323202015
20
1.42263010353602
30
0
41
1
10
48.1790776762398
20
1.29439461210677
30
0
41
1
10
48.1808528555648
20
1.26851252824037
30
0
41
1
10
48.1843985558061
20
1.21652083508297
30
0
41
1
10
48.1897046125883
20
1.13827497502038
30
0
41
1
10
48.1949739325763
20
1.05926386491083
30
0
41
1
10
48.2054712734909
20
0.90023923381267
30
0
41
1
10
48.2193537847292
20
0.685538213649806
30
0
41
1
10
48.2331858880004
20
0.46556589786033
30
0
41
1
10
48.2419124370385
20
0.326405689244467
30
0
41
1
10
48.2436619928428
20
0.298489569031887
30
0
41
1
10
48.2471727380219
20
0.24248757929945
30
0
41
1
10
48.2489361373486
20
0.214366515839515
30
0
41
1
10
48.2542328330796
20
0.13000250922957
30
0
41
1
10
48.2577653189383
20
0.0739179635497464
30
0
41
1
10
48.2683768949739
20
-0.0938708324272
30
0
41
1
10
48.275453777078
20
-0.205112516032784
30
0
41
1
10
48.2824941163377
20
-0.315750514719923
30
0
0
SPLINE
5
104
100
AcDbEntity
8
1
62
256
6
ByLayer
370
13
48
1
60
0
100
AcDbSpline
70
4
71
3
72
9
73
5
40
0
40
0
40
0
40
0
40
0.428279843241782
40
1
40
1
40
1
40
1
41
1
10
49.0355944975888
20
0.997438364178095
30
0
41
1
10
49.0563249420883
20
0.760962378267465
30
0
41
1
10
49.1047289545751
20
0.172391373594905
30
0
41
1
10
49.153132857979
20
-0.438365771242019
30
0
41
1
10
49.1808063912791
20
-0.765927291494052
30
0
0
SPLINE
5
105
100
AcDbEntity
8
1
62
256
6
ByLayer
370
18
48
1
60
0
100
AcDbSpline
70
4
71
3
72
28
73
24
40
0
40
0
40
0
40
0
40
0.0624999999999997
40
0.0624999999999997
40
0.124999999999999
40
0.124999999999999
40
0.25
40
0.25
40
0.375
40
0.375
40
0.4375
40
0.4375
40
0.5
40
0.5
40
0.625
40
0.625
40
0.75
40
0.75
40
0.875000000000001
40
0.875000000000001
40
0.9375
40
0.9375
40
1
40
1
40
1
40
1
41
1
10
49.468961112134
20
0.999256455880385
30
0
41
1
10
49.472456730252
20
0.946065184551372
30
0
41
1
10
49.4759562592532
20
0.892263853306986
30
0
41
1
10
49.4829780938011
20
0.783414423609514
30
0
41
1
10
49.4864713069774
20
0.728818110135109
30
0
41
1
10
49.4969177598294
20
0.564669098770736
30
0
41
1
10
49.5038404839963
20
0.454693996118408
30
0
41
1
10
49.5177928757275
20
0.23369276298942
30
0
41
1
10
49.5248209081204
20
0.12266652967179
30
0
41
1
10
49.5353943229243
20
-0.0446733450543206
30
0
41
1
10
49.538924608802
20
-0.100586952194789
30
0
41
1
10
49.5459964893997
20
-0.212686349712897
30
0
41
1
10
49.549546888207
20
-0.269012118307643
30
0
41
1
10
49.5601084231487
20
-0.43659538568096
30
0
41
1
10
49.5670547586968
20
-0.546889085596035
30
0
41
1
10
49.5808599357615
20
-0.764694557685658
30
0
41
1
10
49.5877187202992
20
-0.872206123359149
30
0
41
1
10
49.6015203794909
20
-1.08442728309274
30
0
41
1
10
49.6084814672562
20
-1.18913612011076
30
0
41
1
10
49.619043453708
20
-1.34401899190064
30
0
41
1
10
49.6225580038253
20
-1.3949151163412
30
0
41
1
10
49.6295610403459
20
-1.49500609978378
30
0
41
1
10
49.6330525708122
20
-1.54424553113188
30
0
41
1
10
49.6365383386638
20
-1.59269032826313
30
0
0
SPLINE
5
106
100
AcDbEntity
8
1
62
256
6
ByLayer
370
18
48
1
60
0
100
AcDbSpline
70
4
71
3
72
31
73
27
40
0
40
0
40
0
40
0
40
0.0624999999999998
40
0.093749999999999
40
0.093749999999999
40
0.124999999999998
40
0.124999999999998
40
0.249999999999997
40
0.249999999999997
40
0.374999999999996
40
0.374999999999996
40
0.499999999999995
40
0.499999999999995
40
0.531249999999995
40
0.531249999999995
40
0.562499999999996
40
0.624999999999996
40
0.624999999999996
40
0.749999999999998
40
0.874999999999999
40
0.874999999999999
40
0.906249999999999
40
0.906249999999999
40
0.9375
40
0.9375
40
1
40
1
40
1
40
1
41
1
10
51.1207195810338
20
-2.67051127352997
30
0
41
1
10
51.1172085806783
20
-2.6391857479974
30
0
41
1
10
51.111941466552
20
-2.59032317003445
30
0
41
1
10
51.1066682173741
20
-2.53860611474755
30
0
41
1
10
51.1031501641451
20
-2.50348644739853
30
0
41
1
10
51.1013874377903
20
-2.48558043156581
30
0
41
1
10
51.0925958971296
20
-2.39475729378279
30
0
41
1
10
51.0856588827683
20
-2.31822688019926
30
0
41
1
10
51.0718388397472
20
-2.15768995204499
30
0
41
1
10
51.0649558364715
20
-2.07368265123242
30
0
41
1
10
51.051044381921
20
-1.89821633733976
30
0
41
1
10
51.0440021248806
20
-1.80675874969052
30
0
41
1
10
51.0351258244384
20
-1.68763759331881
30
0
41
1
10
51.033344499445
20
-1.66354101769505
30
0
41
1
10
51.0297862145141
20
-1.61501819331309
30
0
41
1
10
51.0244617260316
20
-1.54182915264698
30
0
41
1
10
51.0191765170149
20
-1.46744086921808
30
0
41
1
10
51.0086533705376
20
-1.31709306604441
30
0
41
1
10
50.9947527532694
20
-1.11244720457597
30
0
41
1
10
50.9809529268671
20
-0.899532159141188
30
0
41
1
10
50.9722640740694
20
-0.763825211183558
30
0
41
1
10
50.9705229186274
20
-0.736551745771095
30
0
41
1
10
50.9670306789121
20
-0.681738056457732
30
0
41
1
10
50.9652772732456
20
-0.654164959436002
30
0
41
1
10
50.960013921193
20
-0.571275736881773
30
0
41
1
10
50.9565133650245
20
-0.515969355633814
30
0
41
1
10
50.9530211422156
20
-0.460617070590302
30
0
0
SPLINE
5
107
100
AcDbEntity
8
1
62
256
6
ByLayer
370
18
48
1
60
0
100
AcDbSpline
70
4
71
3
72
33
73
29
40
0
40
0
40
0
40
0
40
0.125000000000004
40
0.125000000000004
40
0.156250000000005
40
0.156250000000005
40
0.187500000000005
40
0.250000000000006
40
0.250000000000006
40
0.375000000000006
40
0.375000000000006
40
0.500000000000007
40
0.500000000000007
40
0.531250000000007
40
0.531250000000007
40
0.562500000000006
40
0.562500000000006
40
0.625000000000006
40
0.625000000000006
40
0.750000000000004
40
0.750000000000004
40
0.875000000000002
40
0.875000000000002
40
0.937500000000001
40
0.937500000000001
40
0.968750000000001
40
0.968750000000001
40
1
40
1
40
1
40
1
41
1
10
50.8232348460988
20
-0.331597340425901
30
0
41
1
10
50.8302241495267
20
-0.442379955578275
30
0
41
1
10
50.8372177243658
20
-0.552892687046068
30
0
41
1
10
50.8460175540895
20
-0.690681390477806
30
0
41
1
10
50.8477808518932
20
-0.718224296511124
30
0
41
1
10
50.8512950715394
20
-0.772949544358141
30
0
41
1
10
50.8565557344431
20
-0.85461938940162
30
0
41
1
10
50.8617954704186
20
-0.935049087717715
30
0
41
1
10
50.8722514105661
20
-1.09428033166876
30
0
41
1
10
50.8791883161983
20
-1.19826801425211
30
0
41
1
10
50.8930744272391
20
-1.40193537507213
30
0
41
1
10
50.9000294298371
20
-1.5016149188919
30
0
41
1
10
50.9088101027838
20
-1.62344884657205
30
0
41
1
10
50.9105700970441
20
-1.64767702887679
30
0
41
1
10
50.914098723729
20
-1.69585294203824
30
0
41
1
10
50.9158679532617
20
-1.71980797171204
30
0
41
1
10
50.9211590302285
20
-1.79082923594672
30
0
41
1
10
50.9246744962828
20
-1.83719432437874
30
0
41
1
10
50.9352033296656
20
-1.97339925694894
30
0
41
1
10
50.9422019316944
20
-2.06035617475453
30
0
41
1
10
50.9562666274436
20
-2.22668796039781
30
0
41
1
10
50.9633163299754
20
-2.30606373775206
30
0
41
1
10
50.973897627254
20
-2.41934581574446
30
0
41
1
10
50.9774264325405
20
-2.45614096982314
30
0
41
1
10
50.9827253820368
20
-2.50985479307889
30
0
41
1
10
50.9844936353637
20
-2.52752117884702
30
0
41
1
10
50.988012471173
20
-2.56215347004644
30
0
41
1
10
50.9897655787285
20
-2.57914533467115
30
0
41
1
10
50.9915130964663
20
-2.59581643163901
30
0
0
SPLINE
5
108
100
AcDbEntity
8
1
62
256
6
ByLayer
370
18
48
1
60
0
100
AcDbSpline
70
4
71
3
72
26
73
22
40
0
40
0
40
0
40
0
40
0.016134127392072
40
0.016134127392072
40
0.114520714652788
40
0.114520714652788
40
0.212907301913504
40
0.212907301913504
40
0.409680476435045
40
0.409680476435045
40
0.508067063695871
40
0.508067063695871
40
0.606453650956697
40
0.606453650956697
40
0.704840238217523
40
0.704840238217523
40
0.803226825478348
40
0.803226825478348
40
0.901613412739174
40
0.901613412739174
40
1
40
1
40
1
40
1
41
1
10
53.1351960705853
20
-2.42641065779404
30
0
41
1
10
53.1339719597493
20
-2.42597359802755
30
0
41
1
10
53.1327431730121
20
-2.42554660311717
30
0
41
1
10
53.1239881129089
20
-2.42258717126606
30
0
41
1
10
53.1162700964101
20
-2.42042138392156
30
0
41
1
10
53.100748758803
20
-2.41694169306973
30
0
41
1
10
53.0929167135239
20
-2.41561569667155
30
0
41
1
10
53.0692169009863
20
-2.41290720456274
30
0
41
1
10
53.053148884092
20
-2.41276872590973
30
0
41
1
10
53.0286335454891
20
-2.41554462100277
30
0
41
1
10
53.0203510954368
20
-2.41698745212798
30
0
41
1
10
53.0040241060767
20
-2.4209475651015
30
0
41
1
10
52.9959440284774
20
-2.42346345259213
30
0
41
1
10
52.9799813061504
20
-2.42969127545123
30
0
41
1
10
52.9720983119373
20
-2.43340125067439
30
0
41
1
10
52.9565774483462
20
-2.44223935657175
30
0
41
1
10
52.9491195920765
20
-2.44726645993049
30
0
41
1
10
52.9348816331681
20
-2.45867229001544
30
0
41
1
10
52.9280825855224
20
-2.46506838568809
30
0
41
1
10
52.9153700978668
20
-2.47939464134777
30
0
41
1
10
52.9095863369581
20
-2.4871739865923
30
0
41
1
10
52.904439753456
20
-2.49564253935819
30
0
0
SPLINE
5
109
100
AcDbEntity
8
1
62
256
6
ByLayer
370
18
48
1
60
0
100
AcDbSpline
70
4
71
3
72
14
73
10
40
0
40
0
40
0
40
0
40
0.25
40
0.25
40
0.5
40
0.5
40
0.75
40
0.75
40
1
40
1
40
1
40
1
41
1
10
52.9044397534558
20
-2.49564253935813
30
0
41
1
10
52.8682415970091
20
-2.55520554805466
30
0
41
1
10
52.8321342867259
20
-2.61416414720915
30
0
41
1
10
52.7600635097344
20
-2.73088263542732
30
0
41
1
10
52.724150017309
20
-2.7885595179911
30
0
41
1
10
52.6525937892249
20
-2.90242938568659
30
0
41
1
10
52.6169137977347
20
-2.95868049139679
30
0
41
1
10
52.5459323296884
20
-3.06943267536769
30
0
41
1
10
52.5106151798464
20
-3.12395921124357
30
0
41
1
10
52.4754374440329
20
-3.17763882982879
30
0
0
SPLINE
5
10A
100
AcDbEntity
8
1
62
256
6
ByLayer
370
18
48
1
60
0
100
AcDbSpline
70
4
71
3
72
8
73
4
40
0
40
0
40
0
40
0
40
1
40
1
40
1
40
1
41
1
10
52.3455198915641
20
-3.15192983977798
30
0
41
1
10
52.38884381794
20
-3.16136293180401
30
0
41
1
10
52.4321436893395
20
-3.16993194946198
30
0
41
1
10
52.4754374440329
20
-3.17763882982882
30
0
0
SPLINE
5
10B
100
AcDbEntity
8
1
62
256
6
ByLayer
370
18
48
1
60
0
100
AcDbSpline
70
4
71
3
72
14
73
10
40
0
40
0
40
0
40
0
40
0.25
40
0.25
40
0.5
40
0.5
40
0.75
40
0.75
40
1
40
1
40
1
40
1
41
1
10
52.3455198915646
20
-3.15192983977141
30
0
41
1
10
52.3083144626385
20
-3.08332690178375
30
0
41
1
10
52.2709754161437
20
-3.01383391736269
30
0
41
1
10
52.1958631057281
20
-2.87299412824015
30
0
41
1
10
52.1580569089618
20
-2.80158759839796
30
0
41
1
10
52.0820723610897
20
-2.65726999635871
30
0
41
1
10
52.0438523459015
20
-2.58430528081598
30
0
41
1
10
51.9670530529504
20
-2.43710364188866
30
0
41
1
10
51.9285028702899
20
-2.36292085347333
30
0
41
1
10
51.8897484116899
20
-2.2881716138769
30
0
0
SPLINE
5
10C
100
AcDbEntity
8
1
62
256
6
ByLayer
370
18
48
1
60
0
100
AcDbSpline
70
4
71
3
72
30
73
26
40
0
40
0
40
0
40
0
40
0.125000000000034
40
0.125000000000034
40
0.250000000000067
40
0.250000000000067
40
0.3750000000001
40
0.3750000000001
40
0.437500000000118
40
0.437500000000118
40
0.500000000000135
40
0.500000000000135
40
0.625000000000101
40
0.625000000000101
40
0.687500000000084
40
0.687500000000084
40
0.750000000000068
40
0.750000000000068
40
0.812500000000051
40
0.812500000000051
40
0.875000000000034
40
0.875000000000034
40
0.937500000000017
40
0.937500000000017
40
1
40
1
40
1
40
1
41
1
10
51.8897484116898
20
-2.2881716138769
30
0
41
1
10
51.8806378745192
20
-2.27059929444766
30
0
41
1
10
51.870081520055
20
-2.25450020053538
30
0
41
1
10
51.8466827555501
20
-2.22460924117004
30
0
41
1
10
51.8337199336891
20
-2.21075140853691
30
0
41
1
10
51.8064618960291
20
-2.18597651542552
30
0
41
1
10
51.7921109881182
20
-2.17496021891557
30
0
41
1
10
51.7695458038263
20
-2.16045970833875
30
0
41
1
10
51.7618279134162
20
-2.15595944800649
30
0
41
1
10
51.7463067528414
20
-2.14780948744939
30
0
41
1
10
51.7384746078846
20
-2.14413876689494
30
0
41
1
10
51.7147736575586
20
-2.13435846675654
30
0
41
1
10
51.6987035863452
20
-2.12945646241212
30
0
41
1
10
51.6741840313104
20
-2.12496307097999
30
0
41
1
10
51.6659009437448
20
-2.12394987893109
30
0
41
1
10
51.6495746414394
20
-2.1230577094814
30
0
41
1
10
51.6414951078057
20
-2.1231667045501
30
0
41
1
10
51.625533870213
20
-2.12461646980938
30
0
41
1
10
51.6176506942231
20
-2.12595562343398
30
0
41
1
10
51.6021324610101
20
-2.1300890109884
30
0
41
1
10
51.5946755797781
20
-2.13283697067669
30
0
41
1
10
51.580438878246
20
-2.13984406689369
30
0
41
1
10
51.5736398022948
20
-2.14411484811731
30
0
41
1
10
51.5609279045296
20
-2.15440417716368
30
0
41
1
10
51.5551439637412
20
-2.16031368113261
30
0
41
1
10
51.5499968358287
20
-2.16708133212762
30
0
0
SPLINE
5
10D
100
AcDbEntity
8
1
62
256
6
ByLayer
370
18
48
1
60
0
100
AcDbSpline
70
4
71
3
72
12
73
8
40
0
40
0
40
0
40
0
40
0.5
40
0.5
40
0.75
40
0.75
40
1
40
1
40
1
40
1
41
1
10
51.5499968358286
20
-2.1670813321274
30
0
41
1
10
51.4775579998805
20
-2.26232682991193
30
0
41
1
10
51.4053987750271
20
-2.3521316736263
30
0
41
1
10
51.2979953564289
20
-2.47812839316467
30
0
41
1
10
51.2622919604197
20
-2.51872149165416
30
0
41
1
10
51.1912628404136
20
-2.59686144366708
30
0
41
1
10
51.1559214936136
20
-2.63442726010192
30
0
41
1
10
51.1207195810339
20
-2.67051127352997
30
0
0
SPLINE
5
10E
100
AcDbEntity
8
1
62
256
6
ByLayer
370
18
48
1
60
0
100
AcDbSpline
70
4
71
3
72
8
73
4
40
0
40
0
40
0
40
0
40
1
40
1
40
1
40
1
41
1
10
50.9915130964595
20
-2.59581643163944
30
0
41
1
10
51.0346034736127
20
-2.62143893203168
30
0
41
1
10
51.0776657901562
20
-2.64633958660826
30
0
41
1
10
51.1207195810339
20
-2.67051127352997
30
0
0
SPLINE
5
10F
100
AcDbEntity
8
1
62
256
6
ByLayer
370
18
48
1
60
0
100
AcDbSpline
70
4
71
3
72
14
73
10
40
0
40
0
40
0
40
0
40
0.25
40
0.25
40
0.5
40
0.5
40
0.75
40
0.75
40
1
40
1
40
1
40
1
41
1
10
50.9915130964602
20
-2.59581643163003
30
0
41
1
10
50.9542730065434
20
-2.51821773750385
30
0
41
1
10
50.916883094582
20
-2.44063830139572
30
0
41
1
10
50.8416965972809
20
-2.28556700636153
30
0
41
1
10
50.8038706108759
20
-2.20801801790088
30
0
41
1
10
50.7278277688752
20
-2.05342384434414
30
0
41
1
10
50.689582575818
20
-1.97634779131207
30
0
41
1
10
50.6126819639322
20
-1.82293142261972
30
0
41
1
10
50.5740733876884
20
-1.74663338052542
30
0
41
1
10
50.5352574104557
20
-1.67077586334568
30
0
0
SPLINE
5
110
100
AcDbEntity
8
1
62
256
6
ByLayer
370
18
48
1
60
0
100
AcDbSpline
70
4
71
3
72
30
73
26
40
0
40
0
40
0
40
0
40
0.125000000000021
40
0.125000000000021
40
0.250000000000041
40
0.250000000000041
40
0.375000000000062
40
0.375000000000062
40
0.437500000000105
40
0.437500000000105
40
0.500000000000147
40
0.500000000000147
40
0.625000000000163
40
0.625000000000163
40
0.687500000000136
40
0.687500000000136
40
0.750000000000109
40
0.750000000000109
40
0.812500000000082
40
0.812500000000082
40
0.875000000000054
40
0.875000000000054
40
0.937500000000027
40
0.937500000000027
40
1
40
1
40
1
40
1
41
1
10
50.5352574104559
20
-1.67077586334724
30
0
41
1
10
50.5261532247326
20
-1.65298368151593
30
0
41
1
10
50.5156044573235
20
-1.63607227578535
30
0
41
1
10
50.4922206364301
20
-1.60364699968781
30
0
41
1
10
50.479264388074
20
-1.58804099096824
30
0
41
1
10
50.4520152032907
20
-1.5590294726328
30
0
41
1
10
50.4376675507635
20
-1.54552339205091
30
0
41
1
10
50.4151048424051
20
-1.52672282258953
30
0
41
1
10
50.4073866186221
20
-1.5206883490377
30
0
41
1
10
50.3918638142275
20
-1.50932433213401
30
0
41
1
10
50.3840305897225
20
-1.50396873574536
30
0
41
1
10
50.3603251145955
20
-1.48888913264858
30
0
41
1
10
50.3442499953795
20
-1.48013381392073
30
0
41
1
10
50.3197220706604
20
-1.46925442947253
30
0
41
1
10
50.3114361147579
20
-1.46599820047169
30
0
41
1
10
50.2951082374543
20
-1.46048661185148
30
0
41
1
10
50.2870294939345
20
-1.45821040400705
30
0
41
1
10
50.2710728409344
20
-1.4547149167372
30
0
41
1
10
50.2631932399693
20
-1.45349386077896
30
0
41
1
10
50.2476869943235
20
-1.45229387419812
30
0
41
1
10
50.2402382170107
20
-1.45232950889945
30
0
41
1
10
50.2260211927504
20
-1.45380457296309
30
0
41
1
10
50.2192347987111
20
-1.45524730567843
30
0
41
1
10
50.206545770451
20
-1.4597841411597
30
0
41
1
10
50.2007732841496
20
-1.46282820183103
30
0
41
1
10
50.1956364694199
20
-1.46674310105809
30
0
0
SPLINE
5
111
100
AcDbEntity
8
1
62
256
6
ByLayer
370
18
48
1
60
0
100
AcDbSpline
70
4
71
3
72
14
73
10
40
0
40
0
40
0
40
0
40
0.25
40
0.25
40
0.5
40
0.5
40
0.75
40
0.75
40
1
40
1
40
1
40
1
41
1
10
50.1956364694198
20
-1.46674310105783
30
0
41
1
10
50.1594271188191
20
-1.49433918270313
30
0
41
1
10
50.1233088693101
20
-1.51998657817904
30
0
41
1
10
50.0512181207759
20
-1.5673991836388
30
0
41
1
10
50.0152978147464
20
-1.5891323772988
30
0
41
1
10
49.9437340332836
20
-1.62872783437734
30
0
41
1
10
49.9080521580762
20
-1.64660829015591
30
0
41
1
10
49.8370723542784
20
-1.6785143017255
30
0
41
1
10
49.8017583022508
20
-1.69255124986498
30
0
41
1
10
49.7665846548776
20
-1.70471647335364
30
0
0
SPLINE
5
112
100
AcDbEntity
8
1
62
256
6
ByLayer
370
18
48
1
60
0
100
AcDbSpline
70
4
71
3
72
8
73
4
40
0
40
0
40
0
40
0
40
1
40
1
40
1
40
1
41
1
10
49.6365383386538
20
-1.59269032826413
30
0
41
1
10
49.6798514155183
20
-1.63049155173351
30
0
41
1
10
49.7231940285685
20
-1.66783862062584
30
0
41
1
10
49.7665846548776
20
-1.70471647335364
30
0
0
SPLINE
5
113
100
AcDbEntity
8
1
62
256
6
ByLayer
370
18
48
1
60
0
100
AcDbSpline
70
4
71
3
72
16
73
12
40
0
40
0
40
0
40
0
40
0.250000000000004
40
0.250000000000004
40
0.374999999999997
40
0.374999999999997
40
0.49999999999999
40
0.49999999999999
40
0.749999999999995
40
0.749999999999995
40
1
40
1
40
1
40
1
41
1
10
49.6365383386555
20
-1.5926903282556
30
0
41
1
10
49.5993287109933
20
-1.51950261564011
30
0
41
1
10
49.5619836245363
20
-1.44722419926785
30
0
41
1
10
49.5056915079765
20
-1.34022397722018
30
0
41
1
10
49.4868815695407
20
-1.30479407262811
30
0
41
1
10
49.4491216343675
20
-1.2344825885753
30
0
41
1
10
49.4301682205568
20
-1.19961195548038
30
0
41
1
10
49.3731798052022
20
-1.09597125611569
30
0
41
1
10
49.3349897398669
20
-1.02802926470253
30
0
41
1
10
49.2581845112021
20
-0.894876864441443
30
0
41
1
10
49.2196078132018
20
-0.829697257857163
30
0
41
1
10
49.1808063912791
20
-0.765927291493682
30
0
0
SPLINE
5
114
100
AcDbEntity
8
1
62
256
6
ByLayer
370
18
48
1
60
0
100
AcDbSpline
70
4
71
3
72
30
73
26
40
0
40
0
40
0
40
0
40
0.12499999999996
40
0.12499999999996
40
0.24999999999992
40
0.24999999999992
40
0.37499999999988
40
0.37499999999988
40
0.437499999999893
40
0.437499999999893
40
0.499999999999905
40
0.499999999999905
40
0.624999999999929
40
0.624999999999929
40
0.687499999999941
40
0.687499999999941
40
0.749999999999953
40
0.749999999999953
40
0.812499999999964
40
0.812499999999964
40
0.874999999999976
40
0.874999999999976
40
0.937499999999988
40
0.937499999999988
40
1
40
1
40
1
40
1
41
1
10
49.1808063912791
20
-0.765927291494137
30
0
41
1
10
49.1717130819762
20
-0.750982477628071
30
0
41
1
10
49.1611743211916
20
-0.736177035931604
30
0
41
1
10
49.13780171013
20
-0.706818708248392
30
0
41
1
10
49.12484559717
20
-0.692163575615837
30
0
41
1
10
49.097587411988
20
-0.663939140359332
30
0
41
1
10
49.0832313073165
20
-0.650284647370967
30
0
41
1
10
49.06065146012
20
-0.630442701674809
30
0
41
1
10
49.0529262290415
20
-0.623919772309137
30
0
41
1
10
49.0373899988276
20
-0.611309606939244
30
0
41
1
10
49.0295503765665
20
-0.605195820359029
30
0
41
1
10
49.0058273439235
20
-0.587421722919487
30
0
41
1
10
48.9897426517096
20
-0.576318967048337
30
0
41
1
10
48.9652082711333
20
-0.560904112918621
30
0
41
1
10
48.9569236863892
20
-0.555955544617206
30
0
41
1
10
48.940604755711
20
-0.546749092230812
30
0
41
1
10
48.9325316805977
20
-0.542464343535215
30
0
41
1
10
48.9165882035096
20
-0.534589474825026
30
0
41
1
10
48.9087150479059
20
-0.530997262315623
30
0
41
1
10
48.8932272240773
20
-0.524626903598772
30
0
41
1
10
48.8857877637844
20
-0.521921071041163
30
0
41
1
10
48.8715887224331
20
-0.517565630552127
30
0
41
1
10
48.8648112541845
20
-0.515911227911857
30
0
41
1
10
48.8521374134842
20
-0.513876250060235
30
0
41
1
10
48.8463710251734
20
-0.513514489367594
30
0
41
1
10
48.8412386434451
20
-0.513891722949523
30
0
0
SPLINE
5
115
100
AcDbEntity
8
1
62
256
6
ByLayer
370
18
48
1
60
0
100
AcDbSpline
70
4
71
3
72
14
73
10
40
0
40
0
40
0
40
0
40
0.25
40
0.25
40
0.5
40
0.5
40
0.75
40
0.75
40
1
40
1
40
1
40
1
41
1
10
48.8412386434439
20
-0.513891722946909
30
0
41
1
10
48.8049830014674
20
-0.516556537532296
30
0
41
1
10
48.7688215129528
20
-0.517027801166364
30
0
41
1
10
48.6966489410649
20
-0.513659381264944
30
0
41
1
10
48.6606903777383
20
-0.509829268549737
30
0
41
1
10
48.5890543359784
20
-0.498042838588049
30
0
41
1
10
48.5533388311173
20
-0.490076881154636
30
0
41
1
10
48.4822958963072
20
-0.470185653663236
30
0
41
1
10
48.4469521375995
20
-0.458260397956479
30
0
41
1
10
48.4117506759937
20
-0.444410858516335
30
0
0
SPLINE
5
116
100
AcDbEntity
8
1
62
256
6
ByLayer
370
18
48
1
60
0
100
AcDbSpline
70
4
71
3
72
8
73
4
40
0
40
0
40
0
40
0
40
1
40
1
40
1
40
1
41
1
10
48.2824941163278
20
-0.31575051472268
30
0
41
1
10
48.3256021268502
20
-0.358776338657407
30
0
41
1
10
48.3686740735307
20
-0.401676343670431
30
0
41
1
10
48.4117506759938
20
-0.44441085851642
30
0
0
SPLINE
5
117
100
AcDbEntity
8
1
62
256
6
ByLayer
370
18
48
1
60
0
100
AcDbSpline
70
4
71
3
72
14
73
10
40
0
40
0
40
0
40
0
40
0.25
40
0.25
40
0.5
40
0.5
40
0.75
40
0.75
40
1
40
1
40
1
40
1
41
1
10
48.2824941163288
20
-0.315750514718758
30
0
41
1
10
48.2452023723818
20
-0.259517532764647
30
0
41
1
10
48.20776991791
20
-0.204963399720583
30
0
41
1
10
48.1325163344654
20
-0.0993635898559262
30
0
41
1
10
48.0946660503068
20
-0.0482855840464822
30
0
41
1
10
48.0186249112721
20
0.0499668670956908
30
0
41
1
10
47.9804157395579
20
0.0971627798247141
30
0
41
1
10
47.9036181548054
20
0.187421213105779
30
0
41
1
10
47.865060947368
20
0.23046144125388
30
0
41
1
10
47.8262743274216
20
0.271358062179331
30
0
0
SPLINE
5
118
100
AcDbEntity
8
1
62
256
6
ByLayer
370
18
48
1
60
0
100
AcDbSpline
70
4
71
3
72
30
73
26
40
0
40
0
40
0
40
0
40
0.12500000000004
40
0.12500000000004
40
0.25000000000008
40
0.25000000000008
40
0.375000000000121
40
0.375000000000121
40
0.437500000000109
40
0.437500000000109
40
0.500000000000096
40
0.500000000000096
40
0.625000000000072
40
0.625000000000072
40
0.68750000000006
40
0.68750000000006
40
0.750000000000048
40
0.750000000000048
40
0.812500000000036
40
0.812500000000036
40
0.875000000000024
40
0.875000000000024
40
0.937500000000012
40
0.937500000000012
40
1
40
1
40
1
40
1
41
1
10
47.8262743274216
20
0.27135806217936
30
0
41
1
10
47.8171811509929
20
0.280945909481488
30
0
41
1
10
47.8066454006176
20
0.291160736834513
30
0
41
1
10
47.7832863884138
20
0.312531592501557
30
0
41
1
10
47.7703423086578
20
0.323781131442274
30
0
41
1
10
47.7431127545049
20
0.346502598801891
30
0
41
1
10
47.7287726391281
20
0.358030815342289
30
0
41
1
10
47.7062167787079
20
0.375614651776289
30
0
41
1
10
47.6984991431955
20
0.381542161020917
30
0
41
1
10
47.6829758131768
20
0.393305692516208
30
0
41
1
10
47.6751419228409
20
0.399164158620067
30
0
41
1
10
47.6514328492879
20
0.416687206694547
30
0
41
1
10
47.6353530726623
20
0.428298720596302
30
0
41
1
10
47.6108151569421
20
0.445686409668667
30
0
41
1
10
47.6025242037123
20
0.451505815781843
30
0
41
1
10
47.586184607722
20
0.462877556591764
30
0
41
1
10
47.5781000192109
20
0.468455873520583
30
0
41
1
10
47.562131798456
20
0.479389538242771
30
0
41
1
10
47.5542471329579
20
0.484745723317559
30
0
41
1
10
47.5387284968982
20
0.495206908382386
30
0
41
1
10
47.5312742728239
20
0.500190909795776
30
0
41
1
10
47.5170478258961
20
0.509621370139342
30
0
41
1
10
47.5102574836117
20
0.514079908029686
30
0
41
1
10
47.4975619436032
20
0.522310124092371
30
0
41
1
10
47.4917871863709
20
0.525997641718448
30
0
41
1
10
47.4866488732114
20
0.529202007099286
30
0
0
SPLINE
5
119
100
AcDbEntity
8
1
62
256
6
ByLayer
370
18
48
1
60
0
100
AcDbSpline
70
4
71
3
72
14
73
10
40
0
40
0
40
0
40
0
40
0.25
40
0.25
40
0.5
40
0.5
40
0.75
40
0.75
40
1
40
1
40
1
40
1
41
1
10
47.4866488732101
20
0.529202007102242
30
0
41
1
10
47.4504021823277
20
0.551806242739104
30
0
41
1
10
47.4142462789257
20
0.576398758039403
30
0
41
1
10
47.3420815159368
20
0.62955561526627
30
0
41
1
10
47.3061247626073
20
0.658073513691448
30
0
41
1
10
47.2344911659449
20
0.718809095564723
30
0
41
1
10
47.198775900126
20
0.751058692799745
30
0
41
1
10
47.1277344189802
20
0.818968573617013
30
0
41
1
10
47.0923916556747
20
0.854640203700086
30
0
41
1
10
47.0571914720907
20
0.891974598133288
30
0
0
SPLINE
5
11A
100
AcDbEntity
8
1
62
256
6
ByLayer
370
18
48
1
60
0
100
AcDbSpline
70
4
71
3
72
8
73
4
40
0
40
0
40
0
40
0
40
1
40
1
40
1
40
1
41
1
10
46.9277578518135
20
1.0155079516403
30
0
41
1
10
46.9708973621234
20
0.974534709539114
30
0
41
1
10
47.014036912425
20
0.93335158210931
30
0
41
1
10
47.0571914720908
20
0.891974598133231
30
0
0
SPLINE
5
11B
100
AcDbEntity
8
1
62
256
6
ByLayer
370
18
48
1
60
0
100
AcDbSpline
70
4
71
3
72
14
73
10
40
0
40
0
40
0
40
0
40
0.25
40
0.25
40
0.5
40
0.5
40
0.75
40
0.75
40
1
40
1
40
1
40
1
41
1
10
46.9277578518136
20
1.01550795164016
30
0
41
1
10
46.8904753794096
20
1.04489884151542
30
0
41
1
10
46.853056148187
20
1.07218438326316
30
0
41
1
10
46.7778548779887
20
1.12247381144408
30
0
41
1
10
46.7400520074801
20
1.14550696912778
30
0
41
1
10
46.6641182596248
20
1.18700367437796
30
0
41
1
10
46.6259586848358
20
1.20545364256606
30
0
41
1
10
46.5491855134151
20
1.23728619490782
30
0
41
1
10
46.5106111629855
20
1.25069868743952
30
0
41
1
10
46.4717873670586
20
1.26156557918071
30
0
0
SPLINE
5
11C
100
AcDbEntity
8
1
62
256
6
ByLayer
370
18
48
1
60
0
100
AcDbSpline
70
4
71
3
72
30
73
26
40
0
40
0
40
0
40
0
40
0.124999999999995
40
0.124999999999995
40
0.24999999999999
40
0.24999999999999
40
0.374999999999985
40
0.374999999999985
40
0.437500000000014
40
0.437500000000014
40
0.500000000000044
40
0.500000000000044
40
0.625000000000032
40
0.625000000000032
40
0.687500000000027
40
0.687500000000027
40
0.750000000000022
40
0.750000000000022
40
0.812500000000016
40
0.812500000000016
40
0.875000000000011
40
0.875000000000011
40
0.937500000000005
40
0.937500000000005
40
1
40
1
40
1
40
1
41
1
10
46.4717873670586
20
1.26156557918051
30
0
41
1
10
46.4626816842862
20
1.26411428588358
30
0
41
1
10
46.4521292858906
20
1.2679452894505
30
0
41
1
10
46.4287291394423
20
1.27757461390448
30
0
41
1
10
46.4157595949542
20
1.2834423940991
30
0
41
1
10
46.388483286933
20
1.29667555914438
30
0
41
1
10
46.3741214926822
20
1.30405805261322
30
0
41
1
10
46.351541546674
20
1.31631306621298
30
0
41
1
10
46.3438185997446
20
1.32061054812368
30
0
41
1
10
46.3282890963277
20
1.32947688153308
30
0
41
1
10
46.3204537004191
20
1.33406076635217
30
0
41
1
10
46.296744597766
20
1.34829041372799
30
0
41
1
10
46.2806707989967
20
1.35840322817967
30
0
41
1
10
46.2561493437619
20
1.37477246642524
30
0
41
1
10
46.2478681550375
20
1.38046010935858
30
0
41
1
10
46.2315513212509
20
1.39203959748079
30
0
41
1
10
46.2234776019052
20
1.3979551711698
30
0
41
1
10
46.2075294366951
20
1.41008064406719
30
0
41
1
10
46.1996518644096
20
1.4162923489898
30
0
41
1
10
46.1841534240126
20
1.42906762711826
30
0
41
1
10
46.1767071212915
20
1.43548793744139
30
0
41
1
10
46.1624926205531
20
1.4484090746879
30
0
41
1
10
46.1557055265893
20
1.45492801388062
30
0
41
1
10
46.1430163652932
20
1.46798654300014
30
0
41
1
10
46.1372427934265
20
1.47439234735378
30
0
41
1
10
46.1321043890136
20
1.48065497023586
30
0
0
SPLINE
5
11D
100
AcDbEntity
8
1
62
256
6
ByLayer
370
18
48
1
60
0
100
AcDbSpline
70
4
71
3
72
8
73
4
40
0
40
0
40
0
40
0
40
1
40
1
40
1
40
1
41
1
10
46.1321043890136
20
1.48065497023589
30
0
41
1
10
46.0887035233816
20
1.5335514011835
30
0
41
1
10
46.0454314011485
20
1.58857933805226
30
0
41
1
10
46.0022754321466
20
1.64568349966777
30
0
0
SPLINE
5
11E
100
AcDbEntity
8
1
62
256
6
ByLayer
370
18
48
1
60
0
100
AcDbSpline
70
4
71
3
72
16
73
12
40
0
40
0
40
0
40
0
40
0.249999999999986
40
0.249999999999986
40
0.499999999999972
40
0.499999999999972
40
0.749999999999958
40
0.749999999999958
40
0.874999999999979
40
0.874999999999979
40
1
40
1
40
1
40
1
41
1
10
44.995785913437
20
-1.00501648766709
30
0
41
1
10
45.0355194237016
20
-1.03017627339395
30
0
41
1
10
45.0750359026977
20
-1.05607441050594
30
0
41
1
10
45.1535650710377
20
-1.10943697920618
30
0
41
1
10
45.1925767881742
20
-1.13690234623766
30
0
41
1
10
45.2700144210683
20
-1.19356332999976
30
0
41
1
10
45.3084394326038
20
-1.22275807412433
30
0
41
1
10
45.3656593463656
20
-1.26793639096758
30
0
41
1
10
45.3846560857015
20
-1.28322211090909
30
0
41
1
10
45.4222508580185
20
-1.31399659959385
30
0
41
1
10
45.4408985877535
20
-1.32949245420863
30
0
41
1
10
45.4593201808564
20
-1.34519366124994
30
0
0
SPLINE
5
11F
100
AcDbEntity
8
1
62
256
6
ByLayer
370
18
48
1
60
0
100
AcDbSpline
70
4
71
3
72
10
73
6
40
0
40
0
40
0
40
0
40
0.5
40
0.5
40
1
40
1
40
1
40
1
41
1
10
45.4593201808562
20
-1.34519366125002
30
0
41
1
10
45.5903836105476
20
-1.45690246046414
30
0
41
1
10
45.7187135924968
20
-1.57143918497306
30
0
41
1
10
45.9713915563175
20
-1.80456470175577
30
0
41
1
10
46.0957530946728
20
-1.92313947716218
30
0
41
1
10
46.2186565801471
20
-2.04315836953745
30
0
0
SPLINE
5
120
100
AcDbEntity
8
1
62
256
6
ByLayer
370
18
48
1
60
0
100
AcDbSpline
70
4
71
3
72
10
73
6
40
0
40
0
40
0
40
0
40
0.5
40
0.5
40
1
40
1
40
1
40
1
41
1
10
46.2186565801469
20
-2.04315836953768
30
0
41
1
10
46.2549558002766
20
-2.0310111829578
30
0
41
1
10
46.2914495144168
20
-2.01688398404724
30
0
41
1
10
46.3648240628162
20
-1.98456773842528
30
0
41
1
10
46.4016956428308
20
-1.96635189313469
30
0
41
1
10
46.4387752606914
20
-1.94617285161689
30
0
0
SPLINE
5
121
100
AcDbEntity
8
1
62
256
6
ByLayer
370
18
48
1
60
0
100
AcDbSpline
70
4
71
3
72
30
73
26
40
0
40
0
40
0
40
0
40
0.124999999999979
40
0.124999999999979
40
0.187499999999995
40
0.187499999999995
40
0.250000000000012
40
0.250000000000012
40
0.375000000000046
40
0.375000000000046
40
0.500000000000079
40
0.500000000000079
40
0.625000000000113
40
0.625000000000113
40
0.687500000000094
40
0.687500000000094
40
0.750000000000076
40
0.750000000000076
40
0.812500000000057
40
0.812500000000057
40
0.875000000000038
40
0.875000000000038
40
0.937500000000019
40
0.937500000000019
40
1
40
1
40
1
40
1
41
1
10
46.4387752606914
20
-1.94617285161687
30
0
41
1
10
46.448189795833
20
-1.94104938200058
30
0
41
1
10
46.4591391874225
20
-1.93796571297301
30
0
41
1
10
46.4773192148872
20
-1.93561717144252
30
0
41
1
10
46.4836788116639
20
-1.93522403366143
30
0
41
1
10
46.4969662773901
20
-1.9351747110548
30
0
41
1
10
46.5038326686304
20
-1.93552064545906
30
0
41
1
10
46.5248533389313
20
-1.93757121206059
30
0
41
1
10
46.5395037072194
20
-1.94027441406482
30
0
41
1
10
46.5699597949264
20
-1.94825659881707
30
0
41
1
10
46.5858763188783
20
-1.9535988763472
30
0
41
1
10
46.6176817066429
20
-1.96666203063924
30
0
41
1
10
46.6336915503334
20
-1.97439725802084
30
0
41
1
10
46.65782075795
20
-1.98808224342758
30
0
41
1
10
46.6659232919404
20
-1.99302117903406
30
0
41
1
10
46.6819658257255
20
-2.00357567797352
30
0
41
1
10
46.6898618236602
20
-2.00915836007277
30
0
41
1
10
46.7053738425327
20
-2.02099240910613
30
0
41
1
10
46.7129901655811
20
-2.02724306135983
30
0
41
1
10
46.7278953918312
20
-2.04051524554239
30
0
41
1
10
46.7352102266934
20
-2.04757194697598
30
0
41
1
10
46.749014158611
20
-2.06215375596938
30
0
41
1
10
46.755556027763
20
-2.06971992316406
30
0
41
1
10
46.7678111726365
20
-2.08548560785309
30
0
41
1
10
46.7735437884375
20
-2.0937268282209
30
0
41
1
10
46.7786295440373
20
-2.10211525813813
30
0
0
SPLINE
5
122
100
AcDbEntity
8
1
62
256
6
ByLayer
370
18
48
1
60
0
100
AcDbSpline
70
4
71
3
72
10
73
6
40
0
40
0
40
0
40
0
40
0.5
40
0.5
40
1
40
1
40
1
40
1
41
1
10
46.7786295440372
20
-2.10211525813739
30
0
41
1
10
46.8520906658217
20
-2.22328181040996
30
0
41
1
10
46.9248127089459
20
-2.34681928699797
30
0
41
1
10
47.0693499684431
20
-2.59813852654588
30
0
41
1
10
47.1407546262644
20
-2.72520577288029
30
0
41
1
10
47.2115907091887
20
-2.85347965596355
30
0
0
SPLINE
5
123
100
AcDbEntity
8
1
62
256
6
ByLayer
370
18
48
1
60
0
100
AcDbSpline
70
4
71
3
72
10
73
6
40
0
40
0
40
0
40
0
40
0.5
40
0.5
40
1
40
1
40
1
40
1
41
1
10
47.3408148109991
20
-2.9111232117819
30
0
41
1
10
47.4145787692364
20
-2.8439504948285
30
0
41
1
10
47.4890096114533
20
-2.76953766260201
30
0
41
1
10
47.6399037683411
20
-2.60613263676831
30
0
41
1
10
47.7159535410079
20
-2.51758831839965
30
0
41
1
10
47.7930269497354
20
-2.42210257061785
30
0
0
SPLINE
5
124
100
AcDbEntity
8
1
62
256
6
ByLayer
370
18
48
1
60
0
100
AcDbSpline
70
4
71
3
72
30
73
26
40
0
40
0
40
0
40
0
40
0.124999999999955
40
0.124999999999955
40
0.187499999999958
40
0.187499999999958
40
0.249999999999961
40
0.249999999999961
40
0.374999999999967
40
0.374999999999967
40
0.499999999999974
40
0.499999999999974
40
0.62499999999998
40
0.62499999999998
40
0.687499999999984
40
0.687499999999984
40
0.749999999999987
40
0.749999999999987
40
0.81249999999999
40
0.81249999999999
40
0.874999999999993
40
0.874999999999993
40
0.937499999999997
40
0.937499999999997
40
1
40
1
40
1
40
1
41
1
10
47.7930269497354
20
-2.42210257061785
30
0
41
1
10
47.8024553870098
20
-2.4104217406348
30
0
41
1
10
47.8134251736512
20
-2.40093899864192
30
0
41
1
10
47.8316391882903
20
-2.38918423259969
30
0
41
1
10
47.8380106813362
20
-2.3856883679087
30
0
41
1
10
47.851321422746
20
-2.37949692112585
30
0
41
1
10
47.858198560652
20
-2.37683329033069
30
0
41
1
10
47.8792461481456
20
-2.37010324489279
30
0
41
1
10
47.8939085157434
20
-2.36724280745776
30
0
41
1
10
47.924377004145
20
-2.36461421349151
30
0
41
1
10
47.9402914779236
20
-2.36488437169342
30
0
41
1
10
47.9720851481357
20
-2.36867257774378
30
0
41
1
10
47.9880864178782
20
-2.37215692837484
30
0
41
1
10
48.0122014311693
20
-2.38008168575257
30
0
41
1
10
48.0202998982264
20
-2.38319652850464
30
0
41
1
10
48.0363259728741
20
-2.3903706403681
30
0
41
1
10
48.0442142022023
20
-2.39440688993474
30
0
41
1
10
48.0597113983767
20
-2.40345434567368
30
0
41
1
10
48.0673206670896
20
-2.4084645142018
30
0
41
1
10
48.0822124116748
20
-2.41960180276692
30
0
41
1
10
48.08952032781
20
-2.42576328074625
30
0
41
1
10
48.1033125455041
20
-2.43900727070888
30
0
41
1
10
48.109849544867
20
-2.44612162053696
30
0
41
1
10
48.1220970040961
20
-2.46148368651933
30
0
41
1
10
48.1278274017495
20
-2.46977769049983
30
0
41
1
10
48.1329128725872
20
-2.47851836156911
30
0
0
SPLINE
5
125
100
AcDbEntity
8
1
62
256
6
ByLayer
370
18
48
1
60
0
100
AcDbSpline
70
4
71
3
72
10
73
6
40
0
40
0
40
0
40
0
40
0.5
40
0.5
40
1
40
1
40
1
40
1
41
1
10
48.132912872587
20
-2.47851836156892
30
0
41
1
10
48.2064417916128
20
-2.60489645237044
30
0
41
1
10
48.2792233578405
20
-2.73024050945395
30
0
41
1
10
48.4238729318055
20
-2.97867379009455
30
0
41
1
10
48.4953272228681
20
-3.10104936569397
30
0
41
1
10
48.5662125027994
20
-3.22151011598925
30
0
0
SPLINE
5
126
100
AcDbEntity
8
1
62
256
6
ByLayer
370
18
48
1
60
0
100
AcDbSpline
70
4
71
3
72
10
73
6
40
0
40
0
40
0
40
0
40
0.5
40
0.5
40
1
40
1
40
1
40
1
41
1
10
48.695609687035
20
-3.22785831337842
30
0
41
1
10
48.7692779332941
20
-3.11282111056903
30
0
41
1
10
48.8436106180843
20
-2.99300613826185
30
0
41
1
10
48.9943269639091
20
-2.7440618363062
30
0
41
1
10
49.0702934427311
20
-2.61561295759949
30
0
41
1
10
49.1473057902529
20
-2.48329095507421
30
0
0
SPLINE
5
127
100
AcDbEntity
8
1
62
256
6
ByLayer
370
18
48
1
60
0
100
AcDbSpline
70
4
71
3
72
30
73
26
40
0
40
0
40
0
40
0
40
0.124999999999974
40
0.124999999999974
40
0.187499999999935
40
0.187499999999935
40
0.249999999999896
40
0.249999999999896
40
0.374999999999878
40
0.374999999999878
40
0.49999999999986
40
0.49999999999986
40
0.624999999999843
40
0.624999999999843
40
0.687499999999869
40
0.687499999999869
40
0.749999999999895
40
0.749999999999895
40
0.812499999999921
40
0.812499999999921
40
0.874999999999947
40
0.874999999999947
40
0.937499999999974
40
0.937499999999974
40
1
40
1
40
1
40
1
41
1
10
49.1473057902529
20
-2.48329095507421
30
0
41
1
10
49.1567427266652
20
-2.46707648604465
30
0
41
1
10
49.1677254112209
20
-2.45283937981159
30
0
41
1
10
49.1859642313909
20
-2.43371608828448
30
0
41
1
10
49.1923449025881
20
-2.42772328438869
30
0
41
1
10
49.2056753987069
20
-2.41646082286138
30
0
41
1
10
49.212562967835
20
-2.41124725531628
30
0
41
1
10
49.2336389741776
20
-2.39689720033942
30
0
41
1
10
49.2483175305858
20
-2.38896541909366
30
0
41
1
10
49.278805137755
20
-2.37617890886102
30
0
41
1
10
49.2947179419157
20
-2.37133228720839
30
0
41
1
10
49.3264992762283
20
-2.36519569302826
30
0
41
1
10
49.342493227941
20
-2.36382962340539
30
0
41
1
10
49.3665997767189
20
-2.36463517913822
30
0
41
1
10
49.3746977536766
20
-2.36539203152648
30
0
41
1
10
49.3907043503474
20
-2.3679585582158
30
0
41
1
10
49.398583556203
20
-2.36975719760989
30
0
41
1
10
49.4140641259627
20
-2.37446758115968
30
0
41
1
10
49.4216657357381
20
-2.37737812669951
30
0
41
1
10
49.4365426373554
20
-2.38446860297276
30
0
41
1
10
49.443840224042
20
-2.3886749724075
30
0
41
1
10
49.4576122938554
20
-2.3982969355138
30
0
41
1
10
49.4641402629937
20
-2.40373041934419
30
0
41
1
10
49.4763721000232
20
-2.41603032402276
30
0
41
1
10
49.4820954751636
20
-2.42293828034712
30
0
41
1
10
49.4871762145722
20
-2.43051180196076
30
0
0
SPLINE
5
128
100
AcDbEntity
8
1
62
256
6
ByLayer
370
18
48
1
60
0
100
AcDbSpline
70
4
71
3
72
10
73
6
40
0
40
0
40
0
40
0
40
0.5
40
0.5
40
1
40
1
40
1
40
1
41
1
10
49.4871762145737
20
-2.43051180196369
30
0
41
1
10
49.5606759887098
20
-2.54007304557027
30
0
41
1
10
49.6334057458439
20
-2.64532937757002
30
0
41
1
10
49.7779470430402
20
-2.84752505185597
30
0
41
1
10
49.8493473969241
20
-2.94387227292543
30
0
41
1
10
49.9201827253059
20
-3.03552886092049
30
0
0
SPLINE
5
129
100
AcDbEntity
8
1
62
256
6
ByLayer
370
18
48
1
60
0
100
AcDbSpline
70
4
71
3
72
8
73
4
40
0
40
0
40
0
40
0
40
1
40
1
40
1
40
1
41
1
10
50.0498741104796
20
-2.98930603416326
30
0
41
1
10
50.0065819667975
20
-3.00552167194078
30
0
41
1
10
49.963352955574
20
-3.02092844008189
30
0
41
1
10
49.9201827253057
20
-3.03552886092081
30
0
0
SPLINE
5
12A
100
AcDbEntity
8
1
62
256
6
ByLayer
370
18
48
1
60
0
100
AcDbSpline
70
4
71
3
72
10
73
6
40
0
40
0
40
0
40
0
40
0.5
40
0.5
40
1
40
1
40
1
40
1
41
1
10
50.0498741104796
20
-2.98930603416355
30
0
41
1
10
50.1235649998495
20
-2.84646926782054
30
0
41
1
10
50.19792034406
20
-2.70218288488672
30
0
41
1
10
50.3486340412571
20
-2.41112719781532
30
0
41
1
10
50.4245712011164
20
-2.26515297285363
30
0
41
1
10
50.5015641805018
20
-2.11896289203651
30
0
0
SPLINE
5
12B
100
AcDbEntity
8
1
62
256
6
ByLayer
370
18
48
1
60
0
100
AcDbSpline
70
4
71
3
72
18
73
14
40
0
40
0
40
0
40
0
40
0.230156037519023
40
0.230156037519023
40
0.345234056278485
40
0.345234056278485
40
0.460312075037946
40
0.460312075037946
40
0.690468112556868
40
0.690468112556868
40
0.92062415007579
40
0.92062415007579
40
1
40
1
40
1
40
1
41
1
10
50.5015641805018
20
-2.11896289203651
30
0
41
1
10
50.5110060034369
20
-2.10103527228517
30
0
41
1
10
50.5219970253522
20
-2.08451870968588
30
0
41
1
10
50.5402523871534
20
-2.06134708675063
30
0
41
1
10
50.5466392743061
20
-2.05389696952315
30
0
41
1
10
50.5599836707121
20
-2.03951487242387
30
0
41
1
10
50.5668791242785
20
-2.03265308479828
30
0
41
1
10
50.5879785605575
20
-2.01316129750324
30
0
41
1
10
50.6026735938985
20
-2.00152172346893
30
0
41
1
10
50.6331959170185
20
-1.98076492041011
30
0
41
1
10
50.6491251458099
20
-1.97162650795613
30
0
41
1
10
50.6705075662065
20
-1.96152134459055
30
0
41
1
10
50.676002304679
20
-1.95911048541365
30
0
41
1
10
50.6815073487662
20
-1.95688633003726
30
0
0
SPLINE
5
12C
100
AcDbEntity
8
1
62
256
6
ByLayer
370
18
48
1
60
0
100
AcDbSpline
70
4
71
3
72
10
73
6
40
0
40
0
40
0
40
0
40
0.5
40
0.5
40
1
40
1
40
1
40
1
41
1
10
54.0014645194548
20
2.07619518100896
30
0
41
1
10
54.0481373345489
20
2.12749011750296
30
0
41
1
10
54.0944984345091
20
2.17620388065868
30
0
41
1
10
54.1867516246962
20
2.26859131173345
30
0
41
1
10
54.2326950053822
20
2.31230752154556
30
0
41
1
10
54.2782852727675
20
2.35334533742693
30
0
0
SPLINE
5
12D
100
AcDbEntity
8
1
62
256
6
ByLayer
370
18
48
1
60
0
100
AcDbSpline
70
4
71
3
72
10
73
6
40
0
40
0
40
0
40
0
40
0.5
40
0.5
40
1
40
1
40
1
40
1
41
1
10
54.2782852727675
20
2.35334533742693
30
0
41
1
10
54.3658203090201
20
2.28592212102603
30
0
41
1
10
54.4536389556697
20
2.21664847765197
30
0
41
1
10
54.6299816158805
20
2.07466570251737
30
0
41
1
10
54.7185072409497
20
2.00196858482724
30
0
41
1
10
54.8074724893834
20
1.92765639747245
30
0
0
SPLINE
5
12E
100
AcDbEntity
8
1
62
256
6
ByLayer
370
18
48
1
60
0
100
AcDbSpline
70
4
71
3
72
10
73
6
40
0
40
0
40
0
40
0
40
0.5
40
0.5
40
1
40
1
40
1
40
1
41
1
10
54.8074724893835
20
1.92765639747245
30
0
41
1
10
54.8418931813731
20
1.86228949906985
30
0
41
1
10
54.8764472632489
20
1.79746021048024
30
0
41
1
10
54.9459009511627
20
1.66892530424252
30
0
41
1
10
54.9807963262069
20
1.6052130135229
30
0
41
1
10
55.0159254369764
20
1.54212178944661
30
0
0
SPLINE
5
12F
100
AcDbEntity
8
1
62
256
6
ByLayer
370
18
48
1
60
0
100
AcDbSpline
70
4
71
3
72
30
73
26
40
0
40
0
40
0
40
0
40
0.124999999999929
40
0.124999999999929
40
0.187499999999893
40
0.187499999999893
40
0.249999999999858
40
0.249999999999858
40
0.374999999999847
40
0.374999999999847
40
0.499999999999836
40
0.499999999999836
40
0.624999999999825
40
0.624999999999825
40
0.687499999999854
40
0.687499999999854
40
0.749999999999883
40
0.749999999999883
40
0.812499999999912
40
0.812499999999912
40
0.874999999999942
40
0.874999999999942
40
0.937499999999971
40
0.937499999999971
40
1
40
1
40
1
40
1
41
1
10
55.0159254369764
20
1.54212178944658
30
0
41
1
10
55.0253791498094
20
1.52514309850815
30
0
41
1
10
55.036383064423
20
1.50891581142719
30
0
41
1
10
55.0546556592531
20
1.48544153181305
30
0
41
1
10
55.0610480432502
20
1.47776441264082
30
0
41
1
10
55.0744031646661
20
1.46268933914621
30
0
41
1
10
55.081305870541
20
1.45536201503913
30
0
41
1
10
55.1024221198641
20
1.43417031024771
30
0
41
1
10
55.117126070303
20
1.42098809736771
30
0
41
1
10
55.1476651079573
20
1.39635809015286
30
0
41
1
10
55.1636020852158
20
1.38486704787283
30
0
41
1
10
55.1954136098575
20
1.36446345003088
30
0
41
1
10
55.2114148691109
20
1.35543218297022
30
0
41
1
10
55.235512249337
20
1.34377947192712
30
0
41
1
10
55.2436053920521
20
1.34019705144053
30
0
41
1
10
55.2595781239516
20
1.33383694271407
30
0
41
1
10
55.2674381108806
20
1.33106245520139
30
0
41
1
10
55.2828759605363
20
1.32637889063326
30
0
41
1
10
55.2904541208859
20
1.32446891923902
30
0
41
1
10
55.3052811282315
20
1.32162759081726
30
0
41
1
10
55.312552667148
20
1.32070189269928
30
0
41
1
10
55.3262757823167
20
1.32002885642038
30
0
41
1
10
55.3327800732515
20
1.32026649002606
30
0
41
1
10
55.3449680308577
20
1.32206147745828
30
0
41
1
10
55.3506741541421
20
1.32363571367307
30
0
41
1
10
55.3557451798555
20
1.32595777255381
30
0
0
SPLINE
5
130
100
AcDbEntity
8
1
62
256
6
ByLayer
370
18
48
1
60
0
100
AcDbSpline
70
4
71
3
72
8
73
4
40
0
40
0
40
0
40
0
40
1
40
1
40
1
40
1
41
1
10
55.3557451798554
20
1.32595777255455
30
0
41
1
10
55.3904947647446
20
1.34186985558361
30
0
41
1
10
55.4250693234014
20
1.35599757914105
30
0
41
1
10
55.4595016739229
20
1.36838855080882
30
0
0
SPLINE
5
131
100
AcDbEntity
8
1
62
256
6
ByLayer
370
18
48
1
60
0
100
AcDbSpline
70
4
71
3
72
14
73
10
40
0
40
0
40
0
40
0
40
0.5
40
0.5
40
0.75
40
0.75
40
0.875
40
0.875
40
1
40
1
40
1
40
1
41
1
10
55.4595016739229
20
1.36838855080882
30
0
41
1
10
55.6216328835285
20
1.22781534097058
30
0
41
1
10
55.7842538121722
20
1.08674261584181
30
0
41
1
10
56.03004670884
20
0.875813006188366
30
0
41
1
10
56.1122844953518
20
0.805612389093966
30
0
41
1
10
56.2361665654674
20
0.700560892471373
30
0
41
1
10
56.2775465922854
20
0.665583456657657
30
0
41
1
10
56.3604909921358
20
0.595722911919978
30
0
41
1
10
56.402051275185
20
0.560835099542885
30
0
41
1
10
56.4437735270148
20
0.52607368393987
30
0
0
SPLINE
5
132
100
AcDbEntity
8
1
62
256
6
ByLayer
370
18
48
1
60
0
100
AcDbSpline
70
4
71
3
72
12
73
8
40
0
40
0
40
0
40
0
40
0.5
40
0.5
40
0.75
40
0.75
40
1
40
1
40
1
40
1
41
1
10
56.4437735270148
20
0.52607368393987
30
0
41
1
10
56.459108856605
20
0.511614793130434
30
0
41
1
10
56.4751749806001
20
0.49750523247468
30
0
41
1
10
56.5002667682081
20
0.476780594467812
30
0
41
1
10
56.5088431160019
20
0.469912097990232
30
0
41
1
10
56.526040805797
20
0.456541529280599
30
0
41
1
10
56.5346713409652
20
0.450029341403536
30
0
41
1
10
56.5433275857296
20
0.443683337725275
30
0
0
SPLINE
5
133
100
AcDbEntity
8
1
62
256
6
ByLayer
370
18
48
1
60
0
100
AcDbSpline
70
4
71
3
72
8
73
4
40
0
40
0
40
0
40
0
40
1
40
1
40
1
40
1
41
1
10
56.5433275857296
20
0.443683337725418
30
0
41
1
10
56.5951801406187
20
0.401072063124133
30
0
41
1
10
56.647323688762
20
0.358704230487547
30
0
41
1
10
56.6999999208682
20
0.316857406037315
30
0
0
SPLINE
5
134
100
AcDbEntity
8
1
62
256
6
ByLayer
370
18
48
1
60
0
100
AcDbSpline
70
4
71
3
72
12
73
8
40
0
40
0
40
0
40
0
40
0.250000000000015
40
0.250000000000015
40
0.50000000000003
40
0.50000000000003
40
1
40
1
40
1
40
1
41
1
10
56.6999999208682
20
0.316857406037315
30
0
41
1
10
56.723477685336
20
0.293414078483579
30
0
41
1
10
56.7472996627702
20
0.271181103816332
30
0
41
1
10
56.7956928177747
20
0.229114182451923
30
0
41
1
10
56.8202780938097
20
0.209295713461529
30
0
41
1
10
56.895404276111
20
0.153928903821765
30
0
41
1
10
56.9469639668168
20
0.122702645202452
30
0
41
1
10
57
20
0.098954084360912
30
0
0
SPLINE
5
135
100
AcDbEntity
8
1
62
256
6
ByLayer
370
18
48
1
60
0
100
AcDbSpline
70
4
71
3
72
24
73
20
40
0
40
0
40
0
40
0
40
0.0625000000000008
40
0.0625000000000008
40
0.125000000000002
40
0.125000000000002
40
0.250000000000003
40
0.250000000000003
40
0.312500000000003
40
0.312500000000003
40
0.375000000000003
40
0.375000000000003
40
0.500000000000003
40
0.500000000000003
40
0.750000000000001
40
0.750000000000001
40
0.875000000000001
40
0.875000000000001
40
1
40
1
40
1
40
1
41
1
10
57
20
0.098954084360912
30
0
41
1
10
57
20
0.101426435965124
30
0
41
1
10
57
20
0.104243575643835
30
0
41
1
10
57
20
0.11048214528509
30
0
41
1
10
57
20
0.113907641118942
30
0
41
1
10
57.0000000000001
20
0.125078603145795
30
0
41
1
10
57.0000000000001
20
0.133706313749684
30
0
41
1
10
57.0000000000001
20
0.148439622694298
30
0
41
1
10
57
20
0.153700366436311
30
0
41
1
10
57
20
0.164407882331744
30
0
41
1
10
57.0000000000001
20
0.16982087366091
30
0
41
1
10
57.0000000000001
20
0.18625805494591
30
0
41
1
10
57
20
0.197499989545236
30
0
41
1
10
57
20
0.232144577386379
30
0
41
1
10
57
20
0.256425637478031
30
0
41
1
10
57
20
0.294600361802765
30
0
41
1
10
57
20
0.30762556089411
30
0
41
1
10
57.0000000000001
20
0.334154769271009
30
0
41
1
10
57.0000000000001
20
0.347671575062549
30
0
41
1
10
57.0000000000001
20
0.361439104040386
30
0
0
SPLINE
5
136
100
AcDbEntity
8
1
62
256
6
ByLayer
370
18
48
1
60
0
100
AcDbSpline
70
4
71
3
72
22
73
18
40
0
40
0
40
0
40
0
40
0.249999999999999
40
0.249999999999999
40
0.374999999999999
40
0.374999999999999
40
0.437499999999999
40
0.437499999999999
40
0.499999999999998
40
0.499999999999998
40
0.624999999999998
40
0.624999999999998
40
0.687499999999998
40
0.687499999999998
40
0.749999999999998
40
0.749999999999998
40
1
40
1
40
1
40
1
41
1
10
57
20
1.50093239453159
30
0
41
1
10
57
20
1.54768909175664
30
0
41
1
10
57
20
1.59528136672824
30
0
41
1
10
57
20
1.66761463367396
30
0
41
1
10
57
20
1.6918563340717
30
0
41
1
10
57.0000000000001
20
1.72842639680348
30
0
41
1
10
57.0000000000001
20
1.74065395665406
30
0
41
1
10
57.0000000000001
20
1.7651578239209
30
0
41
1
10
57
20
1.7774084668367
30
0
41
1
10
56.9999999999999
20
1.81453485066723
30
0
41
1
10
57
20
1.83981529818274
30
0
41
1
10
57
20
1.87860529964451
30
0
41
1
10
57
20
1.89167830092669
30
0
41
1
10
56.9999999999999
20
1.91811580314604
30
0
41
1
10
57
20
1.9315106083381
30
0
41
1
10
57
20
1.99846555836595
30
0
41
1
10
57.0000000000001
20
2.05244856453143
30
0
41
1
10
57
20
2.10684296383025
30
0
0
SPLINE
5
137
100
AcDbEntity
8
1
62
256
6
ByLayer
370
18
48
1
60
0
100
AcDbSpline
70
4
71
3
72
14
73
10
40
0
40
0
40
0
40
0
40
0.5
40
0.5
40
0.75
40
0.75
40
0.875
40
0.875
40
1
40
1
40
1
40
1
41
1
10
57
20
2.1068429638301
30
0
41
1
10
56.9517897471766
20
2.15699509671296
30
0
41
1
10
56.9026446000557
20
2.20713976652203
30
0
41
1
10
56.8275958279362
20
2.28280115671558
30
0
41
1
10
56.8023734223062
20
2.30807948269995
30
0
41
1
10
56.7642229160561
20
2.34615355602463
30
0
41
1
10
56.7514563291807
20
2.35886788902519
30
0
41
1
10
56.725811509927
20
2.38436590769575
30
0
41
1
10
56.7129226316961
20
2.39716119114931
30
0
41
1
10
56.7000000373158
20
2.40997278579178
30
0
0
SPLINE
5
138
100
AcDbEntity
8
1
62
256
6
ByLayer
370
18
48
1
60
0
100
AcDbSpline
70
4
71
3
72
10
73
6
40
0
40
0
40
0
40
0
40
0.5
40
0.5
40
1
40
1
40
1
40
1
41
1
10
56.7000000373155
20
2.40997278579175
30
0
41
1
10
56.6471999513989
20
2.42285510598885
30
0
41
1
10
56.5945993801603
20
2.43489220847303
30
0
41
1
10
56.4898177146082
20
2.45726045479228
30
0
41
1
10
56.4376303780181
20
2.46759195708805
30
0
41
1
10
56.385567906823
20
2.47709523298411
30
0
0
SPLINE
5
139
100
AcDbEntity
8
1
62
256
6
ByLayer
370
18
48
1
60
0
100
AcDbSpline
70
4
71
3
72
28
73
24
40
0
40
0
40
0
40
0
40
0.124999999999955
40
0.124999999999955
40
0.24999999999991
40
0.24999999999991
40
0.312499999999888
40
0.312499999999888
40
0.374999999999866
40
0.374999999999866
40
0.499999999999892
40
0.499999999999892
40
0.624999999999919
40
0.624999999999919
40
0.749999999999946
40
0.749999999999946
40
0.81249999999996
40
0.81249999999996
40
0.874999999999973
40
0.874999999999973
40
0.937499999999987
40
0.937499999999987
40
1
40
1
40
1
40
1
41
1
10
56.385567906823
20
2.47709523298411
30
0
41
1
10
56.3756507312974
20
2.46520152807125
30
0
41
1
10
56.3646968053009
20
2.45455319572756
30
0
41
1
10
56.340927771094
20
2.43550747400613
30
0
41
1
10
56.3283833042255
20
2.42732792966663
30
0
41
1
10
56.3086581962796
20
2.4169116314429
30
0
41
1
10
56.30193049539
20
2.41375191265993
30
0
41
1
10
56.2881712158649
20
2.40806794048566
30
0
41
1
10
56.281109295071
20
2.40553540534611
30
0
41
1
10
56.2597295741779
20
2.39901882027149
30
0
41
1
10
56.2452254351027
20
2.39608852689042
30
0
41
1
10
56.215765260609
20
2.3932183966636
30
0
41
1
10
56.2008103049569
20
2.39326806887317
30
0
41
1
10
56.1704252363526
20
2.39702586071803
30
0
41
1
10
56.1554401049688
20
2.4006845613701
30
0
41
1
10
56.1335543052746
20
2.40937908217214
30
0
41
1
10
56.1263029979263
20
2.4128472653924
30
0
41
1
10
56.1122722153187
20
2.42092417434904
30
0
41
1
10
56.105524285879
20
2.4255048056848
30
0
41
1
10
56.0926261955304
20
2.43587103529291
30
0
41
1
10
56.0864456425823
20
2.44168845687835
30
0
41
1
10
56.0749255309827
20
2.45460174221054
30
0
41
1
10
56.069656799657
20
2.46160812475674
30
0
41
1
10
56.0649296544743
20
2.46922391149508
30
0
0
SPLINE
5
13A
100
AcDbEntity
8
1
62
256
6
ByLayer
370
18
48
1
60
0
100
AcDbSpline
70
4
71
3
72
8
73
4
40
0
40
0
40
0
40
0
40
1
40
1
40
1
40
1
41
1
10
56.0649296544743
20
2.46922391149508
30
0
41
1
10
56.0524452633608
20
2.4893372053765
30
0
41
1
10
56.0399737260544
20
2.50935129296107
30
0
41
1
10
56.0275137814309
20
2.52927343829742
30
0
0
SPLINE
5
13B
100
AcDbEntity
8
1
62
256
6
ByLayer
370
18
48
1
60
0
100
AcDbSpline
70
4
71
3
72
12
73
8
40
0
40
0
40
0
40
0
40
0.499999999999984
40
0.499999999999984
40
0.749999999999992
40
0.749999999999992
40
1
40
1
40
1
40
1
41
1
10
56.0275137814309
20
2.5292734382974
30
0
41
1
10
55.8900598047162
20
2.54393030783416
30
0
41
1
10
55.7542499894068
20
2.55189961356882
30
0
41
1
10
55.5521117043666
20
2.55324021668756
30
0
41
1
10
55.4849929848355
20
2.5519232641285
30
0
41
1
10
55.3509982126467
20
2.54580300931781
30
0
41
1
10
55.2841053772426
20
2.54101643333505
30
0
41
1
10
55.2172714817384
20
2.53445518341025
30
0
0
SPLINE
5
13C
100
AcDbEntity
8
1
62
256
6
ByLayer
370
18
48
1
60
0
100
AcDbSpline
70
4
71
3
72
10
73
6
40
0
40
0
40
0
40
0
40
0.5
40
0.5
40
1
40
1
40
1
40
1
41
1
10
55.2172714817384
20
2.53445518341013
30
0
41
1
10
55.1895858176085
20
2.4803064642002
30
0
41
1
10
55.1617914212583
20
2.42584804461646
30
0
41
1
10
55.1060474348577
20
2.31652818134464
30
0
41
1
10
55.0780856198879
20
2.26164361248689
30
0
41
1
10
55.0500077898062
20
2.20653992267535
30
0
0
SPLINE
5
13D
100
AcDbEntity
8
1
62
256
6
ByLayer
370
18
48
1
60
0
100
AcDbSpline
70
4
71
3
72
30
73
26
40
0
40
0
40
0
40
0
40
0.125000000000006
40
0.125000000000006
40
0.250000000000011
40
0.250000000000011
40
0.375000000000017
40
0.375000000000017
40
0.437499999999988
40
0.437499999999988
40
0.499999999999959
40
0.499999999999959
40
0.62499999999997
40
0.62499999999997
40
0.687499999999975
40
0.687499999999975
40
0.74999999999998
40
0.74999999999998
40
0.812499999999985
40
0.812499999999985
40
0.87499999999999
40
0.87499999999999
40
0.937499999999995
40
0.937499999999995
40
1
40
1
40
1
40
1
41
1
10
55.0500077898063
20
2.2065399226762
30
0
41
1
10
55.0409336898513
20
2.18873169505355
30
0
41
1
10
55.0304299339426
20
2.17229546951401
30
0
41
1
10
55.0071416265391
20
2.14157816192804
30
0
41
1
10
54.9942344934149
20
2.12722501491942
30
0
41
1
10
54.9670503169484
20
2.10135860639596
30
0
41
1
10
54.9527197501563
20
2.08974778146015
30
0
41
1
10
54.9301657481951
20
2.07429137745353
30
0
41
1
10
54.9224437448746
20
2.06945659887728
30
0
41
1
10
54.9069072861095
20
2.06062538719834
30
0
41
1
10
54.8990671369472
20
2.05660841016629
30
0
41
1
10
54.8753420699432
20
2.04576973891233
30
0
41
1
10
54.8592561217206
20
2.04013629794838
30
0
41
1
10
54.8347126297813
20
2.0344908196023
30
0
41
1
10
54.8264148107247
20
2.03308088253223
30
0
41
1
10
54.8100490548625
20
2.031394991268
30
0
41
1
10
54.8019517313045
20
2.03110620796119
30
0
41
1
10
54.785958305881
20
2.03175697018864
30
0
41
1
10
54.7780619754951
20
2.03269456878599
30
0
41
1
10
54.7625204233438
20
2.03601261469768
30
0
41
1
10
54.7550464972648
20
2.03835913999873
30
0
41
1
10
54.7407979714656
20
2.04456156259775
30
0
41
1
10
54.7340022615031
20
2.04842640051658
30
0
41
1
10
54.721291042389
20
2.05791238704342
30
0
41
1
10
54.7155123686973
20
2.063428143078
30
0
41
1
10
54.7103732516382
20
2.06980725942637
30
0
0
SPLINE
5
13E
100
AcDbEntity
8
1
62
256
6
ByLayer
370
18
48
1
60
0
100
AcDbSpline
70
4
71
3
72
10
73
6
40
0
40
0
40
0
40
0
40
0.5
40
0.5
40
1
40
1
40
1
40
1
41
1
10
54.7103732516382
20
2.06980725942637
30
0
41
1
10
54.6652333641302
20
2.12583878995159
30
0
41
1
10
54.6202747035292
20
2.17945985821217
30
0
41
1
10
54.5306444260733
20
2.28197552120883
30
0
41
1
10
54.4859128285889
20
2.33091948282447
30
0
41
1
10
54.4414807741303
20
2.37731488639756
30
0
0
SPLINE
5
13F
100
AcDbEntity
8
1
62
256
6
ByLayer
370
18
48
1
60
0
100
AcDbSpline
70
4
71
3
72
8
73
4
40
0
40
0
40
0
40
0
40
1
40
1
40
1
40
1
41
1
10
54.4414807741303
20
2.37731488639756
30
0
41
1
10
54.3970325462868
20
2.36344450414782
30
0
41
1
10
54.352765315229
20
2.34874864474543
30
0
41
1
10
54.3086583146573
20
2.3332328388426
30
0
0
SPLINE
5
140
100
AcDbEntity
8
1
62
256
6
ByLayer
370
18
48
1
60
0
100
AcDbSpline
70
4
71
3
72
8
73
4
40
0
40
0
40
0
40
0
40
1
40
1
40
1
40
1
41
1
10
54.2120337070071
20
2.29783852334265
30
0
41
1
10
54.1559591430464
20
2.27648202314333
30
0
41
1
10
54.1001213772648
20
2.25379333799725
30
0
41
1
10
54.0444770832673
20
2.22978400694723
30
0
0
SPLINE
5
141
100
AcDbEntity
8
1
62
256
6
ByLayer
370
18
48
1
60
0
100
AcDbSpline
70
4
71
3
72
8
73
4
40
0
40
0
40
0
40
0
40
1
40
1
40
1
40
1
41
1
10
54.0444770832674
20
2.22978400694723
30
0
41
1
10
54.0152945950592
20
2.16960123457693
30
0
41
1
10
53.9859960886454
20
2.10951300958863
30
0
41
1
10
53.9565906832222
20
2.04960597238224
30
0
0
SPLINE
5
142
100
AcDbEntity
8
1
62
256
6
ByLayer
370
18
48
1
60
0
100
AcDbSpline
70
4
71
3
72
10
73
6
40
0
40
0
40
0
40
0
40
0.5
40
0.5
40
1
40
1
40
1
40
1
41
1
10
46.5834646050477
20
-2.50985673736133
30
0
41
1
10
46.5416759403808
20
-2.5806475235002
30
0
41
1
10
46.4999932817991
20
-2.65108360630677
30
0
41
1
10
46.416853822921
20
-2.7910674461861
30
0
41
1
10
46.3754820774907
20
-2.86046862343349
30
0
41
1
10
46.3342690446195
20
-2.92925743148729
30
0
0
SPLINE
5
143
100
AcDbEntity
8
1
62
256
6
ByLayer
370
18
48
1
60
0
100
AcDbSpline
70
4
71
3
72
14
73
10
40
0
40
0
40
0
40
0
40
0.241538816055003
40
0.241538816055003
40
0.553363786476122
40
0.553363786476122
40
0.865188756897241
40
0.865188756897241
40
1
40
1
40
1
40
1
41
1
10
34.4710771359301
20
1.43596958344335
30
0
41
1
10
34.509424037415
20
1.46899915496206
30
0
41
1
10
34.5470667151744
20
1.50458874954344
30
0
41
1
10
34.6294041126487
20
1.59970047345124
30
0
41
1
10
34.6712652260582
20
1.65929197090102
30
0
41
1
10
34.7472735280235
20
1.78866900930635
30
0
41
1
10
34.781149263834
20
1.85854532398613
30
0
41
1
10
34.8215563767258
20
1.95930465094636
30
0
41
1
10
34.8328302022351
20
1.99000893470531
30
0
41
1
10
34.843146698499
20
2.02101562309951
30
0
0
SPLINE
5
144
100
AcDbEntity
8
1
62
256
6
ByLayer
370
18
48
1
60
0
100
AcDbSpline
70
4
71
3
72
28
73
24
40
0
40
0
40
0
40
0
40
0.0368403035679977
40
0.0368403035679977
40
0.110929510985844
40
0.110929510985844
40
0.259107925821537
40
0.259107925821537
40
0.40728634065723
40
0.40728634065723
40
0.555464755492922
40
0.555464755492922
40
0.629553962910769
40
0.629553962910769
40
0.703643170328615
40
0.703643170328615
40
0.777732377746461
40
0.777732377746461
40
0.851821585164308
40
0.851821585164308
40
0.925910792582154
40
0.925910792582154
40
1
40
1
40
1
40
1
41
1
10
52.349384896881
20
2.45421382541326
30
0
41
1
10
52.35255673325
20
2.45142014278378
30
0
41
1
10
52.3558011594653
20
2.44872148307823
30
0
41
1
10
52.3657830358825
20
2.44087403107616
30
0
41
1
10
52.3726753620803
20
2.43605774523871
30
0
41
1
10
52.3937641950119
20
2.42291778685728
30
0
41
1
10
52.4084538283823
20
2.41581774975902
30
0
41
1
10
52.4389738629293
20
2.40475011787595
30
0
41
1
10
52.4549066204708
20
2.40079808054318
30
0
41
1
10
52.4867174127121
20
2.39645279474718
30
0
41
1
10
52.5027223767352
20
2.39598959751967
30
0
41
1
10
52.5268327155808
20
2.39815881977424
30
0
41
1
10
52.5349317244183
20
2.39937492265145
30
0
41
1
10
52.5509174661565
20
2.40284536899642
30
0
41
1
10
52.5587845002946
20
2.40508859954056
30
0
41
1
10
52.5742375579028
20
2.41067159350189
30
0
41
1
10
52.5818238804353
20
2.41401020602717
30
0
41
1
10
52.5966683323983
20
2.42193822827241
30
0
41
1
10
52.6039466316567
20
2.42655413882974
30
0
41
1
10
52.6176809036344
20
2.43694770061927
30
0
41
1
10
52.6241906186922
20
2.44274672207641
30
0
41
1
10
52.6363885614106
20
2.4557297281977
30
0
41
1
10
52.6420968451726
20
2.46295682369151
30
0
41
1
10
52.6471667137743
20
2.47081349707793
30
0
0
SPLINE
5
145
100
AcDbEntity
8
1
62
256
6
ByLayer
370
18
48
1
60
0
100
AcDbSpline
70
4
71
3
72
10
73
6
40
0
40
0
40
0
40
0
40
0.5
40
0.5
40
1
40
1
40
1
40
1
41
1
10
52.6471667137742
20
2.47081349707815
30
0
41
1
10
52.7207253602874
20
2.58480585186982
30
0
41
1
10
52.7935179843616
20
2.69504789186078
30
0
41
1
10
52.9381587691943
20
2.9080723585185
30
0
41
1
10
53.0095889915475
20
3.01023604468102
30
0
41
1
10
53.080428561278
20
3.10803360946363
30
0
0
SPLINE
5
146
100
AcDbEntity
8
1
62
256
6
ByLayer
370
18
48
1
60
0
100
AcDbSpline
70
4
71
3
72
8
73
4
40
0
40
0
40
0
40
0
40
1
40
1
40
1
40
1
41
1
10
53.2103115466587
20
3.07061390848932
30
0
41
1
10
53.1670340982931
20
3.08391417529154
30
0
41
1
10
53.1237400321253
20
3.09638649899131
30
0
41
1
10
53.080428561278
20
3.1080336094636
30
0
0
SPLINE
5
147
100
AcDbEntity
8
1
62
256
6
ByLayer
370
18
48
1
60
0
100
AcDbSpline
70
4
71
3
72
12
73
8
40
0
40
0
40
0
40
0
40
0.500000000000001
40
0.500000000000001
40
0.75
40
0.75
40
1
40
1
40
1
40
1
41
1
10
53.210311546658
20
3.07061390847542
30
0
41
1
10
53.283980194233
20
2.93101541946464
30
0
41
1
10
53.3582838202955
20
2.78940276076113
30
0
41
1
10
53.471209225435
20
2.57423916479416
30
0
41
1
10
53.5089970011345
20
2.50225111078075
30
0
41
1
10
53.5849784791568
20
2.35778884582174
30
0
41
1
10
53.6231679515547
20
2.28531478113109
30
0
41
1
10
53.6616692193574
20
2.2126155887749
30
0
0
SPLINE
5
148
100
AcDbEntity
8
1
62
256
6
ByLayer
370
18
48
1
60
0
100
AcDbSpline
70
4
71
3
72
30
73
26
40
0
40
0
40
0
40
0
40
0.125000000000043
40
0.125000000000043
40
0.187500000000039
40
0.187500000000039
40
0.250000000000035
40
0.250000000000035
40
0.375000000000029
40
0.375000000000029
40
0.500000000000023
40
0.500000000000023
40
0.625000000000017
40
0.625000000000017
40
0.687500000000015
40
0.687500000000015
40
0.750000000000012
40
0.750000000000012
40
0.812500000000009
40
0.812500000000009
40
0.875000000000006
40
0.875000000000006
40
0.937500000000003
40
0.937500000000003
40
1
40
1
40
1
40
1
41
1
10
53.6616692193574
20
2.2126155887749
30
0
41
1
10
53.6711124213346
20
2.19478466537476
30
0
41
1
10
53.682105222683
20
2.17848916306832
30
0
41
1
10
53.7003629983409
20
2.15578582558217
30
0
41
1
10
53.7067505999746
20
2.14851526657321
30
0
41
1
10
53.7200965162979
20
2.13453679610811
30
0
41
1
10
53.7269951839569
20
2.12789499333184
30
0
41
1
10
53.7481001117716
20
2.10911909049395
30
0
41
1
10
53.7627978399498
20
2.09802802451347
30
0
41
1
10
53.7933277661861
20
2.07850846920729
30
0
41
1
10
53.8092621290817
20
2.07006473816298
30
0
41
1
10
53.8410716551696
20
2.05653399170677
30
0
41
1
10
53.8570735890711
20
2.05134383385479
30
0
41
1
10
53.8811758156349
20
2.04616081613156
30
0
41
1
10
53.8892713735569
20
2.04486780682009
30
0
41
1
10
53.9052494854026
20
2.0432898873396
30
0
41
1
10
53.9131126050726
20
2.04300063386137
30
0
41
1
10
53.9285576997066
20
2.0434953875735
30
0
41
1
10
53.9361399729807
20
2.04427827566286
30
0
41
1
10
53.9509762447852
20
2.04706375849304
30
0
41
1
10
53.9582516229216
20
2.0490844510108
30
0
41
1
10
53.9719816457163
20
2.05440691626035
30
0
41
1
10
53.978489544295
20
2.05771195914468
30
0
41
1
10
53.9906846089814
20
2.06580250429707
30
0
41
1
10
53.9963930036998
20
2.0706214208214
30
0
41
1
10
54.0014645194549
20
2.07619518100839
30
0
0
SPLINE
5
149
100
AcDbEntity
8
1
62
256
6
ByLayer
370
18
48
1
60
0
100
AcDbSpline
70
4
71
3
72
8
73
4
40
0
40
0
40
0
40
0
40
1
40
1
40
1
40
1
41
1
10
56.6446420276029
20
-1.17735529122118
30
0
41
1
10
56.6379023300694
20
-1.17387997280832
30
0
41
1
10
56.6310937031485
20
-1.17062390937471
30
0
41
1
10
56.6243695697428
20
-1.16768089164333
30
0
0
SPLINE
5
14A
100
AcDbEntity
8
1
62
256
6
ByLayer
370
18
48
1
60
0
100
AcDbSpline
70
4
71
3
72
12
73
8
40
0
40
0
40
0
40
0
40
0.250000000000007
40
0.250000000000007
40
0.500000000000013
40
0.500000000000013
40
1
40
1
40
1
40
1
41
1
10
56.6243695697428
20
-1.16768089164336
30
0
41
1
10
56.5376343401874
20
-1.1261162153823
30
0
41
1
10
56.4515117925022
20
-1.08254894164736
30
0
41
1
10
56.2799379504955
20
-0.992120703641035
30
0
41
1
10
56.1943875916382
20
-0.945409582100382
30
0
41
1
10
55.9400959508561
20
-0.79835132792698
30
0
41
1
10
55.7732351831476
20
-0.691698092805524
30
0
41
1
10
55.6079244650866
20
-0.577288307486782
30
0
0
SPLINE
5
14B
100
AcDbEntity
8
1
62
256
6
ByLayer
370
18
48
1
60
0
100
AcDbSpline
70
4
71
3
72
8
73
4
40
0
40
0
40
0
40
0
40
1
40
1
40
1
40
1
41
1
10
55.6079244650866
20
-0.577288307486754
30
0
41
1
10
55.572649736152
20
-0.521757089757955
30
0
41
1
10
55.5372518548252
20
-0.467540115525452
30
0
41
1
10
55.5016871094575
20
-0.414679883160517
30
0
0
SPLINE
5
14C
100
AcDbEntity
8
1
62
256
6
ByLayer
370
18
48
1
60
0
100
AcDbSpline
70
4
71
3
72
30
73
26
40
0
40
0
40
0
40
0
40
0.124999999999966
40
0.124999999999966
40
0.249999999999932
40
0.249999999999932
40
0.374999999999897
40
0.374999999999897
40
0.43749999999988
40
0.43749999999988
40
0.499999999999863
40
0.499999999999863
40
0.624999999999898
40
0.624999999999898
40
0.687499999999915
40
0.687499999999915
40
0.749999999999932
40
0.749999999999932
40
0.812499999999949
40
0.812499999999949
40
0.874999999999966
40
0.874999999999966
40
0.937499999999983
40
0.937499999999983
40
1
40
1
40
1
40
1
41
1
10
55.5016871094572
20
-0.41467988316009
30
0
41
1
10
55.4925720801135
20
-0.401132125004182
30
0
41
1
10
55.4820192405136
20
-0.387445866327397
30
0
41
1
10
55.4586455373416
20
-0.359895900062327
30
0
41
1
10
55.4457071180072
20
-0.345933739053663
30
0
41
1
10
55.4185034230239
20
-0.31865240889536
30
0
41
1
10
55.4041787109995
20
-0.305256621602183
30
0
41
1
10
55.3816451769109
20
-0.285492876273906
30
0
41
1
10
55.3739355110225
20
-0.278942702252465
30
0
41
1
10
55.3584260521399
20
-0.266165921243925
30
0
41
1
10
55.3505984539951
20
-0.259913739213801
30
0
41
1
10
55.3269075704363
20
-0.241554930854761
30
0
41
1
10
55.3108399808493
20
-0.229838565785627
30
0
41
1
10
55.2863161928287
20
-0.213111962739674
30
0
41
1
10
55.2780237889145
20
-0.207651409031826
30
0
41
1
10
55.2616595497053
20
-0.197287809805289
30
0
41
1
10
55.2535594805893
20
-0.192363321618217
30
0
41
1
10
55.2375533747932
20
-0.183073937775532
30
0
41
1
10
55.2296469681164
20
-0.178708349179715
30
0
41
1
10
55.2140779011767
20
-0.170620163707099
30
0
41
1
10
55.2065841119226
20
-0.166986223169204
30
0
41
1
10
55.1922907545345
20
-0.160641041877142
30
0
41
1
10
55.1854679723906
20
-0.157919295518866
30
0
41
1
10
55.1727035888728
20
-0.153591736723456
30
0
41
1
10
55.1668982399003
20
-0.152030691738986
30
0
41
1
10
55.161734994868
20
-0.151149124528871
30
0
0
SPLINE
5
14D
100
AcDbEntity
8
1
62
256
6
ByLayer
370
18
48
1
60
0
100
AcDbSpline
70
4
71
3
72
8
73
4
40
0
40
0
40
0
40
0
40
1
40
1
40
1
40
1
41
1
10
55.161734994868
20
-0.151149124528956
30
0
41
1
10
55.0974732723606
20
-0.140177143328231
30
0
41
1
10
55.0335914748421
20
-0.122311130262801
30
0
41
1
10
54.9699399643397
20
-0.098615297251456
30
0
0
SPLINE
5
14E
100
AcDbEntity
8
1
62
256
6
ByLayer
370
18
48
1
60
0
100
AcDbSpline
70
4
71
3
72
10
73
6
40
0
40
0
40
0
40
0
40
0.5
40
0.5
40
1
40
1
40
1
40
1
41
1
10
54.9699399643397
20
-0.098615297251456
30
0
41
1
10
54.8793826609851
20
-0.0263952322062835
30
0
41
1
10
54.7896149013479
20
0.046935062069565
30
0
41
1
10
54.6115275433915
20
0.195675111654026
30
0
41
1
10
54.5232244479009
20
0.271102670954548
30
0
41
1
10
54.4356579987644
20
0.347588996729314
30
0
0
SPLINE
5
14F
100
AcDbEntity
8
1
62
256
6
ByLayer
370
18
48
1
60
0
100
AcDbSpline
70
4
71
3
72
10
73
6
40
0
40
0
40
0
40
0
40
0.5
40
0.5
40
1
40
1
40
1
40
1
41
1
10
54.4356579987644
20
0.347588996729286
30
0
41
1
10
54.3881357213119
20
0.40026956838571
30
0
41
1
10
54.340341082559
20
0.449854185978097
30
0
41
1
10
54.244208557656
20
0.542499480481354
30
0
41
1
10
54.1959136508057
20
0.585518928667341
30
0
41
1
10
54.1473278517503
20
0.625107049518903
30
0
0
SPLINE
5
150
100
AcDbEntity
8
1
62
256
6
ByLayer
370
18
48
1
60
0
100
AcDbSpline
70
4
71
3
72
30
73
26
40
0
40
0
40
0
40
0
40
0.124999999999986
40
0.124999999999986
40
0.249999999999973
40
0.249999999999973
40
0.37499999999996
40
0.37499999999996
40
0.437499999999985
40
0.437499999999985
40
0.50000000000001
40
0.50000000000001
40
0.62500000000006
40
0.62500000000006
40
0.68750000000005
40
0.68750000000005
40
0.75000000000004
40
0.75000000000004
40
0.81250000000003
40
0.81250000000003
40
0.87500000000002
40
0.87500000000002
40
0.93750000000001
40
0.93750000000001
40
1
40
1
40
1
40
1
41
1
10
54.1473278517486
20
0.625107049522569
30
0
41
1
10
54.1382004631403
20
0.632544123118407
30
0
41
1
10
54.127629313799
20
0.640869376776266
30
0
41
1
10
54.1042123072738
20
0.658864475442613
30
0
41
1
10
54.0912482578455
20
0.668620030791686
30
0
41
1
10
54.0639977512955
20
0.68881053957594
30
0
41
1
10
54.0496531243608
20
0.699290998096046
30
0
41
1
10
54.027097842472
20
0.715619435265978
30
0
41
1
10
54.0193840417286
20
0.721180222603294
30
0
41
1
10
54.0038704600379
20
0.732336361305158
30
0
41
1
10
53.9960420047896
20
0.737952619376159
30
0
41
1
10
53.9723525303959
20
0.754938727747572
30
0
41
1
10
53.9562911881811
20
0.76644273310356
30
0
41
1
10
53.9317841620116
20
0.784104310552351
30
0
41
1
10
53.9235014995963
20
0.790091567138518
30
0
41
1
10
53.9071626102378
20
0.801962589628005
30
0
41
1
10
53.8990746093538
20
0.807868794041497
30
0
41
1
10
53.8830911892883
20
0.819630803240301
30
0
41
1
10
53.8751956991306
20
0.825487075415964
30
0
41
1
10
53.8596450593386
20
0.837156791660163
30
0
41
1
10
53.8521622760354
20
0.842840933201984
30
0
41
1
10
53.8378800903889
20
0.853862986084579
30
0
41
1
10
53.8310585070953
20
0.859218259862132
30
0
41
1
10
53.8182967843334
20
0.869465632558843
30
0
41
1
10
53.8124899633279
20
0.87425047201728
30
0
41
1
10
53.8073235730189
20
0.878650175421029
30
0
0
SPLINE
5
151
100
AcDbEntity
8
1
62
256
6
ByLayer
370
18
48
1
60
0
100
AcDbSpline
70
4
71
3
72
10
73
6
40
0
40
0
40
0
40
0
40
0.5
40
0.5
40
1
40
1
40
1
40
1
41
1
10
53.8073235730188
20
0.878650175421257
30
0
41
1
10
53.7356855461091
20
0.939657194245541
30
0
41
1
10
53.664515808021
20
1.00770318164743
30
0
41
1
10
53.5227372486305
20
1.15639239177307
30
0
41
1
10
53.4525748842018
20
1.23704515703608
30
0
41
1
10
53.3829083452102
20
1.32356741831418
30
0
0
SPLINE
5
152
100
AcDbEntity
8
1
62
256
6
ByLayer
370
18
48
1
60
0
100
AcDbSpline
70
4
71
3
72
8
73
4
40
0
40
0
40
0
40
0
40
1
40
1
40
1
40
1
41
1
10
53.3829083452102
20
1.32356741831418
30
0
41
1
10
53.3725403038675
20
1.33345465345997
30
0
41
1
10
53.3621721618931
20
1.34334505710913
30
0
41
1
10
53.3518162838303
20
1.35322671707249
30
0
0
SPLINE
5
153
100
AcDbEntity
8
1
62
256
6
ByLayer
370
18
48
1
60
0
100
AcDbSpline
70
4
71
3
72
14
73
10
40
0
40
0
40
0
40
0
40
0.25
40
0.25
40
0.5
40
0.5
40
0.75
40
0.75
40
1
40
1
40
1
40
1
41
1
10
53.2489511933672
20
1.44528422606257
30
0
41
1
10
53.2116569849754
20
1.46389912052223
30
0
41
1
10
53.1742079631566
20
1.48027922713862
30
0
41
1
10
53.0989201756746
20
1.50857094787418
30
0
41
1
10
53.0610563322187
20
1.52049026643002
30
0
41
1
10
52.9849969451412
20
1.53972705693633
30
0
41
1
10
52.9467843319835
20
1.5470507708018
30
0
41
1
10
52.8700058035341
20
1.5569882024628
30
0
41
1
10
52.831466196469
20
1.55959600377761
30
0
41
1
10
52.7927226359092
20
1.55977974836412
30
0
0
SPLINE
5
154
100
AcDbEntity
8
1
62
256
6
ByLayer
370
18
48
1
60
0
100
AcDbSpline
70
4
71
3
72
30
73
26
40
0
40
0
40
0
40
0
40
0.12500000000004
40
0.12500000000004
40
0.25000000000008
40
0.25000000000008
40
0.375000000000121
40
0.375000000000121
40
0.437500000000109
40
0.437500000000109
40
0.500000000000097
40
0.500000000000097
40
0.625000000000074
40
0.625000000000074
40
0.687500000000062
40
0.687500000000062
40
0.750000000000049
40
0.750000000000049
40
0.812500000000037
40
0.812500000000037
40
0.875000000000025
40
0.875000000000025
40
0.937500000000012
40
0.937500000000012
40
1
40
1
40
1
40
1
41
1
10
52.7927226359092
20
1.55977974836298
30
0
41
1
10
52.7836042589124
20
1.55982299303093
30
0
41
1
10
52.7730435500142
20
1.56134348620034
30
0
41
1
10
52.7496451928218
20
1.5666482568584
30
0
41
1
10
52.7366887612962
20
1.5704904870554
30
0
41
1
10
52.709447851943
20
1.5800446712698
30
0
41
1
10
52.6951068363399
20
1.58576111396573
30
0
41
1
10
52.6725545180846
20
1.59576184520347
30
0
41
1
10
52.6648404752804
20
1.59934773855136
30
0
41
1
10
52.6493250192752
20
1.60690107365392
30
0
41
1
10
52.6414950549793
20
1.61088031195493
30
0
41
1
10
52.6177987789321
20
1.62345591462247
30
0
41
1
10
52.6017294349041
20
1.6326765398378
30
0
41
1
10
52.5772073380809
20
1.64807911910052
30
0
41
1
10
52.5689194940599
20
1.65350997970324
30
0
41
1
10
52.5525748243288
20
1.66473738689427
30
0
41
1
10
52.5444852840613
20
1.67055170347066
30
0
41
1
10
52.5285029622571
20
1.68264239457883
30
0
41
1
10
52.5206099345405
20
1.68891809289343
30
0
41
1
10
52.5050673029261
20
1.70202966425592
30
0
41
1
10
52.497592414379
20
1.70871939299894
30
0
41
1
10
52.4833274214468
20
1.72238725185235
30
0
41
1
10
52.4765163108136
20
1.72938618305494
30
0
41
1
10
52.4637768923831
20
1.74365845547763
30
0
41
1
10
52.4579814890474
20
1.75078093408121
30
0
41
1
10
52.4528256144853
20
1.75788341070631
30
0
0
SPLINE
5
155
100
AcDbEntity
8
1
62
256
6
ByLayer
370
18
48
1
60
0
100
AcDbSpline
70
4
71
3
72
14
73
10
40
0
40
0
40
0
40
0
40
0.25
40
0.25
40
0.5
40
0.5
40
0.75
40
0.75
40
1
40
1
40
1
40
1
41
1
10
52.4528256144853
20
1.75788341070631
30
0
41
1
10
52.4166290868995
20
1.80774594867071
30
0
41
1
10
52.3805227778827
20
1.85885563865654
30
0
41
1
10
52.3084530973414
20
1.96351532562738
30
0
41
1
10
52.2725418292435
20
2.01700902060446
30
0
41
1
10
52.200978398634
20
2.1259837534792
30
0
41
1
10
52.165289002972
20
2.18151080753577
30
0
41
1
10
52.0942788646495
20
2.29430290509939
30
0
41
1
10
52.0589349264631
20
2.35154440823231
30
0
41
1
10
52.02372950842
20
2.40964783495517
30
0
0
SPLINE
5
156
100
AcDbEntity
8
1
62
256
6
ByLayer
370
18
48
1
60
0
100
AcDbSpline
70
4
71
3
72
14
73
10
40
0
40
0
40
0
40
0
40
0.25
40
0.25
40
0.5
40
0.5
40
0.75
40
0.75
40
1
40
1
40
1
40
1
41
1
10
51.8939904423925
20
2.49343305128266
30
0
41
1
10
51.8567193995579
20
2.47976441920113
30
0
41
1
10
51.8193018301548
20
2.4639062028813
30
0
41
1
10
51.7440884556371
20
2.42780132724664
30
0
41
1
10
51.7062671030219
20
2.40754107866735
30
0
41
1
10
51.6303016287923
20
2.36267269602555
30
0
41
1
10
51.5921393695589
20
2.33805481349575
30
0
41
1
10
51.5154632612587
20
2.28446807990792
30
0
41
1
10
51.4769766777688
20
2.25552080345543
30
0
41
1
10
51.4382797972413
20
2.22436621997542
30
0
0
SPLINE
5
157
100
AcDbEntity
8
1
62
256
6
ByLayer
370
18
48
1
60
0
100
AcDbSpline
70
4
71
3
72
30
73
26
40
0
40
0
40
0
40
0
40
0.124999999999935
40
0.124999999999935
40
0.249999999999869
40
0.249999999999869
40
0.374999999999804
40
0.374999999999804
40
0.437499999999803
40
0.437499999999803
40
0.499999999999802
40
0.499999999999802
40
0.624999999999799
40
0.624999999999799
40
0.687499999999833
40
0.687499999999833
40
0.749999999999866
40
0.749999999999866
40
0.8124999999999
40
0.8124999999999
40
0.874999999999933
40
0.874999999999933
40
0.937499999999967
40
0.937499999999967
40
1
40
1
40
1
40
1
41
1
10
51.4382797972404
20
2.22436621997622
30
0
41
1
10
51.4291647701712
20
2.21702777646647
30
0
41
1
10
51.4186070158287
20
2.21150692331281
30
0
41
1
10
51.3952126260619
20
2.20327041202731
30
0
41
1
10
51.3822570249956
20
2.20057486401805
30
0
41
1
10
51.3550162759879
20
2.19793374281448
30
0
41
1
10
51.3406743446295
20
2.19794978007391
30
0
41
1
10
51.3181215075556
20
2.19998196944221
30
0
41
1
10
51.3104073788454
20
2.20100395359512
30
0
41
1
10
51.294891753575
20
2.20371392777705
30
0
41
1
10
51.2870615908987
20
2.20540277471028
30
0
41
1
10
51.2633639100389
20
2.21150356169207
30
0
41
1
10
51.2472923901935
20
2.21692846604827
30
0
41
1
10
51.2227656250552
20
2.22754249174426
30
0
41
1
10
51.214476687097
20
2.23152429056108
30
0
41
1
10
51.1981324758279
20
2.2402605385015
30
0
41
1
10
51.1900436957668
20
2.24502506811154
30
0
41
1
10
51.1740634773871
20
2.25544690388671
30
0
41
1
10
51.1661716527341
20
2.26110274283752
30
0
41
1
10
51.1506316220522
20
2.27348058578525
30
0
41
1
10
51.1431595257737
20
2.28006404098997
30
0
41
1
10
51.1288983964827
20
2.29410036710016
30
0
41
1
10
51.1220890436062
20
2.30157434975968
30
0
41
1
10
51.1093528311024
20
2.31748100920407
30
0
41
1
10
51.1035584767656
20
2.32574481784738
30
0
41
1
10
51.0984031187481
20
2.33435325919163
30
0
0
SPLINE
5
158
100
AcDbEntity
8
1
62
256
6
ByLayer
370
18
48
1
60
0
100
AcDbSpline
70
4
71
3
72
14
73
10
40
0
40
0
40
0
40
0
40
0.25
40
0.25
40
0.5
40
0.5
40
0.75
40
0.75
40
1
40
1
40
1
40
1
41
1
10
51.0984031187481
20
2.33435325919143
30
0
41
1
10
51.0622019475432
20
2.39480214709559
30
0
41
1
10
51.0260920524149
20
2.45568007607306
30
0
41
1
10
50.9540182015253
20
2.57826415971812
30
0
41
1
10
50.9181048105355
20
2.63988406829611
30
0
41
1
10
50.8465512204568
20
2.76359336559804
30
0
41
1
10
50.8108738774445
20
2.82574501053344
30
0
41
1
10
50.7398869822401
20
2.95018026618612
30
0
41
1
10
50.7045607780436
20
3.0124893463931
30
0
41
1
10
50.6693681524565
20
3.07487083199948
30
0
0
SPLINE
5
159
100
AcDbEntity
8
1
62
256
6
ByLayer
370
18
48
1
60
0
100
AcDbSpline
70
4
71
3
72
14
73
10
40
0
40
0
40
0
40
0
40
0.25
40
0.25
40
0.5
40
0.5
40
0.75
40
0.75
40
1
40
1
40
1
40
1
41
1
10
50.5399667118469
20
3.111687607509
30
0
41
1
10
50.5027039491403
20
3.0681898372487
30
0
41
1
10
50.4652825965491
20
3.02291325085247
30
0
41
1
10
50.3900339613596
20
2.9287992190468
30
0
41
1
10
50.3521795987493
20
2.8799244309109
30
0
41
1
10
50.2761333680987
20
2.77879804323865
30
0
41
1
10
50.2379242584425
20
2.72652576724812
30
0
41
1
10
50.1611676615732
20
2.61872698998712
30
0
41
1
10
50.1226484759456
20
2.56324270289727
30
0
41
1
10
50.0839428714841
20
2.5061604726227
30
0
0
SPLINE
5
15A
100
AcDbEntity
8
1
62
256
6
ByLayer
370
18
48
1
60
0
100
AcDbSpline
70
4
71
3
72
30
73
26
40
0
40
0
40
0
40
0
40
0.124999999999973
40
0.124999999999973
40
0.249999999999947
40
0.249999999999947
40
0.374999999999921
40
0.374999999999921
40
0.437499999999908
40
0.437499999999908
40
0.499999999999895
40
0.499999999999895
40
0.624999999999869
40
0.624999999999869
40
0.687499999999891
40
0.687499999999891
40
0.749999999999913
40
0.749999999999913
40
0.812499999999935
40
0.812499999999935
40
0.874999999999956
40
0.874999999999956
40
0.937499999999978
40
0.937499999999978
40
1
40
1
40
1
40
1
41
1
10
50.0839428714841
20
2.5061604726227
30
0
41
1
10
50.0748163284555
20
2.49270083446385
30
0
41
1
10
50.0642427075887
20
2.48109185202369
30
0
41
1
10
50.0408142652007
20
2.46074491406213
30
0
41
1
10
50.0278400666688
20
2.45198578800205
30
0
41
1
10
50.0005674922989
20
2.43762920406269
30
0
41
1
10
49.9862118758566
20
2.43195710845268
30
0
41
1
10
49.963645491448
20
2.42569151153765
30
0
41
1
10
49.9559294053138
20
2.42398080566969
30
0
41
1
10
49.9404127861783
20
2.42139452137397
30
0
41
1
10
49.9325830297693
20
2.42050863585626
30
0
41
1
10
49.9088890227124
20
2.41910195378824
30
0
41
1
10
49.8928231017425
20
2.41980709196264
30
0
41
1
10
49.8683101063378
20
2.42381300893129
30
0
41
1
10
49.8600287662554
20
2.42566162548218
30
0
41
1
10
49.8437034400769
20
2.43040168023293
30
0
41
1
10
49.8356240781008
20
2.43329353106759
30
0
41
1
10
49.8196618704105
20
2.44024353773901
30
0
41
1
10
49.8117786994741
20
2.44429981113612
30
0
41
1
10
49.7962548010781
20
2.45379785958471
30
0
41
1
10
49.7887913333702
20
2.45913294718159
30
0
41
1
10
49.7745422178672
20
2.47110283034792
30
0
41
1
10
49.7677372707019
20
2.47775532080226
30
0
41
1
10
49.7550065085285
20
2.4925390473887
30
0
41
1
10
49.7492128582186
20
2.50051263821777
30
0
41
1
10
49.7440566700558
20
2.50913767007924
30
0
0
SPLINE
5
15B
100
AcDbEntity
8
1
62
256
6
ByLayer
370
18
48
1
60
0
100
AcDbSpline
70
4
71
3
72
14
73
10
40
0
40
0
40
0
40
0
40
0.25
40
0.25
40
0.5
40
0.5
40
0.75
40
0.75
40
1
40
1
40
1
40
1
41
1
10
49.7440566700555
20
2.50913767007913
30
0
41
1
10
49.7078117194559
20
2.56976653851245
30
0
41
1
10
49.671661339433
20
2.62992862968756
30
0
41
1
10
49.5995117546385
20
2.74930900783764
30
0
41
1
10
49.5635638461887
20
2.80844282315451
30
0
41
1
10
49.4919475785255
20
2.92546853225292
30
0
41
1
10
49.4562399226116
20
2.98343749506776
30
0
41
1
10
49.3851517622075
20
3.09807636680131
30
0
41
1
10
49.3497785912027
20
3.15468664084386
30
0
41
1
10
49.3145422675913
20
3.21059163449257
30
0
0
SPLINE
5
15C
100
AcDbEntity
8
1
62
256
6
ByLayer
370
18
48
1
60
0
100
AcDbSpline
70
4
71
3
72
8
73
4
40
0
40
0
40
0
40
0
40
1
40
1
40
1
40
1
41
1
10
49.1853026918484
20
3.19428853899558
30
0
41
1
10
49.2284412725917
20
3.20056148875054
30
0
41
1
10
49.2715315118824
20
3.20599557982916
30
0
41
1
10
49.3145422675913
20
3.21059163449255
30
0
0
SPLINE
5
15D
100
AcDbEntity
8
1
62
256
6
ByLayer
370
18
48
1
60
0
100
AcDbSpline
70
4
71
3
72
14
73
10
40
0
40
0
40
0
40
0
40
0.25
40
0.25
40
0.5
40
0.5
40
0.75
40
0.75
40
1
40
1
40
1
40
1
41
1
10
49.1853026918494
20
3.19428853898413
30
0
41
1
10
49.1480603166869
20
3.12845152425251
30
0
41
1
10
49.1106517941658
20
3.06155969315481
30
0
41
1
10
49.0354260325548
20
2.92571380662864
30
0
41
1
10
48.9975827997371
20
2.85671174746025
30
0
41
1
10
48.9215767856133
20
2.71697549454274
30
0
41
1
10
48.883395141966
20
2.64620709178422
30
0
41
1
10
48.8067031049658
20
2.50309803717187
30
0
41
1
10
48.768221636838
20
2.4308070138928
30
0
41
1
10
48.7295443865146
20
2.35778766633956
30
0
0
SPLINE
5
15E
100
AcDbEntity
8
1
62
256
6
ByLayer
370
18
48
1
60
0
100
AcDbSpline
70
4
71
3
72
30
73
26
40
0
40
0
40
0
40
0
40
0.125
40
0.125
40
0.249999999999999
40
0.249999999999999
40
0.374999999999999
40
0.374999999999999
40
0.4375
40
0.4375
40
0.5
40
0.5
40
0.625
40
0.625
40
0.6875
40
0.6875
40
0.75
40
0.75
40
0.8125
40
0.8125
40
0.875
40
0.875
40
0.9375
40
0.9375
40
1
40
1
40
1
40
1
41
1
10
48.7295443865146
20
2.35778766633956
30
0
41
1
10
48.7204109115109
20
2.34054444506364
30
0
41
1
10
48.7098284883821
20
2.32486550326953
30
0
41
1
10
48.6863807015759
20
2.29594629957182
30
0
41
1
10
48.6733957811673
20
2.28264734637935
30
0
41
1
10
48.6461041650761
20
2.25907417408243
30
0
41
1
10
48.6317397507079
20
2.24870183625376
30
0
41
1
10
48.6091623102131
20
2.23523024709314
30
0
41
1
10
48.601444123597
20
2.23108585251254
30
0
41
1
10
48.5859251247733
20
2.2236566696898
30
0
41
1
10
48.5780945476852
20
2.22035188869674
30
0
41
1
10
48.5543988602005
20
2.21168823696812
30
0
41
1
10
48.5383326755581
20
2.20755574421841
30
0
41
1
10
48.5138218280817
20
2.20426616748162
30
0
41
1
10
48.5055438492488
20
2.2036646495327
30
0
41
1
10
48.4892283193762
20
2.20359472920953
30
0
41
1
10
48.481153632019
20
2.20411611178048
30
0
41
1
10
48.4652002190546
20
2.20639604660983
30
0
41
1
10
48.4573210540247
20
2.2081526402194
30
0
41
1
10
48.4418049157021
20
2.21313005675131
30
0
41
1
10
48.4343469447745
20
2.21629484811854
30
0
41
1
10
48.4201042120758
20
2.2241272750066
30
0
41
1
10
48.4133013045529
20
2.22880663960188
30
0
41
1
10
48.4005734264318
20
2.23990659846621
30
0
41
1
10
48.3947798858484
20
2.24620825944828
30
0
41
1
10
48.3896229497151
20
2.2533552841949
30
0
0
SPLINE
5
15F
100
AcDbEntity
8
1
62
256
6
ByLayer
370
18
48
1
60
0
100
AcDbSpline
70
4
71
3
72
10
73
6
40
0
40
0
40
0
40
0
40
0.5
40
0.5
40
1
40
1
40
1
40
1
41
1
10
48.389622949715
20
2.25335528419473
30
0
41
1
10
48.3171369207774
20
2.35381405064172
30
0
41
1
10
48.2451546812502
20
2.4490247405154
30
0
41
1
10
48.1018056687179
20
2.62950149370349
30
0
41
1
10
48.030877493541
20
2.71424308440058
30
0
41
1
10
47.9604433152708
20
2.79358481825261
30
0
0
SPLINE
5
160
100
AcDbEntity
8
1
62
256
6
ByLayer
370
18
48
1
60
0
100
AcDbSpline
70
4
71
3
72
8
73
4
40
0
40
0
40
0
40
0
40
1
40
1
40
1
40
1
41
1
10
47.8305346728945
20
2.72642549102605
30
0
41
1
10
47.8738746355797
20
2.74954139599745
30
0
41
1
10
47.9171743519513
20
2.77193006759066
30
0
41
1
10
47.9604433152708
20
2.79358481825264
30
0
0
SPLINE
5
161
100
AcDbEntity
8
1
62
256
6
ByLayer
370
18
48
1
60
0
100
AcDbSpline
70
4
71
3
72
14
73
10
40
0
40
0
40
0
40
0
40
0.282905299791553
40
0.282905299791553
40
0.565810599583107
40
0.565810599583107
40
0.84871589937466
40
0.84871589937466
40
1
40
1
40
1
40
1
41
1
10
47.8305346728945
20
2.72642549102616
30
0
41
1
10
47.7933344900131
20
2.64961776858908
30
0
41
1
10
47.7559759001127
20
2.57267491219687
30
0
41
1
10
47.6808477545395
20
2.41856232160802
30
0
41
1
10
47.6430510659465
20
2.34133734830215
30
0
41
1
10
47.5671124076109
20
2.187043668261
30
0
41
1
10
47.5289514958144
20
2.10993514102614
30
0
41
1
10
47.4700949589938
20
1.99187722869902
30
0
41
1
10
47.4495420446855
20
1.95081020684552
30
0
41
1
10
47.4289345362242
20
1.90981584978962
30
0
0
SPLINE
5
162
100
AcDbEntity
8
1
62
256
6
ByLayer
370
18
48
1
60
0
100
AcDbSpline
70
4
71
3
72
8
73
4
40
0
40
0
40
0
40
0
40
1
40
1
40
1
40
1
41
1
10
45.8913637065058
20
2.61823448778159
30
0
41
1
10
45.9232118078734
20
2.56228462120819
30
0
41
1
10
45.955197671793
20
2.50577221776359
30
0
41
1
10
45.9873542591207
20
2.44870776423664
30
0
0
SPLINE
5
163
100
AcDbEntity
8
1
62
256
6
ByLayer
370
18
48
1
60
0
100
AcDbSpline
70
4
71
3
72
30
73
26
40
0
40
0
40
0
40
0
40
0.125000000000047
40
0.125000000000047
40
0.187500000000044
40
0.187500000000044
40
0.250000000000042
40
0.250000000000042
40
0.375000000000035
40
0.375000000000035
40
0.500000000000028
40
0.500000000000028
40
0.625000000000021
40
0.625000000000021
40
0.687500000000017
40
0.687500000000017
40
0.750000000000014
40
0.750000000000014
40
0.812500000000011
40
0.812500000000011
40
0.875000000000007
40
0.875000000000007
40
0.937500000000004
40
0.937500000000004
40
1
40
1
40
1
40
1
41
1
10
45.9873542591207
20
2.44870776423664
30
0
41
1
10
45.9967596341113
20
2.43201716897579
30
0
41
1
10
46.0077050208436
20
2.41720532996709
30
0
41
1
10
46.0258907864522
20
2.39711970412671
30
0
41
1
10
46.032254146214
20
2.39078879119896
30
0
41
1
10
46.0455520285961
20
2.3788183611916
30
0
41
1
10
46.0524271602774
20
2.37323600279501
30
0
41
1
10
46.0734695438043
20
2.35775909275051
30
0
41
1
10
46.0881337825436
20
2.34904153179417
30
0
41
1
10
46.1186141812233
20
2.33462533214814
30
0
41
1
10
46.1345372057935
20
2.32892915056379
30
0
41
1
10
46.1663426365256
20
2.32109905910372
30
0
41
1
10
46.1823494919726
20
2.31888151462945
30
0
41
1
10
46.206470431127
20
2.31838943821435
30
0
41
1
10
46.2145729002409
20
2.31870800083979
30
0
41
1
10
46.2305856274521
20
2.32040054059866
30
0
41
1
10
46.2384666572199
20
2.32176509847764
30
0
41
1
10
46.2539494772795
20
2.32561283480104
30
0
41
1
10
46.2615515684872
20
2.32809481498072
30
0
41
1
10
46.2764299526836
20
2.3343360495985
30
0
41
1
10
46.2837265081591
20
2.33811949476117
30
0
41
1
10
46.2974952783956
20
2.34692957422268
30
0
41
1
10
46.3040217822019
20
2.35197163120139
30
0
41
1
10
46.3162510198959
20
2.36352440885298
30
0
41
1
10
46.3219704700005
20
2.37007297251469
30
0
41
1
10
46.3270448635691
20
2.3773130565159
30
0
0
SPLINE
5
164
100
AcDbEntity
8
1
62
256
6
ByLayer
370
18
48
1
60
0
100
AcDbSpline
70
4
71
3
72
14
73
10
40
0
40
0
40
0
40
0
40
0.25
40
0.25
40
0.5
40
0.5
40
0.75
40
0.75
40
1
40
1
40
1
40
1
41
1
10
46.327044863569
20
2.37731305651644
30
0
41
1
10
46.3601933307942
20
2.42460889275225
30
0
41
1
10
46.3931893627711
20
2.47093260036038
30
0
41
1
10
46.4589077703893
20
2.56149770820832
30
0
41
1
10
46.4916292173136
20
2.60572755774865
30
0
41
1
10
46.5568839808254
20
2.69232907450322
30
0
41
1
10
46.5893902570588
20
2.7346470956721
30
0
41
1
10
46.6540396915518
20
2.81710242116176
30
0
41
1
10
46.6862082095639
20
2.85727244376216
30
0
41
1
10
46.7182506518197
20
2.89640638644528
30
0
0
SPLINE
5
165
100
AcDbEntity
8
1
62
256
6
ByLayer
370
18
48
1
60
0
100
AcDbSpline
70
4
71
3
72
8
73
4
40
0
40
0
40
0
40
0
40
1
40
1
40
1
40
1
41
1
10
46.7182506518197
20
2.89640638644528
30
0
41
1
10
46.756793357854
20
2.90394781096194
30
0
41
1
10
46.7952264295945
20
2.91064874378913
30
0
41
1
10
46.833572051765
20
2.91650046426488
30
0
0
SPLINE
5
166
100
AcDbEntity
8
1
62
256
6
ByLayer
370
18
48
1
60
0
100
AcDbSpline
70
4
71
3
72
8
73
4
40
0
40
0
40
0
40
0
40
1
40
1
40
1
40
1
41
1
10
46.8894673655461
20
2.89217549661106
30
0
41
1
10
46.870831209126
20
2.90042376822214
30
0
41
1
10
46.8521997363646
20
2.90853235101403
30
0
41
1
10
46.833572051765
20
2.91650046426488
30
0
0
SPLINE
5
167
100
AcDbEntity
8
1
62
256
6
ByLayer
370
18
48
1
60
0
100
AcDbSpline
70
4
71
3
72
10
73
6
40
0
40
0
40
0
40
0
40
0.5
40
0.5
40
1
40
1
40
1
40
1
41
1
10
46.8894673655448
20
2.89217549659699
30
0
41
1
10
46.9631184919654
20
2.74660894734507
30
0
41
1
10
47.0374884382084
20
2.60017892314599
30
0
41
1
10
47.1883887014766
20
2.3060675975299
30
0
41
1
10
47.2644878995732
20
2.15922450976285
30
0
41
1
10
47.3416443016242
20
2.01280377108574
30
0
0
SPLINE
5
168
100
AcDbEntity
8
1
62
256
6
ByLayer
370
18
48
1
60
0
100
AcDbSpline
70
4
71
3
72
30
73
26
40
0
40
0
40
0
40
0
40
0.125000000000024
40
0.125000000000024
40
0.187500000000064
40
0.187500000000064
40
0.250000000000103
40
0.250000000000103
40
0.375000000000121
40
0.375000000000121
40
0.500000000000139
40
0.500000000000139
40
0.625000000000157
40
0.625000000000157
40
0.687500000000131
40
0.687500000000131
40
0.750000000000104
40
0.750000000000104
40
0.812500000000078
40
0.812500000000078
40
0.875000000000052
40
0.875000000000052
40
0.937500000000026
40
0.937500000000026
40
1
40
1
40
1
40
1
41
1
10
47.3416443016242
20
2.01280377108571
30
0
41
1
10
47.3510573168452
20
1.99494056589222
30
0
41
1
10
47.3620123663985
20
1.97835236189897
30
0
41
1
10
47.3802126302837
20
1.95492685253276
30
0
41
1
10
47.3865808620088
20
1.94736694205127
30
0
41
1
10
47.399888361884
20
1.9327181885107
30
0
41
1
10
47.4067688472679
20
1.92569747073975
30
0
41
1
10
47.4278245355643
20
1.9056755580778
30
0
41
1
10
47.4424956173624
20
1.89360606087007
30
0
41
1
10
47.472986407529
20
1.87185031659342
30
0
41
1
10
47.4889123107963
20
1.86213579671227
30
0
41
1
10
47.520719440455
20
1.84586305253242
30
0
41
1
10
47.5367257486228
20
1.83919409625409
30
0
41
1
10
47.5608442527302
20
1.83160627412934
30
0
41
1
10
47.5689462118537
20
1.82947534976594
30
0
41
1
10
47.5849518953589
20
1.8261742500533
30
0
41
1
10
47.5928289453862
20
1.82500397603786
30
0
41
1
10
47.6083023410968
20
1.82369396047019
30
0
41
1
10
47.6158989870521
20
1.82355312414126
30
0
41
1
10
47.63076463069
20
1.82444267856798
30
0
41
1
10
47.638053633738
20
1.82548738698426
30
0
41
1
10
47.6518065943078
20
1.82886054032414
30
0
41
1
10
47.6583247795933
20
1.83118603787196
30
0
41
1
10
47.6705374995462
20
1.83730895720041
30
0
41
1
10
47.6762497532857
20
1.84113356645156
30
0
41
1
10
47.6813192372708
20
1.84573047915558
30
0
0
SPLINE
5
169
100
AcDbEntity
8
1
62
256
6
ByLayer
370
18
48
1
60
0
100
AcDbSpline
70
4
71
3
72
10
73
6
40
0
40
0
40
0
40
0
40
0.5
40
0.5
40
1
40
1
40
1
40
1
41
1
10
47.6813192372707
20
1.84573047915657
30
0
41
1
10
47.7548704030151
20
1.91242529251483
30
0
41
1
10
47.8276265141967
20
1.97172014388971
30
0
41
1
10
47.9721649631165
20
2.07599100185763
30
0
41
1
10
48.043522324855
20
2.12078087811631
30
0
41
1
10
48.1143276519164
20
2.15879507604618
30
0
0
SPLINE
5
16A
100
AcDbEntity
8
1
62
256
6
ByLayer
370
18
48
1
60
0
100
AcDbSpline
70
4
71
3
72
8
73
4
40
0
40
0
40
0
40
0
40
1
40
1
40
1
40
1
41
1
10
48.2442904753237
20
2.06059781586691
30
0
41
1
10
48.200911775129
20
2.09388283300595
30
0
41
1
10
48.1575943431339
20
2.12661840873062
30
0
41
1
10
48.1143276519163
20
2.15879507604635
30
0
0
SPLINE
5
16B
100
AcDbEntity
8
1
62
256
6
ByLayer
370
18
48
1
60
0
100
AcDbSpline
70
4
71
3
72
10
73
6
40
0
40
0
40
0
40
0
40
0.5
40
0.5
40
1
40
1
40
1
40
1
41
1
10
48.2442904753237
20
2.06059781586714
30
0
41
1
10
48.3178789842848
20
1.91610631721363
30
0
41
1
10
48.3921703687855
20
1.77438231005908
30
0
41
1
10
48.5428930665949
20
1.49708179540949
30
0
41
1
10
48.6188907846206
20
1.36229530977013
30
0
41
1
10
48.6959643293487
20
1.2316546357759
30
0
0
SPLINE
5
16C
100
AcDbEntity
8
1
62
256
6
ByLayer
370
18
48
1
60
0
100
AcDbSpline
70
4
71
3
72
30
73
26
40
0
40
0
40
0
40
0
40
0.125000000000046
40
0.125000000000046
40
0.187500000000069
40
0.187500000000069
40
0.250000000000092
40
0.250000000000092
40
0.375000000000077
40
0.375000000000077
40
0.500000000000061
40
0.500000000000061
40
0.625000000000046
40
0.625000000000046
40
0.687500000000038
40
0.687500000000038
40
0.750000000000031
40
0.750000000000031
40
0.812500000000023
40
0.812500000000023
40
0.875000000000015
40
0.875000000000015
40
0.937500000000008
40
0.937500000000008
40
1
40
1
40
1
40
1
41
1
10
48.6959643293487
20
1.2316546357759
30
0
41
1
10
48.7053734525802
20
1.21570604790497
30
0
41
1
10
48.7163250221885
20
1.2001994005432
30
0
41
1
10
48.7345218001756
20
1.17746298149089
30
0
41
1
10
48.7408891658624
20
1.16997300079032
30
0
41
1
10
48.7541958049264
20
1.15516079666332
30
0
41
1
10
48.7610767334535
20
1.14790603308492
30
0
41
1
10
48.7821337419281
20
1.12677119214388
30
0
41
1
10
48.7968067507524
20
1.11341565228119
30
0
41
1
10
48.827303943549
20
1.088039869597
30
0
41
1
10
48.8432329170397
20
1.07596624634496
30
0
41
1
10
48.8750441914107
20
1.05402627763638
30
0
41
1
10
48.8910528204017
20
1.04404030628623
30
0
41
1
10
48.9151747046541
20
1.03063935006574
30
0
41
1
10
48.9232786346748
20
1.02641682877928
30
0
41
1
10
48.9392788511084
20
1.0186763636683
30
0
41
1
10
48.947153090431
20
1.01516520637262
30
0
41
1
10
48.9626206948781
20
1.00890766406783
30
0
41
1
10
48.9702143595499
20
1.0061604683172
30
0
41
1
10
48.9850738782517
20
1.00153062013845
30
0
41
1
10
48.9923579891503
20
0.999650555381805
30
0
41
1
10
49.0061011640485
20
0.996996010064748
30
0
41
1
10
49.0126147933794
20
0.996200620086313
30
0
41
1
10
49.0248193922815
20
0.995835502479167
30
0
41
1
10
49.030527775399
20
0.996276804298731
30
0
41
1
10
49.0355944975889
20
0.997438364176702
30
0
0
SPLINE
5
16D
100
AcDbEntity
8
1
62
256
6
ByLayer
370
18
48
1
60
0
100
AcDbSpline
70
4
71
3
72
12
73
8
40
0
40
0
40
0
40
0
40
0.5
40
0.5
40
0.75
40
0.75
40
1
40
1
40
1
40
1
41
1
10
49.0355944975888
20
0.997438364178095
30
0
41
1
10
49.1092236851784
20
1.01431805620521
30
0
41
1
10
49.1820645158271
20
1.02275513582532
30
0
41
1
10
49.2905716906058
20
1.02289861711196
30
0
41
1
10
49.3264973207079
20
1.02083551438841
30
0
41
1
10
49.3979828028257
20
1.01288350633254
30
0
41
1
10
49.4335442454191
20
1.00700830823024
30
0
41
1
10
49.4689611121337
20
0.999256455879703
30
0
0
SPLINE
5
16E
100
AcDbEntity
8
1
62
256
6
ByLayer
370
18
48
1
60
0
100
AcDbSpline
70
4
71
3
72
8
73
4
40
0
40
0
40
0
40
0
40
1
40
1
40
1
40
1
41
1
10
49.5983830624825
20
0.875429624710478
30
0
41
1
10
49.555184531733
20
0.916936860310869
30
0
41
1
10
49.5120587070286
20
0.958226879868192
30
0
41
1
10
49.4689611121333
20
0.999256455880328
30
0
0
SPLINE
5
16F
100
AcDbEntity
8
1
62
256
6
ByLayer
370
18
48
1
60
0
100
AcDbSpline
70
4
71
3
72
10
73
6
40
0
40
0
40
0
40
0
40
0.5
40
0.5
40
1
40
1
40
1
40
1
41
1
10
49.5983830624825
20
0.875429624710591
30
0
41
1
10
49.6720005358139
20
0.756863393394013
30
0
41
1
10
49.7463309056891
20
0.644240765282746
30
0
41
1
10
49.897124549655
20
0.431534827918853
30
0
41
1
10
49.9731423739612
20
0.3320687175258
30
0
41
1
10
50.0502391939979
20
0.239728570151698
30
0
0
SPLINE
5
170
100
AcDbEntity
8
1
62
256
6
ByLayer
370
18
48
1
60
0
100
AcDbSpline
70
4
71
3
72
30
73
26
40
0
40
0
40
0
40
0
40
0.124999999999954
40
0.124999999999954
40
0.187499999999931
40
0.187499999999931
40
0.249999999999907
40
0.249999999999907
40
0.374999999999923
40
0.374999999999923
40
0.499999999999938
40
0.499999999999938
40
0.624999999999954
40
0.624999999999954
40
0.687499999999961
40
0.687499999999961
40
0.749999999999969
40
0.749999999999969
40
0.812499999999977
40
0.812499999999977
40
0.874999999999985
40
0.874999999999985
40
0.937499999999992
40
0.937499999999992
40
1
40
1
40
1
40
1
41
1
10
50.0502391939979
20
0.239728570151669
30
0
41
1
10
50.0596572807847
20
0.228448370508346
30
0
41
1
10
50.070620826525
20
0.216699064403144
30
0
41
1
10
50.0888369303624
20
0.198572594788146
30
0
41
1
10
50.0952110019589
20
0.192443730595841
30
0
41
1
10
50.1085313069124
20
0.180020439615305
30
0
41
1
10
50.1154192906404
20
0.17378147075155
30
0
41
1
10
50.1364950292574
20
0.155173081029858
30
0
41
1
10
50.1511783936123
20
0.142829219221028
30
0
41
1
10
50.1816910221801
20
0.118194401665249
30
0
41
1
10
50.1976232001007
20
0.105834439545134
30
0
41
1
10
50.2294342821757
20
0.081987823332156
30
0
41
1
10
50.2454404851468
20
0.0703932878335252
30
0
41
1
10
50.2695553138
20
0.0534676616194929
30
0
41
1
10
50.2776567610213
20
0.0478735891060467
30
0
41
1
10
50.2936438517172
20
0.0370153647116922
30
0
41
1
10
50.3015115381074
20
0.0317621110700372
30
0
41
1
10
50.3169661192842
20
0.0216230001950635
30
0
41
1
10
50.3245533131279
20
0.0167367566135681
30
0
41
1
10
50.3394000191392
20
0.0073737581113562
30
0
41
1
10
50.3466770405874
20
0.002888040875888
30
0
41
1
10
50.3604074194181
20
-0.0053447273381551
30
0
41
1
10
50.3669153079505
20
-0.0091272654698855
30
0
41
1
10
50.3791099255106
20
-0.0159226223298106
30
0
41
1
10
50.3848145531451
20
-0.0189425573698543
30
0
41
1
10
50.3898793294216
20
-0.0214178648978702
30
0
0
SPLINE
5
171
100
AcDbEntity
8
1
62
256
6
ByLayer
370
18
48
1
60
0
100
AcDbSpline
70
4
71
3
72
12
73
8
40
0
40
0
40
0
40
0
40
0.500000000000012
40
0.500000000000012
40
0.750000000000006
40
0.750000000000006
40
1
40
1
40
1
40
1
41
1
10
50.3898793294215
20
-0.0214178648964491
30
0
41
1
10
50.4635095898393
20
-0.0574031736148299
30
0
41
1
10
50.5363568163959
20
-0.10145240770612
30
0
41
1
10
50.644884518154
20
-0.179397090028374
30
0
41
1
10
50.6808189970512
20
-0.207290533072154
30
0
41
1
10
50.7522927523099
20
-0.266769493356975
30
0
41
1
10
50.787833541662
20
-0.298349040846176
30
0
41
1
10
50.8232348460988
20
-0.331597340425901
30
0
0
SPLINE
5
172
100
AcDbEntity
8
1
62
256
6
ByLayer
370
18
48
1
60
0
100
AcDbSpline
70
4
71
3
72
8
73
4
40
0
40
0
40
0
40
0
40
1
40
1
40
1
40
1
41
1
10
50.9530211422154
20
-0.460617070590302
30
0
41
1
10
50.9096950530565
20
-0.417743104432219
30
0
41
1
10
50.8664351498358
20
-0.374734419153896
30
0
41
1
10
50.8232348460988
20
-0.331597340425901
30
0
0
SPLINE
5
173
100
AcDbEntity
8
1
62
256
6
ByLayer
370
18
48
1
60
0
100
AcDbSpline
70
4
71
3
72
10
73
6
40
0
40
0
40
0
40
0
40
0.5
40
0.5
40
1
40
1
40
1
40
1
41
1
10
50.9530211422154
20
-0.460617070590331
30
0
41
1
10
51.0265732627337
20
-0.532811317784365
30
0
41
1
10
51.1008316300346
20
-0.596899702333474
30
0
41
1
10
51.2514954940271
20
-0.708335950768173
30
0
41
1
10
51.3274720180678
20
-0.755374321868516
30
0
41
1
10
51.404558939143
20
-0.793545773557099
30
0
0
SPLINE
5
174
100
AcDbEntity
8
1
62
256
6
ByLayer
370
18
48
1
60
0
100
AcDbSpline
70
4
71
3
72
30
73
26
40
0
40
0
40
0
40
0
40
0.124999999999973
40
0.124999999999973
40
0.18749999999996
40
0.18749999999996
40
0.249999999999947
40
0.249999999999947
40
0.374999999999921
40
0.374999999999921
40
0.499999999999895
40
0.499999999999895
40
0.624999999999868
40
0.624999999999868
40
0.687499999999891
40
0.687499999999891
40
0.749999999999913
40
0.749999999999913
40
0.812499999999935
40
0.812499999999935
40
0.874999999999957
40
0.874999999999957
40
0.937499999999978
40
0.937499999999978
40
1
40
1
40
1
40
1
41
1
10
51.404558939143
20
-0.793545773557071
30
0
41
1
10
51.4139805113159
20
-0.798211092680134
30
0
41
1
10
51.4249487847065
20
-0.804182281242788
30
0
41
1
10
51.443172994265
20
-0.814586279781025
30
0
41
1
10
51.449549960243
20
-0.818302500499669
30
0
41
1
10
51.4628764682099
20
-0.826206781842643
30
0
41
1
10
51.4697678360134
20
-0.830360827729663
30
0
41
1
10
51.4908528039551
20
-0.843256886921267
30
0
41
1
10
51.5055417643428
20
-0.852478777629614
30
0
41
1
10
51.5360645550384
20
-0.872164446750958
30
0
41
1
10
51.5519998893781
20
-0.882701665266609
30
0
41
1
10
51.583813690003
20
-0.904385770227492
30
0
41
1
10
51.5998203970922
20
-0.915610475639909
30
0
41
1
10
51.6239343282896
20
-0.933172427486682
30
0
41
1
10
51.6320355877266
20
-0.939183549969954
30
0
41
1
10
51.6480151881071
20
-0.951304821225705
30
0
41
1
10
51.6558789909888
20
-0.957402296572923
30
0
41
1
10
51.6713255101218
20
-0.969688908860434
30
0
41
1
10
51.6789085249802
20
-0.975877946321532
30
0
41
1
10
51.6937465642485
20
-0.988370319011324
30
0
41
1
10
51.7010181662395
20
-0.994692026841051
30
0
41
1
10
51.7147381656106
20
-1.00708827740127
30
0
41
1
10
51.7212411636905
20
-1.01320696441104
30
0
41
1
10
51.7334268863189
20
-1.02526029150312
30
0
41
1
10
51.7391277562484
20
-1.03121909996224
30
0
41
1
10
51.7441901341638
20
-1.03690199445362
30
0
0
SPLINE
5
175
100
AcDbEntity
8
1
62
256
6
ByLayer
370
18
48
1
60
0
100
AcDbSpline
70
4
71
3
72
12
73
8
40
0
40
0
40
0
40
0
40
0.500000000000012
40
0.500000000000012
40
0.750000000000006
40
0.750000000000006
40
1
40
1
40
1
40
1
41
1
10
51.7441901341637
20
-1.03690199445239
30
0
41
1
10
51.8178651066021
20
-1.11960761264464
30
0
41
1
10
51.890752534833
20
-1.20865476294625
30
0
41
1
10
51.9993422508361
20
-1.35136402840271
30
0
41
1
10
52.0353010509747
20
-1.40030890585572
30
0
41
1
10
52.1068157648368
20
-1.50092358936087
30
0
41
1
10
52.1423648560959
20
-1.55263306113335
30
0
41
1
10
52.1777662815886
20
-1.60560584521946
30
0
0
SPLINE
5
176
100
AcDbEntity
8
1
62
256
6
ByLayer
370
18
48
1
60
0
100
AcDbSpline
70
4
71
3
72
10
73
6
40
0
40
0
40
0
40
0
40
0.5
40
0.5
40
1
40
1
40
1
40
1
41
1
10
52.307385353286
20
-1.7171432851996
30
0
41
1
10
52.3809323462118
20
-1.73064127094878
30
0
41
1
10
52.4551648408527
20
-1.73523771168155
30
0
41
1
10
52.6058046685621
20
-1.72640327595366
30
0
41
1
10
52.6817753239919
20
-1.71301009349025
30
0
41
1
10
52.7588629599252
20
-1.69054026832211
30
0
0
SPLINE
5
177
100
AcDbEntity
8
1
62
256
6
ByLayer
370
18
48
1
60
0
100
AcDbSpline
70
4
71
3
72
30
73
26
40
0
40
0
40
0
40
0
40
0.125000000000027
40
0.125000000000027
40
0.187500000000039
40
0.187500000000039
40
0.250000000000052
40
0.250000000000052
40
0.375000000000079
40
0.375000000000079
40
0.500000000000105
40
0.500000000000105
40
0.625000000000132
40
0.625000000000132
40
0.68750000000011
40
0.68750000000011
40
0.750000000000088
40
0.750000000000088
40
0.812500000000066
40
0.812500000000066
40
0.875000000000044
40
0.875000000000044
40
0.937500000000022
40
0.937500000000022
40
1
40
1
40
1
40
1
41
1
10
52.7588629599252
20
-1.69054026832211
30
0
41
1
10
52.7682914576104
20
-1.68779201055006
30
0
41
1
10
52.7792683253909
20
-1.68696622188247
30
0
41
1
10
52.79750555588
20
-1.68787345041431
30
0
41
1
10
52.803886918706
20
-1.6885434368364
30
0
41
1
10
52.8172221935168
20
-1.69058115760521
30
0
41
1
10
52.8241180381263
20
-1.69194206817079
30
0
41
1
10
52.8452147360446
20
-1.69692779224943
30
0
41
1
10
52.859910024077
20
-1.70145617983005
30
0
41
1
10
52.8904422444885
20
-1.71283677071793
30
0
41
1
10
52.9063797080324
20
-1.71975508586229
30
0
41
1
10
52.9381938160607
20
-1.73557872242696
30
0
41
1
10
52.9541991943706
20
-1.74451817458314
30
0
41
1
10
52.9783086014659
20
-1.75971650357937
30
0
41
1
10
52.9864080523867
20
-1.76511722601958
30
0
41
1
10
53.0023796150305
20
-1.77642999925172
30
0
41
1
10
53.0102392202527
20
-1.78232880809452
30
0
41
1
10
53.0256769628776
20
-1.79465946073856
30
0
41
1
10
53.033255398397
20
-1.80109074207641
30
0
41
1
10
53.0480838667675
20
-1.81456918881594
30
0
41
1
10
53.0553503842802
20
-1.82164143945957
30
0
41
1
10
53.0690608303684
20
-1.83606965849006
30
0
41
1
10
53.0755592484654
20
-1.84347076045287
30
0
41
1
10
53.0877364897076
20
-1.85870204136609
30
0
41
1
10
53.0934340990383
20
-1.86656983655621
30
0
41
1
10
53.0984946927257
20
-1.87447666883236
30
0
0
SPLINE
5
178
100
AcDbEntity
8
1
62
256
6
ByLayer
370
18
48
1
60
0
100
AcDbSpline
70
4
71
3
72
12
73
8
40
0
40
0
40
0
40
0
40
0.499999999999999
40
0.499999999999999
40
0.75
40
0.75
40
1
40
1
40
1
40
1
41
1
10
53.0984946927256
20
-1.87447666883153
30
0
41
1
10
53.1651546097532
20
-1.97862823997841
30
0
41
1
10
53.2311648747071
20
-2.08567400768325
30
0
41
1
10
53.3295289318564
20
-2.25033818860339
30
0
41
1
10
53.3621814180938
20
-2.30586650209671
30
0
41
1
10
53.4270869601478
20
-2.41784737967811
30
0
41
1
10
53.4593670577265
20
-2.47434552556277
30
0
41
1
10
53.4915040364135
20
-2.53133279330569
30
0
0
SPLINE
5
179
100
AcDbEntity
8
1
62
256
6
ByLayer
370
18
48
1
60
0
100
AcDbSpline
70
4
71
3
72
10
73
6
40
0
40
0
40
0
40
0
40
0.5
40
0.5
40
1
40
1
40
1
40
1
41
1
10
53.4915040364128
20
-2.53133279330578
30
0
41
1
10
53.5329390177088
20
-2.54846188015918
30
0
41
1
10
53.5744418382075
20
-2.56479657214132
30
0
41
1
10
53.6578220583058
20
-2.59569943952269
30
0
41
1
10
53.6997609249603
20
-2.6102220412258
30
0
41
1
10
53.7419160973838
20
-2.62385717314965
30
0
0
SPLINE
5
17A
100
AcDbEntity
8
1
62
256
6
ByLayer
370
18
48
1
60
0
100
AcDbSpline
70
4
71
3
72
12
73
8
40
0
40
0
40
0
40
0
40
0.250000000000006
40
0.250000000000006
40
0.500000000000012
40
0.500000000000012
40
1
40
1
40
1
40
1
41
1
10
53.7419160973838
20
-2.62385717314965
30
0
41
1
10
53.7722448730838
20
-2.60204965091231
30
0
41
1
10
53.8027159140095
20
-2.57889188924486
30
0
41
1
10
53.8640003596082
20
-2.52985853184936
30
0
41
1
10
53.8948354397923
20
-2.50396245582064
30
0
41
1
10
53.9876611557752
20
-2.42240740651619
30
0
41
1
10
54.0500339610741
20
-2.3628371266436
30
0
41
1
10
54.1131500168398
20
-2.29804459078619
30
0
0
SPLINE
5
17B
100
AcDbEntity
8
1
62
256
6
ByLayer
370
18
48
1
60
0
100
AcDbSpline
70
4
71
3
72
30
73
26
40
0
40
0
40
0
40
0
40
0.125000000000047
40
0.125000000000047
40
0.18750000000007
40
0.18750000000007
40
0.250000000000092
40
0.250000000000092
40
0.375000000000077
40
0.375000000000077
40
0.500000000000061
40
0.500000000000061
40
0.625000000000045
40
0.625000000000045
40
0.687500000000038
40
0.687500000000038
40
0.75000000000003
40
0.75000000000003
40
0.812500000000023
40
0.812500000000023
40
0.875000000000015
40
0.875000000000015
40
0.937500000000008
40
0.937500000000008
40
1
40
1
40
1
40
1
41
1
10
54.1131500168398
20
-2.29804459078619
30
0
41
1
10
54.1225855544081
20
-2.2883584277518
30
0
41
1
10
54.1335714821245
20
-2.28088326426155
30
0
41
1
10
54.151822508857
20
-2.27214751558995
30
0
41
1
10
54.1582085406783
20
-2.26965959011832
30
0
41
1
10
54.1715530641039
20
-2.26548779930596
30
0
41
1
10
54.178454632643
20
-2.26382507995996
30
0
41
1
10
54.1995652876081
20
-2.26005559031233
30
0
41
1
10
54.2142679761116
20
-2.25912144801865
30
0
41
1
10
54.244810184651
20
-2.26026018202504
30
0
41
1
10
54.2607502299127
20
-2.26238116657373
30
0
41
1
10
54.2925649837979
20
-2.26964492416803
30
0
41
1
10
54.3085682786467
20
-2.27477211097556
30
0
41
1
10
54.33267045233
20
-2.28500604885414
30
0
41
1
10
54.3407667292921
20
-2.28887135483185
30
0
41
1
10
54.3567298338293
20
-2.29743847785755
30
0
41
1
10
54.3645848458249
20
-2.30212760231953
30
0
41
1
10
54.3800126933107
20
-2.31238667478374
30
0
41
1
10
54.3875858262333
20
-2.31795570133886
30
0
41
1
10
54.4024029998628
20
-2.33010267207655
30
0
41
1
10
54.409664390474
20
-2.33670888248025
30
0
41
1
10
54.4233653461598
20
-2.35068445112455
30
0
41
1
10
54.4298590808089
20
-2.3580919541653
30
0
41
1
10
54.4420274637247
20
-2.37387107720437
30
0
41
1
10
54.4477219648181
20
-2.38228792143781
30
0
41
1
10
54.4527811801125
20
-2.39105085518844
30
0
0
SPLINE
5
17C
100
AcDbEntity
8
1
62
256
6
ByLayer
370
18
48
1
60
0
100
AcDbSpline
70
4
71
3
72
8
73
4
40
0
40
0
40
0
40
0
40
1
40
1
40
1
40
1
41
1
10
54.4527811801125
20
-2.39105085518813
30
0
41
1
10
54.5264424059961
20
-2.51863752720081
30
0
41
1
10
54.5993141433413
20
-2.64635550305997
30
0
41
1
10
54.6716942836487
20
-2.77404218986271
30
0
0
SPLINE
5
17D
100
AcDbEntity
8
1
62
256
6
ByLayer
370
18
48
1
60
0
100
AcDbSpline
70
4
71
3
72
14
73
10
40
0
40
0
40
0
40
0
40
0.25
40
0.25
40
0.5
40
0.5
40
0.75
40
0.75
40
1
40
1
40
1
40
1
41
1
10
54.6716942836487
20
-2.77404218986274
30
0
41
1
10
54.726550731892
20
-2.77444296143162
30
0
41
1
10
54.7815656351995
20
-2.77343614187282
30
0
41
1
10
54.8919440020028
20
-2.76857487218132
30
0
41
1
10
54.9472770373838
20
-2.76473398980488
30
0
41
1
10
55.0584194158792
20
-2.75412007550096
30
0
41
1
10
55.1143121707401
20
-2.74731046289753
30
0
41
1
10
55.2269067293688
20
-2.73063896570699
30
0
41
1
10
55.2836718577041
20
-2.72076119830356
30
0
41
1
10
55.3403519107306
20
-2.70947452550456
30
0
0
SPLINE
5
17E
100
AcDbEntity
8
1
62
256
6
ByLayer
370
18
48
1
60
0
100
AcDbSpline
70
4
71
3
72
8
73
4
40
0
40
0
40
0
40
0
40
1
40
1
40
1
40
1
41
1
10
55.3403519107306
20
-2.70947452550456
30
0
41
1
10
55.382427145769
20
-2.64503259958403
30
0
41
1
10
55.4247655010532
20
-2.57902677453976
30
0
41
1
10
55.4674475332911
20
-2.5114669384119
30
0
0
SPLINE
5
17F
100
AcDbEntity
8
1
62
256
6
ByLayer
370
18
48
1
60
0
100
AcDbSpline
70
4
71
3
72
30
73
26
40
0
40
0
40
0
40
0
40
0.125000000000019
40
0.125000000000019
40
0.187500000000029
40
0.187500000000029
40
0.250000000000038
40
0.250000000000038
40
0.374999999999997
40
0.374999999999997
40
0.499999999999955
40
0.499999999999955
40
0.624999999999914
40
0.624999999999914
40
0.687499999999928
40
0.687499999999928
40
0.749999999999943
40
0.749999999999943
40
0.812499999999957
40
0.812499999999957
40
0.874999999999971
40
0.874999999999971
40
0.937499999999986
40
0.937499999999986
40
1
40
1
40
1
40
1
41
1
10
55.4674475332911
20
-2.5114669384119
30
0
41
1
10
55.4768908332704
20
-2.49651948240631
30
0
41
1
10
55.4878867022036
20
-2.48369030915598
30
0
41
1
10
55.5061532323043
20
-2.46682831807718
30
0
41
1
10
55.5125445643168
20
-2.46161507493952
30
0
41
1
10
55.5258997234737
20
-2.45196061861333
30
0
41
1
10
55.5328064651764
20
-2.44756469641931
30
0
41
1
10
55.5539309476913
20
-2.43570219157809
30
0
41
1
10
55.5686410502342
20
-2.42947563118588
30
0
41
1
10
55.5991933942079
20
-2.42019460845762
30
0
41
1
10
55.6151348394727
20
-2.41716226142171
30
0
41
1
10
55.6469475167571
20
-2.41462951238376
30
0
41
1
10
55.6629477538011
20
-2.41506669638744
30
0
41
1
10
55.6870422801333
20
-2.41857787991611
30
0
41
1
10
55.6951354818667
20
-2.42024291095422
30
0
41
1
10
55.7110884364057
20
-2.42458863656964
30
0
41
1
10
55.7189384271817
20
-2.42725940651678
30
0
41
1
10
55.7343563491789
20
-2.43367608173733
30
0
41
1
10
55.7419245772994
20
-2.43742086718811
30
0
41
1
10
55.7567320693088
20
-2.44613683855195
30
0
41
1
10
55.7639887457184
20
-2.45113377494928
30
0
41
1
10
55.7776816195057
20
-2.46223655444149
30
0
41
1
10
55.7841718095488
20
-2.46836718873249
30
0
41
1
10
55.7963341962836
20
-2.48195953210731
30
0
41
1
10
55.8020268603505
20
-2.48946555133497
30
0
41
1
10
55.8070856852985
20
-2.4975636058573
30
0
0
SPLINE
5
180
100
AcDbEntity
8
1
62
256
6
ByLayer
370
18
48
1
60
0
100
AcDbSpline
70
4
71
3
72
8
73
4
40
0
40
0
40
0
40
0
40
1
40
1
40
1
40
1
41
1
10
55.8070856852984
20
-2.49756360585741
30
0
41
1
10
55.8224079800709
20
-2.52209119472434
30
0
41
1
10
55.8376962200613
20
-2.54647710256143
30
0
41
1
10
55.8529530773415
20
-2.57072142988727
30
0
0
SPLINE
5
181
100
AcDbEntity
8
1
62
256
6
ByLayer
370
18
48
1
60
0
100
AcDbSpline
70
4
71
3
72
12
73
8
40
0
40
0
40
0
40
0
40
0.5
40
0.5
40
0.75
40
0.75
40
1
40
1
40
1
40
1
41
1
10
55.8529530773417
20
-2.57072142988699
30
0
41
1
10
55.9918716213767
20
-2.52371708769672
30
0
41
1
10
56.1316278985295
20
-2.46928185684379
30
0
41
1
10
56.3428605899413
20
-2.37714980623207
30
0
41
1
10
56.4134864901716
20
-2.34467540223184
30
0
41
1
10
56.5557961291576
20
-2.27630595532784
30
0
41
1
10
56.6274048168328
20
-2.24039685389221
30
0
41
1
10
56.6999999208681
20
-2.20291368362024
30
0
0
SPLINE
5
182
100
AcDbEntity
8
1
62
256
6
ByLayer
370
18
48
1
60
0
100
AcDbSpline
70
4
71
3
72
12
73
8
40
0
40
0
40
0
40
0
40
0.249999999999986
40
0.249999999999986
40
0.499999999999971
40
0.499999999999971
40
1
40
1
40
1
40
1
41
1
10
56.6999999208682
20
-2.20291368362024
30
0
41
1
10
56.723477685336
20
-2.17374992159475
30
0
41
1
10
56.7472996627703
20
-2.14450650379663
30
0
41
1
10
56.7956928177749
20
-2.08592657555107
30
0
41
1
10
56.8202780938097
20
-2.05658273668533
30
0
41
1
10
56.895404276111
20
-1.96857919911105
30
0
41
1
10
56.9469639668168
20
-1.91034518782035
30
0
41
1
10
57
20
-1.85386220619637
30
0
0
SPLINE
5
183
100
AcDbEntity
8
1
62
256
6
ByLayer
370
18
48
1
60
0
100
AcDbSpline
70
4
71
3
72
16
73
12
40
0
40
0
40
0
40
0
40
0.25
40
0.25
40
0.3125
40
0.3125
40
0.375
40
0.375
40
0.5
40
0.5
40
1
40
1
40
1
40
1
41
1
10
57
20
-1.85386220619637
30
0
41
1
10
57
20
-1.81391900359259
30
0
41
1
10
57
20
-1.77750402542031
30
0
41
1
10
57
20
-1.73649435243019
30
0
41
1
10
57
20
-1.72856480788232
30
0
41
1
10
57.0000000000001
20
-1.71288627865519
30
0
41
1
10
57
20
-1.70509748814206
30
0
41
1
10
57
20
-1.68188069019399
30
0
41
1
10
57.0000000000001
20
-1.66666911436226
30
0
41
1
10
57
20
-1.5920788361712
30
0
41
1
10
57
20
-1.53686153435177
30
0
41
1
10
57
20
-1.48605335245313
30
0
0
SPLINE
5
184
100
AcDbEntity
8
1
62
256
6
ByLayer
370
18
48
1
60
0
100
AcDbSpline
70
4
71
3
72
14
73
10
40
0
40
0
40
0
40
0
40
0.499999999999999
40
0.499999999999999
40
0.75
40
0.75
40
0.875
40
0.875
40
1
40
1
40
1
40
1
41
1
10
57
20
-1.19747275676582
30
0
41
1
10
56.9517897471766
20
-1.19506480598921
30
0
41
1
10
56.9026446000557
20
-1.19396402055247
30
0
41
1
10
56.8275958279361
20
-1.19506230087632
30
0
41
1
10
56.8023734223062
20
-1.19588077413047
30
0
41
1
10
56.7642229160562
20
-1.19794755444539
30
0
41
1
10
56.7514563291807
20
-1.19877826640743
30
0
41
1
10
56.7258115099271
20
-1.20079852242162
30
0
41
1
10
56.712922631696
20
-1.20203367151083
30
0
41
1
10
56.7000000373158
20
-1.2033666004144
30
0
0
SPLINE
5
185
100
AcDbEntity
8
1
62
256
6
ByLayer
370
18
48
1
60
0
100
AcDbSpline
70
4
71
3
72
8
73
4
40
0
40
0
40
0
40
0
40
1
40
1
40
1
40
1
41
1
10
56.7000000373155
20
-1.20336660041417
30
0
41
1
10
56.6815235929672
20
-1.19478121215812
30
0
41
1
10
56.6630695772866
20
-1.18611252620576
30
0
41
1
10
56.6446420276029
20
-1.17735529122118
30
0
0
SPLINE
5
186
100
AcDbEntity
8
1
62
256
6
ByLayer
370
18
48
1
60
0
100
AcDbSpline
70
4
71
3
72
12
73
8
40
0
40
0
40
0
40
0
40
0.673101277817362
40
0.673101277817362
40
0.924259701360545
40
0.924259701360545
40
1
40
1
40
1
40
1
41
1
10
48.7307047707767
20
-3.19578770663725
30
0
41
1
10
48.7260376840505
20
-3.20651273436462
30
0
41
1
10
48.7213609605388
20
-3.21469858288975
30
0
41
1
10
48.7149068819425
20
-3.22239142300808
30
0
41
1
10
48.71315017595
20
-3.22412125370263
30
0
41
1
10
48.710859313697
20
-3.22589786841743
30
0
41
1
10
48.7103282755787
20
-3.22627615694873
30
0
41
1
10
48.7097972304172
20
-3.22662099962653
30
0
0
SPLINE
5
187
100
AcDbEntity
8
1
62
256
6
ByLayer
370
18
48
1
60
0
100
AcDbSpline
70
4
71
3
72
8
73
4
40
0
40
0
40
0
40
0
40
1
40
1
40
1
40
1
41
1
10
48.5662125027995
20
-3.22151011598956
30
0
41
1
10
48.5708998856441
20
-3.22667971728319
30
0
41
1
10
48.5755764215466
20
-3.22928883437447
30
0
41
1
10
48.580255006022
20
-3.22928565151963
30
0
0
SPLINE
5
188
100
AcDbEntity
8
1
62
256
6
ByLayer
370
18
48
1
60
0
100
AcDbSpline
70
4
71
3
72
16
73
12
40
0
40
0
40
0
40
0
40
0.231539046983642
40
0.231539046983642
40
0.327596666110688
40
0.327596666110688
40
0.423654285237735
40
0.423654285237735
40
0.615769523491824
40
0.615769523491824
40
1
40
1
40
1
40
1
41
1
10
50.4848924222038
20
3.22928597219686
30
0
41
1
10
50.4890856333429
20
3.22928978018427
30
0
41
1
10
50.4932995242994
20
3.22718888095574
30
0
41
1
10
50.4993213419228
20
3.2211921898884
30
0
41
1
10
50.5010939814539
20
3.21906501638557
30
0
41
1
10
50.5046518448145
20
3.21406438180949
30
0
41
1
10
50.5064364368384
20
3.2111904511446
30
0
41
1
10
50.5117758245789
20
3.20150109373427
30
0
41
1
10
50.5153265236631
20
3.19360533110071
30
0
41
1
10
50.5259444511821
20
3.16569262394253
30
0
41
1
10
50.5329751682523
20
3.14146135127612
30
0
41
1
10
50.5399667118563
20
3.11168760752477
30
0
0
SPLINE
5
189
100
AcDbEntity
8
1
62
256
6
ByLayer
370
18
48
1
60
0
100
AcDbSpline
70
4
71
3
72
14
73
10
40
0
40
0
40
0
40
0
40
0.334867556804437
40
0.334867556804437
40
0.669735113608875
40
0.669735113608875
40
0.837168892011092
40
0.837168892011092
40
1
40
1
40
1
40
1
41
1
10
50.6693681524565
20
3.07487083199945
30
0
41
1
10
50.6623979276129
20
3.10895963300337
30
0
41
1
10
50.655447757399
20
3.13745030579148
30
0
41
1
10
50.6414572752621
20
3.18326501987832
30
0
41
1
10
50.6344339602144
20
3.20059026050231
30
0
41
1
10
50.623877759391
20
3.21795361283424
30
0
41
1
10
50.6203483140833
20
3.22229636280301
30
0
41
1
10
50.6134347844847
20
3.22791072569709
30
0
41
1
10
50.6100399681407
20
3.22928300991899
30
0
41
1
10
50.6066473786813
20
3.22928326138754
30
0
0
SPLINE
5
18A
100
AcDbEntity
8
1
62
256
6
ByLayer
370
18
48
1
60
0
100
AcDbSpline
70
4
71
3
72
23
73
19
40
0
40
0
40
0
40
0
40
0.0720049315458329
40
0.0720049315458329
40
0.188004315102601
40
0.188004315102601
40
0.246004006880987
40
0.246004006880987
40
0.304003698659372
40
0.304003698659372
40
0.536002465772914
40
0.536002465772914
40
0.768001232886457
40
0.768001232886457
40
0.884000616443229
40
0.942000308221614
40
0.942000308221614
40
1
40
1
40
1
40
1
41
1
10
47.4313564510375
20
-3.22928540080821
30
0
41
1
10
47.4291893788666
20
-3.22928596411038
30
0
41
1
10
47.4270228500001
20
-3.22873035087119
30
0
41
1
10
47.421365197703
20
-3.22582038779291
30
0
41
1
10
47.4178729646069
20
-3.22257157970083
30
0
41
1
10
47.4126213727556
20
-3.2154740520005
30
0
41
1
10
47.4108662633687
20
-3.21273252453526
30
0
41
1
10
47.4073676041355
20
-3.20653294295184
30
0
41
1
10
47.405622641938
20
-3.20307400746006
30
0
41
1
10
47.3969131208364
20
-3.18400389711599
30
0
41
1
10
47.389996332938
20
-3.1630808689392
30
0
41
1
10
47.3760661599135
20
-3.11018102545813
30
0
41
1
10
47.3690465270038
20
-3.07820405954905
30
0
41
1
10
47.3584842086168
20
-3.02188639712333
30
0
41
1
10
47.3531941065725
20
-2.99163538449255
30
0
41
1
10
47.3478918528756
20
-2.95819578092977
30
0
41
1
10
47.3443538480685
20
-2.93518569440084
30
0
41
1
10
47.342580807086
20
-2.92330463109983
30
0
41
1
10
47.3408148109913
20
-2.91112321179321
30
0
0
SPLINE
5
18B
100
AcDbEntity
8
1
62
256
6
ByLayer
370
18
48
1
60
0
100
AcDbSpline
70
4
71
3
72
23
73
19
40
0
40
0
40
0
40
0
40
0.106538558404272
40
0.106538558404272
40
0.159807837606408
40
0.159807837606408
40
0.213077116808543
40
0.213077116808543
40
0.426154233617083
40
0.426154233617083
40
0.639231350425623
40
0.639231350425623
40
0.745769908829893
40
0.799039188032028
40
0.799039188032028
40
0.852308467234163
40
0.852308467234163
40
1
40
1
40
1
40
1
41
1
10
47.2115907091887
20
-2.85347965596355
30
0
41
1
10
47.2151018304037
20
-2.87962187610015
30
0
41
1
10
47.2186167161687
20
-2.9045552010312
30
0
41
1
10
47.2239004939164
20
-2.94010469347819
30
0
41
1
10
47.2256659354378
20
-2.95165955530683
30
0
41
1
10
47.22918325904
20
-2.97402627866788
30
0
41
1
10
47.2309367516236
20
-2.98484981306567
30
0
41
1
10
47.2396826736759
20
-3.03718842115399
30
0
41
1
10
47.246608452666
20
-3.07338087209897
30
0
41
1
10
47.2604609082738
20
-3.13468145029958
30
0
41
1
10
47.2673914259362
20
-3.15978897187657
30
0
41
1
10
47.2779213830982
20
-3.18907280645345
30
0
41
1
10
47.2832135177936
20
-3.20161638264989
30
0
41
1
10
47.2885367320484
20
-3.21096223868506
30
0
41
1
10
47.292091948786
20
-3.21647374132306
30
0
41
1
10
47.2938751999701
20
-3.21887232170514
30
0
41
1
10
47.300579714136
20
-3.22651241243139
30
0
41
1
10
47.3054680934329
20
-3.22928712293597
30
0
41
1
10
47.3103231135141
20
-3.22928548877246
30
0
0
SPLINE
5
18C
100
AcDbEntity
8
1
62
256
6
ByLayer
370
18
48
1
60
0
100
AcDbSpline
70
4
71
3
72
29
73
25
40
0
40
0
40
0
40
0
40
0.142650411339427
40
0.142650411339427
40
0.213975617009141
40
0.213975617009141
40
0.249638219843997
40
0.249638219843997
40
0.285300822678853
40
0.285300822678853
40
0.427951234018277
40
0.427951234018277
40
0.5706016453577
40
0.5706016453577
40
0.641926851027412
40
0.677589453862267
40
0.677589453862267
40
0.713252056697123
40
0.713252056697123
40
0.855902468036546
40
0.855902468036546
40
0.998552879375969
40
0.998552879375969
40
1
40
1
40
1
40
1
41
1
10
52.02372950842
20
2.40964783495517
30
0
41
1
10
52.016694774671
20
2.48377808121023
30
0
41
1
10
52.0096571840944
20
2.55361747248924
30
0
41
1
10
51.9990965831294
20
2.65183825551981
30
0
41
1
10
51.9955750895492
20
2.68348661146104
30
0
41
1
10
51.9902852670656
20
2.72928768304075
30
0
41
1
10
51.9885183707599
20
2.74429473949348
30
0
41
1
10
51.9849991718455
20
2.77359067467063
30
0
41
1
10
51.9832453837081
20
2.78789320896934
30
0
41
1
10
51.9745009388562
20
2.85769801530236
30
0
41
1
10
51.9675861185819
20
2.90809076639215
30
0
41
1
10
51.953763335796
20
2.99823502122297
30
0
41
1
10
51.9468388056326
20
3.03798569617766
30
0
41
1
10
51.9363787179691
20
3.08956840806198
30
0
41
1
10
51.9311343237021
20
3.11334506087837
30
0
41
1
10
51.9258636242363
20
3.13405089175888
30
0
41
1
10
51.9223428231615
20
3.14716418308109
30
0
41
1
10
51.9205765815598
20
3.15338288561918
30
0
41
1
10
51.9117707982242
20
3.18258026919452
30
0
41
1
10
51.9047826680219
20
3.19998504335618
30
0
41
1
10
51.89082880092
20
3.22327376178689
30
0
41
1
10
51.8838697456012
20
3.22915669035203
30
0
41
1
10
51.8768088952515
20
3.22928250766679
30
0
41
1
10
51.8767379816163
20
3.2292831787027
30
0
41
1
10
51.8766670639155
20
3.22928325704186
30
0
0
SPLINE
5
18D
100
AcDbEntity
8
1
62
256
6
ByLayer
370
18
48
1
60
0
100
AcDbSpline
70
4
71
3
72
23
73
19
40
0
40
0
40
0
40
0
40
0.125000000000002
40
0.250000000000003
40
0.250000000000003
40
0.281250000000003
40
0.281250000000003
40
0.312500000000002
40
0.312500000000002
40
0.375000000000002
40
0.375000000000002
40
0.500000000000002
40
0.625000000000001
40
0.750000000000001
40
0.750000000000001
40
0.875
40
0.875
40
1
40
1
40
1
40
1
41
1
10
46.0022754321467
20
1.64568349966771
30
0
41
1
10
45.9977330548432
20
1.71010747845526
30
0
41
1
10
45.9886527528816
20
1.83397123895321
30
0
41
1
10
45.9794851751041
20
1.94781730267241
30
0
41
1
10
45.9736796585885
20
2.01573682533211
30
0
41
1
10
45.9725149759904
20
2.0291587772621
30
0
41
1
10
45.9701787338723
20
2.05567546105155
30
0
41
1
10
45.9690073738018
20
2.06876723834657
30
0
41
1
10
45.9655020178719
20
2.10734364675187
30
0
41
1
10
45.9631705784645
20
2.13220100456979
30
0
41
1
10
45.9561933287351
20
2.20423961158986
30
0
41
1
10
45.9469374945486
20
2.29354685005035
30
0
41
1
10
45.9331446816713
20
2.40758833371822
30
0
41
1
10
45.9239200916442
20
2.47017689341882
30
0
41
1
10
45.9146039495042
20
2.52576885732555
30
0
41
1
10
45.9099668426027
20
2.54963613107094
30
0
41
1
10
45.900672993536
20
2.58966982918147
30
0
41
1
10
45.8960230422943
20
2.60585350425316
30
0
41
1
10
45.8913637064994
20
2.61823448779262
30
0
0
SPLINE
5
18E
100
AcDbEntity
8
1
62
256
6
ByLayer
370
18
48
1
60
0
100
AcDbSpline
70
4
71
3
72
14
73
10
40
0
40
0
40
0
40
0
40
0.367107157861046
40
0.367107157861046
40
0.734214315722091
40
0.734214315722091
40
0.917767894652614
40
0.917767894652614
40
1
40
1
40
1
40
1
41
1
10
34.8431462840095
20
2.02101437733441
30
0
41
1
10
34.7356656517749
20
1.9828521787343
30
0
41
1
10
34.6252573261358
20
1.94327271374058
30
0
41
1
10
34.3968900859259
20
1.86596012808701
30
0
41
1
10
34.2789463816864
20
1.82820344673988
30
0
41
1
10
34.0945302994671
20
1.77725730947054
30
0
41
1
10
34.0317874370306
20
1.76124951113661
30
0
41
1
10
33.9388309890196
20
1.74006771466998
30
0
41
1
10
33.9098106338635
20
1.73386370444325
30
0
41
1
10
33.8807209707241
20
1.72801551357617
30
0
0
SPLINE
5
18F
100
AcDbEntity
8
1
62
256
6
ByLayer
370
18
48
1
60
0
100
AcDbSpline
70
4
71
3
72
18
73
14
40
0
40
0
40
0
40
0
40
0.0478784978509984
40
0.0478784978509984
40
0.183895855300862
40
0.183895855300862
40
0.455930570200578
40
0.455930570200578
40
0.727965285100294
40
0.727965285100294
40
0.863982642550147
40
0.863982642550147
40
1
40
1
40
1
40
1
41
1
10
31.9993954415452
20
2.27499865920257
30
0
41
1
10
32.0154987104299
20
2.27496866815082
30
0
41
1
10
32.0316999730276
20
2.27473769241271
30
0
41
1
10
32.0942402920459
20
2.27311777788341
30
0
41
1
10
32.1411631684855
20
2.2703752574609
30
0
41
1
10
32.2832609162426
20
2.25789206372568
30
0
41
1
10
32.3797250905273
20
2.24392646454763
30
0
41
1
10
32.5742882886835
20
2.20543799631901
30
0
41
1
10
32.6724081041012
20
2.18089224004874
30
0
41
1
10
32.8203862081008
20
2.13605060489215
30
0
41
1
10
32.8699112777676
20
2.11974033382407
30
0
41
1
10
32.9689371603312
20
2.08450849001991
30
0
41
1
10
33.0184162258666
20
2.06559785789207
30
0
41
1
10
33.0678916679519
20
2.04540050810971
30
0
0
SPLINE
5
190
100
AcDbEntity
8
1
62
256
6
ByLayer
370
18
48
1
60
0
100
AcDbSpline
70
4
71
3
72
31
73
27
40
0
40
0
40
0
40
0
40
0.0312499999999994
40
0.0312499999999994
40
0.0624999999999988
40
0.0624999999999988
40
0.124999999999998
40
0.124999999999998
40
0.249999999999998
40
0.249999999999998
40
0.374999999999997
40
0.374999999999997
40
0.437499999999996
40
0.437499999999996
40
0.468749999999996
40
0.468749999999996
40
0.499999999999995
40
0.624999999999997
40
0.749999999999998
40
0.749999999999998
40
0.812499999999999
40
0.843749999999999
40
0.843749999999999
40
0.874999999999999
40
0.874999999999999
40
1
40
1
40
1
40
1
41
1
10
52.4754374440329
20
-3.17763882982882
30
0
41
1
10
52.4736838678351
20
-3.17264299353434
30
0
41
1
10
52.4719273055405
20
-3.16727915670171
30
0
41
1
10
52.4684070904849
20
-3.15580712386102
30
0
41
1
10
52.4666418437247
20
-3.14969214034755
30
0
41
1
10
52.4613637671529
20
-3.13033246335999
30
0
41
1
10
52.4578596589814
20
-3.11604712479809
30
0
41
1
10
52.4473724354141
20
-3.06913733033852
30
0
41
1
10
52.4404083432441
20
-3.03246984595947
30
0
41
1
10
52.4264690783464
20
-2.94851698818644
30
0
41
1
10
52.4195013814973
20
-2.90123142247808
30
0
41
1
10
52.4089824255704
20
-2.82221059285115
30
0
41
1
10
52.4054642059587
20
-2.79451892927301
30
0
41
1
10
52.4001538590966
20
-2.75091307029578
30
0
41
1
10
52.3983760783494
20
-2.73601652837894
30
0
41
1
10
52.3948283827959
20
-2.70569893505441
30
0
41
1
10
52.385968523796
20
-2.62850729236604
30
0
41
1
10
52.3701339334224
20
-2.47717882430314
30
0
41
1
10
52.3562160572394
20
-2.32547089783091
30
0
41
1
10
52.345781262398
20
-2.20519170432843
30
0
41
1
10
52.3405639222727
20
-2.14342438897015
30
0
41
1
10
52.335328193649
20
-2.07917633896335
30
0
41
1
10
52.3318309663605
20
-2.03578649112319
30
0
41
1
10
52.330077015231
20
-2.01378702270731
30
0
41
1
10
52.3213319610957
20
-1.90299802484077
30
0
41
1
10
52.3143835065678
20
-1.81147007544161
30
0
41
1
10
52.3073853532862
20
-1.71714328519946
30
0
0
SPLINE
5
191
100
AcDbEntity
8
1
62
256
6
ByLayer
370
18
48
1
60
0
100
AcDbSpline
70
4
71
3
72
27
73
23
40
0
40
0
40
0
40
0
40
0.124999999999998
40
0.124999999999998
40
0.187499999999997
40
0.187499999999997
40
0.218749999999996
40
0.218749999999996
40
0.249999999999996
40
0.374999999999996
40
0.499999999999995
40
0.499999999999995
40
0.562499999999995
40
0.593749999999995
40
0.593749999999995
40
0.624999999999996
40
0.624999999999996
40
0.749999999999997
40
0.749999999999997
40
0.874999999999999
40
0.874999999999999
40
1
40
1
40
1
40
1
41
1
10
52.1777662815886
20
-1.6056058452194
30
0
41
1
10
52.18469858976
20
-1.70219372832472
30
0
41
1
10
52.1916263507275
20
-1.79590771261945
30
0
41
1
10
52.202154418939
20
-1.93209621982936
30
0
41
1
10
52.2056875848907
20
-1.97676050544686
30
0
41
1
10
52.2110160564066
20
-2.0426377474206
30
0
41
1
10
52.2127996797173
20
-2.06444195686396
30
0
41
1
10
52.2163597065711
20
-2.10747832784102
30
0
41
1
10
52.2252430375968
20
-2.21364793064547
30
0
41
1
10
52.2410575593803
20
-2.39216734010256
30
0
41
1
10
52.2549048317389
20
-2.53339916558633
30
0
41
1
10
52.2652840725545
20
-2.63273067727843
30
0
41
1
10
52.2704730404296
20
-2.68074506778777
30
0
41
1
10
52.2756832314844
20
-2.72624274451383
30
0
41
1
10
52.2791645143107
20
-2.75600859373176
30
0
41
1
10
52.2809116365
20
-2.77062958039693
30
0
41
1
10
52.2896364898559
20
-2.84198946000601
30
0
41
1
10
52.2965960184338
20
-2.89351610082301
30
0
41
1
10
52.3105204358677
20
-2.98581713214989
30
0
41
1
10
52.3174785563859
20
-3.02659065078285
30
0
41
1
10
52.3314417723963
20
-3.09739820084704
30
0
41
1
10
52.3384544099128
20
-3.12743295292529
30
0
41
1
10
52.3455198915682
20
-3.15192983977747
30
0
0
SPLINE
5
192
100
AcDbEntity
8
1
62
256
6
ByLayer
370
18
48
1
60
0
100
AcDbSpline
70
4
71
3
72
27
73
23
40
0
40
0
40
0
40
0
40
0.0624999999999997
40
0.09375
40
0.09375
40
0.125
40
0.125
40
0.25
40
0.25
40
0.374999999999999
40
0.499999999999999
40
0.499999999999999
40
0.562499999999999
40
0.562499999999999
40
0.624999999999998
40
0.624999999999998
40
0.749999999999999
40
0.874999999999999
40
0.874999999999999
40
0.9375
40
0.9375
40
1
40
1
40
1
40
1
41
1
10
53.080428561278
20
3.1080336094636
30
0
41
1
10
53.0839215907069
20
3.09288861840253
30
0
41
1
10
53.0891708599576
20
3.06804489844393
30
0
41
1
10
53.0944590540867
20
3.03996488252824
30
0
41
1
10
53.0979963011753
20
3.02051763133053
30
0
41
1
10
53.0997722071637
20
3.01041998716659
30
0
41
1
10
53.108657742904
20
2.95821063478849
30
0
41
1
10
53.1157207098167
20
2.91132619428669
30
0
41
1
10
53.1297588024219
20
2.80767934964527
30
0
41
1
10
53.1437092458776
20
2.6941517160532
30
0
41
1
10
53.1576174559129
20
2.56092585595755
30
0
41
1
10
53.1681342820336
20
2.45340305255985
30
0
41
1
10
53.1716602087142
20
2.41622724743132
30
0
41
1
10
53.1786836383856
20
2.34018054707036
30
0
41
1
10
53.1821908503662
20
2.30121630194455
30
0
41
1
10
53.1927354578386
20
2.18155228484162
30
0
41
1
10
53.2068367249428
20
2.01462390344972
30
0
41
1
10
53.2208958418657
20
1.83310040169673
30
0
41
1
10
53.2314379885368
20
1.69136795991395
30
0
41
1
10
53.2349556904673
20
1.64314312733109
30
0
41
1
10
53.2419879529723
20
1.54498166605839
30
0
41
1
10
53.2454783300572
20
1.49538507367902
30
0
41
1
10
53.2489511933746
20
1.44528422606737
30
0
0
SPLINE
5
193
100
AcDbEntity
8
1
62
256
6
ByLayer
370
18
48
1
60
0
100
AcDbSpline
70
4
71
3
72
22
73
18
40
0
40
0
40
0
40
0
40
0.125
40
0.25
40
0.375
40
0.375
40
0.5
40
0.5
40
0.531250000000001
40
0.531250000000001
40
0.562500000000001
40
0.625000000000001
40
0.625000000000001
40
0.750000000000001
40
0.875
40
0.875
40
1
40
1
40
1
40
1
41
1
10
53.3518162838303
20
1.35322671707249
30
0
41
1
10
53.3476160526827
20
1.43648854582807
30
0
41
1
10
53.3391100716432
20
1.59853619688482
30
0
41
1
10
53.3251227313077
20
1.82856569312364
30
0
41
1
10
53.3149298999019
20
1.97331897862759
30
0
41
1
10
53.3045654303018
20
2.1137398748034
30
0
41
1
10
53.2992962446966
20
2.18178455705575
30
0
41
1
10
53.2929591115903
20
2.26405799619454
30
0
41
1
10
53.291704129535
20
2.28039258352393
30
0
41
1
10
53.2892404220623
20
2.31264392400701
30
0
41
1
10
53.2856075563743
20
2.36041836875069
30
0
41
1
10
53.2821107798098
20
2.4064012050807
30
0
41
1
10
53.275200104351
20
2.49600995694286
30
0
41
1
10
53.2661783535019
20
2.6092103122634
30
0
41
1
10
53.2571810690039
20
2.71001478127784
30
0
41
1
10
53.2484877004653
20
2.80458093401543
30
0
41
1
10
53.2444457283436
20
2.84874849900038
30
0
41
1
10
53.2402342060335
20
2.8896959060807
30
0
0
SPLINE
5
194
100
AcDbEntity
8
1
62
256
6
ByLayer
370
18
48
1
60
0
100
AcDbSpline
70
4
71
3
72
26
73
22
40
0
40
0
40
0
40
0
40
0.125000000000001
40
0.125000000000001
40
0.187500000000001
40
0.187500000000001
40
0.250000000000002
40
0.250000000000002
40
0.375000000000002
40
0.375000000000002
40
0.500000000000003
40
0.500000000000003
40
0.562500000000002
40
0.562500000000002
40
0.625000000000002
40
0.625000000000002
40
0.750000000000001
40
0.750000000000001
40
0.875000000000001
40
0.875000000000001
40
1
40
1
40
1
40
1
41
1
10
49.7665846548776
20
-1.70471647335361
30
0
41
1
10
49.7595948292067
20
-1.61023949544557
30
0
41
1
10
49.7525951880047
20
-1.51268065825431
30
0
41
1
10
49.7420442148241
20
-1.36162981882302
30
0
41
1
10
49.7385194994503
20
-1.31049250077842
30
0
41
1
10
49.7314466689096
20
-1.20660888152793
30
0
41
1
10
49.7279261429315
20
-1.15426770405031
30
0
41
1
10
49.7174099465534
20
-0.996323401522773
30
0
41
1
10
49.710446443013
20
-0.889691777288022
30
0
41
1
10
49.6965198672526
20
-0.673817912380059
30
0
41
1
10
49.6895691508847
20
-0.564574861369152
30
0
41
1
10
49.6791151992784
20
-0.398731432812554
30
0
41
1
10
49.6756252787437
20
-0.343119869995434
30
0
41
1
10
49.6686191770714
20
-0.231224939479802
30
0
41
1
10
49.6650929800181
20
-0.174796876921818
30
0
41
1
10
49.6545650062462
20
-0.0062934525349476
30
0
41
1
10
49.6475941119944
20
0.10540551726848
30
0
41
1
10
49.6336561227156
20
0.327560982843664
30
0
41
1
10
49.6266874680338
20
0.438017287521063
30
0
41
1
10
49.6126103140724
20
0.657674346774371
30
0
41
1
10
49.6055145738994
20
0.766876050800846
30
0
41
1
10
49.5983830624827
20
0.875429624710591
30
0
0
SPLINE
5
195
100
AcDbEntity
8
1
62
256
6
ByLayer
370
18
48
1
60
0
100
AcDbSpline
70
4
71
3
72
10
73
6
40
0
40
0
40
0
40
0
40
0.5
40
0.5
40
1
40
1
40
1
40
1
41
1
10
46.0022754321468
20
1.64568349966771
30
0
41
1
10
45.9133433734925
20
1.68450140898776
30
0
41
1
10
45.8238861494609
20
1.71761517965609
30
0
41
1
10
45.643196244885
20
1.77196694685114
30
0
41
1
10
45.5518918386338
20
1.79311226526147
30
0
41
1
10
45.4593201808561
20
1.80801942832656
30
0
0
SPLINE
5
196
100
AcDbEntity
8
1
62
256
6
ByLayer
370
18
48
1
60
0
100
AcDbSpline
70
4
71
3
72
14
73
10
40
0
40
0
40
0
40
0
40
0.25
40
0.25
40
0.5
40
0.5
40
0.75
40
0.75
40
1
40
1
40
1
40
1
41
1
10
45.4593201808561
20
1.80801942832656
30
0
41
1
10
45.4249384845821
20
1.81355604250325
30
0
41
1
10
45.3894647540101
20
1.82004152626629
30
0
41
1
10
45.3160631299884
20
1.83458010477992
30
0
41
1
10
45.2781353102858
20
1.84266490834094
30
0
41
1
10
45.2003519723422
20
1.8613492192556
30
0
41
1
10
45.1604974687151
20
1.87194416498511
30
0
41
1
10
45.0792603474501
20
1.89632530226635
30
0
41
1
10
45.0378962085804
20
1.91011317165194
30
0
41
1
10
44.995785913437
20
1.92575104183555
30
0
0
SPLINE
5
197
100
AcDbEntity
8
1
62
256
6
ByLayer
370
18
48
1
60
0
100
AcDbSpline
70
4
71
3
72
48
73
44
40
0
40
0
40
0
40
0
40
0.0378171937650893
40
0.0378171937650893
40
0.0756343875301787
40
0.0756343875301787
40
0.113451581295268
40
0.113451581295268
40
0.151268775060357
40
0.151268775060357
40
0.226903162590536
40
0.226903162590536
40
0.264720356355622
40
0.264720356355622
40
0.302537550120708
40
0.302537550120708
40
0.340354743885794
40
0.340354743885794
40
0.37817193765088
40
0.37817193765088
40
0.453806325181052
40
0.453806325181052
40
0.529440712711224
40
0.529440712711224
40
0.605075100241396
40
0.605075100241396
40
0.642892294006482
40
0.642892294006482
40
0.661800890889028
40
0.661800890889028
40
0.680709487771574
40
0.680709487771574
40
0.71852668153666
40
0.71852668153666
40
0.756343875301746
40
0.756343875301746
40
0.831978262831918
40
0.831978262831918
40
0.907612650362089
40
0.907612650362089
40
0.983247037892261
40
0.983247037892261
40
1
40
1
40
1
40
1
41
1
10
44.995785913437
20
1.92575104183553
30
0
41
1
10
44.9423198169097
20
1.94560594605483
30
0
41
1
10
44.888874618025
20
1.96458279220852
30
0
41
1
10
44.7821634734849
20
2.0009183692637
30
0
41
1
10
44.728867822721
20
2.01825462596381
30
0
41
1
10
44.6224449622568
20
2.05131105327217
30
0
41
1
10
44.5693193139971
20
2.06703243183796
30
0
41
1
10
44.4633081763675
20
2.09689250534279
30
0
41
1
10
44.4104173925666
20
2.11102653549631
30
0
41
1
10
44.25198122766
20
2.15094971410406
30
0
41
1
10
44.1466725404829
20
2.17425633667074
30
0
41
1
10
43.9887308339206
20
2.20394656002543
30
0
41
1
10
43.9361088707128
20
2.21297201753089
30
0
41
1
10
43.8306440250699
20
2.22918344115118
30
0
41
1
10
43.7777427542018
20
2.23635495104855
30
0
41
1
10
43.6716718016727
20
2.24887828092383
30
0
41
1
10
43.618528583895
20
2.25423195119086
30
0
41
1
10
43.5116941082962
20
2.26308691109222
30
0
41
1
10
43.4580081925114
20
2.26660803689083
30
0
41
1
10
43.2972278561661
20
2.2745089566333
30
0
41
1
10
43.1908331059751
20
2.27617230206332
30
0
41
1
10
42.9791556159773
20
2.27220978085947
30
0
41
1
10
42.873887230042
20
2.26658118378103
30
0
41
1
10
42.6639118202309
20
2.24803824780878
30
0
41
1
10
42.5591450078874
20
2.23513051747841
30
0
41
1
10
42.4017455975064
20
2.2105144742969
30
0
41
1
10
42.3492526594241
20
2.2014304638021
30
0
41
1
10
42.2704117358117
20
2.1865175490212
30
0
41
1
10
42.2440920207036
20
2.18134060777558
30
0
41
1
10
42.1913085533699
20
2.1706107565029
30
0
41
1
10
42.1648762861827
20
2.16504533491758
30
0
41
1
10
42.0855762328287
20
2.14769762640458
30
0
41
1
10
42.0326533992344
20
2.13528547368944
30
0
41
1
10
41.9266328345544
20
2.10879591613232
30
0
41
1
10
41.8735475688189
20
2.09471353784736
30
0
41
1
10
41.7141747365482
20
2.0498612570133
30
0
41
1
10
41.6078478542386
20
2.01643387315596
30
0
41
1
10
41.3945996271632
20
1.94244159632453
30
0
41
1
10
41.2886776474262
20
1.90224183394835
30
0
41
1
10
41.0777190232469
20
1.81590757909777
30
0
41
1
10
40.9727025231076
20
1.76974233772305
30
0
41
1
10
40.8443036430107
20
1.71037832209635
30
0
41
1
10
40.8210031344155
20
1.69950669633783
30
0
41
1
10
40.7976829529901
20
1.68853221975826
30
0
0
SPLINE
5
198
100
AcDbEntity
8
1
62
256
6
ByLayer
370
18
48
1
60
0
100
AcDbSpline
70
4
71
3
72
62
73
58
40
0
40
0
40
0
40
0
40
0.0394394719626535
40
0.0394394719626535
40
0.0959430324354563
40
0.0959430324354563
40
0.124194812671858
40
0.124194812671858
40
0.152446592908259
40
0.152446592908259
40
0.208950153381062
40
0.208950153381062
40
0.237201933617463
40
0.237201933617463
40
0.251327823735662
40
0.251327823735662
40
0.26545371385386
40
0.26545371385386
40
0.321957274326659
40
0.321957274326659
40
0.350209054563058
40
0.350209054563058
40
0.378460834799457
40
0.378460834799457
40
0.434964395272251
40
0.434964395272251
40
0.491467955745046
40
0.491467955745046
40
0.519719735981441
40
0.519719735981441
40
0.547971516217836
40
0.547971516217836
40
0.576223296454231
40
0.576223296454231
40
0.590349186572427
40
0.590349186572427
40
0.604475076690622
40
0.604475076690622
40
0.660978637163395
40
0.660978637163395
40
0.717482197636168
40
0.717482197636168
40
0.773985758108941
40
0.773985758108941
40
0.788111648227132
40
0.788111648227132
40
0.802237538345324
40
0.802237538345324
40
0.816363428463515
40
0.816363428463515
40
0.830489318581706
40
0.830489318581706
40
0.886992879054471
40
0.886992879054471
40
0.943496439527235
40
0.943496439527235
40
1
40
1
40
1
40
1
41
1
10
38.4010453575045
20
2.27500168098419
30
0
41
1
10
38.4878653138361
20
2.27499792641004
30
0
41
1
10
38.5745432218479
20
2.27257397171638
30
0
41
1
10
38.7851244151688
20
2.26091543097721
30
0
41
1
10
38.9089283479781
20
2.24919418092588
30
0
41
1
10
39.0942975269698
20
2.22430070801187
30
0
41
1
10
39.1560295799271
20
2.21478052785474
30
0
41
1
10
39.2793995606633
20
2.19326380396524
30
0
41
1
10
39.3409996223396
20
2.18124926355191
30
0
41
1
10
39.5260588212037
20
2.1415874143006
30
0
41
1
10
39.650065366637
20
2.11047854354288
30
0
41
1
10
39.8370723861814
20
2.05687679939328
30
0
41
1
10
39.8995840937174
20
2.03785619061222
30
0
41
1
10
39.993635923128
20
2.0075927130662
30
0
41
1
10
40.0250089629847
20
1.99722335012697
30
0
41
1
10
40.0876276143261
20
1.97598234486927
30
0
41
1
10
40.1188981880287
20
1.96510265039737
30
0
41
1
10
40.2750581486827
20
1.90941661909812
30
0
41
1
10
40.3993381856706
20
1.86072692652195
30
0
41
1
10
40.5850998426211
20
1.78179151559169
30
0
41
1
10
40.6469376105378
20
1.75452130909861
30
0
41
1
10
40.7703191576294
20
1.69793593256924
30
0
41
1
10
40.8318274431212
20
1.66858020564865
30
0
41
1
10
41.0166631148597
20
1.57816198895549
30
0
41
1
10
41.1401713008209
20
1.51464587714707
30
0
41
1
10
41.3878943163613
20
1.38141059130177
30
0
41
1
10
41.5121137496363
20
1.3116961613014
30
0
41
1
10
41.6991112167565
20
1.20256651759476
30
0
41
1
10
41.7615512848091
20
1.16542434036486
30
0
41
1
10
41.8866417681989
20
1.08956515252766
30
0
41
1
10
41.9493548115796
20
1.05081002617035
30
0
41
1
10
42.0741193283279
20
0.972308124282961
30
0
41
1
10
42.1362778182969
20
0.93250092740189
30
0
41
1
10
42.2291907058106
20
0.871969139331469
30
0
41
1
10
42.2601065584674
20
0.851653408678288
30
0
41
1
10
42.3220341465855
20
0.811028240245861
30
0
41
1
10
42.3530123967182
20
0.790673363488452
30
0
41
1
10
42.5077686646499
20
0.688406504871523
30
0
41
1
10
42.6313619023387
20
0.605318067978601
30
0
41
1
10
42.878771506637
20
0.437543987106522
30
0
41
1
10
43.0025095715864
20
0.352750736955471
30
0
41
1
10
43.2501551980159
20
0.181495814169409
30
0
41
1
10
43.3740837654628
20
0.0950656562199299
30
0
41
1
10
43.5290801237343
20
-0.0140896976689362
30
0
41
1
10
43.5600821389477
20
-0.0359791466895558
30
0
41
1
10
43.6220897048942
20
-0.0798798675207877
30
0
41
1
10
43.6531087403559
20
-0.101871371074907
30
0
41
1
10
43.7153371289731
20
-0.145698708200968
30
0
41
1
10
43.7465094042639
20
-0.167589580568716
30
0
41
1
10
43.808934232269
20
-0.211379876544612
30
0
41
1
10
43.8402185644896
20
-0.233281121147087
30
0
41
1
10
43.9965906327946
20
-0.342327835840933
30
0
41
1
10
44.1215877822432
20
-0.428295072912789
30
0
41
1
10
44.3714437489303
20
-0.597681997702267
30
0
41
1
10
44.4963372784711
20
-0.681053464715063
30
0
41
1
10
44.7460201562511
20
-0.845184071954776
30
0
41
1
10
44.870840275288
20
-0.925899252305754
30
0
41
1
10
44.995785913437
20
-1.00501648766712
30
0
0
SPLINE
5
199
100
AcDbEntity
8
1
62
256
6
ByLayer
370
18
48
1
60
0
100
AcDbSpline
70
4
71
3
72
8
73
4
40
0
40
0
40
0
40
0
40
1
40
1
40
1
40
1
41
1
10
47.3408148109998
20
-2.91112321179335
30
0
41
1
10
47.2977272912637
20
-2.8926568830837
30
0
41
1
10
47.2546531382383
20
-2.87344162516536
30
0
41
1
10
47.2115907091887
20
-2.85347965596352
30
0
0
SPLINE
5
19A
100
AcDbEntity
8
1
62
256
6
ByLayer
370
18
48
1
60
0
100
AcDbSpline
70
4
71
3
72
8
73
4
40
0
40
0
40
0
40
0
40
1
40
1
40
1
40
1
41
1
10
48.695609687035
20
-3.22785831337813
30
0
41
1
10
48.6524194247925
20
-3.22658796207841
30
0
41
1
10
48.6092891086361
20
-3.22447024218005
30
0
41
1
10
48.566212502799
20
-3.22151011598956
30
0
0
SPLINE
5
19B
100
AcDbEntity
8
1
62
256
6
ByLayer
370
18
48
1
60
0
100
AcDbSpline
70
4
71
3
72
37
73
33
40
0
40
0
40
0
40
0
40
0.12500000000002
40
0.12500000000002
40
0.250000000000039
40
0.250000000000039
40
0.375000000000058
40
0.375000000000058
40
0.406250000000059
40
0.406250000000059
40
0.437500000000058
40
0.437500000000058
40
0.500000000000058
40
0.500000000000058
40
0.531250000000057
40
0.531250000000057
40
0.562500000000055
40
0.562500000000055
40
0.625000000000053
40
0.68750000000005
40
0.68750000000005
40
0.718750000000049
40
0.718750000000049
40
0.750000000000048
40
0.750000000000048
40
0.812500000000036
40
0.812500000000036
40
0.875000000000024
40
0.875000000000024
40
0.937500000000012
40
0.937500000000012
40
1
40
1
40
1
40
1
41
1
10
57
20
1.50093239453156
30
0
41
1
10
57.036088070133
20
1.45260338572533
30
0
41
1
10
57.0708333165848
20
1.40298640773602
30
0
41
1
10
57.1364892633806
20
1.3009536028928
30
0
41
1
10
57.1674173826638
20
1.24853822320597
30
0
41
1
10
57.2234952327369
20
1.14060118324676
30
0
41
1
10
57.2486833879365
20
1.08507795771968
30
0
41
1
10
57.2743475335959
20
1.01349145975635
30
0
41
1
10
57.2791883316406
20
0.999046448294195
30
0
41
1
10
57.2881386406956
20
0.970121783247038
30
0
41
1
10
57.2922552972036
20
0.955624443088965
30
0
41
1
10
57.3034155437981
20
0.912053956489473
30
0
41
1
10
57.3092737540223
20
0.882899843468095
30
0
41
1
10
57.3151562464109
20
0.839152979800019
30
0
41
1
10
57.3166318713996
20
0.824568657831463
30
0
41
1
10
57.3185104596642
20
0.795428585401822
30
0
41
1
10
57.3189127582658
20
0.780839495278229
30
0
41
1
10
57.3183470616474
20
0.737402378549689
30
0
41
1
10
57.3128833582005
20
0.680934411786041
30
0
41
1
10
57.2974143324338
20
0.628259351877801
30
0
41
1
10
57.2819346509428
20
0.590522384303284
30
0
41
1
10
57.2761094623826
20
0.578213445525307
30
0
41
1
10
57.2634041780142
20
0.554642460023018
30
0
41
1
10
57.2565063336501
20
0.543327065685105
30
0
41
1
10
57.2343025554157
20
0.510773430062898
30
0
41
1
10
57.2174904798283
20
0.490926865103262
30
0
41
1
10
57.1804327635231
20
0.454853397317578
30
0
41
1
10
57.1600707268244
20
0.438572416767272
30
0
41
1
10
57.117422673536
20
0.410181903949081
30
0
41
1
10
57.0950566987688
20
0.397962283951642
30
0
41
1
10
57.0486878828588
20
0.37708617428143
30
0
41
1
10
57.0246826666451
20
0.368431964921399
30
0
41
1
10
57
20
0.361439104040386
30
0
0
SPLINE
5
19C
100
AcDbEntity
8
1
62
256
6
ByLayer
370
18
48
1
60
0
100
AcDbSpline
70
4
71
3
72
16
73
12
40
0
40
0
40
0
40
0
40
0.125000000000007
40
0.125000000000007
40
0.250000000000015
40
0.250000000000015
40
0.50000000000001
40
0.50000000000001
40
0.750000000000005
40
0.750000000000005
40
1
40
1
40
1
40
1
41
1
10
46.3342690446195
20
-2.9292574314872
30
0
41
1
10
46.2985993786199
20
-2.90770787804968
30
0
41
1
10
46.2627422844219
20
-2.88532502833132
30
0
41
1
10
46.1910051303535
20
-2.8391578604631
30
0
41
1
10
46.1550793328732
20
-2.8153475535687
30
0
41
1
10
46.0470802008301
20
-2.74178992229514
30
0
41
1
10
45.9747899112376
20
-2.68992164532941
30
0
41
1
10
45.8294163412443
20
-2.58075614781836
30
0
41
1
10
45.7563347493961
20
-2.52345507547273
30
0
41
1
10
45.6088905772264
20
-2.4034937678681
30
0
41
1
10
45.5345068985652
20
-2.34083160824966
30
0
41
1
10
45.4593201808561
20
-2.27553685740798
30
0
0
SPLINE
5
19D
100
AcDbEntity
8
1
62
256
6
ByLayer
370
18
48
1
60
0
100
AcDbSpline
70
4
71
3
72
14
73
10
40
0
40
0
40
0
40
0
40
0.25
40
0.25
40
0.5
40
0.5
40
0.75
40
0.75
40
1
40
1
40
1
40
1
41
1
10
45.4593201808561
20
-2.27553685740798
30
0
41
1
10
45.4249384845821
20
-2.24567860105458
30
0
41
1
10
45.3894647540101
20
-2.21773150345129
30
0
41
1
10
45.3160631299884
20
-2.16569529474347
30
0
41
1
10
45.2781353102858
20
-2.14163063862773
30
0
41
1
10
45.2003519723423
20
-2.09752470435487
30
0
41
1
10
45.1604974687151
20
-2.07747880313792
30
0
41
1
10
45.0792603474501
20
-2.04150318241281
30
0
41
1
10
45.0378962085804
20
-2.0255548449897
30
0
41
1
10
44.995785913437
20
-2.01184212841866
30
0
0
SPLINE
5
19E
100
AcDbEntity
8
1
62
256
6
ByLayer
370
18
48
1
60
0
100
AcDbSpline
70
4
71
3
72
112
73
108
40
0
40
0
40
0
40
0
40
0.0156250000000015
40
0.0156250000000015
40
0.031250000000003
40
0.031250000000003
40
0.0468750000000044
40
0.0468750000000044
40
0.0625000000000059
40
0.0625000000000059
40
0.0937500000000061
40
0.0937500000000061
40
0.109375000000006
40
0.109375000000006
40
0.125000000000006
40
0.125000000000006
40
0.140625000000006
40
0.140625000000006
40
0.156250000000006
40
0.156250000000006
40
0.187500000000009
40
0.187500000000009
40
0.218750000000012
40
0.218750000000012
40
0.250000000000015
40
0.250000000000015
40
0.265625000000017
40
0.265625000000017
40
0.273437500000017
40
0.273437500000017
40
0.281250000000018
40
0.281250000000018
40
0.296875000000023
40
0.296875000000023
40
0.312500000000027
40
0.312500000000027
40
0.343750000000033
40
0.343750000000033
40
0.375000000000038
40
0.375000000000038
40
0.406250000000044
40
0.406250000000044
40
0.421875000000047
40
0.421875000000047
40
0.43750000000005
40
0.43750000000005
40
0.453125000000053
40
0.453125000000053
40
0.468750000000056
40
0.468750000000056
40
0.484375000000059
40
0.484375000000059
40
0.500000000000061
40
0.531250000000065
40
0.531250000000065
40
0.539062500000063
40
0.539062500000063
40
0.546875000000062
40
0.546875000000062
40
0.56250000000006
40
0.56250000000006
40
0.593750000000053
40
0.593750000000053
40
0.625000000000047
40
0.625000000000047
40
0.65625000000004
40
0.65625000000004
40
0.671875000000037
40
0.671875000000037
40
0.687500000000034
40
0.687500000000034
40
0.703125000000031
40
0.703125000000031
40
0.718750000000027
40
0.718750000000027
40
0.726562500000026
40
0.726562500000026
40
0.734375000000024
40
0.750000000000022
40
0.750000000000022
40
0.781250000000018
40
0.781250000000018
40
0.812500000000015
40
0.812500000000015
40
0.828125000000012
40
0.828125000000012
40
0.843750000000009
40
0.843750000000009
40
0.851562500000008
40
0.851562500000008
40
0.859375000000007
40
0.859375000000007
40
0.875000000000004
40
0.875000000000004
40
0.906249999999999
40
0.906249999999999
40
0.914062499999998
40
0.914062499999998
40
0.921874999999998
40
0.921874999999998
40
0.937499999999998
40
0.937499999999998
40
0.96875
40
0.96875
40
0.984375
40
0.984375
40
1
40
1
40
1
40
1
41
1
10
44.995785913437
20
-2.01184212841866
30
0
41
1
10
44.9423198169097
20
-1.99443153024214
30
0
41
1
10
44.888874618025
20
-1.976303091489
30
0
41
1
10
44.7821634734848
20
-1.93853843011186
30
0
41
1
10
44.728867822721
20
-1.91892356675265
30
0
41
1
10
44.6224449622568
20
-1.87820185783229
30
0
41
1
10
44.5693193139971
20
-1.8570939104479
30
0
41
1
10
44.4633081763674
20
-1.81331806572629
30
0
41
1
10
44.4104173925666
20
-1.79065345705843
30
0
41
1
10
44.2519812276599
20
-1.72040023103872
30
0
41
1
10
44.1466725404828
20
-1.67054870537808
30
0
41
1
10
43.9887308339205
20
-1.59160003016149
30
0
41
1
10
43.9361088707128
20
-1.56456554307257
30
0
41
1
10
43.8306440250699
20
-1.50934051640047
30
0
41
1
10
43.7777427542017
20
-1.48121532763202
30
0
41
1
10
43.6716718016727
20
-1.4238868663914
30
0
41
1
10
43.6185285838949
20
-1.39465027755364
30
0
41
1
10
43.5116941082961
20
-1.33544072056915
30
0
41
1
10
43.4580081925112
20
-1.30539024709631
30
0
41
1
10
43.2972278561659
20
-1.21335417414599
30
0
41
1
10
43.1908331059751
20
-1.14987308084895
30
0
41
1
10
42.9791556159772
20
-1.01924502970056
30
0
41
1
10
42.873887230042
20
-0.952078799186751
30
0
41
1
10
42.6639118202309
20
-0.814788727421131
30
0
41
1
10
42.5591450078874
20
-0.744743700277411
30
0
41
1
10
42.4017455975064
20
-0.638383120322288
30
0
41
1
10
42.3492526594241
20
-0.60269384378509
30
0
41
1
10
42.2704117358117
20
-0.548895237500261
30
0
41
1
10
42.2440920207035
20
-0.530949747809217
30
0
41
1
10
42.1913085533698
20
-0.495128333577156
30
0
41
1
10
42.1648762861827
20
-0.477208132380014
30
0
41
1
10
42.0855762328286
20
-0.423251717138385
30
0
41
1
10
42.0326533992344
20
-0.387092835974414
30
0
41
1
10
41.9266328345543
20
-0.314488472882943
30
0
41
1
10
41.8735475688189
20
-0.278025455107269
30
0
41
1
10
41.7141747365481
20
-0.167986949585327
30
0
41
1
10
41.6078478542385
20
-0.0936461295380013
30
0
41
1
10
41.3945996271631
20
0.0564632088890562
30
0
41
1
10
41.2886776474261
20
0.131483538541005
30
0
41
1
10
41.0777190232468
20
0.280652600872315
30
0
41
1
10
40.9727025231075
20
0.354834494405907
30
0
41
1
10
40.8150288151744
20
0.464322093150315
30
0
41
1
10
40.7623820769123
20
0.50043053107683
30
0
41
1
10
40.6568594198716
20
0.571817728940829
30
0
41
1
10
40.6041089864745
20
0.607273231920061
30
0
41
1
10
40.4987613166546
20
0.677887965531681
30
0
41
1
10
40.4461198137964
20
0.712984897955636
30
0
41
1
10
40.340719869302
20
0.782508373730053
30
0
41
1
10
40.2879489605168
20
0.816918734193365
30
0
41
1
10
40.1823301024709
20
0.88512585781541
30
0
41
1
10
40.1294850435244
20
0.918926586581733
30
0
41
1
10
40.0238095413943
20
0.986029707628944
30
0
41
1
10
39.8652976522288
20
1.08590856039646
30
0
41
1
10
39.7064813478563
20
1.18300267398209
30
0
41
1
10
39.5736045944839
20
1.26185122022863
30
0
41
1
10
39.5470129672186
20
1.27751423652958
30
0
41
1
10
39.4939304857866
20
1.3085142010894
30
0
41
1
10
39.4674146045669
20
1.32385781520966
30
0
41
1
10
39.3878276021695
20
1.36928787449966
30
0
41
1
10
39.3346398027205
20
1.39868480506283
30
0
41
1
10
39.1751082505724
20
1.48480696881478
30
0
41
1
10
39.0689766747167
20
1.53967317476739
30
0
41
1
10
38.8576105697739
20
1.64483008884201
30
0
41
1
10
38.7523543076766
20
1.6950819524273
30
0
41
1
10
38.5422629849742
20
1.79038895544173
30
0
41
1
10
38.4374620883657
20
1.83547166069505
30
0
41
1
10
38.2801185441744
20
1.89870437477683
30
0
41
1
10
38.2276280198327
20
1.91903443408879
30
0
41
1
10
38.1223622945972
20
1.95804794649035
30
0
41
1
10
38.0695946933874
20
1.97673580096387
30
0
41
1
10
37.9634440868688
20
2.01225857802888
30
0
41
1
10
37.9100561467906
20
2.02909851006945
30
0
41
1
10
37.8032137625136
20
2.06133037611858
30
0
41
1
10
37.7497313828704
20
2.07669861803103
30
0
41
1
10
37.6693953225609
20
2.09859223705172
30
0
41
1
10
37.6426013215178
20
2.10569562589285
30
0
41
1
10
37.5891396426592
20
2.11946824533681
30
0
41
1
10
37.5090745065354
20
2.13949305533117
30
0
41
1
10
37.4293800187725
20
2.15760991059318
30
0
41
1
10
37.2704619517861
20
2.19127703369594
30
0
41
1
10
37.1651814718613
20
2.21030799512514
30
0
41
1
10
36.9553139549803
20
2.24120890065285
30
0
41
1
10
36.8507251731055
20
2.25307524658052
30
0
41
1
10
36.6937720853774
20
2.26536307050105
30
0
41
1
10
36.64140386489
20
2.26853230947998
30
0
41
1
10
36.5361497115341
20
2.27302727603777
30
0
41
1
10
36.4832972793132
20
2.27436759569332
30
0
41
1
10
36.4041179267979
20
2.27505307431906
30
0
41
1
10
36.3777418189007
20
2.27505810294355
30
0
41
1
10
36.324880616716
20
2.27462184948988
30
0
41
1
10
36.2983943049896
20
2.27418179347117
30
0
41
1
10
36.2188614487726
20
2.27219926522872
30
0
41
1
10
36.1657847532674
20
2.26999268346651
30
0
41
1
10
36.0065884854093
20
2.26065102782016
30
0
41
1
10
35.9004008426117
20
2.25079690016008
30
0
41
1
10
35.7673012529411
20
2.23377388746718
30
0
41
1
10
35.7406466580309
20
2.23013145090735
30
0
41
1
10
35.6874530666041
20
2.22239661869455
30
0
41
1
10
35.6608985480021
20
2.21830240788015
30
0
41
1
10
35.5813483580434
20
2.20534476989516
30
0
41
1
10
35.5284639502091
20
2.19580623341466
30
0
41
1
10
35.3700641980316
20
2.16458279304752
30
0
41
1
10
35.264764376184
20
2.14030307647306
30
0
41
1
10
35.1067515956175
20
2.09909070796505
30
0
41
1
10
35.0540726275573
20
2.08455481319345
30
0
41
1
10
34.9486668765061
20
2.05393054537328
30
0
41
1
10
34.8958922200137
20
2.03787331166239
30
0
41
1
10
34.8431465490794
20
2.02101571445957
30
0
0
SPLINE
5
19F
100
AcDbEntity
8
1
62
256
6
ByLayer
370
18
48
1
60
0
100
AcDbSpline
70
4
71
3
72
102
73
98
40
0
40
0
40
0
40
0
40
0.0335188050450841
40
0.0335188050450841
40
0.0502782075676261
40
0.0502782075676261
40
0.0670376100901681
40
0.0670376100901681
40
0.100556415135251
40
0.100556415135251
40
0.117315817657793
40
0.117315817657793
40
0.125695518919064
40
0.125695518919064
40
0.134075220180335
40
0.134075220180335
40
0.167594025225423
40
0.167594025225423
40
0.184353427747967
40
0.184353427747967
40
0.20111283027051
40
0.20111283027051
40
0.234631635315598
40
0.234631635315598
40
0.268150440360686
40
0.268150440360686
40
0.284909842883229
40
0.284909842883229
40
0.301669245405772
40
0.301669245405772
40
0.318428647928315
40
0.318428647928315
40
0.335188050450859
40
0.335188050450859
40
0.368706855495945
40
0.368706855495945
40
0.402225660541032
40
0.402225660541032
40
0.435744465586118
40
0.435744465586118
40
0.444124166847389
40
0.444124166847389
40
0.45250386810866
40
0.45250386810866
40
0.469263270631202
40
0.469263270631202
40
0.502782075676286
40
0.502782075676286
40
0.53630088072137
40
0.53630088072137
40
0.553060283243912
40
0.553060283243912
40
0.569819685766453
40
0.569819685766453
40
0.603338490811536
40
0.603338490811536
40
0.620097893334077
40
0.620097893334077
40
0.628477594595348
40
0.628477594595348
40
0.636857295856619
40
0.636857295856619
40
0.670376100901707
40
0.670376100901707
40
0.687135503424249
40
0.687135503424249
40
0.703894905946792
40
0.703894905946792
40
0.737413710991877
40
0.737413710991877
40
0.770932516036963
40
0.770932516036963
40
0.787691918559504
40
0.787691918559504
40
0.804451321082046
40
0.804451321082046
40
0.821210723604587
40
0.821210723604587
40
0.829590424865857
40
0.829590424865857
40
0.837970126127126
40
0.837970126127126
40
0.871488931172204
40
0.871488931172204
40
0.905007736217282
40
0.905007736217282
40
0.93852654126236
40
0.93852654126236
40
0.94690624252363
40
0.94690624252363
40
0.9552859437849
40
0.9552859437849
40
0.96366564504617
40
0.96366564504617
40
0.97204534630744
40
0.97204534630744
40
1
40
1
40
1
40
1
41
1
10
33.0678392864111
20
2.04542918358962
30
0
41
1
10
33.1928961729222
20
2.00734189270543
30
0
41
1
10
33.317477670444
20
1.96491112553628
30
0
41
1
10
33.5036448952784
20
1.89476126249846
30
0
41
1
10
33.5655710059349
20
1.87028125570961
30
0
41
1
10
33.6892472248115
20
1.81917087491067
30
0
41
1
10
33.7510161212637
20
1.79255326732951
30
0
41
1
10
33.9366658415449
20
1.71000875729962
30
0
41
1
10
34.0607823048675
20
1.65131303556385
30
0
41
1
10
34.247655519152
20
1.55799940001091
30
0
41
1
10
34.3100630999321
20
1.52601516539474
30
0
41
1
10
34.4038698685485
20
1.47673314132061
30
0
41
1
10
34.4351716942473
20
1.4600884628577
30
0
41
1
10
34.4978445792926
20
1.42636555212877
30
0
41
1
10
34.5292371131462
20
1.4092753146619
30
0
41
1
10
34.6859421277193
20
1.32297687577034
30
0
41
1
10
34.8107133113487
20
1.2511293193181
30
0
41
1
10
34.9969975552267
20
1.1391739061358
30
0
41
1
10
35.0589156823534
20
1.10111655424137
30
0
41
1
10
35.1826495830614
20
1.02383393450086
30
0
41
1
10
35.2445321054477
20
0.984695086731961
30
0
41
1
10
35.4303499073569
20
0.865966462180694
30
0
41
1
10
35.5544477190822
20
0.78505815577347
30
0
41
1
10
35.8033588895924
20
0.620148870706942
30
0
41
1
10
35.9281617979839
20
0.536135435246706
30
0
41
1
10
36.1159838997741
20
0.407854538701258
30
0
41
1
10
36.1787503444714
20
0.364670393092496
30
0
41
1
10
36.3036370677854
20
0.278073393219415
30
0
41
1
10
36.3658511184742
20
0.234594355332064
30
0
41
1
10
36.4899679187112
20
0.147492509091904
30
0
41
1
10
36.5517792040797
20
0.103735465070116
30
0
41
1
10
36.6754069573785
20
0.0165408170552723
30
0
41
1
10
36.7372200535191
20
-0.0269026103855197
30
0
41
1
10
36.922647237532
20
-0.156794803776592
30
0
41
1
10
37.0462803018132
20
-0.242760860861267
30
0
41
1
10
37.2938285719881
20
-0.413095202417878
30
0
41
1
10
37.4177050179413
20
-0.497519761197594
30
0
41
1
10
37.6657021920992
20
-0.664808429608797
30
0
41
1
10
37.7898495297028
20
-0.74763495692315
30
0
41
1
10
37.9452913000759
20
-0.850006740868764
30
0
41
1
10
37.9763926964739
20
-0.870422613365065
30
0
41
1
10
38.0387030024998
20
-0.911023464691596
30
0
41
1
10
38.0699473854507
20
-0.931214619959235
30
0
41
1
10
38.1636146190922
20
-0.991144644992346
30
0
41
1
10
38.2259875858189
20
-1.03032729532896
30
0
41
1
10
38.4128389519035
20
-1.14570594241437
30
0
41
1
10
38.5370899953843
20
-1.21968375958679
30
0
41
1
10
38.7851244151687
20
-1.36174807490946
30
0
41
1
10
38.9089283479781
20
-1.42981248652123
30
0
41
1
10
39.0942975269698
20
-1.52745976174853
30
0
41
1
10
39.1560295799271
20
-1.55926677599069
30
0
41
1
10
39.2793995606632
20
-1.62134838422787
30
0
41
1
10
39.3409996223395
20
-1.6516593930202
30
0
41
1
10
39.5260588212035
20
-1.73984626316999
30
0
41
1
10
39.6500653666369
20
-1.79471170915576
30
0
41
1
10
39.8370723861812
20
-1.8711036645067
30
0
41
1
10
39.8995840937172
20
-1.8955727367227
30
0
41
1
10
39.9936359231277
20
-1.93075643696628
30
0
41
1
10
40.0250089629845
20
-1.94222132078599
30
0
41
1
10
40.0876276143259
20
-1.96456442918171
30
0
41
1
10
40.1188981880284
20
-1.97545216237387
30
0
41
1
10
40.2750581486825
20
-2.02848163741359
30
0
41
1
10
40.3993381856705
20
-2.06642194138823
30
0
41
1
10
40.585099842621
20
-2.11647425609101
30
0
41
1
10
40.6469376105377
20
-2.13200169704004
30
0
41
1
10
40.7703191576294
20
-2.1607964720121
30
0
41
1
10
40.8318274431212
20
-2.17407153176069
30
0
41
1
10
41.0166631148597
20
-2.21014894492939
30
0
41
1
10
41.1401713008209
20
-2.22929435461907
30
0
41
1
10
41.3878943163612
20
-2.25789785982528
30
0
41
1
10
41.5121137496362
20
-2.26735425106051
30
0
41
1
10
41.6991112167564
20
-2.2741565216468
30
0
41
1
10
41.7615512848089
20
-2.27519219488207
30
0
41
1
10
41.8866417681987
20
-2.27474930647614
30
0
41
1
10
41.9493548115793
20
-2.27326304051661
30
0
41
1
10
42.0741193283277
20
-2.26776054253259
30
0
41
1
10
42.1362778182968
20
-2.26374694229187
30
0
41
1
10
42.2291907058105
20
-2.25582850428
30
0
41
1
10
42.2601065584674
20
-2.25287096909633
30
0
41
1
10
42.3220341465855
20
-2.24637011310821
30
0
41
1
10
42.3530123967182
20
-2.24282141740198
30
0
41
1
10
42.5077686646498
20
-2.22355449731711
30
0
41
1
10
42.6313619023387
20
-2.2033119963636
30
0
41
1
10
42.878771506637
20
-2.1536377771306
30
0
41
1
10
43.0025095715865
20
-2.12418692465809
30
0
41
1
10
43.2501551980159
20
-2.05609498134052
30
0
41
1
10
43.3740837654628
20
-2.0174718766068
30
0
41
1
10
43.5290801237342
20
-1.96321587279363
30
0
41
1
10
43.5600821389476
20
-1.95206359191528
30
0
41
1
10
43.6220897048941
20
-1.92914481638931
30
0
41
1
10
43.6531087403558
20
-1.91738762222965
30
0
41
1
10
43.715337128973
20
-1.89340568808103
30
0
41
1
10
43.7465094042637
20
-1.88115205611689
30
0
41
1
10
43.8089342322688
20
-1.85608724598245
30
0
41
1
10
43.8402185644894
20
-1.84327396987763
30
0
41
1
10
43.9758243112221
20
-1.78675028069517
30
0
41
1
10
44.0800857374509
20
-1.74071966288145
30
0
41
1
10
44.1842954363875
20
-1.69222307785836
30
0
0
SPLINE
5
1A0
100
AcDbEntity
8
1
62
256
6
ByLayer
370
18
48
1
60
0
100
AcDbSpline
70
4
71
3
72
8
73
4
40
0
40
0
40
0
40
0
40
1
40
1
40
1
40
1
41
1
10
53.248951193366
20
1.44528422606672
30
0
41
1
10
53.283248447985
20
1.41482686240929
30
0
41
1
10
53.3175370567159
20
1.38414117894879
30
0
41
1
10
53.3518162838303
20
1.35322671707249
30
0
0
SPLINE
5
1A1
100
AcDbEntity
8
1
62
256
6
ByLayer
370
18
48
1
60
0
100
AcDbSpline
70
4
71
3
72
8
73
4
40
0
40
0
40
0
40
0
40
1
40
1
40
1
40
1
41
1
10
51.893990442392
20
2.49343305128673
30
0
41
1
10
51.9372381537567
20
2.46614291260025
30
0
41
1
10
51.9804798889168
20
2.43821087381417
30
0
41
1
10
52.02372950842
20
2.40964783495517
30
0
0
SPLINE
5
1A2
100
AcDbEntity
8
1
62
256
6
ByLayer
370
18
48
1
60
0
100
AcDbSpline
70
4
71
3
72
8
73
4
40
0
40
0
40
0
40
0
40
1
40
1
40
1
40
1
41
1
10
50.5399667118455
20
3.11168760752403
30
0
41
1
10
50.5831203620555
20
3.10023218552715
30
0
41
1
10
50.6262571982224
20
3.08796089072305
30
0
41
1
10
50.6693681524565
20
3.07487083199945
30
0
0
SPLINE
5
1A3
100
AcDbEntity
8
1
62
256
6
ByLayer
370
18
48
1
60
0
100
AcDbSpline
70
4
71
3
72
60
73
56
40
0
40
0
40
0
40
0
40
0.0363922340849683
40
0.0363922340849683
40
0.0524523635168863
40
0.0524523635168863
40
0.068512492948804
40
0.068512492948804
40
0.10063275181264
40
0.10063275181264
40
0.164873269540312
40
0.164873269540312
40
0.229113787267984
40
0.229113787267984
40
0.293354304995656
40
0.293354304995656
40
0.325474563859493
40
0.325474563859493
40
0.35759482272333
40
0.35759482272333
40
0.389715081587168
40
0.389715081587168
40
0.421835340451005
40
0.421835340451005
40
0.437895469882924
40
0.437895469882924
40
0.453955599314843
40
0.48607585817868
40
0.48607585817868
40
0.550316375906352
40
0.550316375906352
40
0.614556893634024
40
0.614556893634024
40
0.646677152497862
40
0.646677152497862
40
0.6787974113617
40
0.6787974113617
40
0.694857540793617
40
0.694857540793617
40
0.710917670225534
40
0.710917670225534
40
0.743037929089366
40
0.743037929089366
40
0.807278446817027
40
0.807278446817027
40
0.823338576248942
40
0.823338576248942
40
0.839398705680858
40
0.871518964544687
40
0.871518964544687
40
0.935759482272345
40
0.935759482272345
40
0.967879741136173
40
0.967879741136173
40
1
40
1
40
1
40
1
41
1
10
39.7804834623957
20
-2.27499937262232
30
0
41
1
10
39.7204833428162
20
-2.27500207700544
30
0
41
1
10
39.6603996580028
20
-2.27382024231053
30
0
41
1
10
39.5736045944838
20
-2.27037180401189
30
0
41
1
10
39.5470129672186
20
-2.26908007672861
30
0
41
1
10
39.4939304857865
20
-2.2660349563476
30
0
41
1
10
39.4674146045669
20
-2.26428101140542
30
0
41
1
10
39.3878276021695
20
-2.2583527382844
30
0
41
1
10
39.3346398027205
20
-2.25352988711475
30
0
41
1
10
39.1751082505724
20
-2.23649432826679
30
0
41
1
10
39.0689766747167
20
-2.22167605882379
30
0
41
1
10
38.8576105697739
20
-2.18501676494876
30
0
41
1
10
38.7523543076766
20
-2.1631638708497
30
0
41
1
10
38.5422629849742
20
-2.11245421218524
30
0
41
1
10
38.4374620883657
20
-2.08357537813683
30
0
41
1
10
38.2801185441744
20
-2.03514917068077
30
0
41
1
10
38.2276280198327
20
-2.01816765707466
30
0
41
1
10
38.1223622945972
20
-1.98266574351174
30
0
41
1
10
38.0695946933874
20
-1.96413833012613
30
0
41
1
10
37.9634440868689
20
-1.92583185660848
30
0
41
1
10
37.9100561467906
20
-1.90606691638052
30
0
41
1
10
37.8032137625136
20
-1.86488465770393
30
0
41
1
10
37.7497313828704
20
-1.84348398462277
30
0
41
1
10
37.6693953225609
20
-1.81015711539436
30
0
41
1
10
37.6426013215179
20
-1.79884480098883
30
0
41
1
10
37.5891396426592
20
-1.77588203029873
30
0
41
1
10
37.5090745065354
20
-1.740904970944
30
0
41
1
10
37.4293800187725
20
-1.70434036990417
30
0
41
1
10
37.270461951786
20
-1.6291104184333
30
0
41
1
10
37.1651814718613
20
-1.57611446353135
30
0
41
1
10
36.9553139549803
20
-1.46504143036333
30
0
41
1
10
36.8507251731055
20
-1.40696443127234
30
0
41
1
10
36.6937720853774
20
-1.31669713997664
30
0
41
1
10
36.64140386489
20
-1.28612687040786
30
0
41
1
10
36.5361497115341
20
-1.22455373184189
30
0
41
1
10
36.4832972793131
20
-1.19351731473066
30
0
41
1
10
36.4041179267979
20
-1.14605901094296
30
0
41
1
10
36.3777418189007
20
-1.13008683817702
30
0
41
1
10
36.324880616716
20
-1.09801720090769
30
0
41
1
10
36.2983943049896
20
-1.08192198792034
30
0
41
1
10
36.2188614487727
20
-1.03333997327823
30
0
41
1
10
36.1657847532674
20
-1.00050072937336
30
0
41
1
10
36.0065884854094
20
-0.900340567090097
30
0
41
1
10
35.9004008426116
20
-0.831507016976644
30
0
41
1
10
35.7673012529411
20
-0.743158342772745
30
0
41
1
10
35.7406466580309
20
-0.725362389831872
30
0
41
1
10
35.6874530666041
20
-0.689655478841786
30
0
41
1
10
35.6077905619607
20
-0.635889059463494
30
0
41
1
10
35.5284639502091
20
-0.58157271760885
30
0
41
1
10
35.3700641980316
20
-0.472485593605853
30
0
41
1
10
35.264764376184
20
-0.399209166395082
30
0
41
1
10
35.1067515956175
20
-0.289208675283931
30
0
41
1
10
35.0540726275573
20
-0.252524054741457
30
0
41
1
10
34.9486668765061
20
-0.179165815409448
30
0
41
1
10
34.8958922200137
20
-0.142561162944446
30
0
41
1
10
34.8431465490794
20
-0.105886189663295
30
0
0
SPLINE
5
1A4
100
AcDbEntity
8
1
62
256
6
ByLayer
370
18
48
1
60
0
100
AcDbSpline
70
4
71
3
72
42
73
38
40
0
40
0
40
0
40
0
40
0.0862403563093518
40
0.0862403563093518
40
0.129360534464029
40
0.129360534464029
40
0.172480712618707
40
0.172480712618707
40
0.258721068928059
40
0.258721068928059
40
0.301841247082733
40
0.301841247082733
40
0.323401336160071
40
0.323401336160071
40
0.344961425237408
40
0.344961425237408
40
0.43120178154675
40
0.43120178154675
40
0.474321959701421
40
0.474321959701421
40
0.517442137856092
40
0.517442137856092
40
0.603682494165438
40
0.603682494165438
40
0.689922850474784
40
0.689922850474784
40
0.733043028629455
40
0.733043028629455
40
0.776163206784126
40
0.776163206784126
40
0.819283384938797
40
0.819283384938797
40
0.862403563093468
40
0.862403563093468
40
0.948643919402807
40
0.948643919402807
40
1
40
1
40
1
40
1
41
1
10
33.0678392864111
20
-1.88520131122297
30
0
41
1
10
33.1928961729221
20
-1.93390206219604
30
0
41
1
10
33.3174776704439
20
-1.97831479378382
30
0
41
1
10
33.5036448952784
20
-2.03850252302396
30
0
41
1
10
33.5655710059349
20
-2.05749746804227
30
0
41
1
10
33.6892472248114
20
-2.09327114498805
30
0
41
1
10
33.7510161212637
20
-2.11003514220022
30
0
41
1
10
33.936665841545
20
-2.15666747034663
30
0
41
1
10
34.0607823048675
20
-2.18295553654528
30
0
41
1
10
34.247655519152
20
-2.2151800978925
30
0
41
1
10
34.3100630999321
20
-2.22471865950334
30
0
41
1
10
34.4038698685485
20
-2.23720569843502
30
0
41
1
10
34.4351716942473
20
-2.24106436710454
30
0
41
1
10
34.4978445792926
20
-2.24817025930986
30
0
41
1
10
34.5292371131462
20
-2.25141921715888
30
0
41
1
10
34.6859421277193
20
-2.26608556520387
30
0
41
1
10
34.8107133113487
20
-2.27281344508074
30
0
41
1
10
34.9969975552267
20
-2.27541715241745
30
0
41
1
10
35.0589156823534
20
-2.27503145791985
30
0
41
1
10
35.1826495830615
20
-2.27173913347553
30
0
41
1
10
35.2445321054477
20
-2.26883851603611
30
0
41
1
10
35.4303499073569
20
-2.25643442599534
30
0
41
1
10
35.5544477190822
20
-2.24323657090679
30
0
41
1
10
35.8033588895924
20
-2.20715561160847
30
0
41
1
10
35.9281617979839
20
-2.18427416993086
30
0
41
1
10
36.1159838997741
20
-2.14258326947945
30
0
41
1
10
36.1787503444714
20
-2.12743547105296
30
0
41
1
10
36.3036370677855
20
-2.09483828178452
30
0
41
1
10
36.3658511184742
20
-2.07736745218639
30
0
41
1
10
36.4899679187112
20
-2.04017342953739
30
0
41
1
10
36.5517792040797
20
-2.02038862568892
30
0
41
1
10
36.6754069573785
20
-1.97878813056079
30
0
41
1
10
36.7372200535191
20
-1.95697587581998
30
0
41
1
10
36.922647237532
20
-1.88855700687785
30
0
41
1
10
37.0462803018132
20
-1.83899571677679
30
0
41
1
10
37.2437618603093
20
-1.75391185015801
30
0
41
1
10
37.3175055651497
20
-1.72080918800998
30
0
41
1
10
37.3912897390915
20
-1.68635140833584
30
0
0
SPLINE
5
1A5
100
AcDbEntity
8
1
62
256
6
ByLayer
370
18
48
1
60
0
100
AcDbSpline
70
4
71
3
72
14
73
10
40
0
40
0
40
0
40
0
40
0.0670266178795339
40
0.0670266178795339
40
0.533513308939819
40
0.533513308939819
40
0.766756654469909
40
0.766756654469909
40
1
40
1
40
1
40
1
41
1
10
45.2145877731577
20
2.3020000542343
30
0
41
1
10
45.2201630180942
20
2.30339369395853
30
0
41
1
10
45.2257323348335
20
2.30483287708049
30
0
41
1
10
45.2700144210684
20
2.31665415487655
30
0
41
1
10
45.3084394326038
20
2.32920725990692
30
0
41
1
10
45.3656593463657
20
2.35189168315776
30
0
41
1
10
45.3846560857015
20
2.36009986284645
30
0
41
1
10
45.4222508580185
20
2.37782278211887
30
0
41
1
10
45.4408985877533
20
2.38736304096221
30
0
41
1
10
45.4593201808561
20
2.3975976726137
30
0
0
SPLINE
5
1A6
100
AcDbEntity
8
1
62
256
6
ByLayer
370
18
48
1
60
0
100
AcDbSpline
70
4
71
3
72
8
73
4
40
0
40
0
40
0
40
0
40
1
40
1
40
1
40
1
41
1
10
45.4593201808563
20
2.39759767261361
30
0
41
1
10
45.6059673332117
20
2.47907160262167
30
0
41
1
10
45.7496525005403
20
2.55291806878765
30
0
41
1
10
45.8913637065016
20
2.61823448779504
30
0
0
SPLINE
5
1A7
100
AcDbEntity
8
1
62
256
6
ByLayer
370
18
48
1
60
0
100
AcDbSpline
70
4
71
3
72
8
73
4
40
0
40
0
40
0
40
0
40
1
40
1
40
1
40
1
41
1
10
52.307385353286
20
-1.71714328519946
30
0
41
1
10
52.2641047389176
20
-1.68044445233627
30
0
41
1
10
52.2209132765421
20
-1.64325303428268
30
0
41
1
10
52.1777662815884
20
-1.60560584521943
30
0
0
SPLINE
5
1A8
100
AcDbEntity
8
1
62
256
6
ByLayer
370
18
48
1
60
0
100
AcDbSpline
70
4
71
3
72
37
73
33
40
0
40
0
40
0
40
0
40
0.125
40
0.125
40
0.250000000000001
40
0.250000000000001
40
0.375000000000001
40
0.375000000000001
40
0.406250000000003
40
0.406250000000003
40
0.437500000000004
40
0.437500000000004
40
0.500000000000008
40
0.500000000000008
40
0.531250000000009
40
0.531250000000009
40
0.562500000000011
40
0.562500000000011
40
0.625000000000015
40
0.687500000000019
40
0.687500000000019
40
0.718750000000021
40
0.718750000000021
40
0.750000000000023
40
0.750000000000023
40
0.812500000000017
40
0.812500000000017
40
0.875000000000011
40
0.875000000000011
40
0.937500000000006
40
0.937500000000006
40
1
40
1
40
1
40
1
41
1
10
57
20
-1.0855429948576
30
0
41
1
10
57.036088070133
20
-1.09853877652796
30
0
41
1
10
57.0708333165849
20
-1.11030620054538
30
0
41
1
10
57.1364892633807
20
-1.13173026659874
30
0
41
1
10
57.1674173826638
20
-1.14137700383546
30
0
41
1
10
57.2234952327369
20
-1.15925576967564
30
0
41
1
10
57.2486833879365
20
-1.16746189448634
30
0
41
1
10
57.274347533596
20
-1.17779886209468
30
0
41
1
10
57.2791883316406
20
-1.17987616145175
30
0
41
1
10
57.2881386406956
20
-1.18405811135233
30
0
41
1
10
57.2922552972036
20
-1.18616528641141
30
0
41
1
10
57.3034155437981
20
-1.19260220498506
30
0
41
1
10
57.3092737540223
20
-1.19704236606347
30
0
41
1
10
57.315156246411
20
-1.20427180431241
30
0
41
1
10
57.3166318713995
20
-1.20677765252282
30
0
41
1
10
57.3185104596642
20
-1.21205570113523
30
0
41
1
10
57.3189127582658
20
-1.21483466081722
30
0
41
1
10
57.3183470616474
20
-1.22365637971194
30
0
41
1
10
57.3128833582005
20
-1.23658868763599
30
0
41
1
10
57.2974143324339
20
-1.25305205157338
30
0
41
1
10
57.2819346509428
20
-1.2672049374101
30
0
41
1
10
57.2761094623826
20
-1.27223866286593
30
0
41
1
10
57.2634041780142
20
-1.28279330308757
30
0
41
1
10
57.2565063336501
20
-1.28833199429931
30
0
41
1
10
57.2343025554156
20
-1.30577809445165
30
0
41
1
10
57.2174904798283
20
-1.31851669233117
30
0
41
1
10
57.1804327635231
20
-1.34641332686624
30
0
41
1
10
57.1600707268244
20
-1.36166022062437
30
0
41
1
10
57.117422673536
20
-1.39394402134877
30
0
41
1
10
57.0950566987689
20
-1.4110389854745
30
0
41
1
10
57.0486878828587
20
-1.44712473364018
30
0
41
1
10
57.024682666645
20
-1.46611576165446
30
0
41
1
10
57
20
-1.48605335245313
30
0
0
SPLINE
5
1A9
100
AcDbEntity
8
1
62
256
6
ByLayer
370
18
48
1
60
0
100
AcDbSpline
70
4
71
3
72
97
73
93
40
0
40
0
40
0
40
0
40
0.0625000000000055
40
0.0625000000000055
40
0.125000000000011
40
0.125000000000011
40
0.156250000000014
40
0.156250000000014
40
0.171875000000014
40
0.171875000000014
40
0.187500000000014
40
0.203125000000013
40
0.203125000000013
40
0.218750000000013
40
0.218750000000013
40
0.25000000000001
40
0.25000000000001
40
0.312500000000006
40
0.312500000000006
40
0.328125000000004
40
0.328125000000004
40
0.343750000000001
40
0.343750000000001
40
0.374999999999996
40
0.374999999999996
40
0.406249999999991
40
0.406249999999991
40
0.421874999999989
40
0.421874999999989
40
0.437499999999986
40
0.437499999999986
40
0.468749999999981
40
0.468749999999981
40
0.476562499999982
40
0.476562499999982
40
0.484374999999982
40
0.484374999999982
40
0.499999999999985
40
0.499999999999985
40
0.515624999999988
40
0.515624999999988
40
0.523437499999991
40
0.523437499999991
40
0.531249999999994
40
0.531249999999994
40
0.546874999999997
40
0.546874999999997
40
0.554687499999998
40
0.554687499999998
40
0.562499999999999
40
0.562499999999999
40
0.578125000000002
40
0.578125000000002
40
0.585937500000003
40
0.585937500000003
40
0.593750000000005
40
0.593750000000005
40
0.609375000000008
40
0.609375000000008
40
0.617187500000009
40
0.617187500000009
40
0.625000000000011
40
0.625000000000011
40
0.656250000000016
40
0.656250000000016
40
0.664062500000017
40
0.664062500000017
40
0.671875000000018
40
0.671875000000018
40
0.679687500000018
40
0.679687500000018
40
0.687500000000019
40
0.687500000000019
40
0.703125000000018
40
0.703125000000018
40
0.718750000000018
40
0.718750000000018
40
0.734375000000017
40
0.734375000000017
40
0.750000000000017
40
0.750000000000017
40
0.781250000000015
40
0.781250000000015
40
0.812500000000014
40
0.812500000000014
40
0.875000000000009
40
0.875000000000009
40
0.937500000000005
40
0.937500000000005
40
0.968750000000002
40
0.968750000000002
40
1
40
1
40
1
40
1
41
1
10
34.8431462840095
20
-0.105883280650261
30
0
41
1
10
34.7356656517749
20
-0.022858741962267
30
0
41
1
10
34.6252573261357
20
0.0546355644090966
30
0
41
1
10
34.3968900859259
20
0.195784874584206
30
0
41
1
10
34.2789463816864
20
0.25946623043734
30
0
41
1
10
34.094530299467
20
0.341537313946361
30
0
41
1
10
34.0317874370304
20
0.366616107144267
30
0
41
1
10
33.9354928109854
20
0.400356203741694
30
0
41
1
10
33.9030703388829
20
0.410818111090208
30
0
41
1
10
33.8381079665998
20
0.430232259347093
30
0
41
1
10
33.7728857279041
20
0.448197458068762
30
0
41
1
10
33.7072530872931
20
0.463882207932102
30
0
41
1
10
33.6414765737171
20
0.478767643387755
30
0
41
1
10
33.608525413467
20
0.485859754415202
30
0
41
1
10
33.5094864092065
20
0.50610795216798
30
0
41
1
10
33.4431771778023
20
0.518041181114995
30
0
41
1
10
33.2433437275235
20
0.548890097033564
30
0
41
1
10
33.1089319605318
20
0.562957564406332
30
0
41
1
10
32.9390474101029
20
0.570458533065676
30
0
41
1
10
32.905034706782
20
0.571443456757379
30
0
41
1
10
32.8371524385161
20
0.572301049566448
30
0
41
1
10
32.8032511017985
20
0.572176205677835
30
0
41
1
10
32.7016706486461
20
0.570082585657161
30
0
41
1
10
32.6341140265881
20
0.566410373106351
30
0
41
1
10
32.4993712622202
20
0.553894071571165
30
0
41
1
10
32.4321840979418
20
0.545064987477531
30
0
41
1
10
32.3317467451918
20
0.526989660461936
30
0
41
1
10
32.2983466391607
20
0.520151273447624
30
0
41
1
10
32.2322952018615
20
0.504739062593472
30
0
41
1
10
32.1995703371282
20
0.496162729765871
30
0
41
1
10
32.1023801029498
20
0.467568889539791
30
0
41
1
10
32.0388915904968
20
0.444712505826487
30
0
41
1
10
31.9617071234987
20
0.409723271131384
30
0
41
1
10
31.9463828672381
20
0.402393097738155
30
0
41
1
10
31.9159769368905
20
0.38701391005128
30
0
41
1
10
31.9009106320086
20
0.378970319196895
30
0
41
1
10
31.856510754534
20
0.353904172088164
30
0
41
1
10
31.8278419811381
20
0.335888763941227
30
0
41
1
10
31.7726349110087
20
0.296852300636516
30
0
41
1
10
31.7461047357181
20
0.275820208329321
30
0
41
1
10
31.7081845765367
20
0.241607353587426
30
0
41
1
10
31.6958156327627
20
0.229712408459306
30
0
41
1
10
31.6720259879675
20
0.205214188425259
30
0
41
1
10
31.6606005770597
20
0.192613442412636
30
0
41
1
10
31.6277922843093
20
0.153709045425074
30
0
41
1
10
31.607871276655
20
0.126307886845467
30
0
41
1
10
31.5812504435671
20
0.0827470540509125
30
0
41
1
10
31.5729163467925
20
0.0678052393764119
30
0
41
1
10
31.557435625287
20
0.0370836915636232
30
0
41
1
10
31.5503971281026
20
0.0215197292743312
30
0
41
1
10
31.5313525345842
20
-0.0257706541819687
30
0
41
1
10
31.521413879646
20
-0.0580945645866393
30
0
41
1
10
31.5105734106322
20
-0.107752024595584
30
0
41
1
10
31.507639726305
20
-0.124500329133866
30
0
41
1
10
31.5030975208429
20
-0.158377821260928
30
0
41
1
10
31.5014999860462
20
-0.175506475099979
30
0
41
1
10
31.4986942481332
20
-0.22652190711392
30
0
41
1
10
31.4994149801254
20
-0.260355151676407
30
0
41
1
10
31.5038145336031
20
-0.310861190016652
30
0
41
1
10
31.5058360037322
20
-0.327655820334996
30
0
41
1
10
31.5109133439458
20
-0.361166463250839
30
0
41
1
10
31.5139725817745
20
-0.377843017603624
30
0
41
1
10
31.5312624760855
20
-0.460106271308916
30
0
41
1
10
31.5517373465442
20
-0.523095842120085
30
0
41
1
10
31.5837549285467
20
-0.59905475886211
30
0
41
1
10
31.5904821160993
20
-0.614106564987338
30
0
41
1
10
31.6045459054544
20
-0.643945000594357
30
0
41
1
10
31.6118972020158
20
-0.658759407393518
30
0
41
1
10
31.6271000985278
20
-0.687995803583647
30
0
41
1
10
31.6349345921705
20
-0.702400433582426
30
0
41
1
10
31.6512661130046
20
-0.730661616365211
30
0
41
1
10
31.6597262591261
20
-0.74454278232318
30
0
41
1
10
31.6858508352636
20
-0.785542388091898
30
0
41
1
10
31.7042527282263
20
-0.812021941559209
30
0
41
1
10
31.7425230234888
20
-0.863653849887015
30
0
41
1
10
31.7623951486476
20
-0.888803442927696
30
0
41
1
10
31.8032888699212
20
-0.938014525107917
30
0
41
1
10
31.8243122336924
20
-0.962074697723722
30
0
41
1
10
31.8672885423538
20
-1.00927238326946
30
0
41
1
10
31.8892796120088
20
-1.03244658486398
30
0
41
1
10
31.9561256187336
20
-1.10048023040767
30
0
41
1
10
32.0017252224374
20
-1.1437653275392
30
0
41
1
10
32.0942402920459
20
-1.22717387926539
30
0
41
1
10
32.1411631684857
20
-1.26728768538385
30
0
41
1
10
32.2832609162427
20
-1.38369973716789
30
0
41
1
10
32.3797250905274
20
-1.45612413889776
30
0
41
1
10
32.5742882886836
20
-1.59271943543783
30
0
41
1
10
32.6724081041013
20
-1.65685693329894
30
0
41
1
10
32.8203862081008
20
-1.74719006917115
30
0
41
1
10
32.8699112777676
20
-1.776345096651
30
0
41
1
10
32.9689371603312
20
-1.83246238426889
30
0
41
1
10
33.0184162258666
20
-1.85941503063904
30
0
41
1
10
33.0678916679519
20
-1.88523797558779
30
0
0
SPLINE
5
1AA
100
AcDbEntity
8
1
62
256
6
ByLayer
370
18
48
1
60
0
100
AcDbSpline
70
4
71
3
72
28
73
24
40
0
40
0
40
0
40
0
40
0.118224819839855
40
0.118224819839855
40
0.191286875743083
40
0.191286875743083
40
0.264348931646311
40
0.264348931646311
40
0.410473043452766
40
0.410473043452766
40
0.483535099355995
40
0.483535099355995
40
0.556597155259224
40
0.556597155259224
40
0.702721267065679
40
0.702721267065679
40
0.848845378872134
40
0.848845378872134
40
0.921907434775361
40
0.921907434775361
40
0.994969490678587
40
0.994969490678587
40
1
40
1
40
1
40
1
41
1
10
33.0678915793382
20
-1.88524301681625
30
0
41
1
10
33.0695992859651
20
-1.78807568651609
30
0
41
1
10
33.08773589994
20
-1.67954391515002
30
0
41
1
10
33.1476757026405
20
-1.49890001618672
30
0
41
1
10
33.1744179358369
20
-1.4286198804532
30
0
41
1
10
33.231640828984
20
-1.28976288980121
30
0
41
1
10
33.2627163943678
20
-1.220740852321
30
0
41
1
10
33.3641128406428
20
-1.01502234496408
30
0
41
1
10
33.4430256048478
20
-0.879391712919443
30
0
41
1
10
33.5737641966002
20
-0.690670956123626
30
0
41
1
10
33.620095231269
20
-0.6293223203445
30
0
41
1
10
33.7160786016265
20
-0.513641661151837
30
0
41
1
10
33.7652517630497
20
-0.459744212212854
30
0
41
1
10
33.9161516348685
20
-0.30933306105652
30
0
41
1
10
34.0229288269983
20
-0.223176170765441
30
0
41
1
10
34.232635183578
20
-0.0889900259656713
30
0
41
1
10
34.3375957703699
20
-0.0394559049776433
30
0
41
1
10
34.4873722995504
20
0.0084167281316923
30
0
41
1
10
34.5366085334675
20
0.0215416841392084
30
0
41
1
10
34.6294041126487
20
0.0260477827058878
30
0
41
1
10
34.6712652260583
20
0.0189126840935501
30
0
41
1
10
34.7118860599881
20
0.002755209474202
30
0
41
1
10
34.7144831714627
20
0.0016749246784116
30
0
41
1
10
34.7170602099195
20
0.0005559347627866
30
0
0
SPLINE
5
1AB
100
AcDbEntity
8
SK1
62
256
6
ByLayer
370
18
48
1
60
0
100
AcDbSpline
70
4
71
3
72
18
73
14
40
0
40
0
40
0
40
0
40
0.250010337724687
40
0.250010337724687
40
0.500020675449375
40
0.500020675449375
40
0.625025844311718
40
0.625025844311718
40
0.68752842874289
40
0.68752842874289
40
0.750031013174062
40
0.750031013174062
40
1
40
1
40
1
40
1
41
1
10
-22
20
2.44999999999996
30
0
41
1
10
-22.0619016558605
20
2.44999999999996
30
0
41
1
10
-22.1194530014235
20
2.44999999999996
30
0
41
1
10
-22.2230629385498
20
2.44999999999996
30
0
41
1
10
-22.2691240341919
20
2.44999999999996
30
0
41
1
10
-22.3268777895502
20
2.44999999999996
30
0
41
1
10
-22.3442324614345
20
2.44999999999996
30
0
41
1
10
-22.367021354728
20
2.44999999999996
30
0
41
1
10
-22.3740767558169
20
2.44999999999996
30
0
41
1
10
-22.3870353899801
20
2.44999999999996
30
0
41
1
10
-22.3929475360501
20
2.44999999999996
30
0
41
1
10
-22.4192510342964
20
2.44999999999996
30
0
41
1
10
-22.4299843449325
20
2.44999999999996
30
0
41
1
10
-22.43
20
2.44999999999996
30
0
0
SPLINE
5
1AC
100
AcDbEntity
8
SK1
62
256
6
ByLayer
370
18
48
1
60
0
100
AcDbSpline
70
4
71
3
72
18
73
14
40
0
40
0
40
0
40
0
40
0.249969003311839
40
0.249969003311839
40
0.312471586369185
40
0.312471586369185
40
0.374974169426532
40
0.374974169426532
40
0.499979335541226
40
0.499979335541226
40
0.749989667770613
40
0.749989667770613
40
1
40
1
40
1
40
1
41
1
10
-22.4300000000041
20
-2.45000000000002
30
0
41
1
10
-22.4299843468201
20
-2.45000000000002
30
0
41
1
10
-22.4192510361467
20
-2.45000000000002
30
0
41
1
10
-22.3929475360501
20
-2.45000000000002
30
0
41
1
10
-22.3870353899801
20
-2.45000000000002
30
0
41
1
10
-22.3740767558169
20
-2.45000000000002
30
0
41
1
10
-22.367021354728
20
-2.45000000000002
30
0
41
1
10
-22.3442324614345
20
-2.45000000000002
30
0
41
1
10
-22.3268777895502
20
-2.45000000000002
30
0
41
1
10
-22.2691240341919
20
-2.45000000000002
30
0
41
1
10
-22.2230629385497
20
-2.45000000000002
30
0
41
1
10
-22.1194530014235
20
-2.45000000000002
30
0
41
1
10
-22.0619016558605
20
-2.45000000000005
30
0
41
1
10
-22
20
-2.45000000000002
30
0
0
SPLINE
5
1AD
100
AcDbEntity
8
SK1
62
256
6
ByLayer
370
18
48
1
60
0
100
AcDbSpline
70
4
71
3
72
28
73
24
40
0
40
0
40
0
40
0
40
0.125
40
0.125
40
0.25
40
0.25
40
0.3125
40
0.34375
40
0.34375
40
0.375
40
0.375
40
0.499999999999999
40
0.624999999999999
40
0.624999999999999
40
0.656249999999999
40
0.656249999999999
40
0.687499999999999
40
0.687499999999999
40
0.75
40
0.75
40
0.875
40
0.875
40
1
40
1
40
1
40
1
41
1
10
-22
20
-1.51390224255073
30
0
41
1
10
-22.0619431217069
20
-1.39606359649963
30
0
41
1
10
-22.119532991302
20
-1.27662087306044
30
0
41
1
10
-22.2231818426811
20
-1.03356928576781
30
0
41
1
10
-22.2692481386254
20
-0.909951764964148
30
0
41
1
10
-22.3269910848407
20
-0.720400065314834
30
0
41
1
10
-22.3530131297644
20
-0.624589117884
30
0
41
1
10
-22.3741650560419
20
-0.52700902667172
30
0
41
1
10
-22.3871128590611
20
-0.461536613163389
30
0
41
1
10
-22.3930196210638
20
-0.428522534965765
30
0
41
1
10
-22.4193029597357
20
-0.263614203190031
30
0
41
1
10
-22.4407212763269
20
0.0002299958251228
30
0
41
1
10
-22.4192545151676
20
0.264055216473878
30
0
41
1
10
-22.3929475360501
20
0.428940274925367
30
0
41
1
10
-22.3870353899801
20
0.461954837450179
30
0
41
1
10
-22.3740767558169
20
0.527428697331999
30
0
41
1
10
-22.367021354728
20
0.559954497623153
30
0
41
1
10
-22.3442324614345
20
0.656937197076928
30
0
41
1
10
-22.3268777895502
20
0.720799948348599
30
0
41
1
10
-22.2691240341919
20
0.91030296331661
30
0
41
1
10
-22.2230629385498
20
1.03386815006104
30
0
41
1
10
-22.1194530014235
20
1.27678836717467
30
0
41
1
10
-22.0619016558605
20
1.39614247982132
30
0
41
1
10
-22
20
1.51390224255064
30
0
0
SPLINE
5
1AE
100
AcDbEntity
8
1
62
256
6
ByLayer
370
18
48
1
60
0
100
AcDbSpline
70
4
71
1
72
4
73
2
40
0
40
0
40
1
40
1
41
1
10
48.1375318285837
20
-2.48708060251263
30
0
41
1
10
48.3105836501348
20
-2.78415585800963
30
0
0
SPLINE
5
1AF
100
AcDbEntity
8
1
62
256
6
ByLayer
370
18
48
1
60
0
100
AcDbSpline
70
4
71
2
72
6
73
3
40
0
40
0
40
0
40
1
40
1
40
1
41
1
10
55.575168442531
20
-2.43106189304083
30
0
41
1
10
55.5819651019939
20
-2.43017879161201
30
0
41
1
10
55.5893437105864
20
-2.42968833053772
30
0
0
SPLINE
5
1B0
100
AcDbEntity
8
1
62
256
6
ByLayer
370
18
48
1
60
0
100
AcDbSpline
70
4
71
2
72
6
73
3
40
0
40
0
40
0
40
1
40
1
40
1
41
1
10
48.7278461127162
20
-3.2007216021195
30
0
41
1
10
48.938025618023
20
-2.83995261293345
30
0
41
1
10
49.1485124134379
20
-2.48101251332528
30
0
0
SPLINE
5
1B1
100
AcDbEntity
8
1
62
256
6
ByLayer
370
18
48
1
60
0
100
AcDbSpline
70
4
71
2
72
6
73
3
40
0
40
0
40
0
40
1
40
1
40
1
41
1
10
55.376539299005
20
-2.69019005676051
30
0
41
1
10
55.4357324618999
20
-2.58881419101923
30
0
41
1
10
55.4949685235774
20
-2.48758229960265
30
0
0
SPLINE
5
1B2
100
AcDbEntity
8
1
62
256
6
ByLayer
370
18
48
1
60
0
100
AcDbSpline
70
4
71
1
72
4
73
2
40
0
40
0
40
1
40
1
41
1
10
57
20
2.11045979268445
30
0
41
1
10
56.7922691922795
20
2.31815167092131
30
0
0
SPLINE
5
1B3
100
AcDbEntity
8
1
62
256
6
ByLayer
370
18
48
1
60
0
100
AcDbSpline
70
4
71
3
72
10
73
6
40
0
40
0
40
0
40
0
40
0.385203008854653
40
0.778978421315118
40
1
40
1
40
1
40
1
41
1
10
50.0426116227744
20
2.48713014991648
30
0
41
1
10
50.034980146245
20
2.47256807936773
30
0
41
1
10
50.0119420875041
20
2.4487555568717
30
0
41
1
10
49.9558181857317
20
2.41973099656789
30
0
41
1
10
49.9182660071837
20
2.42154675942658
30
0
41
1
10
49.9038757580097
20
2.42378620920482
30
0
0
SPLINE
5
1B4
100
AcDbEntity
8
1
62
256
6
ByLayer
370
18
48
1
60
0
100
AcDbSpline
70
4
71
3
72
11
73
7
40
0
40
0
40
0
40
0
40
0.235748782724674
40
0.483255937567681
40
0.741701611380817
40
1
40
1
40
1
40
1
41
1
10
47.8751244513776
20
-2.48717767730938
30
0
41
1
10
47.8805565876958
20
-2.47373392246615
30
0
41
1
10
47.9032164738675
20
-2.45099589158161
30
0
41
1
10
47.9795742577866
20
-2.41130035135703
30
0
41
1
10
48.0861611373594
20
-2.42880350859659
30
0
41
1
10
48.1266184539849
20
-2.46817133819062
30
0
41
1
10
48.1431817779478
20
-2.49579524627745
30
0
0
SPLINE
5
1B5
100
AcDbEntity
8
1
62
256
6
ByLayer
370
18
48
1
60
0
100
AcDbSpline
70
4
71
1
72
4
73
2
40
0
40
0
40
1
40
1
41
1
10
54.7255233392351
20
-2.87301579415194
30
0
41
1
10
55.3528712044294
20
-2.71190067672884
30
0
0
SPLINE
5
1B6
100
AcDbEntity
8
1
62
256
6
ByLayer
370
18
48
1
60
0
100
AcDbSpline
70
4
71
2
72
6
73
3
40
0
40
0
40
0
40
1
40
1
40
1
41
1
10
54.4901682494813
20
-2.49163630814036
30
0
41
1
10
54.5966186061367
20
-2.67428470944029
30
0
41
1
10
54.7029742491035
20
-2.85723612376023
30
0
0
SPLINE
5
1B7
100
AcDbEntity
8
1
62
256
6
ByLayer
370
18
48
1
60
0
100
AcDbSpline
70
4
71
2
72
6
73
3
40
0
40
0
40
0
40
1
40
1
40
1
41
1
10
50.4659178302178
20
3.2151507105454
30
0
41
1
10
50.2547389140429
20
2.85095547546334
30
0
41
1
10
50.0427141878183
20
2.48730644236929
30
0
0
SPLINE
5
1B8
100
AcDbEntity
8
1
62
256
6
ByLayer
370
18
48
1
60
0
100
AcDbSpline
70
4
71
2
72
6
73
3
40
0
40
0
40
0
40
1
40
1
40
1
41
1
10
51.0509290675506
20
2.48576286239788
30
0
41
1
10
50.8393904005493
20
2.84718463839667
30
0
41
1
10
50.6284971486421
20
3.21002708016556
30
0
0
SPLINE
5
1B9
100
AcDbEntity
8
1
62
256
6
ByLayer
370
18
48
1
60
0
100
AcDbSpline
70
4
71
3
72
10
73
6
40
0
40
0
40
0
40
0
40
0.455362155392511
40
0.719427592411462
40
1
40
1
40
1
40
1
41
1
10
54.2273680715928
20
-2.48332123100278
30
0
41
1
10
54.2509617339596
20
-2.44533785207736
30
0
41
1
10
54.2996329357116
20
-2.41266202819929
30
0
41
1
10
54.436088245913
20
-2.42823012143512
30
0
41
1
10
54.4715490825555
20
-2.46038094884952
30
0
41
1
10
54.4853301533292
20
-2.48335344152676
30
0
0
SPLINE
5
1BA
100
AcDbEntity
8
1
62
256
6
ByLayer
370
18
48
1
60
0
100
AcDbSpline
70
4
71
3
72
11
73
7
40
0
40
0
40
0
40
0
40
0.213583411592772
40
0.453383330997653
40
0.718139784151339
40
1
40
1
40
1
40
1
41
1
10
51.312353708303
20
2.48699445003268
30
0
41
1
10
51.3057712665776
20
2.47325966012673
30
0
41
1
10
51.2823635016933
20
2.44923019485461
30
0
41
1
10
51.2054762352865
20
2.41162268971968
30
0
41
1
10
51.1012518466779
20
2.43010986547102
30
0
41
1
10
51.0640843452297
20
2.46302966909516
30
0
41
1
10
51.0499296102562
20
2.48749810606361
30
0
0
SPLINE
5
1BB
100
AcDbEntity
8
1
62
256
6
ByLayer
370
18
48
1
60
0
100
AcDbSpline
70
4
71
2
72
6
73
3
40
0
40
0
40
0
40
1
40
1
40
1
41
1
10
47.4506165410757
20
-3.21506489640785
30
0
41
1
10
47.6636094719543
20
-2.84867817344363
30
0
41
1
10
47.8775211296673
20
-2.48291142967611
30
0
0
SPLINE
5
1BC
100
AcDbEntity
8
1
62
256
6
ByLayer
370
18
48
1
60
0
100
AcDbSpline
70
4
71
2
72
6
73
3
40
0
40
0
40
0
40
1
40
1
40
1
41
1
10
46.867518072073
20
-2.48720579965644
30
0
41
1
10
47.0796145303279
20
-2.85078088311019
30
0
41
1
10
47.2909066724543
20
-3.21493220006883
30
0
0
SPLINE
5
1BD
100
AcDbEntity
8
1
62
256
6
ByLayer
370
18
48
1
60
0
100
AcDbSpline
70
4
71
3
72
11
73
7
40
0
40
0
40
0
40
0
40
0.24334583558722
40
0.501063417510819
40
0.758157060749855
40
1
40
1
40
1
40
1
41
1
10
46.585426686361
20
-2.50896417484378
30
0
41
1
10
46.5979484673193
20
-2.48326269254997
30
0
41
1
10
46.6327281171675
20
-2.44252162268381
30
0
41
1
10
46.7276225938042
20
-2.40660481115904
30
0
41
1
10
46.8226805786068
20
-2.43402886705789
30
0
41
1
10
46.8575125003716
20
-2.46877356972451
30
0
41
1
10
46.8700959529614
20
-2.49142880680793
30
0
0
SPLINE
5
1BE
100
AcDbEntity
8
1
62
256
6
ByLayer
370
18
48
1
60
0
100
AcDbSpline
70
4
71
2
72
6
73
3
40
0
40
0
40
0
40
1
40
1
40
1
41
1
10
53.8752857501201
20
-3.08705754531843
30
0
41
1
10
54.0481235305966
20
-2.78988940190655
30
0
41
1
10
54.2212215404103
20
-2.49357383243049
30
0
0
SPLINE
5
1BF
100
AcDbEntity
8
1
62
256
6
ByLayer
370
18
48
1
60
0
100
AcDbSpline
70
4
71
2
72
6
73
3
40
0
40
0
40
0
40
1
40
1
40
1
41
1
10
53.133273892524
20
-2.4311457163135
30
0
41
1
10
53.1978086442064
20
-2.44011144343097
30
0
41
1
10
53.211433213655
20
-2.47572428770994
30
0
0
SPLINE
5
1C0
100
AcDbEntity
8
1
62
256
6
ByLayer
370
18
48
1
60
0
100
AcDbSpline
70
4
71
2
72
6
73
3
40
0
40
0
40
0
40
1
40
1
40
1
41
1
10
53.2196408638247
20
-2.49085773654068
30
0
41
1
10
53.412121874429
20
-2.82103916421755
30
0
41
1
10
53.6038497963551
20
-3.1512318477503
30
0
0
SPLINE
5
1C1
100
AcDbEntity
8
1
62
256
6
ByLayer
370
18
48
1
60
0
100
AcDbSpline
70
4
71
1
72
4
73
2
40
0
40
0
40
1
40
1
41
1
10
53.6235437213708
20
-3.1560616310386
30
0
41
1
10
53.8637870637987
20
-3.09436356968666
30
0
0
SPLINE
5
1C2
100
AcDbEntity
8
1
62
256
6
ByLayer
370
18
48
1
60
0
100
AcDbSpline
70
4
71
2
72
6
73
3
40
0
40
0
40
0
40
1
40
1
40
1
41
1
10
52.3488147811714
20
2.45454830540189
30
0
41
1
10
52.3429815919311
20
2.45897079757054
30
0
41
1
10
52.3397368985437
20
2.46009322373999
30
0
0
SPLINE
5
1C3
100
AcDbEntity
8
1
62
256
6
ByLayer
370
18
48
1
60
0
100
AcDbSpline
70
4
71
2
72
6
73
3
40
0
40
0
40
0
40
1
40
1
40
1
41
1
10
51.7441358707936
20
3.22660659587044
30
0
41
1
10
51.5344975899042
20
2.86491613877527
30
0
41
1
10
51.3246101446874
20
2.50371453260533
30
0
0
SPLINE
5
1C4
100
AcDbEntity
8
1
62
256
6
ByLayer
370
18
48
1
60
0
100
AcDbSpline
70
4
71
2
72
6
73
3
40
0
40
0
40
0
40
1
40
1
40
1
41
1
10
52.3183800431908
20
2.49015261493972
30
0
41
1
10
52.1072118312768
20
2.85131481321335
30
0
41
1
10
51.8965372430093
20
3.21379132537052
30
0
0
LINE
5
7F
100
AcDbEntity
8
80
62
256
6
ByLayer
370
18
48
1
60
0
100
AcDbLine
10
0
20
0
30
0
11
-5
21
0
31
0
39
0
210
0
220
0
230
1
0
LINE
5
80
100
AcDbEntity
8
4
62
256
6
ByLayer
370
18
48
0.05
60
0
100
AcDbLine
10
0
20
0
30
0
11
58.55
21
0
31
0
39
0
210
0
220
0
230
1
0
LINE
5
82
100
AcDbEntity
8
81
62
256
6
ByLayer
370
18
48
1
60
0
100
AcDbLine
10
58.55
20
0
30
0
11
63.55
21
0
31
0
39
0
210
0
220
0
230
1
0
LINE
5
83
100
AcDbEntity
8
SK4
62
256
6
ByLayer
370
18
48
0.05
60
0
100
AcDbLine
10
-23
20
0
30
0
11
58.55
21
0
31
0
39
0
210
0
220
0
230
1
0
LINE
5
85
100
AcDbEntity
8
1
62
256
6
ByLayer
370
18
48
1
60
0
100
AcDbLine
10
0
20
3
30
0
11
0
21
-3
31
0
39
0
210
0
220
0
230
1
0
LINE
5
86
100
AcDbEntity
8
1
62
256
6
ByLayer
370
13
48
1
60
0
100
AcDbLine
10
48.132913
20
-2.478518
30
0
11
48.137564
21
-2.487136
31
0
39
0
210
0
220
0
230
1
0
LINE
5
87
100
AcDbEntity
8
1
62
256
6
ByLayer
370
18
48
1
60
0
100
AcDbLine
10
54.490345
20
-2.491912
30
0
11
54.48727
21
-2.486845
31
0
39
0
210
0
220
0
230
1
0
LINE
5
88
100
AcDbEntity
8
1
62
256
6
ByLayer
370
18
48
1
60
0
100
AcDbLine
10
47.873193
20
-2.490361
30
0
11
47.877435
21
-2.483072
31
0
39
0
210
0
220
0
230
1
0
LINE
5
89
100
AcDbEntity
8
1
62
256
6
ByLayer
370
18
48
1
60
0
100
AcDbLine
10
46.867639
20
-2.487413
30
0
11
46.870586
21
-2.492186
31
0
39
0
210
0
220
0
230
1
0
LINE
5
8A
100
AcDbEntity
8
1
62
256
6
ByLayer
370
13
48
1
60
0
100
AcDbLine
10
45.45932
20
-1.345194
30
0
11
45.45932
21
-2.275537
31
0
39
0
210
0
220
0
230
1
0
LINE
5
8B
100
AcDbEntity
8
1
62
256
6
ByLayer
370
18
48
1
60
0
100
AcDbLine
10
46.833572
20
2.9165
30
0
11
46.833572
21
2.283749
31
0
39
0
210
0
220
0
230
1
0
LINE
5
8C
100
AcDbEntity
8
1
62
256
6
ByLayer
370
18
48
1
60
0
100
AcDbLine
10
48.701605
20
-3.229283
30
0
11
48.69561
21
-3.227858
31
0
39
0
210
0
220
0
230
1
0
LINE
5
8D
100
AcDbEntity
8
1
62
256
6
ByLayer
370
13
48
1
60
0
100
AcDbLine
10
45.45932
20
2.397598
30
0
11
45.45932
21
1.808019
31
0
39
0
210
0
220
0
230
1
0
LINE
5
8E
100
AcDbEntity
8
1
62
256
6
ByLayer
370
13
48
1
60
0
100
AcDbLine
10
44.995786
20
-2.011842
30
0
11
44.995786
21
-1.005016
31
0
39
0
210
0
220
0
230
1
0
LINE
5
8F
100
AcDbEntity
8
1
62
256
6
ByLayer
370
13
48
1
60
0
100
AcDbLine
10
44.995786
20
1.925751
30
0
11
44.995786
21
2.275
31
0
39
0
210
0
220
0
230
1
0
LINE
5
90
100
AcDbEntity
8
1
62
256
6
ByLayer
370
13
48
1
60
0
100
AcDbLine
10
27.096238
20
-2.275
30
0
11
27.096238
21
2.275
31
0
39
0
210
0
220
0
230
1
0
LINE
5
91
100
AcDbEntity
8
1
62
256
6
ByLayer
370
13
48
1
60
0
100
AcDbLine
10
26.905225
20
2.291711
30
0
11
26.905225
21
-2.291711
31
0
39
0
210
0
220
0
230
1
0
LINE
5
92
100
AcDbEntity
8
1
62
256
6
ByLayer
370
18
48
1
60
0
100
AcDbLine
10
22.888321
20
3
30
0
11
22.888321
21
-3
31
0
39
0
210
0
220
0
230
1
0
LINE
5
93
100
AcDbEntity
8
SK1
62
256
6
ByLayer
370
18
48
1
60
0
100
AcDbLine
10
-23
20
1.88
30
0
11
-23
21
-1.88
31
0
39
0
210
0
220
0
230
1
0
LINE
5
95
100
AcDbEntity
8
SK1
62
256
6
ByLayer
370
18
48
1
60
0
100
AcDbLine
10
-15
20
2.45
30
0
11
-14.57
21
2.88
31
0
39
0
210
0
220
0
230
1
0
LINE
5
96
100
AcDbEntity
8
SK1
62
256
6
ByLayer
370
18
48
1
60
0
100
AcDbLine
10
-22
20
2.45
30
0
11
-15
21
2.45
31
0
39
0
210
0
220
0
230
1
0
LINE
5
97
100
AcDbEntity
8
SK1
62
256
6
ByLayer
370
18
48
1
60
0
100
AcDbLine
10
-22
20
1.513902
30
0
11
-22
21
2.45
31
0
39
0
210
0
220
0
230
1
0
LINE
5
98
100
AcDbEntity
8
SK1
62
256
6
ByLayer
370
18
48
1
60
0
100
AcDbLine
10
-15
20
1.513902
30
0
11
-22
21
1.513902
31
0
39
0
210
0
220
0
230
1
0
LINE
5
99
100
AcDbEntity
8
SK1
62
256
6
ByLayer
370
18
48
1
60
0
100
AcDbLine
10
-22
20
-1.513902
30
0
11
-15
21
-1.513902
31
0
39
0
210
0
220
0
230
1
0
LINE
5
9A
100
AcDbEntity
8
SK1
62
256
6
ByLayer
370
18
48
1
60
0
100
AcDbLine
10
-22
20
-2.45
30
0
11
-22
21
-1.513902
31
0
39
0
210
0
220
0
230
1
0
LINE
5
9B
100
AcDbEntity
8
SK1
62
256
6
ByLayer
370
18
48
1
60
0
100
AcDbLine
10
-15
20
-2.45
30
0
11
-22
21
-2.45
31
0
39
0
210
0
220
0
230
1
0
LINE
5
9C
100
AcDbEntity
8
SK1
62
256
6
ByLayer
370
18
48
1
60
0
100
AcDbLine
10
-15
20
-2.45
30
0
11
-14.57
21
-2.88
31
0
39
0
210
0
220
0
230
1
0
LINE
5
9D
100
AcDbEntity
8
SK1
62
256
6
ByLayer
370
18
48
1
60
0
100
AcDbLine
10
-15
20
1.513902
30
0
11
-15
21
-1.513902
31
0
39
0
210
0
220
0
230
1
0
LINE
5
9E
100
AcDbEntity
8
SK1
62
256
6
ByLayer
370
18
48
1
60
0
100
AcDbLine
10
0
20
3
30
0
11
0
21
-3
31
0
39
0
210
0
220
0
230
1
0
LINE
5
9F
100
AcDbEntity
8
SK1
62
256
6
ByLayer
370
18
48
1
60
0
100
AcDbLine
10
-14.2
20
2.88
30
0
11
-14.2
21
-2.88
31
0
39
0
210
0
220
0
230
1
0
LINE
5
A0
100
AcDbEntity
8
SK1
62
256
6
ByLayer
370
18
48
1
60
0
100
AcDbLine
10
-14.08
20
-3
30
0
11
-14.08
21
3
31
0
39
0
210
0
220
0
230
1
0
LINE
5
A1
100
AcDbEntity
8
1
62
256
6
ByLayer
370
18
48
1
60
0
100
AcDbLine
10
22.888321
20
3
30
0
11
0
21
3
31
0
39
0
210
0
220
0
230
1
0
LINE
5
A2
100
AcDbEntity
8
1
62
256
6
ByLayer
370
18
48
1
60
0
100
AcDbLine
10
0
20
-3
30
0
11
22.888321
21
-3
31
0
39
0
210
0
220
0
230
1
0
LINE
5
A3
100
AcDbEntity
8
1
62
256
6
ByLayer
370
18
48
1
60
0
100
AcDbLine
10
52.335989
20
2.459431
30
0
11
52.335333
21
2.459316
31
0
39
0
210
0
220
0
230
1
0
LINE
5
A4
100
AcDbEntity
8
1
62
256
6
ByLayer
370
18
48
1
60
0
100
AcDbLine
10
48.580212
20
-3.229283
30
0
11
48.701604
21
-3.229283
31
0
39
0
210
0
220
0
230
1
0
LINE
5
A5
100
AcDbEntity
8
1
62
256
6
ByLayer
370
18
48
1
60
0
100
AcDbLine
10
50.606627
20
3.229283
30
0
11
50.484966
21
3.229283
31
0
39
0
210
0
220
0
230
1
0
LINE
5
A6
100
AcDbEntity
8
1
62
256
6
ByLayer
370
18
48
1
60
0
100
AcDbLine
10
47.310252
20
-3.229283
30
0
11
47.431411
21
-3.229283
31
0
39
0
210
0
220
0
230
1
0
LINE
5
A7
100
AcDbEntity
8
1
62
256
6
ByLayer
370
18
48
1
60
0
100
AcDbLine
10
58.55
20
0
30
0
11
57
21
1.55
31
0
39
0
210
0
220
0
230
1
0
LINE
5
A8
100
AcDbEntity
8
1
62
256
6
ByLayer
370
18
48
1
60
0
100
AcDbLine
10
57.290766
20
-1.259234
30
0
11
58.55
21
0
31
0
39
0
210
0
220
0
230
1
0
LINE
5
A9
100
AcDbEntity
8
1
62
256
6
ByLayer
370
18
48
1
60
0
100
AcDbLine
10
51.876622
20
3.229283
30
0
11
51.754986
21
3.229283
31
0
39
0
210
0
220
0
230
1
0
LINE
5
AA
100
AcDbEntity
8
1
62
256
6
ByLayer
370
18
48
1
60
0
100
AcDbLine
10
27.096238
20
-2.275
30
0
11
34.997879
21
-2.275
31
0
39
0
210
0
220
0
230
1
0
LINE
5
AB
100
AcDbEntity
8
1
62
256
6
ByLayer
370
18
48
1
60
0
100
AcDbLine
10
39.781446
20
-2.275
30
0
11
41.807959
21
-2.275
31
0
39
0
210
0
220
0
230
1
0
LINE
5
AC
100
AcDbEntity
8
1
62
256
6
ByLayer
370
18
48
1
60
0
100
AcDbLine
10
44.995786
20
2.275
30
0
11
43.17532
21
2.275
31
0
39
0
210
0
220
0
230
1
0
LINE
5
AD
100
AcDbEntity
8
1
62
256
6
ByLayer
370
18
48
1
60
0
100
AcDbLine
10
38.401798
20
2.275
30
0
11
36.389135
21
2.275
31
0
39
0
210
0
220
0
230
1
0
LINE
5
AE
100
AcDbEntity
8
1
62
256
6
ByLayer
370
18
48
1
60
0
100
AcDbLine
10
32.004252
20
2.275
30
0
11
27.096238
21
2.275
31
0
39
0
210
0
220
0
230
1
0
LINE
5
AF
100
AcDbEntity
8
1
62
256
6
ByLayer
370
18
48
1
60
0
100
AcDbLine
10
26.905225
20
2.291711
30
0
11
22.888321
21
3
31
0
39
0
210
0
220
0
230
1
0
LINE
5
B0
100
AcDbEntity
8
1
62
256
6
ByLayer
370
18
48
1
60
0
100
AcDbLine
10
22.888321
20
-3
30
0
11
26.905225
21
-2.291711
31
0
39
0
210
0
220
0
230
1
0
LINE
5
B1
100
AcDbEntity
8
SK1
62
256
6
ByLayer
370
18
48
1
60
0
100
AcDbLine
10
-23
20
-1.88
30
0
11
-22.43
21
-2.45
31
0
39
0
210
0
220
0
230
1
0
LINE
5
B2
100
AcDbEntity
8
SK1
62
256
6
ByLayer
370
18
48
1
60
0
100
AcDbLine
10
-22.43
20
2.45
30
0
11
-23
21
1.88
31
0
39
0
210
0
220
0
230
1
0
LINE
5
B3
100
AcDbEntity
8
SK1
62
256
6
ByLayer
370
18
48
1
60
0
100
AcDbLine
10
-14.2
20
2.88
30
0
11
-14.57
21
2.88
31
0
39
0
210
0
220
0
230
1
0
LINE
5
B4
100
AcDbEntity
8
SK1
62
256
6
ByLayer
370
18
48
1
60
0
100
AcDbLine
10
-14.57
20
-2.88
30
0
11
-14.2
21
-2.88
31
0
39
0
210
0
220
0
230
1
0
LINE
5
B5
100
AcDbEntity
8
SK1
62
256
6
ByLayer
370
18
48
1
60
0
100
AcDbLine
10
0
20
3
30
0
11
-14.08
21
3
31
0
39
0
210
0
220
0
230
1
0
LINE
5
B6
100
AcDbEntity
8
SK1
62
256
6
ByLayer
370
18
48
1
60
0
100
AcDbLine
10
-14.08
20
-3
30
0
11
0
21
-3
31
0
39
0
210
0
220
0
230
1
0
LINE
5
B7
100
AcDbEntity
8
SK1
62
256
6
ByLayer
370
18
48
1
60
0
100
AcDbLine
10
-14.2
20
-2.88
30
0
11
-14.08
21
-3
31
0
39
0
210
0
220
0
230
1
0
LINE
5
B8
100
AcDbEntity
8
SK1
62
256
6
ByLayer
370
18
48
1
60
0
100
AcDbLine
10
-14.08
20
3
30
0
11
-14.2
21
2.88
31
0
39
0
210
0
220
0
230
1
0
LINE
5
B9
100
AcDbEntity
8
SK2
62
256
6
ByLayer
370
18
48
1
60
0
100
AcDbLine
10
12.40416
20
15.841828
30
0
11
12.40416
21
-10.5
31
0
39
0
210
0
220
0
230
1
0
LINE
5
BB
100
AcDbEntity
8
1
62
256
6
ByLayer
370
18
48
1
60
1
100
AcDbLine
10
12.40416
20
3
30
0
11
11.943377
21
6.499998
31
0
39
0
210
0
220
0
230
1
0
LINE
5
BC
100
AcDbEntity
8
1
62
256
6
ByLayer
370
18
48
1
60
1
100
AcDbLine
10
11.943377
20
6.499998
30
0
11
12.864944
21
6.500002
31
0
39
0
210
0
220
0
230
1
0
LINE
5
BD
100
AcDbEntity
8
1
62
256
6
ByLayer
370
18
48
1
60
1
100
AcDbLine
10
12.864944
20
6.500002
30
0
11
12.40416
21
3
31
0
39
0
210
0
220
0
230
1
0
LINE
5
BE
100
AcDbEntity
8
1
62
256
6
ByLayer
370
18
48
1
60
1
100
AcDbLine
10
12.40416
20
-3
30
0
11
12.864944
21
-6.499998
31
0
39
0
210
0
220
0
230
1
0
LINE
5
BF
100
AcDbEntity
8
1
62
256
6
ByLayer
370
18
48
1
60
1
100
AcDbLine
10
12.864944
20
-6.499998
30
0
11
11.943377
21
-6.500002
31
0
39
0
210
0
220
0
230
1
0
LINE
5
C0
100
AcDbEntity
8
1
62
256
6
ByLayer
370
18
48
1
60
1
100
AcDbLine
10
11.943377
20
-6.500002
30
0
11
12.40416
21
-3
31
0
39
0
210
0
220
0
230
1
0
LINE
5
C1
100
AcDbEntity
8
2
62
256
6
ByLayer
370
18
48
1
60
0
100
AcDbLine
10
57
20
-40.729283
30
0
11
-23
21
-40.729283
31
0
39
0
210
0
220
0
230
1
0
LINE
5
C3
100
AcDbEntity
8
2
62
256
6
ByLayer
370
18
48
1
60
0
100
AcDbLine
10
-23
20
-3.4675
30
0
11
-23
21
-42.729283
31
0
39
0
210
0
220
0
230
1
0
LINE
5
C4
100
AcDbEntity
8
2
62
256
6
ByLayer
370
18
48
1
60
0
100
AcDbLine
10
57
20
-4.816783
30
0
11
57
21
-42.729283
31
0
39
0
210
0
220
0
230
1
0
LINE
5
C5
100
AcDbEntity
8
1
62
256
6
ByLayer
370
18
48
1
60
1
100
AcDbLine
10
-23
20
-40.729283
30
0
11
-19.500002
21
-40.2685
31
0
39
0
210
0
220
0
230
1
0
LINE
5
C6
100
AcDbEntity
8
1
62
256
6
ByLayer
370
18
48
1
60
1
100
AcDbLine
10
-19.500002
20
-40.2685
30
0
11
-19.499998
21
-41.190067
31
0
39
0
210
0
220
0
230
1
0
LINE
5
C7
100
AcDbEntity
8
1
62
256
6
ByLayer
370
18
48
1
60
1
100
AcDbLine
10
-19.499998
20
-41.190067
30
0
11
-23
21
-40.729283
31
0
39
0
210
0
220
0
230
1
0
LINE
5
C8
100
AcDbEntity
8
1
62
256
6
ByLayer
370
18
48
1
60
1
100
AcDbLine
10
57
20
-40.729283
30
0
11
53.500002
21
-41.190067
31
0
39
0
210
0
220
0
230
1
0
LINE
5
C9
100
AcDbEntity
8
1
62
256
6
ByLayer
370
18
48
1
60
1
100
AcDbLine
10
53.500002
20
-41.190067
30
0
11
53.499998
21
-40.2685
31
0
39
0
210
0
220
0
230
1
0
LINE
5
CA
100
AcDbEntity
8
1
62
256
6
ByLayer
370
18
48
1
60
1
100
AcDbLine
10
53.499998
20
-40.2685
30
0
11
57
21
-40.729283
31
0
39
0
210
0
220
0
230
1
0
LINE
5
1C9
100
AcDbEntity
8
1
62
256
6
ByLayer
370
18
48
1
60
1
100
AcDbLine
10
12.40416
20
3
30
0
11
11.943377
21
6.499998
31
0
39
0
210
0
220
0
230
1
0
LINE
5
1CA
100
AcDbEntity
8
1
62
256
6
ByLayer
370
18
48
1
60
1
100
AcDbLine
10
11.943377
20
6.499998
30
0
11
12.864944
21
6.500002
31
0
39
0
210
0
220
0
230
1
0
LINE
5
1CB
100
AcDbEntity
8
1
62
256
6
ByLayer
370
18
48
1
60
1
100
AcDbLine
10
12.864944
20
6.500002
30
0
11
12.40416
21
3
31
0
39
0
210
0
220
0
230
1
0
LINE
5
1CD
100
AcDbEntity
8
1
62
256
6
ByLayer
370
18
48
1
60
1
100
AcDbLine
10
12.40416
20
-3
30
0
11
12.864944
21
-6.499998
31
0
39
0
210
0
220
0
230
1
0
LINE
5
1CE
100
AcDbEntity
8
1
62
256
6
ByLayer
370
18
48
1
60
1
100
AcDbLine
10
12.864944
20
-6.499998
30
0
11
11.943377
21
-6.500002
31
0
39
0
210
0
220
0
230
1
0
LINE
5
1CF
100
AcDbEntity
8
1
62
256
6
ByLayer
370
18
48
1
60
1
100
AcDbLine
10
11.943377
20
-6.500002
30
0
11
12.40416
21
-3
31
0
39
0
210
0
220
0
230
1
0
LINE
5
1D2
100
AcDbEntity
8
1
62
256
6
ByLayer
370
18
48
1
60
1
100
AcDbLine
10
-23
20
-40.729283
30
0
11
-19.500002
21
-40.2685
31
0
39
0
210
0
220
0
230
1
0
LINE
5
1D3
100
AcDbEntity
8
1
62
256
6
ByLayer
370
18
48
1
60
1
100
AcDbLine
10
-19.500002
20
-40.2685
30
0
11
-19.499998
21
-41.190067
31
0
39
0
210
0
220
0
230
1
0
LINE
5
1D4
100
AcDbEntity
8
1
62
256
6
ByLayer
370
18
48
1
60
1
100
AcDbLine
10
-19.499998
20
-41.190067
30
0
11
-23
21
-40.729283
31
0
39
0
210
0
220
0
230
1
0
LINE
5
1D6
100
AcDbEntity
8
1
62
256
6
ByLayer
370
18
48
1
60
1
100
AcDbLine
10
57
20
-40.729283
30
0
11
53.500002
21
-41.190067
31
0
39
0
210
0
220
0
230
1
0
LINE
5
1D7
100
AcDbEntity
8
1
62
256
6
ByLayer
370
18
48
1
60
1
100
AcDbLine
10
53.500002
20
-41.190067
30
0
11
53.499998
21
-40.2685
31
0
39
0
210
0
220
0
230
1
0
LINE
5
1D8
100
AcDbEntity
8
1
62
256
6
ByLayer
370
18
48
1
60
1
100
AcDbLine
10
53.499998
20
-40.2685
30
0
11
57
21
-40.729283
31
0
39
0
210
0
220
0
230
1
0
MTEXT
5
1C5
100
AcDbEntity
8
SK2
62
256
6
ByLayer
370
18
48
1
60
0
100
AcDbMText
10
11.063046
20
8.658437
30
0
210
0
220
0
230
1
1
%%c
40
3
41
0
44
1.084337
50
90
71
7
72
5
7
iso_b_vert
0
MTEXT
5
1C8
100
AcDbEntity
8
SK2
62
256
6
ByLayer
370
18
48
1
60
0
100
AcDbMText
10
11.063046
20
14.635
30
0
210
0
220
0
230
1
1
\W0.5404;6
40
3
41
0
44
1.084337
50
90
71
7
72
5
7
iso_b_vert
0
MTEXT
5
1D1
100
AcDbEntity
8
2
62
256
6
ByLayer
370
18
48
1
60
0
100
AcDbMText
10
15.367172
20
-39.844169
30
0
210
0
220
0
230
1
1
\W0.6740;80
40
3
41
0
44
1.084337
50
0
71
7
72
5
7
iso_b_vert
0
MTEXT
5
1DA
100
AcDbEntity
8
SK6
62
256
6
ByLayer
370
18
48
1
60
0
100
AcDbMText
10
-1.071765
20
-82.114886
30
0
210
0
220
0
230
1
1
\W0.7211;T300-XM100DE-1/4    C110
40
3
41
0
44
1.084337
50
0
71
7
72
5
7
iso_b_vert
0
HATCH
5
1CC
100
AcDbEntity
8
SK2
62
256
6
ByLayer
370
13
48
1
60
0
100
AcDbHatch
10
0
20
0
30
0
210
0
220
0
230
1
2
ANSI31
70
0
71
0
91
1
92
5
93
3
72
1
10
12.4041603403886
20
3.00000000000003
11
11.9433765988358
21
6.49999830744684
72
1
10
11.9433765988358
20
6.49999830744684
11
12.8649440819414
21
6.50000169255321
72
1
10
12.8649440819414
20
6.50000169255321
11
12.4041603403886
21
3.00000000000003
97
0
75
0
76
1
52
0
41
0.0062
77
0
78
1
53
45
43
0
44
0
45
-0.0139193969876572
46
0.0139193969876572
79
0
47
0
98
1
10
0
20
0
0
HATCH
5
1D0
100
AcDbEntity
8
SK2
62
256
6
ByLayer
370
13
48
1
60
0
100
AcDbHatch
10
0
20
0
30
0
210
0
220
0
230
1
2
ANSI31
70
0
71
0
91
1
92
5
93
3
72
1
10
12.4041603403886
20
-3
11
12.8649440819414
21
-6.49999830744682
72
1
10
12.8649440819414
20
-6.49999830744682
11
11.9433765988358
21
-6.50000169255318
72
1
10
11.9433765988358
20
-6.50000169255318
11
12.4041603403886
21
-3
97
0
75
0
76
1
52
0
41
0.0062
77
0
78
1
53
45
43
0
44
0
45
-0.0139193969876572
46
0.0139193969876572
79
0
47
0
98
1
10
0
20
0
0
HATCH
5
1D5
100
AcDbEntity
8
2
62
256
6
ByLayer
370
13
48
1
60
0
100
AcDbHatch
10
0
20
0
30
0
210
0
220
0
230
1
2
ANSI31
70
0
71
0
91
1
92
5
93
3
72
1
10
-23
20
-40.7292832592221
11
-19.5000016925532
21
-40.2684995176694
72
1
10
-19.5000016925532
20
-40.2684995176694
11
-19.4999983074468
21
-41.1900670007749
72
1
10
-19.4999983074468
20
-41.1900670007749
11
-23
21
-40.7292832592221
97
0
75
0
76
1
52
0
41
0.0062
77
0
78
1
53
45
43
0
44
0
45
-0.0139193969876572
46
0.0139193969876572
79
0
47
0
98
1
10
0
20
0
0
HATCH
5
1D9
100
AcDbEntity
8
2
62
256
6
ByLayer
370
13
48
1
60
0
100
AcDbHatch
10
0
20
0
30
0
210
0
220
0
230
1
2
ANSI31
70
0
71
0
91
1
92
5
93
3
72
1
10
57
20
-40.7292832592221
11
53.5000016925532
21
-41.1900670007749
72
1
10
53.5000016925532
20
-41.1900670007749
11
53.4999983074468
21
-40.2684995176694
72
1
10
53.4999983074468
20
-40.2684995176694
11
57
21
-40.7292832592221
97
0
75
0
76
1
52
0
41
0.0062
77
0
78
1
53
45
43
0
44
0
45
-0.0139193969876572
46
0.0139193969876572
79
0
47
0
98
1
10
0
20
0
0
DIMENSION
5
1DD
100
AcDbEntity
8
2
62
256
6
ByLayer
370
18
48
1
60
0
100
AcDbDimension
2
_U0
10
76.5
20
-3.229283
30
0
11
76.5
21
24.205882
31
0
70
32
71
1
72
1
41
1
210
0
220
0
230
1
3
Standard
100
AcDbAlignedDimension
13
57
23
3.229283
33
0
14
57
24
-3.229283
34
0
50
90
100
AcDbRotatedDimension
1001
ACAD
1000
DSTYLE
1002
{
1070
   371
1070
    13
1070
   372
1070
    13
1070
     3
1000

1070
   170
1070
     0
1070
   144
1040
1.0
1070
   277
1070
     2
1070
   284
1070
     8
1070
   278
1070
    46
1070
   146
1040
1.166667
1070
   345
1005
16
1070
   347
1005
16
1070
   346
1005
16
1070
   344
1005
0
1070
   343
1005
0
1070
   172
1070
     1
1070
    76
1070
     0
1070
    75
1070
     0
1070
   282
1070
     0
1070
   281
1070
     0
1070
    71
1070
     0
1070
    74
1070
     0
1070
   279
1070
     0
1070
   173
1070
     1
1070
   340
1005
1C6
1070
   271
1070
     3
1070
   272
1070
     3
1070
    77
1070
     1
1070
    73
1070
     0
1070
   171
1070
     3
1070
   274
1070
     4
1070
   177
1070
     2
1070
   176
1070
     2
1070
   178
1070
     2
1070
    78
1070
     8
1070
    48
1040
-0.1
1070
    41
1040
3.5
1070
   147
1040
1.5
1070
    42
1040
1.5875
1070
    44
1040
2.0
1070
   140
1040
3.0
1002
}
1001
ACAD_DSTYLE_DIM_LINETYPE
1070
   380
1005
16
1001
ACAD_DSTYLE_DIM_EXT1_LINETYPE
1070
   381
1005
16
1001
ACAD_DSTYLE_DIM_EXT2_LINETYPE
1070
   382
1005
16
0
DIMENSION
5
1F8
100
AcDbEntity
8
SK2
62
256
6
ByLayer
370
18
48
1
60
0
100
AcDbDimension
2
_U1
10
53.51
20
12.147375
30
0
11
55.255
21
12.147375
31
0
70
32
71
1
72
1
41
1
210
0
220
0
230
1
3
Standard
100
AcDbAlignedDimension
13
57
23
3.229283
33
0
14
53.51
24
0
34
0
50
0
100
AcDbRotatedDimension
1001
ACAD
1000
DSTYLE
1002
{
1070
   371
1070
    13
1070
   372
1070
    13
1070
   170
1070
     0
1070
   144
1040
1.0
1070
   277
1070
     2
1070
   284
1070
     8
1070
   278
1070
    46
1070
   146
1040
1.166667
1070
   345
1005
16
1070
   347
1005
16
1070
   346
1005
16
1070
   344
1005
0
1070
   343
1005
0
1070
   172
1070
     1
1070
    76
1070
     0
1070
    75
1070
     0
1070
   282
1070
     0
1070
   281
1070
     0
1070
    71
1070
     0
1070
    74
1070
     0
1070
   279
1070
     0
1070
   173
1070
     1
1070
   340
1005
1C6
1070
   271
1070
     3
1070
   272
1070
     3
1070
    77
1070
     1
1070
    73
1070
     1
1070
   171
1070
     3
1070
   274
1070
     4
1070
   177
1070
     2
1070
   176
1070
     2
1070
   178
1070
     2
1070
    78
1070
     8
1070
    48
1040
-0.1
1070
    41
1040
3.5
1070
   147
1040
1.5
1070
    42
1040
1.5875
1070
    44
1040
2.0
1070
   140
1040
3.0
1002
}
1001
ACAD_DSTYLE_DIM_LINETYPE
1070
   380
1005
16
1001
ACAD_DSTYLE_DIM_EXT1_LINETYPE
1070
   381
1005
16
1001
ACAD_DSTYLE_DIM_EXT2_LINETYPE
1070
   382
1005
16
0
DIMENSION
5
212
100
AcDbEntity
8
SK2
62
256
6
ByLayer
370
18
48
1
60
0
100
AcDbDimension
2
_U2
10
47
20
-10.229283
30
0
11
70.714286
21
-10.229283
31
0
70
32
71
1
72
1
41
1
210
0
220
0
230
1
3
Standard
100
AcDbAlignedDimension
13
57
23
-3.229283
33
0
14
47
24
-3.229283
34
0
50
0
100
AcDbRotatedDimension
1001
ACAD
1000
DSTYLE
1002
{
1070
   371
1070
    13
1070
   372
1070
    13
1070
   170
1070
     0
1070
   144
1040
1.0
1070
   277
1070
     2
1070
   284
1070
     8
1070
   278
1070
    46
1070
   146
1040
0.833333
1070
   345
1005
16
1070
   347
1005
16
1070
   346
1005
16
1070
   344
1005
0
1070
   343
1005
0
1070
   172
1070
     1
1070
    76
1070
     0
1070
    75
1070
     0
1070
   282
1070
     0
1070
   281
1070
     0
1070
    47
1040
0.5
1070
    72
1070
     0
1070
    71
1070
     1
1070
    74
1070
     0
1070
   279
1070
     0
1070
   173
1070
     1
1070
   340
1005
1C6
1070
   271
1070
     1
1070
   272
1070
     3
1070
    77
1070
     1
1070
    73
1070
     1
1070
   171
1070
     3
1070
   274
1070
     4
1070
   177
1070
     2
1070
   176
1070
     2
1070
   178
1070
     2
1070
    78
1070
     8
1070
    48
1040
0.5
1070
    41
1040
3.5
1070
   147
1040
1.5
1070
    42
1040
1.5875
1070
    44
1040
2.0
1070
   140
1040
3.0
1002
}
1001
ACAD_DSTYLE_DIM_LINETYPE
1070
   380
1005
16
1001
ACAD_DSTYLE_DIM_EXT1_LINETYPE
1070
   381
1005
16
1001
ACAD_DSTYLE_DIM_EXT2_LINETYPE
1070
   382
1005
16
0
DIMENSION
5
22D
100
AcDbEntity
8
SK2
62
256
6
ByLayer
370
18
48
1
60
0
100
AcDbDimension
2
_U3
10
27
20
-32.729283
30
0
11
42
21
-32.729283
31
0
70
32
71
1
72
1
41
1
210
0
220
0
230
1
3
Standard
100
AcDbAlignedDimension
13
57
23
-3.229283
33
0
14
27
24
-2.275
34
0
50
0
100
AcDbRotatedDimension
1001
ACAD
1000
DSTYLE
1002
{
1070
   371
1070
    13
1070
   372
1070
    13
1070
   170
1070
     0
1070
   144
1040
1.0
1070
   277
1070
     2
1070
   284
1070
     8
1070
   278
1070
    46
1070
   146
1040
1.166667
1070
   345
1005
16
1070
   347
1005
16
1070
   346
1005
16
1070
   344
1005
0
1070
   343
1005
0
1070
   172
1070
     1
1070
    76
1070
     0
1070
    75
1070
     0
1070
   282
1070
     0
1070
   281
1070
     0
1070
    71
1070
     0
1070
    74
1070
     0
1070
   279
1070
     0
1070
   173
1070
     1
1070
   340
1005
1C6
1070
   271
1070
     1
1070
   272
1070
     3
1070
    77
1070
     1
1070
    73
1070
     1
1070
   171
1070
     3
1070
   274
1070
     4
1070
   177
1070
     2
1070
   176
1070
     2
1070
   178
1070
     2
1070
    78
1070
     8
1070
    48
1040
-0.1
1070
    41
1040
3.5
1070
   147
1040
1.5
1070
    42
1040
1.5875
1070
    44
1040
2.0
1070
   140
1040
3.0
1002
}
1001
ACAD_DSTYLE_DIM_LINETYPE
1070
   380
1005
16
1001
ACAD_DSTYLE_DIM_EXT1_LINETYPE
1070
   381
1005
16
1001
ACAD_DSTYLE_DIM_EXT2_LINETYPE
1070
   382
1005
16
0
DIMENSION
5
245
100
AcDbEntity
8
2
62
256
6
ByLayer
370
18
48
1
60
0
100
AcDbDimension
2
_U4
10
31.5
20
-21.729283
30
0
11
44.25
21
-21.729283
31
0
70
32
71
1
72
1
41
1
210
0
220
0
230
1
3
Standard
100
AcDbAlignedDimension
13
57
23
-3.229283
33
0
14
31.5
24
0
34
0
50
0
100
AcDbRotatedDimension
1001
ACAD
1000
DSTYLE
1002
{
1070
   371
1070
    13
1070
   372
1070
    13
1070
   170
1070
     0
1070
   144
1040
1.0
1070
   277
1070
     2
1070
   284
1070
     8
1070
   278
1070
    46
1070
   146
1040
1.166667
1070
   345
1005
16
1070
   347
1005
16
1070
   346
1005
16
1070
   344
1005
0
1070
   343
1005
0
1070
   172
1070
     1
1070
    76
1070
     0
1070
    75
1070
     0
1070
   282
1070
     0
1070
   281
1070
     0
1070
    71
1070
     0
1070
    74
1070
     0
1070
   279
1070
     0
1070
   173
1070
     1
1070
   340
1005
1C6
1070
   271
1070
     1
1070
   272
1070
     3
1070
    77
1070
     1
1070
    73
1070
     1
1070
   171
1070
     3
1070
   274
1070
     4
1070
   177
1070
     2
1070
   176
1070
     2
1070
   178
1070
     2
1070
    78
1070
     8
1070
    48
1040
-0.1
1070
    41
1040
3.5
1070
   147
1040
1.5
1070
    42
1040
1.5875
1070
    44
1040
2.0
1070
   140
1040
3.0
1002
}
1001
ACAD_DSTYLE_DIM_LINETYPE
1070
   380
1005
16
1001
ACAD_DSTYLE_DIM_EXT1_LINETYPE
1070
   381
1005
16
1001
ACAD_DSTYLE_DIM_EXT2_LINETYPE
1070
   382
1005
16
0
ENDSEC
0
SECTION
2
OBJECTS
0
DICTIONARY
5
2cd
330
0
100
AcDbDictionary
280
0
281
1
3
ACAD_GROUP
350
2ce
3
ACAD_MLINESTYLE
350
2cf
0
DICTIONARY
5
2ce
330
0
100
AcDbDictionary
280
0
281
1
0
DICTIONARY
5
2cf
330
0
100
AcDbDictionary
280
0
281
1
3
Standard
350
18
0
MLINESTYLE
5
18
330
2cf
100
AcDbMlineStyle
2
Standard
70
0
3

62
256
51
90
52
90
71
2
49
-0.5
62
256
6
ByLayer
49
0.5
62
256
6
ByLayer
0
RASTERVARIABLES
5
2bb
330

100
AcDbRasterVariables
90
0
70
1
71
1
72
1
0
ENDSEC
0
EOF
