0
SECTION
2
HEADER
9
$ACADVER
1
AC1015
9
$DWGCODEPAGE
3
ANSI_1252
9
$HANDSEED
5
2f2
9
$ANGBASE
50
0
9
$ANGDIR
70
0
9
$ATTMODE
70
1
9
$AUNITS
70
0
9
$AUPREC
70
0
9
$CECOLOR
62
256
9
$CELTSCALE
40
1
9
$CELTYPE
6
ByLayer
9
$CELWEIGHT
370
18
9
$CLAYER
8
0
9
$CMLJUST
70
0
9
$CMLSCALE
40
1
9
$CMLSTYLE
2
Standard
9
$DIMSTYLE
2
Standard
9
$TEXTSIZE
40
0.2
9
$TEXTSTYLE
7
Standard
9
$LUNITS
70
2
9
$LUPREC
70
4
9
$EXTNAMES
290
1
9
$INSUNITS
70
4
9
$LTSCALE
40
1
9
$LWDISPLAY
290
1
9
$PDMODE
70
0
9
$PDSIZE
40
0
9
$PLINEGEN
70
0
0
ENDSEC
0
SECTION
2
CLASSES
0
CLASS
1
RASTERVARIABLES
2
AcDbRasterVariables
3
ISM
90
0
280
0
281
0
0
ENDSEC
0
SECTION
2
TABLES
0
TABLE
2
VPORT
5
2e8
100
AcDbSymbolTable
0
VPORT
5
1
100
AcDbSymbolTableRecord
100
AcDbViewportTableRecord
2
*Active
70
0
10
0
20
0
11
1
21
1
12
-1
22
1
13
0
23
0
14
0.5
24
0.5
15
10
25
10
16
0
26
0
36
1
17
0
27
0
37
0
0
ENDTAB
0
TABLE
2
LTYPE
5
2e9
100
AcDbSymbolTable
0
LTYPE
5
14
100
AcDbSymbolTableRecord
100
AcDbLinetypeTableRecord
70
0
2
ByBlock
3

72
65
73
0
40
0
0
LTYPE
5
15
100
AcDbSymbolTableRecord
100
AcDbLinetypeTableRecord
70
0
2
ByLayer
3

72
65
73
0
40
0
0
LTYPE
5
16
100
AcDbSymbolTableRecord
100
AcDbLinetypeTableRecord
70
0
2
Continuous
3
Solid line
72
65
73
0
40
0
0
LTYPE
5
6E
100
AcDbSymbolTableRecord
100
AcDbLinetypeTableRecord
70
0
2
CENTER
3
____ _ ____ _ ____ _ ____
72
65
73
4
40
47.5
49
22
74
0
49
-8.5
74
0
49
8.5
74
0
49
-8.5
74
0
0
LTYPE
5
6F
100
AcDbSymbolTableRecord
100
AcDbLinetypeTableRecord
70
0
2
DASHED
3
__ __ __ __ __ __ __ __ __
72
65
73
2
40
25.72
49
12.86
74
0
49
-12.86
74
0
0
ENDTAB
0
TABLE
2
LAYER
5
2ea
100
AcDbSymbolTable
0
LAYER
5
10
100
AcDbSymbolTableRecord
100
AcDbLayerTableRecord
2
0
70
0
62
7
6
Continuous
290
1
370
-3
390
0
0
LAYER
5
71
100
AcDbSymbolTableRecord
100
AcDbLayerTableRecord
2
81
70
0
62
-3
6
Continuous
290
1
370
-3
390
0
0
LAYER
5
73
100
AcDbSymbolTableRecord
100
AcDbLayerTableRecord
2
80
70
0
62
-6
6
Continuous
290
1
370
-3
390
0
0
LAYER
5
75
100
AcDbSymbolTableRecord
100
AcDbLayerTableRecord
2
1
70
0
62
4
6
Continuous
290
1
370
-3
390
0
0
LAYER
5
81
100
AcDbSymbolTableRecord
100
AcDbLayerTableRecord
2
4
70
0
62
-2
6
CENTER
290
1
370
-3
390
0
0
LAYER
5
C0
100
AcDbSymbolTableRecord
100
AcDbLayerTableRecord
2
2
70
0
62
7
6
Continuous
290
1
370
-3
390
0
0
LAYER
5
1F8
100
AcDbSymbolTableRecord
100
AcDbLayerTableRecord
2
Defpoints
70
0
62
7
6
Continuous
290
0
370
-3
390
0
0
LAYER
5
2d4
100
AcDbSymbolTableRecord
100
AcDbLayerTableRecord
2
SK4
70
0
62
2
6
CENTER
290
1
370
-3
390
0
0
LAYER
5
2d5
100
AcDbSymbolTableRecord
100
AcDbLayerTableRecord
2
SK1
70
0
62
4
6
Continuous
290
1
370
-3
390
0
0
LAYER
5
2d6
100
AcDbSymbolTableRecord
100
AcDbLayerTableRecord
2
SK2
70
0
62
7
6
Continuous
290
1
370
-3
390
0
0
LAYER
5
2d7
100
AcDbSymbolTableRecord
100
AcDbLayerTableRecord
2
SK6
70
0
62
5
6
Continuous
290
1
370
-3
390
0
0
ENDTAB
0
TABLE
2
STYLE
5
2eb
100
AcDbSymbolTable
0
STYLE
5
11
100
AcDbSymbolTableRecord
100
AcDbTextStyleTableRecord
2
Standard
3
txt
70
0
71
0
40
0
41
1
42
0
50
0
0
STYLE
5
1DE
100
AcDbSymbolTableRecord
100
AcDbTextStyleTableRecord
2
iso_b_vert
3
simplex.shx
70
0
71
0
40
0
41
1
42
0
50
0
0
STYLE
5
1DF
100
AcDbSymbolTableRecord
100
AcDbTextStyleTableRecord
2
DWGDirectTextStyle
3
simplex
70
0
71
0
40
0
41
1
42
0
50
0
0
ENDTAB
0
TABLE
2
DIMSTYLE
5
2ec
100
AcDbSymbolTable
100
AcDbDimStyleTable
0
DIMSTYLE
105
27
100
AcDbSymbolTableRecord
100
AcDbDimStyleTableRecord
2
Standard
70
0
3
<>
41
0.18
42
0.0625
44
0.18
140
0.18
147
0.09
73
0
74
0
77
1
271
2
275
0
278
52
280
0
340
11
0
ENDTAB
0
TABLE
2
VIEW
5
2ed
100
AcDbSymbolTable
0
ENDTAB
0
TABLE
2
UCS
5
2ee
100
AcDbSymbolTable
0
ENDTAB
0
TABLE
2
APPID
5
2ef
100
AcDbSymbolTable
0
APPID
5
12
100
AcDbSymbolTableRecord
100
AcDbRegAppTableRecord
2
ACAD
70
0
0
APPID
5
1F4
100
AcDbSymbolTableRecord
100
AcDbRegAppTableRecord
2
ACAD_DSTYLE_DIMBREAK
70
0
0
APPID
5
293
100
AcDbSymbolTableRecord
100
AcDbRegAppTableRecord
2
ACAD_DSTYLE_DIM_LINETYPE
70
0
0
APPID
5
294
100
AcDbSymbolTableRecord
100
AcDbRegAppTableRecord
2
ACAD_DSTYLE_DIM_EXT1_LINETYPE
70
0
0
APPID
5
295
100
AcDbSymbolTableRecord
100
AcDbRegAppTableRecord
2
ACAD_DSTYLE_DIM_EXT2_LINETYPE
70
0
0
APPID
5
2D0
100
AcDbSymbolTableRecord
100
AcDbRegAppTableRecord
2
ACAD_MLEADERVER
70
0
0
ENDTAB
0
TABLE
2
BLOCK_RECORD
5
2f0
100
AcDbSymbolTable
0
BLOCK_RECORD
5
1F
100
AcDbSymbolTableRecord
100
AcDbBlockTableRecord
2
*Model_Space
340
0
70
0
0
BLOCK_RECORD
5
1B
100
AcDbSymbolTableRecord
100
AcDbBlockTableRecord
2
*Paper_Space
340
0
70
0
0
BLOCK_RECORD
5
23
100
AcDbSymbolTableRecord
100
AcDbBlockTableRecord
2
*Paper_Space0
340
0
70
0
0
BLOCK_RECORD
5
1F9
100
AcDbSymbolTableRecord
100
AcDbBlockTableRecord
2
*D1
340
0
70
0
0
BLOCK_RECORD
5
207
100
AcDbSymbolTableRecord
100
AcDbBlockTableRecord
2
_U0
340
0
70
0
0
BLOCK_RECORD
5
213
100
AcDbSymbolTableRecord
100
AcDbBlockTableRecord
2
*D3
340
0
70
0
0
BLOCK_RECORD
5
220
100
AcDbSymbolTableRecord
100
AcDbBlockTableRecord
2
_U1
340
0
70
0
0
BLOCK_RECORD
5
22D
100
AcDbSymbolTableRecord
100
AcDbBlockTableRecord
2
*D5
340
0
70
0
0
BLOCK_RECORD
5
23B
100
AcDbSymbolTableRecord
100
AcDbBlockTableRecord
2
_U2
340
0
70
0
0
BLOCK_RECORD
5
248
100
AcDbSymbolTableRecord
100
AcDbBlockTableRecord
2
*D7
340
0
70
0
0
BLOCK_RECORD
5
254
100
AcDbSymbolTableRecord
100
AcDbBlockTableRecord
2
_U3
340
0
70
0
0
BLOCK_RECORD
5
260
100
AcDbSymbolTableRecord
100
AcDbBlockTableRecord
2
*D9
340
0
70
0
0
BLOCK_RECORD
5
26C
100
AcDbSymbolTableRecord
100
AcDbBlockTableRecord
2
_U4
340
0
70
0
0
ENDTAB
0
ENDSEC
0
SECTION
2
BLOCKS
0
BLOCK
5
20
100
AcDbEntity
8
0
100
AcDbBlockBegin
2
*Model_Space
70
0
10
0
20
0
30
0
3
*Model_Space
0
ENDBLK
5
21
100
AcDbEntity
8
0
100
AcDbBlockEnd
0
BLOCK
5
1C
100
AcDbEntity
8
0
100
AcDbBlockBegin
2
*Paper_Space
70
0
10
0
20
0
30
0
3
*Paper_Space
0
ENDBLK
5
1D
100
AcDbEntity
8
0
100
AcDbBlockEnd
0
BLOCK
5
24
100
AcDbEntity
8
0
100
AcDbBlockBegin
2
*Paper_Space0
70
0
10
0
20
0
30
0
3
*Paper_Space0
0
ENDBLK
5
25
100
AcDbEntity
8
0
100
AcDbBlockEnd
0
BLOCK
5
1FA
100
AcDbEntity
8
0
100
AcDbBlockBegin
2
*D1
70
1
10
0
20
0
30
0
3
*D1
0
LINE
5
1FC
100
AcDbEntity
8
0
62
256
6
ByLayer
370
-2
48
1
60
0
100
AcDbLine
10
72.5875
20
7.073041
30
0
11
92.5
21
7.073041
31
0
39
0
210
0
220
0
230
1
0
LINE
5
1FD
100
AcDbEntity
8
0
62
256
6
ByLayer
370
-2
48
1
60
0
100
AcDbLine
10
72.5875
20
-7.073041
30
0
11
92.5
21
-7.073041
31
0
39
0
210
0
220
0
230
1
0
LINE
5
1FE
100
AcDbEntity
8
0
62
256
6
ByLayer
370
-2
48
1
60
0
100
AcDbLine
10
90.5
20
7.073041
30
0
11
90.5
21
37.501613
31
0
39
0
210
0
220
0
230
1
0
LINE
5
1FF
100
AcDbEntity
8
0
62
256
6
ByLayer
370
-2
48
1
60
0
100
AcDbLine
10
90.5
20
10.573041
30
0
11
90.5
21
14.073041
31
0
39
0
210
0
220
0
230
1
0
LINE
5
200
100
AcDbEntity
8
0
62
256
6
ByLayer
370
-2
48
1
60
0
100
AcDbLine
10
90.5
20
-10.573041
30
0
11
90.5
21
-14.073041
31
0
39
0
210
0
220
0
230
1
0
SOLID
5
201
100
AcDbEntity
8
0
62
256
6
ByLayer
370
-1
48
1
60
0
100
AcDbTrace
10
89.916667
20
10.573041
30
0
11
91.083333
21
10.573041
31
0
12
90.5
22
7.073041
32
0
13
90.5
23
7.073041
33
0
39
0
210
0
220
0
230
1
0
SOLID
5
202
100
AcDbEntity
8
0
62
256
6
ByLayer
370
-1
48
1
60
0
100
AcDbTrace
10
91.083333
20
-10.573041
30
0
11
89.916667
21
-10.573041
31
0
12
90.5
22
-7.073041
32
0
13
90.5
23
-7.073041
33
0
39
0
210
0
220
0
230
1
0
MTEXT
5
203
100
AcDbEntity
8
0
62
256
6
ByLayer
370
18
48
1
60
0
100
AcDbMText
10
84.5
20
25.787327
30
0
210
0
220
0
230
1
1
\A1;14.146
40
3
41
0
44
1
50
90
71
5
72
5
7
iso_b_vert
0
POINT
5
204
100
AcDbEntity
8
Defpoints
62
0
6
ByLayer
370
-1
48
1
60
0
100
AcDbPoint
10
71
20
7.073041
30
0
39
0
210
0
220
0
230
1
50
360
0
POINT
5
205
100
AcDbEntity
8
Defpoints
62
0
6
ByLayer
370
-1
48
1
60
0
100
AcDbPoint
10
71
20
-7.073041
30
0
39
0
210
0
220
0
230
1
50
360
0
POINT
5
206
100
AcDbEntity
8
Defpoints
62
0
6
ByLayer
370
-1
48
1
60
0
100
AcDbPoint
10
90.5
20
-7.073041
30
0
39
0
210
0
220
0
230
1
50
360
0
ENDBLK
5
1FB
100
AcDbEntity
8
0
100
AcDbBlockEnd
0
BLOCK
5
20E
100
AcDbEntity
8
0
100
AcDbBlockBegin
2
_U0
70
0
10
0
20
0
30
0
3
_U0
0
MTEXT
5
208
100
AcDbEntity
8
2
62
256
6
ByLayer
370
18
48
1
60
0
100
AcDbMText
10
89.908886
20
17.208041
30
0
210
0
220
0
230
1
1
\W0.7316;M14x1.50
40
3
41
0
44
1.084337
50
90
71
7
72
5
7
iso_b_vert
0
LINE
5
209
100
AcDbEntity
8
2
62
256
6
ByLayer
370
13
48
1
60
0
100
AcDbLine
10
72.5875
20
7.073041
30
0
11
92.5
21
7.073041
31
0
39
0
210
0
220
0
230
1
0
LINE
5
20A
100
AcDbEntity
8
2
62
256
6
ByLayer
370
13
48
1
60
0
100
AcDbLine
10
72.5875
20
-7.073041
30
0
11
92.5
21
-7.073041
31
0
39
0
210
0
220
0
230
1
0
LINE
5
20B
100
AcDbEntity
8
2
62
256
6
ByLayer
370
13
48
1
60
0
100
AcDbLine
10
90.5
20
-7.073041
30
0
11
90.5
21
32.568524
31
0
39
0
210
0
220
0
230
1
0
SOLID
5
20C
100
AcDbEntity
8
2
62
256
6
ByLayer
370
18
48
1
60
0
100
AcDbTrace
10
90.5
20
7.073041
30
0
11
90.960784
21
3.573043
31
0
12
90.039216
22
3.573039
32
0
13
90.039216
23
3.573039
33
0
39
0
210
0
220
0
230
1
0
SOLID
5
20D
100
AcDbEntity
8
2
62
256
6
ByLayer
370
18
48
1
60
0
100
AcDbTrace
10
90.5
20
-7.073041
30
0
11
90.039216
21
-3.573043
31
0
12
90.960784
22
-3.573039
32
0
13
90.960784
23
-3.573039
33
0
39
0
210
0
220
0
230
1
0
ENDBLK
5
20F
100
AcDbEntity
8
0
100
AcDbBlockEnd
0
BLOCK
5
214
100
AcDbEntity
8
0
100
AcDbBlockBegin
2
*D3
70
1
10
0
20
0
30
0
3
*D3
0
LINE
5
216
100
AcDbEntity
8
0
62
256
6
ByLayer
370
-2
48
1
60
0
100
AcDbLine
10
71
20
8.660541
30
0
11
71
21
18.061244
31
0
39
0
210
0
220
0
230
1
0
LINE
5
217
100
AcDbEntity
8
0
62
256
6
ByLayer
370
-2
48
1
60
0
100
AcDbLine
10
66.87
20
1.5875
30
0
11
66.87
21
18.061244
31
0
39
0
210
0
220
0
230
1
0
LINE
5
218
100
AcDbEntity
8
0
62
256
6
ByLayer
370
-2
48
1
60
0
100
AcDbLine
10
74.5
20
16.061244
30
0
11
78
21
16.061244
31
0
39
0
210
0
220
0
230
1
0
LINE
5
219
100
AcDbEntity
8
0
62
256
6
ByLayer
370
-2
48
1
60
0
100
AcDbLine
10
63.37
20
16.061244
30
0
11
59.87
21
16.061244
31
0
39
0
210
0
220
0
230
1
0
SOLID
5
21A
100
AcDbEntity
8
0
62
256
6
ByLayer
370
-1
48
1
60
0
100
AcDbTrace
10
74.5
20
16.644578
30
0
11
74.5
21
15.477911
31
0
12
71
22
16.061244
32
0
13
71
23
16.061244
33
0
39
0
210
0
220
0
230
1
0
SOLID
5
21B
100
AcDbEntity
8
0
62
256
6
ByLayer
370
-1
48
1
60
0
100
AcDbTrace
10
63.37
20
15.477911
30
0
11
63.37
21
16.644578
31
0
12
66.87
22
16.061244
32
0
13
66.87
23
16.061244
33
0
39
0
210
0
220
0
230
1
0
MTEXT
5
21C
100
AcDbEntity
8
0
62
256
6
ByLayer
370
18
48
1
60
0
100
AcDbMText
10
68.935
20
22.061244
30
0
210
0
220
0
230
1
1
\A1;4.13
40
3
41
0
44
1
50
0
71
5
72
5
7
iso_b_vert
0
POINT
5
21D
100
AcDbEntity
8
Defpoints
62
0
6
ByLayer
370
-1
48
1
60
0
100
AcDbPoint
10
71
20
7.073041
30
0
39
0
210
0
220
0
230
1
50
360
0
POINT
5
21E
100
AcDbEntity
8
Defpoints
62
0
6
ByLayer
370
-1
48
1
60
0
100
AcDbPoint
10
66.87
20
0
30
0
39
0
210
0
220
0
230
1
50
360
0
POINT
5
21F
100
AcDbEntity
8
Defpoints
62
0
6
ByLayer
370
-1
48
1
60
0
100
AcDbPoint
10
66.87
20
16.061244
30
0
39
0
210
0
220
0
230
1
50
360
0
ENDBLK
5
215
100
AcDbEntity
8
0
100
AcDbBlockEnd
0
BLOCK
5
228
100
AcDbEntity
8
0
100
AcDbBlockBegin
2
_U1
70
0
10
0
20
0
30
0
3
_U1
0
MTEXT
5
221
100
AcDbEntity
8
SK2
62
256
6
ByLayer
370
18
48
1
60
0
100
AcDbMText
10
65.817044
20
16.843878
30
0
210
0
220
0
230
1
1
\W0.6474;'C'
40
3.5
41
0
44
1.084337
50
0
71
7
72
5
7
iso_b_vert
0
MTEXT
5
222
100
AcDbEntity
8
SK2
62
256
6
ByLayer
370
18
48
1
60
0
100
AcDbMText
10
65.790544
20
23.946359
30
0
210
0
220
0
230
1
1
\W0.6856;4.13
40
3
41
0
44
1.084337
50
0
71
7
72
5
7
iso_b_vert
0
LINE
5
223
100
AcDbEntity
8
SK2
62
256
6
ByLayer
370
13
48
1
60
0
100
AcDbLine
10
71
20
8.660541
30
0
11
71
21
18.061244
31
0
39
0
210
0
220
0
230
1
0
LINE
5
224
100
AcDbEntity
8
SK2
62
256
6
ByLayer
370
13
48
1
60
0
100
AcDbLine
10
66.87
20
1.5875
30
0
11
66.87
21
18.061244
31
0
39
0
210
0
220
0
230
1
0
LINE
5
225
100
AcDbEntity
8
SK2
62
256
6
ByLayer
370
13
48
1
60
0
100
AcDbLine
10
78.5
20
16.061244
30
0
11
59.37
21
16.061244
31
0
39
0
210
0
220
0
230
1
0
SOLID
5
226
100
AcDbEntity
8
SK2
62
256
6
ByLayer
370
18
48
1
60
0
100
AcDbTrace
10
71
20
16.061244
30
0
11
74.499998
21
16.522028
31
0
12
74.500002
22
15.600461
32
0
13
74.500002
23
15.600461
33
0
39
0
210
0
220
0
230
1
0
SOLID
5
227
100
AcDbEntity
8
SK2
62
256
6
ByLayer
370
18
48
1
60
0
100
AcDbTrace
10
66.87
20
16.061244
30
0
11
63.370002
21
15.600461
31
0
12
63.369998
22
16.522028
32
0
13
63.369998
23
16.522028
33
0
39
0
210
0
220
0
230
1
0
ENDBLK
5
229
100
AcDbEntity
8
0
100
AcDbBlockEnd
0
BLOCK
5
22E
100
AcDbEntity
8
0
100
AcDbBlockBegin
2
*D5
70
1
10
0
20
0
30
0
3
*D5
0
LINE
5
230
100
AcDbEntity
8
0
62
256
6
ByLayer
370
-2
48
1
60
0
100
AcDbLine
10
71
20
-8.660541
30
0
11
71
21
-16.073041
31
0
39
0
210
0
220
0
230
1
0
LINE
5
231
100
AcDbEntity
8
0
62
256
6
ByLayer
370
-2
48
1
60
0
100
AcDbLine
10
56
20
-8.660541
30
0
11
56
21
-16.073041
31
0
39
0
210
0
220
0
230
1
0
LINE
5
232
100
AcDbEntity
8
0
62
256
6
ByLayer
370
-2
48
1
60
0
100
AcDbLine
10
71
20
-14.073041
30
0
11
91.428571
21
-14.073041
31
0
39
0
210
0
220
0
230
1
0
LINE
5
233
100
AcDbEntity
8
0
62
256
6
ByLayer
370
-2
48
1
60
0
100
AcDbLine
10
74.5
20
-14.073041
30
0
11
78
21
-14.073041
31
0
39
0
210
0
220
0
230
1
0
LINE
5
234
100
AcDbEntity
8
0
62
256
6
ByLayer
370
-2
48
1
60
0
100
AcDbLine
10
52.5
20
-14.073041
30
0
11
49
21
-14.073041
31
0
39
0
210
0
220
0
230
1
0
SOLID
5
235
100
AcDbEntity
8
0
62
256
6
ByLayer
370
-1
48
1
60
0
100
AcDbTrace
10
74.5
20
-13.489708
30
0
11
74.5
21
-14.656374
31
0
12
71
22
-14.073041
32
0
13
71
23
-14.073041
33
0
39
0
210
0
220
0
230
1
0
SOLID
5
236
100
AcDbEntity
8
0
62
256
6
ByLayer
370
-1
48
1
60
0
100
AcDbTrace
10
52.5
20
-14.656374
30
0
11
52.5
21
-13.489708
31
0
12
56
22
-14.073041
32
0
13
56
23
-14.073041
33
0
39
0
210
0
220
0
230
1
0
MTEXT
5
237
100
AcDbEntity
8
0
62
256
6
ByLayer
370
18
48
1
60
0
100
AcDbMText
10
84.714286
20
-8.073041
30
0
210
0
220
0
230
1
1
\A1;15
40
3
41
0
44
1
50
0
71
5
72
5
7
iso_b_vert
0
POINT
5
238
100
AcDbEntity
8
Defpoints
62
0
6
ByLayer
370
-1
48
1
60
0
100
AcDbPoint
10
71
20
-7.073041
30
0
39
0
210
0
220
0
230
1
50
360
0
POINT
5
239
100
AcDbEntity
8
Defpoints
62
0
6
ByLayer
370
-1
48
1
60
0
100
AcDbPoint
10
56
20
-7.073041
30
0
39
0
210
0
220
0
230
1
50
360
0
POINT
5
23A
100
AcDbEntity
8
Defpoints
62
0
6
ByLayer
370
-1
48
1
60
0
100
AcDbPoint
10
56
20
-14.073041
30
0
39
0
210
0
220
0
230
1
50
360
0
ENDBLK
5
22F
100
AcDbEntity
8
0
100
AcDbBlockEnd
0
BLOCK
5
243
100
AcDbEntity
8
0
100
AcDbBlockBegin
2
_U2
70
0
10
0
20
0
30
0
3
_U2
0
MTEXT
5
23C
100
AcDbEntity
8
SK2
62
256
6
ByLayer
370
18
48
1
60
0
100
AcDbMText
10
77.159
20
-13.187927
30
0
210
0
220
0
230
1
1
\W0.5321;15
40
3
41
0
44
1.084337
50
0
71
7
72
5
7
iso_b_vert
0
MTEXT
5
23D
100
AcDbEntity
8
SK2
62
256
6
ByLayer
370
18
48
1
60
0
100
AcDbMText
10
82.466271
20
-12.835446
30
0
210
0
220
0
230
1
1
\W0.8315;\W0.4158;%%p\W0.8315;0.5
40
2.5
41
0
44
1.084337
50
0
71
7
72
5
7
iso_b_vert
0
LINE
5
23E
100
AcDbEntity
8
SK2
62
256
6
ByLayer
370
13
48
1
60
0
100
AcDbLine
10
71
20
-8.660541
30
0
11
71
21
-16.073041
31
0
39
0
210
0
220
0
230
1
0
LINE
5
23F
100
AcDbEntity
8
SK2
62
256
6
ByLayer
370
13
48
1
60
0
100
AcDbLine
10
56
20
-8.660541
30
0
11
56
21
-16.073041
31
0
39
0
210
0
220
0
230
1
0
LINE
5
240
100
AcDbEntity
8
SK2
62
256
6
ByLayer
370
13
48
1
60
0
100
AcDbLine
10
56
20
-14.073041
30
0
11
89.583008
21
-14.073041
31
0
39
0
210
0
220
0
230
1
0
SOLID
5
241
100
AcDbEntity
8
SK2
62
256
6
ByLayer
370
18
48
1
60
0
100
AcDbTrace
10
71
20
-14.073041
30
0
11
67.500002
21
-14.533825
31
0
12
67.499998
22
-13.612257
32
0
13
67.499998
23
-13.612257
33
0
39
0
210
0
220
0
230
1
0
SOLID
5
242
100
AcDbEntity
8
SK2
62
256
6
ByLayer
370
18
48
1
60
0
100
AcDbTrace
10
56
20
-14.073041
30
0
11
59.499998
21
-13.612257
31
0
12
59.500002
22
-14.533825
32
0
13
59.500002
23
-14.533825
33
0
39
0
210
0
220
0
230
1
0
ENDBLK
5
244
100
AcDbEntity
8
0
100
AcDbBlockEnd
0
BLOCK
5
249
100
AcDbEntity
8
0
100
AcDbBlockBegin
2
*D7
70
1
10
0
20
0
30
0
3
*D7
0
LINE
5
24B
100
AcDbEntity
8
0
62
256
6
ByLayer
370
-2
48
1
60
0
100
AcDbLine
10
71
20
-8.660541
30
0
11
71
21
-38.573041
31
0
39
0
210
0
220
0
230
1
0
LINE
5
24C
100
AcDbEntity
8
0
62
256
6
ByLayer
370
-2
48
1
60
0
100
AcDbLine
10
21
20
-6.9375
30
0
11
21
21
-38.573041
31
0
39
0
210
0
220
0
230
1
0
LINE
5
24D
100
AcDbEntity
8
0
62
256
6
ByLayer
370
-2
48
1
60
0
100
AcDbLine
10
67.5
20
-36.573041
30
0
11
24.5
21
-36.573041
31
0
39
0
210
0
220
0
230
1
0
SOLID
5
24E
100
AcDbEntity
8
0
62
256
6
ByLayer
370
-1
48
1
60
0
100
AcDbTrace
10
67.5
20
-37.156374
30
0
11
67.5
21
-35.989708
31
0
12
71
22
-36.573041
32
0
13
71
23
-36.573041
33
0
39
0
210
0
220
0
230
1
0
SOLID
5
24F
100
AcDbEntity
8
0
62
256
6
ByLayer
370
-1
48
1
60
0
100
AcDbTrace
10
24.5
20
-35.989708
30
0
11
24.5
21
-37.156374
31
0
12
21
22
-36.573041
32
0
13
21
23
-36.573041
33
0
39
0
210
0
220
0
230
1
0
MTEXT
5
250
100
AcDbEntity
8
0
62
256
6
ByLayer
370
18
48
1
60
0
100
AcDbMText
10
46
20
-30.573041
30
0
210
0
220
0
230
1
1
\A1;50
40
3
41
0
44
1
50
0
71
5
72
5
7
iso_b_vert
0
POINT
5
251
100
AcDbEntity
8
Defpoints
62
0
6
ByLayer
370
-1
48
1
60
0
100
AcDbPoint
10
71
20
-7.073041
30
0
39
0
210
0
220
0
230
1
50
360
0
POINT
5
252
100
AcDbEntity
8
Defpoints
62
0
6
ByLayer
370
-1
48
1
60
0
100
AcDbPoint
10
21
20
-5.35
30
0
39
0
210
0
220
0
230
1
50
360
0
POINT
5
253
100
AcDbEntity
8
Defpoints
62
0
6
ByLayer
370
-1
48
1
60
0
100
AcDbPoint
10
21
20
-36.573041
30
0
39
0
210
0
220
0
230
1
50
360
0
ENDBLK
5
24A
100
AcDbEntity
8
0
100
AcDbBlockEnd
0
BLOCK
5
25B
100
AcDbEntity
8
0
100
AcDbBlockBegin
2
_U3
70
0
10
0
20
0
30
0
3
_U3
0
MTEXT
5
255
100
AcDbEntity
8
SK2
62
256
6
ByLayer
370
18
48
1
60
0
100
AcDbMText
10
44.367172
20
-35.687927
30
0
210
0
220
0
230
1
1
\W0.6740;50
40
3
41
0
44
1.084337
50
0
71
7
72
5
7
iso_b_vert
0
LINE
5
256
100
AcDbEntity
8
SK2
62
256
6
ByLayer
370
13
48
1
60
0
100
AcDbLine
10
71
20
-8.660541
30
0
11
71
21
-38.573041
31
0
39
0
210
0
220
0
230
1
0
LINE
5
257
100
AcDbEntity
8
SK2
62
256
6
ByLayer
370
13
48
1
60
0
100
AcDbLine
10
21
20
-6.9375
30
0
11
21
21
-38.573041
31
0
39
0
210
0
220
0
230
1
0
LINE
5
258
100
AcDbEntity
8
SK2
62
256
6
ByLayer
370
13
48
1
60
0
100
AcDbLine
10
71
20
-36.573041
30
0
11
21
21
-36.573041
31
0
39
0
210
0
220
0
230
1
0
SOLID
5
259
100
AcDbEntity
8
SK2
62
256
6
ByLayer
370
18
48
1
60
0
100
AcDbTrace
10
71
20
-36.573041
30
0
11
67.500002
21
-37.033825
31
0
12
67.499998
22
-36.112257
32
0
13
67.499998
23
-36.112257
33
0
39
0
210
0
220
0
230
1
0
SOLID
5
25A
100
AcDbEntity
8
SK2
62
256
6
ByLayer
370
18
48
1
60
0
100
AcDbTrace
10
21
20
-36.573041
30
0
11
24.499998
21
-36.112257
31
0
12
24.500002
22
-37.033825
32
0
13
24.500002
23
-37.033825
33
0
39
0
210
0
220
0
230
1
0
ENDBLK
5
25C
100
AcDbEntity
8
0
100
AcDbBlockEnd
0
BLOCK
5
261
100
AcDbEntity
8
0
100
AcDbBlockBegin
2
*D9
70
1
10
0
20
0
30
0
3
*D9
0
LINE
5
263
100
AcDbEntity
8
0
62
256
6
ByLayer
370
-2
48
1
60
0
100
AcDbLine
10
71
20
-8.660541
30
0
11
71
21
-27.573041
31
0
39
0
210
0
220
0
230
1
0
LINE
5
264
100
AcDbEntity
8
0
62
256
6
ByLayer
370
-2
48
1
60
0
100
AcDbLine
10
28.5
20
-1.5875
30
0
11
28.5
21
-27.573041
31
0
39
0
210
0
220
0
230
1
0
LINE
5
265
100
AcDbEntity
8
0
62
256
6
ByLayer
370
-2
48
1
60
0
100
AcDbLine
10
67.5
20
-25.573041
30
0
11
32
21
-25.573041
31
0
39
0
210
0
220
0
230
1
0
SOLID
5
266
100
AcDbEntity
8
0
62
256
6
ByLayer
370
-1
48
1
60
0
100
AcDbTrace
10
67.5
20
-26.156374
30
0
11
67.5
21
-24.989708
31
0
12
71
22
-25.573041
32
0
13
71
23
-25.573041
33
0
39
0
210
0
220
0
230
1
0
SOLID
5
267
100
AcDbEntity
8
0
62
256
6
ByLayer
370
-1
48
1
60
0
100
AcDbTrace
10
32
20
-24.989708
30
0
11
32
21
-26.156374
31
0
12
28.5
22
-25.573041
32
0
13
28.5
23
-25.573041
33
0
39
0
210
0
220
0
230
1
0
MTEXT
5
268
100
AcDbEntity
8
0
62
256
6
ByLayer
370
18
48
1
60
0
100
AcDbMText
10
49.75
20
-19.573041
30
0
210
0
220
0
230
1
1
\A1;42.5
40
3
41
0
44
1
50
0
71
5
72
5
7
iso_b_vert
0
POINT
5
269
100
AcDbEntity
8
Defpoints
62
0
6
ByLayer
370
-1
48
1
60
0
100
AcDbPoint
10
71
20
-7.073041
30
0
39
0
210
0
220
0
230
1
50
360
0
POINT
5
26A
100
AcDbEntity
8
Defpoints
62
0
6
ByLayer
370
-1
48
1
60
0
100
AcDbPoint
10
28.5
20
0
30
0
39
0
210
0
220
0
230
1
50
360
0
POINT
5
26B
100
AcDbEntity
8
Defpoints
62
0
6
ByLayer
370
-1
48
1
60
0
100
AcDbPoint
10
28.5
20
-25.573041
30
0
39
0
210
0
220
0
230
1
50
360
0
ENDBLK
5
262
100
AcDbEntity
8
0
100
AcDbBlockEnd
0
BLOCK
5
273
100
AcDbEntity
8
0
100
AcDbBlockBegin
2
_U4
70
0
10
0
20
0
30
0
3
_U4
0
MTEXT
5
26D
100
AcDbEntity
8
2
62
256
6
ByLayer
370
18
48
1
60
0
100
AcDbMText
10
46.230601
20
-24.687927
30
0
210
0
220
0
230
1
1
\W0.7640;42.5
40
3
41
0
44
1.084337
50
0
71
7
72
5
7
iso_b_vert
0
LINE
5
26E
100
AcDbEntity
8
2
62
256
6
ByLayer
370
13
48
1
60
0
100
AcDbLine
10
71
20
-8.660541
30
0
11
71
21
-27.573041
31
0
39
0
210
0
220
0
230
1
0
LINE
5
26F
100
AcDbEntity
8
2
62
256
6
ByLayer
370
13
48
1
60
0
100
AcDbLine
10
28.5
20
-1.5875
30
0
11
28.5
21
-27.573041
31
0
39
0
210
0
220
0
230
1
0
LINE
5
270
100
AcDbEntity
8
2
62
256
6
ByLayer
370
13
48
1
60
0
100
AcDbLine
10
71
20
-25.573041
30
0
11
28.5
21
-25.573041
31
0
39
0
210
0
220
0
230
1
0
SOLID
5
271
100
AcDbEntity
8
2
62
256
6
ByLayer
370
18
48
1
60
0
100
AcDbTrace
10
71
20
-25.573041
30
0
11
67.500002
21
-26.033825
31
0
12
67.499998
22
-25.112257
32
0
13
67.499998
23
-25.112257
33
0
39
0
210
0
220
0
230
1
0
SOLID
5
272
100
AcDbEntity
8
2
62
256
6
ByLayer
370
18
48
1
60
0
100
AcDbTrace
10
28.5
20
-25.573041
30
0
11
31.999998
21
-25.112257
31
0
12
32.000002
22
-26.033825
32
0
13
32.000002
23
-26.033825
33
0
39
0
210
0
220
0
230
1
0
ENDBLK
5
274
100
AcDbEntity
8
0
100
AcDbBlockEnd
0
ENDSEC
0
SECTION
2
ENTITIES
0
ARC
5
C9
100
AcDbEntity
8
SK1
62
256
6
ByLayer
370
18
48
1
60
0
100
AcDbCircle
39
0
10
-21.5
20
0
30
0
40
5.28000000000077
210
0
220
0
230
1
100
AcDbArc
50
328.459731
51
31.540269
0
ARC
5
CA
100
AcDbEntity
8
1
62
256
6
ByLayer
370
18
48
1
60
0
100
AcDbCircle
39
0
10
21.653835
20
-6.85
30
0
40
1.5
210
0
220
0
230
1
100
AcDbArc
50
90
51
115.841933
0
ARC
5
CB
100
AcDbEntity
8
1
62
256
6
ByLayer
370
18
48
1
60
0
100
AcDbCircle
39
0
10
21.653835
20
6.85
30
0
40
1.5
210
0
220
0
230
1
100
AcDbArc
50
244.158067
51
270
0
POINT
5
70
100
AcDbEntity
8
81
62
256
6
ByLayer
370
18
48
1
60
0
100
AcDbPoint
10
71
20
0
30
0
39
0
210
0
220
0
230
1
50
360
0
POINT
5
72
100
AcDbEntity
8
80
62
256
6
ByLayer
370
18
48
1
60
0
100
AcDbPoint
10
0
20
0
30
0
39
0
210
0
220
0
230
1
50
360
0
POINT
5
74
100
AcDbEntity
8
1
62
256
6
ByLayer
370
18
48
1
60
1
100
AcDbPoint
10
71
20
7.073041
30
0
39
0
210
0
220
0
230
1
50
360
0
POINT
5
76
100
AcDbEntity
8
1
62
256
6
ByLayer
370
18
48
1
60
1
100
AcDbPoint
10
71
20
-7.073041
30
0
39
0
210
0
220
0
230
1
50
360
0
POINT
5
77
100
AcDbEntity
8
1
62
256
6
ByLayer
370
18
48
1
60
1
100
AcDbPoint
10
71
20
7.073041
30
0
39
0
210
0
220
0
230
1
50
360
0
POINT
5
78
100
AcDbEntity
8
1
62
256
6
ByLayer
370
18
48
1
60
1
100
AcDbPoint
10
66.87
20
0
30
0
39
0
210
0
220
0
230
1
50
360
0
POINT
5
79
100
AcDbEntity
8
1
62
256
6
ByLayer
370
18
48
1
60
1
100
AcDbPoint
10
71
20
-7.073041
30
0
39
0
210
0
220
0
230
1
50
360
0
POINT
5
7A
100
AcDbEntity
8
1
62
256
6
ByLayer
370
18
48
1
60
1
100
AcDbPoint
10
56
20
-7.073041
30
0
39
0
210
0
220
0
230
1
50
360
0
POINT
5
7B
100
AcDbEntity
8
1
62
256
6
ByLayer
370
18
48
1
60
1
100
AcDbPoint
10
71
20
-7.073041
30
0
39
0
210
0
220
0
230
1
50
360
0
POINT
5
7C
100
AcDbEntity
8
1
62
256
6
ByLayer
370
18
48
1
60
1
100
AcDbPoint
10
21
20
-5.35
30
0
39
0
210
0
220
0
230
1
50
360
0
POINT
5
7D
100
AcDbEntity
8
1
62
256
6
ByLayer
370
18
48
1
60
1
100
AcDbPoint
10
71
20
-7.073041
30
0
39
0
210
0
220
0
230
1
50
360
0
POINT
5
7E
100
AcDbEntity
8
1
62
256
6
ByLayer
370
18
48
1
60
1
100
AcDbPoint
10
28.5
20
0
30
0
39
0
210
0
220
0
230
1
50
360
0
SPLINE
5
CC
100
AcDbEntity
8
1
62
256
6
ByLayer
370
18
48
1
60
0
100
AcDbSpline
70
4
71
3
72
8
73
4
40
0
40
0
40
0
40
0
40
1
40
1
40
1
40
1
41
1
10
67.9379387561549
20
-6.22285714674294
30
0
41
1
10
67.9334977042669
20
-6.22569624865292
30
0
41
1
10
67.9290566523958
20
-6.22530937517965
30
0
41
1
10
67.924615600553
20
-6.22168603031687
30
0
0
SPLINE
5
CD
100
AcDbEntity
8
1
62
256
6
ByLayer
370
18
48
1
60
0
100
AcDbSpline
70
4
71
3
72
8
73
4
40
0
40
0
40
0
40
0
40
1
40
1
40
1
40
1
41
1
10
67.577429201501
20
-6.20132268114398
30
0
41
1
10
67.5753991161531
20
-6.20590245135131
30
0
41
1
10
67.5733690309361
20
-6.20981060608455
30
0
41
1
10
67.5713389459026
20
-6.21304611631101
30
0
0
SPLINE
5
CE
100
AcDbEntity
8
1
62
256
6
ByLayer
370
13
48
1
60
0
100
AcDbSpline
70
4
71
3
72
9
73
5
40
0
40
0
40
0
40
0
40
0.73390207349664
40
1
40
1
40
1
40
1
41
1
10
67.5713389458987
20
-6.2130461163172
30
0
41
1
10
67.5628075451081
20
-6.22664329773664
30
0
41
1
10
67.5511828367752
20
-6.22898378775724
30
0
41
1
10
67.5395581416986
20
-6.20912674103351
30
0
41
1
10
67.5364648349416
20
-6.20228036425686
30
0
0
SPLINE
5
CF
100
AcDbEntity
8
1
62
256
6
ByLayer
370
13
48
1
60
0
100
AcDbSpline
70
4
71
3
72
9
73
5
40
0
40
0
40
0
40
0
40
0.345298149182871
40
1
40
1
40
1
40
1
41
1
10
56.3170026452554
20
6.21892972294469
30
0
41
1
10
56.3202372258239
20
6.21531604131454
30
0
41
1
10
56.329604726252
20
6.19988367418895
30
0
41
1
10
56.3389722270912
20
6.17003579132623
30
0
41
1
10
56.3451051474493
20
6.14441934459961
30
0
0
SPLINE
5
D0
100
AcDbEntity
8
1
62
256
6
ByLayer
370
18
48
1
60
0
100
AcDbSpline
70
4
71
3
72
10
73
6
40
0
40
0
40
0
40
0
40
0.399401910234845
40
0.399401910234845
40
1
40
1
40
1
40
1
41
1
10
67.1631661427169
20
-6.91048520990833
30
0
41
1
10
67.1580203050796
20
-6.91200363781408
30
0
41
1
10
67.1529104469344
20
-6.9082082833404
30
0
41
1
10
67.1400704441377
20
-6.88569419211066
30
0
41
1
10
67.1323109806447
20
-6.86045359148432
30
0
41
1
10
67.1243885658938
20
-6.82353293371006
30
0
0
SPLINE
5
D1
100
AcDbEntity
8
1
62
256
6
ByLayer
370
18
48
1
60
0
100
AcDbSpline
70
4
71
3
72
10
73
6
40
0
40
0
40
0
40
0
40
0.680680315216717
40
0.680680315216717
40
1
40
1
40
1
40
1
41
1
10
66.8257421472929
20
-6.85016205708067
30
0
41
1
10
66.833936393537
20
-6.8973621387959
30
0
41
1
10
66.8420990177124
20
-6.93259423957926
30
0
41
1
10
66.8543106553297
20
-6.96712918822985
30
0
41
1
10
66.8582330611854
20
-6.97555800074363
30
0
41
1
10
66.8621671964706
20
-6.98134443439304
30
0
0
SPLINE
5
D2
100
AcDbEntity
8
1
62
256
6
ByLayer
370
13
48
1
60
0
100
AcDbSpline
70
4
71
3
72
9
73
5
40
0
40
0
40
0
40
0
40
0.884151363800462
40
1
40
1
40
1
40
1
41
1
10
66.3736400520517
20
-6.03895005506106
30
0
41
1
10
66.3857417588979
20
-6.11543022305395
30
0
41
1
10
66.3994291286994
20
-6.17568233248116
30
0
41
1
10
66.4131164988485
20
-6.20518988893056
30
0
41
1
10
66.4147021620175
20
-6.20819602792159
30
0
0
SPLINE
5
D3
100
AcDbEntity
8
1
62
256
6
ByLayer
370
13
48
1
60
0
100
AcDbSpline
70
4
71
3
72
9
73
5
40
0
40
0
40
0
40
0
40
0.500170305562175
40
1
40
1
40
1
40
1
41
1
10
56.6697984794338
20
6.21638506800446
30
0
41
1
10
56.6803815418832
20
6.23060186223859
30
0
41
1
10
56.7015404598951
20
6.2225018844172
30
0
41
1
10
56.7226993763537
20
6.14084442510847
30
0
41
1
10
56.7332752309915
20
6.08217957269457
30
0
0
SPLINE
5
D4
100
AcDbEntity
8
1
62
256
6
ByLayer
370
13
48
1
60
0
100
AcDbSpline
70
4
71
3
72
9
73
5
40
0
40
0
40
0
40
0
40
0.774698341775932
40
1
40
1
40
1
40
1
41
1
10
57.8244046535786
20
6.20763821923975
30
0
41
1
10
57.8429531030657
20
6.17180597435069
30
0
41
1
10
57.8668959257224
20
6.05286343483399
30
0
41
1
10
57.8908387225408
20
5.84385356443764
30
0
41
1
10
57.8962330734955
20
5.79233024180223
30
0
0
SPLINE
5
D5
100
AcDbEntity
8
1
62
256
6
ByLayer
370
13
48
1
60
0
100
AcDbSpline
70
4
71
3
72
10
73
6
40
0
40
0
40
0
40
0
40
0.200777894913964
40
0.750037752713198
40
1
40
1
40
1
40
1
41
1
10
58.1665097293694
20
6.21139471220235
30
0
41
1
10
58.1743960254289
20
6.22483625743001
30
0
41
1
10
58.2038565381082
20
6.23715710069251
30
0
41
1
10
58.2431352411499
20
6.06293356955789
30
0
41
1
10
58.2745276527857
20
5.76875101607729
30
0
41
1
10
58.284345846979
20
5.66242107883628
30
0
0
SPLINE
5
D6
100
AcDbEntity
8
1
62
256
6
ByLayer
370
13
48
1
60
0
100
AcDbSpline
70
4
71
3
72
10
73
6
40
0
40
0
40
0
40
0
40
0.36975176585737
40
0.888331199078753
40
1
40
1
40
1
40
1
41
1
10
59.3225231144224
20
6.21104554988358
30
0
41
1
10
59.3379057200943
20
6.18447699095341
30
0
41
1
10
59.374862552204
20
6.02783775564384
30
0
41
1
10
59.4164650706985
20
5.60657670781407
30
0
41
1
10
59.4426849819149
20
5.24333281028257
30
0
41
1
10
59.4473306848436
20
5.17603182320806
30
0
0
SPLINE
5
D7
100
AcDbEntity
8
1
62
256
6
ByLayer
370
18
48
1
60
0
100
AcDbSpline
70
4
71
3
72
8
73
4
40
0
40
0
40
0
40
0
40
1
40
1
40
1
40
1
41
1
10
59.6663503148703
20
6.21116660948883
30
0
41
1
10
59.6694243758505
20
6.21646364243759
30
0
41
1
10
59.6724984368119
20
6.22021508516141
30
0
41
1
10
59.6755724977447
20
6.22241197692278
30
0
0
SPLINE
5
D8
100
AcDbEntity
8
1
62
256
6
ByLayer
370
13
48
1
60
0
100
AcDbSpline
70
4
71
3
72
11
73
7
40
0
40
0
40
0
40
0
40
0.020121255499423
40
0.424930779530886
40
0.829740303562349
40
1
40
1
40
1
40
1
41
1
10
59.6755724977447
20
6.22241197692278
30
0
41
1
10
59.6766448547656
20
6.22317834179199
30
0
41
1
10
59.6992914288523
20
6.23536777262859
30
0
41
1
10
59.7435122166253
20
6.09409439120299
30
0
41
1
10
59.7957345972665
20
5.56808438713907
30
0
41
1
10
59.8263827586653
20
5.12567002535431
30
0
41
1
10
59.8354567039677
20
4.98391415282265
30
0
0
SPLINE
5
D9
100
AcDbEntity
8
1
62
256
6
ByLayer
370
18
48
1
60
0
100
AcDbSpline
70
4
71
3
72
8
73
4
40
0
40
0
40
0
40
0
40
1
40
1
40
1
40
1
41
1
10
60.8214498538301
20
6.21279108736695
30
0
41
1
10
60.8248520002236
20
6.2073220816273
30
0
41
1
10
60.8282541465401
20
6.19996604941193
30
0
41
1
10
60.8316562925192
20
6.19072921467256
30
0
0
SPLINE
5
DA
100
AcDbEntity
8
1
62
256
6
ByLayer
370
13
48
1
60
0
100
AcDbSpline
70
4
71
3
72
11
73
7
40
0
40
0
40
0
40
0
40
0.153705815553751
40
0.541768840900914
40
0.929831866248077
40
1
40
1
40
1
40
1
41
1
10
60.8316562925192
20
6.19072921467261
30
0
41
1
10
60.8402015171005
20
6.16752890882029
30
0
41
1
10
60.8703209712459
20
6.04393218799166
30
0
41
1
10
60.9220145237326
20
5.58090645661684
30
0
41
1
10
60.9690639569309
20
4.86312966973142
30
0
41
1
10
60.9945391466728
20
4.39649071232554
30
0
41
1
10
60.9984401175093
20
4.32330161576465
30
0
0
SPLINE
5
DB
100
AcDbEntity
8
1
62
256
6
ByLayer
370
13
48
1
60
0
100
AcDbSpline
70
4
71
3
72
11
73
7
40
0
40
0
40
0
40
0
40
0.15584005930159
40
0.509603843476698
40
0.863367627651806
40
1
40
1
40
1
40
1
41
1
10
61.2036215395455
20
6.19937080957294
30
0
41
1
10
61.2131254152644
20
6.17707113077594
30
0
41
1
10
61.2442035069078
20
6.05610147282178
30
0
41
1
10
61.2968558214695
20
5.58735872599672
30
0
41
1
10
61.3483367512222
20
4.80438000728481
30
0
41
1
10
61.3782434666835
20
4.24182065777629
30
0
41
1
10
61.3865759657329
20
4.07764942314199
30
0
0
SPLINE
5
DC
100
AcDbEntity
8
1
62
256
6
ByLayer
370
13
48
1
60
0
100
AcDbSpline
70
4
71
3
72
11
73
7
40
0
40
0
40
0
40
0
40
0.241090934868289
40
0.594797905650298
40
0.948504876432307
40
1
40
1
40
1
40
1
41
1
10
62.3665197795962
20
6.03048074058074
30
0
41
1
10
62.3812250199295
20
5.93541004285566
30
0
41
1
10
62.4175044523072
20
5.61633536214535
30
0
41
1
10
62.4753581205411
20
4.79379731410737
30
0
41
1
10
62.5216474847768
20
3.88521670213532
30
0
41
1
10
62.546362620888
20
3.34381087678617
30
0
41
1
10
62.5495035448136
20
3.27415452946443
30
0
0
SPLINE
5
DD
100
AcDbEntity
8
1
62
256
6
ByLayer
370
18
48
1
60
0
100
AcDbSpline
70
4
71
3
72
11
73
7
40
0
40
0
40
0
40
0
40
0.173196252443932
40
0.538581007552973
40
0.967234187402026
40
1
40
1
40
1
40
1
41
1
10
71.0000000000001
20
0.672554603816593
30
0
41
1
10
71.0000000000001
20
0.449771859741958
30
0
41
1
10
71.0000000000001
20
-0.249608409433932
30
0
41
1
10
70.9999999999998
20
-1.51336161343508
30
0
41
1
10
71
20
-2.51571583347768
30
0
41
1
10
71.0000000000001
20
-3.02093251777359
30
0
41
1
10
71.0000000000001
20
-3.05652824815399
30
0
0
SPLINE
5
DE
100
AcDbEntity
8
1
62
256
6
ByLayer
370
13
48
1
60
0
100
AcDbSpline
70
4
71
3
72
11
73
7
40
0
40
0
40
0
40
0
40
0.16846517200733
40
0.522056267490241
40
0.875647362973153
40
1
40
1
40
1
40
1
41
1
10
62.7546402690154
20
5.93949120681043
30
0
41
1
10
62.7649191030129
20
5.85930731440922
30
0
41
1
10
62.7967721538015
20
5.55980200613922
30
0
41
1
10
62.8501994166822
20
4.80280064981548
30
0
41
1
10
62.900935179717
20
3.80889250396902
30
0
41
1
10
62.9300967221646
20
3.15901169939875
30
0
41
1
10
62.9376840476413
20
2.98540930375637
30
0
0
SPLINE
5
DF
100
AcDbEntity
8
1
62
256
6
ByLayer
370
13
48
1
60
0
100
AcDbSpline
70
4
71
3
72
11
73
7
40
0
40
0
40
0
40
0
40
0.25392871992994
40
0.607427347873406
40
0.960925975816872
40
1
40
1
40
1
40
1
41
1
10
63.9174868836279
20
5.5667477021702
30
0
41
1
10
63.9329843052265
20
5.38589193344703
30
0
41
1
10
63.9700559721106
20
4.86918771173566
30
0
41
1
10
64.0287017287987
20
3.76831638010856
30
0
41
1
10
64.0742348696737
20
2.72000832028607
30
0
41
1
10
64.0981938050195
20
2.13417668122597
30
0
41
1
10
64.1005785153097
20
2.075555154933
30
0
0
SPLINE
5
E0
100
AcDbEntity
8
1
62
256
6
ByLayer
370
13
48
1
60
0
100
AcDbSpline
70
4
71
3
72
12
73
8
40
0
40
0
40
0
40
0
40
0.0138458466338894
40
0.290687100250182
40
0.567528353866475
40
0.844369607482768
40
1
40
1
40
1
40
1
41
1
10
69.1420638930196
20
-2.16888360519997
30
0
41
1
10
69.1412171770392
20
-2.14819039139982
30
0
41
1
10
69.123440769437
20
-1.71288474987548
30
0
41
1
10
69.0887346693378
20
-0.828675146375986
30
0
41
1
10
69.037945596552
20
0.502649739083864
30
0
41
1
10
68.9945689344452
20
1.6203246241119
30
0
41
1
10
68.9681219675077
20
2.26856069352164
30
0
41
1
10
68.9586046918984
20
2.49589699236694
30
0
0
SPLINE
5
E1
100
AcDbEntity
8
1
62
256
6
ByLayer
370
18
48
1
60
0
100
AcDbSpline
70
4
71
3
72
10
73
6
40
0
40
0
40
0
40
0
40
0.358260783184298
40
0.714977971230436
40
1
40
1
40
1
40
1
41
1
10
70.4000000540553
20
-3.04184913907415
30
0
41
1
10
70.4000000637367
20
-2.58068909454619
30
0
41
1
10
70.3999999948315
20
-1.58990781673938
30
0
41
1
10
70.3999998873392
20
-0.10496900036992
30
0
41
1
10
70.399999870269
20
0.841734794814101
30
0
41
1
10
70.3999998677713
20
1.25200037542834
30
0
0
SPLINE
5
E2
100
AcDbEntity
8
1
62
256
6
ByLayer
370
18
48
1
60
0
100
AcDbSpline
70
4
71
3
72
30
73
26
40
0
40
0
40
0
40
0
40
0.125000000000001
40
0.125000000000001
40
0.250000000000001
40
0.250000000000001
40
0.375000000000002
40
0.375000000000002
40
0.406250000000002
40
0.406250000000002
40
0.437500000000002
40
0.437500000000002
40
0.500000000000002
40
0.500000000000002
40
0.625000000000002
40
0.625000000000002
40
0.750000000000001
40
0.750000000000001
40
0.812500000000001
40
0.812500000000001
40
0.843750000000001
40
0.843750000000001
40
0.875000000000001
40
0.875000000000001
40
1
40
1
40
1
40
1
41
1
10
69.056142146426
20
2.50619925481104
30
0
41
1
10
69.0640857461004
20
2.31389110246985
30
0
41
1
10
69.0719050873453
20
2.11898843107761
30
0
41
1
10
69.0875664003534
20
1.72422007919044
30
0
41
1
10
69.0954181891129
20
1.52435376877915
30
0
41
1
10
69.1112255891655
20
1.11969573036831
30
0
41
1
10
69.1191794981224
20
0.914904368485651
30
0
41
1
10
69.1292171634872
20
0.655742489304515
30
0
41
1
10
69.1312294717837
20
0.60375099229239
30
0
41
1
10
69.1352645178296
20
0.499445365998469
30
0
41
1
10
69.1372857385023
20
0.447176245591919
30
0
41
1
10
69.1433294947756
20
0.290739414465492
30
0
41
1
10
69.1473422225156
20
0.186672792555925
30
0
41
1
10
69.159302284542
20
-0.12486236560008
30
0
41
1
10
69.1671528256132
20
-0.331666162234939
30
0
41
1
10
69.1828352782917
20
-0.743540287797856
30
0
41
1
10
69.1906830910835
20
-0.948610107651916
30
0
41
1
10
69.2025443924013
20
-1.25489786055314
30
0
41
1
10
69.2065096583769
20
-1.35677394661482
30
0
41
1
10
69.2124731037832
20
-1.50925183172706
30
0
41
1
10
69.2144634953585
20
-1.56002171600556
30
0
41
1
10
69.2184489738653
20
-1.66144778329328
30
0
41
1
10
69.2204397971919
20
-1.71200417783405
30
0
41
1
10
69.2303769581753
20
-1.96361899020283
30
0
41
1
10
69.2382992070533
20
-2.16158164665927
30
0
41
1
10
69.2462917344726
20
-2.3562373690981
30
0
0
SPLINE
5
E3
100
AcDbEntity
8
1
62
256
6
ByLayer
370
13
48
1
60
0
100
AcDbSpline
70
4
71
3
72
11
73
7
40
0
40
0
40
0
40
0
40
0.218190433531728
40
0.495098286578143
40
0.772006139624558
40
1
40
1
40
1
40
1
41
1
10
68.7539129236063
20
-1.85337906084479
30
0
41
1
10
68.7405731334365
20
-1.52131483721638
30
0
41
1
10
68.710303672655
20
-0.748120685401858
30
0
41
1
10
68.6631043207806
20
0.488856072358402
30
0
41
1
10
68.6153057782854
20
1.72099293625004
30
0
41
1
10
68.5844369235818
20
2.47179024427788
30
0
41
1
10
68.5704977488177
20
2.79650393348498
30
0
0
SPLINE
5
E4
100
AcDbEntity
8
1
62
256
6
ByLayer
370
13
48
1
60
0
100
AcDbSpline
70
4
71
3
72
11
73
7
40
0
40
0
40
0
40
0
40
0.266629030605586
40
0.61985929721541
40
0.973089563825235
40
1
40
1
40
1
40
1
41
1
10
65.4684680618684
20
4.85002312424336
30
0
41
1
10
65.4847529407666
20
4.5838132132703
30
0
41
1
10
65.5226120273545
20
3.88626259649982
30
0
41
1
10
65.5820453115797
20
2.55551936595697
30
0
41
1
10
65.6268373588709
20
1.4233703232718
30
0
41
1
10
65.6500551794728
20
0.823575812791319
30
0
41
1
10
65.6516987858157
20
0.781060190385347
30
0
0
SPLINE
5
E5
100
AcDbEntity
8
1
62
256
6
ByLayer
370
18
48
1
60
0
100
AcDbSpline
70
4
71
3
72
29
73
25
40
0
40
0
40
0
40
0
40
0.125
40
0.125
40
0.25
40
0.25
40
0.374999999999999
40
0.374999999999999
40
0.406249999999999
40
0.406249999999999
40
0.437499999999999
40
0.499999999999998
40
0.499999999999998
40
0.624999999999998
40
0.624999999999998
40
0.749999999999997
40
0.749999999999997
40
0.781249999999997
40
0.781249999999997
40
0.812499999999997
40
0.812499999999997
40
0.874999999999998
40
0.874999999999998
40
1
40
1
40
1
40
1
41
1
10
65.1525953775497
20
1.15161554261746
30
0
41
1
10
65.1443795018366
20
1.39138172675192
30
0
41
1
10
65.1362063236829
20
1.62721845193494
30
0
41
1
10
65.1199552065888
20
2.09127567220943
30
0
41
1
10
65.1118771655028
20
2.31949551137211
30
0
41
1
10
65.0956800010642
20
2.76831173212781
30
0
41
1
10
65.087535119901
20
2.98890795103588
30
0
41
1
10
65.077253387297
20
3.25973368259764
30
0
41
1
10
65.07519025019
20
3.3137237940438
30
0
41
1
10
65.0710770976613
20
3.42065880830515
30
0
41
1
10
65.0649224681067
20
3.57961302997575
30
0
41
1
10
65.0588116658085
20
3.73427430514704
30
0
41
1
10
65.0466316484315
20
4.03796581019688
30
0
41
1
10
65.0385714796485
20
4.23293320659454
30
0
41
1
10
65.0223734422421
20
4.60801128164468
30
0
41
1
10
65.014218773367
20
4.78812210962852
30
0
41
1
10
65.0039838503516
20
5.00376784655384
30
0
41
1
10
65.0019345470945
20
5.04642115979814
30
0
41
1
10
64.9978306920383
20
5.13076599696677
30
0
41
1
10
64.9957733814405
20
5.17251251352883
30
0
41
1
10
64.9896128096553
20
5.29586971929712
30
0
41
1
10
64.9855291371522
20
5.37544689918849
30
0
41
1
10
64.9733219909664
20
5.60636273383432
30
0
41
1
10
64.9652376981844
20
5.74990560820717
30
0
41
1
10
64.957116119941
20
5.88323597902766
30
0
0
SPLINE
5
E6
100
AcDbEntity
8
1
62
256
6
ByLayer
370
18
48
1
60
0
100
AcDbSpline
70
4
71
3
72
32
73
28
40
0
40
0
40
0
40
0
40
0.0312499999999999
40
0.0312499999999999
40
0.0624999999999998
40
0.125
40
0.125
40
0.249999999999999
40
0.249999999999999
40
0.374999999999998
40
0.374999999999998
40
0.406249999999998
40
0.406249999999998
40
0.437499999999999
40
0.437499999999999
40
0.499999999999999
40
0.499999999999999
40
0.624999999999999
40
0.75
40
0.75
40
0.8125
40
0.8125
40
0.84375
40
0.84375
40
0.875
40
0.875
40
1
40
1
40
1
40
1
41
1
10
64.8076212850864
20
5.96275818224473
30
0
41
1
10
64.8096708758101
20
5.93001730376656
30
0
41
1
10
64.8117171910039
20
5.89665030504273
30
0
41
1
10
64.8157996500025
20
5.8287839681669
30
0
41
1
10
64.8219105585887
20
5.72523447175229
30
0
41
1
10
64.8280039129308
20
5.61649275599515
30
0
41
1
10
64.8402014442084
20
5.39218626933257
30
0
41
1
10
64.8483284157344
20
5.23356825393515
30
0
41
1
10
64.8645599556897
20
4.89826484894189
30
0
41
1
10
64.8726642008772
20
4.72158038605949
30
0
41
1
10
64.8828647108072
20
4.48913635469711
30
0
41
1
10
64.8849087027306
20
4.44206667382815
30
0
41
1
10
64.8890081465628
20
4.34675211447976
30
0
41
1
10
64.8910621825013
20
4.29853884978832
30
0
41
1
10
64.8972121435178
20
4.15297240492512
30
0
41
1
10
64.9013067064154
20
4.05442778402124
30
0
41
1
10
64.9135597377102
20
3.75437810269733
30
0
41
1
10
64.9298061721578
20
3.34255862389495
30
0
41
1
10
64.9459464247693
20
2.9075734345127
30
0
41
1
10
64.9581547186959
20
2.57250533799106
30
0
41
1
10
64.9622462729034
20
2.45934177107066
30
0
41
1
10
64.9684158079002
20
2.28733968268406
30
0
41
1
10
64.9704792127382
20
2.22957703413715
30
0
41
1
10
64.9745922260954
20
2.11394725866364
30
0
41
1
10
64.9766444319328
20
2.05600817198527
30
0
41
1
10
64.9868839406133
20
1.76569853617761
30
0
41
1
10
64.9950010549753
20
1.53149010576899
30
0
41
1
10
65.0030891932773
20
1.29536877401955
30
0
0
SPLINE
5
E7
100
AcDbEntity
8
1
62
256
6
ByLayer
370
13
48
1
60
0
100
AcDbSpline
70
4
71
3
72
11
73
7
40
0
40
0
40
0
40
0
40
0.18120264746735
40
0.534682879380447
40
0.888163111293543
40
1
40
1
40
1
40
1
41
1
10
64.3056419520715
20
5.40961092240889
30
0
41
1
10
64.3167014250269
20
5.26694905988904
30
0
41
1
10
64.3493351137583
20
4.79476016532806
30
0
41
1
10
64.4035430220418
20
3.77942812292252
30
0
41
1
10
64.4535172755312
20
2.63026410365265
30
0
41
1
10
64.4819173150489
20
1.92882950978577
30
0
41
1
10
64.488743137576
20
1.75808835203486
30
0
0
SPLINE
5
E8
100
AcDbEntity
8
1
62
256
6
ByLayer
370
13
48
1
60
0
100
AcDbSpline
70
4
71
3
72
12
73
8
40
0
40
0
40
0
40
0
40
0.0685918206733152
40
0.345650681977476
40
0.622709543281637
40
0.899768404585797
40
1
40
1
40
1
40
1
41
1
10
67.2027952140112
20
-0.548319586991767
30
0
41
1
10
67.1986039044184
20
-0.439466414104146
30
0
41
1
10
67.1774828821733
20
0.11034147645114
30
0
41
1
10
67.1394321264975
20
1.10554100718687
30
0
41
1
10
67.0886431337373
20
2.38420052165179
30
0
41
1
10
67.0486589853322
20
3.30604735153477
30
0
41
1
10
67.0256046144063
20
3.78806823760129
30
0
41
1
10
67.0194799551901
20
3.91226863730162
30
0
0
SPLINE
5
E9
100
AcDbEntity
8
1
62
256
6
ByLayer
370
18
48
1
60
0
100
AcDbSpline
70
4
71
3
72
29
73
25
40
0
40
0
40
0
40
0
40
0.125
40
0.125
40
0.1875
40
0.1875
40
0.21875
40
0.21875
40
0.25
40
0.25
40
0.375
40
0.375
40
0.5
40
0.5
40
0.624999999999999
40
0.624999999999999
40
0.656249999999999
40
0.656249999999999
40
0.687499999999999
40
0.749999999999999
40
0.749999999999999
40
0.875
40
0.875
40
1
40
1
40
1
40
1
41
1
10
66.703704443817
20
-0.356833585469559
30
0
41
1
10
66.6956020004023
20
-0.116844522791297
30
0
41
1
10
66.687475208355
20
0.123610405464319
30
0
41
1
10
66.6752511735799
20
0.485000040229465
30
0
41
1
10
66.6711702196625
20
0.605581331134999
30
0
41
1
10
66.6650302499673
20
0.786633268728195
30
0
41
1
10
66.6629804271514
20
0.847013927706456
30
0
41
1
10
66.6588719760043
20
0.967835914441565
30
0
41
1
10
66.6568198488241
20
1.02808576905923
30
0
41
1
10
66.646580666409
20
1.32799612804129
30
0
41
1
10
66.6384253465849
20
1.56420941887015
30
0
41
1
10
66.6221823514471
20
2.0294173443871
30
0
41
1
10
66.6140994011013
20
2.25841161264941
30
0
41
1
10
66.5978808023339
20
2.7091577381141
30
0
41
1
10
66.5897221230574
20
2.93090958623384
30
0
41
1
10
66.5794422141861
20
3.20341478467569
30
0
41
1
10
66.5773838036226
20
3.25764103163175
30
0
41
1
10
66.5732819954156
20
3.36499979760481
30
0
41
1
10
66.5671430515194
20
3.52462607288689
30
0
41
1
10
66.5610391238582
20
3.68006453235054
30
0
41
1
10
66.5488496773481
20
3.98544113950197
30
0
41
1
10
66.5407298532371
20
4.18170534342374
30
0
41
1
10
66.5244704704264
20
4.55968979830493
30
0
41
1
10
66.5163435534864
20
4.74141105372127
30
0
41
1
10
66.5081700260866
20
4.91567813056804
30
0
0
SPLINE
5
EA
100
AcDbEntity
8
1
62
256
6
ByLayer
370
13
48
1
60
0
100
AcDbSpline
70
4
71
3
72
12
73
8
40
0
40
0
40
0
40
0
40
0.141093821476438
40
0.418116187815013
40
0.695138554153589
40
0.972160920492164
40
1
40
1
40
1
40
1
41
1
10
67.5909304584063
20
-0.879135723451412
30
0
41
1
10
67.5823077797266
20
-0.656560165341489
30
0
41
1
10
67.556755409843
20
0.0081062734603279
30
0
41
1
10
67.5142733492556
20
1.11910654949011
30
0
41
1
10
67.4634842721635
20
2.39686363413784
30
0
41
1
10
67.4279235582824
20
3.21584769950314
30
0
41
1
10
67.4092925342048
20
3.61247174467914
30
0
41
1
10
67.4075912021079
20
3.64841195590159
30
0
0
SPLINE
5
EB
100
AcDbEntity
8
1
62
256
6
ByLayer
370
18
48
1
60
0
100
AcDbSpline
70
4
71
3
72
28
73
24
40
0
40
0
40
0
40
0
40
0.125
40
0.125
40
0.25
40
0.25
40
0.3125
40
0.3125
40
0.375
40
0.375
40
0.500000000000001
40
0.500000000000001
40
0.625000000000001
40
0.625000000000001
40
0.687500000000001
40
0.687500000000001
40
0.718750000000001
40
0.718750000000001
40
0.75
40
0.75
40
0.875
40
0.875
40
1
40
1
40
1
40
1
41
1
10
66.3587018976046
20
5.01939409325635
30
0
41
1
10
66.3668258273543
20
4.84942180712909
30
0
41
1
10
66.3748928256802
20
4.67146917358406
30
0
41
1
10
66.3911266562574
20
4.29978397436381
30
0
41
1
10
66.3992825025185
20
4.1060515939399
30
0
41
1
10
66.4115512323536
20
3.8033752595733
30
0
41
1
10
66.4156478117318
20
3.70046631216556
30
0
41
1
10
66.4238660598591
20
3.4905244259327
30
0
41
1
10
66.4279519900169
20
3.38440592338483
30
0
41
1
10
66.4401706541776
20
3.06272215853412
30
0
41
1
10
66.4482806566227
20
2.84382069855153
30
0
41
1
10
66.4645517596271
20
2.39730958603633
30
0
41
1
10
66.4726844306998
20
2.16969884426066
30
0
41
1
10
66.4848952504814
20
1.82167834344267
30
0
41
1
10
66.4889686527321
20
1.70456869900792
30
0
41
1
10
66.4950963997682
20
1.52722144274131
30
0
41
1
10
66.4971420014109
20
1.46782508429661
30
0
41
1
10
66.5012423812451
20
1.34846461977423
30
0
41
1
10
66.5032939672145
20
1.28859323379876
30
0
41
1
10
66.5135268899913
20
0.989484248151342
30
0
41
1
10
66.5216933495484
20
0.749858218959645
30
0
41
1
10
66.5379688353188
20
0.269947732982018
30
0
41
1
10
66.5460697730007
20
0.0296629522590877
30
0
41
1
10
66.5541739077333
20
-0.210950581373538
30
0
0
SPLINE
5
EC
100
AcDbEntity
8
1
62
256
6
ByLayer
370
13
48
1
60
0
100
AcDbSpline
70
4
71
3
72
11
73
7
40
0
40
0
40
0
40
0
40
0.194068758489796
40
0.547325973393865
40
0.900583188297934
40
1
40
1
40
1
40
1
41
1
10
65.8566073182915
20
4.63439115500978
30
0
41
1
10
65.8684595366979
20
4.42806906067608
30
0
41
1
10
65.9018859732598
20
3.79800788453642
30
0
41
1
10
65.9568866217217
20
2.56820183645385
30
0
41
1
10
66.0061066646728
20
1.32491129537843
30
0
41
1
10
66.0337524908732
20
0.607959474543406
30
0
41
1
10
66.0398241003243
20
0.450064528072176
30
0
0
SPLINE
5
ED
100
AcDbEntity
8
1
62
256
6
ByLayer
370
18
48
1
60
0
100
AcDbSpline
70
4
71
3
72
10
73
6
40
0
40
0
40
0
40
0
40
0.5
40
0.5
40
1
40
1
40
1
40
1
41
1
10
67.4075912021079
20
3.64841195590162
30
0
41
1
10
67.4596259844695
20
3.6747401488451
30
0
41
1
10
67.5114750755278
20
3.699298719507
30
0
41
1
10
67.614835779405
20
3.74479671254622
30
0
41
1
10
67.6663660267573
20
3.765751018896
30
0
41
1
10
67.7176956188357
20
3.78488133868211
30
0
0
SPLINE
5
EE
100
AcDbEntity
8
1
62
256
6
ByLayer
370
18
48
1
60
0
100
AcDbSpline
70
4
71
3
72
8
73
4
40
0
40
0
40
0
40
0
40
1
40
1
40
1
40
1
41
1
10
68.3578678521755
20
3.17249844654543
30
0
41
1
10
68.4284287104231
20
3.04530038745594
30
0
41
1
10
68.4992744215301
20
2.91993619484197
30
0
41
1
10
68.5704977488177
20
2.79650393348496
30
0
0
SPLINE
5
EF
100
AcDbEntity
8
1
62
256
6
ByLayer
370
18
48
1
60
0
100
AcDbSpline
70
4
71
3
72
32
73
28
40
0
40
0
40
0
40
0
40
0.124999999999995
40
0.124999999999995
40
0.18749999999997
40
0.18749999999997
40
0.249999999999945
40
0.249999999999945
40
0.374999999999945
40
0.374999999999945
40
0.437499999999972
40
0.437499999999972
40
0.5
40
0.5
40
0.624999999999998
40
0.624999999999998
40
0.687499999999999
40
0.687499999999999
40
0.749999999999999
40
0.749999999999999
40
0.812499999999999
40
0.812499999999999
40
0.874999999999999
40
0.874999999999999
40
0.9375
40
0.9375
40
1
40
1
40
1
40
1
41
1
10
68.5704977488177
20
2.79650393348498
30
0
41
1
10
68.5813135776468
20
2.77775976269629
30
0
41
1
10
68.5939403340107
20
2.75927113145667
30
0
41
1
10
68.614911211612
20
2.73183462875312
30
0
41
1
10
68.6222488209124
20
2.72273954822967
30
0
41
1
10
68.6375795532438
20
2.70464416856677
30
0
41
1
10
68.6454928948707
20
2.69574049705065
30
0
41
1
10
68.6696843356929
20
2.66966711834738
30
0
41
1
10
68.6865033457912
20
2.65301462959221
30
0
41
1
10
68.7126764299688
20
2.62903432027255
30
0
41
1
10
68.7215985357103
20
2.6211770617804
30
0
41
1
10
68.7395736879708
20
2.60596542372397
30
0
41
1
10
68.7485923510714
20
2.5986370647459
30
0
41
1
10
68.7757317121785
20
2.57746548569611
30
0
41
1
10
68.7939347523227
20
2.56442254020462
30
0
41
1
10
68.8213847993198
20
2.54660828554154
30
0
41
1
10
68.8305967789082
20
2.54094603032942
30
0
41
1
10
68.8486861194206
20
2.53049417180546
30
0
41
1
10
68.857601479238
20
2.52567715184216
30
0
41
1
10
68.8751459976351
20
2.51692322339147
30
0
41
1
10
68.8837754777662
20
2.51298533063408
30
0
41
1
10
68.90070125245
20
2.50611389795577
30
0
41
1
10
68.9089779373891
20
2.50319624971271
30
0
41
1
10
68.9246520199213
20
2.49868278527987
30
0
41
1
10
68.932109980045
20
2.497059431065
30
0
41
1
10
68.9461447777239
20
2.4952862441977
30
0
41
1
10
68.9527298311877
20
2.49514799420862
30
0
41
1
10
68.9586046918956
20
2.49589699236097
30
0
0
SPLINE
5
F0
100
AcDbEntity
8
1
62
256
6
ByLayer
370
18
48
1
60
0
100
AcDbSpline
70
4
71
3
72
8
73
4
40
0
40
0
40
0
40
0
40
1
40
1
40
1
40
1
41
1
10
68.9586046918983
20
2.49589699236694
30
0
41
1
10
68.9911877384185
20
2.50005107241506
30
0
41
1
10
69.0236988693572
20
2.50348808861074
30
0
41
1
10
69.056142146426
20
2.50619925481104
30
0
0
SPLINE
5
F1
100
AcDbEntity
8
1
62
256
6
ByLayer
370
18
48
1
60
0
100
AcDbSpline
70
4
71
3
72
12
73
8
40
0
40
0
40
0
40
0
40
0.499999999999992
40
0.499999999999992
40
0.749999999999996
40
0.749999999999996
40
1
40
1
40
1
40
1
41
1
10
69.056142146426
20
2.50619925481104
30
0
41
1
10
69.2771749948245
20
2.29616712037608
30
0
41
1
10
69.4992857007489
20
2.08620999267177
30
0
41
1
10
69.8345557677614
20
1.77194410602078
30
0
41
1
10
69.9467013396894
20
1.66733790502897
30
0
41
1
10
70.1722038603543
20
1.45886854908039
30
0
41
1
10
70.2856119117756
20
1.35505658323572
30
0
41
1
10
70.3999998677713
20
1.25200037542842
30
0
0
SPLINE
5
F2
100
AcDbEntity
8
1
62
256
6
ByLayer
370
18
48
1
60
0
100
AcDbSpline
70
4
71
3
72
14
73
10
40
0
40
0
40
0
40
0
40
0.25
40
0.25
40
0.5
40
0.5
40
0.75
40
0.75
40
1
40
1
40
1
40
1
41
1
10
70.3999998677713
20
1.25200037542842
30
0
41
1
10
70.4478695859524
20
1.19739138539575
30
0
41
1
10
70.4962149125982
20
1.14422891765139
30
0
41
1
10
70.5939866726168
20
1.04091819735044
30
0
41
1
10
70.643442722248
20
0.990739030708994
30
0
41
1
10
70.7434493405448
20
0.89373386357164
30
0
41
1
10
70.7939927937014
20
0.846919585432147
30
0
41
1
10
70.8962145583716
20
0.756957359220706
30
0
41
1
10
70.9478741661699
20
0.71393812803808
30
0
41
1
10
71.0000000000001
20
0.672554603816593
30
0
0
SPLINE
5
F3
100
AcDbEntity
8
1
62
256
6
ByLayer
370
18
48
1
60
0
100
AcDbSpline
70
4
71
3
72
60
73
56
40
0
40
0
40
0
40
0
40
0.0176647792171135
40
0.0176647792171135
40
0.0831537939359729
40
0.0831537939359729
40
0.0995260476156879
40
0.0995260476156879
40
0.115898301295403
40
0.148642808654833
40
0.148642808654833
40
0.214131823373692
40
0.214131823373692
40
0.279620838092551
40
0.279620838092551
40
0.295993091772266
40
0.295993091772266
40
0.312365345451981
40
0.312365345451981
40
0.34510985281141
40
0.34510985281141
40
0.410598867530269
40
0.410598867530269
40
0.476087882249128
40
0.476087882249128
40
0.508832389608558
40
0.508832389608558
40
0.541576896967988
40
0.541576896967988
40
0.607065911686847
40
0.607065911686847
40
0.672554926405706
40
0.672554926405706
40
0.738043941124565
40
0.738043941124565
40
0.75441619480428
40
0.75441619480428
40
0.770788448483995
40
0.803532955843424
40
0.803532955843424
40
0.869021970562282
40
0.869021970562282
40
0.901766477921711
40
0.901766477921711
40
0.918138731601426
40
0.918138731601426
40
0.934510985281141
40
0.934510985281141
40
0.950883238960856
40
0.950883238960856
40
0.959069365800713
40
0.959069365800713
40
0.96725549264057
40
0.96725549264057
40
1
40
1
40
1
40
1
41
1
10
70.9999999999999
20
0.66640326057211
30
0
41
1
10
71.0000000000001
20
0.667290483326326
30
0
41
1
10
71.0000000000001
20
0.668790235234724
30
0
41
1
10
71.0000000000001
20
0.678722933695497
30
0
41
1
10
71.0000000000001
20
0.694895003893549
30
0
41
1
10
71.0000000000001
20
0.725549840417187
30
0
41
1
10
71
20
0.732210976621957
30
0
41
1
10
70.9999999999999
20
0.746528767164023
30
0
41
1
10
71.0000000000001
20
0.769514168923195
30
0
41
1
10
71
20
0.796963057795836
30
0
41
1
10
70.9999999999999
20
0.857724845371138
30
0
41
1
10
71.0000000000001
20
0.906034966358135
30
0
41
1
10
71
20
1.01812575863681
30
0
41
1
10
70.9999999999999
20
1.08190334161711
30
0
41
1
10
70.9999999999999
20
1.17152076799729
30
0
41
1
10
70.9999999999999
20
1.18994032672427
30
0
41
1
10
70.9999999999999
20
1.22778030373288
30
0
41
1
10
71.0000000000001
20
1.24722963924742
30
0
41
1
10
71.0000000000001
20
1.30685666660267
30
0
41
1
10
71.0000000000001
20
1.3482785273894
30
0
41
1
10
71.0000000000001
20
1.47746055976117
30
0
41
1
10
71
20
1.57010691786044
30
0
41
1
10
70.9999999999999
20
1.76823852419972
30
0
41
1
10
71
20
1.8737100420818
30
0
41
1
10
71
20
2.04166329395099
30
0
41
1
10
71
20
2.0992713692529
30
0
41
1
10
71.0000000000001
20
2.21779727392473
30
0
41
1
10
71.0000000000001
20
2.27885187074929
30
0
41
1
10
71.0000000000001
20
2.46500708947192
30
0
41
1
10
71
20
2.5936194187745
30
0
41
1
10
71
20
2.85961257196979
30
0
41
1
10
71
20
2.99699282111823
30
0
41
1
10
71
20
3.28053785301205
30
0
41
1
10
70.9999999999999
20
3.42670423740461
30
0
41
1
10
70.9999999999999
20
3.61508408360825
30
0
41
1
10
70.9999999999999
20
3.65301217035557
30
0
41
1
10
70.9999999999999
20
3.72899849040289
30
0
41
1
10
71.0000000000001
20
3.84332877511449
30
0
41
1
10
70.9999999999999
20
3.95869587401077
30
0
41
1
10
70.9999999999999
20
4.19079041569213
30
0
41
1
10
71
20
4.34733478689981
30
0
41
1
10
71
20
4.58484148527486
30
0
41
1
10
71
20
4.66445897955751
30
0
41
1
10
71.0000000000001
20
4.78456639294717
30
0
41
1
10
71.0000000000001
20
4.82468544984354
30
0
41
1
10
71.0000000000001
20
4.90531238430876
30
0
41
1
10
71
20
4.94583795218784
30
0
41
1
10
70.9999999999999
20
5.02732200194404
30
0
41
1
10
71.0000000000001
20
5.06827649640323
30
0
41
1
10
71.0000000000001
20
5.13003368629785
30
0
41
1
10
70.9999999999999
20
5.15067389160038
30
0
41
1
10
71
20
5.19206527380061
30
0
41
1
10
71
20
5.21277439639229
30
0
41
1
10
70.9999999999999
20
5.31587932571267
30
0
41
1
10
71.0000000000001
20
5.39743573139612
30
0
41
1
10
71.0000000000001
20
5.47811526052766
30
0
0
SPLINE
5
F4
100
AcDbEntity
8
1
62
256
6
ByLayer
370
18
48
1
60
0
100
AcDbSpline
70
4
71
3
72
14
73
10
40
0
40
0
40
0
40
0
40
0.499999999999985
40
0.499999999999985
40
0.749999999999978
40
0.749999999999978
40
0.874999999999989
40
0.874999999999989
40
1
40
1
40
1
40
1
41
1
10
71.0000000000001
20
5.47811526052735
30
0
41
1
10
70.9017718715273
20
5.57982036942039
30
0
41
1
10
70.8026550807982
20
5.68108121676562
30
0
41
1
10
70.6526469191659
20
5.83270390716842
30
0
41
1
10
70.6024246638032
20
5.88319788199976
30
0
41
1
10
70.5267615422232
20
5.95892028512776
30
0
41
1
10
70.501486106921
20
5.98415742115137
30
0
41
1
10
70.4508253656565
20
6.03463403595234
30
0
41
1
10
70.4254299145544
20
6.05988413850483
30
0
41
1
10
70.4000000540553
20
6.08511821671561
30
0
0
SPLINE
5
F5
100
AcDbEntity
8
1
62
256
6
ByLayer
370
18
48
1
60
0
100
AcDbSpline
70
4
71
3
72
8
73
4
40
0
40
0
40
0
40
0
40
1
40
1
40
1
40
1
41
1
10
70.4000000540553
20
6.08511821671561
30
0
41
1
10
70.3056631216681
20
6.11055400688764
30
0
41
1
10
70.2116182915605
20
6.13460434304255
30
0
41
1
10
70.1178447661474
20
6.15724877420323
30
0
0
SPLINE
5
F6
100
AcDbEntity
8
1
62
256
6
ByLayer
370
18
48
1
60
0
100
AcDbSpline
70
4
71
3
72
30
73
26
40
0
40
0
40
0
40
0
40
0.124999999999948
40
0.124999999999948
40
0.249999999999896
40
0.249999999999896
40
0.31249999999987
40
0.31249999999987
40
0.374999999999844
40
0.374999999999844
40
0.49999999999986
40
0.49999999999986
40
0.562499999999902
40
0.562499999999902
40
0.624999999999944
40
0.624999999999944
40
0.749999999999961
40
0.749999999999961
40
0.812499999999971
40
0.812499999999971
40
0.874999999999981
40
0.874999999999981
40
0.93749999999999
40
0.93749999999999
40
1
40
1
40
1
40
1
41
1
10
70.1178447661474
20
6.15724877420325
30
0
41
1
10
70.1058754970222
20
6.14799320220115
30
0
41
1
10
70.093335280366
20
6.14007020939025
30
0
41
1
10
70.0672317557057
20
6.12662879092605
30
0
41
1
10
70.0536674869471
20
6.12111268008834
30
0
41
1
10
70.0325553638788
20
6.11467071601649
30
0
41
1
10
70.0253831025321
20
6.11283269282336
30
0
41
1
10
70.011001296189
20
6.10983761548866
30
0
41
1
10
70.0037648737936
20
6.10867128687786
30
0
41
1
10
69.9819225772649
20
6.10617333838394
30
0
41
1
10
69.9671849478904
20
6.10583138610454
30
0
41
1
10
69.9448072129412
20
6.10751451372678
30
0
41
1
10
69.9373024637039
20
6.10844408710767
30
0
41
1
10
69.9221961911417
20
6.11111714217279
30
0
41
1
10
69.9146352621707
20
6.11285701901303
30
0
41
1
10
69.8922208952301
20
6.11930213514611
30
0
41
1
10
69.8775216142853
20
6.1252261958945
30
0
41
1
10
69.8559474432456
20
6.13713817416672
30
0
41
1
10
69.8488296878469
20
6.14163282790011
30
0
41
1
10
69.8351379090103
20
6.15154771946445
30
0
41
1
10
69.828519794771
20
6.15698878589339
30
0
41
1
10
69.8157953489103
20
6.168953511371
30
0
41
1
10
69.8096541559704
20
6.17551956711694
30
0
41
1
10
69.7981456303493
20
6.1897166277133
30
0
41
1
10
69.7928091767342
20
6.19729740173403
30
0
41
1
10
69.7879360134277
20
6.2054139244963
30
0
0
SPLINE
5
F7
100
AcDbEntity
8
1
62
256
6
ByLayer
370
18
48
1
60
0
100
AcDbSpline
70
4
71
3
72
8
73
4
40
0
40
0
40
0
40
0
40
1
40
1
40
1
40
1
41
1
10
69.7879360134272
20
6.20541392449601
30
0
41
1
10
69.7820085671604
20
6.21528641378475
30
0
41
1
10
69.7760828802623
20
6.2251517615388
30
0
41
1
10
69.7701589276489
20
6.23500995633688
30
0
0
SPLINE
5
F8
100
AcDbEntity
8
1
62
256
6
ByLayer
370
18
48
1
60
0
100
AcDbSpline
70
4
71
3
72
12
73
8
40
0
40
0
40
0
40
0
40
0.25
40
0.25
40
0.5
40
0.5
40
1
40
1
40
1
40
1
41
1
10
69.7701589276489
20
6.23500995633685
30
0
41
1
10
69.6886930101429
20
6.25176349205736
30
0
41
1
10
69.607368598594
20
6.26744453571339
30
0
41
1
10
69.4450286464649
20
6.29660538860742
30
0
41
1
10
69.3640214961547
20
6.31008064628887
30
0
41
1
10
69.1219082361042
20
6.34706759221609
30
0
41
1
10
68.9615466638716
20
6.36717490677091
30
0
41
1
10
68.8020831029661
20
6.38261619895704
30
0
0
SPLINE
5
F9
100
AcDbEntity
8
1
62
256
6
ByLayer
370
18
48
1
60
0
100
AcDbSpline
70
4
71
3
72
8
73
4
40
0
40
0
40
0
40
0
40
1
40
1
40
1
40
1
41
1
10
68.8020831029661
20
6.38261619895709
30
0
41
1
10
68.7432258719989
20
6.27205716784846
30
0
41
1
10
68.6842167395513
20
6.16040871966874
30
0
41
1
10
68.6250220530102
20
6.04767510755173
30
0
0
SPLINE
5
FA
100
AcDbEntity
8
1
62
256
6
ByLayer
370
18
48
1
60
0
100
AcDbSpline
70
4
71
3
72
32
73
28
40
0
40
0
40
0
40
0
40
0.125000000000006
40
0.125000000000006
40
0.187500000000007
40
0.187500000000007
40
0.250000000000008
40
0.250000000000008
40
0.375000000000008
40
0.375000000000008
40
0.437500000000007
40
0.437500000000007
40
0.500000000000006
40
0.500000000000006
40
0.625000000000005
40
0.625000000000005
40
0.687500000000004
40
0.687500000000004
40
0.750000000000003
40
0.750000000000003
40
0.812500000000002
40
0.812500000000002
40
0.875000000000002
40
0.875000000000002
40
0.937500000000001
40
0.937500000000001
40
1
40
1
40
1
40
1
41
1
10
68.6250220530102
20
6.0476751075517
30
0
41
1
10
68.614591903335
20
6.02781135766932
30
0
41
1
10
68.6024225514936
20
6.01000698526002
30
0
41
1
10
68.5821210709523
20
5.98570901418674
30
0
41
1
10
68.57496919526
20
5.97798748483757
30
0
41
1
10
68.5602335137905
20
5.96355167623679
30
0
41
1
10
68.5526437412834
20
5.95682170145093
30
0
41
1
10
68.5292606378632
20
5.9379851770247
30
0
41
1
10
68.512860713521
20
5.92721455582461
30
0
41
1
10
68.487090103903
20
5.91368139138976
30
0
41
1
10
68.478273377977
20
5.90960448012913
30
0
41
1
10
68.4605607829115
20
5.90249835429108
30
0
41
1
10
68.4516317866192
20
5.89944830254046
30
0
41
1
10
68.4246327954063
20
5.89182270535861
30
0
41
1
10
68.4063542664459
20
5.88874236817261
30
0
41
1
10
68.3784875626152
20
5.88762987551448
30
0
41
1
10
68.3691141894496
20
5.88786037879518
30
0
41
1
10
68.3506452866438
20
5.88962379177849
30
0
41
1
10
68.341497478122
20
5.8911511172723
30
0
41
1
10
68.3234012245363
20
5.89564258326723
30
0
41
1
10
68.3144415000436
20
5.8986091904822
30
0
41
1
10
68.2968093107316
20
5.90622535453551
30
0
41
1
10
68.2883118255573
20
5.91079866328255
30
0
41
1
10
68.2720329448396
20
5.92165389529836
30
0
41
1
10
68.2642346945966
20
5.92794745069867
30
0
41
1
10
68.2495653165274
20
5.94253146868951
30
0
41
1
10
68.2428483694203
20
5.95066501399256
30
0
41
1
10
68.2368309458846
20
5.95975421104652
30
0
0
SPLINE
5
FB
100
AcDbEntity
8
1
62
256
6
ByLayer
370
18
48
1
60
0
100
AcDbSpline
70
4
71
3
72
8
73
4
40
0
40
0
40
0
40
0
40
1
40
1
40
1
40
1
41
1
10
68.2368309458846
20
5.95975421104652
30
0
41
1
10
68.1327433323433
20
6.11697645487558
30
0
41
1
10
68.0291932861584
20
6.27049926712257
30
0
41
1
10
67.9262232729805
20
6.42007014379004
30
0
0
SPLINE
5
FC
100
AcDbEntity
8
1
62
256
6
ByLayer
370
18
48
1
60
0
100
AcDbSpline
70
4
71
3
72
10
73
6
40
0
40
0
40
0
40
0
40
0.5
40
0.5
40
1
40
1
40
1
40
1
41
1
10
67.9262232729805
20
6.42007014379007
30
0
41
1
10
67.8497423715008
20
6.41915216153245
30
0
41
1
10
67.773326646517
20
6.41711366818379
30
0
41
1
10
67.6208488999854
20
6.41075035987618
30
0
41
1
10
67.544891133278
20
6.40643449676759
30
0
41
1
10
67.4691879333004
20
6.4009915641852
30
0
0
SPLINE
5
FD
100
AcDbEntity
8
1
62
256
6
ByLayer
370
18
48
1
60
0
100
AcDbSpline
70
4
71
3
72
10
73
6
40
0
40
0
40
0
40
0
40
0.5
40
0.5
40
1
40
1
40
1
40
1
41
1
10
67.4691879333004
20
6.40099156418518
30
0
41
1
10
67.4037645061941
20
6.26849245487884
30
0
41
1
10
67.3380838319683
20
6.13506270260933
30
0
41
1
10
67.2063187666697
20
5.86678614894663
30
0
41
1
10
67.1402379564867
20
5.73194690103026
30
0
41
1
10
67.0739123768175
20
5.59642004231191
30
0
0
SPLINE
5
FE
100
AcDbEntity
8
1
62
256
6
ByLayer
370
18
48
1
60
0
100
AcDbSpline
70
4
71
3
72
32
73
28
40
0
40
0
40
0
40
0
40
0.124999999999996
40
0.124999999999996
40
0.187499999999996
40
0.187499999999996
40
0.249999999999995
40
0.249999999999995
40
0.374999999999995
40
0.374999999999995
40
0.437499999999996
40
0.437499999999996
40
0.499999999999996
40
0.499999999999996
40
0.624999999999997
40
0.624999999999997
40
0.687499999999998
40
0.687499999999998
40
0.749999999999998
40
0.749999999999998
40
0.812499999999999
40
0.812499999999999
40
0.874999999999999
40
0.874999999999999
40
0.9375
40
0.9375
40
1
40
1
40
1
40
1
41
1
10
67.0739123768175
20
5.59642004231191
30
0
41
1
10
67.0634856363793
20
5.57511448591382
30
0
41
1
10
67.0513186266131
20
5.55553533670582
30
0
41
1
10
67.0310159096787
20
5.52819137881121
30
0
41
1
10
67.0238628108746
20
5.51938350324926
30
0
41
1
10
67.0091260924756
20
5.50268884399438
30
0
41
1
10
67.0015352922034
20
5.49478424547985
30
0
41
1
10
66.978147488451
20
5.47229845607865
30
0
41
1
10
66.9617423788731
20
5.45892958078735
30
0
41
1
10
66.9359600647497
20
5.44125282048822
30
0
41
1
10
66.9271407689193
20
5.43574967774657
30
0
41
1
10
66.909425193292
20
5.42575795684502
30
0
41
1
10
66.9004943398749
20
5.42124249044701
30
0
41
1
10
66.8734887402982
20
5.40915024762614
30
0
41
1
10
66.8552044410809
20
5.40299975526193
30
0
41
1
10
66.8273271136714
20
5.39711125767019
30
0
41
1
10
66.8179566480119
20
5.39572033511266
30
0
41
1
10
66.7994937852297
20
5.39424899386535
30
0
41
1
10
66.7903488730536
20
5.39415439166964
30
0
41
1
10
66.7722582663565
20
5.39539024512988
30
0
41
1
10
66.7632965108633
20
5.39672234561874
30
0
41
1
10
66.7456804102139
20
5.40105739431857
30
0
41
1
10
66.737190536876
20
5.40401817101016
30
0
41
1
10
66.7209257515516
20
5.41171028704409
30
0
41
1
10
66.7131309552372
20
5.41645284427196
30
0
41
1
10
66.6984790441493
20
5.42801411448858
30
0
41
1
10
66.6917696186949
20
5.43471163273327
30
0
41
1
10
66.6857582464567
20
5.44245095206816
30
0
0
SPLINE
5
FF
100
AcDbEntity
8
1
62
256
6
ByLayer
370
18
48
1
60
0
100
AcDbSpline
70
4
71
3
72
8
73
4
40
0
40
0
40
0
40
0
40
1
40
1
40
1
40
1
41
1
10
66.6857582464567
20
5.44245095206816
30
0
41
1
10
66.6227163536316
20
5.52361400780981
30
0
41
1
10
66.5598691590472
20
5.60290231158262
30
0
41
1
10
66.4972275976635
20
5.68027897710002
30
0
0
SPLINE
5
100
100
AcDbEntity
8
1
62
256
6
ByLayer
370
18
48
1
60
0
100
AcDbSpline
70
4
71
3
72
8
73
4
40
0
40
0
40
0
40
0
40
1
40
1
40
1
40
1
41
1
10
66.4972275976635
20
5.68027897710002
30
0
41
1
10
66.3930583045062
20
5.80895186151415
30
0
41
1
10
66.2895131055251
20
5.93226782606723
30
0
41
1
10
66.1866302777427
20
6.05005706038406
30
0
0
SPLINE
5
101
100
AcDbEntity
8
1
62
256
6
ByLayer
370
18
48
1
60
0
100
AcDbSpline
70
4
71
3
72
8
73
4
40
0
40
0
40
0
40
0
40
1
40
1
40
1
40
1
41
1
10
66.0371372385708
20
5.97308611580482
30
0
41
1
10
66.0870315464336
20
5.99919072213061
30
0
41
1
10
66.1368527044319
20
6.02485234393203
30
0
41
1
10
66.1866302777427
20
6.05005706038403
30
0
0
SPLINE
5
102
100
AcDbEntity
8
1
62
256
6
ByLayer
370
18
48
1
60
0
100
AcDbSpline
70
4
71
3
72
10
73
6
40
0
40
0
40
0
40
0
40
0.5
40
0.5
40
1
40
1
40
1
40
1
41
1
10
66.0371372385708
20
5.97308611580482
30
0
41
1
10
65.9522419667152
20
5.79307309114671
30
0
41
1
10
65.866929878663
20
5.61264377099795
30
0
41
1
10
65.6954541437577
20
5.25139112009333
30
0
41
1
10
65.6093270883182
20
5.07063418565829
30
0
41
1
10
65.5228314810088
20
4.89003780718167
30
0
0
SPLINE
5
103
100
AcDbEntity
8
1
62
256
6
ByLayer
370
18
48
1
60
0
100
AcDbSpline
70
4
71
3
72
10
73
6
40
0
40
0
40
0
40
0
40
0.962120163168668
40
0.962120163168668
40
1
40
1
40
1
40
1
41
1
10
65.5228314810088
20
4.89003780718147
30
0
41
1
10
65.5124041256782
20
4.86826626677166
30
0
41
1
10
65.5002334965526
20
4.84780990754882
30
0
41
1
10
65.4861576856544
20
4.82762131616224
30
0
41
1
10
65.4856221026644
20
4.82685795721113
30
0
41
1
10
65.4850842108445
20
4.82609606598655
30
0
0
SPLINE
5
104
100
AcDbEntity
8
1
62
256
6
ByLayer
370
18
48
1
60
0
100
AcDbSpline
70
4
71
3
72
32
73
28
40
0
40
0
40
0
40
0
40
0.013127937977987
40
0.013127937977987
40
0.0836187995509709
40
0.0836187995509709
40
0.154109661123955
40
0.154109661123955
40
0.29509138426992
40
0.29509138426992
40
0.365582245842903
40
0.365582245842903
40
0.436073107415885
40
0.436073107415885
40
0.577054830561913
40
0.577054830561913
40
0.647545692134928
40
0.647545692134928
40
0.718036553707942
40
0.718036553707942
40
0.788527415280957
40
0.788527415280957
40
0.859018276853971
40
0.859018276853971
40
0.929509138426986
40
0.929509138426986
40
1
40
1
40
1
40
1
41
1
10
60.8489763204245
20
6.1765702599624
30
0
41
1
10
60.8502506852427
20
6.1752560241676
30
0
41
1
10
60.8515371376657
20
6.17395917576656
30
0
41
1
10
60.8598059062002
20
6.16580618973126
30
0
41
1
10
60.8671232332844
20
6.15943211059897
30
0
41
1
10
60.8824127918773
20
6.14762707861564
30
0
41
1
10
60.8903053302677
20
6.14226169772965
30
0
41
1
10
60.9144408355424
20
6.1277754322131
30
0
41
1
10
60.9312284484712
20
6.12017125779076
30
0
41
1
10
60.957364766908
20
6.11164200831783
30
0
41
1
10
60.9662749744672
20
6.10927703434706
30
0
41
1
10
60.9842402271286
20
6.10558352131542
30
0
41
1
10
60.9932557127421
20
6.1042581700315
30
0
41
1
10
61.0203911665849
20
6.10182942026574
30
0
41
1
10
61.0385991409752
20
6.10224741637865
30
0
41
1
10
61.066068312484
20
6.10628432662264
30
0
41
1
10
61.0752932844906
20
6.10822047281567
30
0
41
1
10
61.0934193520096
20
6.11327552216551
30
0
41
1
10
61.1023539664895
20
6.11639356645966
30
0
41
1
10
61.1199387641358
20
6.12391063303917
30
0
41
1
10
61.1285892703615
20
6.12830820399265
30
0
41
1
10
61.1455588709268
20
6.13857411680735
30
0
41
1
10
61.1538601206074
20
6.14444732607419
30
0
41
1
10
61.1695798221225
20
6.15752730660435
30
0
41
1
10
61.1770596243665
20
6.16476548243321
30
0
41
1
10
61.1911350674226
20
6.18086717317283
30
0
41
1
10
61.1977359168673
20
6.18976141343879
30
0
41
1
10
61.2036215395422
20
6.19937080956646
30
0
0
SPLINE
5
105
100
AcDbEntity
8
1
62
256
6
ByLayer
370
18
48
1
60
0
100
AcDbSpline
70
4
71
3
72
10
73
6
40
0
40
0
40
0
40
0
40
0.5
40
0.5
40
1
40
1
40
1
40
1
41
1
10
61.2036215395455
20
6.19937080957294
30
0
41
1
10
61.2881778563787
20
6.33742504588542
30
0
41
1
10
61.3722502653713
20
6.47357345462584
30
0
41
1
10
61.5395949338841
20
6.74192067533335
30
0
41
1
10
61.6227522371368
20
6.87394063046108
30
0
41
1
10
61.7054695330554
20
7.0037478708048
30
0
0
SPLINE
5
106
100
AcDbEntity
8
1
62
256
6
ByLayer
370
18
48
1
60
0
100
AcDbSpline
70
4
71
3
72
8
73
4
40
0
40
0
40
0
40
0
40
1
40
1
40
1
40
1
41
1
10
61.8550115517236
20
6.98187595169165
30
0
41
1
10
61.8051965958038
20
6.98966359196299
30
0
41
1
10
61.7553490551255
20
6.99695412636061
30
0
41
1
10
61.7054695330555
20
7.00374787080477
30
0
0
SPLINE
5
107
100
AcDbEntity
8
1
62
256
6
ByLayer
370
18
48
1
60
0
100
AcDbSpline
70
4
71
3
72
10
73
6
40
0
40
0
40
0
40
0
40
0.5
40
0.5
40
1
40
1
40
1
40
1
41
1
10
61.8550115517236
20
6.98187595169202
30
0
41
1
10
61.9393531828562
20
6.82729529214561
30
0
41
1
10
62.0240820998054
20
6.67065874225088
30
0
41
1
10
62.1946072941257
20
6.35329230002014
30
0
41
1
10
62.280281227262
20
6.19279078322481
30
0
41
1
10
62.3665197795962
20
6.03048074058074
30
0
0
SPLINE
5
108
100
AcDbEntity
8
1
62
256
6
ByLayer
370
18
48
1
60
0
100
AcDbSpline
70
4
71
3
72
32
73
28
40
0
40
0
40
0
40
0
40
0.12500000000012
40
0.12500000000012
40
0.187500000000159
40
0.187500000000159
40
0.250000000000198
40
0.250000000000198
40
0.375000000000275
40
0.375000000000275
40
0.437500000000287
40
0.437500000000287
40
0.500000000000299
40
0.500000000000299
40
0.625000000000266
40
0.625000000000266
40
0.687500000000222
40
0.687500000000222
40
0.750000000000177
40
0.750000000000177
40
0.812500000000133
40
0.812500000000133
40
0.875000000000089
40
0.875000000000089
40
0.937500000000044
40
0.937500000000044
40
1
40
1
40
1
40
1
41
1
10
62.3665197795962
20
6.03048074058074
30
0
41
1
10
62.3773131547692
20
6.01016647118286
30
0
41
1
10
62.3899108218941
20
5.99216690198239
30
0
41
1
10
62.4108344953096
20
5.96775417592585
30
0
41
1
10
62.4181556825387
20
5.96005928533242
30
0
41
1
10
62.433452599229
20
5.94550593891617
30
0
41
1
10
62.4413479601909
20
5.93872795875674
30
0
41
1
10
62.4654914583186
20
5.9199343241045
30
0
41
1
10
62.4822829856178
20
5.90935107596258
30
0
41
1
10
62.5084228590012
20
5.89619600664403
30
0
41
1
10
62.517333962991
20
5.89225597782641
30
0
41
1
10
62.5352992901616
20
5.88538855900123
30
0
41
1
10
62.5443145380537
20
5.88247108542754
30
0
41
1
10
62.5714484517424
20
5.87524829308296
30
0
41
1
10
62.5896543226648
20
5.87244714344064
30
0
41
1
10
62.617118473215
20
5.87160566094269
30
0
41
1
10
62.626341201386
20
5.8718997273086
30
0
41
1
10
62.6444624172757
20
5.87371704232933
30
0
41
1
10
62.6533945700768
20
5.87523355378991
30
0
41
1
10
62.6709743361557
20
5.87958350893612
30
0
41
1
10
62.6796222723967
20
5.88241546450931
30
0
41
1
10
62.6965865772004
20
5.88958992302923
30
0
41
1
10
62.7048860396004
20
5.8939407679465
30
0
41
1
10
62.720602405126
20
5.90411298729504
30
0
41
1
10
62.7280806819296
20
5.90995462306975
30
0
41
1
10
62.74215339615
20
5.92339658361638
30
0
41
1
10
62.7487541530634
20
5.93102738609596
30
0
41
1
10
62.7546402690123
20
5.9394912068035
30
0
0
SPLINE
5
109
100
AcDbEntity
8
1
62
256
6
ByLayer
370
18
48
1
60
0
100
AcDbSpline
70
4
71
3
72
10
73
6
40
0
40
0
40
0
40
0
40
0.5
40
0.5
40
1
40
1
40
1
40
1
41
1
10
62.7546402690154
20
5.93949120681043
30
0
41
1
10
62.8391977367635
20
6.06107889770482
30
0
41
1
10
62.9232749629762
20
6.179867348915
30
0
41
1
10
63.0906392900055
20
6.41171681086084
30
0
41
1
10
63.1738139894923
20
6.52463521584164
30
0
41
1
10
63.2565569798962
20
6.63452158343748
30
0
0
SPLINE
5
10A
100
AcDbEntity
8
1
62
256
6
ByLayer
370
18
48
1
60
0
100
AcDbSpline
70
4
71
3
72
10
73
6
40
0
40
0
40
0
40
0
40
0.5
40
0.5
40
1
40
1
40
1
40
1
41
1
10
63.4060553856439
20
6.58266937624507
30
0
41
1
10
63.4904116341376
20
6.41510818850637
30
0
41
1
10
63.5751781937371
20
6.24654750311467
30
0
41
1
10
63.7456980598262
20
5.90762944106538
30
0
41
1
10
63.8313248386741
20
5.73750231367967
30
0
41
1
10
63.9174868836279
20
5.5667477021702
30
0
0
SPLINE
5
10B
100
AcDbEntity
8
1
62
256
6
ByLayer
370
18
48
1
60
0
100
AcDbSpline
70
4
71
3
72
32
73
28
40
0
40
0
40
0
40
0
40
0.124999999999992
40
0.124999999999992
40
0.187499999999989
40
0.187499999999989
40
0.249999999999987
40
0.249999999999987
40
0.374999999999983
40
0.374999999999983
40
0.437499999999979
40
0.437499999999979
40
0.499999999999975
40
0.499999999999975
40
0.625000000000023
40
0.625000000000023
40
0.687500000000019
40
0.687500000000019
40
0.750000000000016
40
0.750000000000016
40
0.812500000000012
40
0.812500000000012
40
0.875000000000008
40
0.875000000000008
40
0.937500000000004
40
0.937500000000004
40
1
40
1
40
1
40
1
41
1
10
63.9174868836279
20
5.5667477021702
30
0
41
1
10
63.9282923417254
20
5.54533361200305
30
0
41
1
10
63.9409037634637
20
5.5258342251509
30
0
41
1
10
63.9618462436504
20
5.49872463518594
30
0
41
1
10
63.9691734421794
20
5.49005422377431
30
0
41
1
10
63.9844814595508
20
5.4734046242653
30
0
41
1
10
63.992380547007
20
5.46551807422176
30
0
41
1
10
64.0165343739191
20
5.44325740995021
30
0
41
1
10
64.033329843688
20
5.43016590307161
30
0
41
1
10
64.0594711232678
20
5.41296545443848
30
0
41
1
10
64.068382028572
20
5.40762321428517
30
0
41
1
10
64.0863445805516
20
5.39788118375412
30
0
41
1
10
64.0953580532248
20
5.3934973182312
30
0
41
1
10
64.1224857050702
20
5.38178690300586
30
0
41
1
10
64.1406861530132
20
5.37587765544333
30
0
41
1
10
64.1681410533505
20
5.37016983122436
30
0
41
1
10
64.177360353287
20
5.36879943766803
30
0
41
1
10
64.1954755196117
20
5.36727827060986
30
0
41
1
10
64.204404948131
20
5.36711512060489
30
0
41
1
10
64.2219796938609
20
5.36808165058341
30
0
41
1
10
64.2306253339641
20
5.36920987222953
30
0
41
1
10
64.2475853306289
20
5.37294778465991
30
0
41
1
10
64.2558841365731
20
5.37556867312753
30
0
41
1
10
64.2715997512767
20
5.38235161301037
30
0
41
1
10
64.2790779811314
20
5.38652176112785
30
0
41
1
10
64.293151125861
20
5.3966747152418
30
0
41
1
10
64.2997536214384
20
5.40268599068131
30
0
41
1
10
64.3056419520685
20
5.40961092240187
30
0
0
SPLINE
5
10C
100
AcDbEntity
8
1
62
256
6
ByLayer
370
18
48
1
60
0
100
AcDbSpline
70
4
71
3
72
10
73
6
40
0
40
0
40
0
40
0
40
0.5
40
0.5
40
1
40
1
40
1
40
1
41
1
10
64.3056419520715
20
5.40961092240889
30
0
41
1
10
64.3902085427732
20
5.50906489388095
30
0
41
1
10
64.4742940617631
20
5.60494244567107
30
0
41
1
10
64.641676364931
20
5.78943648874838
30
0
41
1
10
64.724862359978
20
5.87795311457393
30
0
41
1
10
64.8076212850866
20
5.96275818224521
30
0
0
SPLINE
5
10D
100
AcDbEntity
8
1
62
256
6
ByLayer
370
18
48
1
60
0
100
AcDbSpline
70
4
71
3
72
8
73
4
40
0
40
0
40
0
40
0
40
1
40
1
40
1
40
1
41
1
10
64.9571161199489
20
5.88323597902783
30
0
41
1
10
64.9073095703339
20
5.91014335779161
30
0
41
1
10
64.8574787026347
20
5.93665168898093
30
0
41
1
10
64.8076212850869
20
5.96275818224476
30
0
0
SPLINE
5
10E
100
AcDbEntity
8
1
62
256
6
ByLayer
370
18
48
1
60
0
100
AcDbSpline
70
4
71
3
72
10
73
6
40
0
40
0
40
0
40
0
40
0.5
40
0.5
40
1
40
1
40
1
40
1
41
1
10
64.9571161199476
20
5.88323597901831
30
0
41
1
10
65.0414375097567
20
5.71051608304896
30
0
41
1
10
65.1261818011638
20
5.53792330898881
30
0
41
1
10
65.2966785205984
20
5.19322299773364
30
0
41
1
10
65.3823080604753
20
5.02134513630034
30
0
41
1
10
65.4684680618684
20
4.85002312424336
30
0
0
SPLINE
5
10F
100
AcDbEntity
8
1
62
256
6
ByLayer
370
18
48
1
60
0
100
AcDbSpline
70
4
71
3
72
32
73
28
40
0
40
0
40
0
40
0
40
0.125000000000078
40
0.125000000000078
40
0.187500000000096
40
0.187500000000096
40
0.250000000000114
40
0.250000000000114
40
0.375000000000098
40
0.375000000000098
40
0.437500000000091
40
0.437500000000091
40
0.500000000000084
40
0.500000000000084
40
0.625000000000066
40
0.625000000000066
40
0.687500000000055
40
0.687500000000055
40
0.750000000000044
40
0.750000000000044
40
0.812500000000033
40
0.812500000000033
40
0.875000000000022
40
0.875000000000022
40
0.937500000000011
40
0.937500000000011
40
1
40
1
40
1
40
1
41
1
10
65.4684680618684
20
4.85002312424336
30
0
41
1
10
65.4792802945472
20
4.82852389690575
30
0
41
1
10
65.4919023022686
20
4.80844523260555
30
0
41
1
10
65.5128648981753
20
4.77991837255868
30
0
41
1
10
65.5201995262877
20
4.77068159336628
30
0
41
1
10
65.5355237327624
20
4.75272173718625
30
0
41
1
10
65.543432152027
20
4.74409728187766
30
0
41
1
10
65.5676118777067
20
4.71942165474968
30
0
41
1
10
65.5844239614556
20
4.70444461124947
30
0
41
1
10
65.6105873726248
20
4.68402408435409
30
0
41
1
10
65.6195059169419
20
4.67753691369668
30
0
41
1
10
65.6374770633621
20
4.66539549697526
30
0
41
1
10
65.6464940180297
20
4.65976085727581
30
0
41
1
10
65.6736291646093
20
4.64414384626397
30
0
41
1
10
65.691830647152
20
4.63542718276111
30
0
41
1
10
65.7192799470971
20
4.62515673592594
30
0
41
1
10
65.7284936218416
20
4.6221992587962
30
0
41
1
10
65.746590633943
20
4.61743611075735
30
0
41
1
10
65.7555102272204
20
4.61561235658078
30
0
41
1
10
65.7730641333085
20
4.61317025860347
30
0
41
1
10
65.7816987670361
20
4.6125505560718
30
0
41
1
10
65.7986359847122
20
4.61269111922272
30
0
41
1
10
65.8069212845904
20
4.61346408159775
30
0
41
1
10
65.8226123211105
20
4.6165447419051
30
0
41
1
10
65.8300790003865
20
4.61884816679202
30
0
41
1
10
65.8441313748002
20
4.62523242988584
30
0
41
1
10
65.8507251840576
20
4.62933731636474
30
0
41
1
10
65.8566073182886
20
4.63439115500287
30
0
0
SPLINE
5
110
100
AcDbEntity
8
1
62
256
6
ByLayer
370
18
48
1
60
0
100
AcDbSpline
70
4
71
3
72
10
73
6
40
0
40
0
40
0
40
0
40
0.5
40
0.5
40
1
40
1
40
1
40
1
41
1
10
65.8566073182915
20
4.63439115500978
30
0
41
1
10
65.9412061411201
20
4.70707715345964
30
0
41
1
10
66.0253029910755
20
4.77545337390359
30
0
41
1
10
66.1927198341317
20
4.90382267845607
30
0
41
1
10
66.2759239588264
20
4.96372521781666
30
0
41
1
10
66.3587018976046
20
5.01939409325641
30
0
0
SPLINE
5
111
100
AcDbEntity
8
1
62
256
6
ByLayer
370
18
48
1
60
0
100
AcDbSpline
70
4
71
3
72
8
73
4
40
0
40
0
40
0
40
0
40
1
40
1
40
1
40
1
41
1
10
66.5081700260942
20
4.9156781305706
30
0
41
1
10
66.4583119540267
20
4.95061022683106
30
0
41
1
10
66.4084901639919
20
4.98518269495938
30
0
41
1
10
66.3587018976046
20
5.01939409325638
30
0
0
SPLINE
5
112
100
AcDbEntity
8
1
62
256
6
ByLayer
370
18
48
1
60
0
100
AcDbSpline
70
4
71
3
72
10
73
6
40
0
40
0
40
0
40
0
40
0.5
40
0.5
40
1
40
1
40
1
40
1
41
1
10
66.508170026094
20
4.91567813056048
30
0
41
1
10
66.5924628055473
20
4.74564204248057
30
0
41
1
10
66.6771777843672
20
4.57689110652768
30
0
41
1
10
66.8476673064347
20
4.24211306104152
30
0
41
1
10
66.9333039961052
20
4.07632891188575
30
0
41
1
10
67.0194799551901
20
3.91226863730162
30
0
0
SPLINE
5
113
100
AcDbEntity
8
1
62
256
6
ByLayer
370
18
48
1
60
0
100
AcDbSpline
70
4
71
3
72
32
73
28
40
0
40
0
40
0
40
0
40
0.124999999999957
40
0.124999999999957
40
0.187499999999958
40
0.187499999999958
40
0.249999999999958
40
0.249999999999958
40
0.374999999999958
40
0.374999999999958
40
0.437499999999985
40
0.437499999999985
40
0.500000000000012
40
0.500000000000012
40
0.625000000000009
40
0.625000000000009
40
0.687500000000008
40
0.687500000000008
40
0.750000000000006
40
0.750000000000006
40
0.812500000000005
40
0.812500000000005
40
0.875000000000003
40
0.875000000000003
40
0.937500000000002
40
0.937500000000002
40
1
40
1
40
1
40
1
41
1
10
67.0194799551901
20
3.91226863730162
30
0
41
1
10
67.0302923467092
20
3.89168419657852
30
0
41
1
10
67.042915103608
20
3.87195853682249
30
0
41
1
10
67.0638799730359
20
3.84333708392168
30
0
41
1
10
67.0712155589018
20
3.83396187291453
30
0
41
1
10
67.0865422063664
20
3.81552320057457
30
0
41
1
10
67.0944533539864
20
3.80655898545112
30
0
41
1
10
67.1186391521432
20
3.78060703049411
30
0
41
1
10
67.1354550792092
20
3.7644339109282
30
0
41
1
10
67.1616243570369
20
3.74173269290114
30
0
41
1
10
67.1705451433609
20
3.73439907284816
30
0
41
1
10
67.1885191238041
20
3.72041571611527
30
0
41
1
10
67.1975373553569
20
3.71378929651894
30
0
41
1
10
67.2246759058874
20
3.69498523808218
30
0
41
1
10
67.2428790615895
20
3.68386516415171
30
0
41
1
10
67.2703302305696
20
3.66951669815941
30
0
41
1
10
67.2795433263948
20
3.66511369511511
30
0
41
1
10
67.2976362628322
20
3.65734355048829
30
0
41
1
10
67.3065535583268
20
3.65395315744925
30
0
41
1
10
67.3241022821883
20
3.64823951955856
30
0
41
1
10
67.3327340319449
20
3.64591507661424
30
0
41
1
10
67.3496647697443
20
3.6424861968413
30
0
41
1
10
67.3579445513162
20
3.64139623605229
30
0
41
1
10
67.3736247100871
20
3.64067712281681
30
0
41
1
10
67.3810857549955
20
3.64103177315084
30
0
41
1
10
67.3951266672581
20
3.64340334147431
30
0
41
1
10
67.4017143610551
20
3.6454384332238
30
0
41
1
10
67.407591202105
20
3.64841195589492
30
0
0
SPLINE
5
114
100
AcDbEntity
8
1
62
256
6
ByLayer
370
18
48
1
60
0
100
AcDbSpline
70
4
71
3
72
28
73
24
40
0
40
0
40
0
40
0
40
0.125
40
0.249999999999999
40
0.249999999999999
40
0.312499999999999
40
0.312499999999999
40
0.343749999999999
40
0.343749999999999
40
0.374999999999999
40
0.374999999999999
40
0.499999999999998
40
0.499999999999998
40
0.624999999999998
40
0.624999999999998
40
0.749999999999998
40
0.749999999999998
40
0.781249999999998
40
0.781249999999998
40
0.812499999999998
40
0.874999999999999
40
0.874999999999999
40
1
40
1
40
1
40
1
41
1
10
67.7176956188357
20
3.78488133868208
30
0
41
1
10
67.7259548894783
20
3.59779823441343
30
0
41
1
10
67.7424393913348
20
3.21330952847646
30
0
41
1
10
67.758620901247
20
2.80842524994029
30
0
41
1
10
67.770736876502
20
2.49704529397417
30
0
41
1
10
67.7747746740922
20
2.39196416332649
30
0
41
1
10
67.7808471430605
20
2.23239767141757
30
0
41
1
10
67.7828739336302
20
2.17888451437432
30
0
41
1
10
67.7869356879267
20
2.07120490719953
30
0
41
1
10
67.7889734476101
20
2.01696357107653
30
0
41
1
10
67.7991447434878
20
1.74532026889483
30
0
41
1
10
67.8072360536571
20
1.52637865306627
30
0
41
1
10
67.8235004935959
20
1.08535716081755
30
0
41
1
10
67.8316848749852
20
0.86327689389006
30
0
41
1
10
67.8480944001158
20
0.415964529956
30
0
41
1
10
67.8563166093456
20
0.190732625284227
30
0
41
1
10
67.8665753315724
20
-0.0928651488733294
30
0
41
1
10
67.8686290970398
20
-0.149750235426296
30
0
41
1
10
67.872730504709
20
-0.26339811296927
30
0
41
1
10
67.8788702446299
20
-0.433590344862409
30
0
41
1
10
67.8849837398538
20
-0.602952814383713
30
0
41
1
10
67.8972006000112
20
-0.940583977766266
30
0
41
1
10
67.9053327102956
20
-1.16421695277177
30
0
41
1
10
67.9135043302107
20
-1.38638158900741
30
0
0
SPLINE
5
115
100
AcDbEntity
8
1
62
256
6
ByLayer
370
18
48
1
60
0
100
AcDbSpline
70
4
71
3
72
29
73
25
40
0
40
0
40
0
40
0
40
0.125
40
0.125
40
0.25
40
0.25
40
0.375
40
0.375
40
0.40625
40
0.40625
40
0.437500000000001
40
0.500000000000001
40
0.500000000000001
40
0.625000000000001
40
0.625000000000001
40
0.750000000000001
40
0.750000000000001
40
0.812500000000001
40
0.812500000000001
40
0.843750000000001
40
0.843750000000001
40
0.875000000000001
40
0.875000000000001
40
1
40
1
40
1
40
1
41
1
10
68.5410263521242
20
-1.86604541184587
30
0
41
1
10
68.5333167965669
20
-1.65695034265451
30
0
41
1
10
68.5257105268524
20
-1.44633917632242
30
0
41
1
10
68.5105288921023
20
-1.02219775611709
30
0
41
1
10
68.5029249551389
20
-0.808671516456172
30
0
41
1
10
68.4876344156189
20
-0.378701796176159
30
0
41
1
10
68.4799704019861
20
-0.16225669835049
30
0
41
1
10
68.4704617678898
20
0.110216505457743
30
0
41
1
10
68.4685601410998
20
0.164871723278509
30
0
41
1
10
68.4647658044594
20
0.274061627223915
30
0
41
1
10
68.4590970626935
20
0.437434833122296
30
0
41
1
10
68.4534557143035
20
0.599593683359927
30
0
41
1
10
68.4421686046361
20
0.922329598491984
30
0
41
1
10
68.4346447568003
20
1.13538270370245
30
0
41
1
10
68.419488668443
20
1.55734985586796
30
0
41
1
10
68.4118535330572
20
1.76626408116573
30
0
41
1
10
68.4002485349213
20
2.07646071027403
30
0
41
1
10
68.3963589987636
20
2.17932910846497
30
0
41
1
10
68.3905119045834
20
2.33281413453528
30
0
41
1
10
68.388559420605
20
2.38387373174336
30
0
41
1
10
68.3846697506814
20
2.48529078228097
30
0
41
1
10
68.382730972175
20
2.53569557149712
30
0
41
1
10
68.3730713983998
20
2.78620280647505
30
0
41
1
10
68.3654622563886
20
2.98176360718114
30
0
41
1
10
68.3578678521756
20
3.17249844654555
30
0
0
SPLINE
5
116
100
AcDbEntity
8
1
62
256
6
ByLayer
370
18
48
1
60
0
100
AcDbSpline
70
4
71
3
72
12
73
8
40
0
40
0
40
0
40
0
40
0.250000000000008
40
0.250000000000008
40
0.500000000000017
40
0.500000000000017
40
1
40
1
40
1
40
1
41
1
10
67.7176956188358
20
3.78488133868214
30
0
41
1
10
67.7706121714075
20
3.73444881567156
30
0
41
1
10
67.8236324233217
20
3.68379851992921
30
0
41
1
10
67.9299510253144
20
3.58210679298017
30
0
41
1
10
67.9832886636723
20
3.53104422803767
30
0
41
1
10
68.14365451104
20
3.37754418029573
30
0
41
1
10
68.2506798111116
20
3.2750663382771
30
0
41
1
10
68.3578678521754
20
3.17249844654543
30
0
0
SPLINE
5
117
100
AcDbEntity
8
1
62
256
6
ByLayer
370
18
48
1
60
0
100
AcDbSpline
70
4
71
3
72
10
73
6
40
0
40
0
40
0
40
0
40
0.5
40
0.5
40
1
40
1
40
1
40
1
41
1
10
63.0665696320276
20
-6.21938988474508
30
0
41
1
10
62.9826068421242
20
-6.36369565981201
30
0
41
1
10
62.8990050582798
20
-6.5071329664878
30
0
41
1
10
62.7325586235317
20
-6.79187551025464
30
0
41
1
10
62.6497797520629
20
-6.93306793720745
30
0
41
1
10
62.5673883980085
20
-7.07300530350545
30
0
0
SPLINE
5
118
100
AcDbEntity
8
1
62
256
6
ByLayer
370
18
48
1
60
0
100
AcDbSpline
70
4
71
3
72
8
73
4
40
0
40
0
40
0
40
0
40
1
40
1
40
1
40
1
41
1
10
62.4178649562792
20
-7.07196068176267
30
0
41
1
10
62.4677063230749
20
-7.07281211594761
30
0
41
1
10
62.5175452133183
20
-7.07316046045693
30
0
41
1
10
62.5673883980085
20
-7.07300530350545
30
0
0
SPLINE
5
119
100
AcDbEntity
8
1
62
256
6
ByLayer
370
18
48
1
60
0
100
AcDbSpline
70
4
71
3
72
8
73
4
40
0
40
0
40
0
40
0
40
1
40
1
40
1
40
1
41
1
10
55.3110868826286
20
-3.21007711288541
30
0
41
1
10
55.2960152054345
20
-3.21787338230891
30
0
41
1
10
55.2809553719061
20
-3.22551304452898
30
0
41
1
10
55.2659068752147
20
-3.23299699560732
30
0
0
SPLINE
5
11A
100
AcDbEntity
8
1
62
256
6
ByLayer
370
18
48
1
60
0
100
AcDbSpline
70
4
71
3
72
14
73
10
40
0
40
0
40
0
40
0
40
0.125656466544094
40
0.125656466544094
40
0.496120742282979
40
0.496120742282979
40
0.866585018021864
40
0.866585018021864
40
1
40
1
40
1
40
1
41
1
10
35.8568288334678
20
3.71192354155059
30
0
41
1
10
35.8796253823819
20
3.74544296269301
30
0
41
1
10
35.9020789831771
20
3.77935769821227
30
0
41
1
10
35.9891904275834
20
3.91447937040647
30
0
41
1
10
36.0512861021335
20
4.0184889800324
30
0
41
1
10
36.1662126128751
20
4.23627176448957
30
0
41
1
10
36.2195698835241
20
4.34949016686261
30
0
41
1
10
36.2866626848569
20
4.50925678039206
30
0
41
1
10
36.3039102131151
20
4.5521439691891
30
0
41
1
10
36.3205873407832
20
4.59543402901772
30
0
0
SPLINE
5
11B
100
AcDbEntity
8
1
62
256
6
ByLayer
370
18
48
1
60
0
100
AcDbSpline
70
4
71
3
72
27
73
23
40
0
40
0
40
0
40
0
40
0.125000000000013
40
0.125000000000013
40
0.250000000000026
40
0.250000000000026
40
0.375000000000039
40
0.375000000000039
40
0.437500000000036
40
0.437500000000036
40
0.500000000000033
40
0.500000000000033
40
0.625000000000028
40
0.625000000000028
40
0.750000000000022
40
0.750000000000022
40
0.781250000000021
40
0.781250000000021
40
0.81250000000002
40
0.875000000000019
40
0.875000000000019
40
1
40
1
40
1
40
1
41
1
10
53.9082362086177
20
-5.29581721343342
30
0
41
1
10
53.9665245350268
20
-5.28972270078421
30
0
41
1
10
54.0243206990542
20
-5.28672139509177
30
0
41
1
10
54.1387532034553
20
-5.28663113544167
30
0
41
1
10
54.1953815754815
20
-5.28953617963731
30
0
41
1
10
54.3073907007395
20
-5.30127790923001
30
0
41
1
10
54.3627723588153
20
-5.31011287896465
30
0
41
1
10
54.4448296006889
20
-5.32808568622266
30
0
41
1
10
54.4720688480369
20
-5.33488424182605
30
0
41
1
10
54.5257798562454
20
-5.3500250981316
30
0
41
1
10
54.5522806059087
20
-5.35836978485116
30
0
41
1
10
54.6307182916267
20
-5.38581699556187
30
0
41
1
10
54.6815971763931
20
-5.40731555150251
30
0
41
1
10
54.78039106015
20
-5.45757175181095
30
0
41
1
10
54.8283092961584
20
-5.48631495075577
30
0
41
1
10
54.8861752682178
20
-5.52781768833233
30
0
41
1
10
54.8976561684077
20
-5.53640861350345
30
0
41
1
10
54.9202522317998
20
-5.55406638169708
30
0
41
1
10
54.9536520309614
20
-5.5813049995877
30
0
41
1
10
54.985545493522
20
-5.61088599632834
30
0
41
1
10
55.0472285646495
20
-5.67348765905561
30
0
41
1
10
55.0855625580187
20
-5.71973913105438
30
0
41
1
10
55.1206717739159
20
-5.77191270833032
30
0
0
SPLINE
5
11C
100
AcDbEntity
8
1
62
256
6
ByLayer
370
18
48
1
60
0
100
AcDbSpline
70
4
71
3
72
14
73
10
40
0
40
0
40
0
40
0
40
0.125000000000005
40
0.125000000000005
40
0.25000000000001
40
0.25000000000001
40
0.500000000000017
40
0.500000000000017
40
1
40
1
40
1
40
1
41
1
10
55.1206717739159
20
-5.77191270833026
30
0
41
1
10
55.1335752450487
20
-5.79108773776545
30
0
41
1
10
55.1465128728503
20
-5.81035806873024
30
0
41
1
10
55.1723449201178
20
-5.84870880526867
30
0
41
1
10
55.1852446563909
20
-5.86780683915225
30
0
41
1
10
55.2239031080887
20
-5.92489252769536
30
0
41
1
10
55.2496236613475
20
-5.96268086946236
30
0
41
1
10
55.3266438051534
20
-6.07525671958626
30
0
41
1
10
55.3777970993605
20
-6.14923839680418
30
0
41
1
10
55.4287776530886
20
-6.2221392313034
30
0
0
SPLINE
5
11D
100
AcDbEntity
8
1
62
256
6
ByLayer
370
18
48
1
60
0
100
AcDbSpline
70
4
71
3
72
8
73
4
40
0
40
0
40
0
40
0
40
1
40
1
40
1
40
1
41
1
10
55.4287776530885
20
-6.22213923130346
30
0
41
1
10
55.5006898634254
20
-6.08205944720149
30
0
41
1
10
55.5729196876566
20
-5.94108345634038
30
0
41
1
10
55.6454910773699
20
-5.79935804181397
30
0
0
SPLINE
5
11E
100
AcDbEntity
8
1
62
256
6
ByLayer
370
18
48
1
60
0
100
AcDbSpline
70
4
71
3
72
32
73
28
40
0
40
0
40
0
40
0
40
0.125000000000057
40
0.125000000000057
40
0.187500000000065
40
0.187500000000065
40
0.250000000000074
40
0.250000000000074
40
0.375000000000091
40
0.375000000000091
40
0.437500000000099
40
0.437500000000099
40
0.500000000000106
40
0.500000000000106
40
0.625000000000122
40
0.625000000000122
40
0.687500000000101
40
0.687500000000101
40
0.750000000000081
40
0.750000000000081
40
0.812500000000061
40
0.812500000000061
40
0.875000000000041
40
0.875000000000041
40
0.93750000000002
40
0.93750000000002
40
1
40
1
40
1
40
1
41
1
10
55.6454910773699
20
-5.79935804181378
30
0
41
1
10
55.6562645834193
20
-5.77831835087227
30
0
41
1
10
55.6688383852894
20
-5.75936475209036
30
0
41
1
10
55.6897256663988
20
-5.73327328260777
30
0
41
1
10
55.6970345226871
20
-5.72497625032995
30
0
41
1
10
55.7123065924067
20
-5.70913862241338
30
0
41
1
10
55.7201890421632
20
-5.70168560746558
30
0
41
1
10
55.7442987653961
20
-5.6807905364966
30
0
41
1
10
55.7610717826409
20
-5.66870055211089
30
0
41
1
10
55.7871898666399
20
-5.65313794878858
30
0
41
1
10
55.7960938017517
20
-5.64836734283153
30
0
41
1
10
55.8140534073929
20
-5.63980159826883
30
0
41
1
10
55.8230668314381
20
-5.63602186954071
30
0
41
1
10
55.8501982703937
20
-5.62617282758171
30
0
41
1
10
55.8684064000045
20
-5.62156885878602
30
0
41
1
10
55.8958805639566
20
-5.61793313364748
30
0
41
1
10
55.9051103631684
20
-5.61727577093609
30
0
41
1
10
55.92325378352
20
-5.61719674521854
30
0
41
1
10
55.9321976524969
20
-5.61776508413638
30
0
41
1
10
55.9498022428111
20
-5.62021854947736
30
0
41
1
10
55.9584632869706
20
-5.62210216963965
30
0
41
1
10
55.9754554676007
20
-5.62738038265695
30
0
41
1
10
55.9837711677141
20
-5.63078545986204
30
0
41
1
10
55.9995186392704
20
-5.63912489097652
30
0
41
1
10
56.0070122735336
20
-5.64407274167522
30
0
41
1
10
56.0211146759257
20
-5.65578277288259
30
0
41
1
10
56.0277275394177
20
-5.66257238906528
30
0
41
1
10
56.0336224203476
20
-5.67025064564643
30
0
0
SPLINE
5
11F
100
AcDbEntity
8
1
62
256
6
ByLayer
370
18
48
1
60
0
100
AcDbSpline
70
4
71
3
72
10
73
6
40
0
40
0
40
0
40
0
40
0.5
40
0.5
40
1
40
1
40
1
40
1
41
1
10
56.0336224203512
20
-5.67025064565476
30
0
41
1
10
56.1181466655076
20
-5.78034597233585
30
0
41
1
10
56.2021788867966
20
-5.88712173724153
30
0
41
1
10
56.3694719849923
20
-6.09411939217068
30
0
41
1
10
56.4526184257355
20
-6.1942067063782
30
0
41
1
10
56.5353490532023
20
-6.29092245700056
30
0
0
SPLINE
5
120
100
AcDbEntity
8
1
62
256
6
ByLayer
370
18
48
1
60
0
100
AcDbSpline
70
4
71
3
72
8
73
4
40
0
40
0
40
0
40
0
40
1
40
1
40
1
40
1
41
1
10
56.6849001200805
20
-6.22291348858846
30
0
41
1
10
56.6350260378336
20
-6.24602539338434
30
0
41
1
10
56.5851765883689
20
-6.26869552665943
30
0
41
1
10
56.5353490532023
20
-6.29092245700059
30
0
0
SPLINE
5
121
100
AcDbEntity
8
1
62
256
6
ByLayer
370
18
48
1
60
0
100
AcDbSpline
70
4
71
3
72
10
73
6
40
0
40
0
40
0
40
0
40
0.5
40
0.5
40
1
40
1
40
1
40
1
41
1
10
56.68490012008
20
-6.22291348857695
30
0
41
1
10
56.7692335881125
20
-6.05094265037724
30
0
41
1
10
56.8540031938593
20
-5.87857235841409
30
0
41
1
10
57.0245885084418
20
-5.53326319595851
30
0
41
1
10
57.110277313327
20
-5.36056339488491
30
0
41
1
10
57.1965108796916
20
-5.18788437362025
30
0
0
SPLINE
5
122
100
AcDbEntity
8
1
62
256
6
ByLayer
370
18
48
1
60
0
100
AcDbSpline
70
4
71
3
72
24
73
20
40
0
40
0
40
0
40
0
40
0.177018292359575
40
0.177018292359575
40
0.265527438539394
40
0.265527438539394
40
0.354036584719212
40
0.354036584719212
40
0.531054877078843
40
0.531054877078843
40
0.61956402325862
40
0.61956402325862
40
0.708073169438398
40
0.708073169438398
40
0.885091461798034
40
0.885091461798034
40
0.973600607977892
40
0.973600607977892
40
1
40
1
40
1
40
1
41
1
10
57.1965108796916
20
-5.18788437362028
30
0
41
1
10
57.207284312329
20
-5.16631103643968
30
0
41
1
10
57.2198582532861
20
-5.14637156552894
30
0
41
1
10
57.2407461799918
20
-5.11829723780369
30
0
41
1
10
57.2480553353503
20
-5.10925293357155
30
0
41
1
10
57.2633282854423
20
-5.09175741643605
30
0
41
1
10
57.2712123274438
20
-5.0834012381531
30
0
41
1
10
57.295325096333
20
-5.05962289139208
30
0
41
1
10
57.3120999057535
20
-5.04536937635368
30
0
41
1
10
57.3382209306692
20
-5.02621809990805
30
0
41
1
10
57.347126075329
20
-5.02018792597136
30
0
41
1
10
57.3650870944467
20
-5.00900888659629
30
0
41
1
10
57.3741011658356
20
-5.00388159234743
30
0
41
1
10
57.4012344758842
20
-4.98986646553467
30
0
41
1
10
57.4194437749018
20
-4.98232276769852
30
0
41
1
10
57.4469197347184
20
-4.97399674584685
30
0
41
1
10
57.4561495467221
20
-4.97172052269008
30
0
41
1
10
57.4679254870485
20
-4.96954111288724
30
0
41
1
10
57.470619534455
20
-4.96909223989883
30
0
41
1
10
57.4733018280067
20
-4.96869646023228
30
0
0
SPLINE
5
123
100
AcDbEntity
8
1
62
256
6
ByLayer
370
18
48
1
60
0
100
AcDbSpline
70
4
71
3
72
8
73
4
40
0
40
0
40
0
40
0
40
1
40
1
40
1
40
1
41
1
10
58.2359236726591
20
-5.36805514883199
30
0
41
1
10
58.2480404302049
20
-5.34318137462344
30
0
41
1
10
58.2601665029172
20
-5.3183232323716
30
0
41
1
10
58.2723021343469
20
-5.29348108170106
30
0
0
SPLINE
5
124
100
AcDbEntity
8
1
62
256
6
ByLayer
370
18
48
1
60
0
100
AcDbSpline
70
4
71
3
72
8
73
4
40
0
40
0
40
0
40
0
40
1
40
1
40
1
40
1
41
1
10
68.7539129236059
20
-1.85337906084356
30
0
41
1
10
68.6826881477666
20
-1.86124405594978
30
0
41
1
10
68.6117152711742
20
-1.86543073127979
30
0
41
1
10
68.5410263521241
20
-1.86604541184587
30
0
0
SPLINE
5
125
100
AcDbEntity
8
1
62
256
6
ByLayer
370
18
48
1
60
0
100
AcDbSpline
70
4
71
3
72
8
73
4
40
0
40
0
40
0
40
0
40
1
40
1
40
1
40
1
41
1
10
68.5410263521241
20
-1.86604541184582
30
0
41
1
10
68.3308164203471
20
-1.71187452896879
30
0
41
1
10
68.1219113873504
20
-1.55169733155552
30
0
41
1
10
67.9135043302107
20
-1.38638158900741
30
0
0
SPLINE
5
126
100
AcDbEntity
8
1
62
256
6
ByLayer
370
18
48
1
60
0
100
AcDbSpline
70
4
71
3
72
10
73
6
40
0
40
0
40
0
40
0
40
0.5
40
0.5
40
1
40
1
40
1
40
1
41
1
10
67.9135043302107
20
-1.38638158900741
30
0
41
1
10
67.8600456528895
20
-1.29884768731094
30
0
41
1
10
67.8064104526196
20
-1.21273820003574
30
0
41
1
10
67.6988949689234
20
-1.04363135643609
30
0
41
1
10
67.6449963621519
20
-0.960607673158307
30
0
41
1
10
67.5909304584063
20
-0.879135723451412
30
0
0
SPLINE
5
127
100
AcDbEntity
8
1
62
256
6
ByLayer
370
18
48
1
60
0
100
AcDbSpline
70
4
71
3
72
32
73
28
40
0
40
0
40
0
40
0
40
0.124999999999981
40
0.124999999999981
40
0.18749999999997
40
0.18749999999997
40
0.249999999999959
40
0.249999999999959
40
0.374999999999938
40
0.374999999999938
40
0.437499999999927
40
0.437499999999927
40
0.499999999999916
40
0.499999999999916
40
0.624999999999894
40
0.624999999999894
40
0.687499999999912
40
0.687499999999912
40
0.749999999999929
40
0.749999999999929
40
0.812499999999947
40
0.812499999999947
40
0.874999999999965
40
0.874999999999965
40
0.937499999999982
40
0.937499999999982
40
1
40
1
40
1
40
1
41
1
10
67.590930458405
20
-0.879135723447973
30
0
41
1
10
67.5805063142135
20
-0.86342757297848
30
0
41
1
10
67.5683466598788
20
-0.847256634342074
30
0
41
1
10
67.5480641692815
20
-0.822475981660801
30
0
41
1
10
67.5409189484803
20
-0.814084803344855
30
0
41
1
10
67.5261720875284
20
-0.797364314128203
30
0
41
1
10
67.5185777961904
20
-0.789039809375083
30
0
41
1
10
67.4951848922759
20
-0.76416323549509
30
0
41
1
10
67.4787834202762
20
-0.747707633638356
30
0
41
1
10
67.4530204622242
20
-0.723190358808893
30
0
41
1
10
67.4441999012912
20
-0.715013092298648
30
0
41
1
10
67.4264673672729
20
-0.698990787291393
30
0
41
1
10
67.4175306828296
20
-0.691120478075277
30
0
41
1
10
67.3905161218838
20
-0.667925937046221
30
0
41
1
10
67.3722370191099
20
-0.653010870000088
30
0
41
1
10
67.3443892802658
20
-0.631547475403011
30
0
41
1
10
67.3350077542931
20
-0.624529432993711
30
0
41
1
10
67.3165260760487
20
-0.61115248341892
30
0
41
1
10
67.3073765944732
20
-0.604754010214577
30
0
41
1
10
67.2892869767234
20
-0.592592928556684
30
0
41
1
10
67.2803465087713
20
-0.586829339877625
30
0
41
1
10
67.2627189882218
20
-0.57604582002719
30
0
41
1
10
67.254216100764
20
-0.571139448006647
30
0
41
1
10
67.2379517907245
20
-0.562428950069346
30
0
41
1
10
67.2301800132848
20
-0.558617873594528
30
0
41
1
10
67.215515852116
20
-0.552313328869218
30
0
41
1
10
67.208804972672
20
-0.549898104158189
30
0
41
1
10
67.2027952140108
20
-0.548319586979432
30
0
0
SPLINE
5
128
100
AcDbEntity
8
1
62
256
6
ByLayer
370
18
48
1
60
0
100
AcDbSpline
70
4
71
3
72
10
73
6
40
0
40
0
40
0
40
0
40
0.5
40
0.5
40
1
40
1
40
1
40
1
41
1
10
67.2027952140108
20
-0.548319586979403
30
0
41
1
10
67.1188546103697
20
-0.526271832267128
30
0
41
1
10
67.0352695713096
20
-0.499161900028156
30
0
41
1
10
66.868862487328
20
-0.43519065574381
30
0
41
1
10
66.7860862062274
20
-0.398352038587632
30
0
41
1
10
66.7037044438169
20
-0.356833585469957
30
0
0
SPLINE
5
129
100
AcDbEntity
8
1
62
256
6
ByLayer
370
18
48
1
60
0
100
AcDbSpline
70
4
71
3
72
8
73
4
40
0
40
0
40
0
40
0
40
1
40
1
40
1
40
1
41
1
10
66.5541739077333
20
-0.210950581373538
30
0
41
1
10
66.6040215083319
20
-0.259605357497975
30
0
41
1
10
66.6538633717236
20
-0.308234704428259
30
0
41
1
10
66.703704443817
20
-0.356833585469559
30
0
0
SPLINE
5
12A
100
AcDbEntity
8
1
62
256
6
ByLayer
370
18
48
1
60
0
100
AcDbSpline
70
4
71
3
72
10
73
6
40
0
40
0
40
0
40
0
40
0.5
40
0.5
40
1
40
1
40
1
40
1
41
1
10
66.5541739077333
20
-0.210950581373567
30
0
41
1
10
66.469210061664
20
-0.0918945401176927
30
0
41
1
10
66.3838758236626
20
0.0228751100436
30
0
41
1
10
66.2124084875882
20
0.243426370752502
30
0
41
1
10
66.1263167812318
20
0.349202953086404
30
0
41
1
10
66.0398241003243
20
0.450064528071863
30
0
0
SPLINE
5
12B
100
AcDbEntity
8
1
62
256
6
ByLayer
370
18
48
1
60
0
100
AcDbSpline
70
4
71
3
72
32
73
28
40
0
40
0
40
0
40
0
40
0.124999999999999
40
0.124999999999999
40
0.1875
40
0.1875
40
0.25
40
0.25
40
0.374999999999999
40
0.374999999999999
40
0.4375
40
0.4375
40
0.5
40
0.5
40
0.625
40
0.625
40
0.6875
40
0.6875
40
0.75
40
0.75
40
0.8125
40
0.8125
40
0.875
40
0.875
40
0.9375
40
0.9375
40
1
40
1
40
1
40
1
41
1
10
66.0398241003243
20
0.450064528072176
30
0
41
1
10
66.0294065579279
20
0.462212720526821
30
0
41
1
10
66.0172542585676
20
0.475325689271671
30
0
41
1
10
65.9969791082277
20
0.496101655435012
30
0
41
1
10
65.9898353429067
20
0.503251559047754
30
0
41
1
10
65.9751018484833
20
0.517698372513394
30
0
41
1
10
65.9675130799254
20
0.524996139059283
30
0
41
1
10
65.9441324135232
20
0.54709739290243
30
0
41
1
10
65.9277333917341
20
0.562105326787901
30
0
41
1
10
65.9019626738014
20
0.585042652118375
30
0
41
1
10
65.8931410462483
20
0.592789148878296
30
0
41
1
10
65.8754121994335
20
0.608160988533456
30
0
41
1
10
65.8664756140308
20
0.615813210295158
30
0
41
1
10
65.8394562314229
20
0.638678677954374
30
0
41
1
10
65.821167129278
20
0.65380164643048
30
0
41
1
10
65.7932943260502
20
0.676328031792337
30
0
41
1
10
65.7839119158862
20
0.683822977836542
30
0
41
1
10
65.7654304129179
20
0.69841092868171
30
0
41
1
10
65.7562795898544
20
0.705546212055935
30
0
41
1
10
65.7381844941119
20
0.719472669714207
30
0
41
1
10
65.729236998485
20
0.726266518007577
30
0
41
1
10
65.7116040453431
20
0.739446438639305
30
0
41
1
10
65.703110890691
20
0.745689111924065
30
0
41
1
10
65.686848270144
20
0.757404851467328
30
0
41
1
10
65.679068565063
20
0.762884962178305
30
0
41
1
10
65.6644139286528
20
0.772895980517461
30
0
41
1
10
65.6577063923747
20
0.777312761202694
30
0
41
1
10
65.6516987858157
20
0.781060190385347
30
0
0
SPLINE
5
12C
100
AcDbEntity
8
1
62
256
6
ByLayer
370
18
48
1
60
0
100
AcDbSpline
70
4
71
3
72
10
73
6
40
0
40
0
40
0
40
0
40
0.5
40
0.5
40
1
40
1
40
1
40
1
41
1
10
65.6516987858157
20
0.781060190385347
30
0
41
1
10
65.5677482275508
20
0.833426930591912
30
0
41
1
10
65.4841549773408
20
0.890643741665883
30
0
41
1
10
65.3177382584833
20
1.01434574224143
30
0
41
1
10
65.2349657375523
20
1.0807931543647
30
0
41
1
10
65.1525953775496
20
1.15161554261755
30
0
0
SPLINE
5
12D
100
AcDbEntity
8
1
62
256
6
ByLayer
370
18
48
1
60
0
100
AcDbSpline
70
4
71
3
72
8
73
4
40
0
40
0
40
0
40
0
40
1
40
1
40
1
40
1
41
1
10
65.0030891932773
20
1.29536877401958
30
0
41
1
10
65.0529242583787
20
1.24752660601857
30
0
41
1
10
65.1027578466325
20
1.1996069984954
30
0
41
1
10
65.1525953775496
20
1.15161554261752
30
0
0
SPLINE
5
12E
100
AcDbEntity
8
1
62
256
6
ByLayer
370
18
48
1
60
0
100
AcDbSpline
70
4
71
3
72
10
73
6
40
0
40
0
40
0
40
0
40
0.5
40
0.5
40
1
40
1
40
1
40
1
41
1
10
65.0030891932773
20
1.29536877401955
30
0
41
1
10
64.9181087106345
20
1.38252600011893
30
0
41
1
10
64.8327644312852
20
1.46478982457222
30
0
41
1
10
64.6612931639924
20
1.61918633817209
30
0
41
1
10
64.575198883251
20
1.69129987198738
30
0
41
1
10
64.488743137576
20
1.75808835203455
30
0
0
SPLINE
5
12F
100
AcDbEntity
8
1
62
256
6
ByLayer
370
18
48
1
60
0
100
AcDbSpline
70
4
71
3
72
32
73
28
40
0
40
0
40
0
40
0
40
0.124999999999994
40
0.124999999999994
40
0.187499999999992
40
0.187499999999992
40
0.249999999999989
40
0.249999999999989
40
0.375000000000033
40
0.375000000000033
40
0.437500000000031
40
0.437500000000031
40
0.500000000000028
40
0.500000000000028
40
0.625000000000022
40
0.625000000000022
40
0.687500000000018
40
0.687500000000018
40
0.750000000000015
40
0.750000000000015
40
0.812500000000011
40
0.812500000000011
40
0.875000000000007
40
0.875000000000007
40
0.937500000000004
40
0.937500000000004
40
1
40
1
40
1
40
1
41
1
10
64.4887431375758
20
1.75808835203543
30
0
41
1
10
64.4783188804795
20
1.76614126143605
30
0
41
1
10
64.4661520074401
20
1.77562780397005
30
0
41
1
10
64.4458423465525
20
1.79151883382281
30
0
41
1
10
64.4386896593436
20
1.79712460847219
30
0
41
1
10
64.4239735760073
20
1.80867432002833
30
0
41
1
10
64.4163913575579
20
1.81463328631818
30
0
41
1
10
64.3930230706853
20
1.83302389115741
30
0
41
1
10
64.3766226872322
20
1.8459615267416
30
0
41
1
10
64.3508278544211
20
1.86638677457847
30
0
41
1
10
64.342016298841
20
1.87337679305131
30
0
41
1
10
64.3243191893526
20
1.88745010985914
30
0
41
1
10
64.3153938959355
20
1.89456483827436
30
0
41
1
10
64.2883933839693
20
1.91615684288411
30
0
41
1
10
64.2700971876856
20
1.93087619437958
30
0
41
1
10
64.2421748178771
20
1.95357957366923
30
0
41
1
10
64.2328165626516
20
1.96122922230626
30
0
41
1
10
64.2143604080827
20
1.97641804900746
30
0
41
1
10
64.2052140058388
20
1.98399647644416
30
0
41
1
10
64.1871107099373
20
1.99912640838818
30
0
41
1
10
64.1781185550478
20
2.00670775645733
30
0
41
1
10
64.1605191504365
20
2.02171623526641
30
0
41
1
10
64.1520315542328
20
2.02904108410198
30
0
41
1
10
64.1357596641504
20
2.04329158077545
30
0
41
1
10
64.1279412367733
20
2.05024801254459
30
0
41
1
10
64.1132996383629
20
2.063548546081
30
0
41
1
10
64.1065913699951
20
2.06978730183479
30
0
41
1
10
64.1005785153098
20
2.07555515493303
30
0
0
SPLINE
5
130
100
AcDbEntity
8
1
62
256
6
ByLayer
370
18
48
1
60
0
100
AcDbSpline
70
4
71
3
72
10
73
6
40
0
40
0
40
0
40
0
40
0.5
40
0.5
40
1
40
1
40
1
40
1
41
1
10
64.1005785153098
20
2.075555154933
30
0
41
1
10
64.0166399736343
20
2.15607351151945
30
0
41
1
10
63.9330515296684
20
2.24088161745846
30
0
41
1
10
63.7666211355802
20
2.41858440248222
30
0
41
1
10
63.683841518513
20
2.51147977378972
30
0
41
1
10
63.6014650996092
20
2.60825759692372
30
0
0
SPLINE
5
131
100
AcDbEntity
8
1
62
256
6
ByLayer
370
18
48
1
60
0
100
AcDbSpline
70
4
71
3
72
10
73
6
40
0
40
0
40
0
40
0
40
0.5
40
0.5
40
1
40
1
40
1
40
1
41
1
10
63.4519583151641
20
2.74318470792977
30
0
41
1
10
63.3670017818699
20
2.79435536267334
30
0
41
1
10
63.2816726912101
20
2.84020731297346
30
0
41
1
10
63.1102215181643
20
2.9210462171549
30
0
41
1
10
63.0241298500633
20
2.95601744400619
30
0
41
1
10
62.9376840476413
20
2.98540930375609
30
0
0
SPLINE
5
132
100
AcDbEntity
8
1
62
256
6
ByLayer
370
18
48
1
60
0
100
AcDbSpline
70
4
71
3
72
32
73
28
40
0
40
0
40
0
40
0
40
0.125000000000005
40
0.125000000000005
40
0.187500000000005
40
0.187500000000005
40
0.250000000000005
40
0.250000000000005
40
0.375000000000005
40
0.375000000000005
40
0.500000000000004
40
0.500000000000004
40
0.625000000000004
40
0.625000000000004
40
0.687500000000003
40
0.687500000000003
40
0.750000000000003
40
0.750000000000003
40
0.812500000000003
40
0.812500000000003
40
0.875000000000003
40
0.875000000000003
40
0.937500000000002
40
0.937500000000002
40
0.968750000000001
40
0.968750000000001
40
1
40
1
40
1
40
1
41
1
10
62.9376840476413
20
2.98540930375631
30
0
41
1
10
62.9272366986194
20
2.98896143710007
30
0
41
1
10
62.9150780118828
20
2.9943298900466
30
0
41
1
10
62.8948570347832
20
3.00445514777388
30
0
41
1
10
62.8877787613437
20
3.00818424379702
30
0
41
1
10
62.872978554077
20
3.01631702860891
30
0
41
1
10
62.8653245854031
20
3.0206842248424
30
0
41
1
10
62.8418517957948
20
3.03451436964335
30
0
41
1
10
62.8254479377015
20
3.04473904199995
30
0
41
1
10
62.7912211978666
20
3.06713830121498
30
0
41
1
10
62.773248939293
20
3.07942624531225
30
0
41
1
10
62.7371457415551
20
3.10522958637091
30
0
41
1
10
62.7188963432282
20
3.11881247046497
30
0
41
1
10
62.6912258100603
20
3.14039109587637
30
0
41
1
10
62.681934178981
20
3.14780167327643
30
0
41
1
10
62.6633198449096
20
3.16303485240513
30
0
41
1
10
62.6541330243411
20
3.17074579650688
30
0
41
1
10
62.6360282722975
20
3.18638109348623
30
0
41
1
10
62.6271100316072
20
3.19430521347564
30
0
41
1
10
62.6095903494238
20
3.21040712010313
30
0
41
1
10
62.6009679905969
20
3.21861017193572
30
0
41
1
10
62.5846562469148
20
3.23478385657674
30
0
41
1
10
62.5768984976729
20
3.24281450111064
30
0
41
1
10
62.5659620862354
20
3.25476215985697
30
0
41
1
10
62.5624228426322
20
3.25874178125531
30
0
41
1
10
62.5557029209298
20
3.26654974496898
30
0
41
1
10
62.5525127808536
20
3.27038760298606
30
0
41
1
10
62.5495035448136
20
3.27415452946443
30
0
0
SPLINE
5
133
100
AcDbEntity
8
1
62
256
6
ByLayer
370
18
48
1
60
0
100
AcDbSpline
70
4
71
3
72
10
73
6
40
0
40
0
40
0
40
0
40
0.5
40
0.5
40
1
40
1
40
1
40
1
41
1
10
62.5495035448135
20
3.27415452946443
30
0
41
1
10
62.465555060864
20
3.37924025979618
30
0
41
1
10
62.3819606683676
20
3.48795311669821
30
0
41
1
10
62.2155203094787
20
3.71213000617487
30
0
41
1
10
62.1327413157373
20
3.82750763477009
30
0
41
1
10
62.0503510454659
20
3.94600426718856
30
0
0
SPLINE
5
134
100
AcDbEntity
8
1
62
256
6
ByLayer
370
18
48
1
60
0
100
AcDbSpline
70
4
71
3
72
10
73
6
40
0
40
0
40
0
40
0
40
0.5
40
0.5
40
1
40
1
40
1
40
1
41
1
10
61.9008185341291
20
4.06628272603882
30
0
41
1
10
61.8159044779714
20
4.07936471033551
30
0
41
1
10
61.7306171436072
20
4.08696036972708
30
0
41
1
10
61.559178788316
20
4.09080144238575
30
0
41
1
10
61.4730627859012
20
4.08705993398775
30
0
41
1
10
61.3865759657329
20
4.07764942314176
30
0
0
SPLINE
5
135
100
AcDbEntity
8
1
62
256
6
ByLayer
370
18
48
1
60
0
100
AcDbSpline
70
4
71
3
72
32
73
28
40
0
40
0
40
0
40
0
40
0.124999999999982
40
0.124999999999982
40
0.187499999999975
40
0.187499999999975
40
0.249999999999968
40
0.249999999999968
40
0.374999999999954
40
0.374999999999954
40
0.49999999999994
40
0.49999999999994
40
0.624999999999926
40
0.624999999999926
40
0.687499999999945
40
0.687499999999945
40
0.749999999999965
40
0.749999999999965
40
0.812499999999984
40
0.812499999999984
40
0.875000000000003
40
0.875000000000003
40
0.937500000000022
40
0.937500000000022
40
0.968750000000011
40
0.968750000000011
40
1
40
1
40
1
40
1
41
1
10
61.3865759657329
20
4.07764942314199
30
0
41
1
10
61.3761329445475
20
4.07651313250327
30
0
41
1
10
61.3639769767971
20
4.0775109046829
30
0
41
1
10
61.3437554178909
20
4.08145028880423
30
0
41
1
10
61.3366761941323
20
4.08318051688525
30
0
41
1
10
61.3218723242692
20
4.08743633921881
30
0
41
1
10
61.3142167574915
20
4.0899436106676
30
0
41
1
10
61.290735979582
20
4.09845759482585
30
0
41
1
10
61.2743246553376
20
4.10546604477014
30
0
41
1
10
61.2400798164687
20
4.12206077013096
30
0
41
1
10
61.2220994801329
20
4.1317465695461
30
0
41
1
10
61.1859870054102
20
4.15319234284132
30
0
41
1
10
61.1677328720556
20
4.16499410144377
30
0
41
1
10
61.1400555292116
20
4.18457374854171
30
0
41
1
10
61.1307555927393
20
4.19143513869858
30
0
41
1
10
61.1121522365592
20
4.20581183301502
30
0
41
1
10
61.1029709477685
20
4.21323146937058
30
0
41
1
10
61.084877328493
20
4.22858171760737
30
0
41
1
10
61.0759647269596
20
4.23651174395147
30
0
41
1
10
61.058455655769
20
4.25296819807377
30
0
41
1
10
61.0498430348688
20
4.261520118334
30
0
41
1
10
61.033550551333
20
4.27876732492555
30
0
41
1
10
61.0258016729066
20
4.28752290412268
30
0
41
1
10
61.0148771266419
20
4.30088847195549
30
0
41
1
10
61.0113421787098
20
4.30539779059831
30
0
41
1
10
61.0046315414108
20
4.31436899140013
30
0
41
1
10
61.0014456147849
20
4.31884213166512
30
0
41
1
10
60.9984401175093
20
4.32330161576462
30
0
0
SPLINE
5
136
100
AcDbEntity
8
1
62
256
6
ByLayer
370
18
48
1
60
0
100
AcDbSpline
70
4
71
3
72
10
73
6
40
0
40
0
40
0
40
0
40
0.5
40
0.5
40
1
40
1
40
1
40
1
41
1
10
60.998440117508
20
4.32330161576692
30
0
41
1
10
60.914469143138
20
4.44789571474138
30
0
41
1
10
60.8308605171787
20
4.57534928055532
30
0
41
1
10
60.6644045456486
20
4.83540041948572
30
0
41
1
10
60.5816260698359
20
4.96788836151484
30
0
41
1
10
60.4992405586322
20
5.10266695346189
30
0
0
SPLINE
5
137
100
AcDbEntity
8
1
62
256
6
ByLayer
370
18
48
1
60
0
100
AcDbSpline
70
4
71
3
72
10
73
6
40
0
40
0
40
0
40
0
40
0.5
40
0.5
40
1
40
1
40
1
40
1
41
1
10
60.3497078704514
20
5.20288217699195
30
0
41
1
10
60.2648165359057
20
5.17740165125593
30
0
41
1
10
60.1795287600173
20
5.1464368366245
30
0
41
1
10
60.0080759456484
20
5.0734061783684
30
0
41
1
10
59.9219616791548
20
5.03141815768205
30
0
41
1
10
59.8354567039677
20
4.98391415282248
30
0
0
SPLINE
5
138
100
AcDbEntity
8
1
62
256
6
ByLayer
370
18
48
1
60
0
100
AcDbSpline
70
4
71
3
72
32
73
28
40
0
40
0
40
0
40
0
40
0.125000000000037
40
0.125000000000037
40
0.187500000000035
40
0.187500000000035
40
0.250000000000033
40
0.250000000000033
40
0.375000000000028
40
0.375000000000028
40
0.500000000000024
40
0.500000000000024
40
0.625000000000019
40
0.625000000000019
40
0.687500000000016
40
0.687500000000016
40
0.750000000000013
40
0.750000000000013
40
0.81250000000001
40
0.81250000000001
40
0.875000000000006
40
0.875000000000006
40
0.937500000000003
40
0.937500000000003
40
0.968750000000002
40
0.968750000000002
40
1
40
1
40
1
40
1
41
1
10
59.8354567039677
20
4.98391415282265
30
0
41
1
10
59.8250169426141
20
4.97818118228537
30
0
41
1
10
59.8128652128403
20
4.9748053476203
30
0
41
1
10
59.7926500263722
20
4.972442476526
30
0
41
1
10
59.785572934141
20
4.9721159518929
30
0
41
1
10
59.770773118778
20
4.9723420461151
30
0
41
1
10
59.7631191681774
20
4.97289585563826
30
0
41
1
10
59.7396425805915
20
4.97576581154203
30
0
41
1
10
59.7232324068631
20
4.97927542879654
30
0
41
1
10
59.6889873476028
20
4.98937654110853
30
0
41
1
10
59.6710051933549
20
4.99605122140042
30
0
41
1
10
59.6348878781665
20
5.01222483457227
30
0
41
1
10
59.616630748697
20
5.02173586017832
30
0
41
1
10
59.5889485567078
20
5.0384610983954
30
0
41
1
10
59.5796467415
20
5.04446714151453
30
0
41
1
10
59.5610405130427
20
5.05736488973517
30
0
41
1
10
59.5518580622607
20
5.06417029820747
30
0
41
1
10
59.5337625394969
20
5.07856369186382
30
0
41
1
10
59.5248490551668
20
5.08615064757231
30
0
41
1
10
59.5073388017415
20
5.10223434006957
30
0
41
1
10
59.498726161442
20
5.11075948739952
30
0
41
1
10
59.482434633288
20
5.12831946938832
30
0
41
1
10
59.4746866500709
20
5.13741162057877
30
0
41
1
10
59.4637639720475
20
5.15159865379246
30
0
41
1
10
59.4602297431486
20
5.15643644610748
30
0
41
1
10
59.4535205797489
20
5.16617117460459
30
0
41
1
10
59.4503354187248
20
5.17107969480514
30
0
41
1
10
59.4473306848436
20
5.17603182320806
30
0
0
SPLINE
5
139
100
AcDbEntity
8
1
62
256
6
ByLayer
370
18
48
1
60
0
100
AcDbSpline
70
4
71
3
72
10
73
6
40
0
40
0
40
0
40
0
40
0.5
40
0.5
40
1
40
1
40
1
40
1
41
1
10
59.4473306848436
20
5.17603182320804
30
0
41
1
10
59.3633638532634
20
5.31441829868757
30
0
41
1
10
59.2797590834338
20
5.45469496776676
30
0
41
1
10
59.1133111815429
20
5.73847691157391
30
0
41
1
10
59.0305378668364
20
5.88186150270116
30
0
41
1
10
58.9481576127355
20
6.02658715656233
30
0
0
SPLINE
5
13A
100
AcDbEntity
8
1
62
256
6
ByLayer
370
18
48
1
60
0
100
AcDbSpline
70
4
71
3
72
10
73
6
40
0
40
0
40
0
40
0
40
0.5
40
0.5
40
1
40
1
40
1
40
1
41
1
10
58.7986030688266
20
6.10177010110525
30
0
41
1
10
58.7136438247238
20
6.03859457208543
30
0
41
1
10
58.628328702069
20
5.97040928964117
30
0
41
1
10
58.4569019618029
20
5.82395995432671
30
0
41
1
10
58.3708283311081
20
5.74574334427479
30
0
41
1
10
58.284345846979
20
5.66242107883613
30
0
0
SPLINE
5
13B
100
AcDbEntity
8
1
62
256
6
ByLayer
370
18
48
1
60
0
100
AcDbSpline
70
4
71
3
72
32
73
28
40
0
40
0
40
0
40
0
40
0.124999999999949
40
0.124999999999949
40
0.187499999999943
40
0.187499999999943
40
0.249999999999937
40
0.249999999999937
40
0.374999999999926
40
0.374999999999926
40
0.499999999999914
40
0.499999999999914
40
0.624999999999902
40
0.624999999999902
40
0.687499999999925
40
0.687499999999925
40
0.749999999999948
40
0.749999999999948
40
0.812499999999971
40
0.812499999999971
40
0.874999999999994
40
0.874999999999994
40
0.937500000000017
40
0.937500000000017
40
0.968750000000009
40
0.968750000000009
40
1
40
1
40
1
40
1
41
1
10
58.284345846979
20
5.66242107883633
30
0
41
1
10
58.2739143624191
20
5.65237077866087
30
0
41
1
10
58.2617750881484
20
5.6447924243825
30
0
41
1
10
58.2415816915856
20
5.63625620868399
30
0
41
1
10
58.2345123739188
20
5.63389411726885
30
0
41
1
10
58.2197284005246
20
5.63009068987361
30
0
41
1
10
58.2120805667196
20
5.62866944375097
30
0
41
1
10
58.1886219297419
20
5.6257727923078
30
0
41
1
10
58.1722202799387
20
5.62562468720603
30
0
41
1
10
58.1379828974404
20
5.62876734075979
30
0
41
1
10
58.1199975151735
20
5.63212183410332
30
0
41
1
10
58.0838651102204
20
5.64227759943532
30
0
41
1
10
58.0655979764177
20
5.64906003457119
30
0
41
1
10
58.0379008803183
20
5.66216348571513
30
0
41
1
10
58.028596968523
20
5.66703715052313
30
0
41
1
10
58.0099745372942
20
5.6778702229949
30
0
41
1
10
58.0007852246993
20
5.68375261511775
30
0
41
1
10
57.9826787665873
20
5.6965360865874
30
0
41
1
10
57.9737612616551
20
5.70343588284521
30
0
41
1
10
57.956246042606
20
5.71841622153968
30
0
41
1
10
57.9476297841855
20
5.7265294430882
30
0
41
1
10
57.9313341417463
20
5.74360790132087
30
0
41
1
10
57.9235859174349
20
5.75262436907317
30
0
41
1
10
57.9126650893111
20
5.76698684630119
30
0
41
1
10
57.9091313655403
20
5.7719329818411
30
0
41
1
10
57.9024222379205
20
5.78198978681897
30
0
41
1
10
57.8992373507917
20
5.78711077013921
30
0
41
1
10
57.8962330734955
20
5.79233024180223
30
0
0
SPLINE
5
13C
100
AcDbEntity
8
1
62
256
6
ByLayer
370
18
48
1
60
0
100
AcDbSpline
70
4
71
3
72
10
73
6
40
0
40
0
40
0
40
0
40
0.5
40
0.5
40
1
40
1
40
1
40
1
41
1
10
57.8962330734952
20
5.79233024180252
30
0
41
1
10
57.812252651196
20
5.93823336299724
30
0
41
1
10
57.7286398059906
20
6.08498472348128
30
0
41
1
10
57.5621822996274
20
6.37965329939516
30
0
41
1
10
57.4794090327458
20
6.52744288207643
30
0
41
1
10
57.3970290064486
20
6.67555856152086
30
0
0
SPLINE
5
13D
100
AcDbEntity
8
1
62
256
6
ByLayer
370
18
48
1
60
0
100
AcDbSpline
70
4
71
3
72
10
73
6
40
0
40
0
40
0
40
0
40
0.5
40
0.5
40
1
40
1
40
1
40
1
41
1
10
57.2475104075595
20
6.72238673343654
30
0
41
1
10
57.1625538131917
20
6.6245086944617
30
0
41
1
10
57.0772363399968
20
6.5221755577104
30
0
41
1
10
56.9058087569965
20
6.30869483341894
30
0
41
1
10
56.8197288347121
20
6.19758328492824
30
0
41
1
10
56.7332752309915
20
6.08217957269451
30
0
0
SPLINE
5
13E
100
AcDbEntity
8
1
62
256
6
ByLayer
370
18
48
1
60
0
100
AcDbSpline
70
4
71
3
72
32
73
28
40
0
40
0
40
0
40
0
40
0.124999999999996
40
0.124999999999996
40
0.187499999999975
40
0.187499999999975
40
0.249999999999955
40
0.249999999999955
40
0.374999999999961
40
0.374999999999961
40
0.499999999999967
40
0.499999999999967
40
0.624999999999974
40
0.624999999999974
40
0.687499999999978
40
0.687499999999978
40
0.749999999999981
40
0.749999999999981
40
0.812499999999985
40
0.812499999999985
40
0.874999999999989
40
0.874999999999989
40
0.937499999999993
40
0.937499999999993
40
0.968749999999996
40
0.968749999999996
40
1
40
1
40
1
40
1
41
1
10
56.7332752309915
20
6.08217957269457
30
0
41
1
10
56.7228271594138
20
6.06823282907882
30
0
41
1
10
56.7106674398403
20
6.05677363515741
30
0
41
1
10
56.6904439547109
20
6.04243743490423
30
0
41
1
10
56.6833646775426
20
6.03814558906942
30
0
41
1
10
56.6685619762958
20
6.03048950467186
30
0
41
1
10
56.6609079005715
20
6.02716430486922
30
0
41
1
10
56.6374319812055
20
6.01865993905585
30
0
41
1
10
56.6210246385907
20
6.0148920040958
30
0
41
1
10
56.5867892199295
20
6.01100745045784
30
0
41
1
10
56.5688133865234
20
6.01093134280498
30
0
41
1
10
56.5327064242884
20
6.01468466415093
30
0
41
1
10
56.5144548534374
20
6.01846660380625
30
0
41
1
10
56.4867813957363
20
6.02739833406551
30
0
41
1
10
56.4774860155898
20
6.03093359165644
30
0
41
1
10
56.4588770382097
20
6.03922924097904
30
0
41
1
10
56.4496928801056
20
6.04392989051161
30
0
41
1
10
56.4315932913378
20
6.05453873623176
30
0
41
1
10
56.422677515614
20
6.06044541516994
30
0
41
1
10
56.4051623971134
20
6.07365783183499
30
0
41
1
10
56.3965441005102
20
6.08099676146011
30
0
41
1
10
56.3802405389022
20
6.09683362357504
30
0
41
1
10
56.3724866360503
20
6.10537464311119
30
0
41
1
10
56.3615555049132
20
6.11928058899767
30
0
41
1
10
56.3580180737952
20
6.12411756891319
30
0
41
1
10
56.3513016556748
20
6.13405300826039
30
0
41
1
10
56.3481130601396
20
6.13916126594592
30
0
41
1
10
56.3451051474493
20
6.14441934459961
30
0
0
SPLINE
5
13F
100
AcDbEntity
8
1
62
256
6
ByLayer
370
18
48
1
60
0
100
AcDbSpline
70
4
71
3
72
10
73
6
40
0
40
0
40
0
40
0
40
0.5
40
0.5
40
1
40
1
40
1
40
1
41
1
10
56.3451051474493
20
6.14441934459961
30
0
41
1
10
56.2611457563429
20
6.29118726229294
30
0
41
1
10
56.177545061757
20
6.43769240225922
30
0
41
1
10
56.0110875912894
20
6.72975099175059
30
0
41
1
10
55.9283023356471
20
6.87518135405378
30
0
41
1
10
55.8459091049818
20
7.01991211290999
30
0
0
SPLINE
5
140
100
AcDbEntity
8
1
62
256
6
ByLayer
370
18
48
1
60
0
100
AcDbSpline
70
4
71
3
72
26
73
22
40
0
40
0
40
0
40
0
40
0.0624999999999973
40
0.0624999999999973
40
0.124999999999995
40
0.124999999999995
40
0.187499999999992
40
0.187499999999992
40
0.249999999999989
40
0.249999999999989
40
0.499999999999993
40
0.499999999999993
40
0.562499999999994
40
0.562499999999994
40
0.624999999999995
40
0.624999999999995
40
0.749999999999997
40
0.749999999999997
40
0.874999999999998
40
0.874999999999998
40
1
40
1
40
1
40
1
41
1
10
55.1206717739159
20
6.04927398762916
30
0
41
1
10
55.1048286628588
20
6.02151824158935
30
0
41
1
10
55.0882413864068
20
5.99449957062708
30
0
41
1
10
55.0533542522131
20
5.94143532056265
30
0
41
1
10
55.035068998193
20
5.91542381175268
30
0
41
1
10
54.9968582921016
20
5.86447202626189
30
0
41
1
10
54.9769414985149
20
5.83955094626978
30
0
41
1
10
54.9358380258304
20
5.79117712498447
30
0
41
1
10
54.9146149606752
20
5.7676744937981
30
0
41
1
10
54.8053201491186
20
5.65357328299919
30
0
41
1
10
54.7077721761099
20
5.57315176549747
30
0
41
1
10
54.5753768301441
20
5.48676131259694
30
0
41
1
10
54.5483696511314
20
5.47019304334768
30
0
41
1
10
54.4933333800769
20
5.43850475335273
30
0
41
1
10
54.4654336149369
20
5.42346219079784
30
0
41
1
10
54.3810292791986
20
5.38088284736216
30
0
41
1
10
54.3236846487755
20
5.35581051503061
30
0
41
1
10
54.2073552241336
20
5.31211743987328
30
0
41
1
10
54.1483518880007
20
5.29349610559109
30
0
41
1
10
54.0291275605
20
5.26265357910074
30
0
41
1
10
53.9689129947197
20
5.25042727374347
30
0
41
1
10
53.9082362086177
20
5.24145526406002
30
0
0
SPLINE
5
141
100
AcDbEntity
8
1
62
256
6
ByLayer
370
18
48
1
60
0
100
AcDbSpline
70
4
71
3
72
22
73
18
40
0
40
0
40
0
40
0
40
0.153338960890129
40
0.153338960890129
40
0.306677921780259
40
0.306677921780259
40
0.460016882670388
40
0.460016882670388
40
0.613355843560518
40
0.613355843560518
40
0.766694804450647
40
0.766694804450647
40
0.920033765340777
40
0.920033765340777
40
0.996703245785845
40
0.996703245785845
40
1
40
1
40
1
40
1
41
1
10
53.9082362086177
20
5.24145526406005
30
0
41
1
10
53.7231963821434
20
5.21409423817849
30
0
41
1
10
53.5389222174379
20
5.18170268810857
30
0
41
1
10
53.1715755710397
20
5.10711186922987
30
0
41
1
10
52.9885123268021
20
5.06490530691011
30
0
41
1
10
52.6230557455766
20
4.97100160594985
30
0
41
1
10
52.4406297027723
20
4.91931778886453
30
0
41
1
10
52.0756782729506
20
4.80698195112066
30
0
41
1
10
51.8932338325311
20
4.74629015589232
30
0
41
1
10
51.5281427253562
20
4.61607992457826
30
0
41
1
10
51.3455821536626
20
4.54650888913656
30
0
41
1
10
50.9804608675217
20
4.39830194277206
30
0
41
1
10
50.7978413525866
20
4.31970292904575
30
0
41
1
10
50.5234651474863
20
4.19521523548329
30
0
41
1
10
50.4319103699192
20
4.15263558810554
30
0
41
1
10
50.3360306084821
20
4.10735479229086
30
0
41
1
10
50.3320773287003
20
4.10548627507032
30
0
41
1
10
50.3281235994322
20
4.10361601286377
30
0
0
SPLINE
5
142
100
AcDbEntity
8
1
62
256
6
ByLayer
370
18
48
1
60
0
100
AcDbSpline
70
4
71
3
72
10
73
6
40
0
40
0
40
0
40
0
40
0.5
40
0.5
40
1
40
1
40
1
40
1
41
1
10
66.3736400520517
20
-6.03895005506106
30
0
41
1
10
66.4497235921824
20
-6.17483940694822
30
0
41
1
10
66.5254178226626
20
-6.3104452025087
30
0
41
1
10
66.6761480549586
20
-6.58101203487882
30
0
41
1
10
66.751136628342
20
-6.71588250936364
30
0
41
1
10
66.8257421472929
20
-6.85016205708067
30
0
0
SPLINE
5
143
100
AcDbEntity
8
1
62
256
6
ByLayer
370
18
48
1
60
0
100
AcDbSpline
70
4
71
3
72
8
73
4
40
0
40
0
40
0
40
0
40
1
40
1
40
1
40
1
41
1
10
66.8257421472931
20
-6.85016205708061
30
0
41
1
10
66.9249428566227
20
-6.84358167181017
30
0
41
1
10
67.0244802963192
20
-6.83469476829697
30
0
41
1
10
67.1243885658936
20
-6.82353293371008
30
0
0
SPLINE
5
144
100
AcDbEntity
8
1
62
256
6
ByLayer
370
18
48
1
60
0
100
AcDbSpline
70
4
71
3
72
10
73
6
40
0
40
0
40
0
40
0
40
0.5
40
0.5
40
1
40
1
40
1
40
1
41
1
10
67.1243885658936
20
-6.82353293371037
30
0
41
1
10
67.1924709556367
20
-6.72440526561084
30
0
41
1
10
67.2608722842851
20
-6.62298269283943
30
0
41
1
10
67.3982370256124
20
-6.4158320606135
30
0
41
1
10
67.4671796144988
20
-6.31014045758923
30
0
41
1
10
67.5364648349416
20
-6.20228036425686
30
0
0
SPLINE
5
145
100
AcDbEntity
8
1
62
256
6
ByLayer
370
18
48
1
60
0
100
AcDbSpline
70
4
71
3
72
32
73
28
40
0
40
0
40
0
40
0
40
0.125000000000064
40
0.125000000000064
40
0.187500000000096
40
0.187500000000096
40
0.250000000000128
40
0.250000000000128
40
0.375000000000143
40
0.375000000000143
40
0.43750000000015
40
0.43750000000015
40
0.500000000000158
40
0.500000000000158
40
0.625000000000118
40
0.625000000000118
40
0.687500000000098
40
0.687500000000098
40
0.750000000000079
40
0.750000000000079
40
0.812500000000059
40
0.812500000000059
40
0.875000000000039
40
0.875000000000039
40
0.93750000000002
40
0.93750000000002
40
1
40
1
40
1
40
1
41
1
10
67.5364648349416
20
-6.20228036425686
30
0
41
1
10
67.5472876723633
20
-6.18543186111341
30
0
41
1
10
67.5599224937626
20
-6.17134142022752
30
0
41
1
10
67.5809046591946
20
-6.15327633195869
30
0
41
1
10
67.5882459107447
20
-6.14778040831459
30
0
41
1
10
67.603583361329
20
-6.13778151342919
30
0
41
1
10
67.6114979536802
20
-6.13333564520062
30
0
41
1
10
67.6356947803272
20
-6.12162421887848
30
0
41
1
10
67.6525164449205
20
-6.11590279015408
30
0
41
1
10
67.6786910684877
20
-6.11023898015878
30
0
41
1
10
67.687613133778
20
-6.1088401209033
30
0
41
1
10
67.7055873336566
20
-6.10707390468363
30
0
41
1
10
67.7146051958549
20
-6.10670485393595
30
0
41
1
10
67.7417407459125
20
-6.10712295401152
30
0
41
1
10
67.7599392223218
20
-6.10940988610309
30
0
41
1
10
67.787378279614
20
-6.11619915821626
30
0
41
1
10
67.7965865033653
20
-6.11904711750574
30
0
41
1
10
67.8146705824861
20
-6.12586598191754
30
0
41
1
10
67.8235836025618
20
-6.12984094907688
30
0
41
1
10
67.8411244759617
20
-6.13901822997616
30
0
41
1
10
67.849752650326
20
-6.14421916366632
30
0
41
1
10
67.866677301373
20
-6.15603046196509
30
0
41
1
10
67.8749565312746
20
-6.16264409001272
30
0
41
1
10
67.8906370692285
20
-6.17709331349559
30
0
41
1
10
67.8980991577094
20
-6.18496574224471
30
0
41
1
10
67.912143592904
20
-6.20221868075862
30
0
41
1
10
67.918734858012
20
-6.21163444962025
30
0
41
1
10
67.9246156005502
20
-6.22168603031199
30
0
0
SPLINE
5
146
100
AcDbEntity
8
1
62
256
6
ByLayer
370
18
48
1
60
0
100
AcDbSpline
70
4
71
3
72
8
73
4
40
0
40
0
40
0
40
0
40
1
40
1
40
1
40
1
41
1
10
67.924615600553
20
-6.22168603031687
30
0
41
1
10
68.0047966529663
20
-6.35873442396721
30
0
41
1
10
68.084548368372
20
-6.49455306284017
30
0
41
1
10
68.1639404322596
20
-6.62908549205343
30
0
0
SPLINE
5
147
100
AcDbEntity
8
1
62
256
6
ByLayer
370
18
48
1
60
0
100
AcDbSpline
70
4
71
3
72
8
73
4
40
0
40
0
40
0
40
0
40
1
40
1
40
1
40
1
41
1
10
68.1639404322596
20
-6.62908549205343
30
0
41
1
10
68.4331241170125
20
-6.55886407074337
30
0
41
1
10
68.7031684854845
20
-6.47340389977785
30
0
41
1
10
68.9747854821346
20
-6.37357514022986
30
0
0
SPLINE
5
148
100
AcDbEntity
8
1
62
256
6
ByLayer
370
18
48
1
60
0
100
AcDbSpline
70
4
71
3
72
8
73
4
40
0
40
0
40
0
40
0
40
1
40
1
40
1
40
1
41
1
10
68.9747854821346
20
-6.37357514022997
30
0
41
1
10
69.0122528094375
20
-6.30722977508509
30
0
41
1
10
69.0498092409954
20
-6.24043833096951
30
0
41
1
10
69.0874696232468
20
-6.1731959236958
30
0
0
SPLINE
5
149
100
AcDbEntity
8
1
62
256
6
ByLayer
370
18
48
1
60
0
100
AcDbSpline
70
4
71
3
72
32
73
28
40
0
40
0
40
0
40
0
40
0.125000000000019
40
0.125000000000019
40
0.187500000000007
40
0.187500000000007
40
0.249999999999997
40
0.249999999999997
40
0.374999999999977
40
0.374999999999977
40
0.43749999999994
40
0.43749999999994
40
0.499999999999904
40
0.499999999999904
40
0.624999999999887
40
0.624999999999887
40
0.687499999999906
40
0.687499999999906
40
0.749999999999925
40
0.749999999999925
40
0.812499999999944
40
0.812499999999944
40
0.874999999999962
40
0.874999999999962
40
0.937499999999981
40
0.937499999999981
40
1
40
1
40
1
40
1
41
1
10
69.0874696232468
20
-6.1731959236958
30
0
41
1
10
69.0982909408986
20
-6.15387452000084
30
0
41
1
10
69.1109248316934
20
-6.13707225639507
30
0
41
1
10
69.1319071308345
20
-6.11467644363358
30
0
41
1
10
69.1392486835526
20
-6.10769183750711
30
0
41
1
10
69.1545873904975
20
-6.09463038693258
30
0
41
1
10
69.1625043702144
20
-6.08862599223312
30
0
41
1
10
69.1867061243755
20
-6.07221195393967
30
0
41
1
10
69.2035309447869
20
-6.06329899832983
30
0
41
1
10
69.2297105873736
20
-6.05276335845556
30
0
41
1
10
69.2386347425137
20
-6.04971921928691
30
0
41
1
10
69.2566114293897
20
-6.04466724861536
30
0
41
1
10
69.2656304712584
20
-6.04266355629824
30
0
41
1
10
69.2927696691717
20
-6.03819989399113
30
0
41
1
10
69.3109708430087
20
-6.03726149649884
30
0
41
1
10
69.3384154594089
20
-6.03925310845005
30
0
41
1
10
69.3476244614395
20
-6.04050213935892
30
0
41
1
10
69.3657066457392
20
-6.04420067099034
30
0
41
1
10
69.3746183246547
20
-6.04664788783725
30
0
41
1
10
69.392155365927
20
-6.05283792661041
30
0
41
1
10
69.4007810490462
20
-6.05657929765835
30
0
41
1
10
69.4176992492839
20
-6.06554775005941
30
0
41
1
10
69.4259723194348
20
-6.07077984327043
30
0
41
1
10
69.4416401704596
20
-6.08263353631449
30
0
41
1
10
69.4490954193467
20
-6.0892816504913
30
0
41
1
10
69.4631257698395
20
-6.10425574125782
30
0
41
1
10
69.4697096173108
20
-6.1126155052813
30
0
41
1
10
69.4755840543879
20
-6.12174317331565
30
0
0
SPLINE
5
14A
100
AcDbEntity
8
1
62
256
6
ByLayer
370
18
48
1
60
0
100
AcDbSpline
70
4
71
3
72
8
73
4
40
0
40
0
40
0
40
0
40
1
40
1
40
1
40
1
41
1
10
69.4755840543906
20
-6.12174317332128
30
0
41
1
10
69.4844214703872
20
-6.13547470171179
30
0
41
1
10
69.4932534203547
20
-6.14918018268875
30
0
41
1
10
69.5020800545767
20
-6.16285972092945
30
0
0
SPLINE
5
14B
100
AcDbEntity
8
1
62
256
6
ByLayer
370
18
48
1
60
0
100
AcDbSpline
70
4
71
3
72
14
73
10
40
0
40
0
40
0
40
0
40
0.25
40
0.25
40
0.5
40
0.5
40
0.75
40
0.75
40
1
40
1
40
1
40
1
41
1
10
69.5020800545768
20
-6.16285972092942
30
0
41
1
10
69.5760921374062
20
-6.13096987135276
30
0
41
1
10
69.6502461285816
20
-6.09806961131326
30
0
41
1
10
69.79886821552
20
-6.03027264628483
30
0
41
1
10
69.8733418950021
20
-5.99537488972766
30
0
41
1
10
70.0227918769527
20
-5.92360453263186
30
0
41
1
10
70.0977376891977
20
-5.88673191204884
30
0
41
1
10
70.2482937968247
20
-5.81104572895572
30
0
41
1
10
70.3239405128482
20
-5.77223388941161
30
0
41
1
10
70.3999998677713
20
-5.73247716157812
30
0
0
SPLINE
5
14C
100
AcDbEntity
8
1
62
256
6
ByLayer
370
18
48
1
60
0
100
AcDbSpline
70
4
71
3
72
14
73
10
40
0
40
0
40
0
40
0
40
0.25
40
0.25
40
0.5
40
0.5
40
0.75
40
0.75
40
1
40
1
40
1
40
1
41
1
10
70.3999998677713
20
-5.73247716157812
30
0
41
1
10
70.4478695859524
20
-5.67336172936504
30
0
41
1
10
70.4962149125982
20
-5.61381779018339
30
0
41
1
10
70.5939866726168
20
-5.4939343232505
30
0
41
1
10
70.6434427222479
20
-5.43355784186525
30
0
41
1
10
70.7434493405447
20
-5.3122515922889
30
0
41
1
10
70.7939927937013
20
-5.25133246847591
30
0
41
1
10
70.8962145583715
20
-5.12916935397189
30
0
41
1
10
70.9478741661699
20
-5.06799115509151
30
0
41
1
10
71.0000000000001
20
-5.00674093252533
30
0
0
SPLINE
5
14D
100
AcDbEntity
8
1
62
256
6
ByLayer
370
18
48
1
60
0
100
AcDbSpline
70
4
71
3
72
25
73
21
40
0
40
0
40
0
40
0
40
0.187134516250991
40
0.187134516250991
40
0.233918145313739
40
0.233918145313739
40
0.280701774376486
40
0.374269032501982
40
0.374269032501982
40
0.561403548752972
40
0.561403548752972
40
0.748538065003963
40
0.748538065003963
40
0.79532169406671
40
0.79532169406671
40
0.842105323129458
40
0.842105323129458
40
0.935672581254953
40
0.935672581254953
40
1
40
1
40
1
40
1
41
1
10
70.9999999999999
20
-5.0067409325255
30
0
41
1
10
70.9999999999999
20
-4.86156290449188
30
0
41
1
10
70.9999999999999
20
-4.71986722988203
30
0
41
1
10
71
20
-4.54732292579956
30
0
41
1
10
71
20
-4.51301888229426
30
0
41
1
10
71
20
-4.44522121519805
30
0
41
1
10
71
20
-4.34461433638535
30
0
41
1
10
71.0000000000001
20
-4.2472254399193
30
0
41
1
10
71.0000000000001
20
-4.05667768085797
30
0
41
1
10
71
20
-3.93528923790822
30
0
41
1
10
71
20
-3.70370072398722
30
0
41
1
10
71
20
-3.59350243599283
30
0
41
1
10
71.0000000000001
20
-3.46290744174061
30
0
41
1
10
71
20
-3.43714764851725
30
0
41
1
10
71
20
-3.38635243171498
30
0
41
1
10
71
20
-3.36128169516294
30
0
41
1
10
71.0000000000001
20
-3.28747091630876
30
0
41
1
10
71
20
-3.24015126933514
30
0
41
1
10
71
20
-3.16342829055071
30
0
41
1
10
71.0000000000001
20
-3.13304296758508
30
0
41
1
10
71.0000000000001
20
-3.10352493254589
30
0
0
SPLINE
5
14E
100
AcDbEntity
8
1
62
256
6
ByLayer
370
18
48
1
60
0
100
AcDbSpline
70
4
71
3
72
14
73
10
40
0
40
0
40
0
40
0
40
0.499999999999986
40
0.499999999999986
40
0.749999999999978
40
0.749999999999978
40
0.874999999999989
40
0.874999999999989
40
1
40
1
40
1
40
1
41
1
10
71.0000000000001
20
-3.05652824815397
30
0
41
1
10
70.9017718715273
20
-3.05264174429482
30
0
41
1
10
70.8026550807983
20
-3.04913090305485
30
0
41
1
10
70.6526469191659
20
-3.04518687168911
30
0
41
1
10
70.6024246638032
20
-3.04409535977922
30
0
41
1
10
70.5267615422231
20
-3.04289397252879
30
0
41
1
10
70.501486106921
20
-3.04256663420927
30
0
41
1
10
70.4508253656565
20
-3.04207887655184
30
0
41
1
10
70.4254299145545
20
-3.0419543924969
30
0
41
1
10
70.4000000540553
20
-3.04184913907417
30
0
0
SPLINE
5
14F
100
AcDbEntity
8
1
62
256
6
ByLayer
370
18
48
1
60
0
100
AcDbSpline
70
4
71
3
72
14
73
10
40
0
40
0
40
0
40
0
40
0.25
40
0.25
40
0.5
40
0.5
40
0.75
40
0.75
40
1
40
1
40
1
40
1
41
1
10
70.4000000540553
20
-3.04184913907415
30
0
41
1
10
70.3028379197414
20
-2.99018242686651
30
0
41
1
10
70.2059867488168
20
-2.93709317785638
30
0
41
1
10
70.0128541694846
20
-2.82809455677923
30
0
41
1
10
69.9165493465065
20
-2.77221563545749
30
0
41
1
10
69.724273668317
20
-2.65791491741615
30
0
41
1
10
69.6283276504979
20
-2.59946048538362
30
0
41
1
10
69.4368652932399
20
-2.47982667901206
30
0
41
1
10
69.3413703289252
20
-2.41864424396439
30
0
41
1
10
69.2462917344724
20
-2.35623736909821
30
0
0
SPLINE
5
150
100
AcDbEntity
8
1
62
256
6
ByLayer
370
18
48
1
60
0
100
AcDbSpline
70
4
71
3
72
8
73
4
40
0
40
0
40
0
40
0
40
1
40
1
40
1
40
1
41
1
10
69.2462917344725
20
-2.35623736909818
30
0
41
1
10
69.2116115403473
20
-2.2933055857678
30
0
41
1
10
69.1768710255498
20
-2.23085264852489
30
0
41
1
10
69.1420638930196
20
-2.16888360519997
30
0
0
SPLINE
5
151
100
AcDbEntity
8
1
62
256
6
ByLayer
370
18
48
1
60
0
100
AcDbSpline
70
4
71
3
72
32
73
28
40
0
40
0
40
0
40
0
40
0.124999999999978
40
0.124999999999978
40
0.187499999999967
40
0.187499999999967
40
0.249999999999956
40
0.249999999999956
40
0.374999999999934
40
0.374999999999934
40
0.437499999999924
40
0.437499999999924
40
0.499999999999914
40
0.499999999999914
40
0.624999999999894
40
0.624999999999894
40
0.687499999999912
40
0.687499999999912
40
0.749999999999929
40
0.749999999999929
40
0.812499999999947
40
0.812499999999947
40
0.874999999999965
40
0.874999999999965
40
0.937499999999982
40
0.937499999999982
40
1
40
1
40
1
40
1
41
1
10
69.1420638930196
20
-2.16888360519997
30
0
41
1
10
69.1316364471055
20
-2.15031905245903
30
0
41
1
10
69.1194722320249
20
-2.13181346064994
30
0
41
1
10
69.099183648312
20
-2.10413621727213
30
0
41
1
10
69.0920363930471
20
-2.09487945756013
30
0
41
1
10
69.0772878947267
20
-2.07664978630317
30
0
41
1
10
69.0696927501625
20
-2.0676789104825
30
0
41
1
10
69.0462972173481
20
-2.04116321989613
30
0
41
1
10
69.0298938547502
20
-2.02401096376127
30
0
41
1
10
69.0041287309863
20
-1.99903029983923
30
0
41
1
10
68.9953081112184
20
-1.99079787268315
30
0
41
1
10
68.9775770713863
20
-1.97486908172533
30
0
41
1
10
68.9686411786856
20
-1.96714548126613
30
0
41
1
10
68.9416291364929
20
-1.94469455505063
30
0
41
1
10
68.9233519207269
20
-1.93067401558207
30
0
41
1
10
68.8955070950175
20
-1.91125343469045
30
0
41
1
10
68.8861275953537
20
-1.90503924574412
30
0
41
1
10
68.867649637175
20
-1.89349678553279
30
0
41
1
10
68.8585016180765
20
-1.88813157903888
30
0
41
1
10
68.8404138965879
20
-1.87829584641656
30
0
41
1
10
68.831473846702
20
-1.8738239614664
30
0
41
1
10
68.8138458736323
20
-1.86593088687351
30
0
41
1
10
68.8053437373526
20
-1.86259423936861
30
0
41
1
10
68.789077622453
20
-1.85729169034553
30
0
41
1
10
68.7813036680251
20
-1.8553191926255
30
0
41
1
10
68.7666371239803
20
-1.85301651600597
30
0
41
1
10
68.759924554972
20
-1.85271522651587
30
0
41
1
10
68.7539129236063
20
-1.85337906084476
30
0
0
SPLINE
5
152
100
AcDbEntity
8
1
62
256
6
ByLayer
370
18
48
1
60
0
100
AcDbSpline
70
4
71
3
72
11
73
7
40
0
40
0
40
0
40
0
40
0.574834808957794
40
0.574834808957794
40
0.862252213436691
40
1
40
1
40
1
40
1
41
1
10
55.845909104982
20
7.01991211290971
30
0
41
1
10
55.8403365195323
20
7.04016557498838
30
0
41
1
10
55.8347449684194
20
7.05467627714469
30
0
41
1
10
55.8263061977681
20
7.0677152149226
30
0
41
1
10
55.8221352190896
20
7.07199094263993
30
0
41
1
10
55.8179513104873
20
7.07304179177325
30
0
41
1
10
55.8165943985725
20
7.07304116308129
30
0
0
SPLINE
5
153
100
AcDbEntity
8
1
62
256
6
ByLayer
370
18
48
1
60
0
100
AcDbSpline
70
4
71
3
72
18
73
14
40
0
40
0
40
0
40
0
40
0.0312848607825914
40
0.0312848607825914
40
0.354189907188394
40
0.354189907188394
40
0.677094953594197
40
0.677094953594197
40
0.757821215195647
40
0.757821215195647
40
0.838547476797098
40
0.838547476797098
40
1
40
1
40
1
40
1
41
1
10
57.1720496883308
20
7.07304131607788
30
0
41
1
10
57.1728338488097
20
7.07304149731041
30
0
41
1
10
57.1736175889271
20
7.0729265602732
30
0
41
1
10
57.1824866797171
20
7.07032597253581
30
0
41
1
10
57.1905441785386
20
7.05575189489883
30
0
41
1
10
57.2067608625228
20
7.00238479607765
30
0
41
1
10
57.2148905289799
20
6.96359275010698
30
0
41
1
10
57.2250834765856
20
6.89960720528646
30
0
41
1
10
57.2271239889728
20
6.88603338879426
30
0
41
1
10
57.2312105259453
20
6.85731536332116
30
0
41
1
10
57.233259425992
20
6.84214773199167
30
0
41
1
10
57.2393877964112
20
6.79449902089689
30
0
41
1
10
57.2434529494287
20
6.75985343312269
30
0
41
1
10
57.2475104075595
20
6.72238673343657
30
0
0
SPLINE
5
154
100
AcDbEntity
8
1
62
256
6
ByLayer
370
18
48
1
60
0
100
AcDbSpline
70
4
71
3
72
18
73
14
40
0
40
0
40
0
40
0
40
0.303535233981023
40
0.303535233981023
40
0.607070467962046
40
0.607070467962046
40
0.682954276457302
40
0.682954276457302
40
0.758838084952558
40
0.758838084952558
40
0.91060570194307
40
0.91060570194307
40
1
40
1
40
1
40
1
41
1
10
57.3970290064486
20
6.67555856152083
30
0
41
1
10
57.3889244870417
20
6.75507381879808
30
0
41
1
10
57.3808101659507
20
6.82274023961699
30
0
41
1
10
57.364569268055
20
6.934531056308
30
0
41
1
10
57.3564529078928
20
6.97865660639775
30
0
41
1
10
57.3462650254235
20
7.01873259526832
30
0
41
1
10
57.3442249443853
20
7.02599185010254
30
0
41
1
10
57.3401370082054
20
7.03898142313193
30
0
41
1
10
57.3380874597721
20
7.04471372536725
30
0
41
1
10
57.331956972288
20
7.05951477081493
30
0
41
1
10
57.3278832055519
20
7.06622850761579
30
0
41
1
10
57.3214077231087
20
7.0719845009686
30
0
41
1
10
57.3190083578314
20
7.07304767040898
30
0
41
1
10
57.3166103745948
20
7.07304536246923
30
0
0
SPLINE
5
155
100
AcDbEntity
8
1
62
256
6
ByLayer
370
13
48
1
60
0
100
AcDbSpline
70
4
71
3
72
9
73
5
40
0
40
0
40
0
40
0
40
0.569432874196066
40
1
40
1
40
1
40
1
41
1
10
65.9854937802033
20
-5.94954846028304
30
0
41
1
10
66.002030493314
20
-6.07624462369196
30
0
41
1
10
66.0310711809964
20
-6.22356752521088
30
0
41
1
10
66.0601118297619
20
-6.23248071935444
30
0
41
1
10
66.0726157764984
20
-6.21083473125461
30
0
0
SPLINE
5
156
100
AcDbEntity
8
1
62
256
6
ByLayer
370
18
48
1
60
0
100
AcDbSpline
70
4
71
3
72
20
73
16
40
0
40
0
40
0
40
0
40
0.0748426493405013
40
0.0748426493405013
40
0.207007985149001
40
0.207007985149001
40
0.471338656766001
40
0.471338656766001
40
0.735669328383
40
0.735669328383
40
0.8678346641915
40
0.8678346641915
40
0.93391733209575
40
0.93391733209575
40
1
40
1
40
1
40
1
41
1
10
65.5665561163918
20
-7.07304153372976
30
0
41
1
10
65.5642439828481
20
-7.07303428503536
30
0
41
1
10
65.5619282855492
20
-7.07202768992886
30
0
41
1
10
65.5555082457815
20
-7.06644492748745
30
0
41
1
10
65.5514248690877
20
-7.05975099922191
30
0
41
1
10
65.5391917420487
20
-7.03050155765928
30
0
41
1
10
65.5310454196375
20
-6.99879636771146
30
0
41
1
10
65.5148105147306
20
-6.9114752461401
30
0
41
1
10
65.5067228865843
20
-6.85585859141119
30
0
41
1
10
65.4945580351197
20
-6.75430957766918
30
0
41
1
10
65.4904963507753
20
-6.71743345618191
30
0
41
1
10
65.4843729771886
20
-6.65750139316162
30
0
41
1
10
65.4823266006529
20
-6.63675400013369
30
0
41
1
10
65.4782191023439
20
-6.59370118592821
30
0
41
1
10
65.4761600438834
20
-6.57141224982334
30
0
41
1
10
65.4741064653687
20
-6.54847346632255
30
0
0
SPLINE
5
157
100
AcDbEntity
8
1
62
256
6
ByLayer
370
18
48
1
60
0
100
AcDbSpline
70
4
71
3
72
18
73
14
40
0
40
0
40
0
40
0
40
0.250798566863284
40
0.250798566863284
40
0.376197850294926
40
0.376197850294926
40
0.438897492010747
40
0.438897492010747
40
0.501597133726568
40
0.501597133726568
40
0.752395700589851
40
0.752395700589851
40
1
40
1
40
1
40
1
41
1
10
65.324621876042
20
-6.49206184684076
30
0
41
1
10
65.3327160143534
20
-6.5874876195407
30
0
41
1
10
65.3407808362639
20
-6.67154408101936
30
0
41
1
10
65.352992129282
20
-6.78046483290319
30
0
41
1
10
65.3570780937404
20
-6.81390566109204
30
0
41
1
10
65.3632248036641
20
-6.85970295788692
30
0
41
1
10
65.3652767412449
20
-6.87424103002169
30
0
41
1
10
65.3693866769967
20
-6.90184638143353
30
0
41
1
10
65.3714473372806
20
-6.91492926487766
30
0
41
1
10
65.3817342359593
20
-6.9764251787158
30
0
41
1
10
65.3898668955131
20
-7.01292041715593
30
0
41
1
10
65.4059722691595
20
-7.06106133995021
30
0
41
1
10
65.4139683343942
20
-7.07301516594788
30
0
41
1
10
65.4220050385502
20
-7.07304113435779
30
0
0
SPLINE
5
158
100
AcDbEntity
8
1
62
256
6
ByLayer
370
13
48
1
60
0
100
AcDbSpline
70
4
71
3
72
9
73
5
40
0
40
0
40
0
40
0
40
0.363173028573141
40
1
40
1
40
1
40
1
41
1
10
64.8226301910728
20
-5.58162858010786
30
0
41
1
10
64.8339539848076
20
-5.71232053059282
30
0
41
1
10
64.8651341464164
20
-6.02047121208787
30
0
41
1
10
64.8963143056278
20
-6.17629847347817
30
0
41
1
10
64.9161706730896
20
-6.21086667680638
30
0
0
SPLINE
5
159
100
AcDbEntity
8
1
62
256
6
ByLayer
370
18
48
1
60
0
100
AcDbSpline
70
4
71
3
72
26
73
22
40
0
40
0
40
0
40
0
40
0.0354719851448314
40
0.0354719851448314
40
0.08369838588759
40
0.08369838588759
40
0.131924786630349
40
0.131924786630349
40
0.228377588115865
40
0.228377588115865
40
0.421283191086899
40
0.421283191086899
40
0.614188794057932
40
0.614188794057932
40
0.710641595543448
40
0.710641595543448
40
0.758867996286207
40
0.758867996286207
40
0.807094397028965
40
0.807094397028965
40
1
40
1
40
1
40
1
41
1
10
58.6720262576235
20
7.07304337789404
30
0
41
1
10
58.6735227252181
20
7.07303702476807
30
0
41
1
10
58.6750215254414
20
7.07261232821875
30
0
41
1
10
58.6785649519732
20
7.0706181964477
30
0
41
1
10
58.6806128457051
20
7.06869010266698
30
0
41
1
10
58.6847223658933
20
7.06325711182515
30
0
41
1
10
58.6867782896863
20
7.05975786896215
30
0
41
1
10
58.6929314884588
20
7.04696119252256
30
0
41
1
10
58.6970206270033
20
7.03535783517805
30
0
41
1
10
58.7092452040471
20
6.99150052591281
30
0
41
1
10
58.7173331676428
20
6.95022233804352
30
0
41
1
10
58.7334789176821
20
6.84390615597013
30
0
41
1
10
58.741544045366
20
6.77886843284909
30
0
41
1
10
58.7537765637468
20
6.66317426629823
30
0
41
1
10
58.7578711575412
20
6.62158076634481
30
0
41
1
10
58.7640353044851
20
6.55455158378567
30
0
41
1
10
58.7660936526659
20
6.53143375531175
30
0
41
1
10
58.7701941893523
20
6.4839204927629
30
0
41
1
10
58.7722393885265
20
6.45949300383199
30
0
41
1
10
58.7824423658957
20
6.33403708311286
30
0
41
1
10
58.790525787385
20
6.22307954257064
30
0
41
1
10
58.7986030688267
20
6.10177010110525
30
0
0
SPLINE
5
15A
100
AcDbEntity
8
1
62
256
6
ByLayer
370
18
48
1
60
0
100
AcDbSpline
70
4
71
3
72
21
73
17
40
0
40
0
40
0
40
0
40
0.18545138345936
40
0.18545138345936
40
0.370902766918721
40
0.370902766918721
40
0.556354150378081
40
0.556354150378081
40
0.602716996242921
40
0.602716996242921
40
0.649079842107761
40
0.74180553383744
40
0.74180553383744
40
0.927256917296799
40
0.927256917296799
40
1
40
1
40
1
40
1
41
1
10
58.9481576127357
20
6.02658715656207
30
0
41
1
10
58.9399769428468
20
6.15367815231889
30
0
41
1
10
58.9318137813158
20
6.26912094984269
30
0
41
1
10
58.9155579417126
20
6.4774514536698
30
0
41
1
10
58.9074701762283
20
6.57033719774412
30
0
41
1
10
58.8912939689324
20
6.73356738042145
30
0
41
1
10
58.8832011824373
20
6.80391346421433
30
0
41
1
10
58.872952212112
20
6.8773218106106
30
0
41
1
10
58.8708938606697
20
6.89129380384617
30
0
41
1
10
58.8667831044325
20
6.91766111921189
30
0
41
1
10
58.860628516013
20
6.95483681321318
30
0
41
1
10
58.8545111920138
20
6.98497396195143
30
0
41
1
10
58.8423201818909
20
7.03602177519366
30
0
41
1
10
58.8342554387872
20
7.05777512872183
30
0
41
1
10
58.8230166337971
20
7.07114055586888
30
0
41
1
10
58.8198451317889
20
7.07303628138351
30
0
41
1
10
58.816666253303
20
7.07304668863551
30
0
0
SPLINE
5
15B
100
AcDbEntity
8
1
62
256
6
ByLayer
370
13
48
1
60
0
100
AcDbSpline
70
4
71
3
72
10
73
6
40
0
40
0
40
0
40
0
40
0.347526468072141
40
0.823618376551884
40
1
40
1
40
1
40
1
41
1
10
64.4345155780807
20
-5.42658893412241
30
0
41
1
10
64.4502638182986
20
-5.62769113146794
30
0
41
1
10
64.4875862586735
20
-6.02046068347542
30
0
41
1
10
64.5329014747313
20
-6.23214173400461
30
0
41
1
10
64.5624684680941
20
-6.22632222045945
30
0
41
1
10
64.5704612435793
20
-6.21432677075754
30
0
0
SPLINE
5
15C
100
AcDbEntity
8
1
62
256
6
ByLayer
370
18
48
1
60
0
100
AcDbSpline
70
4
71
3
72
22
73
18
40
0
40
0
40
0
40
0
40
0.149441591259956
40
0.149441591259956
40
0.23449743213396
40
0.23449743213396
40
0.277025352570962
40
0.277025352570962
40
0.319553273007964
40
0.319553273007964
40
0.489664954755973
40
0.489664954755973
40
0.659776636503982
40
0.659776636503982
40
0.829888318251991
40
0.829888318251991
40
1
40
1
40
1
40
1
41
1
10
64.0666258513936
20
-7.07304224688411
30
0
41
1
10
64.059524272893
20
-7.07305861000353
30
0
41
1
10
64.0524054010158
20
-7.0636616430759
30
0
41
1
10
64.0411598494631
20
-7.03396089740028
30
0
41
1
10
64.0370705031079
20
-7.02009461641615
30
0
41
1
10
64.0309207166595
20
-6.99456622032773
30
0
41
1
10
64.0288654649125
20
-6.98525500985073
30
0
41
1
10
64.0247615175674
20
-6.9651003037034
30
0
41
1
10
64.0227153633085
20
-6.95427160410154
30
0
41
1
10
64.0125095772494
20
-6.89641502595032
30
0
41
1
10
64.0044301946135
20
-6.83827772857586
30
0
41
1
10
63.9882504978333
20
-6.69892190795738
30
0
41
1
10
63.9801276827345
20
-6.61770241040796
30
0
41
1
10
63.9638545321604
20
-6.43207016663592
30
0
41
1
10
63.9557087033361
20
-6.32765156973562
30
0
41
1
10
63.9393156920136
20
-6.09480091803326
30
0
41
1
10
63.9312044195094
20
-5.96839392455902
30
0
41
1
10
63.9230769776229
20
-5.83236239590841
30
0
0
SPLINE
5
15D
100
AcDbEntity
8
1
62
256
6
ByLayer
370
18
48
1
60
0
100
AcDbSpline
70
4
71
3
72
24
73
20
40
0
40
0
40
0
40
0
40
0.164520586844112
40
0.164520586844112
40
0.329041173688225
40
0.329041173688225
40
0.411301467110281
40
0.411301467110281
40
0.452431613821309
40
0.452431613821309
40
0.493561760532337
40
0.493561760532337
40
0.658082347376449
40
0.658082347376449
40
0.822602934220562
40
0.822602934220562
40
0.987123521064674
40
0.987123521064674
40
1
40
1
40
1
40
1
41
1
10
63.7735495625434
20
-5.74844400038762
30
0
41
1
10
63.7816884482519
20
-5.88931505851494
30
0
41
1
10
63.7897687635394
20
-6.01931630203347
30
0
41
1
10
63.8060094141286
20
-6.25798917763055
30
0
41
1
10
63.814143618674
20
-6.36666095333462
30
0
41
1
10
63.8263627635544
20
-6.5134770567719
30
0
41
1
10
63.8304399110561
20
-6.55971195843091
30
0
41
1
10
63.8365720489391
20
-6.62493503996217
30
0
41
1
10
63.8386189077157
20
-6.64598749971722
30
0
41
1
10
63.8427209181904
20
-6.68669856036931
30
0
41
1
10
63.8447686823924
20
-6.70628320414437
30
0
41
1
10
63.8549873982647
20
-6.80027993354452
30
0
41
1
10
63.8631327812305
20
-6.86306866031819
30
0
41
1
10
63.8794149135808
20
-6.96452956341983
30
0
41
1
10
63.8875305711859
20
-7.00320024989583
30
0
41
1
10
63.903756817918
20
-7.05635395347832
30
0
41
1
10
63.9118669271388
20
-7.07083926698894
30
0
41
1
10
63.9207194163521
20
-7.07296369844909
30
0
41
1
10
63.9213624830204
20
-7.07304074697143
30
0
41
1
10
63.9220057519564
20
-7.07304083771035
30
0
0
SPLINE
5
15E
100
AcDbEntity
8
1
62
256
6
ByLayer
370
13
48
1
60
0
100
AcDbSpline
70
4
71
3
72
10
73
6
40
0
40
0
40
0
40
0
40
0.223682125195199
40
0.681141918720603
40
1
40
1
40
1
40
1
41
1
10
63.271610817106
20
-4.87028190586076
30
0
41
1
10
63.2821598674385
20
-5.0415760397475
30
0
41
1
10
63.314283133571
20
-5.51988726177291
30
0
41
1
10
63.3614440403862
20
-6.00790997383641
30
0
41
1
10
63.3980558910821
20
-6.17371770273218
30
0
41
1
10
63.4130935255173
20
-6.20495140897845
30
0
0
SPLINE
5
15F
100
AcDbEntity
8
1
62
256
6
ByLayer
370
18
48
1
60
0
100
AcDbSpline
70
4
71
3
72
8
73
4
40
0
40
0
40
0
40
0
40
1
40
1
40
1
40
1
41
1
10
63.4130934768031
20
-6.20495130779696
30
0
41
1
10
63.4151267740952
20
-6.20917454999008
30
0
41
1
10
63.4171600713859
20
-6.21272372866949
30
0
41
1
10
63.4191933686769
20
-6.21559655312552
30
0
0
SPLINE
5
160
100
AcDbEntity
8
1
62
256
6
ByLayer
370
18
48
1
60
0
100
AcDbSpline
70
4
71
3
72
30
73
26
40
0
40
0
40
0
40
0
40
0.0381467038204257
40
0.0381467038204257
40
0.175554317560366
40
0.175554317560366
40
0.209906220995351
40
0.209906220995351
40
0.244258124430336
40
0.244258124430336
40
0.312961931300305
40
0.312961931300305
40
0.450369545040245
40
0.450369545040245
40
0.587777158780184
40
0.587777158780184
40
0.656480965650154
40
0.656480965650154
40
0.690832869085139
40
0.690832869085139
40
0.725184772520123
40
0.725184772520123
40
0.862592386260062
40
0.862592386260062
40
1
40
1
40
1
40
1
41
1
10
60.1720251236761
20
7.07304500597922
30
0
41
1
10
60.1742767082717
20
7.07304121568779
30
0
41
1
10
60.1765300912286
20
7.07209497999861
30
0
41
1
10
60.1869140032032
20
7.06341493099677
30
0
41
1
10
60.1950520200179
20
7.04442685376642
30
0
41
1
10
60.2052515757542
20
7.00511792402523
30
0
41
1
10
60.2072932230738
20
6.99647550594028
30
0
41
1
10
60.2113819178554
20
6.97761313151585
30
0
41
1
10
60.2134310210219
20
6.96738198651033
30
0
41
1
10
60.2195762606773
20
6.93436913441928
30
0
41
1
10
60.2236528438325
20
6.90936912995753
30
0
41
1
10
60.2358634889849
20
6.82558693030452
30
0
41
1
10
60.243999592884
20
6.75804533563286
30
0
41
1
10
60.260241042834
20
6.60003260545443
30
0
41
1
10
60.2683392719556
20
6.5095609082579
30
0
41
1
10
60.2805130769709
20
6.35644713472954
30
0
41
1
10
60.2845765833458
20
6.30250262478634
30
0
41
1
10
60.2906986885283
20
6.2171474780331
30
0
41
1
10
60.2927439435313
20
6.18795565329327
30
0
41
1
10
60.2968476253922
20
6.12807394788476
30
0
41
1
10
60.2988992817652
20
6.09748855805034
30
0
41
1
10
60.3091457437359
20
5.94157248223326
30
0
41
1
10
60.3173072158261
20
5.80709588700671
30
0
41
1
10
60.3335411281143
20
5.51920588195361
30
0
41
1
10
60.3416136386357
20
5.3657911125236
30
0
41
1
10
60.3497078704514
20
5.20288217699195
30
0
0
SPLINE
5
161
100
AcDbEntity
8
1
62
256
6
ByLayer
370
18
48
1
60
0
100
AcDbSpline
70
4
71
3
72
28
73
24
40
0
40
0
40
0
40
0
40
0.0668171458110102
40
0.0668171458110102
40
0.100225718716515
40
0.100225718716515
40
0.133634291622021
40
0.133634291622021
40
0.26726858324404
40
0.26726858324404
40
0.400902874866059
40
0.400902874866059
40
0.534537166488079
40
0.534537166488079
40
0.668171458110098
40
0.668171458110098
40
0.801805749732117
40
0.801805749732117
40
0.935440041354137
40
0.935440041354137
40
0.968848614259642
40
0.968848614259642
40
1
40
1
40
1
40
1
41
1
10
60.4992405586323
20
5.10266695346175
30
0
41
1
10
60.4951782010156
20
5.18606784985678
30
0
41
1
10
60.4910947625806
20
5.26746000688354
30
0
41
1
10
60.4849429565625
20
5.38647723958584
30
0
41
1
10
60.4828851919581
20
5.42568945568033
30
0
41
1
10
60.4787755560804
20
5.50280964316147
30
0
41
1
10
60.4767255622296
20
5.54068430672376
30
0
41
1
10
60.466499074498
20
5.72667004576226
30
0
41
1
10
60.4583985964786
20
5.86464572006057
30
0
41
1
10
60.4422519914749
20
6.11953101503568
30
0
41
1
10
60.4341954838207
20
6.23643923203062
30
0
41
1
10
60.4179379272707
20
6.44908036891087
30
0
41
1
10
60.409764217693
20
6.54483423155278
30
0
41
1
10
60.393339193731
20
6.71431292567121
30
0
41
1
10
60.3852276434558
20
6.78659544850461
30
0
41
1
10
60.3690515012016
20
6.90712813015287
30
0
41
1
10
60.3609592923854
20
6.9553755376842
30
0
41
1
10
60.344730035043
20
7.027941415025
30
0
41
1
10
60.3366106892034
20
7.05226135513561
30
0
41
1
10
60.3264193054439
20
7.06730213085132
30
0
41
1
10
60.3243785408135
20
7.06954039062188
30
0
41
1
10
60.3204277022048
20
7.07236036429919
30
0
41
1
10
60.3185207698218
20
7.07304002654982
30
0
41
1
10
60.3166187965327
20
7.07304113947239
30
0
0
SPLINE
5
162
100
AcDbEntity
8
1
62
256
6
ByLayer
370
13
48
1
60
0
100
AcDbSpline
70
4
71
3
72
10
73
6
40
0
40
0
40
0
40
0
40
0.265821412642693
40
0.648923649619276
40
1
40
1
40
1
40
1
41
1
10
62.8835079040948
20
-4.65659577998733
30
0
41
1
10
62.8984775198223
20
-4.91555299625549
30
0
41
1
10
62.9350213798044
20
-5.48079495372724
30
0
41
1
10
62.9913358092975
20
-6.06061625607174
30
0
41
1
10
63.0326807269219
20
-6.21438187879031
30
0
41
1
10
63.0524514260492
20
-6.22368114318959
30
0
0
SPLINE
5
163
100
AcDbEntity
8
1
62
256
6
ByLayer
370
18
48
1
60
0
100
AcDbSpline
70
4
71
3
72
9
73
5
40
0
40
0
40
0
40
0
40
0.383258218075915
40
1
40
1
40
1
40
1
41
1
10
63.052450858023
20
-6.22368087599747
30
0
41
1
10
63.0542545700674
20
-6.22452937478354
30
0
41
1
10
63.0589608280748
20
-6.22534840834641
30
0
41
1
10
63.0636670860987
20
-6.2225173275707
30
0
41
1
10
63.0665696320277
20
-6.21938988474508
30
0
0
SPLINE
5
164
100
AcDbEntity
8
1
62
256
6
ByLayer
370
13
48
1
60
0
100
AcDbSpline
70
4
71
3
72
11
73
7
40
0
40
0
40
0
40
0
40
0.160189544847937
40
0.513919109020617
40
0.867648673193296
40
1
40
1
40
1
40
1
41
1
10
61.7206041477494
20
-3.93762078458485
30
0
41
1
10
61.7303742220597
20
-4.13492879106281
30
0
41
1
10
61.7617185141355
20
-4.73628306219925
30
0
41
1
10
61.8146370181707
20
-5.55393746332649
30
0
41
1
10
61.8658576540202
20
-6.0243245582179
30
0
41
1
10
61.895504071405
20
-6.15521449096897
30
0
41
1
10
61.9035762724347
20
-6.18028069205849
30
0
0
SPLINE
5
165
100
AcDbEntity
8
1
62
256
6
ByLayer
370
18
48
1
60
0
100
AcDbSpline
70
4
71
3
72
29
73
25
40
0
40
0
40
0
40
0
40
0.125000000000001
40
0.125000000000001
40
0.250000000000002
40
0.250000000000002
40
0.312500000000002
40
0.312500000000002
40
0.343750000000002
40
0.343750000000002
40
0.375000000000003
40
0.375000000000003
40
0.500000000000002
40
0.500000000000002
40
0.625000000000002
40
0.625000000000002
40
0.750000000000002
40
0.750000000000002
40
0.781250000000002
40
0.781250000000002
40
0.812500000000001
40
0.875000000000001
40
0.875000000000001
40
1
40
1
40
1
40
1
41
1
10
62.5673883980085
20
-7.07300530350545
30
0
41
1
10
62.5592153561084
20
-7.07377592791835
30
0
41
1
10
62.5510634965539
20
-7.06215467510538
30
0
41
1
10
62.5348315743826
20
-7.01469144632608
30
0
41
1
10
62.5267515314114
20
-6.97884845316165
30
0
41
1
10
62.5145945991566
20
-6.90676547457247
30
0
41
1
10
62.5105349724795
20
-6.87967889364762
30
0
41
1
10
62.5044122219723
20
-6.83438694575023
30
0
41
1
10
62.5023652374501
20
-6.81851222833211
30
0
41
1
10
62.4982581068999
20
-6.78519076190344
30
0
41
1
10
62.4961957916534
20
-6.76772024167965
30
0
41
1
10
62.4859110312853
20
-6.67688628998425
30
0
41
1
10
62.4777438826642
20
-6.59288552790866
30
0
41
1
10
62.461512294321
20
-6.4029423469818
30
0
41
1
10
62.4534477347751
20
-6.29699790890123
30
0
41
1
10
62.4372552168257
20
-6.06318793164905
30
0
41
1
10
62.4290998529466
20
-5.9353246326427
30
0
41
1
10
62.4188340019849
20
-5.76137438496804
30
0
41
1
10
62.4167745910492
20
-5.72582488660723
30
0
41
1
10
62.4126643313921
20
-5.65356859064229
30
0
41
1
10
62.4065153098368
20
-5.54351883627467
30
0
41
1
10
62.4004116084382
20
-5.42853458319914
30
0
41
1
10
62.3882422078156
20
-5.19209858951268
30
0
41
1
10
62.3801826955532
20
-5.02586765430991
30
0
41
1
10
62.3720700074227
20
-4.85112097137122
30
0
0
SPLINE
5
166
100
AcDbEntity
8
1
62
256
6
ByLayer
370
18
48
1
60
0
100
AcDbSpline
70
4
71
3
72
33
73
29
40
0
40
0
40
0
40
0
40
0.0312499999999999
40
0.0312499999999999
40
0.0624999999999997
40
0.0624999999999997
40
0.124999999999999
40
0.124999999999999
40
0.249999999999999
40
0.374999999999999
40
0.374999999999999
40
0.437499999999999
40
0.437499999999999
40
0.468749999999999
40
0.468749999999999
40
0.499999999999999
40
0.499999999999999
40
0.624999999999999
40
0.624999999999999
40
0.749999999999999
40
0.749999999999999
40
0.812499999999999
40
0.812499999999999
40
0.843749999999999
40
0.843749999999999
40
0.874999999999999
40
0.874999999999999
40
1
40
1
40
1
40
1
41
1
10
62.2225493998466
20
-4.74383807924568
30
0
41
1
10
62.2245873264246
20
-4.78875916033672
30
0
41
1
10
62.2266286364205
20
-4.83324029083403
30
0
41
1
10
62.230721343056
20
-4.92131199914425
30
0
41
1
10
62.2327667520671
20
-4.96477277816251
30
0
41
1
10
62.2388928008363
20
-5.09317007489287
30
0
41
1
10
62.242972232672
20
-5.17624247373311
30
0
41
1
10
62.2551995105221
20
-5.41802100892775
30
0
41
1
10
62.2714464707711
20
-5.72059452869257
30
0
41
1
10
62.2875915850897
20
-5.98409095779547
30
0
41
1
10
62.2997800263408
20
-6.16679137190999
30
0
41
1
10
62.3038590644184
20
-6.22519967609995
30
0
41
1
10
62.3100191544882
20
-6.30899496324966
30
0
41
1
10
62.3120779449341
20
-6.33627869980688
30
0
41
1
10
62.3161826508929
20
-6.38925745238092
30
0
41
1
10
62.3182315429144
20
-6.41499350886147
30
0
41
1
10
62.3284575937352
20
-6.53994721402012
30
0
41
1
10
62.336573881516
20
-6.62801489717418
30
0
41
1
10
62.3527407243417
20
-6.78089244716375
30
0
41
1
10
62.3607912493844
20
-6.84570137439476
30
0
41
1
10
62.3729728226942
20
-6.92531922700164
30
0
41
1
10
62.3770518235054
20
-6.9489203319159
30
0
41
1
10
62.3831912473206
20
-6.97984343007226
30
0
41
1
10
62.385241281592
20
-6.98940432284934
30
0
41
1
10
62.3893482396261
20
-7.00701586327699
30
0
41
1
10
62.3914074909214
20
-7.015073105422
30
0
41
1
10
62.4016659440849
20
-7.05135201666556
30
0
41
1
10
62.4097811304307
20
-7.06776229978408
30
0
41
1
10
62.4178649562885
20
-7.07196068176265
30
0
0
SPLINE
5
167
100
AcDbEntity
8
1
62
256
6
ByLayer
370
18
48
1
60
0
100
AcDbSpline
70
4
71
3
72
13
73
9
40
0
40
0
40
0
40
0
40
0.628436868497292
40
0.628436868497292
40
0.785546085621633
40
0.785546085621633
40
0.942655302745973
40
1
40
1
40
1
40
1
41
1
10
36.320592725438
20
4.59544800643172
30
0
41
1
10
36.0558855463865
20
4.50033262782156
30
0
41
1
10
35.786633050516
20
4.40196177723712
30
0
41
1
10
35.4417987537062
20
4.2809493659862
30
0
41
1
10
35.3724193644448
20
4.25684595046002
30
0
41
1
10
35.2327026418608
20
4.2090800660103
30
0
41
1
10
35.1367219558311
20
4.17674779709651
30
0
41
1
10
35.0399583171608
20
4.14477842350112
30
0
41
1
10
35.0140300572248
20
4.13625491051732
30
0
0
SPLINE
5
168
100
AcDbEntity
8
1
62
256
6
ByLayer
370
18
48
1
60
0
100
AcDbSpline
70
4
71
3
72
18
73
14
40
0
40
0
40
0
40
0
40
0.0734733748404596
40
0.0734733748404596
40
0.258778699872372
40
0.258778699872372
40
0.351431362388326
40
0.351431362388326
40
0.444084024904279
40
0.444084024904279
40
0.629389349936187
40
0.629389349936187
40
1
40
1
40
1
40
1
41
1
10
30.537665006741
20
5.35000034916172
30
0
41
1
10
30.5827956741906
20
5.34997120211378
30
0
41
1
10
30.6281009942668
20
5.34938486550828
30
0
41
1
10
30.7882323299446
20
5.34539763719326
30
0
41
1
10
30.9039358562182
20
5.33906902879852
30
0
41
1
10
31.078857454607
20
5.32452305433867
30
0
41
1
10
31.1373928727834
20
5.31883113705277
30
0
41
1
10
31.2548954908766
20
5.30577513759903
30
0
41
1
10
31.3138925884411
20
5.29840594661141
30
0
41
1
10
31.4910122012481
20
5.27387494536239
30
0
41
1
10
31.6093981690976
20
5.25428027635905
30
0
41
1
10
31.9653364410858
20
5.18600864523017
30
0
41
1
10
32.203630771293
20
5.12786107454974
30
0
41
1
10
32.4430370961576
20
5.05734371415315
30
0
0
SPLINE
5
169
100
AcDbEntity
8
1
62
256
6
ByLayer
370
18
48
1
60
0
100
AcDbSpline
70
4
71
3
72
30
73
26
40
0
40
0
40
0
40
0
40
0.125
40
0.125
40
0.1875
40
0.1875
40
0.21875
40
0.21875
40
0.25
40
0.25
40
0.375
40
0.375
40
0.5
40
0.5
40
0.5625
40
0.5625
40
0.59375
40
0.59375
40
0.625000000000001
40
0.625000000000001
40
0.75
40
0.75
40
0.875
40
0.875
40
1
40
1
40
1
40
1
41
1
10
61.7054695330554
20
7.00374787080477
30
0
41
1
10
61.7135476928736
20
6.97022830118431
30
0
41
1
10
61.7216280828894
20
6.92463897677072
30
0
41
1
10
61.7338698579013
20
6.83786499300655
30
0
41
1
10
61.7379646051203
20
6.80586940808175
30
0
41
1
10
61.7441262813181
20
6.75317754899186
30
0
41
1
10
61.7461863528309
20
6.73480253357462
30
0
41
1
10
61.7502932202194
20
6.69666056186492
30
0
41
1
10
61.7523412676986
20
6.67688521340054
30
0
41
1
10
61.7625576740034
20
6.5745261834474
30
0
41
1
10
61.770649354869
20
6.48152348801318
30
0
41
1
10
61.7868334799417
20
6.27383778309976
30
0
41
1
10
61.7949540431615
20
6.15915420879699
30
0
41
1
10
61.8071769697966
20
5.97076484506954
30
0
41
1
10
61.8112562473993
20
5.90523578822288
30
0
41
1
10
61.8173851280746
20
5.80278156284802
30
0
41
1
10
61.8194298268938
20
5.76793636572071
30
0
41
1
10
61.8235240859255
20
5.69684375735105
30
0
41
1
10
61.8255762553505
20
5.66054910720698
30
0
41
1
10
61.8358221926288
20
5.47610851524109
30
0
41
1
10
61.8439254104465
20
5.31985265190136
30
0
41
1
10
61.8601663658944
20
4.99053087790458
30
0
41
1
10
61.8682955742932
20
4.81746319481815
30
0
41
1
10
61.8845391616475
20
4.45456407722125
30
0
41
1
10
61.8926531793744
20
4.26473369306339
30
0
41
1
10
61.9008185341291
20
4.06628272603885
30
0
0
SPLINE
5
16A
100
AcDbEntity
8
1
62
256
6
ByLayer
370
18
48
1
60
0
100
AcDbSpline
70
4
71
3
72
28
73
24
40
0
40
0
40
0
40
0
40
0.125
40
0.125
40
0.1875
40
0.1875
40
0.25
40
0.25
40
0.375
40
0.375
40
0.5
40
0.5
40
0.5625
40
0.5625
40
0.59375
40
0.59375
40
0.625
40
0.625
40
0.75
40
0.75
40
0.875
40
0.875
40
1
40
1
40
1
40
1
41
1
10
62.050351045466
20
3.94600426718841
30
0
41
1
10
62.0422491715527
20
4.14520775272743
30
0
41
1
10
62.0341023745255
20
4.33775835673572
30
0
41
1
10
62.021844389006
20
4.61640331080733
30
0
41
1
10
62.0177509548539
20
4.70758482175614
30
0
41
1
10
62.0095395941207
20
4.88647137922894
30
0
41
1
10
62.0054555106087
20
4.97343687624593
30
0
41
1
10
61.9932482672879
20
5.22685525464382
30
0
41
1
10
61.9851538143373
20
5.38594196215641
30
0
41
1
10
61.9689120850437
20
5.68479629121364
30
0
41
1
10
61.9607935256636
20
5.82456407332677
30
0
41
1
10
61.9486053397744
20
6.01957084795902
30
0
41
1
10
61.9445397187973
20
6.08212758615846
30
0
41
1
10
61.9384242271131
20
6.17223058741683
30
0
41
1
10
61.9363828074309
20
6.2016425840616
30
0
41
1
10
61.9322910186621
20
6.25920726367571
30
0
41
1
10
61.9302427502538
20
6.2873281314385
30
0
41
1
10
61.9200283086594
20
6.42399159685991
30
0
41
1
10
61.9118753027431
20
6.52135947675512
30
0
41
1
10
61.8956113380088
20
6.69287979592948
30
0
41
1
10
61.887512299125
20
6.76703057834169
30
0
41
1
10
61.8713155200072
20
6.89208202707263
30
0
41
1
10
61.8632175897681
20
6.94298470237766
30
0
41
1
10
61.8550115517239
20
6.98187595169165
30
0
0
SPLINE
5
16B
100
AcDbEntity
8
1
62
256
6
ByLayer
370
13
48
1
60
0
100
AcDbSpline
70
4
71
3
72
11
73
7
40
0
40
0
40
0
40
0
40
0.232762937027405
40
0.586520688556931
40
0.940278440086457
40
1
40
1
40
1
40
1
41
1
10
61.3324873858117
20
-3.67458813990842
30
0
41
1
10
61.3466826248474
20
-3.97332306480706
30
0
41
1
10
61.3824520553625
20
-4.67710555822438
30
0
41
1
10
61.4397957314027
20
-5.56042608166962
30
0
41
1
10
61.4865863287198
20
-5.9876107678659
30
0
41
1
10
61.5118027078893
20
-6.1154882969654
30
0
41
1
10
61.5154448767937
20
-6.13181534392021
30
0
0
SPLINE
5
16C
100
AcDbEntity
8
1
62
256
6
ByLayer
370
18
48
1
60
0
100
AcDbSpline
70
4
71
3
72
28
73
24
40
0
40
0
40
0
40
0
40
0.125
40
0.125
40
0.25
40
0.25
40
0.28125
40
0.28125
40
0.3125
40
0.374999999999999
40
0.374999999999999
40
0.499999999999999
40
0.499999999999999
40
0.624999999999999
40
0.624999999999999
40
0.656249999999999
40
0.656249999999999
40
0.687499999999999
40
0.687499999999999
40
0.749999999999999
40
0.749999999999999
40
0.875
40
1
40
1
40
1
40
1
41
1
10
61.0163108489163
20
-6.91642782066805
30
0
41
1
10
61.00820524481
20
-6.86613923860784
30
0
41
1
10
61.0000727809303
20
-6.80401525831155
30
0
41
1
10
60.9838012396022
20
-6.65603463087862
30
0
41
1
10
60.9756631197657
20
-6.57018020224024
30
0
41
1
10
60.9654231832077
20
-6.44751693811671
30
0
41
1
10
60.9633728030224
20
-6.42222902959281
30
0
41
1
10
60.9592850636534
20
-6.37040874936852
30
0
41
1
10
60.9531659645577
20
-6.29070893292033
30
0
41
1
10
60.9470564704537
20
-6.20516831986328
30
0
41
1
10
60.9348429446206
20
-6.02641717793693
30
0
41
1
10
60.9267218481731
20
-5.89704254087226
30
0
41
1
10
60.9105128523201
20
-5.61801560964995
30
0
41
1
10
60.9024252496405
20
-5.46836418810796
30
0
41
1
10
60.8922357628708
20
-5.26831396881704
30
0
41
1
10
60.8901934774776
20
-5.22765300692498
30
0
41
1
10
60.886096002572
20
-5.14501471006267
30
0
41
1
10
60.8840384756012
20
-5.10299732002991
30
0
41
1
10
60.8778789986692
20
-4.97567368294585
30
0
41
1
10
60.8737814966721
20
-4.88889410170205
30
0
41
1
10
60.8615260630356
20
-4.62297632445689
30
0
41
1
10
60.8452934228887
20
-4.25357026156053
30
0
41
1
10
60.8291631653671
20
-3.8549419921392
30
0
41
1
10
60.82102004545
20
-3.64821371013386
30
0
0
SPLINE
5
16D
100
AcDbEntity
8
1
62
256
6
ByLayer
370
13
48
1
60
0
100
AcDbSpline
70
4
71
3
72
11
73
7
40
0
40
0
40
0
40
0
40
0.14730562789307
40
0.501278712960808
40
0.855251798028546
40
1
40
1
40
1
40
1
41
1
10
60.1696364874775
20
-2.82678081968308
30
0
41
1
10
60.178614580998
20
-3.03535704618665
30
0
41
1
10
60.2091668907025
20
-3.72478513091608
30
0
41
1
10
60.2612934197935
20
-4.75625422717798
30
0
41
1
10
60.3132640710938
20
-5.50559482650894
30
0
41
1
10
60.343660510548
20
-5.80638754797604
30
0
41
1
10
60.3524827327329
20
-5.88167577484174
30
0
0
SPLINE
5
16E
100
AcDbEntity
8
1
62
256
6
ByLayer
370
18
48
1
60
0
100
AcDbSpline
70
4
71
3
72
33
73
29
40
0
40
0
40
0
40
0
40
0.124999999999999
40
0.124999999999999
40
0.156249999999998
40
0.156249999999998
40
0.187499999999998
40
0.249999999999998
40
0.249999999999998
40
0.374999999999998
40
0.374999999999998
40
0.499999999999998
40
0.499999999999998
40
0.531249999999998
40
0.531249999999998
40
0.562499999999998
40
0.562499999999998
40
0.624999999999999
40
0.624999999999999
40
0.749999999999999
40
0.749999999999999
40
0.875
40
0.875
40
0.9375
40
0.9375
40
0.96875
40
0.96875
40
1
40
1
40
1
40
1
41
1
10
60.6714837448645
20
-3.52266124863007
30
0
41
1
10
60.6795665547095
20
-3.73094169496372
30
0
41
1
10
60.6876825320166
20
-3.93375307042987
30
0
41
1
10
60.6979527135373
20
-4.18019598009568
30
0
41
1
10
60.700011901926
20
-4.22913481001353
30
0
41
1
10
60.7041155985134
20
-4.3257340214287
30
0
41
1
10
60.7102582720935
20
-4.46893233167754
30
0
41
1
10
60.716362287112
20
-4.60708775271942
30
0
41
1
10
60.7285310970888
20
-4.8767781250537
30
0
41
1
10
60.7365870891042
20
-5.04776132077711
30
0
41
1
10
60.7527555693315
20
-5.37223316329519
30
0
41
1
10
60.7608949030772
20
-5.52572202043396
30
0
41
1
10
60.7711261083558
20
-5.70638637739666
30
0
41
1
10
60.773175011914
20
-5.74195801433501
30
0
41
1
10
60.7772784445278
20
-5.8119664389547
30
0
41
1
10
60.7793356787067
20
-5.84644670461356
30
0
41
1
10
60.7854854324556
20
-5.94764554813509
30
0
41
1
10
60.7895621312846
20
-6.01223984977742
30
0
41
1
10
60.8017456037432
20
-6.19758139017719
30
0
41
1
10
60.8098033382491
20
-6.30990880873
30
0
41
1
10
60.8260045141226
20
-6.51246974053626
30
0
41
1
10
60.8341315153599
20
-6.60270346066091
30
0
41
1
10
60.8463448594298
20
-6.72124613898265
30
0
41
1
10
60.8504209087371
20
-6.7579536571271
30
0
41
1
10
60.8565509750825
20
-6.80872390128278
30
0
41
1
10
60.8585997544483
20
-6.82495168831727
30
0
41
1
10
60.8626917336901
20
-6.8558576882848
30
0
41
1
10
60.8647326815677
20
-6.87052115617223
30
0
41
1
10
60.8667700791605
20
-6.88440422899987
30
0
0
SPLINE
5
16F
100
AcDbEntity
8
1
62
256
6
ByLayer
370
13
48
1
60
0
100
AcDbSpline
70
4
71
3
72
10
73
6
40
0
40
0
40
0
40
0
40
0.0545342220524389
40
0.777296265416451
40
1
40
1
40
1
40
1
41
1
10
55.221537874857
20
-1.03300917966752
30
0
41
1
10
55.2231657045035
20
-1.07486429345792
30
0
41
1
10
55.2463677558874
20
-1.67041030775957
30
0
41
1
10
55.2762174104084
20
-2.41537434495109
30
0
41
1
10
55.3044392495868
20
-3.06158824928005
30
0
41
1
10
55.3110868826286
20
-3.21007711288539
30
0
0
SPLINE
5
170
100
AcDbEntity
8
1
62
256
6
ByLayer
370
18
48
1
60
0
100
AcDbSpline
70
4
71
3
72
18
73
14
40
0
40
0
40
0
40
0
40
0.25
40
0.25
40
0.5
40
0.5
40
0.75
40
0.75
40
0.8125
40
0.8125
40
0.875
40
0.875
40
1
40
1
40
1
40
1
41
1
10
55.2659068752148
20
-3.23299699560732
30
0
41
1
10
55.2622247363282
20
-3.06240149629656
30
0
41
1
10
55.2585653395342
20
-2.88853848672318
30
0
41
1
10
55.2512176122591
20
-2.53440109650944
30
0
41
1
10
55.2475359834145
20
-2.35413052013755
30
0
41
1
10
55.2401635567703
20
-1.98719090543523
30
0
41
1
10
55.2364729177643
20
-1.80052234732347
30
0
41
1
10
55.2318286201057
20
-1.56306867930539
30
0
41
1
10
55.2308980878253
20
-1.51537153987002
30
0
41
1
10
55.2290325324475
20
-1.41955935502116
30
0
41
1
10
55.2280972911533
20
-1.37143293924672
30
0
41
1
10
55.2252917700003
20
-1.2268815880883
30
0
41
1
10
55.2234179705629
20
-1.13013530799949
30
0
41
1
10
55.221537874857
20
-1.03300917966715
30
0
0
SPLINE
5
171
100
AcDbEntity
8
1
62
256
6
ByLayer
370
18
48
1
60
0
100
AcDbSpline
70
4
71
3
72
20
73
16
40
0
40
0
40
0
40
0
40
0.125
40
0.125
40
0.25
40
0.25
40
0.5
40
0.5
40
0.75
40
0.75
40
0.875
40
0.875
40
0.9375
40
0.9375
40
1
40
1
40
1
40
1
41
1
10
55.221537874857
20
-1.03300917966735
30
0
41
1
10
55.2196469688768
20
-0.935324590358647
30
0
41
1
10
55.217810354343
20
-0.837414530927788
30
0
41
1
10
55.2142390428177
20
-0.641143010359372
30
0
41
1
10
55.2125031162398
20
-0.54269967013596
30
0
41
1
10
55.2074634655592
20
-0.248168287476915
30
0
41
1
10
55.2043206832002
20
-0.0524443819496696
30
0
41
1
10
55.1983848602848
20
0.337754675754809
30
0
41
1
10
55.1955854408799
20
0.532228958037138
30
0
41
1
10
55.1915813184805
20
0.822987587995442
30
0
41
1
10
55.1902819849172
20
0.919748468174305
30
0
41
1
10
55.1883882244949
20
1.06464881554098
30
0
41
1
10
55.1877657463805
20
1.11294163286328
30
0
41
1
10
55.1865411983332
20
1.20929846785796
30
0
41
1
10
55.1859401547646
20
1.25728075762498
30
0
41
1
10
55.185350132974
20
1.30506853328535
30
0
0
SPLINE
5
172
100
AcDbEntity
8
1
62
256
6
ByLayer
370
18
48
1
60
0
100
AcDbSpline
70
4
71
3
72
33
73
29
40
0
40
0
40
0
40
0
40
0.0625000000000005
40
0.0625000000000005
40
0.0937500000000008
40
0.0937500000000008
40
0.125000000000001
40
0.125000000000001
40
0.250000000000002
40
0.250000000000002
40
0.375000000000002
40
0.375000000000002
40
0.500000000000002
40
0.500000000000002
40
0.531250000000002
40
0.531250000000002
40
0.562500000000002
40
0.625000000000002
40
0.625000000000002
40
0.750000000000001
40
0.750000000000001
40
0.875000000000001
40
0.875000000000001
40
0.906250000000001
40
0.906250000000001
40
0.9375
40
0.9375
40
1
40
1
40
1
40
1
41
1
10
63.2565569798963
20
6.63452158343768
30
0
41
1
10
63.2606081623346
20
6.59279511605581
30
0
41
1
10
63.2646656204371
20
6.54809891921281
30
0
41
1
10
63.2707813509298
20
6.47652469089459
30
0
41
1
10
63.2728249292849
20
6.45191124261689
30
0
41
1
10
63.2769264089932
20
6.40115624625517
30
0
41
1
10
63.2789840498388
20
6.37501536392301
30
0
41
1
10
63.2892441923407
20
6.24125310417509
30
0
41
1
10
63.2974045252323
20
6.12390057541742
30
0
41
1
10
63.3136280958246
20
5.86913749689177
30
0
41
1
10
63.3216914362544
20
5.73172528329016
30
0
41
1
10
63.3378687644674
20
5.43682994700566
30
0
41
1
10
63.3460108498113
20
5.27934918655791
30
0
41
1
10
63.356284394762
20
5.06954902966808
30
0
41
1
10
63.3583455376455
20
5.02688695089753
30
0
41
1
10
63.3624536579726
20
4.94071577655021
30
0
41
1
10
63.3686007922225
20
4.8100683447922
30
0
41
1
10
63.3747046543285
20
4.6752983957131
30
0
41
1
10
63.3868722030177
20
4.40035081729107
30
0
41
1
10
63.3949260655303
20
4.20985580377547
30
0
41
1
10
63.4111159900414
20
3.81460369981815
30
0
41
1
10
63.4192608502583
20
3.60984744612952
30
0
41
1
10
63.4294781130068
20
3.34478623631065
30
0
41
1
10
63.4315237140033
20
3.2913170701477
30
0
41
1
10
63.4356200374156
20
3.18345515469264
30
0
41
1
10
63.4376736487272
20
3.12898498419676
30
0
41
1
10
63.4438211925441
20
2.96479233157629
30
0
41
1
10
63.4478964844811
20
2.85442950557535
30
0
41
1
10
63.4519583151641
20
2.74318470792977
30
0
0
SPLINE
5
173
100
AcDbEntity
8
1
62
256
6
ByLayer
370
18
48
1
60
0
100
AcDbSpline
70
4
71
3
72
29
73
25
40
0
40
0
40
0
40
0
40
0.124999999999999
40
0.124999999999999
40
0.249999999999999
40
0.249999999999999
40
0.281249999999998
40
0.281249999999998
40
0.312499999999998
40
0.312499999999998
40
0.374999999999998
40
0.374999999999998
40
0.499999999999999
40
0.625
40
0.625
40
0.6875
40
0.6875
40
0.71875
40
0.71875
40
0.750000000000001
40
0.750000000000001
40
0.875
40
0.875
40
1
40
1
40
1
40
1
41
1
10
63.6014650996094
20
2.60825759692364
30
0
41
1
10
63.593326881746
20
2.83212019831402
30
0
41
1
10
63.5851914736236
20
3.05066881388231
30
0
41
1
10
63.5689481600826
20
3.47719764738392
30
0
41
1
10
63.5608405704099
20
3.68517840003295
30
0
41
1
10
63.5506407334959
20
3.93837442515988
30
0
41
1
10
63.5485971036492
20
3.98867376790523
30
0
41
1
10
63.5444988184892
20
4.0885847599308
30
0
41
1
10
63.5424446656199
20
4.13818218912203
30
0
41
1
10
63.5362952726758
20
4.28507729404106
30
0
41
1
10
63.5321994868587
20
4.38077182154754
30
0
41
1
10
63.5199381492114
20
4.66127793287353
30
0
41
1
10
63.5036698288152
20
5.01778011529353
30
0
41
1
10
63.4875109741378
20
5.33978493777678
30
0
41
1
10
63.4753005268684
20
5.56813464982625
30
0
41
1
10
63.4712104222907
20
5.64205459010012
30
0
41
1
10
63.465041486959
20
5.74957231413063
30
0
41
1
10
63.4629778503172
20
5.78488648759387
30
0
41
1
10
63.4588637374862
20
5.85400150440302
30
0
41
1
10
63.4568109346644
20
5.88784427951771
30
0
41
1
10
63.4465682580446
20
6.05352390942698
30
0
41
1
10
63.4384480184197
20
6.17478648510422
30
0
41
1
10
63.4222657299613
20
6.39528763211374
30
0
41
1
10
63.4141997227679
20
6.49452509205543
30
0
41
1
10
63.4060553856442
20
6.58266937624472
30
0
0
SPLINE
5
174
100
AcDbEntity
8
1
62
256
6
ByLayer
370
13
48
1
60
0
100
AcDbSpline
70
4
71
3
72
11
73
7
40
0
40
0
40
0
40
0
40
0.134443705294641
40
0.488579049813665
40
0.842714394332688
40
1
40
1
40
1
40
1
41
1
10
58.6186559043975
20
-1.58728231693354
30
0
41
1
10
58.6268463256682
20
-1.79378646631935
30
0
41
1
10
58.656610963496
20
-2.53407110842267
30
0
41
1
10
58.7079498132942
20
-3.72202485880365
30
0
41
1
10
58.7606802202105
20
-4.7206816343872
30
0
41
1
10
58.7918364052018
20
-5.18508857464124
30
0
41
1
10
58.8014183735634
20
-5.3151100726694
30
0
0
SPLINE
5
175
100
AcDbEntity
8
1
62
256
6
ByLayer
370
18
48
1
60
0
100
AcDbSpline
70
4
71
3
72
28
73
24
40
0
40
0
40
0
40
0
40
0.125000000000001
40
0.125000000000001
40
0.187500000000001
40
0.187500000000001
40
0.218750000000001
40
0.218750000000001
40
0.250000000000001
40
0.250000000000001
40
0.375000000000002
40
0.375000000000002
40
0.500000000000003
40
0.500000000000003
40
0.625000000000003
40
0.625000000000003
40
0.656250000000003
40
0.656250000000003
40
0.687500000000003
40
0.750000000000002
40
0.750000000000002
40
0.875000000000001
40
1
40
1
40
1
40
1
41
1
10
59.1204266555088
20
-2.14035752998598
30
0
41
1
10
59.1285050864475
20
-2.36917137840365
30
0
41
1
10
59.1365983146892
20
-2.59399390544712
30
0
41
1
10
59.148821402798
20
-2.9251930653995
30
0
41
1
10
59.1529045226795
20
-3.03458525037743
30
0
41
1
10
59.1590417861534
20
-3.19713845943522
30
0
41
1
10
59.1610897139922
20
-3.25106688568562
30
0
41
1
10
59.1651907686647
20
-3.35840617521441
30
0
41
1
10
59.1672468451953
20
-3.41189286216113
30
0
41
1
10
59.1774951311746
20
-3.67675654918236
30
0
41
1
10
59.1855980010845
20
-3.88078350738596
30
0
41
1
10
59.201801820841
20
-4.2736184794492
30
0
41
1
10
59.2099233153498
20
-4.46242459677561
30
0
41
1
10
59.2261711000729
20
-4.82484154657118
30
0
41
1
10
59.2342932731889
20
-4.99845355699918
30
0
41
1
10
59.2445017900553
20
-5.20568543289315
30
0
41
1
10
59.2465490040905
20
-5.246687273058
30
0
41
1
10
59.2506418388104
20
-5.32748114696099
30
0
41
1
10
59.2567671675519
20
-5.44665406692283
30
0
41
1
10
59.2628743898799
20
-5.55984836450352
30
0
41
1
10
59.275090984885
20
-5.7784030154036
30
0
41
1
10
59.2913473345907
20
-6.04895909729913
30
0
41
1
10
59.3075166226902
20
-6.27827778514967
30
0
41
1
10
59.3156505707763
20
-6.38241701602288
30
0
0
SPLINE
5
176
100
AcDbEntity
8
1
62
256
6
ByLayer
370
18
48
1
60
0
100
AcDbSpline
70
4
71
3
72
29
73
25
40
0
40
0
40
0
40
0
40
0.125
40
0.125
40
0.25
40
0.25
40
0.312500000000001
40
0.312500000000001
40
0.343750000000001
40
0.343750000000001
40
0.375000000000001
40
0.375000000000001
40
0.500000000000001
40
0.500000000000001
40
0.625000000000001
40
0.625000000000001
40
0.750000000000001
40
0.750000000000001
40
0.781250000000001
40
0.781250000000001
40
0.812500000000001
40
0.875
40
0.875
40
1
40
1
40
1
40
1
41
1
10
56.3629212185674
20
-4.6510191242684
30
0
41
1
10
56.3547776408578
20
-4.46883799682152
30
0
41
1
10
56.3466515671295
20
-4.27973358862411
30
0
41
1
10
56.3304207718741
20
-3.88800642940115
30
0
41
1
10
56.3223298602013
20
-3.68538268972495
30
0
41
1
10
56.3101810820972
20
-3.37123397749477
30
0
41
1
10
56.3061282706754
20
-3.26481233419992
30
0
41
1
10
56.3000273042742
20
-3.10258250872596
30
0
41
1
10
56.2979899466719
20
-3.04807279089624
30
0
41
1
10
56.2939040483209
20
-2.93817789948594
30
0
41
1
10
56.2918524808208
20
-2.88271084244909
30
0
41
1
10
56.2816006243933
20
-2.60437915135444
30
0
41
1
10
56.2734288553476
20
-2.37857415564963
30
0
41
1
10
56.2571837137993
20
-1.92089122786734
30
0
41
1
10
56.2491101879714
20
-1.68901270589117
30
0
41
1
10
56.2329497866419
20
-1.21919809548933
30
0
41
1
10
56.22484673002
20
-0.981262970130473
30
0
41
1
10
56.2145974524856
20
-0.679950259249637
30
0
41
1
10
56.2125412393005
20
-0.619440712598134
30
0
41
1
10
56.2084278840282
20
-0.498255664419219
30
0
41
1
10
56.202271740246
20
-0.316683867192125
30
0
41
1
10
56.1961577320152
20
-0.135721589022609
30
0
41
1
10
56.1839744534529
20
0.225404161346148
30
0
41
1
10
56.1759161967001
20
0.465091764817117
30
0
41
1
10
56.1678387950585
20
0.703725909752052
30
0
0
SPLINE
5
177
100
AcDbEntity
8
1
62
256
6
ByLayer
370
13
48
1
60
0
100
AcDbSpline
70
4
71
3
72
11
73
7
40
0
40
0
40
0
40
0
40
0.194434709460255
40
0.548820672527381
40
0.903206635594508
40
1
40
1
40
1
40
1
41
1
10
56.6795320590395
20
0.0574494479457144
30
0
41
1
10
56.6913688137089
20
-0.251165530201291
30
0
41
1
10
56.7247798004861
20
-1.12288371106567
30
0
41
1
10
56.7797649215987
20
-2.51546932831866
30
0
41
1
10
56.8288059867143
20
-3.6181191509628
30
0
41
1
10
56.8562727546615
20
-4.15739640980152
30
0
41
1
10
56.862165312452
20
-4.26919574484191
30
0
0
SPLINE
5
178
100
AcDbEntity
8
1
62
256
6
ByLayer
370
13
48
1
60
0
100
AcDbSpline
70
4
71
3
72
11
73
7
40
0
40
0
40
0
40
0
40
0.109071051711701
40
0.463526171817237
40
0.817981291922772
40
1
40
1
40
1
40
1
41
1
10
55.5166238540175
20
1.05032009430656
30
0
41
1
10
55.5232625579166
20
0.879710219126991
30
0
41
1
10
55.5514754790952
20
0.149496269406996
30
0
41
1
10
55.6012626139225
20
-1.15906842394423
30
0
41
1
10
55.6554897751071
20
-2.51336431025939
30
0
41
1
10
55.6881427158285
20
-3.2514246646555
30
0
41
1
10
55.6992214410342
20
-3.49059843369253
30
0
0
SPLINE
5
179
100
AcDbEntity
8
1
62
256
6
ByLayer
370
18
48
1
60
0
100
AcDbSpline
70
4
71
3
72
32
73
28
40
0
40
0
40
0
40
0
40
0.0312500000000002
40
0.0312500000000002
40
0.0625000000000003
40
0.125000000000001
40
0.125000000000001
40
0.250000000000001
40
0.375000000000002
40
0.375000000000002
40
0.437500000000002
40
0.437500000000002
40
0.468750000000002
40
0.468750000000002
40
0.500000000000002
40
0.500000000000002
40
0.625000000000002
40
0.625000000000002
40
0.750000000000003
40
0.750000000000003
40
0.812500000000003
40
0.812500000000003
40
0.843750000000003
40
0.843750000000003
40
0.875000000000002
40
0.875000000000002
40
1
40
1
40
1
40
1
41
1
10
56.0182944679038
20
0.849072837039927
30
0
41
1
10
56.0203329398469
20
0.788977607043194
30
0
41
1
10
56.0223775640227
20
0.728644048166046
30
0
41
1
10
56.0264764104693
20
0.607699292649073
30
0
41
1
10
56.0326209372196
20
0.426454267078441
30
0
41
1
10
56.0387475985314
20
0.245718778336141
30
0
41
1
10
56.0509667252724
20
-0.115085227798829
30
0
41
1
10
56.0671584925648
20
-0.594382327289964
30
0
41
1
10
56.0832688771563
20
-1.07016801310792
30
0
41
1
10
56.0954788506021
20
-1.42565974459529
30
0
41
1
10
56.099569955063
20
-1.5439319739194
30
0
41
1
10
56.1057325628047
20
-1.72099566499873
30
0
41
1
10
56.1077870829827
20
-1.77984180328747
30
0
41
1
10
56.1118825353069
20
-1.89678461142742
30
0
41
1
10
56.1139256120632
20
-1.95494292007035
30
0
41
1
10
56.1241190321189
20
-2.24418510321962
30
0
41
1
10
56.1321980466501
20
-2.47063334933424
30
0
41
1
10
56.1483256950543
20
-2.91384598183541
30
0
41
1
10
56.156391499988
20
-3.13060952326953
30
0
41
1
10
56.1685949038209
20
-3.44841779956551
30
0
41
1
10
56.1726740711215
20
-3.55312890748814
30
0
41
1
10
56.1788078688086
20
-3.70832744195874
30
0
41
1
10
56.1808550507596
20
-3.75974877158086
30
0
41
1
10
56.1849551781324
20
-3.86196128229196
30
0
41
1
10
56.1870088784042
20
-3.91276964964419
30
0
41
1
10
56.1972352435083
20
-4.16376376839582
30
0
41
1
10
56.2053233390209
20
-4.35601263765298
30
0
41
1
10
56.2134042113643
20
-4.53997595053636
30
0
0
SPLINE
5
17A
100
AcDbEntity
8
1
62
256
6
ByLayer
370
13
48
1
60
0
100
AcDbSpline
70
4
71
3
72
11
73
7
40
0
40
0
40
0
40
0
40
0.121728903486422
40
0.475995815682073
40
0.830262727877724
40
1
40
1
40
1
40
1
41
1
10
57.0676443521775
20
-0.274843237997885
30
0
41
1
10
57.0750574228054
20
-0.467949089631475
30
0
41
1
10
57.104044709679
20
-1.22149070995937
30
0
41
1
10
57.1546062185092
20
-2.50276941442436
30
0
41
1
10
57.2080913427423
20
-3.70703374013976
30
0
41
1
10
57.2400022536784
20
-4.32007268691737
30
0
41
1
10
57.250338947833
20
-4.50601782359723
30
0
0
SPLINE
5
17B
100
AcDbEntity
8
1
62
256
6
ByLayer
370
18
48
1
60
0
100
AcDbSpline
70
4
71
3
72
29
73
25
40
0
40
0
40
0
40
0
40
0.125
40
0.125
40
0.25
40
0.25
40
0.3125
40
0.3125
40
0.34375
40
0.34375
40
0.375
40
0.375
40
0.5
40
0.5
40
0.625
40
0.625
40
0.749999999999999
40
0.749999999999999
40
0.78125
40
0.78125
40
0.8125
40
0.875
40
0.875
40
1
40
1
40
1
40
1
41
1
10
57.569339789808
20
-0.660304904455273
30
0
41
1
10
57.577466065309
20
-0.900650673275322
30
0
41
1
10
57.5855767281222
20
-1.13849827693684
30
0
41
1
10
57.6018140775449
20
-1.60928425328928
30
0
41
1
10
57.6099215734586
20
-1.84222320467205
30
0
41
1
10
57.6221055206015
20
-2.18789986440993
30
0
41
1
10
57.6261717659458
20
-2.30250222599142
30
0
41
1
10
57.6322942995761
20
-2.4734529704717
30
0
41
1
10
57.63434069699
20
-2.53032222958115
30
0
41
1
10
57.6384379037474
20
-2.64354368245159
30
0
41
1
10
57.6404832512513
20
-2.69974525731703
30
0
41
1
10
57.6507039151106
20
-2.97873128819359
30
0
41
1
10
57.6588654558241
20
-3.19546645548289
30
0
41
1
10
57.6751099856383
20
-3.6163801185848
30
0
41
1
10
57.6831923571231
20
-3.82055781343914
30
0
41
1
10
57.6993784772023
20
-4.21630236929408
30
0
41
1
10
57.7074933834335
20
-4.40787021111768
30
0
41
1
10
57.717778362334
20
-4.63916159627371
30
0
41
1
10
57.7198352233788
20
-4.68487966128646
30
0
41
1
10
57.7239384569711
20
-4.77503606925205
30
0
41
1
10
57.7300822184551
20
-4.90845189605338
30
0
41
1
10
57.7361912182248
20
-5.03647134618868
30
0
41
1
10
57.7483715119905
20
-5.28541874203563
30
0
41
1
10
57.7564370871123
20
-5.44194646726802
30
0
41
1
10
57.7645239793652
20
-5.58908645077909
30
0
0
SPLINE
5
17C
100
AcDbEntity
8
1
62
256
6
ByLayer
370
18
48
1
60
0
100
AcDbSpline
70
4
71
3
72
33
73
29
40
0
40
0
40
0
40
0
40
0.124999999999999
40
0.124999999999999
40
0.156249999999999
40
0.156249999999999
40
0.187499999999998
40
0.249999999999999
40
0.249999999999999
40
0.374999999999999
40
0.374999999999999
40
0.5
40
0.5
40
0.5625
40
0.5625
40
0.593750000000001
40
0.593750000000001
40
0.625000000000001
40
0.625000000000001
40
0.75
40
0.75
40
0.875
40
0.875
40
0.9375
40
0.9375
40
0.96875
40
0.96875
40
1
40
1
40
1
40
1
41
1
10
59.465167517719
20
-6.44390003360442
30
0
41
1
10
59.4570765387783
20
-6.34495239995195
30
0
41
1
10
59.4489263387625
20
-6.23470056045318
30
0
41
1
10
59.4386851085509
20
-6.0823486408845
30
0
41
1
10
59.4366337800608
20
-6.05114568377226
30
0
41
1
10
59.432525789254
20
-5.98728021115596
30
0
41
1
10
59.4263811999005
20
-5.88968957074769
30
0
41
1
10
59.420283672021
20
-5.78679055694613
30
0
41
1
10
59.4081254563224
20
-5.57404214782937
30
0
41
1
10
59.4000664827554
20
-5.42296039897576
30
0
41
1
10
59.383846070266
20
-5.10253024041819
30
0
41
1
10
59.375711166453
20
-4.93318162357772
30
0
41
1
10
59.3634815792458
20
-4.66519843440921
30
0
41
1
10
59.3593993363792
20
-4.57353953632727
30
0
41
1
10
59.3532574204049
20
-4.43247912761942
30
0
41
1
10
59.3512098389515
20
-4.38492853219836
30
0
41
1
10
59.3471286578338
20
-4.28917058449542
30
0
41
1
10
59.3450925446702
20
-4.24090569582094
30
0
41
1
10
59.33492636644
20
-3.99767198840502
30
0
41
1
10
59.3268183235314
20
-3.79699113043847
30
0
41
1
10
59.3105898508627
20
-3.38370771221787
30
0
41
1
10
59.3024907380158
20
-3.17110414001789
30
0
41
1
10
59.2903293787923
20
-2.84317349523769
30
0
41
1
10
59.2862723350921
20
-2.73235622305163
30
0
41
1
10
59.2801667233095
20
-2.56383269839517
30
0
41
1
10
59.2781281011985
20
-2.50727506209239
30
0
41
1
10
59.2740405350286
20
-2.39338495942445
30
0
41
1
10
59.2719903290129
20
-2.336016470197
30
0
41
1
10
59.2699447371609
20
-2.27858936403064
30
0
0
SPLINE
5
17D
100
AcDbEntity
8
1
62
256
6
ByLayer
370
13
48
1
60
0
100
AcDbSpline
70
4
71
3
72
11
73
7
40
0
40
0
40
0
40
0
40
0.22011208926182
40
0.574081407846988
40
0.928050726432156
40
1
40
1
40
1
40
1
41
1
10
59.7814824254049
20
-2.52573517697982
30
0
41
1
10
59.794898140055
20
-2.84541993382405
30
0
41
1
10
59.8298880959154
20
-3.64809183344295
30
0
41
1
10
59.8864521193536
20
-4.76531104833057
30
0
41
1
10
59.9339858504126
20
-5.4483375282893
30
0
41
1
10
59.9599453341266
20
-5.72100360448559
30
0
41
1
10
59.9643305989815
20
-5.76414762879065
30
0
0
SPLINE
5
17E
100
AcDbEntity
8
1
62
256
6
ByLayer
370
18
48
1
60
0
100
AcDbSpline
70
4
71
3
72
33
73
29
40
0
40
0
40
0
40
0
40
0.0312499999999999
40
0.0312499999999999
40
0.0624999999999997
40
0.0624999999999997
40
0.125
40
0.125
40
0.250000000000001
40
0.250000000000001
40
0.375000000000002
40
0.375000000000002
40
0.437500000000003
40
0.437500000000003
40
0.468750000000003
40
0.468750000000003
40
0.500000000000002
40
0.500000000000002
40
0.625000000000002
40
0.625000000000002
40
0.750000000000001
40
0.750000000000001
40
0.875000000000001
40
0.875000000000001
40
0.90625
40
0.90625
40
0.9375
40
1
40
1
40
1
40
1
41
1
10
57.914070488361
20
-5.67721275829942
30
0
41
1
10
57.9120366590825
20
-5.64119596375718
30
0
41
1
10
57.9099980067994
20
-5.60450081444401
30
0
41
1
10
57.9059067433852
20
-5.52973937821218
30
0
41
1
10
57.9038513649866
20
-5.49161704852145
30
0
41
1
10
57.8976914140209
20
-5.37563059187235
30
0
41
1
10
57.89359679745
20
-5.29622163117696
30
0
41
1
10
57.8813558781114
20
-5.05187055293624
30
0
41
1
10
57.8732569956272
20
-4.88081977405119
30
0
41
1
10
57.8571083670028
20
-4.52271165216698
30
0
41
1
10
57.8490566179265
20
-4.33565410019688
30
0
41
1
10
57.8368577162338
20
-4.04290905334378
30
0
41
1
10
57.8327742495568
20
-3.94329697431283
30
0
41
1
10
57.8266281882177
20
-3.79077662635655
30
0
41
1
10
57.8245748415045
20
-3.73939116296444
30
0
41
1
10
57.8204656614359
20
-3.63569147538331
30
0
41
1
10
57.8184164939019
20
-3.58354596912767
30
0
41
1
10
57.8081959435723
20
-3.32135776260094
30
0
41
1
10
57.8001058229949
20
-3.10694464486068
30
0
41
1
10
57.7839635042067
20
-2.669052004333
30
0
41
1
10
57.7758889495505
20
-2.44557260827446
30
0
41
1
10
57.7596341095179
20
-1.98951863776097
30
0
41
1
10
57.7514808624358
20
-1.75694413434175
30
0
41
1
10
57.7412383906374
20
-1.46033928118157
30
0
41
1
10
57.7391911186229
20
-1.40084348137478
30
0
41
1
10
57.7351107519149
20
-1.28190441180862
30
0
41
1
10
57.7290050236223
20
-1.10339184367839
30
0
41
1
10
57.7229326369402
20
-0.924571197724703
30
0
41
1
10
57.7188854063659
20
-0.805222974423145
30
0
0
SPLINE
5
17F
100
AcDbEntity
8
1
62
256
6
ByLayer
370
13
48
1
60
0
100
AcDbSpline
70
4
71
3
72
11
73
7
40
0
40
0
40
0
40
0
40
0.207261986391366
40
0.561482118404245
40
0.915702250417124
40
1
40
1
40
1
40
1
41
1
10
58.2305152947092
20
-1.26301314310453
30
0
41
1
10
58.2431388316287
20
-1.58532323271751
30
0
41
1
10
58.2773365488698
20
-2.44418491566336
30
0
41
1
10
58.3331085499188
20
-3.7331412571796
30
0
41
1
10
58.3813912323645
20
-4.64564409910557
30
0
41
1
10
58.4080996979145
20
-5.05789837802621
30
0
41
1
10
58.4132339549665
20
-5.13358789771664
30
0
0
SPLINE
5
180
100
AcDbEntity
8
1
62
256
6
ByLayer
370
18
48
1
60
0
100
AcDbSpline
70
4
71
3
72
69
73
65
40
0
40
0
40
0
40
0
40
0.0415028817561644
40
0.0415028817561644
40
0.089427737668358
40
0.089427737668358
40
0.113390165624456
40
0.113390165624456
40
0.137352593580554
40
0.137352593580554
40
0.161315021536652
40
0.161315021536652
40
0.18527744949275
40
0.18527744949275
40
0.233202305404944
40
0.233202305404944
40
0.25716473336104
40
0.25716473336104
40
0.281127161317137
40
0.281127161317137
40
0.305089589273234
40
0.305089589273234
40
0.329052017229331
40
0.329052017229331
40
0.376976873141524
40
0.376976873141524
40
0.40093930109762
40
0.40093930109762
40
0.424901729053716
40
0.424901729053716
40
0.448864157009812
40
0.448864157009812
40
0.472826584965908
40
0.472826584965908
40
0.520751440878099
40
0.520751440878099
40
0.544713868834195
40
0.544713868834195
40
0.568676296790291
40
0.568676296790291
40
0.616601152702482
40
0.616601152702482
40
0.640563580658577
40
0.640563580658577
40
0.664526008614671
40
0.664526008614671
40
0.712450864526863
40
0.712450864526863
40
0.760375720439054
40
0.760375720439054
40
0.808300576351246
40
0.808300576351246
40
0.832263004307341
40
0.832263004307341
40
0.856225432263437
40
0.856225432263437
40
0.904150288175626
40
0.904150288175626
40
0.916131502153672
40
0.916131502153672
40
0.928112716131718
40
0.952075144087811
40
0.952075144087811
40
1
40
1
40
1
40
1
41
1
10
47.7895673616118
20
-5.34999981148081
30
0
41
1
10
47.6316294102702
20
-5.3499960796978
30
0
41
1
10
47.4738151146072
20
-5.34617726460479
30
0
41
1
10
47.1335509324837
20
-5.32969884414038
30
0
41
1
10
46.9510776798176
20
-5.31576868652729
30
0
41
1
10
46.6769594103759
20
-5.28718292139783
30
0
41
1
10
46.5855083160048
20
-5.27637348713796
30
0
41
1
10
46.4023383843759
20
-5.25220611504625
30
0
41
1
10
46.3105060639804
20
-5.23888051684315
30
0
41
1
10
46.1267046599139
20
-5.20964086302317
30
0
41
1
10
46.034735582886
20
-5.19372110586903
30
0
41
1
10
45.8503867588985
20
-5.15934676306256
30
0
41
1
10
45.7579453005204
20
-5.14091743488015
30
0
41
1
10
45.4802278567349
20
-5.08173701353519
30
0
41
1
10
45.2959333515243
20
-5.03738487210845
30
0
41
1
10
45.0204834041447
20
-4.96371158986256
30
0
41
1
10
44.928833340073
20
-4.93796213172922
30
0
41
1
10
44.7458169315169
20
-4.88411253600523
30
0
41
1
10
44.6544433840638
20
-4.85601508950299
30
0
41
1
10
44.4717425340927
20
-4.79762006874631
30
0
41
1
10
44.3803936344574
20
-4.76733680261887
30
0
41
1
10
44.1976663349594
20
-4.70464873510775
30
0
41
1
10
44.1062945931645
20
-4.67224098510178
30
0
41
1
10
43.8323825596553
20
-4.57169191484192
30
0
41
1
10
43.650016807589
20
-4.50024091495712
30
0
41
1
10
43.376645650802
20
-4.38653056284736
30
0
41
1
10
43.285552388998
20
-4.34753695859914
30
0
41
1
10
43.103390111511
20
-4.26738399266679
30
0
41
1
10
43.0123149461616
20
-4.22622864444315
30
0
41
1
10
42.8300030847722
20
-4.14189679701096
30
0
41
1
10
42.7387735464794
20
-4.09871360998068
30
0
41
1
10
42.555921549457
20
-4.01053691605301
30
0
41
1
10
42.4642632832335
20
-3.96558001391514
30
0
41
1
10
42.1890951132344
20
-3.82764154517358
30
0
41
1
10
42.005365399831
20
-3.73160749047554
30
0
41
1
10
41.7290862739351
20
-3.5815337101235
30
0
41
1
10
41.6368633600735
20
-3.53052080475135
30
0
41
1
10
41.4520428318559
20
-3.42661477023807
30
0
41
1
10
41.3597387048628
20
-3.37387817852377
30
0
41
1
10
41.0834082610459
20
-3.2135380400596
30
0
41
1
10
40.8998694294375
20
-3.10369244764885
30
0
41
1
10
40.6251076320583
20
-2.93508841964805
30
0
41
1
10
40.5335575372279
20
-2.87831035757352
30
0
41
1
10
40.3504687624074
20
-2.76369002312279
30
0
41
1
10
40.2590083761825
20
-2.7057560109784
30
0
41
1
10
39.9849386245391
20
-2.53001457795972
30
0
41
1
10
39.8025949955789
20
-2.41032003509272
30
0
41
1
10
39.4380704823195
20
-2.16656503016861
30
0
41
1
10
39.2558650890257
20
-2.04253676722894
30
0
41
1
10
38.8912458433445
20
-1.79057578656051
30
0
41
1
10
38.7088168750539
20
-1.66265958153355
30
0
41
1
10
38.4344485387465
20
-1.46858563552738
30
0
41
1
10
38.3428696756495
20
-1.40353136463619
30
0
41
1
10
38.1595621965637
20
-1.27256384963877
30
0
41
1
10
38.0678206744553
20
-1.20666731701147
30
0
41
1
10
37.7921963841339
20
-1.00791201908248
30
0
41
1
10
37.6078708785581
20
-0.874050856194515
30
0
41
1
10
37.3767808158593
20
-0.70491627531328
30
0
41
1
10
37.3305576529729
20
-0.671023236422201
30
0
41
1
10
37.2382555760504
20
-0.603238733144423
30
0
41
1
10
37.0999463749871
20
-0.501511255084097
30
0
41
1
10
36.9620247559681
20
-0.399692176322901
30
0
41
1
10
36.6865832609111
20
-0.196088601620261
30
0
41
1
10
36.50352834985
20
-0.0603484019468112
30
0
41
1
10
36.3205510368784
20
0.0747228856687912
30
0
0
SPLINE
5
181
100
AcDbEntity
8
1
62
256
6
ByLayer
370
18
48
1
60
0
100
AcDbSpline
70
4
71
3
72
58
73
54
40
0
40
0
40
0
40
0
40
0.032608341006114
40
0.032608341006114
40
0.0652166820122281
40
0.0652166820122281
40
0.130433364024456
40
0.130433364024456
40
0.195650046036687
40
0.195650046036687
40
0.228258387042803
40
0.228258387042803
40
0.26086672804892
40
0.26086672804892
40
0.326083410061156
40
0.326083410061156
40
0.342387580564215
40
0.342387580564215
40
0.358691751067273
40
0.358691751067273
40
0.39130009207339
40
0.39130009207339
40
0.423908433079506
40
0.423908433079506
40
0.456516774085623
40
0.456516774085623
40
0.521733456097859
40
0.521733456097859
40
0.586950138110096
40
0.586950138110096
40
0.619558479116212
40
0.619558479116212
40
0.652166820122329
40
0.652166820122329
40
0.717383502134563
40
0.717383502134563
40
0.749991843140678
40
0.749991843140678
40
0.782600184146793
40
0.782600184146793
40
0.798904354649851
40
0.798904354649851
40
0.815208525152909
40
0.815208525152909
40
0.847816866159027
40
0.847816866159027
40
0.913033548171263
40
0.913033548171263
40
0.978250230183499
40
0.978250230183499
40
0.994554400686557
40
0.994554400686557
40
1
40
1
40
1
40
1
41
1
10
32.4431772934241
20
-4.03996501145903
30
0
41
1
10
32.5555342122235
20
-4.09420173330719
30
0
41
1
10
32.6675749148637
20
-4.14699397972043
30
0
41
1
10
32.8912380936334
20
-4.24950318925326
30
0
41
1
10
33.0029876227824
20
-4.29911113235229
30
0
41
1
10
33.3381648592829
20
-4.4429315151279
30
0
41
1
10
33.5614265744817
20
-4.53223208688698
30
0
41
1
10
34.0075712706031
20
-4.69786082497302
30
0
41
1
10
34.2304699713851
20
-4.77417532631125
30
0
41
1
10
34.5646568707761
20
-4.87874517005613
30
0
41
1
10
34.6760227348507
20
-4.91194930174666
30
0
41
1
10
34.8988940936625
20
-4.9749133951232
30
0
41
1
10
35.0105125843894
20
-5.00461486388693
30
0
41
1
10
35.3460152032231
20
-5.08834441261567
30
0
41
1
10
35.5703936691169
20
-5.13707975494131
30
0
41
1
10
35.851883041476
20
-5.18896395056385
30
0
41
1
10
35.9082309042333
20
-5.19888867929114
30
0
41
1
10
36.0210276175174
20
-5.21782716128905
30
0
41
1
10
36.0774536506475
20
-5.22683611199653
30
0
41
1
10
36.2463969682251
20
-5.25241341032179
30
0
41
1
10
36.3587382427297
20
-5.26755947465327
30
0
41
1
10
36.5828917375483
20
-5.29405410293515
30
0
41
1
10
36.6946706001486
20
-5.30540578064912
30
0
41
1
10
36.9180795672991
20
-5.32426661281522
30
0
41
1
10
37.029694338081
20
-5.33178270198809
30
0
41
1
10
37.3643294700683
20
-5.34865630104409
30
0
41
1
10
37.5871363216209
20
-5.35234993132315
30
0
41
1
10
38.0323362316774
20
-5.34478454522875
30
0
41
1
10
38.2547561250636
20
-5.33352736423382
30
0
41
1
10
38.5881886642496
20
-5.30532496956729
30
0
41
1
10
38.699295221039
20
-5.29403039373875
30
0
41
1
10
38.9218550697035
20
-5.26771983253443
30
0
41
1
10
39.033314716373
20
-5.25270977226955
30
0
41
1
10
39.368227171029
20
-5.2021204137717
30
0
41
1
10
39.5921943956887
20
-5.16098474472491
30
0
41
1
10
39.929338978892
20
-5.08804150513532
30
0
41
1
10
40.0419252449797
20
-5.06185426182284
30
0
41
1
10
40.267502386099
20
-5.00566818585335
30
0
41
1
10
40.380049308197
20
-4.97576491357901
30
0
41
1
10
40.5482821168509
20
-4.92824988639194
30
0
41
1
10
40.604289098154
20
-4.91197300915232
30
0
41
1
10
40.716284247478
20
-4.87861672628952
30
0
41
1
10
40.7722656291468
20
-4.86153414056739
30
0
41
1
10
40.9401172820548
20
-4.80905900705733
30
0
41
1
10
41.0518879966816
20
-4.77243442586021
30
0
41
1
10
41.3869064788422
20
-4.65775606404048
30
0
41
1
10
41.6098776161329
20
-4.57491767718244
30
0
41
1
10
42.0552459389909
20
-4.39673650254866
30
0
41
1
10
42.2775970533915
20
-4.30135970745306
30
0
41
1
10
42.5551964887093
20
-4.17425221171106
30
0
41
1
10
42.6107051027131
20
-4.14844014250164
30
0
41
1
10
42.6848157374511
20
-4.11355291703578
30
0
41
1
10
42.7033772967582
20
-4.10478093879794
30
0
41
1
10
42.7219444279631
20
-4.09597146450631
30
0
0
SPLINE
5
182
100
AcDbEntity
8
1
62
256
6
ByLayer
370
18
48
1
60
0
100
AcDbSpline
70
4
71
3
72
8
73
4
40
0
40
0
40
0
40
0
40
1
40
1
40
1
40
1
41
1
10
63.4060553856439
20
6.5826693762447
30
0
41
1
10
63.3561900676981
20
6.60043586637821
30
0
41
1
10
63.306357623913
20
6.61771917622738
30
0
41
1
10
63.2565569798961
20
6.63452158343768
30
0
0
SPLINE
5
183
100
AcDbEntity
8
1
62
256
6
ByLayer
370
18
48
1
60
0
100
AcDbSpline
70
4
71
3
72
10
73
6
40
0
40
0
40
0
40
0
40
0.10989981263095
40
0.10989981263095
40
1
40
1
40
1
40
1
41
1
10
62.1936482146588
20
-6.69025037677943
30
0
41
1
10
62.1830771847325
20
-6.67198711531623
30
0
41
1
10
62.1724998804188
20
-6.65367638986848
30
0
41
1
10
62.0761971065661
20
-6.48663356817909
30
0
41
1
10
61.9900869343409
20
-6.33489319301651
30
0
41
1
10
61.9035762724348
20
-6.18028069205855
30
0
0
SPLINE
5
184
100
AcDbEntity
8
1
62
256
6
ByLayer
370
18
48
1
60
0
100
AcDbSpline
70
4
71
3
72
32
73
28
40
0
40
0
40
0
40
0
40
0.124999999999985
40
0.124999999999985
40
0.187499999999978
40
0.187499999999978
40
0.249999999999971
40
0.249999999999971
40
0.374999999999958
40
0.374999999999958
40
0.437499999999979
40
0.437499999999979
40
0.5
40
0.5
40
0.625000000000041
40
0.625000000000041
40
0.687500000000034
40
0.687500000000034
40
0.750000000000027
40
0.750000000000027
40
0.81250000000002
40
0.81250000000002
40
0.875000000000013
40
0.875000000000013
40
0.937500000000007
40
0.937500000000007
40
1
40
1
40
1
40
1
41
1
10
61.9035762724348
20
-6.18028069205849
30
0
41
1
10
61.8931509148638
20
-6.1616484151586
30
0
41
1
10
61.8809792727415
20
-6.1452066488545
30
0
41
1
10
61.8606567144519
20
-6.12311390569323
30
0
41
1
10
61.8534991208318
20
-6.11616402389666
30
0
41
1
10
61.8387738220697
20
-6.10331979320998
30
0
41
1
10
61.8311862837115
20
-6.09739798515002
30
0
41
1
10
61.8078008758853
20
-6.08102451711883
30
0
41
1
10
61.7913880537026
20
-6.07194670575049
30
0
41
1
10
61.7655747931465
20
-6.06104201710386
30
0
41
1
10
61.7567609658461
20
-6.05786758911762
30
0
41
1
10
61.73906096219
20
-6.05256474045623
30
0
41
1
10
61.7301344948755
20
-6.05041735328012
30
0
41
1
10
61.7031307983411
20
-6.04550832538612
30
0
41
1
10
61.6848328665776
20
-6.04424963890261
30
0
41
1
10
61.6569064342381
20
-6.04591621214939
30
0
41
1
10
61.6475584587525
20
-6.04707651707875
30
0
41
1
10
61.629116172299
20
-6.05066423573285
30
0
41
1
10
61.6199762475263
20
-6.05309246066565
30
0
41
1
10
61.6018848717515
20
-6.05936640049762
30
0
41
1
10
61.5928937281912
20
-6.06323117961236
30
0
41
1
10
61.5753173241971
20
-6.07255297031458
30
0
41
1
10
61.5668396773742
20
-6.07794587022846
30
0
41
1
10
61.5505852498527
20
-6.09037502539422
30
0
41
1
10
61.5427713866515
20
-6.09744744459638
30
0
41
1
10
61.5281507857059
20
-6.113408777448
30
0
41
1
10
61.5214511223654
20
-6.12216853880003
30
0
41
1
10
61.5154448767937
20
-6.13181534392021
30
0
0
SPLINE
5
185
100
AcDbEntity
8
1
62
256
6
ByLayer
370
18
48
1
60
0
100
AcDbSpline
70
4
71
3
72
10
73
6
40
0
40
0
40
0
40
0
40
0.5
40
0.5
40
1
40
1
40
1
40
1
41
1
10
61.5154448767937
20
-6.13181534392021
30
0
41
1
10
61.4314873751765
20
-6.26666192100316
30
0
41
1
10
61.347886710589
20
-6.3996053794323
30
0
41
1
10
61.1814509190593
20
-6.66132187397892
30
0
41
1
10
61.0986839110815
20
-6.78998919984701
30
0
41
1
10
61.0163108489162
20
-6.91642782066819
30
0
0
SPLINE
5
186
100
AcDbEntity
8
1
62
256
6
ByLayer
370
18
48
1
60
0
100
AcDbSpline
70
4
71
3
72
8
73
4
40
0
40
0
40
0
40
0
40
1
40
1
40
1
40
1
41
1
10
60.8667700791515
20
-6.88440422899984
30
0
41
1
10
60.9166062808572
20
-6.89556973926381
30
0
41
1
10
60.9664514698713
20
-6.90624455845153
30
0
41
1
10
61.0163108489162
20
-6.91642782066805
30
0
0
SPLINE
5
187
100
AcDbEntity
8
1
62
256
6
ByLayer
370
18
48
1
60
0
100
AcDbSpline
70
4
71
3
72
10
73
6
40
0
40
0
40
0
40
0
40
0.5
40
0.5
40
1
40
1
40
1
40
1
41
1
10
60.866770079153
20
-6.88440422898694
30
0
41
1
10
60.7817955428267
20
-6.72136665942364
30
0
41
1
10
60.6964611555671
20
-6.55615622316364
30
0
41
1
10
60.5250124376419
20
-6.22172178394399
30
0
41
1
10
60.4389352107197
20
-6.0525616716854
30
0
41
1
10
60.3524827327329
20
-5.88167577484236
30
0
0
SPLINE
5
188
100
AcDbEntity
8
1
62
256
6
ByLayer
370
18
48
1
60
0
100
AcDbSpline
70
4
71
3
72
32
73
28
40
0
40
0
40
0
40
0
40
0.124999999999993
40
0.124999999999993
40
0.18749999999999
40
0.18749999999999
40
0.249999999999987
40
0.249999999999987
40
0.374999999999982
40
0.374999999999982
40
0.499999999999978
40
0.499999999999978
40
0.624999999999973
40
0.624999999999973
40
0.68749999999997
40
0.68749999999997
40
0.749999999999967
40
0.749999999999967
40
0.812499999999964
40
0.812499999999964
40
0.874999999999962
40
0.874999999999962
40
0.937499999999959
40
0.937499999999959
40
0.96874999999998
40
0.96874999999998
40
1
40
1
40
1
40
1
41
1
10
60.3524827327324
20
-5.88167577484163
30
0
41
1
10
60.3420452810372
20
-5.86104463348843
30
0
41
1
10
60.3299001392035
20
-5.84240275177851
30
0
41
1
10
60.3097013837103
20
-5.81672942085399
30
0
41
1
10
60.3026308417224
20
-5.80856221877806
30
0
41
1
10
60.2878460888401
20
-5.79297196919882
30
0
41
1
10
60.2801983975889
20
-5.78562285107182
30
0
41
1
10
60.2567429516033
20
-5.76499507527137
30
0
41
1
10
60.2403472554839
20
-5.75303098739982
30
0
41
1
10
60.2061275893065
20
-5.73252289343648
30
0
41
1
10
60.1881523650671
20
-5.72395264247095
30
0
41
1
10
60.1520355374496
20
-5.71106982527036
30
0
41
1
10
60.1337764430263
20
-5.70664869830296
30
0
41
1
10
60.1060896697718
20
-5.70344494964255
30
0
41
1
10
60.0967936537114
20
-5.70295434103565
30
0
41
1
10
60.0781649069363
20
-5.70329707891605
30
0
41
1
10
60.0689718707622
20
-5.70412621470021
30
0
41
1
10
60.0508571120371
20
-5.70721476550187
30
0
41
1
10
60.0419350015623
20
-5.70947242668521
30
0
41
1
10
60.0244097537158
20
-5.71563959426379
30
0
41
1
10
60.0157849982874
20
-5.71957717168573
30
0
41
1
10
59.9994719267729
20
-5.72912489175644
30
0
41
1
10
59.9917152206388
20
-5.73474946883081
30
0
41
1
10
59.9807824758992
20
-5.74467971385457
30
0
41
1
10
59.9772446149282
20
-5.7482549329545
30
0
41
1
10
59.9705270827668
20
-5.75585106908545
30
0
41
1
10
59.9673383363716
20
-5.75987752889986
30
0
41
1
10
59.9643305989815
20
-5.76414762879065
30
0
0
SPLINE
5
189
100
AcDbEntity
8
1
62
256
6
ByLayer
370
18
48
1
60
0
100
AcDbSpline
70
4
71
3
72
10
73
6
40
0
40
0
40
0
40
0
40
0.5
40
0.5
40
1
40
1
40
1
40
1
41
1
10
59.9643305989815
20
-5.76414762879065
30
0
41
1
10
59.880372798874
20
-5.88334293960966
30
0
41
1
10
59.7967714752342
20
-5.99968037283486
30
0
41
1
10
59.63032370175
20
-6.22641323238636
30
0
41
1
10
59.5475489218543
20
-6.3367000867529
30
0
41
1
10
59.465167517719
20
-6.44390003360442
30
0
0
SPLINE
5
18A
100
AcDbEntity
8
1
62
256
6
ByLayer
370
18
48
1
60
0
100
AcDbSpline
70
4
71
3
72
8
73
4
40
0
40
0
40
0
40
0
40
1
40
1
40
1
40
1
41
1
10
59.3156505707661
20
-6.38241701602448
30
0
41
1
10
59.3654832294022
20
-6.40336552237977
30
0
41
1
10
59.4153209172021
20
-6.42386041482524
30
0
41
1
10
59.465167517719
20
-6.44390003360442
30
0
0
SPLINE
5
18B
100
AcDbEntity
8
1
62
256
6
ByLayer
370
18
48
1
60
0
100
AcDbSpline
70
4
71
3
72
10
73
6
40
0
40
0
40
0
40
0
40
0.5
40
0.5
40
1
40
1
40
1
40
1
41
1
10
59.3156505707678
20
-6.38241701601046
30
0
41
1
10
59.2306965880631
20
-6.20633860722697
30
0
41
1
10
59.145373298045
20
-6.02920132242059
30
0
41
1
10
58.9739368795844
20
-5.6732106467673
30
0
41
1
10
58.8878541891247
20
-5.49442062527271
30
0
41
1
10
58.8014183735634
20
-5.31511007267008
30
0
0
SPLINE
5
18C
100
AcDbEntity
8
1
62
256
6
ByLayer
370
18
48
1
60
0
100
AcDbSpline
70
4
71
3
72
32
73
28
40
0
40
0
40
0
40
0
40
0.125000000000026
40
0.125000000000026
40
0.187500000000039
40
0.187500000000039
40
0.250000000000052
40
0.250000000000052
40
0.375000000000077
40
0.375000000000077
40
0.500000000000103
40
0.500000000000103
40
0.625000000000129
40
0.625000000000129
40
0.687500000000114
40
0.687500000000114
40
0.750000000000099
40
0.750000000000099
40
0.812500000000084
40
0.812500000000084
40
0.87500000000007
40
0.87500000000007
40
0.937500000000055
40
0.937500000000055
40
0.968750000000028
40
0.968750000000028
40
1
40
1
40
1
40
1
41
1
10
58.8014183735631
20
-5.31511007266931
30
0
41
1
10
58.7909674619086
20
-5.29342972255293
30
0
41
1
10
58.778804300504
20
-5.27337774306488
30
0
41
1
10
58.7585761161656
20
-5.24517745954367
30
0
41
1
10
58.7514953457207
20
-5.23609759437855
30
0
41
1
10
58.7366900112277
20
-5.21854782078825
30
0
41
1
10
58.7290349098411
20
-5.21016366916768
30
0
41
1
10
58.7055565508227
20
-5.18629052014305
30
0
41
1
10
58.6891485479767
20
-5.17197194901857
30
0
41
1
10
58.6549152176025
20
-5.14637746047785
30
0
41
1
10
58.6369417583343
20
-5.13505233694747
30
0
41
1
10
58.6008396349608
20
-5.11644156645812
30
0
41
1
10
58.5825910569632
20
-5.10903066651207
30
0
41
1
10
58.5549223849957
20
-5.10111819350834
30
0
41
1
10
58.5456295406004
20
-5.09901682240579
30
0
41
1
10
58.5270217949746
20
-5.09606451832738
30
0
41
1
10
58.5178381468139
20
-5.09523233411232
30
0
41
1
10
58.4997390698541
20
-5.09496858342123
30
0
41
1
10
58.4908232881966
20
-5.09553527904023
30
0
41
1
10
58.4733075026422
20
-5.09828624814804
30
0
41
1
10
58.46468788261
20
-5.10049278084
30
0
41
1
10
58.4483807988553
20
-5.10665087864464
30
0
41
1
10
58.4406248230541
20
-5.11060425253862
30
0
41
1
10
58.4296902772856
20
-5.11807131712402
30
0
41
1
10
58.4261516162701
20
-5.12082984082238
30
0
41
1
10
58.4194327593112
20
-5.12683118876075
30
0
41
1
10
58.4162429806037
20
-5.13007808158127
30
0
41
1
10
58.4132339549665
20
-5.13358789771661
30
0
0
SPLINE
5
18D
100
AcDbEntity
8
1
62
256
6
ByLayer
370
18
48
1
60
0
100
AcDbSpline
70
4
71
3
72
10
73
6
40
0
40
0
40
0
40
0
40
0.5
40
0.5
40
1
40
1
40
1
40
1
41
1
10
58.4132339549665
20
-5.13358789771664
30
0
41
1
10
58.3292950042466
20
-5.2314967622923
30
0
41
1
10
58.245711030544
20
-5.32575607585005
30
0
41
1
10
58.0792532739418
20
-5.50715767251413
30
0
41
1
10
57.9964591592014
20
-5.59413263217581
30
0
41
1
10
57.914070488361
20
-5.67721275829942
30
0
0
SPLINE
5
18E
100
AcDbEntity
8
1
62
256
6
ByLayer
370
18
48
1
60
0
100
AcDbSpline
70
4
71
3
72
8
73
4
40
0
40
0
40
0
40
0
40
1
40
1
40
1
40
1
41
1
10
57.7645239793546
20
-5.58908645078065
30
0
41
1
10
57.814362704876
20
-5.6188627604557
30
0
41
1
10
57.8642096781225
20
-5.64823927823795
30
0
41
1
10
57.914070488361
20
-5.67721275829942
30
0
0
SPLINE
5
18F
100
AcDbEntity
8
1
62
256
6
ByLayer
370
18
48
1
60
0
100
AcDbSpline
70
4
71
3
72
10
73
6
40
0
40
0
40
0
40
0
40
0.5
40
0.5
40
1
40
1
40
1
40
1
41
1
10
57.7645239793563
20
-5.58908645076744
30
0
41
1
10
57.6795790265457
20
-5.40802106317781
30
0
41
1
10
57.5942653069366
20
-5.22706408673392
30
0
41
1
10
57.4228461976163
20
-4.86580513857598
30
0
41
1
10
57.3367713567472
20
-4.68556795074025
30
0
41
1
10
57.250338947833
20
-4.50601782359743
30
0
0
SPLINE
5
190
100
AcDbEntity
8
1
62
256
6
ByLayer
370
18
48
1
60
0
100
AcDbSpline
70
4
71
3
72
32
73
28
40
0
40
0
40
0
40
0
40
0.125000000000022
40
0.125000000000022
40
0.187500000000052
40
0.187500000000052
40
0.250000000000081
40
0.250000000000081
40
0.375000000000094
40
0.375000000000094
40
0.500000000000107
40
0.500000000000107
40
0.625000000000119
40
0.625000000000119
40
0.687500000000099
40
0.687500000000099
40
0.750000000000079
40
0.750000000000079
40
0.81250000000006
40
0.81250000000006
40
0.87500000000004
40
0.87500000000004
40
0.93750000000002
40
0.93750000000002
40
0.96875000000001
40
0.96875000000001
40
1
40
1
40
1
40
1
41
1
10
57.2503389478329
20
-4.50601782359723
30
0
41
1
10
57.239887011039
20
-4.48430552142014
30
0
41
1
10
57.2277218731482
20
-4.46378064990719
30
0
41
1
10
57.2074893219054
20
-4.43436760650593
30
0
41
1
10
57.2004068596161
20
-4.42479751127314
30
0
41
1
10
57.1855976524343
20
-4.40610349364155
30
0
41
1
10
57.1779412517286
20
-4.39707143695975
30
0
41
1
10
57.1544579342489
20
-4.37105618287853
30
0
41
1
10
57.1380464074659
20
-4.35504324499607
30
0
41
1
10
57.1038052147144
20
-4.32554470201544
30
0
41
1
10
57.0858290207922
20
-4.31198876274306
30
0
41
1
10
57.0497251475438
20
-4.28852224138544
30
0
41
1
10
57.0314760181877
20
-4.27847512466502
30
0
41
1
10
57.0038072147906
20
-4.2662445810424
30
0
41
1
10
56.9945120864832
20
-4.26263843758525
30
0
41
1
10
56.9759105641513
20
-4.25655204089475
30
0
41
1
10
56.9667298663028
20
-4.25411078281098
30
0
41
1
10
56.9486364804071
20
-4.25053576495182
30
0
41
1
10
56.9397234517913
20
-4.24940036172492
30
0
41
1
10
56.9222129232499
20
-4.2486382340272
30
0
41
1
10
56.9135974042118
20
-4.24902781973955
30
0
41
1
10
56.8972979287923
20
-4.25154115419079
30
0
41
1
10
56.8895452834514
20
-4.25365400325234
30
0
41
1
10
56.8786149439511
20
-4.25832859550462
30
0
41
1
10
56.8750777218762
20
-4.2601476581097
30
0
41
1
10
56.8683617906129
20
-4.26428538659712
30
0
41
1
10
56.8651732754406
20
-4.26660606571835
30
0
41
1
10
56.862165312452
20
-4.26919574484188
30
0
0
SPLINE
5
191
100
AcDbEntity
8
1
62
256
6
ByLayer
370
18
48
1
60
0
100
AcDbSpline
70
4
71
3
72
10
73
6
40
0
40
0
40
0
40
0
40
0.5
40
0.5
40
1
40
1
40
1
40
1
41
1
10
56.862165312452
20
-4.26919574484191
30
0
41
1
10
56.778194971651
20
-4.34148926686612
30
0
41
1
10
56.6945822809754
20
-4.4094635837769
30
0
41
1
10
56.5281101611383
20
-4.53677945758469
30
0
41
1
10
56.4453190907858
20
-4.59606687752571
30
0
41
1
10
56.3629212185674
20
-4.65101912426834
30
0
0
SPLINE
5
192
100
AcDbEntity
8
1
62
256
6
ByLayer
370
18
48
1
60
0
100
AcDbSpline
70
4
71
3
72
8
73
4
40
0
40
0
40
0
40
0
40
1
40
1
40
1
40
1
41
1
10
56.2134042113642
20
-4.53997595053639
30
0
41
1
10
56.2632505377325
20
-4.5773119386933
30
0
41
1
10
56.3130841976726
20
-4.61433054708482
30
0
41
1
10
56.3629212185675
20
-4.65101912426837
30
0
0
SPLINE
5
193
100
AcDbEntity
8
1
62
256
6
ByLayer
370
18
48
1
60
0
100
AcDbSpline
70
4
71
3
72
10
73
6
40
0
40
0
40
0
40
0
40
0.5
40
0.5
40
1
40
1
40
1
40
1
41
1
10
56.2134042113642
20
-4.53997595053636
30
0
41
1
10
56.128516697768
20
-4.36212260600016
30
0
41
1
10
56.0432350421477
20
-4.18556640652847
30
0
41
1
10
55.8718108625731
20
-3.8355347430803
30
0
41
1
10
55.7857035479987
20
-3.66212123110094
30
0
41
1
10
55.6992214410342
20
-3.49059843369281
30
0
0
SPLINE
5
194
100
AcDbEntity
8
1
62
256
6
ByLayer
370
18
48
1
60
0
100
AcDbSpline
70
4
71
3
72
32
73
28
40
0
40
0
40
0
40
0
40
0.12499999999998
40
0.12499999999998
40
0.187499999999949
40
0.187499999999949
40
0.249999999999919
40
0.249999999999919
40
0.374999999999903
40
0.374999999999903
40
0.499999999999888
40
0.499999999999888
40
0.624999999999873
40
0.624999999999873
40
0.687499999999893
40
0.687499999999893
40
0.749999999999914
40
0.749999999999914
40
0.812499999999935
40
0.812499999999935
40
0.874999999999955
40
0.874999999999955
40
0.937499999999976
40
0.937499999999976
40
0.968749999999988
40
0.968749999999988
40
1
40
1
40
1
40
1
41
1
10
55.6992214410342
20
-3.49059843369253
30
0
41
1
10
55.6887738027393
20
-3.46987729021492
30
0
41
1
10
55.6766116285988
20
-3.44984802016055
30
0
41
1
10
55.656379293945
20
-3.42061262319643
30
0
41
1
10
55.6492962171997
20
-3.41100512610731
30
0
41
1
10
55.6344841335933
20
-3.39205232373604
30
0
41
1
10
55.6268265594085
20
-3.38280100749284
30
0
41
1
10
55.6033370488519
20
-3.35588006178261
30
0
41
1
10
55.5869192070484
20
-3.33893657094541
30
0
41
1
10
55.5526612069701
20
-3.30694686096467
30
0
41
1
10
55.5346769888694
20
-3.29181429214475
30
0
41
1
10
55.4985634487743
20
-3.26463607301554
30
0
41
1
10
55.4803094676314
20
-3.25244736772311
30
0
41
1
10
55.4526334678652
20
-3.23651059246393
30
0
41
1
10
55.4433306625013
20
-3.23158004025419
30
0
41
1
10
55.4247382569907
20
-3.22267849169722
30
0
41
1
10
55.4155621544718
20
-3.2187593869867
30
0
41
1
10
55.3974780157101
20
-3.21207428050158
30
0
41
1
10
55.3885696351642
20
-3.20930683274187
30
0
41
1
10
55.3710683577428
20
-3.20510113114014
30
0
41
1
10
55.3624617947274
20
-3.20367373256667
30
0
41
1
10
55.3461799348269
20
-3.20245899704989
30
0
41
1
10
55.3384354805543
20
-3.20264867511318
30
0
41
1
10
55.3275162189584
20
-3.20433479246924
30
0
41
1
10
55.3239830483317
20
-3.20513664420778
30
0
41
1
10
55.3172758338104
20
-3.20723079809312
30
0
41
1
10
55.3140912960294
20
-3.20852299146742
30
0
41
1
10
55.3110868826286
20
-3.21007711288539
30
0
0
SPLINE
5
195
100
AcDbEntity
8
1
62
256
6
ByLayer
370
18
48
1
60
0
100
AcDbSpline
70
4
71
3
72
8
73
4
40
0
40
0
40
0
40
0
40
1
40
1
40
1
40
1
41
1
10
55.2659068752147
20
-3.23299699560735
30
0
41
1
10
55.2176075345157
20
-3.13580248822063
30
0
41
1
10
55.1691999006268
20
-3.03929000386725
30
0
41
1
10
55.1206717739159
20
-2.94346946985331
30
0
0
SPLINE
5
196
100
AcDbEntity
8
1
62
256
6
ByLayer
370
18
48
1
60
0
100
AcDbSpline
70
4
71
3
72
26
73
22
40
0
40
0
40
0
40
0
40
0.062500000000006
40
0.062500000000006
40
0.125000000000012
40
0.125000000000012
40
0.187500000000018
40
0.187500000000018
40
0.250000000000024
40
0.250000000000024
40
0.500000000000034
40
0.500000000000034
40
0.562500000000036
40
0.562500000000036
40
0.625000000000038
40
0.625000000000038
40
0.750000000000025
40
0.750000000000025
40
0.875000000000013
40
0.875000000000013
40
1
40
1
40
1
40
1
41
1
10
55.1206717739159
20
-2.9434694698534
30
0
41
1
10
55.1048286628588
20
-2.91218667645455
30
0
41
1
10
55.0882413864069
20
-2.88100305330403
30
0
41
1
10
55.0533542522133
20
-2.81931883637574
30
0
41
1
10
55.0350689981931
20
-2.78878577277405
30
0
41
1
10
54.9968582921019
20
-2.72828622003632
30
0
41
1
10
54.9769414985149
20
-2.69834206355125
30
0
41
1
10
54.9358380258303
20
-2.63942674269782
30
0
41
1
10
54.9146149606751
20
-2.61039668508843
30
0
41
1
10
54.8053201491184
20
-2.46720511440245
30
0
41
1
10
54.7077721761099
20
-2.35887830663737
30
0
41
1
10
54.5753768301448
20
-2.22878330331991
30
0
41
1
10
54.5483696511321
20
-2.2030340710327
30
0
41
1
10
54.4933333800779
20
-2.15202860259529
30
0
41
1
10
54.4654336149377
20
-2.12689572359608
30
0
41
1
10
54.381029279199
20
-2.05278089882228
30
0
41
1
10
54.3236846487758
20
-2.0049473312551
30
0
41
1
10
54.2073552241336
20
-1.9117997122479
30
0
41
1
10
54.1483518880007
20
-1.86650810480404
30
0
41
1
10
54.0291275605
20
-1.77792764953489
30
0
41
1
10
53.9689129947197
20
-1.73463058708663
30
0
41
1
10
53.9082362086177
20
-1.69216151368215
30
0
0
SPLINE
5
197
100
AcDbEntity
8
1
62
256
6
ByLayer
370
18
48
1
60
0
100
AcDbSpline
70
4
71
3
72
100
73
96
40
0
40
0
40
0
40
0
40
0.0312499999999932
40
0.0312499999999932
40
0.0624999999999864
40
0.0624999999999864
40
0.0937499999999796
40
0.0937499999999796
40
0.124999999999973
40
0.124999999999973
40
0.156249999999966
40
0.156249999999966
40
0.187499999999959
40
0.187499999999959
40
0.203124999999956
40
0.203124999999956
40
0.218749999999952
40
0.218749999999952
40
0.234374999999949
40
0.234374999999949
40
0.249999999999945
40
0.28124999999994
40
0.28124999999994
40
0.296874999999938
40
0.296874999999938
40
0.312499999999936
40
0.312499999999936
40
0.320312499999936
40
0.320312499999936
40
0.328124999999936
40
0.328124999999936
40
0.343749999999937
40
0.343749999999937
40
0.374999999999939
40
0.374999999999939
40
0.406249999999942
40
0.406249999999942
40
0.421874999999944
40
0.421874999999944
40
0.437499999999946
40
0.437499999999946
40
0.453124999999948
40
0.453124999999948
40
0.468749999999949
40
0.468749999999949
40
0.499999999999953
40
0.499999999999953
40
0.515624999999955
40
0.515624999999955
40
0.531249999999957
40
0.531249999999957
40
0.546874999999959
40
0.546874999999959
40
0.562499999999961
40
0.562499999999961
40
0.593749999999963
40
0.593749999999963
40
0.609374999999965
40
0.609374999999965
40
0.624999999999967
40
0.624999999999967
40
0.640624999999969
40
0.640624999999969
40
0.656249999999971
40
0.656249999999971
40
0.687499999999973
40
0.687499999999973
40
0.703124999999974
40
0.703124999999974
40
0.718749999999976
40
0.718749999999976
40
0.749999999999978
40
0.749999999999978
40
0.765624999999979
40
0.765624999999979
40
0.78124999999998
40
0.78124999999998
40
0.812499999999984
40
0.812499999999984
40
0.843749999999988
40
0.843749999999988
40
0.874999999999992
40
0.874999999999992
40
0.890624999999994
40
0.890624999999994
40
0.906249999999996
40
0.906249999999996
40
0.937499999999998
40
0.937499999999998
40
0.945312499999997
40
0.945312499999997
40
0.953124999999997
40
0.968749999999997
40
0.968749999999997
40
1
40
1
40
1
40
1
41
1
10
53.9082362086177
20
-1.69216151368215
30
0
41
1
10
53.7231963821434
20
-1.56264789771572
30
0
41
1
10
53.5389222174379
20
-1.43189395352684
30
0
41
1
10
53.1715755710398
20
-1.16835899540362
30
0
41
1
10
52.9885123268022
20
-1.03556526251569
30
0
41
1
10
52.6230557455766
20
-0.768678604154985
30
0
41
1
10
52.4406297027723
20
-0.63463018532687
30
0
41
1
10
52.0756782729506
20
-0.366289755469836
30
0
41
1
10
51.8932338325311
20
-0.231887304823999
30
0
41
1
10
51.5281427253562
20
0.0370169946578471
30
0
41
1
10
51.3455821536626
20
0.171636740291604
30
0
41
1
10
50.9804608675217
20
0.441257184602279
30
0
41
1
10
50.7978413525866
20
0.576177322181479
30
0
41
1
10
50.5234651474863
20
0.778234039581861
30
0
41
1
10
50.4319103699193
20
0.845502794898977
30
0
41
1
10
50.2480564839408
20
0.979110318612641
30
0
41
1
10
50.1558800313424
20
1.04561824026166
30
0
41
1
10
49.9713261417956
20
1.17845487828757
30
0
41
1
10
49.8789123073563
20
1.24473666986594
30
0
41
1
10
49.6938512652599
20
1.37706457711965
30
0
41
1
10
49.4169579828282
20
1.57445252372108
30
0
41
1
10
49.1418330776833
20
1.76810457927468
30
0
41
1
10
48.867444433033
20
1.95871400201534
30
0
41
1
10
48.7760797825107
20
2.02171092729643
30
0
41
1
10
48.5932789356186
20
2.14629862280688
30
0
41
1
10
48.5019179664544
20
2.20798656595818
30
0
41
1
10
48.3649642871493
20
2.29965243143275
30
0
41
1
10
48.3193250698998
20
2.33005991233509
30
0
41
1
10
48.2280200964576
20
2.39051816506063
30
0
41
1
10
48.1823430410687
20
2.42055529304895
30
0
41
1
10
48.04536429534
20
2.51024768465035
30
0
41
1
10
47.9541064336174
20
2.56947275251179
30
0
41
1
10
47.6804659949098
20
2.7453728165691
30
0
41
1
10
47.4982501259448
20
2.86031008521135
30
0
41
1
10
47.1335509324837
20
3.08468567080351
30
0
41
1
10
46.9510776798177
20
3.19413898938151
30
0
41
1
10
46.676959410376
20
3.35393149529804
30
0
41
1
10
46.5855083160049
20
3.40645268363505
30
0
41
1
10
46.4023383843759
20
3.509883929854
30
0
41
1
10
46.3105060639804
20
3.56067566803961
30
0
41
1
10
46.1267046599139
20
3.66078324211492
30
0
41
1
10
46.034735582886
20
3.71009619260266
30
0
41
1
10
45.8503867588985
20
3.80694821523653
30
0
41
1
10
45.7579453005204
20
3.85443209313067
30
0
41
1
10
45.4802278567349
20
3.99441019128994
30
0
41
1
10
45.2959333515243
20
4.08371249847542
30
0
41
1
10
45.0204834041447
20
4.21145468745542
30
0
41
1
10
44.928833340073
20
4.25300111718408
30
0
41
1
10
44.745816931517
20
4.33399009507778
30
0
41
1
10
44.6544433840638
20
4.37342529242804
30
0
41
1
10
44.4717425340927
20
4.45001538295659
30
0
41
1
10
44.3803936344574
20
4.48715488843754
30
0
41
1
10
44.1976663349594
20
4.5591299215551
30
0
41
1
10
44.1062945931645
20
4.59397175225169
30
0
41
1
10
43.8323825596553
20
4.69523934355615
30
0
41
1
10
43.650016807589
20
4.75838375915885
30
0
41
1
10
43.376645650802
20
4.84638537263996
30
0
41
1
10
43.2855523889979
20
4.87460006584408
30
0
41
1
10
43.103390111511
20
4.92875458203949
30
0
41
1
10
43.0123149461616
20
4.95468995873998
30
0
41
1
10
42.8300030847723
20
5.00417643372055
30
0
41
1
10
42.7387735464794
20
5.02773055707166
30
0
41
1
10
42.555921549457
20
5.07235101043679
30
0
41
1
10
42.4642632832335
20
5.09340556390706
30
0
41
1
10
42.1890951132345
20
5.15302380174074
30
0
41
1
10
42.005365399831
20
5.1880208368444
30
0
41
1
10
41.7290862739352
20
5.23312328274108
30
0
41
1
10
41.6368633600735
20
5.2469193541861
30
0
41
1
10
41.4520428318559
20
5.27197501972586
30
0
41
1
10
41.3597387048628
20
5.2831967601453
30
0
41
1
10
41.0834082610459
20
5.31293871135864
30
0
41
1
10
40.8998694294374
20
5.32755544660699
30
0
41
1
10
40.6251076320583
20
5.34172325669138
30
0
41
1
10
40.533557537228
20
5.34514853609676
30
0
41
1
10
40.3504687624074
20
5.34943875151322
30
0
41
1
10
40.2590083761825
20
5.35030798841026
30
0
41
1
10
39.984938624539
20
5.34909559884107
30
0
41
1
10
39.8025949955789
20
5.34318834292165
30
0
41
1
10
39.4380704823194
20
5.32120740856971
30
0
41
1
10
39.2558650890257
20
5.30514086727487
30
0
41
1
10
38.8912458433445
20
5.26288558020286
30
0
41
1
10
38.708816875054
20
5.23669308158122
30
0
41
1
10
38.4344485387466
20
5.18993382328895
30
0
41
1
10
38.3428696756495
20
5.17310557844309
30
0
41
1
10
38.1595621965636
20
5.13691983757818
30
0
41
1
10
38.0678206744553
20
5.11756550484833
30
0
41
1
10
37.7921963841339
20
5.055741891292
30
0
41
1
10
37.6078708785581
20
5.00954107565397
30
0
41
1
10
37.3767808158593
20
4.94539506950613
30
0
41
1
10
37.3305576529729
20
4.93225446176783
30
0
41
1
10
37.2382555760504
20
4.90540326471293
30
0
41
1
10
37.0999463749871
20
4.86425154042436
30
0
41
1
10
36.9620247559681
20
4.82050918973925
30
0
41
1
10
36.6865832609111
20
4.72966479970739
30
0
41
1
10
36.50352834985
20
4.66459211610561
30
0
41
1
10
36.3205510368784
20
4.59542253311017
30
0
0
SPLINE
5
198
100
AcDbEntity
8
1
62
256
6
ByLayer
370
18
48
1
60
0
100
AcDbSpline
70
4
71
3
72
111
73
107
40
0
40
0
40
0
40
0
40
0.0156249999999978
40
0.0156249999999978
40
0.0312499999999955
40
0.0312499999999955
40
0.0624999999999911
40
0.0624999999999911
40
0.0937499999999853
40
0.0937499999999853
40
0.109374999999983
40
0.109374999999983
40
0.12499999999998
40
0.12499999999998
40
0.156249999999975
40
0.156249999999975
40
0.164062499999975
40
0.164062499999975
40
0.171874999999974
40
0.171874999999974
40
0.187499999999975
40
0.187499999999975
40
0.203124999999975
40
0.203124999999975
40
0.218749999999975
40
0.218749999999975
40
0.249999999999976
40
0.249999999999976
40
0.281249999999977
40
0.281249999999977
40
0.296874999999978
40
0.296874999999978
40
0.312499999999979
40
0.312499999999979
40
0.343749999999982
40
0.343749999999982
40
0.359374999999984
40
0.359374999999984
40
0.374999999999986
40
0.374999999999986
40
0.382812499999987
40
0.382812499999987
40
0.390624999999987
40
0.390624999999987
40
0.406249999999988
40
0.406249999999988
40
0.43749999999999
40
0.43749999999999
40
0.468749999999992
40
0.468749999999992
40
0.476562499999993
40
0.476562499999993
40
0.484374999999994
40
0.484374999999994
40
0.499999999999997
40
0.499999999999997
40
0.53125
40
0.53125
40
0.546875000000001
40
0.546875000000001
40
0.562500000000003
40
0.562500000000003
40
0.593750000000005
40
0.593750000000005
40
0.625000000000007
40
0.625000000000007
40
0.640625000000007
40
0.640625000000007
40
0.648437500000007
40
0.648437500000007
40
0.656250000000008
40
0.656250000000008
40
0.687500000000008
40
0.687500000000008
40
0.718750000000009
40
0.718750000000009
40
0.734375000000009
40
0.734375000000009
40
0.74218750000001
40
0.74218750000001
40
0.75000000000001
40
0.75000000000001
40
0.76562500000001
40
0.76562500000001
40
0.78125000000001
40
0.78125000000001
40
0.81250000000001
40
0.81250000000001
40
0.828125000000009
40
0.828125000000009
40
0.843750000000009
40
0.843750000000009
40
0.875000000000007
40
0.875000000000007
40
0.906250000000006
40
0.906250000000006
40
0.921875000000005
40
0.921875000000005
40
0.937500000000004
40
0.937500000000004
40
0.945312500000003
40
0.945312500000003
40
0.953125000000002
40
0.968750000000001
40
0.968750000000001
40
1
40
1
40
1
40
1
41
1
10
32.443177293424
20
5.05739703615504
30
0
41
1
10
32.5555342122235
20
5.03041153924016
30
0
41
1
10
32.6675749148637
20
5.00160794194764
30
0
41
1
10
32.8912380936335
20
4.94047442047562
30
0
41
1
10
33.0029876227826
20
4.90821111114602
30
0
41
1
10
33.3381648592834
20
4.8065065526059
30
0
41
1
10
33.5614265744825
20
4.73211103803644
30
0
41
1
10
34.0075712706048
20
4.57031620345117
30
0
41
1
10
34.2304699713873
20
4.4829249557078
30
0
41
1
10
34.5646568707793
20
4.342085003428
30
0
41
1
10
34.6760227348543
20
4.29350682363045
30
0
41
1
10
34.8988940936668
20
4.19322235449732
30
0
41
1
10
35.0105125843942
20
4.14161235138158
30
0
41
1
10
35.3460152032292
20
3.98248046153807
30
0
41
1
10
35.570393669124
20
3.8705293887015
30
0
41
1
10
35.8518830414845
20
3.72326257925948
30
0
41
1
10
35.9082309042421
20
3.69344135514146
30
0
41
1
10
36.0210276175268
20
3.63305804352348
30
0
41
1
10
36.0774536506564
20
3.6025080797304
30
0
41
1
10
36.2463969682329
20
3.51002430542343
30
0
41
1
10
36.3587382427368
20
3.44717346581308
30
0
41
1
10
36.5828917375543
20
3.31914299250511
30
0
41
1
10
36.6946706001541
20
3.2539248644504
30
0
41
1
10
36.9180795673037
20
3.12159441676178
30
0
41
1
10
37.0296943380851
20
3.05446686034321
30
0
41
1
10
37.3643294700713
20
2.85029939677238
30
0
41
1
10
37.5871363216235
20
2.71047433786771
30
0
41
1
10
38.0323362316795
20
2.42365061697836
30
0
41
1
10
38.2547561250655
20
2.27668486074128
30
0
41
1
10
38.5881886642519
20
2.05094556680632
30
0
41
1
10
38.6992952210413
20
1.9748082644208
30
0
41
1
10
38.9218550697062
20
1.82128601695243
30
0
41
1
10
39.033314716376
20
1.74391131671905
30
0
41
1
10
39.3682271710329
20
1.5099420334698
30
0
41
1
10
39.5921943956934
20
1.35148068657054
30
0
41
1
10
39.9293389788983
20
1.11019559748615
30
0
41
1
10
40.0419252449866
20
1.02917550659899
30
0
41
1
10
40.2675023861072
20
0.865916600524656
30
0
41
1
10
40.3800493082033
20
0.783959734226897
30
0
41
1
10
40.5482821168562
20
0.660675874554187
30
0
41
1
10
40.604289098159
20
0.619536767399126
30
0
41
1
10
40.7162842474824
20
0.537340724715193
30
0
41
1
10
40.7722656291509
20
0.496274171960835
30
0
41
1
10
40.9401172820581
20
0.373105792358814
30
0
41
1
10
41.0518879966845
20
0.291025417398089
30
0
41
1
10
41.3869064788438
20
0.0450080655906788
30
0
41
1
10
41.609877616134
20
-0.118682651829658
30
0
41
1
10
42.0552459389912
20
-0.445199750884257
30
0
41
1
10
42.2775970533916
20
-0.608089719131186
30
0
41
1
10
42.5551964887094
20
-0.811123664826113
30
0
41
1
10
42.6107051027133
20
-0.851693599421424
30
0
41
1
10
42.7218154671036
20
-0.932602183138584
30
0
41
1
10
42.7774253908639
20
-0.972929794549174
30
0
41
1
10
42.9443763217071
20
-1.09359187947419
30
0
41
1
10
43.0558137101255
20
-1.1736392447107
30
0
41
1
10
43.3905426163783
20
-1.41259040541436
30
0
41
1
10
43.6142609490929
20
-1.57029077630142
30
0
41
1
10
43.9507895781546
20
-1.8042809940741
30
0
41
1
10
44.0631221175154
20
-1.88185366486309
30
0
41
1
10
44.288108506852
20
-2.03613157174976
30
0
41
1
10
44.4008532015257
20
-2.11295237367398
30
0
41
1
10
44.7380520017843
20
-2.3401210296764
30
0
41
1
10
44.9622201793954
20
-2.48734846980386
30
0
41
1
10
45.4095154315369
20
-2.7733975000298
30
0
41
1
10
45.6326490724715
20
-2.91221127320901
30
0
41
1
10
45.9666765592845
20
-3.11407058395559
30
0
41
1
10
46.0779260461204
20
-3.18027339886424
30
0
41
1
10
46.244677555643
20
-3.27793108840291
30
0
41
1
10
46.3002381515865
20
-3.31021228917987
30
0
41
1
10
46.4112872471069
20
-3.37425704399624
30
0
41
1
10
46.4667734147169
20
-3.40602246366606
30
0
41
1
10
46.7444305215124
20
-3.56311983370406
30
0
41
1
10
46.9669941268935
20
-3.68358329965565
30
0
41
1
10
47.4129730560642
20
-3.91415527964492
30
0
41
1
10
47.6364340881034
20
-4.02421744647353
30
0
41
1
10
47.9724395346808
20
-4.18125578687102
30
0
41
1
10
48.0845723008253
20
-4.23226240647898
30
0
41
1
10
48.252941452282
20
-4.30675140132681
30
0
41
1
10
48.3090873137835
20
-4.33124844474955
30
0
41
1
10
48.4215070734533
20
-4.37950213948201
30
0
41
1
10
48.4778372761554
20
-4.40325936983967
30
0
41
1
10
48.6468176444574
20
-4.47323884676305
30
0
41
1
10
48.7592562478392
20
-4.51814998009641
30
0
41
1
10
48.9838701219095
20
-4.60443098929747
30
0
41
1
10
49.0960315005311
20
-4.64581325028189
30
0
41
1
10
49.4320243181042
20
-4.76480084724952
30
0
41
1
10
49.655410964041
20
-4.83722591330465
30
0
41
1
10
49.9895612842749
20
-4.93561386575746
30
0
41
1
10
50.1007900688697
20
-4.9666976087006
30
0
41
1
10
50.323014526588
20
-5.02538788144869
30
0
41
1
10
50.4339919043896
20
-5.05299842978508
30
0
41
1
10
50.7673828335808
20
-5.13025158778981
30
0
41
1
10
50.9899568476543
20
-5.17447892377263
30
0
41
1
10
51.4357478378033
20
-5.24844432493151
30
0
41
1
10
51.6589488215431
20
-5.27818429080224
30
0
41
1
10
51.9943625008349
20
-5.31168673479496
30
0
41
1
10
52.1062866294737
20
-5.32099788970774
30
0
41
1
10
52.3303605315547
20
-5.33584815850372
30
0
41
1
10
52.4425870240554
20
-5.34137349652835
30
0
41
1
10
52.6114801740704
20
-5.34676746431936
30
0
41
1
10
52.6678878322397
20
-5.34808466861546
30
0
41
1
10
52.7806711825004
20
-5.34975227393608
30
0
41
1
10
52.9498304331025
20
-5.35080546631238
30
0
41
1
10
53.1189651465202
20
-5.34753237586514
30
0
41
1
10
53.4572300871045
20
-5.33523971477544
30
0
41
1
10
53.6827324396058
20
-5.31939544354145
30
0
41
1
10
53.9082362086177
20
-5.2958172134334
30
0
0
SPLINE
5
199
100
AcDbEntity
8
1
62
256
6
ByLayer
370
18
48
1
60
0
100
AcDbSpline
70
4
71
3
72
8
73
4
40
0
40
0
40
0
40
0
40
1
40
1
40
1
40
1
41
1
10
63.4519583151641
20
2.74318470792977
30
0
41
1
10
63.5017953606529
20
2.69838955463015
30
0
41
1
10
63.5516294675885
20
2.65341236088122
30
0
41
1
10
63.6014650996092
20
2.60825759692369
30
0
0
SPLINE
5
19A
100
AcDbEntity
8
1
62
256
6
ByLayer
370
18
48
1
60
0
100
AcDbSpline
70
4
71
3
72
8
73
4
40
0
40
0
40
0
40
0
40
1
40
1
40
1
40
1
41
1
10
61.9008185341291
20
4.06628272603882
30
0
41
1
10
61.95067725266
20
4.02647729229634
30
0
41
1
10
62.000525892911
20
3.98638831577159
30
0
41
1
10
62.0503510454659
20
3.94600426718841
30
0
0
SPLINE
5
19B
100
AcDbEntity
8
1
62
256
6
ByLayer
370
18
48
1
60
0
100
AcDbSpline
70
4
71
3
72
8
73
4
40
0
40
0
40
0
40
0
40
1
40
1
40
1
40
1
41
1
10
60.3497078704514
20
5.20288217699192
30
0
41
1
10
60.3995603977575
20
5.16984272882448
30
0
41
1
10
60.449396183996
20
5.13643162793858
30
0
41
1
10
60.4992405586322
20
5.10266695346175
30
0
0
SPLINE
5
19C
100
AcDbEntity
8
1
62
256
6
ByLayer
370
18
48
1
60
0
100
AcDbSpline
70
4
71
3
72
8
73
4
40
0
40
0
40
0
40
0
40
1
40
1
40
1
40
1
41
1
10
58.7986030688266
20
6.10177010110525
30
0
41
1
10
58.8484526675754
20
6.07713370399429
30
0
41
1
10
58.8983028550341
20
6.05207178122643
30
0
41
1
10
58.9481576127355
20
6.0265871565621
30
0
0
SPLINE
5
19D
100
AcDbEntity
8
1
62
256
6
ByLayer
370
18
48
1
60
0
100
AcDbSpline
70
4
71
3
72
8
73
4
40
0
40
0
40
0
40
0
40
1
40
1
40
1
40
1
41
1
10
57.2475104075595
20
6.72238673343657
30
0
41
1
10
57.297350592438
20
6.70724982964455
30
0
41
1
10
57.3471882018804
20
6.69163958397723
30
0
41
1
10
57.3970290064486
20
6.67555856152083
30
0
0
SPLINE
5
19E
100
AcDbEntity
8
1
62
256
6
ByLayer
370
18
48
1
60
0
100
AcDbSpline
70
4
71
3
72
8
73
4
40
0
40
0
40
0
40
0
40
1
40
1
40
1
40
1
41
1
10
55.7113248654048
20
7.03475160217042
30
0
41
1
10
55.7561950996167
20
7.03020738711299
30
0
41
1
10
55.8010566385884
20
7.02526080498035
30
0
41
1
10
55.8459091049818
20
7.01991211290971
30
0
0
SPLINE
5
19F
100
AcDbEntity
8
1
62
256
6
ByLayer
370
18
48
1
60
0
100
AcDbSpline
70
4
71
3
72
10
73
6
40
0
40
0
40
0
40
0
40
0.5
40
0.5
40
1
40
1
40
1
40
1
41
1
10
55.7113248654052
20
7.03475160217039
30
0
41
1
10
55.6135675282285
20
6.88019400715896
30
0
41
1
10
55.515551181244
20
6.72078256102586
30
0
41
1
10
55.3187545216845
20
6.39230724574156
30
0
41
1
10
55.2199673156903
20
6.2232310993634
30
0
41
1
10
55.1206717739158
20
6.04927398762908
30
0
0
SPLINE
5
1A0
100
AcDbEntity
8
1
62
256
6
ByLayer
370
18
48
1
60
0
100
AcDbSpline
70
4
71
3
72
49
73
45
40
0
40
0
40
0
40
0
40
0.069442868954873
40
0.069442868954873
40
0.108216082748416
40
0.108216082748416
40
0.127602689645187
40
0.127602689645187
40
0.146989296541959
40
0.146989296541959
40
0.224535724129047
40
0.224535724129047
40
0.302082151716136
40
0.302082151716136
40
0.340855365509682
40
0.340855365509682
40
0.360241972406455
40
0.360241972406455
40
0.379628579303228
40
0.379628579303228
40
0.418401793096774
40
0.418401793096774
40
0.45717500689032
40
0.45717500689032
40
0.534721434477416
40
0.534721434477416
40
0.573494648270965
40
0.573494648270965
40
0.612267862064514
40
0.612267862064514
40
0.689814289651616
40
0.689814289651616
40
0.767360717238717
40
0.767360717238717
40
0.806133931032268
40
0.806133931032268
40
0.844907144825819
40
0.844907144825819
40
0.864293751722593
40
0.864293751722593
40
0.883680358619367
40
0.922453572412911
40
0.922453572412911
40
1
40
1
40
1
40
1
41
1
10
45.2559641999561
20
5.35000035310537
30
0
41
1
10
45.4561452154275
20
5.34999982883011
30
0
41
1
10
45.6559195304275
20
5.34394689409243
30
0
41
1
10
45.9666765592853
20
5.32516795467552
30
0
41
1
10
46.0779260461213
20
5.31656940929506
30
0
41
1
10
46.2446775556441
20
5.30086509391683
30
0
41
1
10
46.3002381515876
20
5.29516209041049
30
0
41
1
10
46.4112872471081
20
5.2828104307691
30
0
41
1
10
46.4667734147179
20
5.27616028534436
30
0
41
1
10
46.7444305215137
20
5.24063242284618
30
0
41
1
10
46.9669941268945
20
5.20488407322927
30
0
41
1
10
47.4129730560647
20
5.11880524155981
30
0
41
1
10
47.6364340881036
20
5.06848865894105
30
0
41
1
10
47.9724395346802
20
4.98195665319389
30
0
41
1
10
48.0845723008244
20
4.95126559355285
30
0
41
1
10
48.2529414522806
20
4.90239020229052
30
0
41
1
10
48.3090873137819
20
4.88562140463642
30
0
41
1
10
48.4215070734513
20
4.85116803196721
30
0
41
1
10
48.4778372761531
20
4.83348246225043
30
0
41
1
10
48.6468176444558
20
4.77918723275425
30
0
41
1
10
48.759256247838
20
4.74135748897277
30
0
41
1
10
48.9838701219091
20
4.66259624466508
30
0
41
1
10
49.096031500531
20
4.62165699952089
30
0
41
1
10
49.4320243181051
20
4.4941852301026
30
0
41
1
10
49.6554109640423
20
4.40304056881197
30
0
41
1
10
49.9895612842767
20
4.25713579830418
30
0
41
1
10
50.1007900688717
20
4.20696683307816
30
0
41
1
10
50.3230145265902
20
4.10361519644417
30
0
41
1
10
50.4339919043918
20
4.05041270633384
30
0
41
1
10
50.7673828335832
20
3.88701561393083
30
0
41
1
10
50.9899568476567
20
3.77278465948339
30
0
41
1
10
51.4357478378053
20
3.53379109390656
30
0
41
1
10
51.6589488215446
20
3.40900989734894
30
0
41
1
10
51.9943625008358
20
3.21391426224756
30
0
41
1
10
52.1062866294744
20
3.14757978089867
30
0
41
1
10
52.3303605315547
20
3.01224220191227
30
0
41
1
10
52.4425870240551
20
2.94332461805138
30
0
41
1
10
52.6114801740696
20
2.83837810902614
30
0
41
1
10
52.6678878322386
20
2.8031065367513
30
0
41
1
10
52.7806711824995
20
2.73212769588864
30
0
41
1
10
52.9498304331019
20
2.62498758932554
30
0
41
1
10
53.1189651465198
20
2.51586717066934
30
0
41
1
10
53.4572300871043
20
2.29502916936241
30
0
41
1
10
53.6827324396058
20
2.1443448048164
30
0
41
1
10
53.9082362086177
20
1.9901738338593
30
0
0
SPLINE
5
1A1
100
AcDbEntity
8
1
62
256
6
ByLayer
370
18
48
1
60
0
100
AcDbSpline
70
4
71
3
72
27
73
23
40
0
40
0
40
0
40
0
40
0.125000000000003
40
0.125000000000003
40
0.250000000000006
40
0.250000000000006
40
0.375000000000009
40
0.375000000000009
40
0.437500000000011
40
0.437500000000011
40
0.500000000000013
40
0.500000000000013
40
0.625000000000015
40
0.625000000000015
40
0.750000000000018
40
0.750000000000018
40
0.781250000000018
40
0.781250000000018
40
0.812500000000018
40
0.875000000000017
40
0.875000000000017
40
1
40
1
40
1
40
1
41
1
10
53.9082362086177
20
1.9901738338593
30
0
41
1
10
53.9665245350268
20
1.9503236445816
30
0
41
1
10
54.0243206990542
20
1.91170519972272
30
0
41
1
10
54.1387532034554
20
1.83657977370783
30
0
41
1
10
54.1953815754815
20
1.80006051054775
30
0
41
1
10
54.3073907007396
20
1.72904720542576
30
0
41
1
10
54.3627723588153
20
1.69455318072886
30
0
41
1
10
54.4448296006889
20
1.64439896660696
30
0
41
1
10
54.4720688480368
20
1.62791449698346
30
0
41
1
10
54.5257798562454
20
1.59576581071229
30
0
41
1
10
54.5522806059088
20
1.58008293002911
30
0
41
1
10
54.6307182916267
20
1.53429365585302
30
0
41
1
10
54.6815971763931
20
1.5054367025985
30
0
41
1
10
54.78039106015
20
1.4517390496782
30
0
41
1
10
54.8283092961584
20
1.42688781460248
30
0
41
1
10
54.8861752682179
20
1.39914069444006
30
0
41
1
10
54.8976561684077
20
1.39375508223853
30
0
41
1
10
54.9202522317999
20
1.38341810898768
30
0
41
1
10
54.9536520309615
20
1.36853789645431
30
0
41
1
10
54.985545493522
20
1.35563390914047
30
0
41
1
10
55.0472285646495
20
1.33282043418683
30
0
41
1
10
55.0855625580188
20
1.32152228426364
30
0
41
1
10
55.1206717739159
20
1.3157198224412
30
0
0
SPLINE
5
1A2
100
AcDbEntity
8
1
62
256
6
ByLayer
370
18
48
1
60
0
100
AcDbSpline
70
4
71
3
72
10
73
6
40
0
40
0
40
0
40
0
40
0.5
40
0.5
40
1
40
1
40
1
40
1
41
1
10
55.1206717739158
20
1.31571982244122
30
0
41
1
10
55.1314430291105
20
1.31393966884198
30
0
41
1
10
55.1422385114911
20
1.31228391953431
30
0
41
1
10
55.1638108587076
20
1.30881304905054
30
0
41
1
10
55.1745855922841
20
1.30698430264789
30
0
41
1
10
55.185350132974
20
1.3050685332858
30
0
0
SPLINE
5
1A3
100
AcDbEntity
8
1
62
256
6
ByLayer
370
18
48
1
60
0
100
AcDbSpline
70
4
71
3
72
32
73
28
40
0
40
0
40
0
40
0
40
0.0625000000000066
40
0.0625000000000066
40
0.125000000000013
40
0.125000000000013
40
0.249999999999964
40
0.249999999999964
40
0.312499999999938
40
0.312499999999938
40
0.374999999999913
40
0.374999999999913
40
0.49999999999993
40
0.49999999999993
40
0.562499999999937
40
0.562499999999937
40
0.624999999999945
40
0.624999999999945
40
0.749999999999963
40
0.749999999999963
40
0.812499999999973
40
0.812499999999973
40
0.874999999999982
40
0.874999999999982
40
0.937499999999991
40
0.937499999999991
40
1
40
1
40
1
40
1
41
1
10
55.1853501329745
20
1.30506853328521
30
0
41
1
10
55.1915435156916
20
1.29820138267084
30
0
41
1
10
55.1979421817707
20
1.29130423918917
30
0
41
1
10
55.2109292665702
20
1.27765865941569
30
0
41
1
10
55.2175449079315
20
1.27087985730014
30
0
41
1
10
55.2377344590923
20
1.25066521906277
30
0
41
1
10
55.2516481363517
20
1.23735031368662
30
0
41
1
10
55.2731669358369
20
1.21759865188531
30
0
41
1
10
55.2804750699021
20
1.21102869022246
30
0
41
1
10
55.2951789003194
20
1.19807872264462
30
0
41
1
10
55.3025537214429
20
1.19171597571614
30
0
41
1
10
55.3247414433506
20
1.17295508748251
30
0
41
1
10
55.3396171372626
20
1.16088113982079
30
0
41
1
10
55.3620437982169
20
1.14343832816465
30
0
41
1
10
55.36953832032
20
1.13773614918
30
0
41
1
10
55.3845647332909
20
1.12657002185583
30
0
41
1
10
55.3920982238824
20
1.12110652474192
30
0
41
1
10
55.4143379315866
20
1.10539508512986
30
0
41
1
10
55.4288228700295
20
1.0957138623929
30
0
41
1
10
55.4499228917712
20
1.08258271787292
30
0
41
1
10
55.4568911115982
20
1.07841725108824
30
0
41
1
10
55.4703497415275
20
1.07075723342197
30
0
41
1
10
55.4768343544704
20
1.06726317193062
30
0
41
1
10
55.489266719573
20
1.06101032266531
30
0
41
1
10
55.4952150193194
20
1.05825072853179
30
0
41
1
10
55.5064943249502
20
1.05357941059995
30
0
41
1
10
55.5117982325431
20
1.05168258839848
30
0
41
1
10
55.5166238540137
20
1.05032009429954
30
0
0
SPLINE
5
1A4
100
AcDbEntity
8
1
62
256
6
ByLayer
370
18
48
1
60
0
100
AcDbSpline
70
4
71
3
72
10
73
6
40
0
40
0
40
0
40
0
40
0.5
40
0.5
40
1
40
1
40
1
40
1
41
1
10
55.5166238540175
20
1.05032009430656
30
0
41
1
10
55.6011461038544
20
1.02645558953518
30
0
41
1
10
55.6851881977723
20
0.997763976354435
30
0
41
1
10
55.8524771291036
20
0.930600075473279
30
0
41
1
10
55.9356072060503
20
0.892208524814151
30
0
41
1
10
56.0182944679037
20
0.84907283703987
30
0
0
SPLINE
5
1A5
100
AcDbEntity
8
1
62
256
6
ByLayer
370
18
48
1
60
0
100
AcDbSpline
70
4
71
3
72
8
73
4
40
0
40
0
40
0
40
0
40
1
40
1
40
1
40
1
41
1
10
56.1678387950664
20
0.703725909753501
30
0
41
1
10
56.1179954709472
20
0.752238796446647
30
0
41
1
10
56.0681566042248
20
0.800697148169547
30
0
41
1
10
56.0182944679037
20
0.849072837039898
30
0
0
SPLINE
5
1A6
100
AcDbEntity
8
1
62
256
6
ByLayer
370
18
48
1
60
0
100
AcDbSpline
70
4
71
3
72
10
73
6
40
0
40
0
40
0
40
0
40
0.5
40
0.5
40
1
40
1
40
1
40
1
41
1
10
56.1678387950656
20
0.703725909751256
30
0
41
1
10
56.2521706387043
20
0.587326708153142
30
0
41
1
10
56.3369350762148
20
0.475119368558893
30
0
41
1
10
56.5075457929749
20
0.259457739362716
30
0
41
1
10
56.593259641012
20
0.156119712667191
30
0
41
1
10
56.6795320590395
20
0.0574494479457144
30
0
0
SPLINE
5
1A7
100
AcDbEntity
8
1
62
256
6
ByLayer
370
18
48
1
60
0
100
AcDbSpline
70
4
71
3
72
32
73
28
40
0
40
0
40
0
40
0
40
0.124999999999982
40
0.124999999999982
40
0.187499999999971
40
0.187499999999971
40
0.24999999999996
40
0.24999999999996
40
0.374999999999939
40
0.374999999999939
40
0.437499999999929
40
0.437499999999929
40
0.499999999999918
40
0.499999999999918
40
0.624999999999897
40
0.624999999999897
40
0.687499999999914
40
0.687499999999914
40
0.749999999999932
40
0.749999999999932
40
0.812499999999949
40
0.812499999999949
40
0.874999999999966
40
0.874999999999966
40
0.937499999999983
40
0.937499999999983
40
1
40
1
40
1
40
1
41
1
10
56.6795320590395
20
0.0574494479457144
30
0
41
1
10
56.6903028299143
20
0.0451308548452971
30
0
41
1
10
56.7028725490565
20
0.0318173172161664
30
0
41
1
10
56.7237527940009
20
0.0107470220806078
30
0
41
1
10
56.7310591532839
20
0.0035349560845646
30
0
41
1
10
56.746326135259
20
-0.0112464191541335
30
0
41
1
10
56.7542067634189
20
-0.0187375598387121
30
0
41
1
10
56.7783103530468
20
-0.0412891707111669
30
0
41
1
10
56.7950796057634
20
-0.0565136015946166
30
0
41
1
10
56.8211937411638
20
-0.0796414859838706
30
0
41
1
10
56.8300965469255
20
-0.0874312537304149
30
0
41
1
10
56.8480554220797
20
-0.102966878652865
30
0
41
1
10
56.8570687460231
20
-0.110676597899015
30
0
41
1
10
56.8842008095381
20
-0.133643460088365
30
0
41
1
10
56.9024106016403
20
-0.148740425957271
30
0
41
1
10
56.9298894256747
20
-0.171074507965585
30
0
41
1
10
56.9391213212119
20
-0.178501870839028
30
0
41
1
10
56.9572690372726
20
-0.192951520719617
30
0
41
1
10
56.9662150396605
20
-0.199999124759643
30
0
41
1
10
56.9838236963958
20
-0.213717124737826
30
0
41
1
10
56.9924866747872
20
-0.220387949332462
30
0
41
1
10
57.0094822574425
20
-0.233302397112055
30
0
41
1
10
57.0177987230042
20
-0.239532194918269
30
0
41
1
10
57.0335466145292
20
-0.251128160356785
30
0
41
1
10
57.0410399142996
20
-0.25654203192866
30
0
41
1
10
57.0551404441649
20
-0.2664744320316
30
0
41
1
10
57.0617514951452
20
-0.270993183857286
30
0
41
1
10
57.0676443521739
20
-0.274843238003228
30
0
0
SPLINE
5
1A8
100
AcDbEntity
8
1
62
256
6
ByLayer
370
18
48
1
60
0
100
AcDbSpline
70
4
71
3
72
10
73
6
40
0
40
0
40
0
40
0
40
0.5
40
0.5
40
1
40
1
40
1
40
1
41
1
10
57.0676443521775
20
-0.274843237997885
30
0
41
1
10
57.1521576073119
20
-0.330059342294959
30
0
41
1
10
57.2361950911789
20
-0.389814773536784
30
0
41
1
10
57.4034869260058
20
-0.518456227263158
30
0
41
1
10
57.4866282480202
20
-0.587217803810233
30
0
41
1
10
57.569339789808
20
-0.660304904455273
30
0
0
SPLINE
5
1A9
100
AcDbEntity
8
1
62
256
6
ByLayer
370
18
48
1
60
0
100
AcDbSpline
70
4
71
3
72
8
73
4
40
0
40
0
40
0
40
0
40
1
40
1
40
1
40
1
41
1
10
57.7188854063656
20
-0.805222974423174
30
0
41
1
10
57.6690412031728
20
-0.756953358296499
30
0
41
1
10
57.6191929958542
20
-0.708646969773127
30
0
41
1
10
57.569339789808
20
-0.660304904455273
30
0
0
SPLINE
5
1AA
100
AcDbEntity
8
1
62
256
6
ByLayer
370
18
48
1
60
0
100
AcDbSpline
70
4
71
3
72
10
73
6
40
0
40
0
40
0
40
0
40
0.5
40
0.5
40
1
40
1
40
1
40
1
41
1
10
57.7188854063657
20
-0.805222974423145
30
0
41
1
10
57.8032709118329
20
-0.891146008614015
30
0
41
1
10
57.8880660926675
20
-0.97236152733268
30
0
41
1
10
58.0586467870051
20
-1.12516376348165
30
0
41
1
10
58.1442993926802
20
-1.19671360960024
30
0
41
1
10
58.2305152947092
20
-1.26301314310453
30
0
0
SPLINE
5
1AB
100
AcDbEntity
8
1
62
256
6
ByLayer
370
18
48
1
60
0
100
AcDbSpline
70
4
71
3
72
32
73
28
40
0
40
0
40
0
40
0
40
0.124999999999931
40
0.124999999999931
40
0.187499999999918
40
0.187499999999918
40
0.249999999999904
40
0.249999999999904
40
0.374999999999878
40
0.374999999999878
40
0.43749999999989
40
0.43749999999989
40
0.499999999999902
40
0.499999999999902
40
0.624999999999926
40
0.624999999999926
40
0.687499999999938
40
0.687499999999938
40
0.749999999999951
40
0.749999999999951
40
0.812499999999963
40
0.812499999999963
40
0.874999999999975
40
0.874999999999975
40
0.937499999999988
40
0.937499999999988
40
1
40
1
40
1
40
1
41
1
10
58.2305152947092
20
-1.26301314310453
30
0
41
1
10
58.2412947433269
20
-1.27130247718287
30
0
41
1
10
58.2538736156308
20
-1.2811336098467
30
0
41
1
10
58.2747660245287
20
-1.29758864203225
30
0
41
1
10
58.2820762132527
20
-1.30336645272948
30
0
41
1
10
58.2973502383348
20
-1.31547590436117
30
0
41
1
10
58.3052329582486
20
-1.32174336230702
30
0
41
1
10
58.3293429817925
20
-1.34096560516213
30
0
41
1
10
58.3461150595507
20
-1.35440423909151
30
0
41
1
10
58.3722310877747
20
-1.37546096854001
30
0
41
1
10
58.3811341460714
20
-1.38266099857856
30
0
41
1
10
58.3990923678135
20
-1.39723727849378
30
0
41
1
10
58.4081051484578
20
-1.40457893702452
30
0
41
1
10
58.43523488206
20
-1.42677286983826
30
0
41
1
10
58.4534422001237
20
-1.44179067568035
30
0
41
1
10
58.4809153919577
20
-1.46473624724411
30
0
41
1
10
58.490145138869
20
-1.47249360933665
30
0
41
1
10
58.5082892253304
20
-1.4878617727982
30
0
41
1
10
58.5172334058071
20
-1.49549694837694
30
0
41
1
10
58.5348383467189
20
-1.51066852227194
30
0
41
1
10
58.5434994310312
20
-1.51820503094646
30
0
41
1
10
58.5604910921185
20
-1.5331707265604
30
0
41
1
10
58.5688073077275
20
-1.54058912423528
30
0
41
1
10
58.5845547177657
20
-1.55485814936793
30
0
41
1
10
58.5920478905994
20
-1.56176278402657
30
0
41
1
10
58.606148373116
20
-1.57503617795928
30
0
41
1
10
58.6127610394207
20
-1.58141289278535
30
0
41
1
10
58.6186559043942
20
-1.58728231693721
30
0
0
SPLINE
5
1AC
100
AcDbEntity
8
1
62
256
6
ByLayer
370
18
48
1
60
0
100
AcDbSpline
70
4
71
3
72
10
73
6
40
0
40
0
40
0
40
0
40
0.5
40
0.5
40
1
40
1
40
1
40
1
41
1
10
58.6186559043975
20
-1.58728231693357
30
0
41
1
10
58.7031778214456
20
-1.67143945768515
30
0
41
1
10
58.7872247598607
20
-1.75965669620894
30
0
41
1
10
58.9545389689973
20
-1.94421913764759
30
0
41
1
10
59.0376947762921
20
-2.04040616364617
30
0
41
1
10
59.1204266555088
20
-2.14035752998601
30
0
0
SPLINE
5
1AD
100
AcDbEntity
8
1
62
256
6
ByLayer
370
18
48
1
60
0
100
AcDbSpline
70
4
71
3
72
8
73
4
40
0
40
0
40
0
40
0
40
1
40
1
40
1
40
1
41
1
10
59.2699447371605
20
-2.27858936403061
30
0
41
1
10
59.2200994165625
20
-2.23266329144789
30
0
41
1
10
59.1702607009912
20
-2.18658535209542
30
0
41
1
10
59.1204266555087
20
-2.14035752998595
30
0
0
SPLINE
5
1AE
100
AcDbEntity
8
1
62
256
6
ByLayer
370
18
48
1
60
0
100
AcDbSpline
70
4
71
3
72
10
73
6
40
0
40
0
40
0
40
0
40
0.5
40
0.5
40
1
40
1
40
1
40
1
41
1
10
59.2699447371606
20
-2.27858936403072
30
0
41
1
10
59.3543012104893
20
-2.33016713980612
30
0
41
1
10
59.439076059427
20
-2.37662038116579
30
0
41
1
10
59.6096347217896
20
-2.45911586491181
30
0
41
1
10
59.6952951243932
20
-2.49513155062911
30
0
41
1
10
59.7814824254049
20
-2.52573517697982
30
0
0
SPLINE
5
1AF
100
AcDbEntity
8
1
62
256
6
ByLayer
370
18
48
1
60
0
100
AcDbSpline
70
4
71
3
72
32
73
28
40
0
40
0
40
0
40
0
40
0.125000000000012
40
0.125000000000012
40
0.187500000000016
40
0.187500000000016
40
0.250000000000021
40
0.250000000000021
40
0.374999999999981
40
0.374999999999981
40
0.43749999999996
40
0.43749999999996
40
0.49999999999994
40
0.49999999999994
40
0.624999999999956
40
0.624999999999956
40
0.687499999999963
40
0.687499999999963
40
0.74999999999997
40
0.74999999999997
40
0.812499999999978
40
0.812499999999978
40
0.874999999999985
40
0.874999999999985
40
0.937499999999993
40
0.937499999999993
40
1
40
1
40
1
40
1
41
1
10
59.7814824254049
20
-2.52573517697982
30
0
41
1
10
59.7922756577836
20
-2.52956766792639
30
0
41
1
10
59.8048732541335
20
-2.53542107209731
30
0
41
1
10
59.8257960054857
20
-2.54644868399257
30
0
41
1
10
59.8331167294887
20
-2.55050956679506
30
0
41
1
10
59.8484120678823
20
-2.55935982037161
30
0
41
1
10
59.8563049264913
20
-2.56410284775097
30
0
41
1
10
59.8804425829476
20
-2.57907795491036
30
0
41
1
10
59.8972294800244
20
-2.59009705073785
30
0
41
1
10
59.9233604040727
20
-2.60809935994536
30
0
41
1
10
59.9322679058392
20
-2.61437545812231
30
0
41
1
10
59.9502274407412
20
-2.62731504533141
30
0
41
1
10
59.9592398224048
20
-2.63394870104818
30
0
41
1
10
59.9863654665545
20
-2.65434502777143
30
0
41
1
10
60.0045662189759
20
-2.66859422759964
30
0
41
1
10
60.0320248097193
20
-2.69110113431097
30
0
41
1
10
60.0412470500553
20
-2.69883247707489
30
0
41
1
10
60.0593717842616
20
-2.7144103893267
30
0
41
1
10
60.0683064396501
20
-2.72228154187664
30
0
41
1
10
60.0858929183501
20
-2.73820875697697
30
0
41
1
10
60.0945450727543
20
-2.74626459762791
30
0
41
1
10
60.1115197095563
20
-2.76259418373908
30
0
41
1
10
60.1198265432983
20
-2.77085804719587
30
0
41
1
10
60.135558362697
20
-2.78714160803844
30
0
41
1
10
60.1430449337359
20
-2.7952187450995
30
0
41
1
10
60.1571347124662
20
-2.81122177964275
30
0
41
1
10
60.1637436317122
20
-2.81916230765177
30
0
41
1
10
60.1696364874742
20
-2.82678081968501
30
0
0
SPLINE
5
1B0
100
AcDbEntity
8
1
62
256
6
ByLayer
370
18
48
1
60
0
100
AcDbSpline
70
4
71
3
72
10
73
6
40
0
40
0
40
0
40
0
40
0.5
40
0.5
40
1
40
1
40
1
40
1
41
1
10
60.1696364874776
20
-2.82678081968308
30
0
41
1
10
60.2541733850035
20
-2.9360733931118
30
0
41
1
10
60.3382297054196
20
-3.04879734692833
30
0
41
1
10
60.5055674661288
20
-3.28099935632665
30
0
41
1
10
60.5887364558995
20
-3.40030296353694
30
0
41
1
10
60.6714837448645
20
-3.52266124863007
30
0
0
SPLINE
5
1B1
100
AcDbEntity
8
1
62
256
6
ByLayer
370
18
48
1
60
0
100
AcDbSpline
70
4
71
3
72
8
73
4
40
0
40
0
40
0
40
0
40
1
40
1
40
1
40
1
41
1
10
60.8210200454572
20
-3.64821371013184
30
0
41
1
10
60.7711604261573
20
-3.60661928046579
30
0
41
1
10
60.7213158419915
20
-3.5647677387214
30
0
41
1
10
60.6714837448645
20
-3.52266124863007
30
0
0
SPLINE
5
1B2
100
AcDbEntity
8
1
62
256
6
ByLayer
370
18
48
1
60
0
100
AcDbSpline
70
4
71
3
72
10
73
6
40
0
40
0
40
0
40
0
40
0.5
40
0.5
40
1
40
1
40
1
40
1
41
1
10
60.8210200454566
20
-3.64821371012681
30
0
41
1
10
60.9053458464678
20
-3.66330814685642
30
0
41
1
10
60.9900994263816
20
-3.67309230019703
30
0
41
1
10
61.1606357905121
20
-3.6819322116761
30
0
41
1
10
61.2462928840944
20
-3.68101439352677
30
0
41
1
10
61.3324873858116
20
-3.67458813990839
30
0
0
SPLINE
5
1B3
100
AcDbEntity
8
1
62
256
6
ByLayer
370
18
48
1
60
0
100
AcDbSpline
70
4
71
3
72
32
73
28
40
0
40
0
40
0
40
0
40
0.12500000000004
40
0.12500000000004
40
0.187500000000041
40
0.187500000000041
40
0.250000000000042
40
0.250000000000042
40
0.375000000000044
40
0.375000000000044
40
0.437500000000044
40
0.437500000000044
40
0.500000000000044
40
0.500000000000044
40
0.624999999999991
40
0.624999999999991
40
0.687499999999992
40
0.687499999999992
40
0.749999999999993
40
0.749999999999993
40
0.812499999999995
40
0.812499999999995
40
0.874999999999996
40
0.874999999999996
40
0.937499999999997
40
0.937499999999997
40
1
40
1
40
1
40
1
41
1
10
61.3324873858116
20
-3.67458813990842
30
0
41
1
10
61.3432794476747
20
-3.67378353491372
30
0
41
1
10
61.3558766646294
20
-3.6753802518617
30
0
41
1
10
61.3768010163108
20
-3.68044831286215
30
0
41
1
10
61.3841226419178
20
-3.68259547246964
30
0
41
1
10
61.3994207867341
20
-3.68775571702534
30
0
41
1
10
61.4073170372981
20
-3.69074353800346
30
0
41
1
10
61.4314631954539
20
-3.70074021537951
30
0
41
1
10
61.448256713318
20
-3.7087988204625
30
0
41
1
10
61.4743992440896
20
-3.72286029063872
30
0
41
1
10
61.483311280036
20
-3.72790278694032
30
0
41
1
10
61.5012775868635
20
-3.73856963330738
30
0
41
1
10
61.5102932030694
20
-3.74416874719986
30
0
41
1
10
61.5374278158633
20
-3.7617628579375
30
0
41
1
10
61.5556335830171
20
-3.77454082508123
30
0
41
1
10
61.5830967392568
20
-3.79550139175873
30
0
41
1
10
61.592318673874
20
-3.80282708086787
30
0
41
1
10
61.610437526692
20
-3.81785005494442
30
0
41
1
10
61.6193684801323
20
-3.82557047297885
30
0
41
1
10
61.6369459502058
20
-3.84147045125826
30
0
41
1
10
61.6455927890867
20
-3.84964949124898
30
0
41
1
10
61.6625551979125
20
-3.86653957447126
30
0
41
1
10
61.6708533303412
20
-3.87524141886936
30
0
41
1
10
61.6865678639917
20
-3.8927349353946
30
0
41
1
10
61.6940455452705
20
-3.90158473393018
30
0
41
1
10
61.7081177963546
20
-3.91952341580418
30
0
41
1
10
61.7147182290516
20
-3.92863270673158
30
0
41
1
10
61.7206041477463
20
-3.93762078458508
30
0
0
SPLINE
5
1B4
100
AcDbEntity
8
1
62
256
6
ByLayer
370
18
48
1
60
0
100
AcDbSpline
70
4
71
3
72
10
73
6
40
0
40
0
40
0
40
0
40
0.5
40
0.5
40
1
40
1
40
1
40
1
41
1
10
61.7206041477494
20
-3.93762078458485
30
0
41
1
10
61.8051939423736
20
-4.0667934251143
30
0
41
1
10
61.8892866893422
20
-4.19864717105389
30
0
41
1
10
62.0566475664464
20
-4.46771030095263
30
0
41
1
10
62.1398068908536
20
-4.60467428703961
30
0
41
1
10
62.2225493998466
20
-4.74383807924568
30
0
0
SPLINE
5
1B5
100
AcDbEntity
8
1
62
256
6
ByLayer
370
18
48
1
60
0
100
AcDbSpline
70
4
71
3
72
8
73
4
40
0
40
0
40
0
40
0
40
1
40
1
40
1
40
1
41
1
10
62.3720700074299
20
-4.85112097137019
30
0
41
1
10
62.3222081696036
20
-4.8157087648089
30
0
41
1
10
62.2723687906017
20
-4.77994732506252
30
0
41
1
10
62.2225493998465
20
-4.74383807924568
30
0
0
SPLINE
5
1B6
100
AcDbEntity
8
1
62
256
6
ByLayer
370
18
48
1
60
0
100
AcDbSpline
70
4
71
3
72
10
73
6
40
0
40
0
40
0
40
0
40
0.5
40
0.5
40
1
40
1
40
1
40
1
41
1
10
62.3720700074293
20
-4.85112097136314
30
0
41
1
10
62.4563724042627
20
-4.82922838355239
30
0
41
1
10
62.5411127778996
20
-4.80207467179758
30
0
41
1
10
62.7116396319415
20
-4.73721405892803
30
0
41
1
10
62.7972994083013
20
-4.69958245846144
30
0
41
1
10
62.8835079040948
20
-4.65659577998733
30
0
0
SPLINE
5
1B7
100
AcDbEntity
8
1
62
256
6
ByLayer
370
18
48
1
60
0
100
AcDbSpline
70
4
71
3
72
32
73
28
40
0
40
0
40
0
40
0
40
0.124999999999939
40
0.124999999999939
40
0.187499999999908
40
0.187499999999908
40
0.249999999999878
40
0.249999999999878
40
0.374999999999868
40
0.374999999999868
40
0.437499999999863
40
0.437499999999863
40
0.499999999999858
40
0.499999999999858
40
0.624999999999849
40
0.624999999999849
40
0.687499999999874
40
0.687499999999874
40
0.749999999999899
40
0.749999999999899
40
0.812499999999925
40
0.812499999999925
40
0.87499999999995
40
0.87499999999995
40
0.937499999999975
40
0.937499999999975
40
1
40
1
40
1
40
1
41
1
10
62.8835079040948
20
-4.65659577998733
30
0
41
1
10
62.8943020588017
20
-4.65121342348624
30
0
41
1
10
62.9069018872257
20
-4.64850702880901
30
0
41
1
10
62.9278305520746
20
-4.64742697232845
30
0
41
1
10
62.9351536962824
20
-4.64757721074508
30
0
41
1
10
62.9504550915002
20
-4.64884247207294
30
0
41
1
10
62.9583536292866
20
-4.64995348777498
30
0
41
1
10
62.9825052765169
20
-4.65456189236519
30
0
41
1
10
62.9993019714906
20
-4.65932464810493
30
0
41
1
10
63.0254488953054
20
-4.66885299449029
30
0
41
1
10
63.0343625378288
20
-4.67244823534219
30
0
41
1
10
63.0523305286087
20
-4.68038930472162
30
0
41
1
10
63.0613468617633
20
-4.68471511581771
30
0
41
1
10
63.0884832773874
20
-4.69875366212185
30
0
41
1
10
63.1066897894124
20
-4.70950936480995
30
0
41
1
10
63.1341533329295
20
-4.72801237973047
30
0
41
1
10
63.1433745533703
20
-4.73461341336647
30
0
41
1
10
63.1614898432607
20
-4.74842678117869
30
0
41
1
10
63.170418831614
20
-4.75565887789116
30
0
41
1
10
63.1879919261747
20
-4.77083388105621
30
0
41
1
10
63.1966363549348
20
-4.77877598388639
30
0
41
1
10
63.213593374501
20
-4.79548028158302
30
0
41
1
10
63.2218875297704
20
-4.80423508826343
30
0
41
1
10
63.2375941753101
20
-4.8221614712279
30
0
41
1
10
63.2450677796104
20
-4.83138941446435
30
0
41
1
10
63.2591317988079
20
-4.85046097644505
30
0
41
1
10
63.2657282109405
20
-4.86032983043512
30
0
41
1
10
63.2716108171029
20
-4.8702819058594
30
0
0
SPLINE
5
1B8
100
AcDbEntity
8
1
62
256
6
ByLayer
370
18
48
1
60
0
100
AcDbSpline
70
4
71
3
72
10
73
6
40
0
40
0
40
0
40
0
40
0.5
40
0.5
40
1
40
1
40
1
40
1
41
1
10
63.271610817106
20
-4.87028190586079
30
0
41
1
10
63.3561916629781
20
-5.01337408887792
30
0
41
1
10
63.4402851426272
20
-5.15817833581178
30
0
41
1
10
63.607662624933
20
-5.45116923309871
30
0
41
1
10
63.6908302143812
20
-5.59913098289815
30
0
41
1
10
63.7735495625434
20
-5.74844400038762
30
0
0
SPLINE
5
1B9
100
AcDbEntity
8
1
62
256
6
ByLayer
370
18
48
1
60
0
100
AcDbSpline
70
4
71
3
72
8
73
4
40
0
40
0
40
0
40
0
40
1
40
1
40
1
40
1
41
1
10
63.9230769776302
20
-5.83236239590812
30
0
41
1
10
63.8732411875677
20
-5.80479147332647
30
0
41
1
10
63.8234046522253
20
-5.77681482866257
30
0
41
1
10
63.7735495625434
20
-5.74844400038759
30
0
0
SPLINE
5
1BA
100
AcDbEntity
8
1
62
256
6
ByLayer
370
18
48
1
60
0
100
AcDbSpline
70
4
71
3
72
10
73
6
40
0
40
0
40
0
40
0
40
0.5
40
0.5
40
1
40
1
40
1
40
1
41
1
10
63.9230769776296
20
-5.83236239589917
30
0
41
1
10
64.00738229015
20
-5.77452512673818
30
0
41
1
10
64.0921011881786
20
-5.71185726522947
30
0
41
1
10
64.2626180156113
20
-5.57655387045912
30
0
41
1
10
64.3482891169908
20
-5.50404198158037
30
0
41
1
10
64.4345155780808
20
-5.42658893412241
30
0
0
SPLINE
5
1BB
100
AcDbEntity
8
1
62
256
6
ByLayer
370
18
48
1
60
0
100
AcDbSpline
70
4
71
3
72
32
73
28
40
0
40
0
40
0
40
0
40
0.124999999999999
40
0.124999999999999
40
0.187499999999999
40
0.187499999999999
40
0.249999999999999
40
0.249999999999999
40
0.374999999999998
40
0.374999999999998
40
0.437499999999998
40
0.437499999999998
40
0.499999999999998
40
0.499999999999998
40
0.624999999999999
40
0.624999999999999
40
0.687499999999999
40
0.687499999999999
40
0.749999999999999
40
0.749999999999999
40
0.812499999999999
40
0.812499999999999
40
0.875
40
0.875
40
0.9375
40
0.9375
40
1
40
1
40
1
40
1
41
1
10
64.4345155780808
20
-5.42658893412241
30
0
41
1
10
64.4453162805804
20
-5.41688718697074
30
0
41
1
10
64.4579234323248
20
-5.41001760028109
30
0
41
1
10
64.4788623898421
20
-5.40286575737161
30
0
41
1
10
64.4861888789634
20
-5.40102167797968
30
0
41
1
10
64.5014966770417
20
-5.39835379122525
30
0
41
1
10
64.5093978409105
20
-5.39754713841577
30
0
41
1
10
64.5335566897287
20
-5.39658701882868
30
0
41
1
10
64.5503569145749
20
-5.39785710978325
30
0
41
1
10
64.5765072114235
20
-5.4024484668808
30
0
41
1
10
64.5854217592138
20
-5.40444268561217
30
0
41
1
10
64.603390004275
20
-5.40931652559939
30
0
41
1
10
64.6124062376527
20
-5.41218199314014
30
0
41
1
10
64.6395416635798
20
-5.42205505984754
30
0
41
1
10
64.6577466147403
20
-5.43031767976109
30
0
41
1
10
64.6852062446239
20
-5.44554746703534
30
0
41
1
10
64.6944255747274
20
-5.45113234310341
30
0
41
1
10
64.7125364770559
20
-5.4631257242059
30
0
41
1
10
64.7214632047675
20
-5.4695492013413
30
0
41
1
10
64.73903159301
20
-5.48332556246535
30
0
41
1
10
64.7476735760761
20
-5.49067739837375
30
0
41
1
10
64.7646254517322
20
-5.50645096354364
30
0
41
1
10
64.7729175248409
20
-5.51486905157626
30
0
41
1
10
64.7886201512907
20
-5.53242858037851
30
0
41
1
10
64.7960918178465
20
-5.5416222330924
30
0
41
1
10
64.8101521732186
20
-5.56097233539384
30
0
41
1
10
64.8167477848728
20
-5.57115882077915
30
0
41
1
10
64.8226301910698
20
-5.58162858010502
30
0
0
SPLINE
5
1BC
100
AcDbEntity
8
1
62
256
6
ByLayer
370
18
48
1
60
0
100
AcDbSpline
70
4
71
3
72
10
73
6
40
0
40
0
40
0
40
0
40
0.5
40
0.5
40
1
40
1
40
1
40
1
41
1
10
64.8226301910728
20
-5.58162858010786
30
0
41
1
10
64.9072070865204
20
-5.73216217303823
30
0
41
1
10
64.9913008859671
20
-5.88338692075419
30
0
41
1
10
65.1586913913497
20
-6.18713474243322
30
0
41
1
10
65.2418747842395
20
-6.3394378917516
30
0
41
1
10
65.324621876042
20
-6.49206184684076
30
0
0
SPLINE
5
1BD
100
AcDbEntity
8
1
62
256
6
ByLayer
370
18
48
1
60
0
100
AcDbSpline
70
4
71
3
72
8
73
4
40
0
40
0
40
0
40
0
40
1
40
1
40
1
40
1
41
1
10
65.4741064653759
20
-6.54847346632275
30
0
41
1
10
65.424282068502
20
-6.53012450268969
30
0
41
1
10
65.3744541061688
20
-6.51132025305688
30
0
41
1
10
65.324621876042
20
-6.49206184684076
30
0
0
SPLINE
5
1BE
100
AcDbEntity
8
1
62
256
6
ByLayer
370
18
48
1
60
0
100
AcDbSpline
70
4
71
3
72
10
73
6
40
0
40
0
40
0
40
0
40
0.5
40
0.5
40
1
40
1
40
1
40
1
41
1
10
65.4741064653753
20
-6.54847346631266
30
0
41
1
10
65.5584597466262
20
-6.45707309257111
30
0
41
1
10
65.6432215496699
20
-6.3614294723626
30
0
41
1
10
65.8137214648665
20
-6.16167850367583
30
0
41
1
10
65.8993299626576
20
-6.05775538512032
30
0
41
1
10
65.9854937802028
20
-5.94954846027886
30
0
0
SPLINE
5
1BF
100
AcDbEntity
8
1
62
256
6
ByLayer
370
18
48
1
60
0
100
AcDbSpline
70
4
71
3
72
32
73
28
40
0
40
0
40
0
40
0
40
0.125000000000011
40
0.125000000000011
40
0.187500000000039
40
0.187500000000039
40
0.250000000000066
40
0.250000000000066
40
0.375000000000072
40
0.375000000000072
40
0.437500000000048
40
0.437500000000048
40
0.500000000000024
40
0.500000000000024
40
0.624999999999977
40
0.624999999999977
40
0.68749999999998
40
0.68749999999998
40
0.749999999999984
40
0.749999999999984
40
0.812499999999988
40
0.812499999999988
40
0.874999999999992
40
0.874999999999992
40
0.937499999999996
40
0.937499999999996
40
1
40
1
40
1
40
1
41
1
10
65.9854937802028
20
-5.94954846027886
30
0
41
1
10
65.9963036521315
20
-5.93597312166611
30
0
41
1
10
66.0089204774109
20
-5.92525938848146
30
0
41
1
10
66.0298723738852
20
-5.91237109748221
30
0
41
1
10
66.0372029630331
20
-5.90861997787087
30
0
41
1
10
66.0525183567944
20
-5.90214704216828
30
0
41
1
10
66.0604218203899
20
-5.89946317183825
30
0
41
1
10
66.0845877384358
20
-5.89298831107737
30
0
41
1
10
66.1013911448658
20
-5.89071404532783
30
0
41
1
10
66.1275437675739
20
-5.89016750845238
30
0
41
1
10
66.1364587045416
20
-5.89047241160961
30
0
41
1
10
66.1544264129973
20
-5.89206197972473
30
0
41
1
10
66.1634421631847
20
-5.89333880241927
30
0
41
1
10
66.1905753895042
20
-5.8986025629834
30
0
41
1
10
66.2087778891724
20
-5.90399866674304
30
0
41
1
10
66.2362320169494
20
-5.91526388995737
30
0
41
1
10
66.2454492240491
20
-5.91957887582922
30
0
41
1
10
66.2635563652324
20
-5.92920722440456
30
0
41
1
10
66.2724812074941
20
-5.93452979670477
30
0
41
1
10
66.290045751043
20
-5.94627987713258
30
0
41
1
10
66.2986857746909
20
-5.95270614245357
30
0
41
1
10
66.3156335935043
20
-5.96682870258482
30
0
41
1
10
66.3239252967659
20
-5.97452616507937
30
0
41
1
10
66.3396271984671
20
-5.9909174467148
30
0
41
1
10
66.3470986240858
20
-5.99965696947311
30
0
41
1
10
66.3611587199827
20
-6.01840136247682
30
0
41
1
10
66.3677557539456
20
-6.02844037774511
30
0
41
1
10
66.3736400520489
20
-6.03895005505714
30
0
0
SPLINE
5
1C0
100
AcDbEntity
8
1
62
256
6
ByLayer
370
18
48
1
60
0
100
AcDbSpline
70
4
71
3
72
114
73
110
40
0
40
0
40
0
40
0
40
0.0625000000000178
40
0.0625000000000178
40
0.0781250000000217
40
0.0781250000000217
40
0.0937500000000256
40
0.10937500000003
40
0.10937500000003
40
0.125000000000033
40
0.125000000000033
40
0.187500000000046
40
0.187500000000046
40
0.203125000000049
40
0.203125000000049
40
0.21875000000005
40
0.21875000000005
40
0.250000000000053
40
0.250000000000053
40
0.281250000000056
40
0.281250000000056
40
0.312500000000059
40
0.312500000000059
40
0.32812500000006
40
0.32812500000006
40
0.343750000000061
40
0.343750000000061
40
0.375000000000064
40
0.375000000000064
40
0.406250000000067
40
0.406250000000067
40
0.421875000000067
40
0.421875000000067
40
0.429687500000068
40
0.429687500000068
40
0.437500000000068
40
0.437500000000068
40
0.45312500000007
40
0.45312500000007
40
0.468750000000072
40
0.468750000000072
40
0.476562500000074
40
0.476562500000074
40
0.484375000000075
40
0.484375000000075
40
0.500000000000078
40
0.500000000000078
40
0.515625000000081
40
0.515625000000081
40
0.519531250000082
40
0.519531250000082
40
0.523437500000082
40
0.531250000000082
40
0.539062500000082
40
0.539062500000082
40
0.542968750000082
40
0.542968750000082
40
0.546875000000081
40
0.546875000000081
40
0.562500000000081
40
0.562500000000081
40
0.57031250000008
40
0.57031250000008
40
0.57421875000008
40
0.57421875000008
40
0.57812500000008
40
0.57812500000008
40
0.593750000000079
40
0.593750000000079
40
0.597656250000079
40
0.597656250000079
40
0.601562500000079
40
0.601562500000079
40
0.609375000000078
40
0.609375000000078
40
0.625000000000078
40
0.625000000000078
40
0.640625000000077
40
0.640625000000077
40
0.648437500000077
40
0.648437500000077
40
0.656250000000076
40
0.656250000000076
40
0.671875000000075
40
0.671875000000075
40
0.687500000000073
40
0.687500000000073
40
0.718750000000069
40
0.718750000000069
40
0.726562500000068
40
0.726562500000068
40
0.734375000000066
40
0.750000000000062
40
0.750000000000062
40
0.781250000000055
40
0.781250000000055
40
0.812500000000049
40
0.812500000000049
40
0.843750000000042
40
0.843750000000042
40
0.875000000000035
40
0.875000000000035
40
0.890625000000031
40
0.890625000000031
40
0.906250000000027
40
0.906250000000027
40
0.937500000000018
40
0.937500000000018
40
1
40
1
40
1
40
1
41
1
10
36.3205927254379
20
0.0746731421073434
30
0
41
1
10
36.0558855463865
20
0.26041314772803
30
0
41
1
10
35.7866330505159
20
0.436037816782942
30
0
41
1
10
35.4417987537062
20
0.638594558443572
30
0
41
1
10
35.3724193644448
20
0.678259369944612
30
0
41
1
10
35.2327026418608
20
0.755661466821749
30
0
41
1
10
35.092071390351
20
0.831218261224166
30
0
41
1
10
34.9497594818851
20
0.903394282467076
30
0
41
1
10
34.8066972699855
20
0.974061953036966
30
0
41
1
10
34.7348019495897
20
1.00866200274706
30
0
41
1
10
34.373469812962
20
1.17795777917379
30
0
41
1
10
34.0784731573625
20
1.30154894928302
30
0
41
1
10
33.7004877451604
20
1.43830589849043
30
0
41
1
10
33.6244301049366
20
1.46476422904249
30
0
41
1
10
33.4720406778596
20
1.5156078069887
30
0
41
1
10
33.3956253598083
20
1.54002611315562
30
0
41
1
10
33.1656863720367
20
1.61017806145111
30
0
41
1
10
33.0114717946612
20
1.652818298836
30
0
41
1
10
32.701031223446
20
1.72933508992898
30
0
41
1
10
32.5448113178588
20
1.7632375317055
30
0
41
1
10
32.230175850668
20
1.82167993139632
30
0
41
1
10
32.071743528014
20
1.8461499027548
30
0
41
1
10
31.8321794083499
20
1.87481764755887
30
0
41
1
10
31.7520060656096
20
1.88303644328548
30
0
41
1
10
31.5909797776077
20
1.89663695654923
30
0
41
1
10
31.50999609994
20
1.90202168570437
30
0
41
1
10
31.2675644902912
20
1.91358640604375
30
0
41
1
10
31.1062971156126
20
1.91531099543499
30
0
41
1
10
30.7845651099103
20
1.9051896904769
30
0
41
1
10
30.6240958898499
20
1.89342348954966
30
0
41
1
10
30.3840946212072
20
1.86380776849205
30
0
41
1
10
30.3042114451551
20
1.85193771754774
30
0
41
1
10
30.1845859052499
20
1.83071352569189
30
0
41
1
10
30.1447255160671
20
1.8230620822184
30
0
41
1
10
30.0655105550044
20
1.80662761190422
30
0
41
1
10
30.0261037926616
20
1.79783785003593
30
0
41
1
10
29.9085255475009
20
1.76962913104916
30
0
41
1
10
29.8309889168701
20
1.74839188108228
30
0
41
1
10
29.6778322314735
20
1.70036976225856
30
0
41
1
10
29.6022131729607
20
1.67358269201969
30
0
41
1
10
29.4904926810486
20
1.62840099637137
30
0
41
1
10
29.4535368676996
20
1.61250756167729
30
0
41
1
10
29.380254611293
20
1.57886563947818
30
0
41
1
10
29.3438859015115
20
1.56108955725628
30
0
41
1
10
29.2368850498005
20
1.50521372072271
30
0
41
1
10
29.1680170516429
20
1.4644492931493
30
0
41
1
10
29.0360952461887
20
1.37452360459426
30
0
41
1
10
28.9730402295854
20
1.32536570029737
30
0
41
1
10
28.8987524071162
20
1.25728645757104
30
0
41
1
10
28.884142559516
20
1.24335166983812
30
0
41
1
10
28.8556449642959
20
1.21501994898517
30
0
41
1
10
28.8138890283879
20
1.17175301163886
30
0
41
1
10
28.7494587932002
20
1.09561966645748
30
0
41
1
10
28.7037136324139
20
1.0301606652379
30
0
41
1
10
28.6717391674143
20
0.97922050999847
30
0
41
1
10
28.6614706431183
20
0.961932354767185
30
0
41
1
10
28.6417472091545
20
0.926710471455976
30
0
41
1
10
28.6322804044777
20
0.908745755216046
30
0
41
1
10
28.5875960370382
20
0.818333657641091
30
0
41
1
10
28.5598073879895
20
0.743373781626644
30
0
41
1
10
28.5296229467756
20
0.627062055828333
30
0
41
1
10
28.5214818124283
20
0.587644937115897
30
0
41
1
10
28.5121135885821
20
0.527552818439318
30
0
41
1
10
28.5094581998991
20
0.507306083846657
30
0
41
1
10
28.5051288341117
20
0.466810664281553
30
0
41
1
10
28.5034532018544
20
0.446567018164814
30
0
41
1
10
28.497381101157
20
0.34536618927541
30
0
41
1
10
28.4998450531808
20
0.264460018111805
30
0
41
1
10
28.5105369699091
20
0.163363042197773
30
0
41
1
10
28.5130592343634
20
0.143145501458008
30
0
41
1
10
28.5188444836073
20
0.102713553702898
30
0
41
1
10
28.5221062468766
20
0.0825183092150326
30
0
41
1
10
28.5328745131982
20
0.0223798661088495
30
0
41
1
10
28.5413559047382
20
-0.0172742574038409
30
0
41
1
10
28.5702390536658
20
-0.135076514669862
30
0
41
1
10
28.5940617289267
20
-0.212070502897632
30
0
41
1
10
28.6489976476799
20
-0.363584335877079
30
0
41
1
10
28.680119671519
20
-0.438101290177855
30
0
41
1
10
28.7313136266263
20
-0.548336312229054
30
0
41
1
10
28.7491039119031
20
-0.584753169184779
30
0
41
1
10
28.7857595498402
20
-0.65655729746166
30
0
41
1
10
28.804657083588
20
-0.692014247857941
30
0
41
1
10
28.8628698213909
20
-0.797186713690849
30
0
41
1
10
28.9036973462017
20
-0.865709510769648
30
0
41
1
10
28.9886238004182
20
-1.00012637240849
30
0
41
1
10
29.0327257596141
20
-1.06601820839961
30
0
41
1
10
29.169173691491
20
-1.26030919786254
30
0
41
1
10
29.265598452817
20
-1.38536826471184
30
0
41
1
10
29.3911824481154
20
-1.53738996714378
30
0
41
1
10
29.4165793710917
20
-1.56760402652529
30
0
41
1
10
29.4677077293908
20
-1.62744905851426
30
0
41
1
10
29.5449090983448
20
-1.71635093687408
30
0
41
1
10
29.6235051783539
20
-1.80282652384309
30
0
41
1
10
29.7822837570184
20
-1.97289806776365
30
0
41
1
10
29.8902384688575
20
-2.08245684542479
30
0
41
1
10
30.1093235524096
20
-2.2952576670786
30
0
41
1
10
30.2204598534969
20
-2.39849184653332
30
0
41
1
10
30.4452496054666
20
-2.59947700787214
30
0
41
1
10
30.5588997827125
20
-2.69722949747327
30
0
41
1
10
30.7882323299446
20
-2.88782711367693
30
0
41
1
10
30.9039358562182
20
-2.98065340630828
30
0
41
1
10
31.078857454607
20
-3.1164163099962
30
0
41
1
10
31.1373928727834
20
-3.16109026864569
30
0
41
1
10
31.2548954908766
20
-3.24930491012034
30
0
41
1
10
31.3138925884411
20
-3.2928664976211
30
0
41
1
10
31.4910122012481
20
-3.42152969218557
30
0
41
1
10
31.6093981690976
20
-3.5047203720064
30
0
41
1
10
31.9653364410859
20
-3.74683822899306
30
0
41
1
10
32.203630771293
20
-3.89836060073003
30
0
41
1
10
32.4430370961576
20
-4.0400721738977
30
0
0
SPLINE
5
1C1
100
AcDbEntity
8
1
62
256
6
ByLayer
370
18
48
1
60
0
100
AcDbSpline
70
4
71
3
72
44
73
40
40
0
40
0
40
0
40
0
40
0.0226699423132427
40
0.0226699423132427
40
0.0718042379376624
40
0.0718042379376624
40
0.120938533562082
40
0.120938533562082
40
0.219207124810922
40
0.219207124810922
40
0.268341420435343
40
0.268341420435343
40
0.317475716059763
40
0.317475716059763
40
0.366610011684183
40
0.366610011684183
40
0.415744307308603
40
0.415744307308603
40
0.464878602933023
40
0.464878602933023
40
0.514012898557443
40
0.514012898557443
40
0.563147194181863
40
0.563147194181863
40
0.612281489806283
40
0.612281489806283
40
0.710550081055123
40
0.710550081055123
40
0.759684376679543
40
0.759684376679543
40
0.808818672303962
40
0.808818672303962
40
0.857952967928381
40
0.857952967928381
40
0.9070872635528
40
0.9070872635528
40
0.956221559177219
40
0.956221559177219
40
1
40
1
40
1
40
1
41
1
10
32.4430375868149
20
-4.04006708515479
30
0
41
1
10
32.4473043951846
20
-3.99581511893035
30
0
41
1
10
32.4523418702437
20
-3.95103012055517
30
0
41
1
10
32.4700938171855
20
-3.80793671917488
30
0
41
1
10
32.4855285429298
20
-3.70774685069836
30
0
41
1
10
32.5237764494711
20
-3.50226380018745
30
0
41
1
10
32.5465808889782
20
-3.39713136762074
30
0
41
1
10
32.6259213030466
20
-3.07884677583306
30
0
41
1
10
32.6934900783622
20
-2.861228307159
30
0
41
1
10
32.8220768517124
20
-2.52472615505033
30
0
41
1
10
32.8698491403805
20
-2.41028235279893
30
0
41
1
10
32.9734042709533
20
-2.18323761164675
30
0
41
1
10
33.0293494150348
20
-2.07009573308002
30
0
41
1
10
33.1501674293767
20
-1.84462706034921
30
0
41
1
10
33.2155175333116
20
-1.73154311786178
30
0
41
1
10
33.3537439181574
20
-1.50999657976152
30
0
41
1
10
33.4260609753095
20
-1.4022899094812
30
0
41
1
10
33.5770718457166
20
-1.19298012012391
30
0
41
1
10
33.6557619871216
20
-1.09137348651319
30
0
41
1
10
33.8197682010656
20
-0.894502269902887
30
0
41
1
10
33.9041155264371
20
-0.800492878947324
30
0
41
1
10
34.0738553392687
20
-0.624664995179927
30
0
41
1
10
34.1597751967412
20
-0.542216023154509
30
0
41
1
10
34.333649522989
20
-0.387908181731717
30
0
41
1
10
34.4223199238698
20
-0.315592705132133
30
0
41
1
10
34.685784440887
20
-0.11949460023834
30
0
41
1
10
34.8570772504618
20
-0.0162130615014746
30
0
41
1
10
35.108067416869
20
0.101169717386199
30
0
41
1
10
35.1905316653811
20
0.134025061779425
30
0
41
1
10
35.349610052825
20
0.186750852161907
30
0
41
1
10
35.4267677349393
20
0.206886431846272
30
0
41
1
10
35.5766719072745
20
0.235622949270635
30
0
41
1
10
35.6494137327368
20
0.244211689327756
30
0
41
1
10
35.7906547829321
20
0.250295369509814
30
0
41
1
10
35.8590943626132
20
0.247740076831747
30
0
41
1
10
35.9891904275834
20
0.232210637674911
30
0
41
1
10
36.0512861021335
20
0.219362477856265
30
0
41
1
10
36.1599488647479
20
0.179983686846157
30
0
41
1
10
36.2078887409865
20
0.155816755043162
30
0
41
1
10
36.2526234314903
20
0.126131058069831
30
0
0
SPLINE
5
1C2
100
AcDbEntity
8
SK1
62
256
6
ByLayer
370
18
48
1
60
0
100
AcDbSpline
70
4
71
3
72
22
73
18
40
0
40
0
40
0
40
0
40
0.249918489339167
40
0.249918489339167
40
0.499836978678334
40
0.499836978678334
40
0.624796223347917
40
0.624796223347917
40
0.687275845682709
40
0.687275845682709
40
0.718515656850105
40
0.718515656850105
40
0.749755468017501
40
0.749755468017501
40
0.999673957356668
40
0.999673957356668
40
1
40
1
40
1
40
1
41
1
10
-27.4
20
4.49999999999997
30
0
41
1
10
-27.512325981066
20
4.49999999999997
30
0
41
1
10
-27.6167520616775
20
4.49999999999997
30
0
41
1
10
-27.8047449658397
20
4.49999999999997
30
0
41
1
10
-27.8883167916657
20
4.49999999999997
30
0
41
1
10
-27.9930976683549
20
4.49999999999997
30
0
41
1
10
-28.024582476032
20
4.49999999999997
30
0
41
1
10
-28.0659220084382
20
4.49999999999997
30
0
41
1
10
-28.0787198705372
20
4.49999999999997
30
0
41
1
10
-28.0963474972523
20
4.49999999999997
30
0
41
1
10
-28.1019673798152
20
4.49999999999997
30
0
41
1
10
-28.112632668104
20
4.49999999999997
30
0
41
1
10
-28.1176793266433
20
4.49999999999997
30
0
41
1
10
-28.1604983931921
20
4.49999999999997
30
0
41
1
10
-28.1799529476627
20
4.49999999999997
30
0
41
1
10
-28.1799989919214
20
4.49999999999997
30
0
41
1
10
-28.1800010038428
20
4.50000000000289
30
0
41
1
10
-28.1799990153642
20
4.49999999999408
30
0
0
SPLINE
5
1C3
100
AcDbEntity
8
SK1
62
256
6
ByLayer
370
18
48
1
60
0
100
AcDbSpline
70
4
71
3
72
22
73
18
40
0
40
0
40
0
40
0
40
0.0003258714580664
40
0.0003258714580664
40
0.250244403593549
40
0.250244403593549
40
0.281484220110485
40
0.281484220110485
40
0.31272403662742
40
0.31272403662742
40
0.375203669661291
40
0.375203669661291
40
0.500162935729033
40
0.500162935729033
40
0.750081467864517
40
0.750081467864517
40
1
40
1
40
1
40
1
41
1
10
-28.1799990153543
20
-4.50000000000006
30
0
41
1
10
-28.1800010038131
20
-4.50000000000006
30
0
41
1
10
-28.1799989918718
20
-4.50000000000006
30
0
41
1
10
-28.1799529476627
20
-4.50000000000003
30
0
41
1
10
-28.1604983931921
20
-4.50000000000003
30
0
41
1
10
-28.1176793266432
20
-4.50000000000003
30
0
41
1
10
-28.112632668104
20
-4.50000000000003
30
0
41
1
10
-28.1019673798152
20
-4.50000000000003
30
0
41
1
10
-28.0963474972523
20
-4.50000000000003
30
0
41
1
10
-28.0787198705372
20
-4.50000000000003
30
0
41
1
10
-28.0659220084382
20
-4.50000000000003
30
0
41
1
10
-28.024582476032
20
-4.50000000000003
30
0
41
1
10
-27.9930976683551
20
-4.50000000000003
30
0
41
1
10
-27.8883167916658
20
-4.50000000000003
30
0
41
1
10
-27.8047449658397
20
-4.50000000000003
30
0
41
1
10
-27.6167520616775
20
-4.50000000000003
30
0
41
1
10
-27.512325981066
20
-4.50000000000003
30
0
41
1
10
-27.4
20
-4.50000000000003
30
0
0
SPLINE
5
1C4
100
AcDbEntity
8
SK1
62
256
6
ByLayer
370
18
48
1
60
0
100
AcDbSpline
70
4
71
3
72
36
73
32
40
0
40
0
40
0
40
0
40
0.0312500000000001
40
0.0312500000000001
40
0.0625000000000001
40
0.0625000000000001
40
0.125
40
0.125
40
0.250000000000001
40
0.250000000000001
40
0.312500000000001
40
0.343750000000001
40
0.359375000000001
40
0.359375000000001
40
0.375000000000001
40
0.375000000000001
40
0.500000000000001
40
0.500000000000001
40
0.625000000000001
40
0.625000000000001
40
0.640625000000001
40
0.640625000000001
40
0.656250000000001
40
0.656250000000001
40
0.687500000000001
40
0.687500000000001
40
0.750000000000001
40
0.750000000000001
40
0.875
40
0.875
40
1
40
1
40
1
40
1
41
1
10
-27.4
20
-2.76195582875619
30
0
41
1
10
-27.4281147880039
20
-2.70820910365836
30
0
41
1
10
-27.4557875203738
20
-2.65416608258974
30
0
41
1
10
-27.5100066281644
20
-2.54578730975561
30
0
41
1
10
-27.5365768302662
20
-2.4914064108529
30
0
41
1
10
-27.6145551037552
20
-2.32764859917191
30
0
41
1
10
-27.6642336728874
20
-2.21765757649379
30
0
41
1
10
-27.8053356945989
20
-1.88486742342394
30
0
41
1
10
-27.8888720394485
20
-1.65926774684956
30
0
41
1
10
-27.9934996284566
20
-1.3135262893509
30
0
41
1
10
-28.0406263124866
20
-1.13881372669559
30
0
41
1
10
-28.0852909106634
20
-0.931319219495549
30
0
41
1
10
-28.1020805141943
20
-0.84155772600343
30
0
41
1
10
-28.1127350077599
20
-0.781525493517819
30
0
41
1
10
-28.1177964837547
20
-0.751388594584427
30
0
41
1
10
-28.1606842872497
20
-0.480399711794973
30
0
41
1
10
-28.1800468808023
20
-0.239678786480511
30
0
41
1
10
-28.1799529476627
20
0.241435952089375
30
0
41
1
10
-28.1604983931921
20
0.481829781963853
30
0
41
1
10
-28.1176793266433
20
0.752096449758284
30
0
41
1
10
-28.112632668104
20
0.7821236443651
30
0
41
1
10
-28.1019673798152
20
0.842173213822917
30
0
41
1
10
-28.0963474972523
20
0.872198036145704
30
0
41
1
10
-28.0787198705372
20
0.961881189666684
30
0
41
1
10
-28.0659220084382
20
1.02127881792629
30
0
41
1
10
-28.024582476032
20
1.19837021382617
30
0
41
1
10
-27.993097668355
20
1.31496354277493
30
0
41
1
10
-27.8883167916657
20
1.66088246990017
30
0
41
1
10
-27.8047449658397
20
1.88636596389935
30
0
41
1
10
-27.6167520616775
20
2.3295374190125
30
0
41
1
10
-27.512325981066
20
2.54722350977633
30
0
41
1
10
-27.4
20
2.7619558287561
30
0
0
SPLINE
5
1C5
100
AcDbEntity
8
1
62
256
6
ByLayer
370
18
48
1
60
0
100
AcDbSpline
70
4
71
1
72
4
73
2
40
0
40
0
40
1
40
1
41
1
10
68.1579897477687
20
-6.63206342487356
30
0
41
1
10
68.3081132019265
20
-6.59004884009465
30
0
0
SPLINE
5
1C6
100
AcDbEntity
8
1
62
256
6
ByLayer
370
18
48
1
60
0
100
AcDbSpline
70
4
71
2
72
6
73
3
40
0
40
0
40
0
40
1
40
1
40
1
41
1
10
66.4193073782313
20
-6.21576787495474
30
0
41
1
10
66.6439707638959
20
-6.60404496314362
30
0
41
1
10
66.8685899127209
20
-6.99243832300172
30
0
0
SPLINE
5
1C7
100
AcDbEntity
8
1
62
256
6
ByLayer
370
18
48
1
60
0
100
AcDbSpline
70
4
71
1
72
4
73
2
40
0
40
0
40
1
40
1
41
1
10
71.0000000000001
20
5.48570677381787
30
0
41
1
10
70.5375140641377
20
5.9481539498276
30
0
0
SPLINE
5
1C8
100
AcDbEntity
8
1
62
256
6
ByLayer
370
18
48
1
60
0
100
AcDbSpline
70
4
71
2
72
6
73
3
40
0
40
0
40
0
40
1
40
1
40
1
41
1
10
67.1667771062872
20
-6.91197591579345
30
0
41
1
10
67.3690159472619
20
-6.56247102213908
30
0
41
1
10
67.5713113650212
20
-6.21309003279978
30
0
0
SPLINE
5
1C9
100
AcDbEntity
8
1
62
256
6
ByLayer
370
18
48
1
60
0
100
AcDbSpline
70
4
71
3
72
11
73
7
40
0
40
0
40
0
40
0
40
0.244194908872653
40
0.499726345879134
40
0.755422629392959
40
1
40
1
40
1
40
1
41
1
10
56.6690588087042
20
6.21536168446985
30
0
41
1
10
56.6532380586566
20
6.18619957374378
30
0
41
1
10
56.6099331164255
20
6.14121232384693
30
0
41
1
10
56.4933152157134
20
6.10322696298613
30
0
41
1
10
56.3767542621861
20
6.14261514185068
30
0
41
1
10
56.3334638477037
20
6.18853078198325
30
0
41
1
10
56.3176617387015
20
6.21816964408589
30
0
0
SPLINE
5
1CA
100
AcDbEntity
8
1
62
256
6
ByLayer
370
18
48
1
60
0
100
AcDbSpline
70
4
71
1
72
4
73
2
40
0
40
0
40
1
40
1
41
1
10
66.8798408758517
20
-6.98977607010369
30
0
41
1
10
67.1653889217669
20
-6.90986017077336
30
0
0
SPLINE
5
1CB
100
AcDbEntity
8
1
62
256
6
ByLayer
370
18
48
1
60
0
100
AcDbSpline
70
4
71
3
72
11
73
7
40
0
40
0
40
0
40
0
40
0.213843577513809
40
0.455050713048152
40
0.719720990821086
40
1
40
1
40
1
40
1
41
1
10
66.0725425408597
20
-6.21096122044307
30
0
41
1
10
66.0844361467588
20
-6.1884681943516
30
0
41
1
10
66.1200290349285
20
-6.1501471599851
30
0
41
1
10
66.223332830555
20
-6.10466569195779
30
0
41
1
10
66.3498001393925
20
-6.13291267003234
30
0
41
1
10
66.3965777719321
20
-6.17595462371074
30
0
41
1
10
66.4142364926754
20
-6.20730134817868
30
0
0
SPLINE
5
1CC
100
AcDbEntity
8
1
62
256
6
ByLayer
370
18
48
1
60
0
100
AcDbSpline
70
4
71
2
72
6
73
3
40
0
40
0
40
0
40
1
40
1
40
1
41
1
10
57.1611606017171
20
7.06621346244253
30
0
41
1
10
56.9138042790934
20
6.63857334633028
30
0
41
1
10
56.6662993204779
20
6.21101894001174
30
0
0
SPLINE
5
1CD
100
AcDbEntity
8
1
62
256
6
ByLayer
370
18
48
1
60
0
100
AcDbSpline
70
4
71
2
72
6
73
3
40
0
40
0
40
0
40
1
40
1
40
1
41
1
10
57.8243971712092
20
6.20765267076789
30
0
41
1
10
57.5759037197744
20
6.63689780440416
30
0
41
1
10
57.3278294858615
20
7.06572487531545
30
0
0
SPLINE
5
1CE
100
AcDbEntity
8
1
62
256
6
ByLayer
370
18
48
1
60
0
100
AcDbSpline
70
4
71
3
72
11
73
7
40
0
40
0
40
0
40
0
40
0.246471606251001
40
0.499768271432963
40
0.753208731392541
40
1
40
1
40
1
40
1
41
1
10
58.1662294902492
20
6.21091279830799
30
0
41
1
10
58.1514389175886
20
6.1835290329405
30
0
41
1
10
58.109945855657
20
6.14169579160324
30
0
41
1
10
57.9943930869966
20
6.10359598651672
30
0
41
1
10
57.8788947872809
20
6.14174206526113
30
0
41
1
10
57.8374111846272
20
6.18352291108493
30
0
41
1
10
57.8226356080344
20
6.21088487847678
30
0
0
SPLINE
5
1CF
100
AcDbEntity
8
1
62
256
6
ByLayer
370
18
48
1
60
0
100
AcDbSpline
70
4
71
2
72
6
73
3
40
0
40
0
40
0
40
1
40
1
40
1
41
1
10
65.577536698528
20
-7.06613164531927
30
0
41
1
10
65.8249816900444
20
-6.63845681676557
30
0
41
1
10
66.0725903812547
20
-6.21087865874625
30
0
0
SPLINE
5
1D0
100
AcDbEntity
8
1
62
256
6
ByLayer
370
18
48
1
60
0
100
AcDbSpline
70
4
71
2
72
6
73
3
40
0
40
0
40
0
40
1
40
1
40
1
41
1
10
64.9161824753615
20
-6.21088721591667
30
0
41
1
10
65.1636882259534
20
-6.63846305866454
30
0
41
1
10
65.4110462189624
20
-7.06612771192869
30
0
0
SPLINE
5
1D1
100
AcDbEntity
8
1
62
256
6
ByLayer
370
18
48
1
60
0
100
AcDbSpline
70
4
71
3
72
11
73
7
40
0
40
0
40
0
40
0
40
0.25161235500309
40
0.505558386229293
40
0.757301842544322
40
1
40
1
40
1
40
1
41
1
10
64.5750912486682
20
-6.20621305412874
30
0
41
1
10
64.5876357820142
20
-6.18189777479373
30
0
41
1
10
64.62580204285
20
-6.14471760111081
30
0
41
1
10
64.736180302008
20
-6.10384400976156
30
0
41
1
10
64.8558804233159
20
-6.13817958701696
30
0
41
1
10
64.8998304009041
20
-6.1822260258333
30
0
41
1
10
64.9163520701648
20
-6.21118067424783
30
0
0
SPLINE
5
1D2
100
AcDbEntity
8
1
62
256
6
ByLayer
370
18
48
1
60
0
100
AcDbSpline
70
4
71
2
72
6
73
3
40
0
40
0
40
0
40
1
40
1
40
1
41
1
10
58.657900243373
20
7.06001815593783
30
0
41
1
10
58.4106302870685
20
6.63250793813518
30
0
41
1
10
58.163228703143
20
6.20521750710748
30
0
0
SPLINE
5
1D3
100
AcDbEntity
8
1
62
256
6
ByLayer
370
18
48
1
60
0
100
AcDbSpline
70
4
71
2
72
6
73
3
40
0
40
0
40
0
40
1
40
1
40
1
41
1
10
59.3225483179412
20
6.21100198425398
30
0
41
1
10
59.0749729583582
20
6.63853058620964
30
0
41
1
10
58.8275581258003
20
7.06616297824007
30
0
0
SPLINE
5
1D4
100
AcDbEntity
8
1
62
256
6
ByLayer
370
18
48
1
60
0
100
AcDbSpline
70
4
71
3
72
11
73
7
40
0
40
0
40
0
40
0
40
0.242501892967406
40
0.499732068492704
40
0.757118584250843
40
1
40
1
40
1
40
1
41
1
10
59.6754284923439
20
6.22230792568973
30
0
41
1
10
59.658995870533
20
6.19146734002825
30
0
41
1
10
59.6146314640798
20
6.14305059313745
30
0
41
1
10
59.4977019668399
20
6.10274002471266
30
0
41
1
10
59.3808209620088
20
6.13956105340472
30
0
41
1
10
59.3364736645748
20
6.18539912431163
30
0
41
1
10
59.3200601122136
20
6.21496934253403
30
0
0
SPLINE
5
1D5
100
AcDbEntity
8
1
62
256
6
ByLayer
370
18
48
1
60
0
100
AcDbSpline
70
4
71
2
72
6
73
3
40
0
40
0
40
0
40
1
40
1
40
1
41
1
10
64.076448067565
20
-7.06796250047069
30
0
41
1
10
64.3234609610631
20
-6.64099812305523
30
0
41
1
10
64.5705375695509
20
-6.21421190496739
30
0
0
SPLINE
5
1D6
100
AcDbEntity
8
1
62
256
6
ByLayer
370
18
48
1
60
0
100
AcDbSpline
70
4
71
2
72
6
73
3
40
0
40
0
40
0
40
1
40
1
40
1
41
1
10
63.4191473073138
20
-6.2155313578111
30
0
41
1
10
63.6664283748428
20
-6.64279800368683
30
0
41
1
10
63.9136041154554
20
-7.07013481118682
30
0
0
SPLINE
5
1D7
100
AcDbEntity
8
1
62
256
6
ByLayer
370
18
48
1
60
0
100
AcDbSpline
70
4
71
3
72
13
73
9
40
0
40
0
40
0
40
0
40
0.239778176430768
40
0.368539737809127
40
0.500292910800848
40
0.632001387735549
40
0.760636364687128
40
1
40
1
40
1
40
1
41
1
10
63.0527146833285
20
-6.22380117156533
30
0
41
1
10
63.0691961885469
20
-6.19182368440826
30
0
41
1
10
63.1036933462404
20
-6.15267302968368
30
0
41
1
10
63.1727633238114
20
-6.11704861182724
30
0
41
1
10
63.232566106374
20
-6.10597871429817
30
0
41
1
10
63.2923700311272
20
-6.11206580655696
30
0
41
1
10
63.361435386821
20
-6.14118769813874
30
0
41
1
10
63.3959391554902
20
-6.17513224631486
30
0
41
1
10
63.4124380562699
20
-6.20356662891467
30
0
0
SPLINE
5
1D8
100
AcDbEntity
8
1
62
256
6
ByLayer
370
18
48
1
60
0
100
AcDbSpline
70
4
71
2
72
6
73
3
40
0
40
0
40
0
40
1
40
1
40
1
41
1
10
60.8487273496062
20
6.17787483920731
30
0
41
1
10
60.8306503157941
20
6.19422579108507
30
0
41
1
10
60.8225474019084
20
6.21096130539578
30
0
0
SPLINE
5
1D9
100
AcDbEntity
8
1
62
256
6
ByLayer
370
18
48
1
60
0
100
AcDbSpline
70
4
71
2
72
6
73
3
40
0
40
0
40
0
40
1
40
1
40
1
41
1
10
60.1611587465749
20
7.06629619272277
30
0
41
1
10
59.9138095958141
20
6.63865192358685
30
0
41
1
10
59.666311095926
20
6.21109894595804
30
0
0
SPLINE
5
1DA
100
AcDbEntity
8
1
62
256
6
ByLayer
370
18
48
1
60
0
100
AcDbSpline
70
4
71
2
72
6
73
3
40
0
40
0
40
0
40
1
40
1
40
1
41
1
10
60.8316826726193
20
6.19065755494208
30
0
41
1
10
60.5847713641364
20
6.61589610564297
30
0
41
1
10
60.3379008321447
20
7.04153196144668
30
0
0
SPLINE
5
1DB
100
AcDbEntity
8
1
62
256
6
ByLayer
370
18
48
1
60
0
100
AcDbSpline
70
4
71
1
72
4
73
2
40
0
40
0
40
1
40
1
41
1
10
62.1935540200947
20
-6.69009564832365
30
0
41
1
10
62.4111112430234
20
-7.06615497664734
30
0
0
SPLINE
5
1DC
100
AcDbEntity
8
1
62
256
6
ByLayer
370
18
48
1
60
0
100
AcDbSpline
70
4
71
2
72
6
73
3
40
0
40
0
40
0
40
1
40
1
40
1
41
1
10
56.3102625973887
20
6.22397865468494
30
0
41
1
10
56.0633851968901
20
6.65084566540486
30
0
41
1
10
55.8165449147872
20
7.07771068344039
30
0
0
LINE
5
7F
100
AcDbEntity
8
80
62
256
6
ByLayer
370
18
48
1
60
0
100
AcDbLine
10
0
20
0
30
0
11
-5
21
0
31
0
39
0
210
0
220
0
230
1
0
LINE
5
80
100
AcDbEntity
8
4
62
256
6
ByLayer
370
18
48
0.05
60
0
100
AcDbLine
10
0
20
0
30
0
11
71
21
0
31
0
39
0
210
0
220
0
230
1
0
LINE
5
82
100
AcDbEntity
8
81
62
256
6
ByLayer
370
18
48
1
60
0
100
AcDbLine
10
71
20
0
30
0
11
76
21
0
31
0
39
0
210
0
220
0
230
1
0
LINE
5
83
100
AcDbEntity
8
SK4
62
256
6
ByLayer
370
18
48
0.05
60
0
100
AcDbLine
10
-29
20
0
30
0
11
71
21
0
31
0
39
0
210
0
220
0
230
1
0
LINE
5
85
100
AcDbEntity
8
1
62
256
6
ByLayer
370
18
48
1
60
0
100
AcDbLine
10
0
20
5.5
30
0
11
0
21
-5.5
31
0
39
0
210
0
220
0
230
1
0
LINE
5
86
100
AcDbEntity
8
1
62
256
6
ByLayer
370
18
48
1
60
0
100
AcDbLine
10
68.16394
20
-6.629085
30
0
11
68.168817
21
-6.629035
31
0
39
0
210
0
220
0
230
1
0
LINE
5
87
100
AcDbEntity
8
1
62
256
6
ByLayer
370
18
48
1
60
0
100
AcDbLine
10
56.310278
20
6.223973
30
0
11
56.317002
21
6.21893
31
0
39
0
210
0
220
0
230
1
0
LINE
5
88
100
AcDbEntity
8
1
62
256
6
ByLayer
370
18
48
1
60
0
100
AcDbLine
10
66.414702
20
-6.208196
30
0
11
66.419275
21
-6.215722
31
0
39
0
210
0
220
0
230
1
0
LINE
5
89
100
AcDbEntity
8
1
62
256
6
ByLayer
370
18
48
1
60
0
100
AcDbLine
10
56.666272
20
6.210971
30
0
11
56.669798
21
6.216385
31
0
39
0
210
0
220
0
230
1
0
LINE
5
8A
100
AcDbEntity
8
1
62
256
6
ByLayer
370
18
48
1
60
0
100
AcDbLine
10
57.821438
20
6.212889
30
0
11
57.824405
21
6.207638
31
0
39
0
210
0
220
0
230
1
0
LINE
5
8B
100
AcDbEntity
8
1
62
256
6
ByLayer
370
18
48
1
60
0
100
AcDbLine
10
58.163315
20
6.205395
30
0
11
58.16651
21
6.211394
31
0
39
0
210
0
220
0
230
1
0
LINE
5
8C
100
AcDbEntity
8
1
62
256
6
ByLayer
370
18
48
1
60
0
100
AcDbLine
10
59.319261
20
6.216101
30
0
11
59.322523
21
6.211046
31
0
39
0
210
0
220
0
230
1
0
LINE
5
8D
100
AcDbEntity
8
1
62
256
6
ByLayer
370
18
48
1
60
0
100
AcDbLine
10
55.711325
20
7.034752
30
0
11
55.711325
21
7.073041
31
0
39
0
210
0
220
0
230
1
0
LINE
5
8E
100
AcDbEntity
8
1
62
256
6
ByLayer
370
18
48
1
60
0
100
AcDbLine
10
64.91617
20
-6.210866
30
0
11
64.917613
21
-6.213264
31
0
39
0
210
0
220
0
230
1
0
LINE
5
8F
100
AcDbEntity
8
1
62
256
6
ByLayer
370
18
48
1
60
0
100
AcDbLine
10
64.570461
20
-6.214326
30
0
11
64.574238
21
-6.207883
31
0
39
0
210
0
220
0
230
1
0
LINE
5
90
100
AcDbEntity
8
1
62
256
6
ByLayer
370
13
48
1
60
0
100
AcDbLine
10
21.653835
20
-5.35
30
0
11
21.653835
21
5.35
31
0
39
0
210
0
220
0
230
1
0
LINE
5
91
100
AcDbEntity
8
1
62
256
6
ByLayer
370
18
48
1
60
0
100
AcDbLine
10
21
20
5.5
30
0
11
21
21
-5.5
31
0
39
0
210
0
220
0
230
1
0
LINE
5
92
100
AcDbEntity
8
1
62
256
6
ByLayer
370
13
48
1
60
0
100
AcDbLine
10
53.908236
20
-1.692162
30
0
11
53.908236
21
1.990174
31
0
39
0
210
0
220
0
230
1
0
LINE
5
93
100
AcDbEntity
8
1
62
256
6
ByLayer
370
13
48
1
60
0
100
AcDbLine
10
55.120672
20
1.31572
30
0
11
55.120672
21
-2.943469
31
0
39
0
210
0
220
0
230
1
0
LINE
5
94
100
AcDbEntity
8
SK1
62
256
6
ByLayer
370
18
48
1
60
0
100
AcDbLine
10
-29
20
3.68
30
0
11
-29
21
-3.68
31
0
39
0
210
0
220
0
230
1
0
LINE
5
96
100
AcDbEntity
8
SK1
62
256
6
ByLayer
370
18
48
1
60
0
100
AcDbLine
10
-17
20
4.5
30
0
11
-16.22
21
5.28
31
0
39
0
210
0
220
0
230
1
0
LINE
5
97
100
AcDbEntity
8
SK1
62
256
6
ByLayer
370
18
48
1
60
0
100
AcDbLine
10
-27.4
20
4.5
30
0
11
-17
21
4.5
31
0
39
0
210
0
220
0
230
1
0
LINE
5
98
100
AcDbEntity
8
SK1
62
256
6
ByLayer
370
18
48
1
60
0
100
AcDbLine
10
-27.4
20
2.761956
30
0
11
-27.4
21
4.5
31
0
39
0
210
0
220
0
230
1
0
LINE
5
99
100
AcDbEntity
8
SK1
62
256
6
ByLayer
370
18
48
1
60
0
100
AcDbLine
10
-17
20
2.761956
30
0
11
-27.4
21
2.761956
31
0
39
0
210
0
220
0
230
1
0
LINE
5
9A
100
AcDbEntity
8
SK1
62
256
6
ByLayer
370
18
48
1
60
0
100
AcDbLine
10
-27.4
20
-2.761956
30
0
11
-17
21
-2.761956
31
0
39
0
210
0
220
0
230
1
0
LINE
5
9B
100
AcDbEntity
8
SK1
62
256
6
ByLayer
370
18
48
1
60
0
100
AcDbLine
10
-27.4
20
-4.5
30
0
11
-27.4
21
-2.761956
31
0
39
0
210
0
220
0
230
1
0
LINE
5
9C
100
AcDbEntity
8
SK1
62
256
6
ByLayer
370
18
48
1
60
0
100
AcDbLine
10
-17
20
-4.5
30
0
11
-27.4
21
-4.5
31
0
39
0
210
0
220
0
230
1
0
LINE
5
9D
100
AcDbEntity
8
SK1
62
256
6
ByLayer
370
18
48
1
60
0
100
AcDbLine
10
-17
20
-4.5
30
0
11
-16.22
21
-5.28
31
0
39
0
210
0
220
0
230
1
0
LINE
5
9E
100
AcDbEntity
8
SK1
62
256
6
ByLayer
370
18
48
1
60
0
100
AcDbLine
10
-17
20
2.761956
30
0
11
-17
21
-2.761956
31
0
39
0
210
0
220
0
230
1
0
LINE
5
9F
100
AcDbEntity
8
SK1
62
256
6
ByLayer
370
18
48
1
60
0
100
AcDbLine
10
-14.6
20
5.28
30
0
11
-14.6
21
-5.28
31
0
39
0
210
0
220
0
230
1
0
LINE
5
A0
100
AcDbEntity
8
SK1
62
256
6
ByLayer
370
18
48
1
60
0
100
AcDbLine
10
0
20
5.5
30
0
11
0
21
-5.5
31
0
39
0
210
0
220
0
230
1
0
LINE
5
A1
100
AcDbEntity
8
SK1
62
256
6
ByLayer
370
18
48
1
60
0
100
AcDbLine
10
-14.38
20
-5.5
30
0
11
-14.38
21
5.5
31
0
39
0
210
0
220
0
230
1
0
LINE
5
A2
100
AcDbEntity
8
1
62
256
6
ByLayer
370
18
48
1
60
0
100
AcDbLine
10
55.711325
20
7.073041
30
0
11
55.185281
21
6.161906
31
0
39
0
210
0
220
0
230
1
0
LINE
5
A3
100
AcDbEntity
8
1
62
256
6
ByLayer
370
18
48
1
60
0
100
AcDbLine
10
21
20
5.5
30
0
11
0
21
5.5
31
0
39
0
210
0
220
0
230
1
0
LINE
5
A4
100
AcDbEntity
8
1
62
256
6
ByLayer
370
18
48
1
60
0
100
AcDbLine
10
0
20
-5.5
30
0
11
21
21
-5.5
31
0
39
0
210
0
220
0
230
1
0
LINE
5
A5
100
AcDbEntity
8
1
62
256
6
ByLayer
370
18
48
1
60
0
100
AcDbLine
10
55.816596
20
7.073041
30
0
11
55.711325
21
7.073041
31
0
39
0
210
0
220
0
230
1
0
LINE
5
A6
100
AcDbEntity
8
1
62
256
6
ByLayer
370
18
48
1
60
0
100
AcDbLine
10
57.316589
20
7.073041
30
0
11
57.172042
21
7.073041
31
0
39
0
210
0
220
0
230
1
0
LINE
5
A7
100
AcDbEntity
8
1
62
256
6
ByLayer
370
18
48
1
60
0
100
AcDbLine
10
65.422016
20
-7.073041
30
0
11
65.566593
21
-7.073041
31
0
39
0
210
0
220
0
230
1
0
LINE
5
A8
100
AcDbEntity
8
1
62
256
6
ByLayer
370
18
48
1
60
0
100
AcDbLine
10
58.816613
20
7.073041
30
0
11
58.672018
21
7.073041
31
0
39
0
210
0
220
0
230
1
0
LINE
5
A9
100
AcDbEntity
8
1
62
256
6
ByLayer
370
18
48
1
60
0
100
AcDbLine
10
63.922009
20
-7.073041
30
0
11
64.06661
21
-7.073041
31
0
39
0
210
0
220
0
230
1
0
LINE
5
AA
100
AcDbEntity
8
1
62
256
6
ByLayer
370
18
48
1
60
0
100
AcDbLine
10
60.316613
20
7.073041
30
0
11
60.172045
21
7.073041
31
0
39
0
210
0
220
0
230
1
0
LINE
5
AB
100
AcDbEntity
8
1
62
256
6
ByLayer
370
18
48
1
60
0
100
AcDbLine
10
21.653835
20
-5.35
30
0
11
37.641265
21
-5.35
31
0
39
0
210
0
220
0
230
1
0
LINE
5
AC
100
AcDbEntity
8
1
62
256
6
ByLayer
370
18
48
1
60
0
100
AcDbLine
10
47.789709
20
-5.35
30
0
11
52.870532
21
-5.35
31
0
39
0
210
0
220
0
230
1
0
LINE
5
AD
100
AcDbEntity
8
1
62
256
6
ByLayer
370
18
48
1
60
0
100
AcDbLine
10
45.256243
20
5.35
30
0
11
40.21186
21
5.35
31
0
39
0
210
0
220
0
230
1
0
LINE
5
AE
100
AcDbEntity
8
1
62
256
6
ByLayer
370
18
48
1
60
0
100
AcDbLine
10
30.541798
20
5.35
30
0
11
21.653835
21
5.35
31
0
39
0
210
0
220
0
230
1
0
LINE
5
AF
100
AcDbEntity
8
SK1
62
256
6
ByLayer
370
18
48
1
60
0
100
AcDbLine
10
-29
20
-3.68
30
0
11
-28.18
21
-4.5
31
0
39
0
210
0
220
0
230
1
0
LINE
5
B0
100
AcDbEntity
8
SK1
62
256
6
ByLayer
370
18
48
1
60
0
100
AcDbLine
10
-28.18
20
4.5
30
0
11
-29
21
3.68
31
0
39
0
210
0
220
0
230
1
0
LINE
5
B1
100
AcDbEntity
8
SK1
62
256
6
ByLayer
370
18
48
1
60
0
100
AcDbLine
10
-14.6
20
5.28
30
0
11
-16.22
21
5.28
31
0
39
0
210
0
220
0
230
1
0
LINE
5
B2
100
AcDbEntity
8
SK1
62
256
6
ByLayer
370
18
48
1
60
0
100
AcDbLine
10
-16.22
20
-5.28
30
0
11
-14.6
21
-5.28
31
0
39
0
210
0
220
0
230
1
0
LINE
5
B3
100
AcDbEntity
8
SK1
62
256
6
ByLayer
370
18
48
1
60
0
100
AcDbLine
10
-14.6
20
-5.28
30
0
11
-14.38
21
-5.5
31
0
39
0
210
0
220
0
230
1
0
LINE
5
B4
100
AcDbEntity
8
SK1
62
256
6
ByLayer
370
18
48
1
60
0
100
AcDbLine
10
-14.38
20
5.5
30
0
11
-14.6
21
5.28
31
0
39
0
210
0
220
0
230
1
0
LINE
5
B5
100
AcDbEntity
8
SK1
62
256
6
ByLayer
370
18
48
1
60
0
100
AcDbLine
10
0
20
5.5
30
0
11
-14.38
21
5.5
31
0
39
0
210
0
220
0
230
1
0
LINE
5
B6
100
AcDbEntity
8
SK1
62
256
6
ByLayer
370
18
48
1
60
0
100
AcDbLine
10
-14.38
20
-5.5
30
0
11
0
21
-5.5
31
0
39
0
210
0
220
0
230
1
0
LINE
5
B7
100
AcDbEntity
8
SK2
62
256
6
ByLayer
370
18
48
1
60
0
100
AcDbLine
10
11.31
20
-5.5
30
0
11
11.31
21
19.083885
31
0
39
0
210
0
220
0
230
1
0
LINE
5
B9
100
AcDbEntity
8
1
62
256
6
ByLayer
370
18
48
1
60
1
100
AcDbLine
10
11.31
20
5.5
30
0
11
11.770784
21
2.000002
31
0
39
0
210
0
220
0
230
1
0
LINE
5
BA
100
AcDbEntity
8
1
62
256
6
ByLayer
370
18
48
1
60
1
100
AcDbLine
10
11.770784
20
2.000002
30
0
11
10.849216
21
1.999998
31
0
39
0
210
0
220
0
230
1
0
LINE
5
BB
100
AcDbEntity
8
1
62
256
6
ByLayer
370
18
48
1
60
1
100
AcDbLine
10
10.849216
20
1.999998
30
0
11
11.31
21
5.5
31
0
39
0
210
0
220
0
230
1
0
LINE
5
BC
100
AcDbEntity
8
1
62
256
6
ByLayer
370
18
48
1
60
1
100
AcDbLine
10
11.31
20
-5.5
30
0
11
10.849216
21
-2.000002
31
0
39
0
210
0
220
0
230
1
0
LINE
5
BD
100
AcDbEntity
8
1
62
256
6
ByLayer
370
18
48
1
60
1
100
AcDbLine
10
10.849216
20
-2.000002
30
0
11
11.770784
21
-1.999998
31
0
39
0
210
0
220
0
230
1
0
LINE
5
BE
100
AcDbEntity
8
1
62
256
6
ByLayer
370
18
48
1
60
1
100
AcDbLine
10
11.770784
20
-1.999998
30
0
11
11.31
21
-5.5
31
0
39
0
210
0
220
0
230
1
0
LINE
5
BF
100
AcDbEntity
8
2
62
256
6
ByLayer
370
18
48
1
60
0
100
AcDbLine
10
71
20
-44.573041
30
0
11
-29
21
-44.573041
31
0
39
0
210
0
220
0
230
1
0
LINE
5
C1
100
AcDbEntity
8
2
62
256
6
ByLayer
370
18
48
1
60
0
100
AcDbLine
10
-29
20
-5.2675
30
0
11
-29
21
-46.573041
31
0
39
0
210
0
220
0
230
1
0
LINE
5
C2
100
AcDbEntity
8
2
62
256
6
ByLayer
370
18
48
1
60
0
100
AcDbLine
10
71
20
-8.660541
30
0
11
71
21
-46.573041
31
0
39
0
210
0
220
0
230
1
0
LINE
5
C3
100
AcDbEntity
8
1
62
256
6
ByLayer
370
18
48
1
60
1
100
AcDbLine
10
-29
20
-44.573041
30
0
11
-25.500002
21
-44.112257
31
0
39
0
210
0
220
0
230
1
0
LINE
5
C4
100
AcDbEntity
8
1
62
256
6
ByLayer
370
18
48
1
60
1
100
AcDbLine
10
-25.500002
20
-44.112257
30
0
11
-25.499998
21
-45.033825
31
0
39
0
210
0
220
0
230
1
0
LINE
5
C5
100
AcDbEntity
8
1
62
256
6
ByLayer
370
18
48
1
60
1
100
AcDbLine
10
-25.499998
20
-45.033825
30
0
11
-29
21
-44.573041
31
0
39
0
210
0
220
0
230
1
0
LINE
5
C6
100
AcDbEntity
8
1
62
256
6
ByLayer
370
18
48
1
60
1
100
AcDbLine
10
71
20
-44.573041
30
0
11
67.500002
21
-45.033825
31
0
39
0
210
0
220
0
230
1
0
LINE
5
C7
100
AcDbEntity
8
1
62
256
6
ByLayer
370
18
48
1
60
1
100
AcDbLine
10
67.500002
20
-45.033825
30
0
11
67.499998
21
-44.112257
31
0
39
0
210
0
220
0
230
1
0
LINE
5
C8
100
AcDbEntity
8
1
62
256
6
ByLayer
370
18
48
1
60
1
100
AcDbLine
10
67.499998
20
-44.112257
30
0
11
71
21
-44.573041
31
0
39
0
210
0
220
0
230
1
0
LINE
5
1E1
100
AcDbEntity
8
1
62
256
6
ByLayer
370
18
48
1
60
1
100
AcDbLine
10
11.31
20
5.5
30
0
11
11.770784
21
2.000002
31
0
39
0
210
0
220
0
230
1
0
LINE
5
1E2
100
AcDbEntity
8
1
62
256
6
ByLayer
370
18
48
1
60
1
100
AcDbLine
10
11.770784
20
2.000002
30
0
11
10.849216
21
1.999998
31
0
39
0
210
0
220
0
230
1
0
LINE
5
1E3
100
AcDbEntity
8
1
62
256
6
ByLayer
370
18
48
1
60
1
100
AcDbLine
10
10.849216
20
1.999998
30
0
11
11.31
21
5.5
31
0
39
0
210
0
220
0
230
1
0
LINE
5
1E5
100
AcDbEntity
8
1
62
256
6
ByLayer
370
18
48
1
60
1
100
AcDbLine
10
11.31
20
-5.5
30
0
11
10.849216
21
-2.000002
31
0
39
0
210
0
220
0
230
1
0
LINE
5
1E6
100
AcDbEntity
8
1
62
256
6
ByLayer
370
18
48
1
60
1
100
AcDbLine
10
10.849216
20
-2.000002
30
0
11
11.770784
21
-1.999998
31
0
39
0
210
0
220
0
230
1
0
LINE
5
1E7
100
AcDbEntity
8
1
62
256
6
ByLayer
370
18
48
1
60
1
100
AcDbLine
10
11.770784
20
-1.999998
30
0
11
11.31
21
-5.5
31
0
39
0
210
0
220
0
230
1
0
LINE
5
1EA
100
AcDbEntity
8
1
62
256
6
ByLayer
370
18
48
1
60
1
100
AcDbLine
10
-29
20
-44.573041
30
0
11
-25.500002
21
-44.112257
31
0
39
0
210
0
220
0
230
1
0
LINE
5
1EB
100
AcDbEntity
8
1
62
256
6
ByLayer
370
18
48
1
60
1
100
AcDbLine
10
-25.500002
20
-44.112257
30
0
11
-25.499998
21
-45.033825
31
0
39
0
210
0
220
0
230
1
0
LINE
5
1EC
100
AcDbEntity
8
1
62
256
6
ByLayer
370
18
48
1
60
1
100
AcDbLine
10
-25.499998
20
-45.033825
30
0
11
-29
21
-44.573041
31
0
39
0
210
0
220
0
230
1
0
LINE
5
1EE
100
AcDbEntity
8
1
62
256
6
ByLayer
370
18
48
1
60
1
100
AcDbLine
10
71
20
-44.573041
30
0
11
67.500002
21
-45.033825
31
0
39
0
210
0
220
0
230
1
0
LINE
5
1EF
100
AcDbEntity
8
1
62
256
6
ByLayer
370
18
48
1
60
1
100
AcDbLine
10
67.500002
20
-45.033825
30
0
11
67.499998
21
-44.112257
31
0
39
0
210
0
220
0
230
1
0
LINE
5
1F0
100
AcDbEntity
8
1
62
256
6
ByLayer
370
18
48
1
60
1
100
AcDbLine
10
67.499998
20
-44.112257
30
0
11
71
21
-44.573041
31
0
39
0
210
0
220
0
230
1
0
MTEXT
5
1DD
100
AcDbEntity
8
SK2
62
256
6
ByLayer
370
18
48
1
60
0
100
AcDbMText
10
9.968886
20
11.158437
30
0
210
0
220
0
230
1
1
%%c
40
3
41
0
44
1.084337
50
90
71
7
72
5
7
iso_b_vert
0
MTEXT
5
1E0
100
AcDbEntity
8
SK2
62
256
6
ByLayer
370
18
48
1
60
0
100
AcDbMText
10
9.968886
20
17.135
30
0
210
0
220
0
230
1
1
\W0.4657;11
40
3
41
0
44
1.084337
50
90
71
7
72
5
7
iso_b_vert
0
MTEXT
5
1E9
100
AcDbEntity
8
2
62
256
6
ByLayer
370
18
48
1
60
0
100
AcDbMText
10
18.621201
20
-43.687927
30
0
210
0
220
0
230
1
1
\W0.6217;100
40
3
41
0
44
1.084337
50
0
71
7
72
5
7
iso_b_vert
0
MTEXT
5
1F2
100
AcDbEntity
8
SK6
62
256
6
ByLayer
370
18
48
1
60
0
100
AcDbMText
10
4.292773
20
-82.114886
30
0
210
0
220
0
230
1
1
\W0.7489;T300-XM100DB-M14X150C110
40
3
41
0
44
1.084337
50
0
71
7
72
5
7
iso_b_vert
0
HATCH
5
1E4
100
AcDbEntity
8
SK2
62
256
6
ByLayer
370
13
48
1
60
0
100
AcDbHatch
10
0
20
0
30
0
210
0
220
0
230
1
2
ANSI31
70
0
71
0
91
1
92
5
93
3
72
1
10
11.31
20
5.50000000000003
11
11.7707837415528
21
2.00000169255321
72
1
10
11.7707837415528
20
2.00000169255321
11
10.8492162584472
21
1.99999830744685
72
1
10
10.8492162584472
20
1.99999830744685
11
11.31
21
5.50000000000003
97
0
75
0
76
1
52
0
41
0.0062
77
0
78
1
53
45
43
0
44
0
45
-0.0139193969876572
46
0.0139193969876572
79
0
47
0
98
1
10
0
20
0
0
HATCH
5
1E8
100
AcDbEntity
8
SK2
62
256
6
ByLayer
370
13
48
1
60
0
100
AcDbHatch
10
0
20
0
30
0
210
0
220
0
230
1
2
ANSI31
70
0
71
0
91
1
92
5
93
3
72
1
10
11.31
20
-5.5
11
10.8492162584472
21
-2.00000169255318
72
1
10
10.8492162584472
20
-2.00000169255318
11
11.7707837415528
21
-1.99999830744682
72
1
10
11.7707837415528
20
-1.99999830744682
11
11.31
21
-5.5
97
0
75
0
76
1
52
0
41
0.0062
77
0
78
1
53
45
43
0
44
0
45
-0.0139193969876572
46
0.0139193969876572
79
0
47
0
98
1
10
0
20
0
0
HATCH
5
1ED
100
AcDbEntity
8
2
62
256
6
ByLayer
370
13
48
1
60
0
100
AcDbHatch
10
0
20
0
30
0
210
0
220
0
230
1
2
ANSI31
70
0
71
0
91
1
92
5
93
3
72
1
10
-29
20
-44.573041164107
11
-25.5000016925532
21
-44.1122574225543
72
1
10
-25.5000016925532
20
-44.1122574225543
11
-25.4999983074468
21
-45.0338249056598
72
1
10
-25.4999983074468
20
-45.0338249056598
11
-29
21
-44.573041164107
97
0
75
0
76
1
52
0
41
0.0062
77
0
78
1
53
45
43
0
44
0
45
-0.0139193969876572
46
0.0139193969876572
79
0
47
0
98
1
10
0
20
0
0
HATCH
5
1F1
100
AcDbEntity
8
2
62
256
6
ByLayer
370
13
48
1
60
0
100
AcDbHatch
10
0
20
0
30
0
210
0
220
0
230
1
2
ANSI31
70
0
71
0
91
1
92
5
93
3
72
1
10
71.0000000000001
20
-44.573041164107
11
67.5000016925533
21
-45.0338249056598
72
1
10
67.5000016925533
20
-45.0338249056598
11
67.4999983074468
21
-44.1122574225543
72
1
10
67.4999983074468
20
-44.1122574225543
11
71.0000000000001
21
-44.573041164107
97
0
75
0
76
1
52
0
41
0.0062
77
0
78
1
53
45
43
0
44
0
45
-0.0139193969876572
46
0.0139193969876572
79
0
47
0
98
1
10
0
20
0
0
DIMENSION
5
1F5
100
AcDbEntity
8
2
62
256
6
ByLayer
370
18
48
1
60
0
100
AcDbDimension
2
_U0
10
90.5
20
-7.073041
30
0
11
90.5
21
25.787327
31
0
70
32
71
1
72
1
41
1
210
0
220
0
230
1
3
Standard
100
AcDbAlignedDimension
13
71
23
7.073041
33
0
14
71
24
-7.073041
34
0
50
90
100
AcDbRotatedDimension
1001
ACAD
1000
DSTYLE
1002
{
1070
   371
1070
    13
1070
   372
1070
    13
1070
     3
1000

1070
   170
1070
     0
1070
   144
1040
1.0
1070
   277
1070
     2
1070
   284
1070
     8
1070
   278
1070
    46
1070
   146
1040
1.166667
1070
   345
1005
16
1070
   347
1005
16
1070
   346
1005
16
1070
   344
1005
0
1070
   343
1005
0
1070
   172
1070
     1
1070
    76
1070
     0
1070
    75
1070
     0
1070
   282
1070
     0
1070
   281
1070
     0
1070
    71
1070
     0
1070
    74
1070
     0
1070
   279
1070
     0
1070
   173
1070
     1
1070
   340
1005
1DE
1070
   271
1070
     3
1070
   272
1070
     3
1070
    77
1070
     1
1070
    73
1070
     0
1070
   171
1070
     3
1070
   274
1070
     4
1070
   177
1070
     2
1070
   176
1070
     2
1070
   178
1070
     2
1070
    78
1070
     8
1070
    48
1040
-0.1
1070
    41
1040
3.5
1070
   147
1040
1.5
1070
    42
1040
1.5875
1070
    44
1040
2.0
1070
   140
1040
3.0
1002
}
1001
ACAD_DSTYLE_DIM_LINETYPE
1070
   380
1005
16
1001
ACAD_DSTYLE_DIM_EXT1_LINETYPE
1070
   381
1005
16
1001
ACAD_DSTYLE_DIM_EXT2_LINETYPE
1070
   382
1005
16
0
DIMENSION
5
210
100
AcDbEntity
8
SK2
62
256
6
ByLayer
370
18
48
1
60
0
100
AcDbDimension
2
_U1
10
66.87
20
16.061244
30
0
11
68.935
21
16.061244
31
0
70
32
71
1
72
1
41
1
210
0
220
0
230
1
3
Standard
100
AcDbAlignedDimension
13
71
23
7.073041
33
0
14
66.87
24
0
34
0
50
0
100
AcDbRotatedDimension
1001
ACAD
1000
DSTYLE
1002
{
1070
   371
1070
    13
1070
   372
1070
    13
1070
   170
1070
     0
1070
   144
1040
1.0
1070
   277
1070
     2
1070
   284
1070
     8
1070
   278
1070
    46
1070
   146
1040
1.166667
1070
   345
1005
16
1070
   347
1005
16
1070
   346
1005
16
1070
   344
1005
0
1070
   343
1005
0
1070
   172
1070
     1
1070
    76
1070
     0
1070
    75
1070
     0
1070
   282
1070
     0
1070
   281
1070
     0
1070
    71
1070
     0
1070
    74
1070
     0
1070
   279
1070
     0
1070
   173
1070
     1
1070
   340
1005
1DE
1070
   271
1070
     3
1070
   272
1070
     3
1070
    77
1070
     1
1070
    73
1070
     1
1070
   171
1070
     3
1070
   274
1070
     4
1070
   177
1070
     2
1070
   176
1070
     2
1070
   178
1070
     2
1070
    78
1070
     8
1070
    48
1040
-0.1
1070
    41
1040
3.5
1070
   147
1040
1.5
1070
    42
1040
1.5875
1070
    44
1040
2.0
1070
   140
1040
3.0
1002
}
1001
ACAD_DSTYLE_DIM_LINETYPE
1070
   380
1005
16
1001
ACAD_DSTYLE_DIM_EXT1_LINETYPE
1070
   381
1005
16
1001
ACAD_DSTYLE_DIM_EXT2_LINETYPE
1070
   382
1005
16
0
DIMENSION
5
22A
100
AcDbEntity
8
SK2
62
256
6
ByLayer
370
18
48
1
60
0
100
AcDbDimension
2
_U2
10
56
20
-14.073041
30
0
11
84.714286
21
-14.073041
31
0
70
32
71
1
72
1
41
1
210
0
220
0
230
1
3
Standard
100
AcDbAlignedDimension
13
71
23
-7.073041
33
0
14
56
24
-7.073041
34
0
50
0
100
AcDbRotatedDimension
1001
ACAD
1000
DSTYLE
1002
{
1070
   371
1070
    13
1070
   372
1070
    13
1070
   170
1070
     0
1070
   144
1040
1.0
1070
   277
1070
     2
1070
   284
1070
     8
1070
   278
1070
    46
1070
   146
1040
0.833333
1070
   345
1005
16
1070
   347
1005
16
1070
   346
1005
16
1070
   344
1005
0
1070
   343
1005
0
1070
   172
1070
     1
1070
    76
1070
     0
1070
    75
1070
     0
1070
   282
1070
     0
1070
   281
1070
     0
1070
    47
1040
0.5
1070
    72
1070
     0
1070
    71
1070
     1
1070
    74
1070
     0
1070
   279
1070
     0
1070
   173
1070
     1
1070
   340
1005
1DE
1070
   271
1070
     1
1070
   272
1070
     3
1070
    77
1070
     1
1070
    73
1070
     1
1070
   171
1070
     3
1070
   274
1070
     4
1070
   177
1070
     2
1070
   176
1070
     2
1070
   178
1070
     2
1070
    78
1070
     8
1070
    48
1040
0.5
1070
    41
1040
3.5
1070
   147
1040
1.5
1070
    42
1040
1.5875
1070
    44
1040
2.0
1070
   140
1040
3.0
1002
}
1001
ACAD_DSTYLE_DIM_LINETYPE
1070
   380
1005
16
1001
ACAD_DSTYLE_DIM_EXT1_LINETYPE
1070
   381
1005
16
1001
ACAD_DSTYLE_DIM_EXT2_LINETYPE
1070
   382
1005
16
0
DIMENSION
5
245
100
AcDbEntity
8
SK2
62
256
6
ByLayer
370
18
48
1
60
0
100
AcDbDimension
2
_U3
10
21
20
-36.573041
30
0
11
46
21
-36.573041
31
0
70
32
71
1
72
1
41
1
210
0
220
0
230
1
3
Standard
100
AcDbAlignedDimension
13
71
23
-7.073041
33
0
14
21
24
-5.35
34
0
50
0
100
AcDbRotatedDimension
1001
ACAD
1000
DSTYLE
1002
{
1070
   371
1070
    13
1070
   372
1070
    13
1070
   170
1070
     0
1070
   144
1040
1.0
1070
   277
1070
     2
1070
   284
1070
     8
1070
   278
1070
    46
1070
   146
1040
1.166667
1070
   345
1005
16
1070
   347
1005
16
1070
   346
1005
16
1070
   344
1005
0
1070
   343
1005
0
1070
   172
1070
     1
1070
    76
1070
     0
1070
    75
1070
     0
1070
   282
1070
     0
1070
   281
1070
     0
1070
    71
1070
     0
1070
    74
1070
     0
1070
   279
1070
     0
1070
   173
1070
     1
1070
   340
1005
1DE
1070
   271
1070
     1
1070
   272
1070
     3
1070
    77
1070
     1
1070
    73
1070
     1
1070
   171
1070
     3
1070
   274
1070
     4
1070
   177
1070
     2
1070
   176
1070
     2
1070
   178
1070
     2
1070
    78
1070
     8
1070
    48
1040
-0.1
1070
    41
1040
3.5
1070
   147
1040
1.5
1070
    42
1040
1.5875
1070
    44
1040
2.0
1070
   140
1040
3.0
1002
}
1001
ACAD_DSTYLE_DIM_LINETYPE
1070
   380
1005
16
1001
ACAD_DSTYLE_DIM_EXT1_LINETYPE
1070
   381
1005
16
1001
ACAD_DSTYLE_DIM_EXT2_LINETYPE
1070
   382
1005
16
0
DIMENSION
5
25D
100
AcDbEntity
8
2
62
256
6
ByLayer
370
18
48
1
60
0
100
AcDbDimension
2
_U4
10
28.5
20
-25.573041
30
0
11
49.75
21
-25.573041
31
0
70
32
71
1
72
1
41
1
210
0
220
0
230
1
3
Standard
100
AcDbAlignedDimension
13
71
23
-7.073041
33
0
14
28.5
24
0
34
0
50
0
100
AcDbRotatedDimension
1001
ACAD
1000
DSTYLE
1002
{
1070
   371
1070
    13
1070
   372
1070
    13
1070
   170
1070
     0
1070
   144
1040
1.0
1070
   277
1070
     2
1070
   284
1070
     8
1070
   278
1070
    46
1070
   146
1040
1.166667
1070
   345
1005
16
1070
   347
1005
16
1070
   346
1005
16
1070
   344
1005
0
1070
   343
1005
0
1070
   172
1070
     1
1070
    76
1070
     0
1070
    75
1070
     0
1070
   282
1070
     0
1070
   281
1070
     0
1070
    71
1070
     0
1070
    74
1070
     0
1070
   279
1070
     0
1070
   173
1070
     1
1070
   340
1005
1DE
1070
   271
1070
     1
1070
   272
1070
     3
1070
    77
1070
     1
1070
    73
1070
     1
1070
   171
1070
     3
1070
   274
1070
     4
1070
   177
1070
     2
1070
   176
1070
     2
1070
   178
1070
     2
1070
    78
1070
     8
1070
    48
1040
-0.1
1070
    41
1040
3.5
1070
   147
1040
1.5
1070
    42
1040
1.5875
1070
    44
1040
2.0
1070
   140
1040
3.0
1002
}
1001
ACAD_DSTYLE_DIM_LINETYPE
1070
   380
1005
16
1001
ACAD_DSTYLE_DIM_EXT1_LINETYPE
1070
   381
1005
16
1001
ACAD_DSTYLE_DIM_EXT2_LINETYPE
1070
   382
1005
16
0
ENDSEC
0
SECTION
2
OBJECTS
0
DICTIONARY
5
2e5
330
0
100
AcDbDictionary
280
0
281
1
3
ACAD_GROUP
350
2e6
3
ACAD_MLINESTYLE
350
2e7
0
DICTIONARY
5
2e6
330
0
100
AcDbDictionary
280
0
281
1
0
DICTIONARY
5
2e7
330
0
100
AcDbDictionary
280
0
281
1
3
Standard
350
18
0
MLINESTYLE
5
18
330
2e7
100
AcDbMlineStyle
2
Standard
70
0
3

62
256
51
90
52
90
71
2
49
-0.5
62
256
6
ByLayer
49
0.5
62
256
6
ByLayer
0
RASTERVARIABLES
5
2d3
330

100
AcDbRasterVariables
90
0
70
1
71
1
72
1
0
ENDSEC
0
EOF
