  0
SECTION
  2
HEADER
  9
$ACADVER
  1
AC1015
  9
$ACADMAINTVER
 70
    20
  9
$DWGCODEPAGE
  3
ANSI_1252
  9
$INSBASE
 10
0.0
 20
0.0
 30
0.0
  9
$EXTMIN
 10
-80.34252758829689
 20
-46.30020027083832
 30
-0.0015258207003583
  9
$EXTMAX
 10
95.07197681869365
 20
94.20959553472881
 30
0.0000000349246037
  9
$LIMMIN
 10
-170.0
 20
-170.0
  9
$LIMMAX
 10
519.0
 20
260.0
  9
$ORTHOMODE
 70
     0
  9
$REGENMODE
 70
     1
  9
$FILLMODE
 70
     1
  9
$QTEXTMODE
 70
     0
  9
$MIRRTEXT
 70
     0
  9
$LTSCALE
 40
1.0
  9
$ATTMODE
 70
     1
  9
$TEXTSIZE
 40
3.5
  9
$TRACEWID
 40
1.0
  9
$TEXTSTYLE
  7
SIMPLEX
  9
$CLAYER
  8
1
  9
$CELTYPE
  6
BYLAYER
  9
$CECOLOR
 62
   256
  9
$CELTSCALE
 40
1.0
  9
$DISPSILH
 70
     0
  9
$DIMSCALE
 40
1.0
  9
$DIMASZ
 40
2.5
  9
$DIMEXO
 40
0.0
  9
$DIMDLI
 40
3.75
  9
$DIMRND
 40
0.0
  9
$DIMDLE
 40
0.0
  9
$DIMEXE
 40
1.25
  9
$DIMTP
 40
0.0
  9
$DIMTM
 40
0.0
  9
$DIMTXT
 40
3.5
  9
$DIMCEN
 40
0.0
  9
$DIMTSZ
 40
0.0
  9
$DIMTOL
 70
     0
  9
$DIMLIM
 70
     0
  9
$DIMTIH
 70
     0
  9
$DIMTOH
 70
     0
  9
$DIMSE1
 70
     0
  9
$DIMSE2
 70
     0
  9
$DIMTAD
 70
     1
  9
$DIMZIN
 70
     8
  9
$DIMBLK
  1

  9
$DIMASO
 70
     1
  9
$DIMSHO
 70
     1
  9
$DIMPOST
  1

  9
$DIMAPOST
  1

  9
$DIMALT
 70
     0
  9
$DIMALTD
 70
     3
  9
$DIMALTF
 40
0.039370078
  9
$DIMLFAC
 40
1.0
  9
$DIMTOFL
 70
     0
  9
$DIMTVP
 40
0.0
  9
$DIMTIX
 70
     0
  9
$DIMSOXD
 70
     0
  9
$DIMSAH
 70
     0
  9
$DIMBLK1
  1

  9
$DIMBLK2
  1

  9
$DIMSTYLE
  2
STANDARD
  9
$DIMCLRD
 70
     0
  9
$DIMCLRE
 70
     0
  9
$DIMCLRT
 70
     0
  9
$DIMTFAC
 40
1.0
  9
$DIMGAP
 40
0.625
  9
$DIMJUST
 70
     0
  9
$DIMSD1
 70
     0
  9
$DIMSD2
 70
     0
  9
$DIMTOLJ
 70
     0
  9
$DIMTZIN
 70
     8
  9
$DIMALTZ
 70
     0
  9
$DIMALTTZ
 70
     0
  9
$DIMUPT
 70
     0
  9
$DIMDEC
 70
     2
  9
$DIMTDEC
 70
     2
  9
$DIMALTU
 70
     2
  9
$DIMALTTD
 70
     3
  9
$DIMTXSTY
  7
SIMPLEX
  9
$DIMAUNIT
 70
     0
  9
$DIMADEC
 70
     2
  9
$DIMALTRND
 40
0.0
  9
$DIMAZIN
 70
     2
  9
$DIMDSEP
 70
    46
  9
$DIMATFIT
 70
     3
  9
$DIMFRAC
 70
     0
  9
$DIMLDRBLK
  1

  9
$DIMLUNIT
 70
     2
  9
$DIMLWD
 70
    -2
  9
$DIMLWE
 70
    -2
  9
$DIMTMOVE
 70
     0
  9
$LUNITS
 70
     2
  9
$LUPREC
 70
     4
  9
$SKETCHINC
 40
1.0
  9
$FILLETRAD
 40
0.0
  9
$AUNITS
 70
     0
  9
$AUPREC
 70
     0
  9
$MENU
  1
c:\tdm21\cad\caduti13\tdm13
  9
$ELEVATION
 40
0.0
  9
$PELEVATION
 40
0.0
  9
$THICKNESS
 40
0.0
  9
$LIMCHECK
 70
     0
  9
$CHAMFERA
 40
0.0
  9
$CHAMFERB
 40
0.0
  9
$CHAMFERC
 40
0.0
  9
$CHAMFERD
 40
0.0
  9
$SKPOLY
 70
     0
  9
$TDCREATE
 40
2454957.593642639
  9
$TDUCREATE
 40
2454957.510309306
  9
$TDUPDATE
 40
2456818.719450232
  9
$TDUUPDATE
 40
2456818.636116898
  9
$TDINDWG
 40
0.0009756829
  9
$TDUSRTIMER
 40
0.0009586921
  9
$USRTIMER
 70
     1
  9
$ANGBASE
 50
0.0
  9
$ANGDIR
 70
     0
  9
$PDMODE
 70
     1
  9
$PDSIZE
 40
0.0
  9
$PLINEWID
 40
0.0
  9
$SPLFRAME
 70
     0
  9
$SPLINETYPE
 70
     6
  9
$SPLINESEGS
 70
     8
  9
$HANDSEED
  5
6BE
  9
$SURFTAB1
 70
     6
  9
$SURFTAB2
 70
     6
  9
$SURFTYPE
 70
     6
  9
$SURFU
 70
     6
  9
$SURFV
 70
     6
  9
$UCSBASE
  2

  9
$UCSNAME
  2

  9
$UCSORG
 10
0.0
 20
0.0
 30
0.0
  9
$UCSXDIR
 10
1.0
 20
0.0
 30
0.0
  9
$UCSYDIR
 10
0.0
 20
1.0
 30
0.0
  9
$UCSORTHOREF
  2

  9
$UCSORTHOVIEW
 70
     0
  9
$UCSORGTOP
 10
0.0
 20
0.0
 30
0.0
  9
$UCSORGBOTTOM
 10
0.0
 20
0.0
 30
0.0
  9
$UCSORGLEFT
 10
0.0
 20
0.0
 30
0.0
  9
$UCSORGRIGHT
 10
0.0
 20
0.0
 30
0.0
  9
$UCSORGFRONT
 10
0.0
 20
0.0
 30
0.0
  9
$UCSORGBACK
 10
0.0
 20
0.0
 30
0.0
  9
$PUCSBASE
  2

  9
$PUCSNAME
  2

  9
$PUCSORG
 10
0.0
 20
0.0
 30
0.0
  9
$PUCSXDIR
 10
1.0
 20
0.0
 30
0.0
  9
$PUCSYDIR
 10
0.0
 20
1.0
 30
0.0
  9
$PUCSORTHOREF
  2

  9
$PUCSORTHOVIEW
 70
     0
  9
$PUCSORGTOP
 10
0.0
 20
0.0
 30
0.0
  9
$PUCSORGBOTTOM
 10
0.0
 20
0.0
 30
0.0
  9
$PUCSORGLEFT
 10
0.0
 20
0.0
 30
0.0
  9
$PUCSORGRIGHT
 10
0.0
 20
0.0
 30
0.0
  9
$PUCSORGFRONT
 10
0.0
 20
0.0
 30
0.0
  9
$PUCSORGBACK
 10
0.0
 20
0.0
 30
0.0
  9
$USERI1
 70
     0
  9
$USERI2
 70
     0
  9
$USERI3
 70
     0
  9
$USERI4
 70
     0
  9
$USERI5
 70
     0
  9
$USERR1
 40
0.0
  9
$USERR2
 40
0.0
  9
$USERR3
 40
0.0
  9
$USERR4
 40
0.0
  9
$USERR5
 40
0.0
  9
$WORLDVIEW
 70
     1
  9
$SHADEDGE
 70
     3
  9
$SHADEDIF
 70
    70
  9
$TILEMODE
 70
     1
  9
$MAXACTVP
 70
    64
  9
$PINSBASE
 10
0.0
 20
0.0
 30
0.0
  9
$PLIMCHECK
 70
     0
  9
$PEXTMIN
 10
0.0
 20
0.0
 30
0.0
  9
$PEXTMAX
 10
0.0
 20
0.0
 30
0.0
  9
$PLIMMIN
 10
0.0
 20
0.0
  9
$PLIMMAX
 10
12.0
 20
9.0
  9
$UNITMODE
 70
     0
  9
$VISRETAIN
 70
     0
  9
$PLINEGEN
 70
     0
  9
$PSLTSCALE
 70
     1
  9
$TREEDEPTH
 70
  3020
  9
$CMLSTYLE
  2
STANDARD
  9
$CMLJUST
 70
     0
  9
$CMLSCALE
 40
20.0
  9
$PROXYGRAPHICS
 70
     1
  9
$MEASUREMENT
 70
     1
  9
$CELWEIGHT
370
    -1
  9
$ENDCAPS
280
     0
  9
$JOINSTYLE
280
     0
  9
$LWDISPLAY
290
     0
  9
$INSUNITS
 70
     4
  9
$HYPERLINKBASE
  1

  9
$STYLESHEET
  1
MONOCHROME.CTB
  9
$XEDIT
290
     1
  9
$CEPSNTYPE
380
     0
  9
$PSTYLEMODE
290
     1
  9
$FINGERPRINTGUID
  2
{46B44192-1510-48B1-B61B-CBE2ADA013A7}
  9
$VERSIONGUID
  2
{5C9A27CB-EE9C-4009-BAB5-723BC01BF2E9}
  9
$EXTNAMES
290
     1
  9
$PSVPSCALE
 40
0.0
  9
$OLESTARTUP
290
     0
  0
ENDSEC
  0
SECTION
  2
CLASSES
  0
CLASS
  1
ACDBDICTIONARYWDFLT
  2
AcDbDictionaryWithDefault
  3
ObjectDBX Classes
 90
        0
280
     0
281
     0
  0
CLASS
  1
ACDBPLACEHOLDER
  2
AcDbPlaceHolder
  3
ObjectDBX Classes
 90
        0
280
     0
281
     0
  0
CLASS
  1
LAYOUT
  2
AcDbLayout
  3
ObjectDBX Classes
 90
        0
280
     0
281
     0
  0
CLASS
  1
DICTIONARYVAR
  2
AcDbDictionaryVar
  3
ObjectDBX Classes
 90
        0
280
     0
281
     0
  0
CLASS
  1
TABLESTYLE
  2
AcDbTableStyle
  3
ObjectDBX Classes
 90
     4095
280
     0
281
     0
  0
CLASS
  1
SCALE
  2
AcDbScale
  3
ObjectDBX Classes
 90
     1153
280
     0
281
     0
  0
CLASS
  1
MATERIAL
  2
AcDbMaterial
  3
ObjectDBX Classes
 90
     1153
280
     0
281
     0
  0
CLASS
  1
VISUALSTYLE
  2
AcDbVisualStyle
  3
ObjectDBX Classes
 90
     4095
280
     0
281
     0
  0
CLASS
  1
MLEADERSTYLE
  2
AcDbMLeaderStyle
  3
ACDB_MLEADERSTYLE_CLASS
 90
     4095
280
     0
281
     0
  0
CLASS
  1
ACDBSECTIONVIEWSTYLE
  2
AcDbSectionViewStyle
  3
ObjectDBX Classes
 90
     1025
280
     0
281
     0
  0
CLASS
  1
ACDBDETAILVIEWSTYLE
  2
AcDbDetailViewStyle
  3
ObjectDBX Classes
 90
     1025
280
     0
281
     0
  0
CLASS
  1
EXACXREFPANELOBJECT
  2
ExAcXREFPanelObject
  3
EXAC_ESW
 90
     1025
280
     0
281
     0
  0
CLASS
  1
NPOCOLLECTION
  2
AcDbImpNonPersistentObjectsCollection
  3
ObjectDBX Classes
 90
     1153
280
     0
281
     0
  0
CLASS
  1
CELLSTYLEMAP
  2
AcDbCellStyleMap
  3
ObjectDBX Classes
 90
     1152
280
     0
281
     0
  0
ENDSEC
  0
SECTION
  2
TABLES
  0
TABLE
  2
VPORT
  5
8
330
0
100
AcDbSymbolTable
 70
     1
  0
VPORT
  5
39A
330
8
100
AcDbSymbolTableRecord
100
AcDbViewportTableRecord
  2
*Active
 70
     0
 10
0.0
 20
0.0
 11
1.0
 21
1.0
 12
7.364724615198369
 22
23.95469763194524
 13
0.0
 23
0.0
 14
5.0
 24
5.0
 15
5.0
 25
5.0
 16
0.0
 26
0.0
 36
1.0
 17
0.0
 27
0.0
 37
0.0
 40
157.2424881290371
 41
2.220359281437125
 42
50.0
 43
0.0
 44
0.0
 50
0.0
 51
0.0
 71
     0
 72
  2000
 73
     1
 74
     1
 75
     0
 76
     0
 77
     0
 78
     0
281
     0
 65
     1
110
0.0
120
0.0
130
0.0
111
1.0
121
0.0
131
0.0
112
0.0
122
1.0
132
0.0
 79
     0
146
0.0
1001
ACAD_NAV_VCDISPLAY
1070
     3
  0
ENDTAB
  0
TABLE
  2
LTYPE
  5
5
330
0
100
AcDbSymbolTable
 70
     3
  0
LTYPE
  5
12
330
5
100
AcDbSymbolTableRecord
100
AcDbLinetypeTableRecord
  2
BYBLOCK
 70
     0
  3

 72
    65
 73
     0
 40
0.0
  0
LTYPE
  5
13
330
5
100
AcDbSymbolTableRecord
100
AcDbLinetypeTableRecord
  2
BYLAYER
 70
     0
  3

 72
    65
 73
     0
 40
0.0
  0
LTYPE
  5
14
330
5
100
AcDbSymbolTableRecord
100
AcDbLinetypeTableRecord
  2
CONTINUOUS
 70
     0
  3
Solid line
 72
    65
 73
     0
 40
0.0
  0
LTYPE
  5
20
330
5
100
AcDbSymbolTableRecord
100
AcDbLinetypeTableRecord
  2
HIDDEN
 70
     0
  3
Hidden __ __ __ __ __ __ __ __ __ __ __ __ __ _
 72
    65
 73
     2
 40
9.524999999999996
 49
6.349999999999997
 74
     0
 49
-3.174999999999998
 74
     0
  0
LTYPE
  5
351
330
5
100
AcDbSymbolTableRecord
100
AcDbLinetypeTableRecord
  2
CENTER
 70
     0
  3
Dash dot __ . __ . __ . __ . __ . __ . __ . __
 72
    65
 73
     4
 40
25.4
 49
12.7
 74
     0
 49
-6.349999999999997
 74
     0
 49
0.0
 74
     0
 49
-6.349999999999997
 74
     0
  0
ENDTAB
  0
TABLE
  2
LAYER
  5
2
330
0
100
AcDbSymbolTable
 70
    16
  0
LAYER
  5
F
102
{ACAD_XDICTIONARY
360
65B
102
}
330
2
100
AcDbSymbolTableRecord
100
AcDbLayerTableRecord
  2
0
 70
     0
 62
     7
  6
CONTINUOUS
370
    -3
390
300
  0
LAYER
  5
23
102
{ACAD_XDICTIONARY
360
65D
102
}
330
2
100
AcDbSymbolTableRecord
100
AcDbLayerTableRecord
  2
1
 70
     0
 62
     4
  6
CONTINUOUS
370
    -3
390
300
  0
LAYER
  5
24
102
{ACAD_XDICTIONARY
360
65F
102
}
330
2
100
AcDbSymbolTableRecord
100
AcDbLayerTableRecord
  2
SK1
 70
     0
 62
     4
  6
CONTINUOUS
370
    -3
390
300
  0
LAYER
  5
25
102
{ACAD_XDICTIONARY
360
661
102
}
330
2
100
AcDbSymbolTableRecord
100
AcDbLayerTableRecord
  2
2
 70
     0
 62
     7
  6
CONTINUOUS
370
    -3
390
300
  0
LAYER
  5
26
102
{ACAD_XDICTIONARY
360
663
102
}
330
2
100
AcDbSymbolTableRecord
100
AcDbLayerTableRecord
  2
2L
 70
     0
 62
     7
  6
CONTINUOUS
370
    -3
390
300
  0
LAYER
  5
27
102
{ACAD_XDICTIONARY
360
665
102
}
330
2
100
AcDbSymbolTableRecord
100
AcDbLayerTableRecord
  2
SK2
 70
     0
 62
     7
  6
CONTINUOUS
370
    -3
390
300
  0
LAYER
  5
28
102
{ACAD_XDICTIONARY
360
667
102
}
330
2
100
AcDbSymbolTableRecord
100
AcDbLayerTableRecord
  2
3
 70
     0
 62
     1
  6
HIDDEN
370
    -3
390
300
  0
LAYER
  5
29
102
{ACAD_XDICTIONARY
360
669
102
}
330
2
100
AcDbSymbolTableRecord
100
AcDbLayerTableRecord
  2
SK3
 70
     0
 62
     1
  6
HIDDEN
370
    -3
390
300
  0
LAYER
  5
2A
102
{ACAD_XDICTIONARY
360
66B
102
}
330
2
100
AcDbSymbolTableRecord
100
AcDbLayerTableRecord
  2
4
 70
     0
 62
     2
  6
CENTER
370
    -3
390
300
  0
LAYER
  5
2B
102
{ACAD_XDICTIONARY
360
66D
102
}
330
2
100
AcDbSymbolTableRecord
100
AcDbLayerTableRecord
  2
SK4
 70
     0
 62
     2
  6
CENTER
370
    -3
390
300
  0
LAYER
  5
2C
102
{ACAD_XDICTIONARY
360
66F
102
}
330
2
100
AcDbSymbolTableRecord
100
AcDbLayerTableRecord
  2
5
 70
     0
 62
    -7
  6
CONTINUOUS
370
    -3
390
300
  0
LAYER
  5
2D
102
{ACAD_XDICTIONARY
360
671
102
}
330
2
100
AcDbSymbolTableRecord
100
AcDbLayerTableRecord
  2
6
 70
     0
 62
     5
  6
CONTINUOUS
370
    -3
390
300
  0
LAYER
  5
2E
102
{ACAD_XDICTIONARY
360
673
102
}
330
2
100
AcDbSymbolTableRecord
100
AcDbLayerTableRecord
  2
SK6
 70
     0
 62
     5
  6
CONTINUOUS
370
    -3
390
300
  0
LAYER
  5
2F
330
2
100
AcDbSymbolTableRecord
100
AcDbLayerTableRecord
  2
DEFPOINTS
 70
     0
 62
     7
  6
CONTINUOUS
290
     0
370
    -3
390
300
  0
LAYER
  5
375
102
{ACAD_XDICTIONARY
360
675
102
}
330
2
100
AcDbSymbolTableRecord
100
AcDbLayerTableRecord
  2
CUT
 70
     0
 62
     1
  6
CONTINUOUS
370
    -3
390
300
  0
LAYER
  5
376
102
{ACAD_XDICTIONARY
360
677
102
}
330
2
100
AcDbSymbolTableRecord
100
AcDbLayerTableRecord
  2
NOCUT
 70
     0
 62
     7
  6
CONTINUOUS
370
    -3
390
300
  0
ENDTAB
  0
TABLE
  2
STYLE
  5
3
330
0
100
AcDbSymbolTable
 70
     4
  0
STYLE
  5
10
330
3
100
AcDbSymbolTableRecord
100
AcDbTextStyleTableRecord
  2
STANDARD
 70
     0
 40
0.0
 41
1.0
 50
0.0
 71
     0
 42
5.0
  3
txt
  4

  0
STYLE
  5
1D
330
3
100
AcDbSymbolTableRecord
100
AcDbTextStyleTableRecord
  2
TXT
 70
     0
 40
8.0
 41
1.0
 50
0.0
 71
     0
 42
8.0
  3
txt
  4

  0
STYLE
  5
1E
330
3
100
AcDbSymbolTableRecord
100
AcDbTextStyleTableRecord
  2
SIMPLEX
 70
     0
 40
0.0
 41
1.0
 50
0.0
 71
     0
 42
3.5
  3
simplex
  4

  0
STYLE
  5
34C
330
3
100
AcDbSymbolTableRecord
100
AcDbTextStyleTableRecord
  2

 70
     1
 40
0.0
 41
1.0
 50
0.0
 71
     0
 42
2.5
  3
ltypeshp.shx
  4

  0
ENDTAB
  0
TABLE
  2
VIEW
  5
6
330
0
100
AcDbSymbolTable
 70
     0
  0
ENDTAB
  0
TABLE
  2
UCS
  5
7
330
0
100
AcDbSymbolTable
 70
     0
  0
ENDTAB
  0
TABLE
  2
APPID
  5
9
330
0
100
AcDbSymbolTable
 70
     3
  0
APPID
  5
11
330
9
100
AcDbSymbolTableRecord
100
AcDbRegAppTableRecord
  2
ACAD
 70
     0
  0
APPID
  5
67F
330
9
100
AcDbSymbolTableRecord
100
AcDbRegAppTableRecord
  2
ACAD_NAV_VCDISPLAY
 70
     0
  0
APPID
  5
6BD
330
9
100
AcDbSymbolTableRecord
100
AcDbRegAppTableRecord
  2
ACAD_MLEADERVER
 70
     0
  0
ENDTAB
  0
TABLE
  2
DIMSTYLE
  5
A
330
0
100
AcDbSymbolTable
 70
     1
100
AcDbDimStyleTable
 71
     0
  0
DIMSTYLE
105
3F
102
{ACAD_REACTORS
330
5D4
330
5E2
330
5EF
330
5FC
330
609
102
}
330
A
100
AcDbSymbolTableRecord
100
AcDbDimStyleTableRecord
  2
STANDARD
 70
     0
 41
2.5
 42
0.0
 43
3.75
 44
1.25
 73
     0
 74
     0
 77
     1
 78
     8
 79
     2
140
3.5
141
0.0
143
0.039370078
147
0.625
171
     3
179
     2
271
     2
272
     2
274
     3
283
     0
284
     8
340
1E
  0
ENDTAB
  0
TABLE
  2
BLOCK_RECORD
  5
1
330
0
100
AcDbSymbolTable
 70
     5
  0
BLOCK_RECORD
  5
18
330
1
100
AcDbSymbolTableRecord
100
AcDbBlockTableRecord
  2
*MODEL_SPACE
340
303
  0
BLOCK_RECORD
  5
338
330
1
100
AcDbSymbolTableRecord
100
AcDbBlockTableRecord
  2
*Paper_Space
340
33B
  0
BLOCK_RECORD
  5
5D5
330
1
100
AcDbSymbolTableRecord
100
AcDbBlockTableRecord
  2
*D0
340
0
  0
BLOCK_RECORD
  5
5E3
330
1
100
AcDbSymbolTableRecord
100
AcDbBlockTableRecord
  2
*D1
340
0
  0
BLOCK_RECORD
  5
5F0
330
1
100
AcDbSymbolTableRecord
100
AcDbBlockTableRecord
  2
*D2
340
0
  0
BLOCK_RECORD
  5
5FD
330
1
100
AcDbSymbolTableRecord
100
AcDbBlockTableRecord
  2
*D3
340
0
  0
BLOCK_RECORD
  5
60A
330
1
100
AcDbSymbolTableRecord
100
AcDbBlockTableRecord
  2
*D4
340
0
  0
ENDTAB
  0
ENDSEC
  0
SECTION
  2
BLOCKS
  0
BLOCK
  5
32
330
18
100
AcDbEntity
  8
0
100
AcDbBlockBegin
  2
*MODEL_SPACE
 70
     0
 10
0.0
 20
0.0
 30
0.0
  3
*MODEL_SPACE
  1

  0
ENDBLK
  5
33
330
18
100
AcDbEntity
  8
0
100
AcDbBlockEnd
  0
BLOCK
  5
339
330
338
100
AcDbEntity
 67
     1
  8
0
100
AcDbBlockBegin
  2
*Paper_Space
 70
     0
 10
0.0
 20
0.0
 30
0.0
  3
*Paper_Space
  1

  0
ENDBLK
  5
33A
330
338
100
AcDbEntity
 67
     1
  8
0
100
AcDbBlockEnd
  0
BLOCK
  5
5E0
330
5D5
100
AcDbEntity
  8
0
100
AcDbBlockBegin
  2
*D0
 70
     1
 10
0.0
 20
0.0
 30
0.0
  3
*D0
  1

  0
LINE
  5
5D6
330
5D5
100
AcDbEntity
  8
2
 62
     0
370
    -2
100
AcDbLine
 10
78.79999999999999
 20
13.146
 30
0.0
 11
95.05
 21
13.14600000000006
 31
0.0
  0
LINE
  5
5D7
330
5D5
100
AcDbEntity
  8
2
 62
     0
370
    -2
100
AcDbLine
 10
78.79999999999999
 20
-13.146
 30
0.0
 11
95.05000000000009
 21
-13.14599999999995
 31
0.0
  0
LINE
  5
5D8
330
5D5
100
AcDbEntity
  8
2
 62
     0
370
    -2
100
AcDbLine
 10
93.80000000000009
 20
-13.14599999999995
 30
0.0
 11
93.80000000000022
 21
-46.29949999999996
 31
0.0
  0
LINE
  5
5D9
330
5D5
100
AcDbEntity
  8
2
 62
     0
370
    -2
100
AcDbLine
 10
93.80000000000004
 20
10.64600000000005
 30
0.0
 11
93.80000000000007
 21
-10.64599999999995
 31
0.0
  0
SOLID
  5
5DA
330
5D5
100
AcDbEntity
  8
2
 62
     0
100
AcDbTrace
 10
94.2166666666667
 20
10.64600000000006
 30
0.0
 11
93.38333333333336
 21
10.64600000000005
 31
0.0
 12
93.8
 22
13.14600000000005
 32
0.0
 13
93.8
 23
13.14600000000005
 33
0.0
  0
SOLID
  5
5DB
330
5D5
100
AcDbEntity
  8
2
 62
     0
100
AcDbTrace
 10
93.3833333333334
 20
-10.64599999999995
 30
0.0
 11
94.21666666666677
 21
-10.64599999999995
 31
0.0
 12
93.80000000000009
 22
-13.14599999999995
 32
0.0
 13
93.80000000000009
 23
-13.14599999999995
 33
0.0
  0
MTEXT
  5
5DC
330
5D5
100
AcDbEntity
  8
2
 62
     0
100
AcDbMText
 10
90.60075000000015
 20
-30.97274999999997
 30
0.0
 40
3.5
 41
0.0
 71
     5
 72
     1
  1
NPT3/4-14
  7
SIMPLEX
 11
-0.0000000000000032
 21
1.0
 31
0.0
 73
     1
 44
1.0
1001
ACAD
1000
MTEXTBEGIN
1070
    73
1070
     1
1070
    44
1040
1.0
1070
    74
1070
     0
1000
MTEXTEND
  0
POINT
  5
5DD
330
5D5
100
AcDbEntity
  8
DEFPOINTS
 62
     0
100
AcDbPoint
 10
78.79999999999999
 20
13.146
 30
0.0
  0
POINT
  5
5DE
330
5D5
100
AcDbEntity
  8
DEFPOINTS
 62
     0
100
AcDbPoint
 10
78.79999999999999
 20
-13.146
 30
0.0
  0
POINT
  5
5DF
330
5D5
100
AcDbEntity
  8
DEFPOINTS
 62
     0
100
AcDbPoint
 10
93.80000000000009
 20
-13.14599999999995
 30
0.0
  0
ENDBLK
  5
5E1
330
5D5
100
AcDbEntity
  8
0
100
AcDbBlockEnd
  0
BLOCK
  5
5ED
330
5E3
100
AcDbEntity
  8
0
100
AcDbBlockBegin
  2
*D1
 70
     1
 10
0.0
 20
0.0
 30
0.0
  3
*D1
  1

  0
LINE
  5
5E4
330
5E3
100
AcDbEntity
  8
2
 62
     0
370
    -2
100
AcDbLine
 10
0.0
 20
11.35
 30
0.0
 11
0.0
 21
76.25
 31
0.0
  0
LINE
  5
5E5
330
5E3
100
AcDbEntity
  8
2
 62
     0
370
    -2
100
AcDbLine
 10
78.79999999999999
 20
13.146
 30
0.0
 11
78.79999999999999
 21
76.25
 31
0.0
  0
LINE
  5
5E6
330
5E3
100
AcDbEntity
  8
2
 62
     0
370
    -2
100
AcDbLine
 10
2.5
 20
75.0
 30
0.0
 11
76.29999999999999
 21
75.0
 31
0.0
  0
SOLID
  5
5E7
330
5E3
100
AcDbEntity
  8
2
 62
     0
100
AcDbTrace
 10
2.5
 20
75.41666666666667
 30
0.0
 11
2.5
 21
74.58333333333333
 31
0.0
 12
0.0
 22
75.0
 32
0.0
 13
0.0
 23
75.0
 33
0.0
  0
SOLID
  5
5E8
330
5E3
100
AcDbEntity
  8
2
 62
     0
100
AcDbTrace
 10
76.29999999999999
 20
74.58333333333333
 30
0.0
 11
76.29999999999999
 21
75.41666666666667
 31
0.0
 12
78.79999999999999
 22
75.0
 32
0.0
 13
78.79999999999999
 23
75.0
 33
0.0
  0
MTEXT
  5
5E9
330
5E3
100
AcDbEntity
  8
2
 62
     0
100
AcDbMText
 10
39.4
 20
77.39775
 30
0.0
 40
3.5
 41
0.0
 71
     5
 72
     1
  1
78.8
  7
SIMPLEX
 73
     1
 44
1.0
1001
ACAD
1000
MTEXTBEGIN
1070
    73
1070
     1
1070
    44
1040
1.0
1070
    74
1070
     0
1000
MTEXTEND
  0
POINT
  5
5EA
330
5E3
100
AcDbEntity
  8
DEFPOINTS
 62
     0
100
AcDbPoint
 10
0.0
 20
11.35
 30
0.0
  0
POINT
  5
5EB
330
5E3
100
AcDbEntity
  8
DEFPOINTS
 62
     0
100
AcDbPoint
 10
78.79999999999999
 20
13.146
 30
0.0
  0
POINT
  5
5EC
330
5E3
100
AcDbEntity
  8
DEFPOINTS
 62
     0
100
AcDbPoint
 10
78.79999999999999
 20
75.0
 30
0.0
  0
ENDBLK
  5
5EE
330
5E3
100
AcDbEntity
  8
0
100
AcDbBlockEnd
  0
BLOCK
  5
5FA
330
5F0
100
AcDbEntity
  8
0
100
AcDbBlockBegin
  2
*D2
 70
     1
 10
0.0
 20
0.0
 30
0.0
  3
*D2
  1

  0
LINE
  5
5F1
330
5F0
100
AcDbEntity
  8
SK2
 62
     0
370
    -2
100
AcDbLine
 10
-43.2
 20
11.0
 30
0.0
 11
-77.45000000005615
 21
10.99999999982521
 31
0.0
  0
LINE
  5
5F2
330
5F0
100
AcDbEntity
  8
SK2
 62
     0
370
    -2
100
AcDbLine
 10
-43.2
 20
-11.0
 30
0.0
 11
-77.44999999994387
 21
-11.00000000017479
 31
0.0
  0
LINE
  5
5F3
330
5F0
100
AcDbEntity
  8
SK2
 62
     0
370
    -2
100
AcDbLine
 10
-76.20000000004338
 20
8.499999999831588
 30
0.0
 11
-76.19999999995663
 21
-8.500000000168411
 31
0.0
  0
SOLID
  5
5F4
330
5F0
100
AcDbEntity
  8
SK2
 62
     0
100
AcDbTrace
 10
-75.78333333337671
 20
8.499999999833713
 30
0.0
 11
-76.61666666671006
 21
8.49999999982946
 31
0.0
 12
-76.20000000005615
 22
10.99999999983159
 32
0.0
 13
-76.20000000005615
 23
10.99999999983159
 33
0.0
  0
SOLID
  5
5F5
330
5F0
100
AcDbEntity
  8
SK2
 62
     0
100
AcDbTrace
 10
-76.6166666666233
 20
-8.500000000170539
 30
0.0
 11
-75.78333333328996
 21
-8.500000000166286
 31
0.0
 12
-76.19999999994387
 22
-11.00000000016841
 32
0.0
 13
-76.19999999994387
 23
-11.00000000016841
 33
0.0
  0
MTEXT
  5
5F6
330
5F0
100
AcDbEntity
  8
SK2
 62
     0
100
AcDbMText
 10
-78.59075000000001
 20
-0.0000000001806144
 30
0.0
 40
3.5
 41
0.0
 71
     5
 72
     1
  1
%%c22
  7
SIMPLEX
 11
-0.0000000000051036
 21
1.0
 31
0.0
 73
     1
 44
1.0
1001
ACAD
1000
MTEXTBEGIN
1070
    73
1070
     1
1070
    44
1040
1.0
1070
    74
1070
     0
1000
MTEXTEND
  0
POINT
  5
5F7
330
5F0
100
AcDbEntity
  8
DEFPOINTS
 62
     0
100
AcDbPoint
 10
-43.2
 20
11.0
 30
0.0
  0
POINT
  5
5F8
330
5F0
100
AcDbEntity
  8
DEFPOINTS
 62
     0
100
AcDbPoint
 10
-43.2
 20
-11.0
 30
0.0
  0
POINT
  5
5F9
330
5F0
100
AcDbEntity
  8
DEFPOINTS
 62
     0
100
AcDbPoint
 10
-76.19999999994387
 20
-11.00000000016841
 30
0.0
  0
ENDBLK
  5
5FB
330
5F0
100
AcDbEntity
  8
0
100
AcDbBlockEnd
  0
BLOCK
  5
607
330
5FD
100
AcDbEntity
  8
0
100
AcDbBlockBegin
  2
*D3
 70
     1
 10
0.0
 20
0.0
 30
0.0
  3
*D3
  1

  0
LINE
  5
5FE
330
5FD
100
AcDbEntity
  8
2
 62
     0
370
    -2
100
AcDbLine
 10
52.8
 20
11.35
 30
0.0
 11
52.8
 21
61.25
 31
0.0
  0
LINE
  5
5FF
330
5FD
100
AcDbEntity
  8
2
 62
     0
370
    -2
100
AcDbLine
 10
78.79999999999999
 20
13.146
 30
0.0
 11
78.79999999999999
 21
61.25
 31
0.0
  0
LINE
  5
600
330
5FD
100
AcDbEntity
  8
2
 62
     0
370
    -2
100
AcDbLine
 10
55.3
 20
60.0
 30
0.0
 11
76.29999999999999
 21
60.0
 31
0.0
  0
SOLID
  5
601
330
5FD
100
AcDbEntity
  8
2
 62
     0
100
AcDbTrace
 10
55.3
 20
60.41666666666666
 30
0.0
 11
55.3
 21
59.58333333333334
 31
0.0
 12
52.8
 22
60.0
 32
0.0
 13
52.8
 23
60.0
 33
0.0
  0
SOLID
  5
602
330
5FD
100
AcDbEntity
  8
2
 62
     0
100
AcDbTrace
 10
76.29999999999999
 20
59.58333333333334
 30
0.0
 11
76.29999999999999
 21
60.41666666666666
 31
0.0
 12
78.79999999999999
 22
60.0
 32
0.0
 13
78.79999999999999
 23
60.0
 33
0.0
  0
MTEXT
  5
603
330
5FD
100
AcDbEntity
  8
2
 62
     0
100
AcDbMText
 10
65.8
 20
62.39074999999999
 30
0.0
 40
3.5
 41
0.0
 71
     5
 72
     1
  1
26
  7
SIMPLEX
 73
     1
 44
1.0
1001
ACAD
1000
MTEXTBEGIN
1070
    73
1070
     1
1070
    44
1040
1.0
1070
    74
1070
     0
1000
MTEXTEND
  0
POINT
  5
604
330
5FD
100
AcDbEntity
  8
DEFPOINTS
 62
     0
100
AcDbPoint
 10
52.8
 20
11.35
 30
0.0
  0
POINT
  5
605
330
5FD
100
AcDbEntity
  8
DEFPOINTS
 62
     0
100
AcDbPoint
 10
78.79999999999999
 20
13.146
 30
0.0
  0
POINT
  5
606
330
5FD
100
AcDbEntity
  8
DEFPOINTS
 62
     0
100
AcDbPoint
 10
78.79999999999999
 20
60.0
 30
0.0
  0
ENDBLK
  5
608
330
5FD
100
AcDbEntity
  8
0
100
AcDbBlockEnd
  0
BLOCK
  5
614
330
60A
100
AcDbEntity
  8
0
100
AcDbBlockBegin
  2
*D4
 70
     1
 10
0.0
 20
0.0
 30
0.0
  3
*D4
  1

  0
LINE
  5
60B
330
60A
100
AcDbEntity
  8
SK2
 62
     0
370
    -2
100
AcDbLine
 10
-61.2
 20
13.146
 30
0.0
 11
-61.2
 21
91.25
 31
0.0
  0
LINE
  5
60C
330
60A
100
AcDbEntity
  8
SK2
 62
     0
370
    -2
100
AcDbLine
 10
78.79999999999999
 20
13.146
 30
0.0
 11
78.79999999999999
 21
91.25
 31
0.0
  0
LINE
  5
60D
330
60A
100
AcDbEntity
  8
SK2
 62
     0
370
    -2
100
AcDbLine
 10
-58.7
 20
90.0
 30
0.0
 11
76.29999999999999
 21
90.0
 31
0.0
  0
SOLID
  5
60E
330
60A
100
AcDbEntity
  8
SK2
 62
     0
100
AcDbTrace
 10
-58.7
 20
90.41666666666669
 30
0.0
 11
-58.7
 21
89.58333333333332
 31
0.0
 12
-61.2
 22
90.0
 32
0.0
 13
-61.2
 23
90.0
 33
0.0
  0
SOLID
  5
60F
330
60A
100
AcDbEntity
  8
SK2
 62
     0
100
AcDbTrace
 10
76.29999999999999
 20
89.58333333333332
 30
0.0
 11
76.29999999999999
 21
90.41666666666669
 31
0.0
 12
78.79999999999999
 22
90.0
 32
0.0
 13
78.79999999999999
 23
90.0
 33
0.0
  0
MTEXT
  5
610
330
60A
100
AcDbEntity
  8
SK2
 62
     0
100
AcDbMText
 10
8.799999999999997
 20
92.431
 30
0.0
 40
3.5
 41
0.0
 71
     5
 72
     1
  1
140
  7
SIMPLEX
 73
     1
 44
1.0
1001
ACAD
1000
MTEXTBEGIN
1070
    73
1070
     1
1070
    44
1040
1.0
1070
    74
1070
     0
1000
MTEXTEND
  0
POINT
  5
611
330
60A
100
AcDbEntity
  8
DEFPOINTS
 62
     0
100
AcDbPoint
 10
-61.2
 20
13.146
 30
0.0
  0
POINT
  5
612
330
60A
100
AcDbEntity
  8
DEFPOINTS
 62
     0
100
AcDbPoint
 10
78.79999999999999
 20
13.146
 30
0.0
  0
POINT
  5
613
330
60A
100
AcDbEntity
  8
DEFPOINTS
 62
     0
100
AcDbPoint
 10
78.79999999999999
 20
90.0
 30
0.0
  0
ENDBLK
  5
615
330
60A
100
AcDbEntity
  8
0
100
AcDbBlockEnd
  0
ENDSEC
  0
SECTION
  2
ENTITIES
  0
LINE
  5
3C2
330
18
100
AcDbEntity
  8
SK4
100
AcDbLine
 10
-63.2
 20
0.0
 30
0.0
 11
35.8
 21
0.0
 31
0.0
  0
LINE
  5
3C3
330
18
100
AcDbEntity
  8
4
100
AcDbLine
 10
33.8
 20
0.0
 30
0.0
 11
80.8
 21
0.0
 31
0.0
  0
LINE
  5
3C4
330
18
100
AcDbEntity
  8
SK4
100
AcDbLine
 10
33.8
 20
0.0
 30
0.0
 11
80.8
 21
0.0
 31
0.0
  0
LINE
  5
3C5
330
18
100
AcDbEntity
  8
1
100
AcDbLine
 10
52.73796890129785
 20
-8.420045848875885
 30
0.0
 11
52.79999999999998
 21
-8.306533003361996
 31
0.0
  0
LINE
  5
3C6
330
18
100
AcDbEntity
  8
1
100
AcDbLine
 10
52.73796890132082
 20
-12.05129031715838
 30
0.0
 11
52.73796890132085
 21
-8.420045848833977
 31
0.0
  0
LINE
  5
3C7
330
18
100
AcDbEntity
  8
1
100
AcDbLine
 10
52.48113775
 20
6.944845770119658
 30
0.0
 11
52.48113774999999
 21
1.14307074031273
 31
0.0
  0
LINE
  5
3C8
330
18
100
AcDbEntity
  8
1
100
AcDbLine
 10
52.73796890132085
 20
0.8726471783085138
 30
0.0
 11
52.48113775
 21
1.143070740312729
 31
0.0
  0
LINE
  5
3C9
330
18
100
AcDbEntity
  8
1
100
AcDbLine
 10
35.79999999999999
 20
-2.554242956407227
 30
0.0
 11
35.79999999999999
 21
-2.935003372041828
 31
0.0
  0
LINE
  5
3CA
330
18
100
AcDbEntity
  8
1
100
AcDbLine
 10
52.48113775
 20
-6.391828509141586
 30
0.0
 11
35.8
 21
-2.935003372041826
 31
0.0
  0
LINE
  5
3CB
330
18
100
AcDbEntity
  8
1
100
AcDbLine
 10
52.79999999999999
 20
-1.077516883493139
 30
0.0
 11
52.8
 21
0.8704568076978711
 31
0.0
  0
LINE
  5
3CC
330
18
100
AcDbEntity
  8
1
100
AcDbLine
 10
52.8
 20
-1.077516883493147
 30
0.0
 11
28.8
 21
2.717125070670288
 31
0.0
  0
LINE
  5
3CD
330
18
100
AcDbEntity
  8
1
100
AcDbLine
 10
52.48113774999999
 20
1.143070740312729
 30
0.0
 11
46.43576610186121
 21
2.50882124726191
 31
0.0
  0
LINE
  5
3CE
330
18
100
AcDbEntity
  8
1
100
AcDbLine
 10
35.8
 20
4.732431078077047
 30
0.0
 11
35.8
 21
4.808932149603146
 31
0.0
  0
LINE
  5
3CF
330
18
100
AcDbEntity
  8
1
100
AcDbLine
 10
28.8
 20
-1.022376171467754
 30
0.0
 11
35.8
 21
-2.554242956407098
 31
0.0
  0
LINE
  5
3D0
330
18
100
AcDbEntity
  8
1
100
AcDbLine
 10
28.8
 20
6.083387377794587
 30
0.0
 11
28.8
 21
-1.022376171467751
 31
0.0
  0
LINE
  5
3D1
330
18
100
AcDbEntity
  8
1
100
AcDbLine
 10
28.8
 20
6.083387377794587
 30
0.0
 11
35.8
 21
4.732431078077048
 31
0.0
  0
LINE
  5
3D2
330
18
100
AcDbEntity
  8
1
100
AcDbLine
 10
28.8
 20
11.0
 30
0.0
 11
28.8
 21
10.99979918047424
 31
0.0
  0
LINE
  5
3D3
330
18
100
AcDbEntity
  8
1
100
AcDbLine
 10
28.8
 20
10.99979918047424
 30
0.0
 11
28.79999999999999
 21
10.94020656299245
 31
0.0
  0
LINE
  5
3D4
330
18
100
AcDbEntity
  8
1
100
AcDbLine
 10
28.79999999999999
 20
10.94020656299245
 30
0.0
 11
28.8
 21
10.10040593603887
 31
0.0
  0
LINE
  5
3D5
330
18
100
AcDbEntity
  8
1
100
AcDbLine
 10
28.8
 20
11.0
 30
0.0
 11
0.0
 21
11.0
 31
0.0
  0
ARC
  5
3D6
330
18
100
AcDbEntity
  8
1
100
AcDbCircle
 10
39.8268048783019
 20
215.5159139191166
 30
0.0
 40
226.516726055348
100
AcDbArc
 50
267.2097462083986
 51
268.9813947963232
  0
LINE
  5
3D7
330
18
100
AcDbEntity
  8
1
100
AcDbLine
 10
28.8
 20
-6.83631243567768
 30
0.0
 11
28.8
 21
-10.73226915929393
 31
0.0
  0
LINE
  5
3D8
330
18
100
AcDbEntity
  8
1
100
AcDbLine
 10
52.48113775
 20
11.35
 30
0.0
 11
52.73796890132082
 21
12.98437417875298
 31
0.0
  0
LINE
  5
3D9
330
18
100
AcDbEntity
  8
1
100
AcDbLine
 10
52.48113775
 20
11.35
 30
0.0
 11
52.48113775
 21
11.34994169741014
 31
0.0
  0
LINE
  5
3DA
330
18
100
AcDbEntity
  8
1
100
AcDbLine
 10
52.48113775
 20
11.34994169741014
 30
0.0
 11
52.48113774999999
 21
11.3327998411997
 31
0.0
  0
LINE
  5
3DB
330
18
100
AcDbEntity
  8
1
100
AcDbLine
 10
52.48113774999999
 20
11.3327998411997
 30
0.0
 11
52.48113774999999
 21
11.09283746655113
 31
0.0
  0
ARC
  5
3DC
330
18
100
AcDbEntity
  8
1
100
AcDbCircle
 10
41.91527257455465
 20
-205.4380499922663
 30
0.0
 40
216.7880522593576
100
AcDbArc
 50
90.00065488045937
 51
91.6164441096062
  0
LINE
  5
3DD
330
18
100
AcDbEntity
  8
1
100
AcDbLine
 10
41.91279472611664
 20
11.35
 30
0.0
 11
52.48113775
 21
11.35
 31
0.0
  0
LINE
  5
3DE
330
18
100
AcDbEntity
  8
1
100
AcDbLine
 10
52.80000000000002
 20
0.8704568076979773
 30
0.0
 11
52.80000000000002
 21
6.791116704539665
 31
0.0
  0
LINE
  5
3DF
330
18
100
AcDbEntity
  8
1
100
AcDbLine
 10
52.73796890129785
 20
6.798466262386742
 30
0.0
 11
52.8
 21
6.791116704539686
 31
0.0
  0
LINE
  5
3E0
330
18
100
AcDbEntity
  8
1
100
AcDbLine
 10
52.73796890132085
 20
0.8726471783085061
 30
0.0
 11
52.73796890132085
 21
6.798466262383938
 31
0.0
  0
LINE
  5
3E1
330
18
100
AcDbEntity
  8
1
100
AcDbLine
 10
52.73796890129785
 20
0.8726471783093771
 30
0.0
 11
52.79999999999998
 21
0.8704568076979741
 31
0.0
  0
LINE
  5
3E2
330
18
100
AcDbEntity
  8
1
100
AcDbLine
 10
35.8
 20
9.520372582963821
 30
0.0
 11
35.8
 21
4.808932149603146
 31
0.0
  0
LINE
  5
3E3
330
18
100
AcDbEntity
  8
1
100
AcDbLine
 10
28.8
 20
10.10040593603886
 30
0.0
 11
35.8
 21
9.386371056160587
 31
0.0
  0
LINE
  5
3E4
330
18
100
AcDbEntity
  8
1
100
AcDbLine
 10
52.48113775000001
 20
6.944845770119659
 30
0.0
 11
50.32758326615023
 21
7.328320847112482
 31
0.0
  0
ARC
  5
3E5
330
18
100
AcDbEntity
  8
1
100
AcDbCircle
 10
49.10090967492869
 20
0.7150315970447352
 30
0.0
 40
7.087764017591874
100
AcDbArc
 50
59.12636739213606
 51
61.51623322271934
  0
LINE
  5
3E6
330
18
100
AcDbEntity
  8
1
100
AcDbLine
 10
52.79999999999999
 20
7.164626973252501
 30
0.0
 11
52.79999999999998
 21
8.065946488699646
 31
0.0
  0
LINE
  5
3E7
330
18
100
AcDbEntity
  8
1
100
AcDbLine
 10
52.79999999999998
 20
8.065946488699646
 30
0.0
 11
52.79999999999999
 21
9.814735837184608
 31
0.0
  0
LINE
  5
3E8
330
18
100
AcDbEntity
  8
1
100
AcDbLine
 10
52.79999999999999
 20
9.814735837184617
 30
0.0
 11
42.64209612970565
 21
9.990993978243141
 31
0.0
  0
LINE
  5
3E9
330
18
100
AcDbEntity
  8
1
100
AcDbLine
 10
42.64209612970565
 20
9.990993978243141
 30
0.0
 11
32.48419225941134
 21
9.748871772703306
 31
0.0
  0
LINE
  5
3EA
330
18
100
AcDbEntity
  8
1
100
AcDbLine
 10
52.8
 20
7.164626973252507
 30
0.0
 11
50.32758327105812
 21
7.32832087517234
 31
0.0
  0
LINE
  5
3EB
330
18
100
AcDbEntity
  8
1
100
AcDbLine
 10
52.73796890132082
 20
12.59061593353975
 30
0.0
 11
52.48113775
 21
11.09283746655113
 31
0.0
  0
LINE
  5
3EC
330
18
100
AcDbEntity
  8
1
100
AcDbLine
 10
52.48113775
 20
11.09283746655113
 30
0.0
 11
41.91279472611664
 21
11.35
 31
0.0
  0
ARC
  5
3ED
330
18
100
AcDbEntity
  8
1
100
AcDbCircle
 10
42.4403164502625
 20
-217.9561459232312
 30
0.0
 40
228.958862980193
100
AcDbArc
 50
91.66193849261977
 51
93.41544137853571
  0
LINE
  5
3EE
330
18
100
AcDbEntity
  8
1
100
AcDbLine
 10
35.8
 20
10.90635433695032
 30
0.0
 11
35.8
 21
11.26374790970145
 31
0.0
  0
LINE
  5
3EF
330
18
100
AcDbEntity
  8
1
100
AcDbLine
 10
52.73796890132082
 20
12.59061593353972
 30
0.0
 11
52.73796890132082
 21
12.98437417875298
 31
0.0
  0
LINE
  5
3F0
330
18
100
AcDbEntity
  8
1
100
AcDbLine
 10
52.73796890129785
 20
12.59061593357786
 30
0.0
 11
52.80000000000001
 21
12.48766446726673
 31
0.0
  0
LINE
  5
3F1
330
18
100
AcDbEntity
  8
1
100
AcDbLine
 10
52.7170105509256
 20
-11.91566564578034
 30
0.0
 11
52.48113775
 21
-10.89521303902973
 31
0.0
  0
LINE
  5
3F2
330
18
100
AcDbEntity
  8
1
100
AcDbLine
 10
35.8
 20
-11.33430442398122
 30
0.0
 11
35.8
 21
-11.35
 31
0.0
  0
LINE
  5
3F3
330
18
100
AcDbEntity
  8
1
100
AcDbLine
 10
52.73796890132082
 20
-8.420045848833977
 30
0.0
 11
52.48113775000001
 21
-6.391828509141583
 31
0.0
  0
LINE
  5
3F4
330
18
100
AcDbEntity
  8
1
100
AcDbLine
 10
52.48113775
 20
-10.38638089749236
 30
0.0
 11
35.8
 21
-8.291664391654661
 31
0.0
  0
LINE
  5
3F5
330
18
100
AcDbEntity
  8
1
100
AcDbLine
 10
52.48113775000001
 20
-6.391828509141589
 30
0.0
 11
52.48113774999999
 21
-10.38638089749231
 31
0.0
  0
LINE
  5
3F6
330
18
100
AcDbEntity
  8
1
100
AcDbLine
 10
35.8
 20
-2.935003372041828
 30
0.0
 11
35.8
 21
-8.291664391654657
 31
0.0
  0
LINE
  5
3F7
330
18
100
AcDbEntity
  8
1
100
AcDbLine
 10
35.8
 20
-10.96498001874519
 30
0.0
 11
35.8
 21
-11.33430442398123
 31
0.0
  0
LINE
  5
3F8
330
18
100
AcDbEntity
  8
1
100
AcDbLine
 10
52.48113775
 20
-10.89521303902973
 30
0.0
 11
38.40626270124607
 21
-11.34999999999869
 31
0.0
  0
LINE
  5
3F9
330
18
100
AcDbEntity
  8
1
100
AcDbLine
 10
52.73796890129785
 20
-12.05129031719598
 30
0.0
 11
52.8
 21
-11.94969257437065
 31
0.0
  0
LINE
  5
3FA
330
18
100
AcDbEntity
  8
1
100
AcDbLine
 10
52.73796890132082
 20
-12.05129031715839
 30
0.0
 11
52.48113775
 21
-10.38638089749236
 31
0.0
  0
LINE
  5
3FB
330
18
100
AcDbEntity
  8
1
100
AcDbLine
 10
28.8
 20
-6.836312435677683
 30
0.0
 11
35.8
 21
-7.981551081282397
 31
0.0
  0
LINE
  5
3FC
330
18
100
AcDbEntity
  8
1
100
AcDbLine
 10
52.8
 20
12.48766446726671
 30
0.0
 11
52.79999999999999
 21
12.87693321428572
 31
0.0
  0
LINE
  5
3FD
330
18
100
AcDbEntity
  8
1
100
AcDbLine
 10
52.8
 20
9.814735837184608
 30
0.0
 11
52.8
 21
12.48766446726673
 31
0.0
  0
LINE
  5
3FE
330
18
100
AcDbEntity
  8
1
100
AcDbLine
 10
52.8
 20
6.791116704539697
 30
0.0
 11
52.8
 21
7.164626973252503
 31
0.0
  0
LINE
  5
3FF
330
18
100
AcDbEntity
  8
1
100
AcDbLine
 10
52.8
 20
-8.306533003361995
 30
0.0
 11
52.8
 21
-1.077516883493137
 31
0.0
  0
LINE
  5
400
330
18
100
AcDbEntity
  8
1
100
AcDbLine
 10
52.8
 20
-11.9496925743707
 30
0.0
 11
52.80000000000002
 21
-8.306533003361968
 31
0.0
  0
LINE
  5
401
330
18
100
AcDbEntity
  8
1
100
AcDbLine
 10
46.43576610228288
 20
2.508821249149365
 30
0.0
 11
28.8
 21
5.721760480209951
 31
0.0
  0
LINE
  5
402
330
18
100
AcDbEntity
  8
1
100
AcDbLine
 10
46.43576610186121
 20
2.50882124726191
 30
0.0
 11
35.8
 21
4.80893214960315
 31
0.0
  0
LINE
  5
403
330
18
100
AcDbEntity
  8
1
100
AcDbLine
 10
35.8
 20
-11.0
 30
0.0
 11
-0.0000000000000009
 21
-11.0
 31
0.0
  0
LINE
  5
404
330
18
100
AcDbEntity
  8
1
100
AcDbLine
 10
50.32758326615023
 20
7.328320847112482
 30
0.0
 11
35.8
 21
9.520372582963824
 31
0.0
  0
LINE
  5
405
330
18
100
AcDbEntity
  8
1
100
AcDbLine
 10
52.80000000000002
 20
12.87693321428567
 30
0.0
 11
52.73796890129784
 21
12.98437417879278
 31
0.0
  0
LINE
  5
406
330
18
100
AcDbEntity
  8
1
100
AcDbLine
 10
38.40626270124607
 20
-11.34999999999869
 30
0.0
 11
35.8
 21
-11.33430442398123
 31
0.0
  0
LINE
  5
407
330
18
100
AcDbEntity
  8
1
100
AcDbLine
 10
35.8
 20
-11.35
 30
0.0
 11
38.40626270124607
 21
-11.35
 31
0.0
  0
LINE
  5
408
330
18
100
AcDbEntity
  8
1
 62
     1
100
AcDbLine
 10
54.28019059384958
 20
13.36223733236287
 30
0.0
 11
54.33445235787228
 21
13.36161857926158
 31
0.0
  0
LINE
  5
409
330
18
100
AcDbEntity
  8
1
 62
     1
100
AcDbLine
 10
56.08260991073308
 20
13.34168413874237
 30
0.0
 11
56.16076175213565
 21
13.34079296435631
 31
0.0
  0
LINE
  5
40A
330
18
100
AcDbEntity
  8
1
 62
     1
100
AcDbLine
 10
57.88502922761655
 20
13.32113094512186
 30
0.0
 11
57.987071146399
 21
13.31996734945103
 31
0.0
  0
LINE
  5
40B
330
18
100
AcDbEntity
  8
1
 62
     1
100
AcDbLine
 10
76.9857142857143
 20
-11.83770321428571
 30
0.0
 11
76.84662275456941
 21
-12.07861670080521
 31
0.0
  0
LINE
  5
40C
330
18
100
AcDbEntity
  8
1
 62
     1
100
AcDbLine
 10
75.17142857142857
 20
-11.83770321428571
 30
0.0
 11
74.65804936173928
 21
-12.72690167442804
 31
0.0
  0
LINE
  5
40D
330
18
100
AcDbEntity
  8
1
 62
     1
100
AcDbLine
 10
78.79999999999999
 20
1.334710916035112
 30
0.0
 11
77.08417915404165
 21
1.395062435627009
 31
0.0
  0
LINE
  5
40E
330
18
100
AcDbEntity
  8
1
 62
     1
100
AcDbLine
 10
77.08417915404169
 20
-4.764924905730847
 30
0.0
 11
77.08417915404169
 21
1.395062428522843
 31
0.0
  0
LINE
  5
40F
330
18
100
AcDbEntity
  8
1
 62
     1
100
AcDbLine
 10
76.84662275456938
 20
1.407001314675407
 30
0.0
 11
75.53485699778919
 21
1.488092323015736
 31
0.0
  0
LINE
  5
410
330
18
100
AcDbEntity
  8
1
 62
     1
100
AcDbLine
 10
75.53485699778919
 20
-4.677819405882818
 30
0.0
 11
75.53485699778919
 21
1.488092323015738
 31
0.0
  0
LINE
  5
411
330
18
100
AcDbEntity
  8
1
 62
     1
100
AcDbLine
 10
74.65804936173928
 20
1.55630339608338
 30
0.0
 11
73.9855348415367
 21
1.616050856174958
 31
0.0
  0
LINE
  5
412
330
18
100
AcDbEntity
  8
1
 62
     1
100
AcDbLine
 10
73.9855348415367
 20
-4.561350196834958
 30
0.0
 11
73.98553484153669
 21
1.616050856174966
 31
0.0
  0
LINE
  5
413
330
18
100
AcDbEntity
  8
1
 62
     1
100
AcDbLine
 10
74.65804936121819
 20
-4.615531830662846
 30
0.0
 11
73.9855348415367
 21
-4.561350196834947
 31
0.0
  0
LINE
  5
414
330
18
100
AcDbEntity
  8
1
 62
     1
100
AcDbLine
 10
74.65804936173928
 20
-4.615531831300846
 30
0.0
 11
74.65804936173928
 21
1.556303396083389
 31
0.0
  0
LINE
  5
415
330
18
100
AcDbEntity
  8
1
 62
     1
100
AcDbLine
 10
75.53485699778921
 20
-12.46717942016365
 30
0.0
 11
75.17142857142857
 21
-11.83770321428571
 31
0.0
  0
LINE
  5
416
330
18
100
AcDbEntity
  8
1
 62
     1
100
AcDbLine
 10
75.53485699778921
 20
-12.46717942016364
 30
0.0
 11
75.53485699778919
 21
-12.46689291003224
 31
0.0
  0
LINE
  5
417
330
18
100
AcDbEntity
  8
1
 62
     1
100
AcDbLine
 10
75.53485699778919
 20
-12.46689291003224
 30
0.0
 11
75.53485699778921
 21
-12.38450271293616
 31
0.0
  0
LINE
  5
418
330
18
100
AcDbEntity
  8
1
 62
     1
100
AcDbLine
 10
75.53485699778921
 20
-12.38450271293616
 30
0.0
 11
75.53485699778919
 21
-11.3123801446949
 31
0.0
  0
LINE
  5
419
330
18
100
AcDbEntity
  8
1
 62
     1
100
AcDbLine
 10
76.8466227545384
 20
-10.97445580716249
 30
0.0
 11
76.9857142857143
 21
-10.69129324346971
 31
0.0
  0
LINE
  5
41A
330
18
100
AcDbEntity
  8
1
 62
     1
100
AcDbLine
 10
76.9857142857143
 20
-11.83770321428571
 30
0.0
 11
76.9857142857143
 21
-11.83745655168635
 31
0.0
  0
LINE
  5
41B
330
18
100
AcDbEntity
  8
1
 62
     1
100
AcDbLine
 10
76.9857142857143
 20
-11.83745655168635
 30
0.0
 11
76.9857142857143
 21
-11.76349965121044
 31
0.0
  0
LINE
  5
41C
330
18
100
AcDbEntity
  8
1
 62
     1
100
AcDbLine
 10
76.9857142857143
 20
-11.76349965121044
 30
0.0
 11
76.9857142857143
 21
-10.69129324346971
 31
0.0
  0
LINE
  5
41D
330
18
100
AcDbEntity
  8
1
 62
     1
100
AcDbLine
 10
77.08417915404169
 20
-12.00824928947217
 30
0.0
 11
76.9857142857143
 21
-11.83770321428571
 31
0.0
  0
LINE
  5
41E
330
18
100
AcDbEntity
  8
1
 62
     1
100
AcDbLine
 10
77.08417915404169
 20
-12.00824928947216
 30
0.0
 11
77.08417915404169
 21
-12.00797738379426
 31
0.0
  0
LINE
  5
41F
330
18
100
AcDbEntity
  8
1
 62
     1
100
AcDbLine
 10
77.08417915404169
 20
-12.00797738379426
 30
0.0
 11
77.08417915404165
 21
-11.92978816686669
 31
0.0
  0
LINE
  5
420
330
18
100
AcDbEntity
  8
1
 62
     1
100
AcDbLine
 10
77.08417915404165
 20
-11.92978816686669
 30
0.0
 11
77.08417915404169
 21
-10.91209417301772
 31
0.0
  0
LINE
  5
421
330
18
100
AcDbEntity
  8
1
 62
     1
100
AcDbLine
 10
72.59754630050588
 20
1.85523381909841
 30
0.0
 11
72.30438376650038
 21
1.930514198109863
 31
0.0
  0
LINE
  5
422
330
18
100
AcDbEntity
  8
1
 62
     1
100
AcDbLine
 10
72.30438376268455
 20
-4.265649642878089
 30
0.0
 11
72.30438376268455
 21
1.930514185790041
 31
0.0
  0
LINE
  5
423
330
18
100
AcDbEntity
  8
1
 62
     1
100
AcDbLine
 10
72.59754630050593
 20
-4.337492576743422
 30
0.0
 11
72.59754630050593
 21
1.855233819098389
 31
0.0
  0
LINE
  5
424
330
18
100
AcDbEntity
  8
1
 62
     1
100
AcDbLine
 10
70.77123690624247
 20
2.323751047905596
 30
0.0
 11
70.50196444745044
 21
2.392721025207931
 31
0.0
  0
LINE
  5
425
330
18
100
AcDbEntity
  8
1
 62
     1
100
AcDbLine
 10
70.50196444580106
 20
-3.819987905652407
 30
0.0
 11
70.50196444580106
 21
2.392721020750379
 31
0.0
  0
LINE
  5
426
330
18
100
AcDbEntity
  8
1
 62
     1
100
AcDbLine
 10
70.77123690624247
 20
-3.886988088702819
 30
0.0
 11
70.50196444580105
 21
-3.819987905652407
 31
0.0
  0
LINE
  5
427
330
18
100
AcDbEntity
  8
1
 62
     1
100
AcDbLine
 10
68.94492751197913
 20
2.790811349097966
 30
0.0
 11
68.69954512891756
 21
2.85342118099274
 31
0.0
  0
LINE
  5
428
330
18
100
AcDbEntity
  8
1
 62
     1
100
AcDbLine
 10
68.69954512891753
 20
-3.367925244025804
 30
0.0
 11
68.69954512891756
 21
2.853421180992746
 31
0.0
  0
LINE
  5
429
330
18
100
AcDbEntity
  8
1
 62
     1
100
AcDbLine
 10
68.94492751197915
 20
-3.429824824337348
 30
0.0
 11
68.69954512891756
 21
-3.367925244072544
 31
0.0
  0
LINE
  5
42A
330
18
100
AcDbEntity
  8
1
 62
     1
100
AcDbLine
 10
67.11861811771585
 20
3.255803890690393
 30
0.0
 11
66.89712581196738
 21
3.312027799504023
 31
0.0
  0
LINE
  5
42B
330
18
100
AcDbEntity
  8
1
 62
     1
100
AcDbLine
 10
66.89712581203409
 20
-2.910035039425908
 30
0.0
 11
66.89712581203406
 21
3.312027800969321
 31
0.0
  0
LINE
  5
42C
330
18
100
AcDbEntity
  8
1
 62
     1
100
AcDbLine
 10
67.11861811771585
 20
-2.966597916446529
 30
0.0
 11
66.89712581196312
 21
-2.910035036992998
 31
0.0
  0
LINE
  5
42D
330
18
100
AcDbEntity
  8
1
 62
     1
100
AcDbLine
 10
65.29230872345249
 20
3.718120236937726
 30
0.0
 11
65.09470649515058
 21
3.767955485071331
 31
0.0
  0
LINE
  5
42E
330
18
100
AcDbEntity
  8
1
 62
     1
100
AcDbLine
 10
65.09470649515058
 20
-2.446899923961185
 30
0.0
 11
65.09470649515058
 21
3.767955485071326
 31
0.0
  0
LINE
  5
42F
330
18
100
AcDbEntity
  8
1
 62
     1
100
AcDbLine
 10
65.29230872345249
 20
-2.497912030971068
 30
0.0
 11
65.09470649515058
 21
-2.446899923961189
 31
0.0
  0
LINE
  5
430
330
18
100
AcDbEntity
  8
1
 62
     1
100
AcDbLine
 10
63.46599932918908
 20
4.177150763080653
 30
0.0
 11
63.29228717838359
 21
4.220619041349906
 31
0.0
  0
LINE
  5
431
330
18
100
AcDbEntity
  8
1
 62
     1
100
AcDbLine
 10
63.29228717826706
 20
-1.979111461125378
 30
0.0
 11
63.29228717826706
 21
4.220619041345198
 31
0.0
  0
LINE
  5
432
330
18
100
AcDbEntity
  8
1
 62
     1
100
AcDbLine
 10
63.46599932918909
 20
-2.024381747492256
 30
0.0
 11
63.29228717824448
 21
-1.979111460552331
 31
0.0
  0
LINE
  5
433
330
18
100
AcDbEntity
  8
1
 62
     1
100
AcDbLine
 10
61.63968993492574
 20
4.632289812936313
 30
0.0
 11
61.48986786284329
 21
4.669435946622877
 31
0.0
  0
LINE
  5
434
330
18
100
AcDbEntity
  8
1
 62
     1
100
AcDbLine
 10
61.48986786138357
 20
-1.507269280830061
 30
0.0
 11
61.48986786138357
 21
4.669435944289524
 31
0.0
  0
LINE
  5
435
330
18
100
AcDbEntity
  8
1
 62
     1
100
AcDbLine
 10
61.63968993492574
 20
-1.546629841209919
 30
0.0
 11
61.48986786138357
 21
-1.50726928354158
 31
0.0
  0
LINE
  5
436
330
18
100
AcDbEntity
  8
1
 62
     1
100
AcDbLine
 10
59.8133805444747
 20
5.082933763134126
 30
0.0
 11
59.68744854562289
 21
5.113826732662792
 31
0.0
  0
LINE
  5
437
330
18
100
AcDbEntity
  8
1
 62
     1
100
AcDbLine
 10
59.68744854450006
 20
-1.031980022558877
 30
0.0
 11
59.68744854450006
 21
5.113826731155757
 31
0.0
  0
LINE
  5
438
330
18
100
AcDbEntity
  8
1
 62
     1
100
AcDbLine
 10
59.81338054066236
 20
-1.065286906313898
 30
0.0
 11
59.68744854444161
 21
-1.031980020738439
 31
0.0
  0
LINE
  5
439
330
18
100
AcDbEntity
  8
1
 62
     1
100
AcDbLine
 10
57.987071146399
 20
5.528482468344706
 30
0.0
 11
57.88502922807214
 21
5.553214375444659
 31
0.0
  0
LINE
  5
43A
330
18
100
AcDbEntity
  8
1
 62
     1
100
AcDbLine
 10
57.88502922761657
 20
-0.5538572840156824
 30
0.0
 11
57.88502922761657
 21
5.553214375088793
 31
0.0
  0
LINE
  5
43B
330
18
100
AcDbEntity
  8
1
 62
     1
100
AcDbLine
 10
57.987071146399
 20
-0.5809906435101949
 30
0.0
 11
57.88502922757743
 21
-0.55385728301869
 31
0.0
  0
LINE
  5
43C
330
18
100
AcDbEntity
  8
1
 62
     1
100
AcDbLine
 10
56.16076175042003
 20
5.968341278045959
 30
0.0
 11
56.08260990690247
 21
5.987027869139669
 31
0.0
  0
LINE
  5
43D
330
18
100
AcDbEntity
  8
1
 62
     1
100
AcDbLine
 10
56.08260991073307
 20
-0.0735196622213689
 30
0.0
 11
56.08260991073307
 21
5.987027887879031
 31
0.0
  0
LINE
  5
43E
330
18
100
AcDbEntity
  8
1
 62
     1
100
AcDbLine
 10
56.16076175223859
 20
-0.0943843280073323
 30
0.0
 11
56.08260991077571
 21
-0.0735196622419709
 31
0.0
  0
LINE
  5
43F
330
18
100
AcDbEntity
  8
1
 62
     1
100
AcDbLine
 10
54.33445235789782
 20
6.401919034630965
 30
0.0
 11
54.28019059384954
 21
6.414699001752352
 31
0.0
  0
LINE
  5
440
330
18
100
AcDbEntity
  8
1
 62
     1
100
AcDbLine
 10
54.28019059384956
 20
0.4084084748626151
 30
0.0
 11
54.28019059384956
 21
6.414699001752342
 31
0.0
  0
LINE
  5
441
330
18
100
AcDbEntity
  8
1
 62
     1
100
AcDbLine
 10
54.33445235786593
 20
0.3938828313019633
 30
0.0
 11
54.28019059384956
 21
0.4084084748626173
 31
0.0
  0
LINE
  5
442
330
18
100
AcDbEntity
  8
1
 62
     1
100
AcDbLine
 10
54.33445235787232
 20
0.3938828310941493
 30
0.0
 11
54.33445235787232
 21
6.401919034998682
 31
0.0
  0
LINE
  5
443
330
18
100
AcDbEntity
  8
1
 62
     1
100
AcDbLine
 10
70.77123690621137
 20
-11.61486985751665
 30
0.0
 11
71.54285714285714
 21
-10.06976643894475
 31
0.0
  0
LINE
  5
444
330
18
100
AcDbEntity
  8
1
 62
     1
100
AcDbLine
 10
70.77123690624247
 20
-13.17277319798163
 30
0.0
 11
70.77123690624251
 21
-12.75458453092301
 31
0.0
  0
LINE
  5
445
330
18
100
AcDbEntity
  8
1
 62
     1
100
AcDbLine
 10
70.77123690624251
 20
-12.75458453092301
 30
0.0
 11
70.77123690624251
 21
-11.61486985745599
 31
0.0
  0
LINE
  5
446
330
18
100
AcDbEntity
  8
1
 62
     1
100
AcDbLine
 10
72.30438376268458
 20
-13.15670539615782
 30
0.0
 11
71.96325269226891
 21
-12.56584932564436
 31
0.0
  0
LINE
  5
447
330
18
100
AcDbEntity
  8
1
 62
     1
100
AcDbLine
 10
71.54285714285712
 20
-10.06976643894475
 30
0.0
 11
72.30438376271587
 21
-11.78077339808003
 31
0.0
  0
LINE
  5
448
330
18
100
AcDbEntity
  8
1
 62
     1
100
AcDbLine
 10
71.54285714285714
 20
-11.83508476920148
 30
0.0
 11
71.54285714285714
 21
-11.38262628216555
 31
0.0
  0
LINE
  5
449
330
18
100
AcDbEntity
  8
1
 62
     1
100
AcDbLine
 10
71.54285714285714
 20
-11.38262628216555
 30
0.0
 11
71.54285714285714
 21
-10.06976643894459
 31
0.0
  0
LINE
  5
44A
330
18
100
AcDbEntity
  8
1
 62
     1
100
AcDbLine
 10
69.72857142857143
 20
-11.81803917873158
 30
0.0
 11
70.50196444583216
 21
-13.17461140807716
 31
0.0
  0
LINE
  5
44B
330
18
100
AcDbEntity
  8
1
 62
     1
100
AcDbLine
 10
70.50196444580108
 20
-13.17461140802293
 30
0.0
 11
70.50196444580108
 21
-12.73978148025886
 31
0.0
  0
LINE
  5
44C
330
18
100
AcDbEntity
  8
1
 62
     1
100
AcDbLine
 10
70.50196444580108
 20
-12.73978148025886
 30
0.0
 11
70.50196444580106
 21
-11.58459213045257
 31
0.0
  0
LINE
  5
44D
330
18
100
AcDbEntity
  8
1
 62
     1
100
AcDbLine
 10
68.94492751194821
 20
-13.17771839795763
 30
0.0
 11
69.72857142857143
 21
-11.81803917873159
 31
0.0
  0
LINE
  5
44E
330
18
100
AcDbEntity
  8
1
 62
     1
100
AcDbLine
 10
69.72857142857143
 20
-11.81803917873157
 30
0.0
 11
69.72857142857143
 21
-9.835206176468613
 31
0.0
  0
LINE
  5
44F
330
18
100
AcDbEntity
  8
1
 62
     1
100
AcDbLine
 10
67.91428571428571
 20
-11.78515258023478
 30
0.0
 11
68.6995451289485
 21
-13.17703652804948
 31
0.0
  0
LINE
  5
450
330
18
100
AcDbEntity
  8
1
 62
     1
100
AcDbLine
 10
68.69954512891758
 20
-13.17703652792998
 30
0.0
 11
68.69954512891756
 21
-11.37323489624672
 31
0.0
  0
LINE
  5
451
330
18
100
AcDbEntity
  8
1
 62
     1
100
AcDbLine
 10
67.91428571428571
 20
-9.587463011100403
 30
0.0
 11
68.6995451289485
 21
-11.37323489631524
 31
0.0
  0
LINE
  5
452
330
18
100
AcDbEntity
  8
1
 62
     1
100
AcDbLine
 10
67.91428571428571
 20
-11.78515258023478
 30
0.0
 11
67.91428571428572
 21
-9.587463011100407
 31
0.0
  0
LINE
  5
453
330
18
100
AcDbEntity
  8
1
 62
     1
100
AcDbLine
 10
67.11861811771578
 20
-13.16498223415561
 30
0.0
 11
67.11861811771581
 21
-11.17552634750727
 31
0.0
  0
LINE
  5
454
330
18
100
AcDbEntity
  8
1
 62
     1
100
AcDbLine
 10
66.09999999999999
 20
-11.73646901654308
 30
0.0
 11
66.89712581206482
 21
-13.16223321738099
 31
0.0
  0
LINE
  5
455
330
18
100
AcDbEntity
  8
1
 62
     1
100
AcDbLine
 10
66.89712581203409
 20
-13.16223321732629
 30
0.0
 11
66.89712581203408
 21
-11.14691626795206
 31
0.0
  0
LINE
  5
456
330
18
100
AcDbEntity
  8
1
 62
     1
100
AcDbLine
 10
66.09999999999999
 20
-9.3268680962281
 30
0.0
 11
66.89712581206482
 21
-11.14691626935309
 31
0.0
  0
LINE
  5
457
330
18
100
AcDbEntity
  8
1
 62
     1
100
AcDbLine
 10
66.10000000000001
 20
-11.73646901654308
 30
0.0
 11
66.10000000000001
 21
-9.3268680962281
 31
0.0
  0
LINE
  5
458
330
18
100
AcDbEntity
  8
1
 62
     1
100
AcDbLine
 10
65.29230872345244
 20
-13.13452478678265
 30
0.0
 11
65.29230872345246
 21
-10.9330074764071
 31
0.0
  0
LINE
  5
459
330
18
100
AcDbEntity
  8
1
 62
     1
100
AcDbLine
 10
64.28571428571429
 20
-11.67205380559023
 30
0.0
 11
65.09470649518113
 21
-13.13016604075326
 31
0.0
  0
LINE
  5
45A
330
18
100
AcDbEntity
  8
1
 62
     1
100
AcDbLine
 10
65.09470649515058
 20
-13.13016604069843
 30
0.0
 11
65.09470649515058
 21
-10.90587009093971
 31
0.0
  0
LINE
  5
45B
330
18
100
AcDbEntity
  8
1
 62
     1
100
AcDbLine
 10
64.28571428571427
 20
-11.67205380559023
 30
0.0
 11
64.28571428571429
 21
-9.053771939957915
 31
0.0
  0
LINE
  5
45C
330
18
100
AcDbEntity
  8
1
 62
     1
100
AcDbLine
 10
63.46599932915868
 20
-10.67559952675709
 30
0.0
 11
64.28571428571429
 21
-9.05377193995792
 31
0.0
  0
LINE
  5
45D
330
18
100
AcDbEntity
  8
1
 62
     1
100
AcDbLine
 10
63.46599932918909
 20
-13.08633004011553
 30
0.0
 11
63.46599932918908
 21
-10.67559952669883
 31
0.0
  0
LINE
  5
45E
330
18
100
AcDbEntity
  8
1
 62
     1
100
AcDbLine
 10
62.47142857142858
 20
-11.59199320623627
 30
0.0
 11
63.29228717829745
 21
-13.0808222198677
 31
0.0
  0
LINE
  5
45F
330
18
100
AcDbEntity
  8
1
 62
     1
100
AcDbLine
 10
63.29228717826707
 20
-13.08082221981281
 30
0.0
 11
63.29228717826706
 21
-10.65035035546334
 31
0.0
  0
LINE
  5
460
330
18
100
AcDbEntity
  8
1
 62
     1
100
AcDbLine
 10
62.47142857142858
 20
-8.768539408138096
 30
0.0
 11
63.29228717829743
 21
-10.65035035553125
 31
0.0
  0
LINE
  5
461
330
18
100
AcDbEntity
  8
1
 62
     1
100
AcDbLine
 10
61.6396899348965
 20
-13.02040590193594
 30
0.0
 11
62.47142857142858
 21
-11.59199320623627
 31
0.0
  0
LINE
  5
462
330
18
100
AcDbEntity
  8
1
 62
     1
100
AcDbLine
 10
62.47142857142858
 20
-11.59199320623627
 30
0.0
 11
62.47142857142857
 21
-8.768539408138094
 31
0.0
  0
LINE
  5
463
330
18
100
AcDbEntity
  8
1
 62
     1
100
AcDbLine
 10
61.6396899348965
 20
-10.40358402732584
 30
0.0
 11
62.4714285714286
 21
-8.768539408138092
 31
0.0
  0
LINE
  5
464
330
18
100
AcDbEntity
  8
1
 62
     1
100
AcDbLine
 10
61.63968993492573
 20
-13.02040590188593
 30
0.0
 11
61.63968993492573
 21
-10.40358402727023
 31
0.0
  0
LINE
  5
465
330
18
100
AcDbEntity
  8
1
 62
     1
100
AcDbLine
 10
60.65714285714285
 20
-11.49639463703361
 30
0.0
 11
61.48986786141305
 21
-13.01421172767063
 31
0.0
  0
LINE
  5
466
330
18
100
AcDbEntity
  8
1
 62
     1
100
AcDbLine
 10
61.48986786138357
 20
-13.01421172761708
 30
0.0
 11
61.48986786138357
 21
-10.38063000530279
 31
0.0
  0
LINE
  5
467
330
18
100
AcDbEntity
  8
1
 62
     1
100
AcDbLine
 10
56.16076175211365
 20
-9.503011345471966
 30
0.0
 11
57.02857142857142
 21
-7.843930019135683
 31
0.0
  0
LINE
  5
468
330
18
100
AcDbEntity
  8
1
 62
     1
100
AcDbLine
 10
56.16076175213567
 20
-12.71669690159356
 30
0.0
 11
56.16076175213567
 21
-9.503011350330066
 31
0.0
  0
LINE
  5
469
330
18
100
AcDbEntity
  8
1
 62
     1
100
AcDbLine
 10
55.21428571428572
 20
-11.11775514758839
 30
0.0
 11
56.08260991075527
 21
-12.71122181051788
 31
0.0
  0
LINE
  5
46A
330
18
100
AcDbEntity
  8
1
 62
     1
100
AcDbLine
 10
56.08260991073307
 20
-12.7112218104772
 30
0.0
 11
56.08260991073306
 21
-9.489277850839773
 31
0.0
  0
LINE
  5
46B
330
18
100
AcDbEntity
  8
1
 62
     1
100
AcDbLine
 10
55.21428571428571
 20
-7.514132647864484
 30
0.0
 11
56.08260991075527
 21
-9.489277850889079
 31
0.0
  0
LINE
  5
46C
330
18
100
AcDbEntity
  8
1
 62
     1
100
AcDbLine
 10
55.21428571428572
 20
-11.1177551475884
 30
0.0
 11
55.21428571428572
 21
-7.514132647864485
 31
0.0
  0
LINE
  5
46D
330
18
100
AcDbEntity
  8
1
 62
     1
100
AcDbLine
 10
54.33445235785072
 20
-9.175782289997929
 30
0.0
 11
55.21428571428572
 21
-7.514132647864483
 31
0.0
  0
LINE
  5
46E
330
18
100
AcDbEntity
  8
1
 62
     1
100
AcDbLine
 10
54.33445235787232
 20
-12.58041530207661
 30
0.0
 11
54.33445235787232
 21
-9.175782289958645
 31
0.0
  0
LINE
  5
46F
330
18
100
AcDbEntity
  8
1
 62
     1
100
AcDbLine
 10
74.6580493617038
 20
-11.53223903568761
 30
0.0
 11
75.17142857142857
 21
-10.49809856061252
 31
0.0
  0
LINE
  5
470
330
18
100
AcDbEntity
  8
1
 62
     1
100
AcDbLine
 10
75.17142857142857
 20
-11.83770321428571
 30
0.0
 11
75.17142857142857
 21
-11.83741664080696
 31
0.0
  0
LINE
  5
471
330
18
100
AcDbEntity
  8
1
 62
     1
100
AcDbLine
 10
75.17142857142857
 20
-11.83741664080696
 30
0.0
 11
75.17142857142859
 21
-11.75124378022622
 31
0.0
  0
LINE
  5
472
330
18
100
AcDbEntity
  8
1
 62
     1
100
AcDbLine
 10
75.17142857142859
 20
-11.75124378022622
 30
0.0
 11
75.17142857142859
 21
-10.49809856061252
 31
0.0
  0
LINE
  5
473
330
18
100
AcDbEntity
  8
1
 62
     1
100
AcDbLine
 10
73.35714285714283
 20
-10.29082955859938
 30
0.0
 11
73.98553484157116
 21
-11.69761834055827
 31
0.0
  0
LINE
  5
474
330
18
100
AcDbEntity
  8
1
 62
     1
100
AcDbLine
 10
73.35714285714286
 20
-11.83770321428571
 30
0.0
 11
73.35714285714288
 21
-11.83737397806892
 31
0.0
  0
LINE
  5
475
330
18
100
AcDbEntity
  8
1
 62
     1
100
AcDbLine
 10
73.35714285714288
 20
-11.83737397806892
 30
0.0
 11
73.35714285714286
 21
-11.73809002391703
 31
0.0
  0
LINE
  5
476
330
18
100
AcDbEntity
  8
1
 62
     1
100
AcDbLine
 10
73.35714285714286
 20
-11.73809002391703
 30
0.0
 11
73.35714285714288
 21
-10.29082955859937
 31
0.0
  0
LINE
  5
477
330
18
100
AcDbEntity
  8
1
 62
     1
100
AcDbLine
 10
73.98553484153673
 20
-12.92610955085512
 30
0.0
 11
73.35714285714286
 21
-11.83770321428571
 31
0.0
  0
LINE
  5
478
330
18
100
AcDbEntity
  8
1
 62
     1
100
AcDbLine
 10
72.59754630050588
 20
-13.15336243020884
 30
0.0
 11
72.59754630050585
 21
-13.15302891822826
 31
0.0
  0
LINE
  5
479
330
18
100
AcDbEntity
  8
1
 62
     1
100
AcDbLine
 10
72.59754630050585
 20
-13.15302891822826
 30
0.0
 11
72.59754630050585
 21
-13.05712813023305
 31
0.0
  0
LINE
  5
47A
330
18
100
AcDbEntity
  8
1
 62
     1
100
AcDbLine
 10
72.59754630050585
 20
-13.05712813023305
 30
0.0
 11
72.59754630050591
 21
-11.81123380096706
 31
0.0
  0
LINE
  5
47B
330
18
100
AcDbEntity
  8
1
 62
     1
100
AcDbLine
 10
73.35714285714286
 20
-11.83770321428571
 30
0.0
 11
72.59754630050585
 21
-13.15336243020884
 31
0.0
  0
LINE
  5
47C
330
18
100
AcDbEntity
  8
1
 62
     1
100
AcDbLine
 10
57.02857142857142
 20
-11.25911657813992
 30
0.0
 11
57.88502922763941
 21
-12.82934454149083
 31
0.0
  0
LINE
  5
47D
330
18
100
AcDbEntity
  8
1
 62
     1
100
AcDbLine
 10
57.88502922761657
 20
-12.82934454144902
 30
0.0
 11
57.88502922761657
 21
-9.799773953675943
 31
0.0
  0
LINE
  5
47E
330
18
100
AcDbEntity
  8
1
 62
     1
100
AcDbLine
 10
57.02857142857141
 20
-7.843930019135683
 30
0.0
 11
57.88502922763941
 21
-9.799773955086966
 31
0.0
  0
LINE
  5
47F
330
18
100
AcDbEntity
  8
1
 62
     1
100
AcDbLine
 10
57.02857142857142
 20
-11.2591165781399
 30
0.0
 11
57.02857142857143
 21
-7.843930019135687
 31
0.0
  0
LINE
  5
480
330
18
100
AcDbEntity
  8
1
 62
     1
100
AcDbLine
 10
57.98707114637611
 20
-9.816958617661267
 30
0.0
 11
58.84285714285713
 21
-8.1632127782803
 31
0.0
  0
LINE
  5
481
330
18
100
AcDbEntity
  8
1
 62
     1
100
AcDbLine
 10
57.987071146399
 20
-12.83552131278171
 30
0.0
 11
57.98707114639901
 21
-9.816958617618537
 31
0.0
  0
LINE
  5
482
330
18
100
AcDbEntity
  8
1
 62
     1
100
AcDbLine
 10
58.84285714285713
 20
-11.38538612211279
 30
0.0
 11
59.6874485445231
 21
-12.93036728362068
 31
0.0
  0
LINE
  5
483
330
18
100
AcDbEntity
  8
1
 62
     1
100
AcDbLine
 10
59.68744854450007
 20
-12.93036728357864
 30
0.0
 11
59.68744854450006
 21
-10.09700079118081
 31
0.0
  0
LINE
  5
484
330
18
100
AcDbEntity
  8
1
 62
     1
100
AcDbLine
 10
58.84285714285713
 20
-8.1632127782803
 30
0.0
 11
59.6874485445231
 21
-10.09700079433663
 31
0.0
  0
LINE
  5
485
330
18
100
AcDbEntity
  8
1
 62
     1
100
AcDbLine
 10
58.84285714285714
 20
-11.38538612211279
 30
0.0
 11
58.84285714285714
 21
-8.163212778280303
 31
0.0
  0
LINE
  5
486
330
18
100
AcDbEntity
  8
1
 62
     1
100
AcDbLine
 10
60.65714285714285
 20
-11.49639463703359
 30
0.0
 11
60.65714285714285
 21
-8.47155411367952
 31
0.0
  0
LINE
  5
487
330
18
100
AcDbEntity
  8
1
 62
     1
100
AcDbLine
 10
59.81338054063925
 20
-10.11726306272689
 30
0.0
 11
60.65714285714285
 21
-8.47155411367952
 31
0.0
  0
LINE
  5
488
330
18
100
AcDbEntity
  8
1
 62
     1
100
AcDbLine
 10
59.81338054066236
 20
-12.93678430969479
 30
0.0
 11
59.81338054066236
 21
-10.11726306268332
 31
0.0
  0
LINE
  5
489
330
18
100
AcDbEntity
  8
1
 62
     1
100
AcDbLine
 10
53.40000000000001
 20
-10.9614914000941
 30
0.0
 11
54.28019059387113
 21
-12.57610044006409
 31
0.0
  0
LINE
  5
48A
330
18
100
AcDbEntity
  8
1
 62
     1
100
AcDbLine
 10
54.28019059384958
 20
-12.57610044002455
 30
0.0
 11
54.28019059384956
 21
-9.165860630528815
 31
0.0
  0
LINE
  5
48B
330
18
100
AcDbEntity
  8
1
 62
     1
100
AcDbLine
 10
53.39999999999998
 20
-7.174263648884251
 30
0.0
 11
54.28019059387113
 21
-9.165860630576508
 31
0.0
  0
LINE
  5
48C
330
18
100
AcDbEntity
  8
1
 62
     1
100
AcDbLine
 10
53.40000000000001
 20
-10.9614914000941
 30
0.0
 11
53.40000000000001
 21
-7.174263648884251
 31
0.0
  0
LINE
  5
48D
330
18
100
AcDbEntity
  8
1
 62
     1
100
AcDbLine
 10
76.84662275453838
 20
1.407001314648411
 30
0.0
 11
76.9857142857143
 21
1.529547357041969
 31
0.0
  0
LINE
  5
48E
330
18
100
AcDbEntity
  8
1
 62
     1
100
AcDbLine
 10
76.84662275456941
 20
-4.753462530520466
 30
0.0
 11
76.84662275456941
 21
1.407001314675357
 31
0.0
  0
LINE
  5
48F
330
18
100
AcDbEntity
  8
1
 62
     1
100
AcDbLine
 10
76.8466227545384
 20
-4.753462533949072
 30
0.0
 11
76.9857142857143
 21
-4.642144813482662
 31
0.0
  0
LINE
  5
490
330
18
100
AcDbEntity
  8
1
 62
     1
100
AcDbLine
 10
75.17142857142857
 20
-4.240418822024043
 30
0.0
 11
75.17142857142857
 21
1.958209492204816
 31
0.0
  0
LINE
  5
491
330
18
100
AcDbEntity
  8
1
 62
     1
100
AcDbLine
 10
78.79999999999999
 20
11.27568494376435
 30
0.0
 11
77.08417915404169
 21
11.77429017466343
 31
0.0
  0
LINE
  5
492
330
18
100
AcDbEntity
  8
1
 62
     1
100
AcDbLine
 10
77.08417915404169
 20
9.010492921352474
 30
0.0
 11
77.08417915404169
 21
11.77429017466343
 31
0.0
  0
LINE
  5
493
330
18
100
AcDbEntity
  8
1
 62
     1
100
AcDbLine
 10
78.80000000000002
 20
11.27568494376434
 30
0.0
 11
78.79999999999999
 21
8.435033327953018
 31
0.0
  0
LINE
  5
494
330
18
100
AcDbEntity
  8
1
 62
     1
100
AcDbLine
 10
76.84662275456941
 20
11.84403044178487
 30
0.0
 11
75.53485699778922
 21
12.2320717787164
 31
0.0
  0
LINE
  5
495
330
18
100
AcDbEntity
  8
1
 62
     1
100
AcDbLine
 10
75.53485699778921
 20
9.545189243447916
 30
0.0
 11
75.53485699778922
 21
12.2320717787164
 31
0.0
  0
LINE
  5
496
330
18
100
AcDbEntity
  8
1
 62
     1
100
AcDbLine
 10
76.84662275495695
 20
9.091577722348253
 30
0.0
 11
75.53485699778919
 21
9.545189243447916
 31
0.0
  0
LINE
  5
497
330
18
100
AcDbEntity
  8
1
 62
     1
100
AcDbLine
 10
76.84662275456941
 20
9.091577720648453
 30
0.0
 11
76.84662275456941
 21
11.84403044178487
 31
0.0
  0
LINE
  5
498
330
18
100
AcDbEntity
  8
1
 62
     1
100
AcDbLine
 10
74.65804936173928
 20
12.49408743120388
 30
0.0
 11
73.9855348415367
 21
12.69639269714748
 31
0.0
  0
LINE
  5
499
330
18
100
AcDbEntity
  8
1
 62
     1
100
AcDbLine
 10
73.98553484153672
 20
10.09307580051786
 30
0.0
 11
73.98553484153673
 21
12.69639269714747
 31
0.0
  0
LINE
  5
49A
330
18
100
AcDbEntity
  8
1
 62
     1
100
AcDbLine
 10
74.65804936121674
 20
9.853705258901104
 30
0.0
 11
73.98553484153669
 21
10.09307580051787
 31
0.0
  0
LINE
  5
49B
330
18
100
AcDbEntity
  8
1
 62
     1
100
AcDbLine
 10
74.65804936173928
 20
9.853705260266842
 30
0.0
 11
74.65804936173928
 21
12.49408743120388
 31
0.0
  0
LINE
  5
49C
330
18
100
AcDbEntity
  8
1
 62
     1
100
AcDbLine
 10
76.9857142857143
 20
-4.642144813483148
 30
0.0
 11
76.98571428571431
 21
1.529547357042929
 31
0.0
  0
LINE
  5
49D
330
18
100
AcDbEntity
  8
1
 62
     1
100
AcDbLine
 10
76.9857142857143
 20
-4.642144813482662
 30
0.0
 11
77.08417915407493
 21
-4.764924905772403
 31
0.0
  0
LINE
  5
49E
330
18
100
AcDbEntity
  8
1
 62
     1
100
AcDbLine
 10
59.81338054066236
 20
-1.065286906313898
 30
0.0
 11
59.81338054066236
 21
5.082933757949087
 31
0.0
  0
ARC
  5
49F
330
18
100
AcDbEntity
  8
1
 62
     1
100
AcDbCircle
 10
56.81680683207792
 20
13.69878443466662
 30
0.0
 40
15.06510242136593
100
AcDbArc
 50
281.473127257583
 51
284.7685996754448
  0
LINE
  5
4A0
330
18
100
AcDbEntity
  8
1
 62
     1
100
AcDbLine
 10
58.84285714285715
 20
-0.4358861347892401
 30
0.0
 11
58.84285714285714
 21
5.630661062368821
 31
0.0
  0
LINE
  5
4A1
330
18
100
AcDbEntity
  8
1
 62
     1
100
AcDbLine
 10
57.987071146399
 20
-0.5809906435101949
 30
0.0
 11
57.987071146399
 21
5.528482468344713
 31
0.0
  0
ARC
  5
4A2
330
18
100
AcDbEntity
  8
1
 62
     1
100
AcDbCircle
 10
55.99143366584447
 20
13.78410584312686
 30
0.0
 40
14.50305488125738
100
AcDbArc
 50
277.9090612735795
 51
281.3386963573542
  0
LINE
  5
4A3
330
18
100
AcDbEntity
  8
1
 62
     1
100
AcDbLine
 10
57.02857142857142
 20
-0.0025631669259889
 30
0.0
 11
57.02857142857143
 21
6.008053370841974
 31
0.0
  0
ARC
  5
4A4
330
18
100
AcDbEntity
  8
1
 62
     1
100
AcDbCircle
 10
43.97495644353539
 20
-21.22138226650662
 30
0.0
 40
24.91255496874462
100
AcDbArc
 50
56.05786557391288
 51
58.400567330735
  0
LINE
  5
4A5
330
18
100
AcDbEntity
  8
1
 62
     1
100
AcDbLine
 10
73.35714285714286
 20
-3.833007339030249
 30
0.0
 11
73.35714285714286
 21
2.384252626269875
 31
0.0
  0
ARC
  5
4A6
330
18
100
AcDbEntity
  8
1
 62
     1
100
AcDbCircle
 10
54.1900229322201
 20
14.35356667184421
 30
0.0
 40
13.96043055528063
100
AcDbArc
 50
270.5927713958923
 51
274.2075150829692
  0
LINE
  5
4A7
330
18
100
AcDbEntity
  8
1
 62
     1
100
AcDbLine
 10
55.21428571428571
 20
0.4307634057514795
 30
0.0
 11
55.21428571428572
 21
6.377393034976651
 31
0.0
  0
LINE
  5
4A8
330
18
100
AcDbEntity
  8
1
 62
     1
100
AcDbLine
 10
56.16076175213567
 20
-0.0943843279435004
 30
0.0
 11
56.16076175213567
 21
5.968341286420974
 31
0.0
  0
LINE
  5
4A9
330
18
100
AcDbEntity
  8
1
 62
     1
100
AcDbLine
 10
60.65714285714285
 20
-0.8686250555607884
 30
0.0
 11
60.65714285714285
 21
5.24572058933858
 31
0.0
  0
LINE
  5
4AA
330
18
100
AcDbEntity
  8
1
 62
     1
100
AcDbLine
 10
60.65714285714285
 20
-0.8686250555607902
 30
0.0
 11
61.48986786141305
 21
-1.50726928356498
 31
0.0
  0
LINE
  5
4AB
330
18
100
AcDbEntity
  8
1
 62
     1
100
AcDbLine
 10
61.63968993492575
 20
-1.546629841172783
 30
0.0
 11
61.63968993492574
 21
4.632289812936315
 31
0.0
  0
ARC
  5
4AC
330
18
100
AcDbEntity
  8
1
 62
     1
100
AcDbCircle
 10
57.56040995896429
 20
13.74745613969565
 30
0.0
 40
15.82876061715749
100
AcDbArc
 50
284.9344147079368
 51
288.0748376716372
  0
LINE
  5
4AD
330
18
100
AcDbEntity
  8
1
 62
     1
100
AcDbLine
 10
62.47142857142858
 20
-1.300199407468116
 30
0.0
 11
62.47142857142857
 21
4.853749577308346
 31
0.0
  0
LINE
  5
4AE
330
18
100
AcDbEntity
  8
1
 62
     1
100
AcDbLine
 10
62.47142857142858
 20
-1.300199407468112
 30
0.0
 11
63.29228717829743
 21
-1.979111461151299
 31
0.0
  0
LINE
  5
4AF
330
18
100
AcDbEntity
  8
1
 62
     1
100
AcDbLine
 10
63.46599932918909
 20
-2.024381747492256
 30
0.0
 11
63.46599932918908
 21
4.177150763080656
 31
0.0
  0
ARC
  5
4B0
330
18
100
AcDbEntity
  8
1
 62
     1
100
AcDbCircle
 10
58.19888359197911
 20
13.9312569744038
 30
0.0
 40
16.80252961438753
100
AcDbArc
 50
288.2685728263183
 51
291.2388410458893
  0
LINE
  5
4B1
330
18
100
AcDbEntity
  8
1
 62
     1
100
AcDbLine
 10
68.94492751197915
 20
-3.429824824337348
 30
0.0
 11
68.94492751197913
 21
2.79081134909797
 31
0.0
  0
ARC
  5
4B2
330
18
100
AcDbEntity
  8
1
 62
     1
100
AcDbCircle
 10
59.25110224975216
 20
15.31374571470147
 30
0.0
 40
21.10193831958437
100
AcDbArc
 50
297.3471625996395
 51
299.7698044331617
  0
LINE
  5
4B3
330
18
100
AcDbEntity
  8
1
 62
     1
100
AcDbLine
 10
69.72857142857143
 20
-3.003324170374984
 30
0.0
 11
69.72857142857143
 21
3.22618403486008
 31
0.0
  0
LINE
  5
4B4
330
18
100
AcDbEntity
  8
1
 62
     1
100
AcDbLine
 10
71.54285714285712
 20
-3.420458098934127
 30
0.0
 11
71.54285714285714
 21
2.807100133760206
 31
0.0
  0
LINE
  5
4B5
330
18
100
AcDbEntity
  8
1
 62
     1
100
AcDbLine
 10
71.54285714285712
 20
-3.420458098934124
 30
0.0
 11
72.30438376271585
 21
-4.265649642913503
 31
0.0
  0
LINE
  5
4B6
330
18
100
AcDbEntity
  8
1
 62
     1
100
AcDbLine
 10
70.77123690624247
 20
-3.886988088702819
 30
0.0
 11
70.77123690624247
 21
2.323751047905594
 31
0.0
  0
LINE
  5
4B7
330
18
100
AcDbEntity
  8
1
 62
     1
100
AcDbLine
 10
72.59754630050588
 20
12.95783135824815
 30
0.0
 11
72.30438376650031
 21
12.9738967610321
 31
0.0
  0
LINE
  5
4B8
330
18
100
AcDbEntity
  8
1
 62
     1
100
AcDbLine
 10
72.30438376268458
 20
10.51869934668381
 30
0.0
 11
72.30438376268459
 21
12.97389676103211
 31
0.0
  0
LINE
  5
4B9
330
18
100
AcDbEntity
  8
1
 62
     1
100
AcDbLine
 10
72.59754630050588
 20
10.46949241045293
 30
0.0
 11
72.30438376447643
 21
10.51869933112799
 31
0.0
  0
LINE
  5
4BA
330
18
100
AcDbEntity
  8
1
 62
     1
100
AcDbLine
 10
72.59754630050591
 20
10.46949241045293
 30
0.0
 11
72.59754630050588
 21
12.95783135824815
 31
0.0
  0
LINE
  5
4BB
330
18
100
AcDbEntity
  8
1
 62
     1
100
AcDbLine
 10
70.77123690624247
 20
13.05102698645485
 30
0.0
 11
70.50196444744473
 21
13.06337503475427
 31
0.0
  0
LINE
  5
4BC
330
18
100
AcDbEntity
  8
1
 62
     1
100
AcDbLine
 10
70.50196444580106
 20
10.81372904571622
 30
0.0
 11
70.50196444580108
 21
13.06337503475427
 31
0.0
  0
LINE
  5
4BD
330
18
100
AcDbEntity
  8
1
 62
     1
100
AcDbLine
 10
70.77123690624247
 20
10.7704824452973
 30
0.0
 11
70.50196444641371
 21
10.81372903576935
 31
0.0
  0
LINE
  5
4BE
330
18
100
AcDbEntity
  8
1
 62
     1
100
AcDbLine
 10
68.94492751197913
 20
13.12771016592195
 30
0.0
 11
68.69954512891756
 21
13.1367461703191
 31
0.0
  0
LINE
  5
4BF
330
18
100
AcDbEntity
  8
1
 62
     1
100
AcDbLine
 10
68.69954512891756
 20
11.09554425558935
 30
0.0
 11
68.69954512891758
 21
13.13674617031911
 31
0.0
  0
LINE
  5
4C0
330
18
100
AcDbEntity
  8
1
 62
     1
100
AcDbLine
 10
68.94492751197913
 20
11.05797008100537
 30
0.0
 11
68.69954512891758
 21
11.09554425558936
 31
0.0
  0
LINE
  5
4C1
330
18
100
AcDbEntity
  8
1
 62
     1
100
AcDbLine
 10
67.11861811771578
 20
13.1877238126581
 30
0.0
 11
66.89712581196793
 21
13.19386201481374
 31
0.0
  0
LINE
  5
4C2
330
18
100
AcDbEntity
  8
1
 62
     1
100
AcDbLine
 10
66.89712581203409
 20
11.36373265450793
 30
0.0
 11
66.89712581203409
 21
13.19386201481374
 31
0.0
  0
LINE
  5
4C3
330
18
100
AcDbEntity
  8
1
 62
     1
100
AcDbLine
 10
67.11861811771583
 20
11.33152389083704
 30
0.0
 11
66.89712581196296
 21
11.36373264970544
 31
0.0
  0
LINE
  5
4C4
330
18
100
AcDbEntity
  8
1
 62
     1
100
AcDbLine
 10
65.29230872345244
 20
13.23093215709344
 30
0.0
 11
65.09470649506957
 21
13.23459464184715
 31
0.0
  0
LINE
  5
4C5
330
18
100
AcDbEntity
  8
1
 62
     1
100
AcDbLine
 10
65.09470649515058
 20
11.61789872062088
 30
0.0
 11
65.09470649515058
 21
13.23459464184715
 31
0.0
  0
LINE
  5
4C6
330
18
100
AcDbEntity
  8
1
 62
     1
100
AcDbLine
 10
65.29230872345246
 20
11.59073025073525
 30
0.0
 11
65.09470649515058
 21
11.61789872062088
 31
0.0
  0
LINE
  5
4C7
330
18
100
AcDbEntity
  8
1
 62
     1
100
AcDbLine
 10
63.46599932918908
 20
11.83519331396042
 30
0.0
 11
63.29228717830993
 21
11.85766406800859
 31
0.0
  0
LINE
  5
4C8
330
18
100
AcDbEntity
  8
1
 62
     1
100
AcDbLine
 10
63.29228717826708
 20
13.25947136426035
 30
0.0
 11
63.46599932918909
 21
13.25749050473521
 31
0.0
  0
LINE
  5
4C9
330
18
100
AcDbEntity
  8
1
 62
     1
100
AcDbLine
 10
63.29228717826708
 20
11.85766406931285
 30
0.0
 11
63.29228717826709
 21
13.25947136426034
 31
0.0
  0
LINE
  5
4CA
330
18
100
AcDbEntity
  8
1
 62
     1
100
AcDbLine
 10
61.63968993502193
 20
12.06453609210199
 30
0.0
 11
61.48986786200757
 21
12.08266807224351
 31
0.0
  0
LINE
  5
4CB
330
18
100
AcDbEntity
  8
1
 62
     1
100
AcDbLine
 10
61.48986786138359
 20
13.28002455788085
 30
0.0
 11
61.63968993492572
 21
13.27831611964048
 31
0.0
  0
LINE
  5
4CC
330
18
100
AcDbEntity
  8
1
 62
     1
100
AcDbLine
 10
59.81338054193884
 20
12.27840077562155
 30
0.0
 11
59.68744854480929
 21
12.29256854951599
 31
0.0
  0
LINE
  5
4CD
330
18
100
AcDbEntity
  8
1
 62
     1
100
AcDbLine
 10
59.81338054066236
 20
12.27840079382258
 30
0.0
 11
59.81338054066236
 21
13.29914173454576
 31
0.0
  0
LINE
  5
4CE
330
18
100
AcDbEntity
  8
1
 62
     1
100
AcDbLine
 10
59.68744854450009
 20
13.30057775150136
 30
0.0
 11
59.81338054066235
 21
13.29914173454576
 31
0.0
  0
LINE
  5
4CF
330
18
100
AcDbEntity
  8
1
 62
     1
100
AcDbLine
 10
57.987071146399
 20
12.47644934794674
 30
0.0
 11
57.8850292277908
 21
12.48704191206066
 31
0.0
  0
LINE
  5
4D0
330
18
100
AcDbEntity
  8
1
 62
     1
100
AcDbLine
 10
57.88502922761657
 20
12.48704191501063
 30
0.0
 11
57.88502922761657
 21
13.32113094512186
 31
0.0
  0
LINE
  5
4D1
330
18
100
AcDbEntity
  8
1
 62
     1
100
AcDbLine
 10
56.16076175162793
 20
12.65836416898111
 30
0.0
 11
56.08260990965316
 21
12.66578414079125
 31
0.0
  0
LINE
  5
4D2
330
18
100
AcDbEntity
  8
1
 62
     1
100
AcDbLine
 10
54.33445235791483
 20
12.82384827820886
 30
0.0
 11
54.28019059384958
 21
12.82851075878316
 31
0.0
  0
LINE
  5
4D3
330
18
100
AcDbEntity
  8
1
 62
     1
100
AcDbLine
 10
67.11861811771585
 20
-2.966597916446529
 30
0.0
 11
67.11861811771585
 21
3.255803890690393
 31
0.0
  0
ARC
  5
4D4
330
18
100
AcDbEntity
  8
1
 62
     1
100
AcDbCircle
 10
59.06737356926033
 20
14.71193030997513
 30
0.0
 40
19.4255761168164
100
AcDbArc
 50
294.4857082610156
 51
297.0923240993268
  0
LINE
  5
4D5
330
18
100
AcDbEntity
  8
1
 62
     1
100
AcDbLine
 10
67.91428571428571
 20
-2.582164715584587
 30
0.0
 11
67.91428571428571
 21
3.640943026922084
 31
0.0
  0
LINE
  5
4D6
330
18
100
AcDbEntity
  8
1
 62
     1
100
AcDbLine
 10
66.10000000000001
 20
-2.157543837522666
 30
0.0
 11
66.10000000000001
 21
4.050822661679279
 31
0.0
  0
LINE
  5
4D7
330
18
100
AcDbEntity
  8
1
 62
     1
100
AcDbLine
 10
65.29230872345249
 20
-2.497912030971068
 30
0.0
 11
65.29230872345249
 21
3.718120236937726
 31
0.0
  0
ARC
  5
4D8
330
18
100
AcDbEntity
  8
1
 62
     1
100
AcDbCircle
 10
58.70886942103314
 20
14.25214233261521
 30
0.0
 40
17.99739127638392
100
AcDbArc
 50
291.4568058027132
 51
294.2474049085401
  0
LINE
  5
4D9
330
18
100
AcDbEntity
  8
1
 62
     1
100
AcDbLine
 10
64.28571428571429
 20
-1.7300312390379
 30
0.0
 11
64.28571428571429
 21
4.455271630520067
 31
0.0
  0
LINE
  5
4DA
330
18
100
AcDbEntity
  8
1
 62
     1
100
AcDbLine
 10
64.28571428571429
 20
-1.730031239037901
 30
0.0
 11
65.09470649518113
 21
-2.446899923989026
 31
0.0
  0
LINE
  5
4DB
330
18
100
AcDbEntity
  8
1
 62
     1
100
AcDbLine
 10
53.40000000000001
 20
0.8635124704413616
 30
0.0
 11
53.39999999999999
 21
6.738183943555847
 31
0.0
  0
LINE
  5
4DC
330
18
100
AcDbEntity
  8
1
 62
     1
100
AcDbLine
 10
76.8466227545384
 20
9.091577720686363
 30
0.0
 11
76.9857142857143
 21
8.922050072641505
 31
0.0
  0
LINE
  5
4DD
330
18
100
AcDbEntity
  8
1
 62
     1
100
AcDbLine
 10
76.98571428571428
 20
8.922050072641507
 30
0.0
 11
76.9857142857143
 21
11.63660549752422
 31
0.0
  0
LINE
  5
4DE
330
18
100
AcDbEntity
  8
1
 62
     1
100
AcDbLine
 10
76.9857142857143
 20
8.922050072641512
 30
0.0
 11
77.08417915407496
 21
9.010492921382233
 31
0.0
  0
LINE
  5
4DF
330
18
100
AcDbEntity
  8
1
 62
     1
100
AcDbLine
 10
59.81338054063928
 20
12.27840079385895
 30
0.0
 11
60.65714285714285
 21
10.95955482921727
 31
0.0
  0
LINE
  5
4E0
330
18
100
AcDbEntity
  8
1
 62
     1
100
AcDbLine
 10
59.68744854450009
 20
12.29256855392637
 30
0.0
 11
59.68744854450009
 21
13.30057775150136
 31
0.0
  0
LINE
  5
4E1
330
18
100
AcDbEntity
  8
1
 62
     1
100
AcDbLine
 10
57.987071146399
 20
12.47644934794674
 30
0.0
 11
57.987071146399
 21
13.31996734945103
 31
0.0
  0
LINE
  5
4E2
330
18
100
AcDbEntity
  8
1
 62
     1
100
AcDbLine
 10
57.98707114637611
 20
12.47644934798338
 30
0.0
 11
58.84285714285714
 21
11.11599367558822
 31
0.0
  0
LINE
  5
4E3
330
18
100
AcDbEntity
  8
1
 62
     1
100
AcDbLine
 10
58.84285714285714
 20
11.11599367558822
 30
0.0
 11
58.84285714285714
 21
11.83770321428571
 31
0.0
  0
LINE
  5
4E4
330
18
100
AcDbEntity
  8
1
 62
     1
100
AcDbLine
 10
72.59754630047456
 20
10.46949241049477
 30
0.0
 11
73.35714285714288
 21
9.467337671253989
 31
0.0
  0
LINE
  5
4E5
330
18
100
AcDbEntity
  8
1
 62
     1
100
AcDbLine
 10
73.35714285714286
 20
9.467337671253991
 30
0.0
 11
73.35714285714286
 21
11.76437871940034
 31
0.0
  0
LINE
  5
4E6
330
18
100
AcDbEntity
  8
1
 62
     1
100
AcDbLine
 10
73.35714285714286
 20
9.467337671253991
 30
0.0
 11
73.98553484157119
 21
10.09307580055145
 31
0.0
  0
LINE
  5
4E7
330
18
100
AcDbEntity
  8
1
 62
     1
100
AcDbLine
 10
74.65804936170382
 20
9.853705255184213
 30
0.0
 11
75.17142857142859
 21
9.200859775663413
 31
0.0
  0
LINE
  5
4E8
330
18
100
AcDbEntity
  8
1
 62
     1
100
AcDbLine
 10
75.17142857142857
 20
9.200859775663401
 30
0.0
 11
75.17142857142856
 21
11.70833858388776
 31
0.0
  0
LINE
  5
4E9
330
18
100
AcDbEntity
  8
1
 62
     1
100
AcDbLine
 10
54.33445235787229
 20
12.82384827927784
 30
0.0
 11
54.33445235787229
 21
13.36161857926158
 31
0.0
  0
LINE
  5
4EA
330
18
100
AcDbEntity
  8
1
 62
     1
100
AcDbLine
 10
54.3344523578507
 20
12.82384827931336
 30
0.0
 11
55.21428571428572
 21
11.38398157345247
 31
0.0
  0
LINE
  5
4EB
330
18
100
AcDbEntity
  8
1
 62
     1
100
AcDbLine
 10
55.21428571428571
 20
11.38398157345228
 30
0.0
 11
55.21428571428572
 21
11.83770321368186
 31
0.0
  0
LINE
  5
4EC
330
18
100
AcDbEntity
  8
1
 62
     1
100
AcDbLine
 10
56.08260991073308
 20
12.66578415921417
 30
0.0
 11
56.08260991073308
 21
13.34168413874237
 31
0.0
  0
LINE
  5
4ED
330
18
100
AcDbEntity
  8
1
 62
     1
100
AcDbLine
 10
56.16076175213565
 20
12.65836417596936
 30
0.0
 11
56.16076175213565
 21
13.34079296435631
 31
0.0
  0
LINE
  5
4EE
330
18
100
AcDbEntity
  8
1
 62
     1
100
AcDbLine
 10
56.16076175211364
 20
12.65836417890423
 30
0.0
 11
57.02857142857142
 21
11.25753245386082
 31
0.0
  0
LINE
  5
4EF
330
18
100
AcDbEntity
  8
1
 62
     1
100
AcDbLine
 10
57.02857142857142
 20
11.25753245386081
 30
0.0
 11
57.02857142857142
 21
11.83770321428571
 31
0.0
  0
LINE
  5
4F0
330
18
100
AcDbEntity
  8
1
 62
     1
100
AcDbLine
 10
60.65714285714285
 20
10.95955482921727
 30
0.0
 11
60.65714285714285
 21
11.83770321428571
 31
0.0
  0
LINE
  5
4F1
330
18
100
AcDbEntity
  8
1
 62
     1
100
AcDbLine
 10
60.65714285714285
 20
10.95955482921727
 30
0.0
 11
61.48986786141305
 21
12.08266808022877
 31
0.0
  0
LINE
  5
4F2
330
18
100
AcDbEntity
  8
1
 62
     1
100
AcDbLine
 10
61.48986786138357
 20
12.08266808018968
 30
0.0
 11
61.48986786138358
 21
13.28002455788085
 31
0.0
  0
LINE
  5
4F3
330
18
100
AcDbEntity
  8
1
 62
     1
100
AcDbLine
 10
61.63968993492574
 20
12.06453608443713
 30
0.0
 11
61.63968993492573
 21
13.27831611964049
 31
0.0
  0
LINE
  5
4F4
330
18
100
AcDbEntity
  8
1
 62
     1
100
AcDbLine
 10
61.6396899348965
 20
12.06453609204854
 30
0.0
 11
62.47142857142857
 21
10.78842578026851
 31
0.0
  0
LINE
  5
4F5
330
18
100
AcDbEntity
  8
1
 62
     1
100
AcDbLine
 10
62.47142857142858
 20
10.78842578026849
 30
0.0
 11
62.47142857142858
 21
11.83770321428571
 31
0.0
  0
LINE
  5
4F6
330
18
100
AcDbEntity
  8
1
 62
     1
100
AcDbLine
 10
63.46599932918908
 20
11.83519331396042
 30
0.0
 11
63.46599932918909
 21
13.25749050473521
 31
0.0
  0
LINE
  5
4F7
330
18
100
AcDbEntity
  8
1
 62
     1
100
AcDbLine
 10
63.46599932915868
 20
11.83519331400649
 30
0.0
 11
64.28571428571429
 21
10.6028356982657
 31
0.0
  0
LINE
  5
4F8
330
18
100
AcDbEntity
  8
1
 62
     1
100
AcDbLine
 10
68.94492751197913
 20
11.05797008100537
 30
0.0
 11
68.94492751197913
 21
13.12771016592194
 31
0.0
  0
LINE
  5
4F9
330
18
100
AcDbEntity
  8
1
 62
     1
100
AcDbLine
 10
68.94492751194821
 20
11.05797008104911
 30
0.0
 11
69.72857142857143
 21
9.961882762205764
 31
0.0
  0
LINE
  5
4FA
330
18
100
AcDbEntity
  8
1
 62
     1
100
AcDbLine
 10
69.72857142857143
 20
9.961882762205764
 30
0.0
 11
69.72857142857143
 21
11.82909756397442
 31
0.0
  0
LINE
  5
4FB
330
18
100
AcDbEntity
  8
1
 62
     1
100
AcDbLine
 10
69.72857142857143
 20
9.961882762205767
 30
0.0
 11
70.50196444583216
 21
10.81372904574972
 31
0.0
  0
LINE
  5
4FC
330
18
100
AcDbEntity
  8
1
 62
     1
100
AcDbLine
 10
71.54285714285714
 20
9.721125406965342
 30
0.0
 11
71.54285714285714
 21
11.80464973143289
 31
0.0
  0
LINE
  5
4FD
330
18
100
AcDbEntity
  8
1
 62
     1
100
AcDbLine
 10
70.77123690624247
 20
10.77048244529731
 30
0.0
 11
70.77123690624247
 21
13.05102698645485
 31
0.0
  0
LINE
  5
4FE
330
18
100
AcDbEntity
  8
1
 62
     1
100
AcDbLine
 10
70.77123690621137
 20
10.77048244534012
 30
0.0
 11
71.54285714285714
 21
9.721125406965345
 31
0.0
  0
LINE
  5
4FF
330
18
100
AcDbEntity
  8
1
 62
     1
100
AcDbLine
 10
67.11861811771583
 20
11.33152389083704
 30
0.0
 11
67.11861811771578
 21
13.1877238126581
 31
0.0
  0
LINE
  5
500
330
18
100
AcDbEntity
  8
1
 62
     1
100
AcDbLine
 10
67.11861811768504
 20
11.33152389088165
 30
0.0
 11
67.91428571428572
 21
10.1892870214528
 31
0.0
  0
LINE
  5
501
330
18
100
AcDbEntity
  8
1
 62
     1
100
AcDbLine
 10
67.91428571428571
 20
10.18928702145278
 30
0.0
 11
67.91428571428572
 21
11.83768955284017
 31
0.0
  0
LINE
  5
502
330
18
100
AcDbEntity
  8
1
 62
     1
100
AcDbLine
 10
66.09999999999999
 20
10.40303359273618
 30
0.0
 11
66.10000000000001
 21
11.83770321428571
 31
0.0
  0
LINE
  5
503
330
18
100
AcDbEntity
  8
1
 62
     1
100
AcDbLine
 10
66.10000000000002
 20
10.40303359273619
 30
0.0
 11
66.89712581206482
 21
11.36373265454426
 31
0.0
  0
LINE
  5
504
330
18
100
AcDbEntity
  8
1
 62
     1
100
AcDbLine
 10
65.29230872345246
 20
11.59073025073525
 30
0.0
 11
65.29230872345244
 21
13.23093215709344
 31
0.0
  0
LINE
  5
505
330
18
100
AcDbEntity
  8
1
 62
     1
100
AcDbLine
 10
64.28571428571429
 20
10.60283569826571
 30
0.0
 11
64.28571428571429
 21
11.83770321428571
 31
0.0
  0
LINE
  5
506
330
18
100
AcDbEntity
  8
1
 62
     1
100
AcDbLine
 10
54.28019059384958
 20
12.82851075878316
 30
0.0
 11
54.28019059384958
 21
13.36223733236287
 31
0.0
  0
LINE
  5
507
330
18
100
AcDbEntity
  8
1
 62
     1
100
AcDbLine
 10
78.79999999999999
 20
7.554923200279321
 30
0.0
 11
78.79999999999999
 21
8.435033327953014
 31
0.0
  0
LINE
  5
508
330
18
100
AcDbEntity
  8
1
 62
     1
100
AcDbLine
 10
78.79999999999999
 20
4.467056522456094
 30
0.0
 11
78.79999999999999
 21
7.554923200279327
 31
0.0
  0
LINE
  5
509
330
18
100
AcDbEntity
  8
1
 62
     1
100
AcDbLine
 10
78.79999999999999
 20
1.334710916035146
 30
0.0
 11
78.79999999999999
 21
-4.827519166991413
 31
0.0
  0
LINE
  5
50A
330
18
100
AcDbEntity
  8
1
 62
     1
100
AcDbLine
 10
78.79999999999999
 20
-4.881799551162623
 30
0.0
 11
78.79999999999999
 21
-4.827519166991419
 31
0.0
  0
LINE
  5
50B
330
18
100
AcDbEntity
  8
1
 62
     1
100
AcDbLine
 10
78.79999999999999
 20
-10.45078823249913
 30
0.0
 11
78.79999999999999
 21
-11.5
 31
0.0
  0
LINE
  5
50C
330
18
100
AcDbEntity
  8
1
 62
     1
100
AcDbLine
 10
76.84662275456941
 20
-12.0786167008052
 30
0.0
 11
76.84662275456941
 21
-12.07834280468855
 31
0.0
  0
LINE
  5
50D
330
18
100
AcDbEntity
  8
1
 62
     1
100
AcDbLine
 10
76.84662275456941
 20
-12.07834280468855
 30
0.0
 11
76.84662275456941
 21
-11.99958096951662
 31
0.0
  0
LINE
  5
50E
330
18
100
AcDbEntity
  8
1
 62
     1
100
AcDbLine
 10
76.84662275456941
 20
-11.99958096951662
 30
0.0
 11
76.84662275456941
 21
-10.97445580709972
 31
0.0
  0
LINE
  5
50F
330
18
100
AcDbEntity
  8
1
 62
     1
100
AcDbLine
 10
74.65804936173928
 20
-12.72690167442804
 30
0.0
 11
74.65804936173931
 21
-12.7266052157768
 31
0.0
  0
LINE
  5
510
330
18
100
AcDbEntity
  8
1
 62
     1
100
AcDbLine
 10
74.65804936173931
 20
-12.7266052157768
 30
0.0
 11
74.65804936173928
 21
-12.64135379968096
 31
0.0
  0
LINE
  5
511
330
18
100
AcDbEntity
  8
1
 62
     1
100
AcDbLine
 10
74.65804936173928
 20
-12.64135379968096
 30
0.0
 11
74.65804936173928
 21
-11.53223903561747
 31
0.0
  0
LINE
  5
512
330
18
100
AcDbEntity
  8
1
 62
     1
100
AcDbLine
 10
73.98553484153673
 20
-12.92610955085512
 30
0.0
 11
73.98553484153672
 21
-12.92580464070202
 31
0.0
  0
LINE
  5
513
330
18
100
AcDbEntity
  8
1
 62
     1
100
AcDbLine
 10
73.98553484153672
 20
-12.92580464070202
 30
0.0
 11
73.98553484153675
 21
-12.83812277496399
 31
0.0
  0
LINE
  5
514
330
18
100
AcDbEntity
  8
1
 62
     1
100
AcDbLine
 10
73.98553484153675
 20
-12.83812277496399
 30
0.0
 11
73.98553484153672
 21
-11.697618340483
 31
0.0
  0
LINE
  5
515
330
18
100
AcDbEntity
  8
1
 62
     1
100
AcDbLine
 10
72.30438376268458
 20
-13.15670539615781
 30
0.0
 11
72.30438376268459
 21
-13.15636333318508
 31
0.0
  0
LINE
  5
516
330
18
100
AcDbEntity
  8
1
 62
     1
100
AcDbLine
 10
72.30438376268459
 20
-13.15636333318508
 30
0.0
 11
72.30438376268459
 21
-13.05800650697983
 31
0.0
  0
LINE
  5
517
330
18
100
AcDbEntity
  8
1
 62
     1
100
AcDbLine
 10
72.30438376268459
 20
-13.05800650697983
 30
0.0
 11
72.30438376268456
 21
-11.78077339801163
 31
0.0
  0
LINE
  5
518
330
18
100
AcDbEntity
  8
1
 62
     1
100
AcDbLine
 10
68.94492751197913
 20
-13.17771839756416
 30
0.0
 11
68.94492751197913
 21
-11.4028938964454
 31
0.0
  0
LINE
  5
519
330
18
100
AcDbEntity
  8
1
 62
     1
100
AcDbLine
 10
68.94492751194899
 20
-11.4028938941609
 30
0.0
 11
68.69954512891756
 21
-11.37323489624672
 31
0.0
  0
LINE
  5
51A
330
18
100
AcDbEntity
  8
1
 62
     1
100
AcDbLine
 10
59.81338054066239
 20
-10.11726306268333
 30
0.0
 11
59.68744854442117
 21
-10.09700078592896
 31
0.0
  0
LINE
  5
51B
330
18
100
AcDbEntity
  8
1
 62
     1
100
AcDbLine
 10
54.33445235786058
 20
-9.175782289143104
 30
0.0
 11
54.28019059384958
 21
-9.16586063052882
 31
0.0
  0
LINE
  5
51C
330
18
100
AcDbEntity
  8
1
 62
     1
100
AcDbLine
 10
71.54285714285712
 20
-11.83508476920148
 30
0.0
 11
71.96325269226891
 21
-12.56584932564436
 31
0.0
  0
LINE
  5
51D
330
18
100
AcDbEntity
  8
1
 62
     1
100
AcDbLine
 10
70.77123690621137
 20
-13.17277319803557
 30
0.0
 11
71.54285714285714
 21
-11.83508476920149
 31
0.0
  0
LINE
  5
51E
330
18
100
AcDbEntity
  8
1
 62
     1
100
AcDbLine
 10
70.77123690624251
 20
-13.17277319798163
 30
0.0
 11
70.50196444650855
 21
-13.17461138418662
 31
0.0
  0
LINE
  5
51F
330
18
100
AcDbEntity
  8
1
 62
     1
100
AcDbLine
 10
68.94492751198303
 20
-13.17771839790343
 30
0.0
 11
68.69954512885946
 21
-13.1770365228406
 31
0.0
  0
LINE
  5
520
330
18
100
AcDbEntity
  8
1
 62
     1
100
AcDbLine
 10
67.11861811768503
 20
-13.16498223420886
 30
0.0
 11
67.91428571428571
 21
-11.78515258023478
 31
0.0
  0
LINE
  5
521
330
18
100
AcDbEntity
  8
1
 62
     1
100
AcDbLine
 10
67.11861811771578
 20
-13.16498223415561
 30
0.0
 11
66.89712581203408
 21
-13.16223321732629
 31
0.0
  0
LINE
  5
522
330
18
100
AcDbEntity
  8
1
 62
     1
100
AcDbLine
 10
65.29230872342186
 20
-13.13452478683545
 30
0.0
 11
66.09999999999999
 21
-11.73646901654308
 31
0.0
  0
LINE
  5
523
330
18
100
AcDbEntity
  8
1
 62
     1
100
AcDbLine
 10
65.29230872345244
 20
-13.13452478678264
 30
0.0
 11
65.09470649515058
 21
-13.13016604069843
 31
0.0
  0
LINE
  5
524
330
18
100
AcDbEntity
  8
1
 62
     1
100
AcDbLine
 10
63.46599932915868
 20
-13.08633004016782
 30
0.0
 11
64.28571428571429
 21
-11.67205380559023
 31
0.0
  0
LINE
  5
525
330
18
100
AcDbEntity
  8
1
 62
     1
100
AcDbLine
 10
63.46599932918909
 20
-13.08633004011553
 30
0.0
 11
63.29228717776411
 21
-13.08082220900948
 31
0.0
  0
LINE
  5
526
330
18
100
AcDbEntity
  8
1
 62
     1
100
AcDbLine
 10
61.63968993487213
 20
-13.02040590038476
 30
0.0
 11
61.48986786154249
 21
-13.01421172460908
 31
0.0
  0
LINE
  5
527
330
18
100
AcDbEntity
  8
1
 62
     1
100
AcDbLine
 10
59.81338054063925
 20
-12.93678430973407
 30
0.0
 11
60.65714285714285
 21
-11.49639463703361
 31
0.0
  0
LINE
  5
528
330
18
100
AcDbEntity
  8
1
 62
     1
100
AcDbLine
 10
59.81338054066236
 20
-12.93678430969479
 30
0.0
 11
59.68744854421233
 21
-12.9303672796963
 31
0.0
  0
LINE
  5
529
330
18
100
AcDbEntity
  8
1
 62
     1
100
AcDbLine
 10
57.98707114637611
 20
-12.83552131282033
 30
0.0
 11
58.84285714285714
 21
-11.38538612211279
 31
0.0
  0
LINE
  5
52A
330
18
100
AcDbEntity
  8
1
 62
     1
100
AcDbLine
 10
57.987071146399
 20
-12.83552131278171
 30
0.0
 11
57.88502922782461
 21
-12.82934453715993
 31
0.0
  0
LINE
  5
52B
330
18
100
AcDbEntity
  8
1
 62
     1
100
AcDbLine
 10
56.16076175211364
 20
-12.71669690163031
 30
0.0
 11
57.02857142857143
 21
-11.25911657813992
 31
0.0
  0
LINE
  5
52C
330
18
100
AcDbEntity
  8
1
 62
     1
100
AcDbLine
 10
56.16076175213567
 20
-12.71669690159356
 30
0.0
 11
56.08260991062866
 21
-12.71122180947461
 31
0.0
  0
LINE
  5
52D
330
18
100
AcDbEntity
  8
1
 62
     1
100
AcDbLine
 10
54.33445235785072
 20
-12.58041530211228
 30
0.0
 11
55.21428571428572
 21
-11.11775514758839
 31
0.0
  0
LINE
  5
52E
330
18
100
AcDbEntity
  8
1
 62
     1
100
AcDbLine
 10
54.33445235788552
 20
-12.5804153019062
 30
0.0
 11
54.28019059384956
 21
-12.57610044002455
 31
0.0
  0
LINE
  5
52F
330
18
100
AcDbEntity
  8
1
 62
     1
100
AcDbLine
 10
52.8
 20
-11.94969257437065
 30
0.0
 11
53.40000000000001
 21
-10.9614914000941
 31
0.0
  0
LINE
  5
530
330
18
100
AcDbEntity
  8
1
 62
     1
100
AcDbLine
 10
52.86379480697243
 20
-11.84509682281461
 30
0.0
 11
53.39999999999999
 21
-11.17212272281915
 31
0.0
  0
LINE
  5
531
330
18
100
AcDbEntity
  8
1
 62
     1
100
AcDbLine
 10
53.40000000000001
 20
-11.17212272281914
 30
0.0
 11
53.67858999338587
 21
-11.47279609197161
 31
0.0
  0
LINE
  5
532
330
18
100
AcDbEntity
  8
1
 62
     1
100
AcDbLine
 10
65.29230872342186
 20
13.23093215714557
 30
0.0
 11
65.6963033460691
 21
12.53692600389894
 31
0.0
  0
LINE
  5
533
330
18
100
AcDbEntity
  8
1
 62
     1
100
AcDbLine
 10
67.11861811768503
 20
13.18772381270947
 30
0.0
 11
67.91428571428571
 21
11.83768955284016
 31
0.0
  0
ARC
  5
534
330
18
100
AcDbEntity
  8
1
 62
     1
100
AcDbCircle
 10
102.3165796915061
 20
-8.073561940632494
 30
0.0
 40
39.74892244011285
100
AcDbArc
 50
147.7505620869365
 51
149.9387348833927
  0
LINE
  5
535
330
18
100
AcDbEntity
  8
1
 62
     1
100
AcDbLine
 10
68.94492751194821
 20
13.12771016597249
 30
0.0
 11
69.72857142857143
 21
11.82909756397442
 31
0.0
  0
ARC
  5
536
330
18
100
AcDbEntity
  8
1
 62
     1
100
AcDbCircle
 10
101.4109515157097
 20
-7.165753300270387
 30
0.0
 40
36.94020156686522
100
AcDbArc
 50
146.796295966885
 51
149.0556312365766
  0
LINE
  5
537
330
18
100
AcDbEntity
  8
1
 62
     1
100
AcDbLine
 10
70.77123690621137
 20
13.05102698650446
 30
0.0
 11
71.54285714285714
 21
11.80464973143289
 31
0.0
  0
ARC
  5
538
330
18
100
AcDbEntity
  8
1
 62
     1
100
AcDbCircle
 10
100.6046893652888
 20
-6.292650560605085
 30
0.0
 40
34.23599226214502
100
AcDbArc
 50
145.7533821281834
 51
148.0887715422852
  0
LINE
  5
539
330
18
100
AcDbEntity
  8
1
 62
     1
100
AcDbLine
 10
72.59754630047455
 20
12.95783135829677
 30
0.0
 11
73.35714285714286
 21
11.76437871940034
 31
0.0
  0
ARC
  5
53A
330
18
100
AcDbEntity
  8
1
 62
     1
100
AcDbCircle
 10
99.65409553100537
 20
-5.289346550585766
 30
0.0
 40
31.34261784071347
100
AcDbArc
 50
144.9814023717344
 51
147.0363588976163
  0
LINE
  5
53B
330
18
100
AcDbEntity
  8
1
 62
     1
100
AcDbLine
 10
74.6580493617038
 20
12.49408743125771
 30
0.0
 11
75.17142857142859
 21
11.70833858388776
 31
0.0
  0
LINE
  5
53C
330
18
100
AcDbEntity
  8
1
 62
     1
100
AcDbLine
 10
75.17142857142859
 20
11.70833858388776
 30
0.0
 11
75.5348569978183
 21
12.23207177875737
 31
0.0
  0
LINE
  5
53D
330
18
100
AcDbEntity
  8
1
 62
     1
100
AcDbLine
 10
76.84662275453838
 20
11.84403044183099
 30
0.0
 11
76.9857142857143
 21
11.63660549752422
 31
0.0
  0
LINE
  5
53E
330
18
100
AcDbEntity
  8
1
 62
     1
100
AcDbLine
 10
76.9857142857143
 20
11.63660549752422
 30
0.0
 11
77.08417915407496
 21
11.7742901747096
 31
0.0
  0
LINE
  5
53F
330
18
100
AcDbEntity
  8
1
 62
     1
100
AcDbLine
 10
78.79999999999999
 20
7.554923200279327
 30
0.0
 11
65.79999999999997
 21
8.992523176730625
 31
0.0
  0
LINE
  5
540
330
18
100
AcDbEntity
  8
1
 62
     1
100
AcDbLine
 10
65.79999999999997
 20
8.992523176730625
 30
0.0
 11
52.8
 21
9.814735837184617
 31
0.0
  0
LINE
  5
541
330
18
100
AcDbEntity
  8
1
 62
     1
100
AcDbLine
 10
78.79999999999999
 20
8.435033327953025
 30
0.0
 11
77.08417915404169
 21
9.010492921352474
 31
0.0
  0
LINE
  5
542
330
18
100
AcDbEntity
  8
1
 62
     1
100
AcDbLine
 10
75.17142857142857
 20
9.200859775663415
 30
0.0
 11
75.5348569978183
 21
9.545189243475137
 31
0.0
  0
LINE
  5
543
330
18
100
AcDbEntity
  8
1
 62
     1
100
AcDbLine
 10
71.54285714285714
 20
9.721125406965349
 30
0.0
 11
72.30438376271587
 21
10.51869934671582
 31
0.0
  0
LINE
  5
544
330
18
100
AcDbEntity
  8
1
 62
     1
100
AcDbLine
 10
67.91428571428571
 20
10.1892870214528
 30
0.0
 11
68.6995451289485
 21
11.0955442556243
 31
0.0
  0
LINE
  5
545
330
18
100
AcDbEntity
  8
1
 62
     1
100
AcDbLine
 10
65.29230872342187
 20
11.59073025078063
 30
0.0
 11
66.10000000000002
 21
10.40303359273618
 31
0.0
  0
LINE
  5
546
330
18
100
AcDbEntity
  8
1
 62
     1
100
AcDbLine
 10
64.28571428571429
 20
10.60283569826571
 30
0.0
 11
65.09470649518114
 21
11.6178987206585
 31
0.0
  0
LINE
  5
547
330
18
100
AcDbEntity
  8
1
 62
     1
100
AcDbLine
 10
62.47142857142857
 20
10.78842578026851
 30
0.0
 11
63.29228717829743
 21
11.85766406935172
 31
0.0
  0
LINE
  5
548
330
18
100
AcDbEntity
  8
1
 62
     1
100
AcDbLine
 10
58.84285714285714
 20
11.11599367558822
 30
0.0
 11
59.6874485445231
 21
12.29256855395796
 31
0.0
  0
LINE
  5
549
330
18
100
AcDbEntity
  8
1
 62
     1
100
AcDbLine
 10
57.02857142857142
 20
11.25753245386082
 30
0.0
 11
57.88502922763941
 21
12.48704191504294
 31
0.0
  0
LINE
  5
54A
330
18
100
AcDbEntity
  8
1
 62
     1
100
AcDbLine
 10
55.21428571428572
 20
11.38398157345247
 30
0.0
 11
56.08260991075527
 21
12.66578416038045
 31
0.0
  0
LINE
  5
54B
330
18
100
AcDbEntity
  8
1
 62
     1
100
AcDbLine
 10
53.40000000000001
 20
11.49517145653626
 30
0.0
 11
54.28019059387114
 21
12.82851075881539
 31
0.0
  0
LINE
  5
54C
330
18
100
AcDbEntity
  8
1
 62
     1
100
AcDbLine
 10
52.80000000000001
 20
12.48766446726673
 30
0.0
 11
53.40000000000001
 21
11.49517145653626
 31
0.0
  0
ARC
  5
54D
330
18
100
AcDbEntity
  8
1
 62
     1
100
AcDbCircle
 10
48.50804434380628
 20
-7.92938901063984
 30
0.0
 40
15.46186206894058
100
AcDbArc
 50
68.07985270353711
 51
71.55533208149906
  0
LINE
  5
54E
330
18
100
AcDbEntity
  8
1
 62
     1
100
AcDbLine
 10
54.33445235785072
 20
6.401919035000183
 30
0.0
 11
54.78002511411887
 21
6.380144576894303
 31
0.0
  0
LINE
  5
54F
330
18
100
AcDbEntity
  8
1
 62
     1
100
AcDbLine
 10
54.78002511411887
 20
6.380144576894303
 30
0.0
 11
55.21428571428572
 21
6.377393034976647
 31
0.0
  0
ARC
  5
550
330
18
100
AcDbEntity
  8
1
 62
     1
100
AcDbCircle
 10
48.15591234437072
 20
-10.48270070621392
 30
0.0
 40
18.2779529166943
100
AcDbArc
 50
64.299004402294
 51
67.28368004653701
  0
LINE
  5
551
330
18
100
AcDbEntity
  8
1
 62
     1
100
AcDbLine
 10
56.16076175211364
 20
5.968341286420924
 30
0.0
 11
56.60018810759929
 21
5.97883773897445
 31
0.0
  0
LINE
  5
552
330
18
100
AcDbEntity
  8
1
 62
     1
100
AcDbLine
 10
56.60018810759929
 20
5.97883773897445
 30
0.0
 11
57.02857142857143
 21
6.008053370841951
 31
0.0
  0
ARC
  5
553
330
18
100
AcDbEntity
  8
1
 62
     1
100
AcDbCircle
 10
47.12043232677131
 20
-13.68222320426399
 30
0.0
 40
22.04264644180528
100
AcDbArc
 50
60.76761185236279
 51
63.28847819308605
  0
LINE
  5
554
330
18
100
AcDbEntity
  8
1
 62
     1
100
AcDbLine
 10
57.9870711463761
 20
5.528482468343003
 30
0.0
 11
58.42035227290404
 21
5.570378124978105
 31
0.0
  0
LINE
  5
555
330
18
100
AcDbEntity
  8
1
 62
     1
100
AcDbLine
 10
58.42035227290404
 20
5.570378124978105
 30
0.0
 11
58.84285714285715
 21
5.630661062368815
 31
0.0
  0
ARC
  5
556
330
18
100
AcDbEntity
  8
1
 62
     1
100
AcDbCircle
 10
45.12475422304503
 20
-17.73602105849931
 30
0.0
 40
27.09590507073715
100
AcDbArc
 50
57.48977073035923
 51
59.58367315177225
  0
LINE
  5
557
330
18
100
AcDbEntity
  8
1
 62
     1
100
AcDbLine
 10
59.81338054063925
 20
5.082933757945705
 30
0.0
 11
60.24051760722072
 21
5.155312541778379
 31
0.0
  0
LINE
  5
558
330
18
100
AcDbEntity
  8
1
 62
     1
100
AcDbLine
 10
60.24051760722072
 20
5.155312541778379
 30
0.0
 11
60.65714285714284
 21
5.245720589338578
 31
0.0
  0
LINE
  5
559
330
18
100
AcDbEntity
  8
1
 62
     1
100
AcDbLine
 10
60.65714285714284
 20
5.245720589338581
 30
0.0
 11
61.48986786141305
 21
4.669435944268458
 31
0.0
  0
LINE
  5
55A
330
18
100
AcDbEntity
  8
1
 62
     1
100
AcDbLine
 10
61.63968993489651
 20
4.632289812929929
 30
0.0
 11
62.06068411715243
 21
4.734196306007353
 31
0.0
  0
LINE
  5
55B
330
18
100
AcDbEntity
  8
1
 62
     1
100
AcDbLine
 10
62.06068411715243
 20
4.734196306007353
 30
0.0
 11
62.47142857142858
 21
4.853749577308308
 31
0.0
  0
LINE
  5
55C
330
18
100
AcDbEntity
  8
1
 62
     1
100
AcDbLine
 10
62.47142857142857
 20
4.853749577308311
 30
0.0
 11
63.29228717829743
 21
4.22061904132118
 31
0.0
  0
LINE
  5
55D
330
18
100
AcDbEntity
  8
1
 62
     1
100
AcDbLine
 10
63.46599932915868
 20
4.17715076307182
 30
0.0
 11
63.88085185346071
 21
4.307590048838766
 31
0.0
  0
LINE
  5
55E
330
18
100
AcDbEntity
  8
1
 62
     1
100
AcDbLine
 10
63.88085185346071
 20
4.307590048838766
 30
0.0
 11
64.28571428571429
 21
4.455271630520067
 31
0.0
  0
LINE
  5
55F
330
18
100
AcDbEntity
  8
1
 62
     1
100
AcDbLine
 10
64.28571428571429
 20
4.45527163052007
 30
0.0
 11
65.09470649518111
 21
3.767955485044856
 31
0.0
  0
ARC
  5
560
330
18
100
AcDbEntity
  8
1
 62
     1
100
AcDbCircle
 10
61.90018628976597
 20
13.10274406038011
 30
0.0
 40
9.978845630491939
100
AcDbArc
 50
289.8726603251561
 51
294.8898531317921
  0
LINE
  5
561
330
18
100
AcDbEntity
  8
1
 62
     1
100
AcDbLine
 10
66.09999999999999
 20
4.050822661679278
 30
0.0
 11
66.89712581206482
 21
3.312027798490634
 31
0.0
  0
ARC
  5
562
330
18
100
AcDbEntity
  8
1
 62
     1
100
AcDbCircle
 10
62.97908876250565
 20
12.82467389344965
 30
0.0
 40
10.425866183392
100
AcDbArc
 50
293.3934915098945
 51
298.2529063318384
  0
LINE
  5
563
330
18
100
AcDbEntity
  8
1
 62
     1
100
AcDbLine
 10
67.91428571428571
 20
3.640943026922061
 30
0.0
 11
68.69954512894849
 21
2.853421180961353
 31
0.0
  0
ARC
  5
564
330
18
100
AcDbEntity
  8
1
 62
     1
100
AcDbCircle
 10
64.00156291829883
 20
12.61364927778782
 30
0.0
 40
10.99657730586127
100
AcDbArc
 50
296.7139260888135
 51
301.3861032846644
  0
LINE
  5
565
330
18
100
AcDbEntity
  8
1
 62
     1
100
AcDbLine
 10
69.72857142857143
 20
3.226184034860082
 30
0.0
 11
70.50196444583216
 21
2.392721020716576
 31
0.0
  0
ARC
  5
566
330
18
100
AcDbEntity
  8
1
 62
     1
100
AcDbCircle
 10
64.95929916522225
 20
12.46146033829975
 30
0.0
 40
11.68552460227588
100
AcDbArc
 50
299.8256004863126
 51
304.2910887633003
  0
LINE
  5
567
330
18
100
AcDbEntity
  8
1
 62
     1
100
AcDbLine
 10
71.54285714285714
 20
2.807100133760115
 30
0.0
 11
72.30438376271584
 21
1.930514185753814
 31
0.0
  0
ARC
  5
568
330
18
100
AcDbEntity
  8
1
 62
     1
100
AcDbCircle
 10
65.84552107489608
 20
12.36181553959675
 30
0.0
 40
12.48910794261454
100
AcDbArc
 50
302.7267136972895
 51
306.974311897923
  0
LINE
  5
569
330
18
100
AcDbEntity
  8
1
 62
     1
100
AcDbLine
 10
73.35714285714283
 20
2.384252626269877
 30
0.0
 11
73.98553484157116
 21
1.616050856132769
 31
0.0
  0
ARC
  5
56A
330
18
100
AcDbEntity
  8
1
 62
     1
100
AcDbCircle
 10
66.80632853536455
 20
12.11546258905241
 30
0.0
 40
13.15846719350498
100
AcDbArc
 50
306.634247874958
 51
309.4734795331977
  0
LINE
  5
56B
330
18
100
AcDbEntity
  8
1
 62
     1
100
AcDbLine
 10
75.17142857142855
 20
1.958209492204813
 30
0.0
 11
75.5348569978183
 21
1.48809232297811
 31
0.0
  0
LINE
  5
56C
330
18
100
AcDbEntity
  8
1
 62
     1
100
AcDbLine
 10
76.9857142857143
 20
1.529547357041971
 30
0.0
 11
77.08417915407496
 21
1.395062435581621
 31
0.0
  0
LINE
  5
56D
330
18
100
AcDbEntity
  8
1
 62
     1
100
AcDbLine
 10
78.79999999999999
 20
4.467056522456088
 30
0.0
 11
78.79999999999999
 21
1.334710916035126
 31
0.0
  0
LINE
  5
56E
330
18
100
AcDbEntity
  8
1
 62
     1
100
AcDbLine
 10
78.79999999999999
 20
4.467056522456096
 30
0.0
 11
52.8
 21
7.164626973252507
 31
0.0
  0
LINE
  5
56F
330
18
100
AcDbEntity
  8
1
 62
     1
100
AcDbLine
 10
78.79999999999999
 20
-4.827519166991405
 30
0.0
 11
77.08417915404169
 21
-4.764924905730847
 31
0.0
  0
LINE
  5
570
330
18
100
AcDbEntity
  8
1
 62
     1
100
AcDbLine
 10
76.84662275435903
 20
-4.753462530240978
 30
0.0
 11
75.53485699778919
 21
-4.677819405882818
 31
0.0
  0
LINE
  5
571
330
18
100
AcDbEntity
  8
1
 62
     1
100
AcDbLine
 10
75.17142857142855
 20
-4.240418822024043
 30
0.0
 11
75.5348569978183
 21
-4.677819405918119
 31
0.0
  0
LINE
  5
572
330
18
100
AcDbEntity
  8
1
 62
     1
100
AcDbLine
 10
74.6580493617038
 20
-4.615531838857106
 30
0.0
 11
75.17142857142857
 21
-4.240418822024043
 31
0.0
  0
LINE
  5
573
330
18
100
AcDbEntity
  8
1
 62
     1
100
AcDbLine
 10
73.35714285714283
 20
-3.833007339029658
 30
0.0
 11
73.98553484157116
 21
-4.561350196875471
 31
0.0
  0
ARC
  5
574
330
18
100
AcDbEntity
  8
1
 62
     1
100
AcDbCircle
 10
59.00224090232663
 20
16.95610330414372
 30
0.0
 40
25.2636038457051
100
AcDbArc
 50
302.5569781613697
 51
304.6251181354081
  0
LINE
  5
575
330
18
100
AcDbEntity
  8
1
 62
     1
100
AcDbLine
 10
72.59754630050588
 20
-4.337492576743413
 30
0.0
 11
72.30438376268455
 21
-4.265649642878089
 31
0.0
  0
ARC
  5
576
330
18
100
AcDbEntity
  8
1
 62
     1
100
AcDbCircle
 10
59.23721176451593
 20
16.06035204367712
 30
0.0
 40
23.04192344097348
100
AcDbArc
 50
300.037519429149
 51
302.2797982308887
  0
LINE
  5
577
330
18
100
AcDbEntity
  8
1
 62
     1
100
AcDbLine
 10
69.72857142857143
 20
-3.003324170374983
 30
0.0
 11
70.50196444583218
 21
-3.819987905685939
 31
0.0
  0
LINE
  5
578
330
18
100
AcDbEntity
  8
1
 62
     1
100
AcDbLine
 10
67.91428571428571
 20
-2.582164715584589
 30
0.0
 11
68.6995451289485
 21
-3.367925244104203
 31
0.0
  0
LINE
  5
579
330
18
100
AcDbEntity
  8
1
 62
     1
100
AcDbLine
 10
66.09999999999999
 20
-2.157543837522668
 30
0.0
 11
66.89712581206482
 21
-2.910035039455693
 31
0.0
  0
ARC
  5
57A
330
18
100
AcDbEntity
  8
1
 62
     1
100
AcDbCircle
 10
43.32953736169457
 20
-23.31139234133783
 30
0.0
 40
27.63968390764033
100
AcDbArc
 50
53.71327196513533
 51
55.85633535961955
  0
ARC
  5
57B
330
18
100
AcDbEntity
  8
1
 62
     1
100
AcDbCircle
 10
55.10791023956358
 20
14.00252906424625
 30
0.0
 40
14.13617615713687
100
AcDbArc
 50
274.271300819266
 51
277.8088431859605
  0
ARC
  5
57C
330
18
100
AcDbEntity
  8
1
 62
     1
100
AcDbCircle
 10
44.32892068570622
 20
-19.31095122962223
 30
0.0
 40
22.54388403404381
100
AcDbArc
 50
58.57589707134697
 51
61.12813961986261
  0
ARC
  5
57D
330
18
100
AcDbEntity
  8
1
 62
     1
100
AcDbCircle
 10
44.42433983346177
 20
-17.57292229455117
 30
0.0
 40
20.50523909345879
100
AcDbArc
 50
61.27215823703589
 51
64.04116177095005
  0
ARC
  5
57E
330
18
100
AcDbEntity
  8
1
 62
     1
100
AcDbCircle
 10
53.26126615294822
 20
14.7956835742614
 30
0.0
 40
13.93286388044177
100
AcDbArc
 50
268.1027997252143
 51
270.5705213593224
  0
LINE
  5
57F
330
18
100
AcDbEntity
  8
1
 62
     1
100
AcDbLine
 10
52.8
 20
-8.306533003361995
 30
0.0
 11
52.8
 21
-1.077516883493137
 31
0.0
  0
LINE
  5
580
330
18
100
AcDbEntity
  8
1
 62
     1
100
AcDbLine
 10
56.16076175206256
 20
-9.503011345761519
 30
0.0
 11
56.08260991073306
 21
-9.489277850839764
 31
0.0
  0
LINE
  5
581
330
18
100
AcDbEntity
  8
1
 62
     1
100
AcDbLine
 10
57.98707114639901
 20
-9.816958617618537
 30
0.0
 11
57.8850292275796
 21
-9.799773951290077
 31
0.0
  0
LINE
  5
582
330
18
100
AcDbEntity
  8
1
 62
     1
100
AcDbLine
 10
60.65714285714285
 20
-8.471554113679522
 30
0.0
 11
61.48986786141305
 21
-10.38063000536869
 31
0.0
  0
LINE
  5
583
330
18
100
AcDbEntity
  8
1
 62
     1
100
AcDbLine
 10
61.63968993492573
 20
-10.40358402727023
 30
0.0
 11
61.48986786138358
 21
-10.3806300053028
 31
0.0
  0
LINE
  5
584
330
18
100
AcDbEntity
  8
1
 62
     1
100
AcDbLine
 10
63.46599932918908
 20
-10.67559952669883
 30
0.0
 11
63.29228717824985
 21
-10.65035035392601
 31
0.0
  0
LINE
  5
585
330
18
100
AcDbEntity
  8
1
 62
     1
100
AcDbLine
 10
64.28571428571429
 20
-9.05377193995792
 30
0.0
 11
65.09470649518113
 21
-10.90587009100787
 31
0.0
  0
LINE
  5
586
330
18
100
AcDbEntity
  8
1
 62
     1
100
AcDbLine
 10
65.29230872345246
 20
-10.9330074764071
 30
0.0
 11
65.09470649515058
 21
-10.90587009093971
 31
0.0
  0
LINE
  5
587
330
18
100
AcDbEntity
  8
1
 62
     1
100
AcDbLine
 10
65.29230872342187
 20
-10.93300747646607
 30
0.0
 11
66.10000000000002
 21
-9.3268680962281
 31
0.0
  0
LINE
  5
588
330
18
100
AcDbEntity
  8
1
 62
     1
100
AcDbLine
 10
67.11861811771581
 20
-11.17552634750727
 30
0.0
 11
66.89712581197307
 21
-11.14691626344379
 31
0.0
  0
LINE
  5
589
330
18
100
AcDbEntity
  8
1
 62
     1
100
AcDbLine
 10
67.11861811768504
 20
-11.17552634756689
 30
0.0
 11
67.91428571428572
 21
-9.587463011100403
 31
0.0
  0
LINE
  5
58A
330
18
100
AcDbEntity
  8
1
 62
     1
100
AcDbLine
 10
68.94492751194821
 20
-11.40289389605066
 30
0.0
 11
69.72857142857143
 21
-9.835206176468613
 31
0.0
  0
LINE
  5
58B
330
18
100
AcDbEntity
  8
1
 62
     1
100
AcDbLine
 10
69.72857142857143
 20
-9.835206176468616
 30
0.0
 11
70.50196444583218
 21
-11.58459213052105
 31
0.0
  0
LINE
  5
58C
330
18
100
AcDbEntity
  8
1
 62
     1
100
AcDbLine
 10
70.77123690624251
 20
-11.61486985745599
 30
0.0
 11
70.50196444580105
 21
-11.58459213045256
 31
0.0
  0
LINE
  5
58D
330
18
100
AcDbEntity
  8
1
 62
     1
100
AcDbLine
 10
72.59754630050588
 20
-11.81123380096706
 30
0.0
 11
72.30438376268455
 21
-11.78077339801162
 31
0.0
  0
LINE
  5
58E
330
18
100
AcDbEntity
  8
1
 62
     1
100
AcDbLine
 10
72.59754630047456
 20
-11.81123380102812
 30
0.0
 11
73.35714285714288
 21
-10.29082955859938
 31
0.0
  0
LINE
  5
58F
330
18
100
AcDbEntity
  8
1
 62
     1
100
AcDbLine
 10
74.65804936173928
 20
-11.53223903561747
 30
0.0
 11
73.98553484153672
 21
-11.69761834048299
 31
0.0
  0
LINE
  5
590
330
18
100
AcDbEntity
  8
1
 62
     1
100
AcDbLine
 10
75.17142857142857
 20
-10.49809856061252
 30
0.0
 11
75.5348569978183
 21
-11.31238014475914
 31
0.0
  0
LINE
  5
591
330
18
100
AcDbEntity
  8
1
 62
     1
100
AcDbLine
 10
76.84662275456941
 20
-10.97445580709972
 30
0.0
 11
75.53485699778919
 21
-11.3123801446949
 31
0.0
  0
LINE
  5
592
330
18
100
AcDbEntity
  8
1
 62
     1
100
AcDbLine
 10
76.9857142857143
 20
-10.69129324346971
 30
0.0
 11
77.08417915407493
 21
-10.91209417309194
 31
0.0
  0
LINE
  5
593
330
18
100
AcDbEntity
  8
1
 62
     1
100
AcDbLine
 10
78.79999999999999
 20
-10.45078823249913
 30
0.0
 11
77.08417915404169
 21
-10.91209417301772
 31
0.0
  0
LINE
  5
594
330
18
100
AcDbEntity
  8
1
 62
     1
100
AcDbLine
 10
78.79999999999999
 20
-4.881799551162625
 30
0.0
 11
78.79999999999999
 21
-10.45078823249913
 31
0.0
  0
LINE
  5
595
330
18
100
AcDbEntity
  8
1
 62
     1
100
AcDbLine
 10
78.79999999999999
 20
-4.881799551162622
 30
0.0
 11
78.24518034078896
 21
-4.811145593042021
 31
0.0
  0
LINE
  5
596
330
18
100
AcDbEntity
  8
1
 62
     1
100
AcDbLine
 10
76.99144476285541
 20
-4.649277249425303
 30
0.0
 11
76.97888535742177
 21
-4.647640479078546
 31
0.0
  0
LINE
  5
597
330
18
100
AcDbEntity
  8
1
 62
     1
100
AcDbLine
 10
75.3297883094233
 20
-4.430173205191204
 30
0.0
 11
74.97881410004258
 21
-4.383248850578977
 31
0.0
  0
LINE
  5
598
330
18
100
AcDbEntity
  8
1
 62
     1
100
AcDbLine
 10
73.68306368203331
 20
-4.20812527202364
 30
0.0
 11
72.95067791802027
 21
-4.107861578205667
 31
0.0
  0
LINE
  5
599
330
18
100
AcDbEntity
  8
1
 62
     1
100
AcDbLine
 10
72.05367368427622
 20
-3.983840959420376
 30
0.0
 11
70.88565875607037
 21
-3.820399227039215
 31
0.0
  0
LINE
  5
59A
330
18
100
AcDbEntity
  8
1
 62
     1
100
AcDbLine
 10
70.44447869714919
 20
-3.758107177435788
 30
0.0
 11
52.79999999999999
 21
-1.077516883493145
 31
0.0
  0
LINE
  5
59B
330
18
100
AcDbEntity
  8
1
 62
     1
100
AcDbLine
 10
53.40000000000001
 20
11.49517145653624
 30
0.0
 11
53.40000000000001
 21
11.83770321428571
 31
0.0
  0
LINE
  5
59C
330
18
100
AcDbEntity
  8
1
 62
     1
100
AcDbLine
 10
52.80000000000002
 20
0.8704568076979773
 30
0.0
 11
52.80000000000002
 21
6.791116704539665
 31
0.0
  0
ARC
  5
59D
330
18
100
AcDbEntity
  8
1
 62
     1
100
AcDbCircle
 10
54.06004704955496
 20
17.63946123798316
 30
0.0
 40
10.9212715928927
100
AcDbArc
 50
263.374720332037
 51
266.5351034719772
  0
LINE
  5
59E
330
18
100
AcDbEntity
  8
1
 62
     1
100
AcDbLine
 10
52.79999999999998
 20
-8.306533003361996
 30
0.0
 11
53.40000000000001
 21
-7.174263648884251
 31
0.0
  0
LINE
  5
59F
330
18
100
AcDbEntity
  8
1
 62
     1
100
AcDbLine
 10
52.8
 20
-11.9496925743707
 30
0.0
 11
52.80000000000002
 21
-8.306533003361968
 31
0.0
  0
LINE
  5
5A0
330
18
100
AcDbEntity
  8
1
 62
     1
100
AcDbLine
 10
52.79999999999999
 20
-1.077516883493139
 30
0.0
 11
52.8
 21
0.8704568076978711
 31
0.0
  0
LINE
  5
5A1
330
18
100
AcDbEntity
  8
1
 62
     1
100
AcDbLine
 10
52.8
 20
6.791116704539697
 30
0.0
 11
52.8
 21
7.164626973252503
 31
0.0
  0
LINE
  5
5A2
330
18
100
AcDbEntity
  8
1
 62
     1
100
AcDbLine
 10
52.79999999999999
 20
7.164626973252501
 30
0.0
 11
52.79999999999998
 21
8.065946488699646
 31
0.0
  0
LINE
  5
5A3
330
18
100
AcDbEntity
  8
1
 62
     1
100
AcDbLine
 10
52.79999999999998
 20
8.065946488699646
 30
0.0
 11
52.79999999999999
 21
9.814735837184608
 31
0.0
  0
LINE
  5
5A4
330
18
100
AcDbEntity
  8
1
 62
     1
100
AcDbLine
 10
52.8
 20
9.814735837184608
 30
0.0
 11
52.8
 21
12.48766446726673
 31
0.0
  0
LINE
  5
5A5
330
18
100
AcDbEntity
  8
1
 62
     1
100
AcDbLine
 10
52.8
 20
12.48766446726671
 30
0.0
 11
52.8
 21
12.87693321428572
 31
0.0
  0
LINE
  5
5A6
330
18
100
AcDbEntity
  8
1
 62
     1
100
AcDbLine
 10
60.65714285714285
 20
11.83770321428571
 30
0.0
 11
59.81338054063928
 21
13.29914173458577
 31
0.0
  0
LINE
  5
5A7
330
18
100
AcDbEntity
  8
1
 62
     1
100
AcDbLine
 10
59.68744854452314
 20
13.30057775154126
 30
0.0
 11
58.84285714285715
 21
11.83770321428572
 31
0.0
  0
LINE
  5
5A8
330
18
100
AcDbEntity
  8
1
 62
     1
100
AcDbLine
 10
58.84285714285714
 20
11.83770321428571
 30
0.0
 11
57.9870711463761
 21
13.31996734949069
 31
0.0
  0
LINE
  5
5A9
330
18
100
AcDbEntity
  8
1
 62
     1
100
AcDbLine
 10
57.88502922763941
 20
13.32113094516143
 30
0.0
 11
57.02857142857142
 21
11.83770321428572
 31
0.0
  0
LINE
  5
5AA
330
18
100
AcDbEntity
  8
1
 62
     1
100
AcDbLine
 10
55.21428571428572
 20
11.83770321428571
 30
0.0
 11
54.33445235785072
 21
13.36161857929898
 31
0.0
  0
LINE
  5
5AB
330
18
100
AcDbEntity
  8
1
 62
     1
100
AcDbLine
 10
56.08260991075528
 20
13.34168413878081
 30
0.0
 11
55.21428571428572
 21
11.83770321428572
 31
0.0
  0
LINE
  5
5AC
330
18
100
AcDbEntity
  8
1
 62
     1
100
AcDbLine
 10
57.02857142857142
 20
11.83770321428571
 30
0.0
 11
56.16076175211364
 21
13.34079296439443
 31
0.0
  0
LINE
  5
5AD
330
18
100
AcDbEntity
  8
1
 62
     1
100
AcDbLine
 10
61.48986786141305
 20
13.2800245579319
 30
0.0
 11
60.65714285714285
 21
11.83770321428572
 31
0.0
  0
LINE
  5
5AE
330
18
100
AcDbEntity
  8
1
 62
     1
100
AcDbLine
 10
62.47142857142858
 20
11.83770321428571
 30
0.0
 11
61.6396899348965
 21
13.2783161196911
 31
0.0
  0
LINE
  5
5AF
330
18
100
AcDbEntity
  8
1
 62
     1
100
AcDbLine
 10
63.29228717829746
 20
13.25947136431295
 30
0.0
 11
62.47142857142858
 21
11.83770321428572
 31
0.0
  0
LINE
  5
5B0
330
18
100
AcDbEntity
  8
1
 62
     1
100
AcDbLine
 10
64.28571428571429
 20
11.83770321428571
 30
0.0
 11
63.46599932915868
 21
13.25749050478784
 31
0.0
  0
LINE
  5
5B1
330
18
100
AcDbEntity
  8
1
 62
     1
100
AcDbLine
 10
66.37023444425555
 20
12.30576278352234
 30
0.0
 11
66.89712581206482
 21
13.1938620205048
 31
0.0
  0
LINE
  5
5B2
330
18
100
AcDbEntity
  8
1
 62
     1
100
AcDbLine
 10
66.37023444428319
 20
12.30576278350638
 30
0.0
 11
66.10000000000001
 21
11.83770321428572
 31
0.0
  0
LINE
  5
5B3
330
18
100
AcDbEntity
  8
1
 62
     1
100
AcDbLine
 10
66.10000000000001
 20
11.83770321428571
 30
0.0
 11
65.69630334599455
 21
12.53692600385589
 31
0.0
  0
LINE
  5
5B4
330
18
100
AcDbEntity
  8
1
 62
     1
100
AcDbLine
 10
64.86338664826475
 20
12.83826062993613
 30
0.0
 11
65.09470649518113
 21
13.23459464886219
 31
0.0
  0
LINE
  5
5B5
330
18
100
AcDbEntity
  8
1
 62
     1
100
AcDbLine
 10
64.86338664830582
 20
12.83826062991242
 30
0.0
 11
64.28571428571429
 21
11.83770321428572
 31
0.0
  0
LINE
  5
5B6
330
18
100
AcDbEntity
  8
1
 62
     1
100
AcDbLine
 10
54.28019059387114
 20
13.36223733240022
 30
0.0
 11
53.40000000000001
 21
11.83770321428572
 31
0.0
  0
LINE
  5
5B7
330
18
100
AcDbEntity
  8
1
 62
     1
100
AcDbLine
 10
77.08417915404169
 20
-12.00824928947217
 30
0.0
 11
78.80000000000002
 21
-11.49999999999999
 31
0.0
  0
LINE
  5
5B8
330
18
100
AcDbEntity
  8
1
 62
     1
100
AcDbLine
 10
75.53485699778921
 20
-12.46717942016365
 30
0.0
 11
76.84662275456941
 21
-12.0786167008052
 31
0.0
  0
LINE
  5
5B9
330
18
100
AcDbEntity
  8
1
 62
     1
100
AcDbLine
 10
73.98553484153673
 20
-12.92610955085512
 30
0.0
 11
74.65804936173928
 21
-12.72690167442804
 31
0.0
  0
LINE
  5
5BA
330
18
100
AcDbEntity
  8
1
 62
     1
100
AcDbLine
 10
72.30438376268455
 20
-13.15670539615782
 30
0.0
 11
72.59754630050591
 21
-13.15336243020884
 31
0.0
  0
LINE
  5
5BB
330
18
100
AcDbEntity
  8
1
 62
     1
100
AcDbLine
 10
53.40000000000001
 20
11.83770321428571
 30
0.0
 11
52.79999999999177
 21
12.87693321429995
 31
0.0
  0
LINE
  5
5BC
330
18
100
AcDbEntity
  8
SK1
100
AcDbLine
 10
-60.10000000000001
 20
6.858571279792902
 30
0.0
 11
-43.2
 21
6.858571279792902
 31
0.0
  0
LINE
  5
5BD
330
18
100
AcDbEntity
  8
SK1
100
AcDbLine
 10
-43.2
 20
8.599999999999996
 30
0.0
 11
-43.2
 21
6.858571279792901
 31
0.0
  0
LINE
  5
5BE
330
18
100
AcDbEntity
  8
SK1
100
AcDbLine
 10
-60.1
 20
8.600000000000001
 30
0.0
 11
-60.10000000000001
 21
6.858571279792907
 31
0.0
  0
LINE
  5
5BF
330
18
100
AcDbEntity
  8
SK1
100
AcDbLine
 10
-43.2
 20
11.0
 30
0.0
 11
-43.20000000000001
 21
10.9994963151781
 31
0.0
  0
LINE
  5
5C0
330
18
100
AcDbEntity
  8
SK1
100
AcDbLine
 10
-43.20000000000001
 20
10.9994963151781
 30
0.0
 11
-43.2
 21
10.84582889446999
 31
0.0
  0
LINE
  5
5C1
330
18
100
AcDbEntity
  8
SK1
100
AcDbLine
 10
-43.2
 20
10.84582889446999
 30
0.0
 11
-43.2
 21
8.599999999999996
 31
0.0
  0
LINE
  5
5C2
330
18
100
AcDbEntity
  8
SK1
100
AcDbLine
 10
-61.2
 20
8.600000000000004
 30
0.0
 11
-60.10000000000001
 21
8.600000000000003
 31
0.0
  0
LINE
  5
5C3
330
18
100
AcDbEntity
  8
SK1
100
AcDbLine
 10
-60.10000000000001
 20
8.600000000000001
 30
0.0
 11
-43.2
 21
8.600000000000001
 31
0.0
  0
LINE
  5
5C4
330
18
100
AcDbEntity
  8
SK1
100
AcDbLine
 10
-60.10000000000001
 20
-8.599999999999999
 30
0.0
 11
-43.2
 21
-8.599999999999999
 31
0.0
  0
LINE
  5
5C5
330
18
100
AcDbEntity
  8
SK1
100
AcDbLine
 10
-43.2
 20
-6.8585712797929
 30
0.0
 11
-43.2
 21
-8.599999999999999
 31
0.0
  0
LINE
  5
5C6
330
18
100
AcDbEntity
  8
SK1
100
AcDbLine
 10
-61.2
 20
8.600000000000001
 30
0.0
 11
-61.2
 21
4.904079934095702
 31
0.0
  0
LINE
  5
5C7
330
18
100
AcDbEntity
  8
SK1
100
AcDbLine
 10
-61.20000000000001
 20
-4.904079934095693
 30
0.0
 11
-60.67373186767158
 21
-5.894665854253853
 31
0.0
  0
LINE
  5
5C8
330
18
100
AcDbEntity
  8
SK1
100
AcDbLine
 10
-60.67373186767158
 20
-5.894665854253853
 30
0.0
 11
-60.10000000000001
 21
-6.858571279792897
 31
0.0
  0
LINE
  5
5C9
330
18
100
AcDbEntity
  8
SK1
100
AcDbLine
 10
-61.2
 20
-4.9040799340957
 30
0.0
 11
-61.2
 21
-8.600000000000001
 31
0.0
  0
LINE
  5
5CA
330
18
100
AcDbEntity
  8
SK1
100
AcDbLine
 10
-61.2
 20
-8.600000000000001
 30
0.0
 11
-60.10000000000001
 21
-8.599999999999997
 31
0.0
  0
LINE
  5
5CB
330
18
100
AcDbEntity
  8
SK1
100
AcDbLine
 10
-60.1
 20
-6.8585712797929
 30
0.0
 11
-60.10000000000001
 21
-8.599999999999997
 31
0.0
  0
LINE
  5
5CC
330
18
100
AcDbEntity
  8
SK1
100
AcDbLine
 10
-61.20000000000001
 20
4.904079934095695
 30
0.0
 11
-60.67373186767156
 21
5.894665854253862
 31
0.0
  0
LINE
  5
5CD
330
18
100
AcDbEntity
  8
SK1
100
AcDbLine
 10
-60.67373186767156
 20
5.894665854253862
 30
0.0
 11
-60.10000000000001
 21
6.858571279792907
 31
0.0
  0
LINE
  5
5CE
330
18
100
AcDbEntity
  8
SK1
100
AcDbLine
 10
-61.2
 20
4.904079934095705
 30
0.0
 11
-61.2
 21
-4.904079934095697
 31
0.0
  0
LINE
  5
5CF
330
18
100
AcDbEntity
  8
SK1
100
AcDbLine
 10
-60.10000000000001
 20
-6.858571279792896
 30
0.0
 11
-43.2
 21
-6.858571279792896
 31
0.0
  0
LINE
  5
5D0
330
18
100
AcDbEntity
  8
SK1
100
AcDbLine
 10
0.0
 20
11.0
 30
0.0
 11
-43.2
 21
11.0
 31
0.0
  0
LINE
  5
5D1
330
18
100
AcDbEntity
  8
SK1
100
AcDbLine
 10
-43.2
 20
6.858571279792901
 30
0.0
 11
-43.2
 21
-6.8585712797929
 31
0.0
  0
LINE
  5
5D2
330
18
100
AcDbEntity
  8
SK1
100
AcDbLine
 10
-43.2
 20
-8.599999999999997
 30
0.0
 11
-43.2
 21
-11.0
 31
0.0
  0
LINE
  5
5D3
330
18
100
AcDbEntity
  8
SK1
100
AcDbLine
 10
-0.0000000000000009
 20
-11.0
 30
0.0
 11
-43.2
 21
-11.0
 31
0.0
  0
DIMENSION
  5
5D4
330
18
100
AcDbEntity
  8
2
100
AcDbDimension
  2
*D0
 10
93.80000000000009
 20
-13.14599999999995
 30
0.0
 11
90.60075000000015
 21
-30.97274999999997
 31
0.0
 70
    32
  1
NPT3/4-14
 71
     5
 42
26.29200000000001
  3
STANDARD
100
AcDbAlignedDimension
 13
78.79999999999999
 23
13.146
 33
0.0
 14
78.79999999999999
 24
-13.146
 34
0.0
 50
90.00000000000021
100
AcDbRotatedDimension
  0
DIMENSION
  5
5E2
330
18
100
AcDbEntity
  8
2
100
AcDbDimension
  2
*D1
 10
78.79999999999999
 20
75.0
 30
0.0
 11
39.4
 21
77.39775
 31
0.0
 70
    32
  1
<>
 71
     5
 42
78.79999999999999
  3
STANDARD
100
AcDbAlignedDimension
 13
0.0
 23
11.35
 33
0.0
 14
78.79999999999999
 24
13.146
 34
0.0
100
AcDbRotatedDimension
  0
DIMENSION
  5
5EF
330
18
100
AcDbEntity
  8
SK2
100
AcDbDimension
  2
*D2
 10
-76.19999999994387
 20
-11.00000000016841
 30
0.0
 11
-78.59075000000001
 21
-0.0000000001806144
 31
0.0
 70
    32
  1
%%c<>
 71
     5
 42
22.0
  3
STANDARD
100
AcDbAlignedDimension
 13
-43.2
 23
11.0
 33
0.0
 14
-43.2
 24
-11.0
 34
0.0
 50
90.00000000029242
100
AcDbRotatedDimension
  0
DIMENSION
  5
5FC
330
18
100
AcDbEntity
  8
2
100
AcDbDimension
  2
*D3
 10
78.79999999999999
 20
60.0
 30
0.0
 11
65.8
 21
62.39074999999999
 31
0.0
 70
    32
  1
<>
 71
     5
 42
26.0
  3
STANDARD
100
AcDbAlignedDimension
 13
52.8
 23
11.35
 33
0.0
 14
78.79999999999999
 24
13.146
 34
0.0
100
AcDbRotatedDimension
  0
DIMENSION
  5
609
330
18
100
AcDbEntity
  8
SK2
100
AcDbDimension
  2
*D4
 10
78.79999999999999
 20
90.0
 30
0.0
 11
8.799999999999997
 21
92.431
 31
0.0
 70
    32
  1
<>
 71
     5
 42
140.0
  3
STANDARD
100
AcDbAlignedDimension
 13
-61.2
 23
13.146
 33
0.0
 14
78.79999999999999
 24
13.146
 34
0.0
100
AcDbRotatedDimension
  0
ENDSEC
  0
SECTION
  2
OBJECTS
  0
DICTIONARY
  5
C
330
0
100
AcDbDictionary
281
     1
  3
ACAD_CIP_PREVIOUS_PRODUCT_INFO
350
658
  3
ACAD_COLOR
350
387
  3
ACAD_DETAILVIEWSTYLE
350
652
  3
ACAD_GROUP
350
D
  3
ACAD_LAYOUT
350
301
  3
ACAD_MATERIAL
350
386
  3
ACAD_MLEADERSTYLE
350
616
  3
ACAD_MLINESTYLE
350
E
  3
ACAD_PLOTSETTINGS
350
302
  3
ACAD_PLOTSTYLENAME
350
2FF
  3
ACAD_SCALELIST
350
3A0
  3
ACAD_SECTIONVIEWSTYLE
350
650
  3
ACAD_TABLESTYLE
350
388
  3
ACAD_VISUALSTYLE
350
635
  3
ACDB_RECOMPOSE_DATA
350
682
  3
AcDbVariableDictionary
350
357
  3
DWGPROPS
350
683
  0
DICTIONARY
  5
65B
330
F
100
AcDbDictionary
280
     1
281
     1
  3
ADSK_XREC_LAYER_RECONCILED
360
65C
  0
DICTIONARY
  5
65D
330
23
100
AcDbDictionary
280
     1
281
     1
  3
ADSK_XREC_LAYER_RECONCILED
360
65E
  0
DICTIONARY
  5
65F
330
24
100
AcDbDictionary
280
     1
281
     1
  3
ADSK_XREC_LAYER_RECONCILED
360
660
  0
DICTIONARY
  5
661
330
25
100
AcDbDictionary
280
     1
281
     1
  3
ADSK_XREC_LAYER_RECONCILED
360
662
  0
DICTIONARY
  5
663
330
26
100
AcDbDictionary
280
     1
281
     1
  3
ADSK_XREC_LAYER_RECONCILED
360
664
  0
DICTIONARY
  5
665
330
27
100
AcDbDictionary
280
     1
281
     1
  3
ADSK_XREC_LAYER_RECONCILED
360
666
  0
DICTIONARY
  5
667
330
28
100
AcDbDictionary
280
     1
281
     1
  3
ADSK_XREC_LAYER_RECONCILED
360
668
  0
DICTIONARY
  5
669
330
29
100
AcDbDictionary
280
     1
281
     1
  3
ADSK_XREC_LAYER_RECONCILED
360
66A
  0
DICTIONARY
  5
66B
330
2A
100
AcDbDictionary
280
     1
281
     1
  3
ADSK_XREC_LAYER_RECONCILED
360
66C
  0
DICTIONARY
  5
66D
330
2B
100
AcDbDictionary
280
     1
281
     1
  3
ADSK_XREC_LAYER_RECONCILED
360
66E
  0
DICTIONARY
  5
66F
330
2C
100
AcDbDictionary
280
     1
281
     1
  3
ADSK_XREC_LAYER_RECONCILED
360
670
  0
DICTIONARY
  5
671
330
2D
100
AcDbDictionary
280
     1
281
     1
  3
ADSK_XREC_LAYER_RECONCILED
360
672
  0
DICTIONARY
  5
673
330
2E
100
AcDbDictionary
280
     1
281
     1
  3
ADSK_XREC_LAYER_RECONCILED
360
674
  0
DICTIONARY
  5
675
330
375
100
AcDbDictionary
280
     1
281
     1
  3
ADSK_XREC_LAYER_RECONCILED
360
676
  0
DICTIONARY
  5
677
330
376
100
AcDbDictionary
280
     1
281
     1
  3
ADSK_XREC_LAYER_RECONCILED
360
678
  0
XRECORD
  5
658
102
{ACAD_REACTORS
330
C
102
}
330
C
100
AcDbXrecord
280
     1
300
AMECH_PP
300
2013
300
PDSU_F_S
  0
DICTIONARY
  5
387
102
{ACAD_REACTORS
330
C
102
}
330
C
100
AcDbDictionary
281
     1
  0
DICTIONARY
  5
652
102
{ACAD_REACTORS
330
C
102
}
330
C
100
AcDbDictionary
281
     1
  3
Metric50
350
653
  0
DICTIONARY
  5
D
102
{ACAD_REACTORS
330
C
102
}
330
C
100
AcDbDictionary
281
     1
  0
DICTIONARY
  5
301
102
{ACAD_REACTORS
330
C
102
}
330
C
100
AcDbDictionary
281
     1
  3
Layout1
350
33B
  3
Model
350
303
  0
DICTIONARY
  5
386
102
{ACAD_REACTORS
330
C
102
}
330
C
100
AcDbDictionary
281
     1
  3
ByBlock
350
625
  3
ByLayer
350
61D
  3
Global
350
62D
  0
DICTIONARY
  5
616
102
{ACAD_REACTORS
330
C
102
}
330
C
100
AcDbDictionary
281
     1
  3
Standard
350
64F
  0
DICTIONARY
  5
E
102
{ACAD_REACTORS
330
C
102
}
330
C
100
AcDbDictionary
281
     1
  3
STANDARD
350
1B
  0
DICTIONARY
  5
302
102
{ACAD_REACTORS
330
C
102
}
330
C
100
AcDbDictionary
281
     1
  0
ACDBDICTIONARYWDFLT
  5
2FF
102
{ACAD_REACTORS
330
C
102
}
330
C
100
AcDbDictionary
281
     1
  3
Normal
350
300
100
AcDbDictionaryWithDefault
340
300
  0
DICTIONARY
  5
3A0
102
{ACAD_REACTORS
330
C
102
}
330
C
100
AcDbDictionary
281
     1
  3
A0
350
3A1
  3
A1
350
3A2
  3
A2
350
3A3
  3
A3
350
3A4
  3
A4
350
3A5
  3
A5
350
3A6
  3
A6
350
3A7
  3
A7
350
3A8
  3
A8
350
3A9
  3
A9
350
3AA
  3
B0
350
3AB
  3
B1
350
3AC
  3
B2
350
3AD
  3
B3
350
3AE
  3
B4
350
3AF
  3
B5
350
3B0
  3
B6
350
3B1
  3
B7
350
3B2
  3
B8
350
3B3
  3
B9
350
3B4
  3
C0
350
3B5
  3
C1
350
3B6
  3
C2
350
3B7
  3
C3
350
3B8
  3
C4
350
3B9
  3
C5
350
3BA
  3
C6
350
3BB
  3
C7
350
3BC
  3
C8
350
3BD
  3
C9
350
3BE
  3
D0
350
3BF
  3
D1
350
3C0
  3
D2
350
3C1
  0
DICTIONARY
  5
650
102
{ACAD_REACTORS
330
C
102
}
330
C
100
AcDbDictionary
281
     1
  3
Metric50
350
651
  0
DICTIONARY
  5
388
102
{ACAD_REACTORS
330
C
102
}
330
C
100
AcDbDictionary
281
     1
  3
Standard
350
64E
  0
DICTIONARY
  5
635
102
{ACAD_REACTORS
330
C
102
}
330
C
100
AcDbDictionary
281
     1
  3
2dWireframe
350
63B
  3
Basic
350
63A
  3
Brighten
350
641
  3
ColorChange
350
645
  3
Conceptual
350
63E
  3
Dim
350
640
  3
EdgeColorOff
350
64D
  3
Facepattern
350
644
  3
Flat
350
636
  3
FlatWithEdges
350
637
  3
Gouraud
350
638
  3
GouraudWithEdges
350
639
  3
Hidden
350
63D
  3
JitterOff
350
64B
  3
Linepattern
350
643
  3
OverhangOff
350
64C
  3
Realistic
350
63F
  3
Shaded
350
64A
  3
Shaded with edges
350
649
  3
Shades of Gray
350
646
  3
Sketchy
350
647
  3
Thicken
350
642
  3
Wireframe
350
63C
  3
X-Ray
350
648
  0
XRECORD
  5
682
102
{ACAD_REACTORS
330
C
102
}
330
C
100
AcDbXrecord
280
     1
 90
        1
330
64E
  0
DICTIONARY
  5
357
102
{ACAD_REACTORS
330
C
102
}
330
C
100
AcDbDictionary
281
     1
  3
CANNOSCALE
350
617
  3
CMLEADERSTYLE
350
679
  3
CTABLESTYLE
350
38D
  3
CVIEWDETAILSTYLE
350
67A
  3
CVIEWSECTIONSTYLE
350
67B
  3
DIMASSOC
350
359
  3
HIDETEXT
350
358
  3
INDEXCTL
350
67D
  3
PROJECTNAME
350
38E
  3
SORTENTS
350
67C
  3
XCLIPFRAME
350
67E
  0
XRECORD
  5
683
102
{ACAD_REACTORS
330
C
102
}
330
C
100
AcDbXrecord
280
     1
  1
DWGPROPS COOKIE
  2

  3

  4

  6

  7

  8
Micke
  9

300
=
301
=
302
=
303
=
304
=
305
=
306
=
307
=
308
=
309
=
 40
0.0009746990740741
 41
2454957.593642639
 42
2456818.719450232
  1

 90
        0
  0
XRECORD
  5
65C
102
{ACAD_REACTORS
330
65B
102
}
330
65B
100
AcDbXrecord
280
     1
290
     1
  0
XRECORD
  5
65E
102
{ACAD_REACTORS
330
65D
102
}
330
65D
100
AcDbXrecord
280
     1
290
     1
  0
XRECORD
  5
660
102
{ACAD_REACTORS
330
65F
102
}
330
65F
100
AcDbXrecord
280
     1
290
     1
  0
XRECORD
  5
662
102
{ACAD_REACTORS
330
661
102
}
330
661
100
AcDbXrecord
280
     1
290
     1
  0
XRECORD
  5
664
102
{ACAD_REACTORS
330
663
102
}
330
663
100
AcDbXrecord
280
     1
290
     1
  0
XRECORD
  5
666
102
{ACAD_REACTORS
330
665
102
}
330
665
100
AcDbXrecord
280
     1
290
     1
  0
XRECORD
  5
668
102
{ACAD_REACTORS
330
667
102
}
330
667
100
AcDbXrecord
280
     1
290
     1
  0
XRECORD
  5
66A
102
{ACAD_REACTORS
330
669
102
}
330
669
100
AcDbXrecord
280
     1
290
     1
  0
XRECORD
  5
66C
102
{ACAD_REACTORS
330
66B
102
}
330
66B
100
AcDbXrecord
280
     1
290
     1
  0
XRECORD
  5
66E
102
{ACAD_REACTORS
330
66D
102
}
330
66D
100
AcDbXrecord
280
     1
290
     1
  0
XRECORD
  5
670
102
{ACAD_REACTORS
330
66F
102
}
330
66F
100
AcDbXrecord
280
     1
290
     1
  0
XRECORD
  5
672
102
{ACAD_REACTORS
330
671
102
}
330
671
100
AcDbXrecord
280
     1
290
     1
  0
XRECORD
  5
674
102
{ACAD_REACTORS
330
673
102
}
330
673
100
AcDbXrecord
280
     1
290
     1
  0
XRECORD
  5
676
102
{ACAD_REACTORS
330
675
102
}
330
675
100
AcDbXrecord
280
     1
290
     1
  0
XRECORD
  5
678
102
{ACAD_REACTORS
330
677
102
}
330
677
100
AcDbXrecord
280
     1
290
     1
  0
ACDBDETAILVIEWSTYLE
  5
653
102
{ACAD_REACTORS
330
652
102
}
330
652
100
AcDbModelDocViewStyle
 70
     0
  3
Metric50
290
     0
100
AcDbDetailViewStyle
 70
     0
 71
     0
 90
        3
 71
     1
340
10
 40
5.0
340
0
 40
5.0
300

 40
0.0
280
     1
 71
     2
340
14
 90
       25
 71
     3
340
10
 40
5.0
 90
        0
 40
15.0
 90
        1
300
%<\AcVar ViewDetailId>% (%<\AcVar ViewScale \f "%sn">%)
 71
     4
340
14
 90
       25
340
14
 90
       25
280
     0
  0
LAYOUT
  5
33B
102
{ACAD_XDICTIONARY
360
686
102
}
102
{ACAD_REACTORS
330
301
102
}
330
301
100
AcDbPlotSettings
  1

  2
Lexmark Optra PS2
  4

  6

 40
0.0
 41
0.0
 42
0.0
 43
0.0
 44
0.0
 45
0.0
 46
0.0
 47
0.0
 48
0.0
 49
0.0
140
0.0
141
0.0
142
1.0
143
1.0
 70
   688
 72
     0
 73
     0
 74
     5
  7
monochrome.ctb
 75
    16
147
1.0
148
0.0
149
0.0
100
AcDbLayout
  1
Layout1
 70
     1
 71
     1
 10
0.0
 20
0.0
 11
12.0
 21
9.0
 12
0.0
 22
0.0
 32
0.0
 14
0.0
 24
0.0
 34
0.0
 15
0.0
 25
0.0
 35
0.0
146
0.0
 13
0.0
 23
0.0
 33
0.0
 16
1.0
 26
0.0
 36
0.0
 17
0.0
 27
1.0
 37
0.0
 76
     0
330
338
  0
LAYOUT
  5
303
102
{ACAD_XDICTIONARY
360
684
102
}
102
{ACAD_REACTORS
330
301
102
}
330
301
100
AcDbPlotSettings
  1

  2
Lexmark Optra Rx
  4
A4
  6

 40
6.805083274841307
 41
5.535083293914794
 42
6.974411010742187
 43
7.14373779296875
 44
209.9733276367186
 45
296.9259948730469
 46
0.0
 47
0.0
 48
0.0
 49
0.0
140
0.0
141
0.0
142
1.0
143
2.976565420630885
 70
 11952
 72
     1
 73
     1
 74
     0
  7
monochrome.ctb
 75
     0
147
0.335957675604539
148
204.1199660668592
149
172.3933209647495
100
AcDbLayout
  1
Model
 70
     1
 71
     0
 10
0.0
 20
0.0
 11
12.0
 21
9.0
 12
0.0
 22
0.0
 32
0.0
 14
0.0
 24
0.0
 34
0.0
 15
0.0
 25
0.0
 35
0.0
146
0.0
 13
0.0
 23
0.0
 33
0.0
 16
1.0
 26
0.0
 36
0.0
 17
0.0
 27
1.0
 37
0.0
 76
     0
330
18
331
39A
  0
MATERIAL
  5
625
102
{ACAD_XDICTIONARY
360
626
102
}
102
{ACAD_REACTORS
330
386
102
}
330
386
100
AcDbMaterial
  1
ByBlock
 72
     0
 43
0.0008202099737533
 43
0.0
 43
0.0
 43
0.0
 43
0.0
 43
0.0008202099737533
 43
0.0
 43
0.0
 43
0.0
 43
0.0
 43
1.0
 43
0.0
 43
0.0
 43
0.0
 43
0.0
 43
1.0
 77
     0
 47
0.0008202099737533
 47
0.0
 47
0.0
 47
0.0
 47
0.0
 47
0.0008202099737533
 47
0.0
 47
0.0
 47
0.0
 47
0.0
 47
1.0
 47
0.0
 47
0.0
 47
0.0
 47
0.0
 47
1.0
171
     0
 49
0.0008202099737533
 49
0.0
 49
0.0
 49
0.0
 49
0.0
 49
0.0008202099737533
 49
0.0
 49
0.0
 49
0.0
 49
0.0
 49
1.0
 49
0.0
 49
0.0
 49
0.0
 49
0.0
 49
1.0
175
     0
142
0.0008202099737533
142
0.0
142
0.0
142
0.0
142
0.0
142
0.0008202099737533
142
0.0
142
0.0
142
0.0
142
0.0
142
1.0
142
0.0
142
0.0
142
0.0
142
0.0
142
1.0
179
     0
144
0.0008202099737533
144
0.0
144
0.0
144
0.0
144
0.0
144
0.0008202099737533
144
0.0
144
0.0
144
0.0
144
0.0
144
1.0
144
0.0
144
0.0
144
0.0
144
0.0
144
1.0
147
0.0008202099737533
147
0.0
147
0.0
147
0.0
147
0.0
147
0.0008202099737533
147
0.0
147
0.0
147
0.0
147
0.0
147
1.0
147
0.0
147
0.0
147
0.0
147
0.0
147
1.0
  0
MATERIAL
  5
61D
102
{ACAD_XDICTIONARY
360
61E
102
}
102
{ACAD_REACTORS
330
386
102
}
330
386
100
AcDbMaterial
  1
ByLayer
 72
     0
 43
0.0008202099737533
 43
0.0
 43
0.0
 43
0.0
 43
0.0
 43
0.0008202099737533
 43
0.0
 43
0.0
 43
0.0
 43
0.0
 43
1.0
 43
0.0
 43
0.0
 43
0.0
 43
0.0
 43
1.0
 77
     0
 47
0.0008202099737533
 47
0.0
 47
0.0
 47
0.0
 47
0.0
 47
0.0008202099737533
 47
0.0
 47
0.0
 47
0.0
 47
0.0
 47
1.0
 47
0.0
 47
0.0
 47
0.0
 47
0.0
 47
1.0
171
     0
 49
0.0008202099737533
 49
0.0
 49
0.0
 49
0.0
 49
0.0
 49
0.0008202099737533
 49
0.0
 49
0.0
 49
0.0
 49
0.0
 49
1.0
 49
0.0
 49
0.0
 49
0.0
 49
0.0
 49
1.0
175
     0
142
0.0008202099737533
142
0.0
142
0.0
142
0.0
142
0.0
142
0.0008202099737533
142
0.0
142
0.0
142
0.0
142
0.0
142
1.0
142
0.0
142
0.0
142
0.0
142
0.0
142
1.0
179
     0
144
0.0008202099737533
144
0.0
144
0.0
144
0.0
144
0.0
144
0.0008202099737533
144
0.0
144
0.0
144
0.0
144
0.0
144
1.0
144
0.0
144
0.0
144
0.0
144
0.0
144
1.0
147
0.0008202099737533
147
0.0
147
0.0
147
0.0
147
0.0
147
0.0008202099737533
147
0.0
147
0.0
147
0.0
147
0.0
147
1.0
147
0.0
147
0.0
147
0.0
147
0.0
147
1.0
  0
MATERIAL
  5
62D
102
{ACAD_XDICTIONARY
360
62E
102
}
102
{ACAD_REACTORS
330
386
102
}
330
386
100
AcDbMaterial
  1
Global
 72
     0
 43
0.0008202099737533
 43
0.0
 43
0.0
 43
0.0
 43
0.0
 43
0.0008202099737533
 43
0.0
 43
0.0
 43
0.0
 43
0.0
 43
1.0
 43
0.0
 43
0.0
 43
0.0
 43
0.0
 43
1.0
 77
     0
 47
0.0008202099737533
 47
0.0
 47
0.0
 47
0.0
 47
0.0
 47
0.0008202099737533
 47
0.0
 47
0.0
 47
0.0
 47
0.0
 47
1.0
 47
0.0
 47
0.0
 47
0.0
 47
0.0
 47
1.0
171
     0
 49
0.0008202099737533
 49
0.0
 49
0.0
 49
0.0
 49
0.0
 49
0.0008202099737533
 49
0.0
 49
0.0
 49
0.0
 49
0.0
 49
1.0
 49
0.0
 49
0.0
 49
0.0
 49
0.0
 49
1.0
175
     0
142
0.0008202099737533
142
0.0
142
0.0
142
0.0
142
0.0
142
0.0008202099737533
142
0.0
142
0.0
142
0.0
142
0.0
142
1.0
142
0.0
142
0.0
142
0.0
142
0.0
142
1.0
179
     0
144
0.0008202099737533
144
0.0
144
0.0
144
0.0
144
0.0
144
0.0008202099737533
144
0.0
144
0.0
144
0.0
144
0.0
144
1.0
144
0.0
144
0.0
144
0.0
144
0.0
144
1.0
147
0.0008202099737533
147
0.0
147
0.0
147
0.0
147
0.0
147
0.0008202099737533
147
0.0
147
0.0
147
0.0
147
0.0
147
1.0
147
0.0
147
0.0
147
0.0
147
0.0
147
1.0
  0
MLEADERSTYLE
  5
64F
102
{ACAD_REACTORS
330
616
102
}
330
616
100
AcDbMLeaderStyle
170
     2
171
     1
172
     0
 90
        2
 40
0.0
 41
0.0
173
     1
 91
-1056964608
340
12
 92
       -2
290
     1
 42
2.0
291
     1
 43
0.36
  3
Standard
 44
4.0
300

342
10
174
     1
178
     6
175
     1
176
     0
 93
-1056964608
 45
4.0
292
     0
297
     0
 46
4.0
 94
-1056964608
 47
1.0
 49
1.0
140
1.0
293
     1
141
0.0
294
     1
177
     0
142
1.0
295
     0
296
     0
143
0.125
1001
ACAD_MLEADERVER
1070
     2
  0
MLINESTYLE
  5
1B
102
{ACAD_REACTORS
330
E
102
}
330
E
100
AcDbMlineStyle
  2
STANDARD
 70
     0
  3

 62
     0
 51
90.0
 52
90.0
 71
     2
 49
0.5
 62
   256
  6
BYLAYER
 49
-0.5
 62
   256
  6
BYLAYER
  0
ACDBPLACEHOLDER
  5
300
102
{ACAD_REACTORS
330
2FF
102
}
330
2FF
  0
SCALE
  5
3A1
102
{ACAD_REACTORS
330
3A0
102
}
330
3A0
100
AcDbScale
 70
     0
300
1:1
140
1.0
141
1.0
290
     1
  0
SCALE
  5
3A2
102
{ACAD_REACTORS
330
3A0
102
}
330
3A0
100
AcDbScale
 70
     0
300
1:2
140
1.0
141
2.0
290
     0
  0
SCALE
  5
3A3
102
{ACAD_REACTORS
330
3A0
102
}
330
3A0
100
AcDbScale
 70
     0
300
1:4
140
1.0
141
4.0
290
     0
  0
SCALE
  5
3A4
102
{ACAD_REACTORS
330
3A0
102
}
330
3A0
100
AcDbScale
 70
     0
300
1:5
140
1.0
141
5.0
290
     0
  0
SCALE
  5
3A5
102
{ACAD_REACTORS
330
3A0
102
}
330
3A0
100
AcDbScale
 70
     0
300
1:8
140
1.0
141
8.0
290
     0
  0
SCALE
  5
3A6
102
{ACAD_REACTORS
330
3A0
102
}
330
3A0
100
AcDbScale
 70
     0
300
1:10
140
1.0
141
10.0
290
     0
  0
SCALE
  5
3A7
102
{ACAD_REACTORS
330
3A0
102
}
330
3A0
100
AcDbScale
 70
     0
300
1:16
140
1.0
141
16.0
290
     0
  0
SCALE
  5
3A8
102
{ACAD_REACTORS
330
3A0
102
}
330
3A0
100
AcDbScale
 70
     0
300
1:20
140
1.0
141
20.0
290
     0
  0
SCALE
  5
3A9
102
{ACAD_REACTORS
330
3A0
102
}
330
3A0
100
AcDbScale
 70
     0
300
1:30
140
1.0
141
30.0
290
     0
  0
SCALE
  5
3AA
102
{ACAD_REACTORS
330
3A0
102
}
330
3A0
100
AcDbScale
 70
     0
300
1:40
140
1.0
141
40.0
290
     0
  0
SCALE
  5
3AB
102
{ACAD_REACTORS
330
3A0
102
}
330
3A0
100
AcDbScale
 70
     0
300
1:50
140
1.0
141
50.0
290
     0
  0
SCALE
  5
3AC
102
{ACAD_REACTORS
330
3A0
102
}
330
3A0
100
AcDbScale
 70
     0
300
1:100
140
1.0
141
100.0
290
     0
  0
SCALE
  5
3AD
102
{ACAD_REACTORS
330
3A0
102
}
330
3A0
100
AcDbScale
 70
     0
300
2:1
140
2.0
141
1.0
290
     0
  0
SCALE
  5
3AE
102
{ACAD_REACTORS
330
3A0
102
}
330
3A0
100
AcDbScale
 70
     0
300
4:1
140
4.0
141
1.0
290
     0
  0
SCALE
  5
3AF
102
{ACAD_REACTORS
330
3A0
102
}
330
3A0
100
AcDbScale
 70
     0
300
8:1
140
8.0
141
1.0
290
     0
  0
SCALE
  5
3B0
102
{ACAD_REACTORS
330
3A0
102
}
330
3A0
100
AcDbScale
 70
     0
300
10:1
140
10.0
141
1.0
290
     0
  0
SCALE
  5
3B1
102
{ACAD_REACTORS
330
3A0
102
}
330
3A0
100
AcDbScale
 70
     0
300
100:1
140
100.0
141
1.0
290
     0
  0
SCALE
  5
3B2
102
{ACAD_REACTORS
330
3A0
102
}
330
3A0
100
AcDbScale
 70
     0
300
1/128" = 1'-0"
140
0.0078125
141
12.0
290
     0
  0
SCALE
  5
3B3
102
{ACAD_REACTORS
330
3A0
102
}
330
3A0
100
AcDbScale
 70
     0
300
1/64" = 1'-0"
140
0.015625
141
12.0
290
     0
  0
SCALE
  5
3B4
102
{ACAD_REACTORS
330
3A0
102
}
330
3A0
100
AcDbScale
 70
     0
300
1/32" = 1'-0"
140
0.03125
141
12.0
290
     0
  0
SCALE
  5
3B5
102
{ACAD_REACTORS
330
3A0
102
}
330
3A0
100
AcDbScale
 70
     0
300
1/16" = 1'-0"
140
0.0625
141
12.0
290
     0
  0
SCALE
  5
3B6
102
{ACAD_REACTORS
330
3A0
102
}
330
3A0
100
AcDbScale
 70
     0
300
3/32" = 1'-0"
140
0.09375
141
12.0
290
     0
  0
SCALE
  5
3B7
102
{ACAD_REACTORS
330
3A0
102
}
330
3A0
100
AcDbScale
 70
     0
300
1/8" = 1'-0"
140
0.125
141
12.0
290
     0
  0
SCALE
  5
3B8
102
{ACAD_REACTORS
330
3A0
102
}
330
3A0
100
AcDbScale
 70
     0
300
3/16" = 1'-0"
140
0.1875
141
12.0
290
     0
  0
SCALE
  5
3B9
102
{ACAD_REACTORS
330
3A0
102
}
330
3A0
100
AcDbScale
 70
     0
300
1/4" = 1'-0"
140
0.25
141
12.0
290
     0
  0
SCALE
  5
3BA
102
{ACAD_REACTORS
330
3A0
102
}
330
3A0
100
AcDbScale
 70
     0
300
3/8" = 1'-0"
140
0.375
141
12.0
290
     0
  0
SCALE
  5
3BB
102
{ACAD_REACTORS
330
3A0
102
}
330
3A0
100
AcDbScale
 70
     0
300
1/2" = 1'-0"
140
0.5
141
12.0
290
     0
  0
SCALE
  5
3BC
102
{ACAD_REACTORS
330
3A0
102
}
330
3A0
100
AcDbScale
 70
     0
300
3/4" = 1'-0"
140
0.75
141
12.0
290
     0
  0
SCALE
  5
3BD
102
{ACAD_REACTORS
330
3A0
102
}
330
3A0
100
AcDbScale
 70
     0
300
1" = 1'-0"
140
1.0
141
12.0
290
     0
  0
SCALE
  5
3BE
102
{ACAD_REACTORS
330
3A0
102
}
330
3A0
100
AcDbScale
 70
     0
300
1-1/2" = 1'-0"
140
1.5
141
12.0
290
     0
  0
SCALE
  5
3BF
102
{ACAD_REACTORS
330
3A0
102
}
330
3A0
100
AcDbScale
 70
     0
300
3" = 1'-0"
140
3.0
141
12.0
290
     0
  0
SCALE
  5
3C0
102
{ACAD_REACTORS
330
3A0
102
}
330
3A0
100
AcDbScale
 70
     0
300
6" = 1'-0"
140
6.0
141
12.0
290
     0
  0
SCALE
  5
3C1
102
{ACAD_REACTORS
330
3A0
102
}
330
3A0
100
AcDbScale
 70
     0
300
1'-0" = 1'-0"
140
12.0
141
12.0
290
     0
  0
ACDBSECTIONVIEWSTYLE
  5
651
102
{ACAD_REACTORS
330
650
102
}
330
650
100
AcDbModelDocViewStyle
 70
     0
  3
Metric50
290
     0
100
AcDbSectionViewStyle
 70
     0
 71
     0
 90
      102
 71
     1
340
10
 40
5.0
340
0
340
0
 40
5.0
300
I, O, Q, S, X, Z
 40
10.0
 90
        0
 40
2.5
 90
        0
 71
     2
340
14
 90
       25
340
14
 90
       50
 40
5.0
 40
2.5
 40
5.0
 71
     3
340
10
 40
5.0
 90
        0
 40
15.0
 90
        1
300
%<\AcVar ViewSectionStartId>%-%<\AcVar ViewSectionEndId>% (%<\AcVar ViewScale \f "%sn">%)
 71
     4
300
ANSI31
 40
1.0
 90
        0
290
     0
290
     0
 90
        6
 40
0.0
 40
1.570796326794896
 40
0.2617993877991494
 40
1.308996938995747
 40
-0.2617993877991494
 40
1.832595714594046
  0
TABLESTYLE
  5
64E
102
{ACAD_XDICTIONARY
360
680
102
}
102
{ACAD_REACTORS
330
388
102
}
330
388
100
AcDbTableStyle
  3
Standard
 70
     0
 71
     0
 40
1.5
 41
1.5
280
     0
281
     0
  7
STANDARD
140
4.5
170
     2
 62
     0
 63
     7
283
     0
274
    -2
284
     1
 64
     0
275
    -2
285
     1
 65
     0
276
    -2
286
     1
 66
     0
277
    -2
287
     1
 67
     0
278
    -2
288
     1
 68
     0
279
    -2
289
     1
 69
     0
  7
STANDARD
140
6.0
170
     5
 62
     0
 63
     7
283
     0
274
    -2
284
     1
 64
     0
275
    -2
285
     1
 65
     0
276
    -2
286
     1
 66
     0
277
    -2
287
     1
 67
     0
278
    -2
288
     1
 68
     0
279
    -2
289
     1
 69
     0
  7
STANDARD
140
4.5
170
     5
 62
     0
 63
     7
283
     0
274
    -2
284
     1
 64
     0
275
    -2
285
     1
 65
     0
276
    -2
286
     1
 66
     0
277
    -2
287
     1
 67
     0
278
    -2
288
     1
 68
     0
279
    -2
289
     1
 69
     0
  0
VISUALSTYLE
  5
63B
102
{ACAD_XDICTIONARY
360
696
102
}
102
{ACAD_REACTORS
330
635
102
}
330
635
100
AcDbVisualStyle
  2
2dWireframe
 70
     4
 71
     0
 72
     2
 73
     0
 90
        0
 40
-0.6
 41
-30.0
 62
     5
 63
     7
 74
     1
 91
        4
 64
     7
 65
   257
 75
     1
175
     1
 42
1.0
 92
        0
 66
   257
 43
1.0
 76
     1
 77
     6
 78
     2
 67
     7
 79
     5
170
     0
171
     0
290
     0
174
     0
 93
        1
 44
0.0
173
     0
291
     0
 45
0.0
1001
ACAD
1000
AcDbSavedByObjectVersion
1070
     0
  0
VISUALSTYLE
  5
63A
102
{ACAD_XDICTIONARY
360
694
102
}
102
{ACAD_REACTORS
330
635
102
}
330
635
100
AcDbVisualStyle
  2
Basic
 70
     7
 71
     1
 72
     0
 73
     1
 90
        0
 40
-0.6
 41
-30.0
 62
     5
 63
     7
 74
     0
 91
        4
 64
     7
 65
   257
 75
     1
175
     1
 42
1.0
 92
        8
 66
     7
 43
1.0
 76
     1
 77
     6
 78
     2
 67
     7
 79
     5
170
     0
171
     0
290
     0
174
     0
 93
        1
 44
0.0
173
     0
291
     1
 45
0.0
1001
ACAD
1000
AcDbSavedByObjectVersion
1070
     0
  0
VISUALSTYLE
  5
641
102
{ACAD_XDICTIONARY
360
6A2
102
}
102
{ACAD_REACTORS
330
635
102
}
330
635
100
AcDbVisualStyle
  2
Brighten
 70
    12
 71
     2
 72
     2
 73
     0
 90
        0
 40
-0.6
 41
-30.0
 62
     5
 63
     7
 74
     1
 91
        4
 64
     7
 65
   257
 75
     1
175
     1
 42
1.0
 92
        8
 66
     7
 43
1.0
 76
     1
 77
     6
 78
     2
 67
     7
 79
     5
170
     0
171
     0
290
     0
174
     0
 93
        1
 44
50.0
173
     0
291
     1
 45
0.0
1001
ACAD
1000
AcDbSavedByObjectVersion
1070
     0
  0
VISUALSTYLE
  5
645
102
{ACAD_XDICTIONARY
360
6AA
102
}
102
{ACAD_REACTORS
330
635
102
}
330
635
100
AcDbVisualStyle
  2
ColorChange
 70
    16
 71
     2
 72
     2
 73
     3
 90
        0
 40
-0.6
 41
-30.0
 62
     5
 63
     8
 74
     1
 91
        4
 64
     7
 65
   257
 75
     1
175
     1
 42
1.0
 92
        8
 66
     8
 43
1.0
 76
     1
 77
     6
 78
     2
 67
     7
 79
     5
170
     0
171
     0
290
     0
174
     0
 93
        1
 44
0.0
173
     0
291
     1
 45
0.0
1001
ACAD
1000
AcDbSavedByObjectVersion
1070
     0
  0
VISUALSTYLE
  5
63E
102
{ACAD_XDICTIONARY
360
69C
102
}
102
{ACAD_REACTORS
330
635
102
}
330
635
100
AcDbVisualStyle
  2
Conceptual
 70
     9
 71
     3
 72
     2
 73
     0
 90
        0
 40
-0.6
 41
-30.0
 62
     5
 63
     7
 74
     2
 91
        2
 64
     7
 65
   257
 75
     1
175
     1
 42
179.0
 92
        8
 66
     7
 43
1.0
 76
     1
 77
     6
 78
     2
 67
     7
 79
     3
170
     0
171
     0
290
     0
174
     0
 93
        1
 44
0.0
173
     0
291
     0
 45
0.0
1001
ACAD
1000
AcDbSavedByObjectVersion
1070
     0
  0
VISUALSTYLE
  5
640
102
{ACAD_XDICTIONARY
360
6A0
102
}
102
{ACAD_REACTORS
330
635
102
}
330
635
100
AcDbVisualStyle
  2
Dim
 70
    11
 71
     2
 72
     2
 73
     0
 90
        0
 40
-0.6
 41
-30.0
 62
     5
 63
     7
 74
     1
 91
        4
 64
     7
 65
   257
 75
     1
175
     1
 42
1.0
 92
        8
 66
     7
 43
1.0
 76
     1
 77
     6
 78
     2
 67
     7
 79
     5
170
     0
171
     0
290
     0
174
     0
 93
        1
 44
-50.0
173
     0
291
     1
 45
0.0
1001
ACAD
1000
AcDbSavedByObjectVersion
1070
     0
  0
VISUALSTYLE
  5
64D
102
{ACAD_XDICTIONARY
360
6BA
102
}
102
{ACAD_REACTORS
330
635
102
}
330
635
100
AcDbVisualStyle
  2
EdgeColorOff
 70
    22
 71
     2
 72
     2
 73
     0
 90
        0
 40
-0.6
 41
-30.0
 62
     5
 63
     7
 74
     1
 91
        4
 64
     7
 65
   257
 75
     1
175
     1
 42
1.0
 92
        8
 66
     7
 43
1.0
 76
     1
 77
     6
 78
     2
 67
     7
 79
     5
170
     0
171
     0
290
     0
174
     0
 93
        1
 44
0.0
173
     0
291
     1
 45
0.0
1001
ACAD
1000
AcDbSavedByObjectVersion
1070
     0
  0
VISUALSTYLE
  5
644
102
{ACAD_XDICTIONARY
360
6A8
102
}
102
{ACAD_REACTORS
330
635
102
}
330
635
100
AcDbVisualStyle
  2
Facepattern
 70
    15
 71
     2
 72
     2
 73
     0
 90
        0
 40
-0.6
 41
-30.0
 62
     5
 63
     7
 74
     1
 91
        4
 64
     7
 65
   257
 75
     1
175
     1
 42
1.0
 92
        8
 66
     7
 43
1.0
 76
     1
 77
     6
 78
     2
 67
     7
 79
     5
170
     0
171
     0
290
     0
174
     0
 93
        1
 44
0.0
173
     0
291
     1
 45
0.0
1001
ACAD
1000
AcDbSavedByObjectVersion
1070
     0
  0
VISUALSTYLE
  5
636
102
{ACAD_XDICTIONARY
360
68C
102
}
102
{ACAD_REACTORS
330
635
102
}
330
635
100
AcDbVisualStyle
  2
Flat
 70
     0
 71
     2
 72
     1
 73
     1
 90
        2
 40
-0.6
 41
30.0
 62
     5
 63
     7
 74
     0
 91
        0
 64
     7
 65
   257
 75
     1
175
     1
 42
1.0
 92
        8
 66
     7
 43
1.0
 76
     1
 77
     6
 78
     2
 67
     7
 79
     5
170
     0
171
     0
290
     0
174
     0
 93
       13
 44
0.0
173
     0
291
     1
 45
0.0
1001
ACAD
1000
AcDbSavedByObjectVersion
1070
     0
  0
VISUALSTYLE
  5
637
102
{ACAD_XDICTIONARY
360
68E
102
}
102
{ACAD_REACTORS
330
635
102
}
330
635
100
AcDbVisualStyle
  2
FlatWithEdges
 70
     1
 71
     2
 72
     1
 73
     1
 90
        2
 40
-0.6
 41
30.0
 62
     5
 63
     7
 74
     1
 91
        0
 64
     7
 65
   257
 75
     1
175
     1
 42
1.0
 92
        0
 66
   257
 43
1.0
 76
     1
 77
     6
 78
     2
 67
     7
 79
     5
170
     0
171
     0
290
     0
174
     0
 93
       13
 44
0.0
173
     0
291
     1
 45
0.0
1001
ACAD
1000
AcDbSavedByObjectVersion
1070
     0
  0
VISUALSTYLE
  5
638
102
{ACAD_XDICTIONARY
360
690
102
}
102
{ACAD_REACTORS
330
635
102
}
330
635
100
AcDbVisualStyle
  2
Gouraud
 70
     2
 71
     2
 72
     2
 73
     1
 90
        2
 40
-0.6
 41
30.0
 62
     5
 63
     7
 74
     0
 91
        0
 64
     7
 65
   257
 75
     1
175
     1
 42
1.0
 92
        0
 66
     7
 43
1.0
 76
     1
 77
     6
 78
     2
 67
     7
 79
     5
170
     0
171
     0
290
     0
174
     0
 93
       13
 44
0.0
173
     0
291
     1
 45
0.0
1001
ACAD
1000
AcDbSavedByObjectVersion
1070
     0
  0
VISUALSTYLE
  5
639
102
{ACAD_XDICTIONARY
360
692
102
}
102
{ACAD_REACTORS
330
635
102
}
330
635
100
AcDbVisualStyle
  2
GouraudWithEdges
 70
     3
 71
     2
 72
     2
 73
     1
 90
        2
 40
-0.6
 41
30.0
 62
     5
 63
     7
 74
     1
 91
        0
 64
     7
 65
   257
 75
     1
175
     1
 42
1.0
 92
        0
 66
   257
 43
1.0
 76
     1
 77
     6
 78
     2
 67
     7
 79
     5
170
     0
171
     0
290
     0
174
     0
 93
       13
 44
0.0
173
     0
291
     1
 45
0.0
1001
ACAD
1000
AcDbSavedByObjectVersion
1070
     0
  0
VISUALSTYLE
  5
63D
102
{ACAD_XDICTIONARY
360
69A
102
}
102
{ACAD_REACTORS
330
635
102
}
330
635
100
AcDbVisualStyle
  2
Hidden
 70
     6
 71
     1
 72
     2
 73
     2
 90
        0
 40
-0.6
 41
-30.0
 62
     5
 63
     7
 74
     2
 91
        2
 64
     7
 65
   257
 75
     2
175
     1
 42
40.0
 92
        0
 66
   257
 43
1.0
 76
     1
 77
     6
 78
     2
 67
     7
 79
     3
170
     0
171
     0
290
     0
174
     0
 93
        1
 44
0.0
173
     0
291
     0
 45
0.0
1001
ACAD
1000
AcDbSavedByObjectVersion
1070
     0
  0
VISUALSTYLE
  5
64B
102
{ACAD_XDICTIONARY
360
6B6
102
}
102
{ACAD_REACTORS
330
635
102
}
330
635
100
AcDbVisualStyle
  2
JitterOff
 70
    20
 71
     2
 72
     2
 73
     0
 90
        0
 40
-0.6
 41
-30.0
 62
     5
 63
     7
 74
     1
 91
        4
 64
     7
 65
   257
 75
     1
175
     1
 42
1.0
 92
       10
 66
     7
 43
1.0
 76
     1
 77
     6
 78
     2
 67
     7
 79
     5
170
     0
171
     0
290
     0
174
     0
 93
        1
 44
0.0
173
     0
291
     1
 45
0.0
1001
ACAD
1000
AcDbSavedByObjectVersion
1070
     0
  0
VISUALSTYLE
  5
643
102
{ACAD_XDICTIONARY
360
6A6
102
}
102
{ACAD_REACTORS
330
635
102
}
330
635
100
AcDbVisualStyle
  2
Linepattern
 70
    14
 71
     2
 72
     2
 73
     0
 90
        0
 40
-0.6
 41
-30.0
 62
     5
 63
     7
 74
     1
 91
        4
 64
     7
 65
   257
 75
     7
175
     7
 42
1.0
 92
        8
 66
     7
 43
1.0
 76
     1
 77
     6
 78
     2
 67
     7
 79
     5
170
     0
171
     0
290
     0
174
     0
 93
        1
 44
0.0
173
     0
291
     1
 45
0.0
1001
ACAD
1000
AcDbSavedByObjectVersion
1070
     0
  0
VISUALSTYLE
  5
64C
102
{ACAD_XDICTIONARY
360
6B8
102
}
102
{ACAD_REACTORS
330
635
102
}
330
635
100
AcDbVisualStyle
  2
OverhangOff
 70
    21
 71
     2
 72
     2
 73
     0
 90
        0
 40
-0.6
 41
-30.0
 62
     5
 63
     7
 74
     1
 91
        4
 64
     7
 65
   257
 75
     1
175
     1
 42
1.0
 92
        9
 66
     7
 43
1.0
 76
     1
 77
     6
 78
     2
 67
     7
 79
     5
170
     0
171
     0
290
     0
174
     0
 93
        1
 44
0.0
173
     0
291
     1
 45
0.0
1001
ACAD
1000
AcDbSavedByObjectVersion
1070
     0
  0
VISUALSTYLE
  5
63F
102
{ACAD_XDICTIONARY
360
69E
102
}
102
{ACAD_REACTORS
330
635
102
}
330
635
100
AcDbVisualStyle
  2
Realistic
 70
     8
 71
     2
 72
     3
 73
     0
 90
        2
 40
-0.6
 41
30.0
 62
     5
 63
     7
 74
     0
 91
        0
 64
     7
 65
   257
 75
     1
175
     1
 42
1.0
 92
        8
 66
   257
 43
1.0
 76
     1
 77
     6
 78
     2
 67
     7
 79
     3
170
     0
171
     0
290
     0
174
     0
 93
       13
 44
0.0
173
     0
291
     0
 45
0.0
1001
ACAD
1000
AcDbSavedByObjectVersion
1070
     0
  0
VISUALSTYLE
  5
64A
102
{ACAD_XDICTIONARY
360
6B4
102
}
102
{ACAD_REACTORS
330
635
102
}
330
635
100
AcDbVisualStyle
  2
Shaded
 70
    27
 71
     2
 72
     2
 73
     1
 90
        2
 40
-0.6
 41
30.0
 62
     5
 63
     7
 74
     0
 91
        4
 64
     7
 65
   257
 75
     1
175
     1
 42
1.0
 92
        8
 66
   257
 43
1.0
 76
     1
 77
     6
 78
     2
 67
     8
 79
     3
170
     0
171
     0
290
     0
174
     0
 93
        5
 44
0.0
173
     0
291
     0
 45
0.0
1001
ACAD
1000
AcDbSavedByObjectVersion
1070
     0
  0
VISUALSTYLE
  5
649
102
{ACAD_XDICTIONARY
360
6B2
102
}
102
{ACAD_REACTORS
330
635
102
}
330
635
100
AcDbVisualStyle
  2
Shaded with edges
 70
    26
 71
     2
 72
     2
 73
     1
 90
        2
 40
-0.6
 41
30.0
 62
     5
 63
     7
 74
     1
 91
       10
 64
     7
 65
   257
 75
     2
175
     1
 42
1.0
 92
        8
 66
   257
 43
1.0
 76
     1
 77
     6
 78
     2
 67
     7
 79
     3
170
     0
171
     0
290
     0
174
     0
 93
        5
 44
0.0
173
     0
291
     0
 45
0.0
1001
ACAD
1000
AcDbSavedByObjectVersion
1070
     0
  0
VISUALSTYLE
  5
646
102
{ACAD_XDICTIONARY
360
6AC
102
}
102
{ACAD_REACTORS
330
635
102
}
330
635
100
AcDbVisualStyle
  2
Shades of Gray
 70
    23
 71
     2
 72
     2
 73
     3
 90
        0
 40
-0.6
 41
-30.0
 62
     5
 63
     7
 74
     2
 91
        2
 64
     7
 65
     7
 75
     1
175
     1
 42
40.0
 92
        8
 66
     7
 43
1.0
 76
     1
 77
     6
 78
     2
 67
     7
 79
     3
170
     0
171
     0
290
     0
174
     0
 93
        1
 44
0.0
173
     0
291
     0
 45
0.0
1001
ACAD
1000
AcDbSavedByObjectVersion
1070
     0
  0
VISUALSTYLE
  5
647
102
{ACAD_XDICTIONARY
360
6AE
102
}
102
{ACAD_REACTORS
330
635
102
}
330
635
100
AcDbVisualStyle
  2
Sketchy
 70
    24
 71
     1
 72
     2
 73
     2
 90
        0
 40
-0.6
 41
-30.0
 62
     5
 63
     7
 74
     2
 91
        2
 64
     7
 65
     7
 75
     1
175
     1
 42
40.0
 92
       11
 66
     7
 43
1.0
 76
     1
 77
     6
 78
     2
 67
     7
 79
     6
170
     0
171
     0
290
     0
174
     0
 93
        1
 44
0.0
173
     0
291
     0
 45
0.0
1001
ACAD
1000
AcDbSavedByObjectVersion
1070
     0
  0
VISUALSTYLE
  5
642
102
{ACAD_XDICTIONARY
360
6A4
102
}
102
{ACAD_REACTORS
330
635
102
}
330
635
100
AcDbVisualStyle
  2
Thicken
 70
    13
 71
     2
 72
     2
 73
     0
 90
        0
 40
-0.6
 41
-30.0
 62
     5
 63
     7
 74
     1
 91
        4
 64
     7
 65
   257
 75
     1
175
     1
 42
1.0
 92
       12
 66
     7
 43
1.0
 76
     1
 77
     6
 78
     2
 67
     7
 79
     5
170
     0
171
     0
290
     0
174
     0
 93
        1
 44
0.0
173
     0
291
     1
 45
0.0
1001
ACAD
1000
AcDbSavedByObjectVersion
1070
     0
  0
VISUALSTYLE
  5
63C
102
{ACAD_XDICTIONARY
360
698
102
}
102
{ACAD_REACTORS
330
635
102
}
330
635
100
AcDbVisualStyle
  2
Wireframe
 70
     5
 71
     0
 72
     2
 73
     0
 90
        0
 40
-0.6
 41
-30.0
 62
     5
 63
     7
 74
     1
 91
        4
 64
     7
 65
   257
 75
     1
175
     1
 42
1.0
 92
        0
 66
   257
 43
1.0
 76
     1
 77
     6
 78
     2
 67
     7
 79
     3
170
     0
171
     0
290
     0
174
     0
 93
        1
 44
0.0
173
     0
291
     0
 45
0.0
1001
ACAD
1000
AcDbSavedByObjectVersion
1070
     0
  0
VISUALSTYLE
  5
648
102
{ACAD_XDICTIONARY
360
6B0
102
}
102
{ACAD_REACTORS
330
635
102
}
330
635
100
AcDbVisualStyle
  2
X-Ray
 70
    25
 71
     2
 72
     2
 73
     1
 90
        1
 40
0.5
 41
-30.0
 62
     5
 63
     7
 74
     1
 91
        0
 64
     7
 65
   257
 75
     1
175
     1
 42
1.0
 92
        8
 66
     7
 43
1.0
 76
     1
 77
     6
 78
     2
 67
     7
 79
     3
170
     0
171
     0
290
     0
174
     0
 93
       13
 44
0.0
173
     0
291
     0
 45
0.0
1001
ACAD
1000
AcDbSavedByObjectVersion
1070
     0
  0
DICTIONARYVAR
  5
617
102
{ACAD_REACTORS
330
357
102
}
330
357
100
DictionaryVariables
280
     0
  1
1:1
  0
DICTIONARYVAR
  5
679
102
{ACAD_REACTORS
330
357
102
}
330
357
100
DictionaryVariables
280
     0
  1
STANDARD
  0
DICTIONARYVAR
  5
38D
102
{ACAD_REACTORS
330
357
102
}
330
357
100
DictionaryVariables
280
     0
  1
STANDARD
  0
DICTIONARYVAR
  5
67A
102
{ACAD_REACTORS
330
357
102
}
330
357
100
DictionaryVariables
280
     0
  1
Metric50
  0
DICTIONARYVAR
  5
67B
102
{ACAD_REACTORS
330
357
102
}
330
357
100
DictionaryVariables
280
     0
  1
Metric50
  0
DICTIONARYVAR
  5
359
102
{ACAD_REACTORS
330
357
102
}
330
357
100
DictionaryVariables
280
     0
  1
2
  0
DICTIONARYVAR
  5
358
102
{ACAD_REACTORS
330
357
102
}
330
357
100
DictionaryVariables
280
     0
  1
1
  0
DICTIONARYVAR
  5
67D
102
{ACAD_REACTORS
330
357
102
}
330
357
100
DictionaryVariables
280
     0
  1
0
  0
DICTIONARYVAR
  5
38E
102
{ACAD_REACTORS
330
357
102
}
330
357
100
DictionaryVariables
280
     0
  1

  0
DICTIONARYVAR
  5
67C
102
{ACAD_REACTORS
330
357
102
}
330
357
100
DictionaryVariables
280
     0
  1
127
  0
DICTIONARYVAR
  5
67E
102
{ACAD_REACTORS
330
357
102
}
330
357
100
DictionaryVariables
280
     0
  1
2
  0
DICTIONARY
  5
686
330
33B
100
AcDbDictionary
280
     1
281
     1
  3
ACAD_XREC_ROUNDTRIP
360
687
  0
DICTIONARY
  5
684
330
303
100
AcDbDictionary
280
     1
281
     1
  3
ACAD_XREC_ROUNDTRIP
360
685
  0
DICTIONARY
  5
626
330
625
100
AcDbDictionary
280
     1
281
     1
  3
ACAD_XREC_ROUNDTRIP
360
68A
  3
BUMPTILE
360
628
  3
DIFFUSETILE
360
627
  3
OPACITYTILE
360
62B
  3
REFLECTIONTILE
360
62A
  3
REFRACTIONTILE
360
62C
  3
SPECULARTILE
360
629
  0
DICTIONARY
  5
61E
330
61D
100
AcDbDictionary
280
     1
281
     1
  3
ACAD_XREC_ROUNDTRIP
360
689
  3
BUMPTILE
360
620
  3
DIFFUSETILE
360
61F
  3
OPACITYTILE
360
623
  3
REFLECTIONTILE
360
622
  3
REFRACTIONTILE
360
624
  3
SPECULARTILE
360
621
  0
DICTIONARY
  5
62E
330
62D
100
AcDbDictionary
280
     1
281
     1
  3
ACAD_XREC_ROUNDTRIP
360
68B
  3
BUMPTILE
360
630
  3
DIFFUSETILE
360
62F
  3
OPACITYTILE
360
633
  3
REFLECTIONTILE
360
632
  3
REFRACTIONTILE
360
634
  3
SPECULARTILE
360
631
  0
DICTIONARY
  5
680
330
64E
100
AcDbDictionary
280
     1
281
     1
  3
ACAD_ROUNDTRIP_2008_TABLESTYLE_CELLSTYLEMAP
360
681
  3
ACAD_XREC_ROUNDTRIP
360
6BC
  0
DICTIONARY
  5
696
330
63B
100
AcDbDictionary
280
     1
281
     1
  3
ACAD_XREC_ROUNDTRIP
360
697
  0
DICTIONARY
  5
694
330
63A
100
AcDbDictionary
280
     1
281
     1
  3
ACAD_XREC_ROUNDTRIP
360
695
  0
DICTIONARY
  5
6A2
330
641
100
AcDbDictionary
280
     1
281
     1
  3
ACAD_XREC_ROUNDTRIP
360
6A3
  0
DICTIONARY
  5
6AA
330
645
100
AcDbDictionary
280
     1
281
     1
  3
ACAD_XREC_ROUNDTRIP
360
6AB
  0
DICTIONARY
  5
69C
330
63E
100
AcDbDictionary
280
     1
281
     1
  3
ACAD_XREC_ROUNDTRIP
360
69D
  0
DICTIONARY
  5
6A0
330
640
100
AcDbDictionary
280
     1
281
     1
  3
ACAD_XREC_ROUNDTRIP
360
6A1
  0
DICTIONARY
  5
6BA
330
64D
100
AcDbDictionary
280
     1
281
     1
  3
ACAD_XREC_ROUNDTRIP
360
6BB
  0
DICTIONARY
  5
6A8
330
644
100
AcDbDictionary
280
     1
281
     1
  3
ACAD_XREC_ROUNDTRIP
360
6A9
  0
DICTIONARY
  5
68C
330
636
100
AcDbDictionary
280
     1
281
     1
  3
ACAD_XREC_ROUNDTRIP
360
68D
  0
DICTIONARY
  5
68E
330
637
100
AcDbDictionary
280
     1
281
     1
  3
ACAD_XREC_ROUNDTRIP
360
68F
  0
DICTIONARY
  5
690
330
638
100
AcDbDictionary
280
     1
281
     1
  3
ACAD_XREC_ROUNDTRIP
360
691
  0
DICTIONARY
  5
692
330
639
100
AcDbDictionary
280
     1
281
     1
  3
ACAD_XREC_ROUNDTRIP
360
693
  0
DICTIONARY
  5
69A
330
63D
100
AcDbDictionary
280
     1
281
     1
  3
ACAD_XREC_ROUNDTRIP
360
69B
  0
DICTIONARY
  5
6B6
330
64B
100
AcDbDictionary
280
     1
281
     1
  3
ACAD_XREC_ROUNDTRIP
360
6B7
  0
DICTIONARY
  5
6A6
330
643
100
AcDbDictionary
280
     1
281
     1
  3
ACAD_XREC_ROUNDTRIP
360
6A7
  0
DICTIONARY
  5
6B8
330
64C
100
AcDbDictionary
280
     1
281
     1
  3
ACAD_XREC_ROUNDTRIP
360
6B9
  0
DICTIONARY
  5
69E
330
63F
100
AcDbDictionary
280
     1
281
     1
  3
ACAD_XREC_ROUNDTRIP
360
69F
  0
DICTIONARY
  5
6B4
330
64A
100
AcDbDictionary
280
     1
281
     1
  3
ACAD_XREC_ROUNDTRIP
360
6B5
  0
DICTIONARY
  5
6B2
330
649
100
AcDbDictionary
280
     1
281
     1
  3
ACAD_XREC_ROUNDTRIP
360
6B3
  0
DICTIONARY
  5
6AC
330
646
100
AcDbDictionary
280
     1
281
     1
  3
ACAD_XREC_ROUNDTRIP
360
6AD
  0
DICTIONARY
  5
6AE
330
647
100
AcDbDictionary
280
     1
281
     1
  3
ACAD_XREC_ROUNDTRIP
360
6AF
  0
DICTIONARY
  5
6A4
330
642
100
AcDbDictionary
280
     1
281
     1
  3
ACAD_XREC_ROUNDTRIP
360
6A5
  0
DICTIONARY
  5
698
330
63C
100
AcDbDictionary
280
     1
281
     1
  3
ACAD_XREC_ROUNDTRIP
360
699
  0
DICTIONARY
  5
6B0
330
648
100
AcDbDictionary
280
     1
281
     1
  3
ACAD_XREC_ROUNDTRIP
360
6B1
  0
XRECORD
  5
687
102
{ACAD_REACTORS
330
686
102
}
330
686
100
AcDbXrecord
280
     1
102
SHADEPLOT
 70
     0
102
SHADEPLOTRESLEVEL
 70
     2
102
SHADEPLOTCUSTOMDPI
 70
   300
  0
XRECORD
  5
685
102
{ACAD_REACTORS
330
684
102
}
330
684
100
AcDbXrecord
280
     1
102
SHADEPLOT
 70
     0
102
SHADEPLOTRESLEVEL
 70
     2
102
SHADEPLOTCUSTOMDPI
 70
   300
  0
XRECORD
  5
68A
102
{ACAD_REACTORS
330
626
102
}
330
626
100
AcDbXrecord
280
     1
102
MATERIAL
148
0.0
149
0.0
149
0.0
 93
        0
 94
      127
282
     0
 72
     0
 77
     0
171
     0
175
     0
179
     0
273
     0
  0
XRECORD
  5
628
102
{ACAD_REACTORS
330
626
102
}
330
626
100
AcDbXrecord
280
     1
270
     1
271
     1
  0
XRECORD
  5
627
102
{ACAD_REACTORS
330
626
102
}
330
626
100
AcDbXrecord
280
     1
270
     1
271
     1
  0
XRECORD
  5
62B
102
{ACAD_REACTORS
330
626
102
}
330
626
100
AcDbXrecord
280
     1
270
     1
271
     1
  0
XRECORD
  5
62A
102
{ACAD_REACTORS
330
626
102
}
330
626
100
AcDbXrecord
280
     1
270
     1
271
     1
  0
XRECORD
  5
62C
102
{ACAD_REACTORS
330
626
102
}
330
626
100
AcDbXrecord
280
     1
270
     1
271
     1
  0
XRECORD
  5
629
102
{ACAD_REACTORS
330
626
102
}
330
626
100
AcDbXrecord
280
     1
270
     1
271
     1
  0
XRECORD
  5
689
102
{ACAD_REACTORS
330
61E
102
}
330
61E
100
AcDbXrecord
280
     1
102
MATERIAL
148
0.0
149
0.0
149
0.0
 93
        0
 94
      127
282
     0
 72
     0
 77
     0
171
     0
175
     0
179
     0
273
     0
  0
XRECORD
  5
620
102
{ACAD_REACTORS
330
61E
102
}
330
61E
100
AcDbXrecord
280
     1
270
     1
271
     1
  0
XRECORD
  5
61F
102
{ACAD_REACTORS
330
61E
102
}
330
61E
100
AcDbXrecord
280
     1
270
     1
271
     1
  0
XRECORD
  5
623
102
{ACAD_REACTORS
330
61E
102
}
330
61E
100
AcDbXrecord
280
     1
270
     1
271
     1
  0
XRECORD
  5
622
102
{ACAD_REACTORS
330
61E
102
}
330
61E
100
AcDbXrecord
280
     1
270
     1
271
     1
  0
XRECORD
  5
624
102
{ACAD_REACTORS
330
61E
102
}
330
61E
100
AcDbXrecord
280
     1
270
     1
271
     1
  0
XRECORD
  5
621
102
{ACAD_REACTORS
330
61E
102
}
330
61E
100
AcDbXrecord
280
     1
270
     1
271
     1
  0
XRECORD
  5
68B
102
{ACAD_REACTORS
330
62E
102
}
330
62E
100
AcDbXrecord
280
     1
102
MATERIAL
148
0.0
149
0.0
149
0.0
 93
        0
 94
      127
282
     0
 72
     0
 77
     0
171
     0
175
     0
179
     0
273
     0
  0
XRECORD
  5
630
102
{ACAD_REACTORS
330
62E
102
}
330
62E
100
AcDbXrecord
280
     1
270
     1
271
     1
  0
XRECORD
  5
62F
102
{ACAD_REACTORS
330
62E
102
}
330
62E
100
AcDbXrecord
280
     1
270
     1
271
     1
  0
XRECORD
  5
633
102
{ACAD_REACTORS
330
62E
102
}
330
62E
100
AcDbXrecord
280
     1
270
     1
271
     1
  0
XRECORD
  5
632
102
{ACAD_REACTORS
330
62E
102
}
330
62E
100
AcDbXrecord
280
     1
270
     1
271
     1
  0
XRECORD
  5
634
102
{ACAD_REACTORS
330
62E
102
}
330
62E
100
AcDbXrecord
280
     1
270
     1
271
     1
  0
XRECORD
  5
631
102
{ACAD_REACTORS
330
62E
102
}
330
62E
100
AcDbXrecord
280
     1
270
     1
271
     1
  0
CELLSTYLEMAP
  5
681
102
{ACAD_REACTORS
330
680
102
}
330
680
100
AcDbCellStyleMap
 90
        3
300
CELLSTYLE
  1
TABLEFORMAT_BEGIN
 90
        5
170
     1
 91
        0
 92
    32768
 62
   257
 93
        1
300
CONTENTFORMAT
  1
CONTENTFORMAT_BEGIN
 90
        0
 91
        0
 92
      512
 93
        0
300

 40
0.0
140
1.0
 94
        5
 62
     0
340
10
144
6.0
309
CONTENTFORMAT_END
171
     1
301
MARGIN
  1
CELLMARGIN_BEGIN
 40
1.5
 40
1.5
 40
1.5
 40
1.5
 40
4.5
 40
4.5
309
CELLMARGIN_END
 94
        6
 95
        1
302
GRIDFORMAT
  1
GRIDFORMAT_BEGIN
 90
        0
 91
        1
 62
     0
 92
       -2
340
0
 93
        0
 40
1.125
309
GRIDFORMAT_END
 95
        2
302
GRIDFORMAT
  1
GRIDFORMAT_BEGIN
 90
        0
 91
        1
 62
     0
 92
       -2
340
0
 93
        0
 40
1.125
309
GRIDFORMAT_END
 95
        4
302
GRIDFORMAT
  1
GRIDFORMAT_BEGIN
 90
        0
 91
        1
 62
     0
 92
       -2
340
0
 93
        0
 40
1.125
309
GRIDFORMAT_END
 95
        8
302
GRIDFORMAT
  1
GRIDFORMAT_BEGIN
 90
        0
 91
        1
 62
     0
 92
       -2
340
0
 93
        0
 40
1.125
309
GRIDFORMAT_END
 95
       16
302
GRIDFORMAT
  1
GRIDFORMAT_BEGIN
 90
        0
 91
        1
 62
     0
 92
       -2
340
0
 93
        0
 40
1.125
309
GRIDFORMAT_END
 95
       32
302
GRIDFORMAT
  1
GRIDFORMAT_BEGIN
 90
        0
 91
        1
 62
     0
 92
       -2
340
0
 93
        0
 40
1.125
309
GRIDFORMAT_END
309
TABLEFORMAT_END
  1
CELLSTYLE_BEGIN
 90
        1
 91
        1
300
_TITLE
309
CELLSTYLE_END
300
CELLSTYLE
  1
TABLEFORMAT_BEGIN
 90
        5
170
     1
 91
        0
 92
        0
 62
   257
 93
        1
300
CONTENTFORMAT
  1
CONTENTFORMAT_BEGIN
 90
        0
 91
        0
 92
      512
 93
        0
300

 40
0.0
140
1.0
 94
        5
 62
     0
340
10
144
4.5
309
CONTENTFORMAT_END
171
     1
301
MARGIN
  1
CELLMARGIN_BEGIN
 40
1.5
 40
1.5
 40
1.5
 40
1.5
 40
4.5
 40
4.5
309
CELLMARGIN_END
 94
        6
 95
        1
302
GRIDFORMAT
  1
GRIDFORMAT_BEGIN
 90
        0
 91
        1
 62
     0
 92
       -2
340
0
 93
        0
 40
1.125
309
GRIDFORMAT_END
 95
        2
302
GRIDFORMAT
  1
GRIDFORMAT_BEGIN
 90
        0
 91
        1
 62
     0
 92
       -2
340
0
 93
        0
 40
1.125
309
GRIDFORMAT_END
 95
        4
302
GRIDFORMAT
  1
GRIDFORMAT_BEGIN
 90
        0
 91
        1
 62
     0
 92
       -2
340
0
 93
        0
 40
1.125
309
GRIDFORMAT_END
 95
        8
302
GRIDFORMAT
  1
GRIDFORMAT_BEGIN
 90
        0
 91
        1
 62
     0
 92
       -2
340
0
 93
        0
 40
1.125
309
GRIDFORMAT_END
 95
       16
302
GRIDFORMAT
  1
GRIDFORMAT_BEGIN
 90
        0
 91
        1
 62
     0
 92
       -2
340
0
 93
        0
 40
1.125
309
GRIDFORMAT_END
 95
       32
302
GRIDFORMAT
  1
GRIDFORMAT_BEGIN
 90
        0
 91
        1
 62
     0
 92
       -2
340
0
 93
        0
 40
1.125
309
GRIDFORMAT_END
309
TABLEFORMAT_END
  1
CELLSTYLE_BEGIN
 90
        2
 91
        1
300
_HEADER
309
CELLSTYLE_END
300
CELLSTYLE
  1
TABLEFORMAT_BEGIN
 90
        5
170
     1
 91
        0
 92
        0
 62
   257
 93
        1
300
CONTENTFORMAT
  1
CONTENTFORMAT_BEGIN
 90
        0
 91
        0
 92
      512
 93
        0
300

 40
0.0
140
1.0
 94
        2
 62
     0
340
10
144
4.5
309
CONTENTFORMAT_END
171
     1
301
MARGIN
  1
CELLMARGIN_BEGIN
 40
1.5
 40
1.5
 40
1.5
 40
1.5
 40
4.5
 40
4.5
309
CELLMARGIN_END
 94
        6
 95
        1
302
GRIDFORMAT
  1
GRIDFORMAT_BEGIN
 90
        0
 91
        1
 62
     0
 92
       -2
340
0
 93
        0
 40
1.125
309
GRIDFORMAT_END
 95
        2
302
GRIDFORMAT
  1
GRIDFORMAT_BEGIN
 90
        0
 91
        1
 62
     0
 92
       -2
340
0
 93
        0
 40
1.125
309
GRIDFORMAT_END
 95
        4
302
GRIDFORMAT
  1
GRIDFORMAT_BEGIN
 90
        0
 91
        1
 62
     0
 92
       -2
340
0
 93
        0
 40
1.125
309
GRIDFORMAT_END
 95
        8
302
GRIDFORMAT
  1
GRIDFORMAT_BEGIN
 90
        0
 91
        1
 62
     0
 92
       -2
340
0
 93
        0
 40
1.125
309
GRIDFORMAT_END
 95
       16
302
GRIDFORMAT
  1
GRIDFORMAT_BEGIN
 90
        0
 91
        1
 62
     0
 92
       -2
340
0
 93
        0
 40
1.125
309
GRIDFORMAT_END
 95
       32
302
GRIDFORMAT
  1
GRIDFORMAT_BEGIN
 90
        0
 91
        1
 62
     0
 92
       -2
340
0
 93
        0
 40
1.125
309
GRIDFORMAT_END
309
TABLEFORMAT_END
  1
CELLSTYLE_BEGIN
 90
        3
 91
        2
300
_DATA
309
CELLSTYLE_END
  0
XRECORD
  5
6BC
102
{ACAD_REACTORS
330
680
102
}
330
680
100
AcDbXrecord
280
     1
102
ACAD_ROUNDTRIP_PRE2007_TABLESTYLE
 90
      512
 91
        0
  1

 92
      512
 93
        0
  2

 94
      512
 95
        0
  3

  0
XRECORD
  5
697
102
{ACAD_REACTORS
330
696
102
}
330
696
100
AcDbXrecord
280
     1
102
RTVSPost2010Prop28
280
     1
102
RTVSPost2010PropOp28
 70
     1
102
RTVSPost2010Prop29
280
     1
102
RTVSPost2010PropOp29
 70
     1
102
RTVSPost2010Prop30
280
     0
102
RTVSPost2010PropOp30
 70
     1
102
RTVSPost2010Prop31
280
     0
102
RTVSPost2010PropOp31
 70
     1
102
RTVSPost2010Prop32
280
     0
102
RTVSPost2010PropOp32
 70
     1
102
RTVSPost2010Prop33
280
     0
102
RTVSPost2010PropOp33
 70
     1
102
RTVSPost2010Prop34
280
     0
102
RTVSPost2010PropOp34
 70
     1
102
RTVSPost2010Prop35
280
     0
102
RTVSPost2010PropOp35
 70
     1
102
RTVSPost2010Prop36
280
     0
102
RTVSPost2010PropOp36
 70
     1
102
RTVSPost2010Prop37
 90
       50
102
RTVSPost2010PropOp37
 70
     1
102
RTVSPost2010Prop38
140
0.0
102
RTVSPost2010PropOp38
 70
     1
102
RTVSPost2010Prop39
140
1.0
102
RTVSPost2010PropOp39
 70
     1
102
RTVSPost2010Prop40
 90
        0
102
RTVSPost2010PropOp40
 70
     1
102
RTVSPost2010Prop41ColorIndex
 90
       18
102
RTVSPost2010Prop41ColorRGB
 90
        0
102
RTVSPost2010PropOp41
 70
     1
102
RTVSPost2010Prop42
 90
       50
102
RTVSPost2010PropOp42
 70
     1
102
RTVSPost2010Prop43
 90
        3
102
RTVSPost2010PropOp43
 70
     1
102
RTVSPost2010Prop44ColorIndex
 90
        5
102
RTVSPost2010Prop44ColorRGB
 90
      255
102
RTVSPost2010PropOp44
 70
     1
102
RTVSPost2010Prop45
280
     0
102
RTVSPost2010PropOp45
 70
     1
102
RTVSPost2010Prop46
 90
       50
102
RTVSPost2010PropOp46
 70
     1
102
RTVSPost2010Prop47
 90
       50
102
RTVSPost2010PropOp47
 70
     1
102
RTVSPost2010Prop48
 90
       50
102
RTVSPost2010PropOp48
 70
     1
102
RTVSPost2010Prop49
280
     0
102
RTVSPost2010PropOp49
 70
     1
102
RTVSPost2010Prop50
 90
       50
102
RTVSPost2010PropOp50
 70
     1
102
RTVSPost2010Prop51ColorIndex
 90
      256
102
RTVSPost2010Prop51ColorRGB
 90
-16777216
102
RTVSPost2010PropOp51
 70
     0
102
RTVSPost2010Prop52
140
1.0
102
RTVSPost2010PropOp52
 70
     0
102
RTVSPost2010Prop53
 90
        2
102
RTVSPost2010PropOp53
 70
     1
102
RTVSPost2010Prop54
  1
strokes_ogs.tif
102
RTVSPost2010PropOp54
 70
     1
102
RTVSPost2010Prop55
280
     0
102
RTVSPost2010PropOp55
 70
     1
102
RTVSPost2010Prop56
140
1.0
102
RTVSPost2010PropOp56
 70
     1
102
RTVSPost2010Prop57
140
1.0
102
RTVSPost2010PropOp57
 70
     1
102
RTVSPropertyOp0
 70
     1
102
RTVSPropertyOp1
 70
     1
102
RTVSPropertyOp2
 70
     1
102
RTVSPropertyOp3
 70
     1
102
RTVSPropertyOp4
 70
     1
102
RTVSPropertyOp5
 70
     1
102
RTVSPropertyOp6
 70
     1
102
RTVSPropertyOp7
 70
     1
102
RTVSPropertyOp8
 70
     1
102
RTVSPropertyOp9
 70
     1
102
RTVSPropertyOp10
 70
     1
102
RTVSPropertyOp11
 70
     1
102
RTVSPropertyOp12
 70
     1
102
RTVSPropertyOp13
 70
     1
102
RTVSPropertyOp14
 70
     1
102
RTVSPropertyOp15
 70
     1
102
RTVSPropertyOp16
 70
     1
102
RTVSPropertyOp17
 70
     1
102
RTVSPropertyOp18
 70
     1
102
RTVSPropertyOp19
 70
     1
102
RTVSPropertyOp20
 70
     1
102
RTVSPropertyOp21
 70
     1
102
RTVSPropertyOp22
 70
     1
102
RTVSPropertyOp23
 70
     1
102
RTVSPropertyOp24
 70
     1
102
RTVSPropertyOp25
 70
     1
102
RTVSPropertyOp26
 70
     1
102
RTVSPropertyOp27
 70
     1
102
RTVSPropertyOp28
 70
     1
102
RTVSPropertyOp29
 70
     1
102
RTVSPropertyOp30
 70
     1
102
RTVSPropertyOp31
 70
     1
102
RTVSPropertyOp32
 70
     1
102
RTVSPropertyOp33
 70
     1
102
RTVSPropertyOp34
 70
     1
102
RTVSPropertyOp35
 70
     1
102
RTVSPropertyOp36
 70
     1
102
RTVSPropertyOp37
 70
     1
102
RTVSPropertyOp38
 70
     1
102
RTVSPropertyOp39
 70
     1
102
RTVSPropertyOp40
 70
     1
102
RTVSPropertyOp41
 70
     1
102
RTVSPropertyOp42
 70
     1
102
RTVSPropertyOp43
 70
     1
102
RTVSPropertyOp44
 70
     1
102
RTVSPropertyOp45
 70
     1
102
RTVSPropertyOp46
 70
     1
102
RTVSPropertyOp47
 70
     1
102
RTVSPropertyOp48
 70
     1
102
RTVSPropertyOp49
 70
     1
102
RTVSPropertyOp50
 70
     1
102
RTVSPropertyOp51
 70
     0
102
RTVSPropertyOp52
 70
     0
102
RTVSPropertyOp53
 70
     1
102
RTVSPropertyOp54
 70
     1
102
RTVSPropertyOp55
 70
     1
102
RTVSPropertyOp56
 70
     1
102
RTVSPropertyOp57
 70
     1
102
RTVSPropertyOp58
 70
     1
102
RTVSPropertyOp59
 70
     1
102
RTVSPropertyOp60
 70
     1
102
RTVSPropertyOp61
 70
     1
102
RTVSPropertyOp62
 70
     1
  0
XRECORD
  5
695
102
{ACAD_REACTORS
330
694
102
}
330
694
100
AcDbXrecord
280
     1
102
RTVSPost2010Prop28
280
     0
102
RTVSPost2010PropOp28
 70
     1
102
RTVSPost2010Prop29
280
     1
102
RTVSPost2010PropOp29
 70
     1
102
RTVSPost2010Prop30
280
     1
102
RTVSPost2010PropOp30
 70
     1
102
RTVSPost2010Prop31
280
     0
102
RTVSPost2010PropOp31
 70
     1
102
RTVSPost2010Prop32
280
     0
102
RTVSPost2010PropOp32
 70
     1
102
RTVSPost2010Prop33
280
     0
102
RTVSPost2010PropOp33
 70
     1
102
RTVSPost2010Prop34
280
     0
102
RTVSPost2010PropOp34
 70
     1
102
RTVSPost2010Prop35
280
     0
102
RTVSPost2010PropOp35
 70
     1
102
RTVSPost2010Prop36
280
     0
102
RTVSPost2010PropOp36
 70
     1
102
RTVSPost2010Prop37
 90
       50
102
RTVSPost2010PropOp37
 70
     1
102
RTVSPost2010Prop38
140
0.0
102
RTVSPost2010PropOp38
 70
     1
102
RTVSPost2010Prop39
140
1.0
102
RTVSPost2010PropOp39
 70
     1
102
RTVSPost2010Prop40
 90
        0
102
RTVSPost2010PropOp40
 70
     1
102
RTVSPost2010Prop41ColorIndex
 90
       18
102
RTVSPost2010Prop41ColorRGB
 90
        0
102
RTVSPost2010PropOp41
 70
     1
102
RTVSPost2010Prop42
 90
       50
102
RTVSPost2010PropOp42
 70
     1
102
RTVSPost2010Prop43
 90
        3
102
RTVSPost2010PropOp43
 70
     1
102
RTVSPost2010Prop44ColorIndex
 90
        5
102
RTVSPost2010Prop44ColorRGB
 90
      255
102
RTVSPost2010PropOp44
 70
     1
102
RTVSPost2010Prop45
280
     0
102
RTVSPost2010PropOp45
 70
     1
102
RTVSPost2010Prop46
 90
       50
102
RTVSPost2010PropOp46
 70
     1
102
RTVSPost2010Prop47
 90
       50
102
RTVSPost2010PropOp47
 70
     1
102
RTVSPost2010Prop48
 90
       50
102
RTVSPost2010PropOp48
 70
     1
102
RTVSPost2010Prop49
280
     0
102
RTVSPost2010PropOp49
 70
     1
102
RTVSPost2010Prop50
 90
       50
102
RTVSPost2010PropOp50
 70
     1
102
RTVSPost2010Prop51ColorIndex
 90
      256
102
RTVSPost2010Prop51ColorRGB
 90
-16777216
102
RTVSPost2010PropOp51
 70
     0
102
RTVSPost2010Prop52
140
1.0
102
RTVSPost2010PropOp52
 70
     0
102
RTVSPost2010Prop53
 90
        2
102
RTVSPost2010PropOp53
 70
     1
102
RTVSPost2010Prop54
  1
strokes_ogs.tif
102
RTVSPost2010PropOp54
 70
     1
102
RTVSPost2010Prop55
280
     0
102
RTVSPost2010PropOp55
 70
     1
102
RTVSPost2010Prop56
140
1.0
102
RTVSPost2010PropOp56
 70
     1
102
RTVSPost2010Prop57
140
1.0
102
RTVSPost2010PropOp57
 70
     1
102
RTVSPropertyOp0
 70
     1
102
RTVSPropertyOp1
 70
     1
102
RTVSPropertyOp2
 70
     1
102
RTVSPropertyOp3
 70
     1
102
RTVSPropertyOp4
 70
     1
102
RTVSPropertyOp5
 70
     1
102
RTVSPropertyOp6
 70
     1
102
RTVSPropertyOp7
 70
     1
102
RTVSPropertyOp8
 70
     1
102
RTVSPropertyOp9
 70
     1
102
RTVSPropertyOp10
 70
     1
102
RTVSPropertyOp11
 70
     1
102
RTVSPropertyOp12
 70
     1
102
RTVSPropertyOp13
 70
     1
102
RTVSPropertyOp14
 70
     1
102
RTVSPropertyOp15
 70
     1
102
RTVSPropertyOp16
 70
     1
102
RTVSPropertyOp17
 70
     1
102
RTVSPropertyOp18
 70
     1
102
RTVSPropertyOp19
 70
     1
102
RTVSPropertyOp20
 70
     1
102
RTVSPropertyOp21
 70
     1
102
RTVSPropertyOp22
 70
     1
102
RTVSPropertyOp23
 70
     1
102
RTVSPropertyOp24
 70
     1
102
RTVSPropertyOp25
 70
     1
102
RTVSPropertyOp26
 70
     1
102
RTVSPropertyOp27
 70
     1
102
RTVSPropertyOp28
 70
     1
102
RTVSPropertyOp29
 70
     1
102
RTVSPropertyOp30
 70
     1
102
RTVSPropertyOp31
 70
     1
102
RTVSPropertyOp32
 70
     1
102
RTVSPropertyOp33
 70
     1
102
RTVSPropertyOp34
 70
     1
102
RTVSPropertyOp35
 70
     1
102
RTVSPropertyOp36
 70
     1
102
RTVSPropertyOp37
 70
     1
102
RTVSPropertyOp38
 70
     1
102
RTVSPropertyOp39
 70
     1
102
RTVSPropertyOp40
 70
     1
102
RTVSPropertyOp41
 70
     1
102
RTVSPropertyOp42
 70
     1
102
RTVSPropertyOp43
 70
     1
102
RTVSPropertyOp44
 70
     1
102
RTVSPropertyOp45
 70
     1
102
RTVSPropertyOp46
 70
     1
102
RTVSPropertyOp47
 70
     1
102
RTVSPropertyOp48
 70
     1
102
RTVSPropertyOp49
 70
     1
102
RTVSPropertyOp50
 70
     1
102
RTVSPropertyOp51
 70
     0
102
RTVSPropertyOp52
 70
     0
102
RTVSPropertyOp53
 70
     1
102
RTVSPropertyOp54
 70
     1
102
RTVSPropertyOp55
 70
     1
102
RTVSPropertyOp56
 70
     1
102
RTVSPropertyOp57
 70
     1
102
RTVSPropertyOp58
 70
     1
102
RTVSPropertyOp59
 70
     1
102
RTVSPropertyOp60
 70
     1
102
RTVSPropertyOp61
 70
     1
102
RTVSPropertyOp62
 70
     1
  0
XRECORD
  5
6A3
102
{ACAD_REACTORS
330
6A2
102
}
330
6A2
100
AcDbXrecord
280
     1
102
RTVSPost2010Prop28
280
     0
102
RTVSPost2010PropOp28
 70
     1
102
RTVSPost2010Prop29
280
     1
102
RTVSPost2010PropOp29
 70
     1
102
RTVSPost2010Prop30
280
     1
102
RTVSPost2010PropOp30
 70
     1
102
RTVSPost2010Prop31
280
     0
102
RTVSPost2010PropOp31
 70
     1
102
RTVSPost2010Prop32
280
     0
102
RTVSPost2010PropOp32
 70
     1
102
RTVSPost2010Prop33
280
     0
102
RTVSPost2010PropOp33
 70
     1
102
RTVSPost2010Prop34
280
     0
102
RTVSPost2010PropOp34
 70
     1
102
RTVSPost2010Prop35
280
     0
102
RTVSPost2010PropOp35
 70
     1
102
RTVSPost2010Prop36
280
     0
102
RTVSPost2010PropOp36
 70
     1
102
RTVSPost2010Prop37
 90
       50
102
RTVSPost2010PropOp37
 70
     1
102
RTVSPost2010Prop38
140
0.0
102
RTVSPost2010PropOp38
 70
     1
102
RTVSPost2010Prop39
140
1.0
102
RTVSPost2010PropOp39
 70
     1
102
RTVSPost2010Prop40
 90
        0
102
RTVSPost2010PropOp40
 70
     1
102
RTVSPost2010Prop41ColorIndex
 90
       18
102
RTVSPost2010Prop41ColorRGB
 90
        0
102
RTVSPost2010PropOp41
 70
     1
102
RTVSPost2010Prop42
 90
       50
102
RTVSPost2010PropOp42
 70
     1
102
RTVSPost2010Prop43
 90
        3
102
RTVSPost2010PropOp43
 70
     1
102
RTVSPost2010Prop44ColorIndex
 90
        5
102
RTVSPost2010Prop44ColorRGB
 90
      255
102
RTVSPost2010PropOp44
 70
     1
102
RTVSPost2010Prop45
280
     0
102
RTVSPost2010PropOp45
 70
     1
102
RTVSPost2010Prop46
 90
       50
102
RTVSPost2010PropOp46
 70
     1
102
RTVSPost2010Prop47
 90
       50
102
RTVSPost2010PropOp47
 70
     1
102
RTVSPost2010Prop48
 90
       50
102
RTVSPost2010PropOp48
 70
     1
102
RTVSPost2010Prop49
280
     0
102
RTVSPost2010PropOp49
 70
     1
102
RTVSPost2010Prop50
 90
       50
102
RTVSPost2010PropOp50
 70
     1
102
RTVSPost2010Prop51ColorIndex
 90
      256
102
RTVSPost2010Prop51ColorRGB
 90
-16777216
102
RTVSPost2010PropOp51
 70
     0
102
RTVSPost2010Prop52
140
1.0
102
RTVSPost2010PropOp52
 70
     0
102
RTVSPost2010Prop53
 90
        2
102
RTVSPost2010PropOp53
 70
     1
102
RTVSPost2010Prop54
  1
strokes_ogs.tif
102
RTVSPost2010PropOp54
 70
     1
102
RTVSPost2010Prop55
280
     0
102
RTVSPost2010PropOp55
 70
     1
102
RTVSPost2010Prop56
140
1.0
102
RTVSPost2010PropOp56
 70
     1
102
RTVSPost2010Prop57
140
1.0
102
RTVSPost2010PropOp57
 70
     1
102
RTVSPropertyOp0
 70
     1
102
RTVSPropertyOp1
 70
     1
102
RTVSPropertyOp2
 70
     1
102
RTVSPropertyOp3
 70
     1
102
RTVSPropertyOp4
 70
     1
102
RTVSPropertyOp5
 70
     1
102
RTVSPropertyOp6
 70
     1
102
RTVSPropertyOp7
 70
     1
102
RTVSPropertyOp8
 70
     1
102
RTVSPropertyOp9
 70
     1
102
RTVSPropertyOp10
 70
     1
102
RTVSPropertyOp11
 70
     1
102
RTVSPropertyOp12
 70
     1
102
RTVSPropertyOp13
 70
     1
102
RTVSPropertyOp14
 70
     1
102
RTVSPropertyOp15
 70
     1
102
RTVSPropertyOp16
 70
     1
102
RTVSPropertyOp17
 70
     1
102
RTVSPropertyOp18
 70
     1
102
RTVSPropertyOp19
 70
     1
102
RTVSPropertyOp20
 70
     1
102
RTVSPropertyOp21
 70
     1
102
RTVSPropertyOp22
 70
     1
102
RTVSPropertyOp23
 70
     1
102
RTVSPropertyOp24
 70
     1
102
RTVSPropertyOp25
 70
     1
102
RTVSPropertyOp26
 70
     1
102
RTVSPropertyOp27
 70
     1
102
RTVSPropertyOp28
 70
     1
102
RTVSPropertyOp29
 70
     1
102
RTVSPropertyOp30
 70
     1
102
RTVSPropertyOp31
 70
     1
102
RTVSPropertyOp32
 70
     1
102
RTVSPropertyOp33
 70
     1
102
RTVSPropertyOp34
 70
     1
102
RTVSPropertyOp35
 70
     1
102
RTVSPropertyOp36
 70
     1
102
RTVSPropertyOp37
 70
     1
102
RTVSPropertyOp38
 70
     1
102
RTVSPropertyOp39
 70
     1
102
RTVSPropertyOp40
 70
     1
102
RTVSPropertyOp41
 70
     1
102
RTVSPropertyOp42
 70
     1
102
RTVSPropertyOp43
 70
     1
102
RTVSPropertyOp44
 70
     1
102
RTVSPropertyOp45
 70
     1
102
RTVSPropertyOp46
 70
     1
102
RTVSPropertyOp47
 70
     1
102
RTVSPropertyOp48
 70
     1
102
RTVSPropertyOp49
 70
     1
102
RTVSPropertyOp50
 70
     1
102
RTVSPropertyOp51
 70
     0
102
RTVSPropertyOp52
 70
     0
102
RTVSPropertyOp53
 70
     1
102
RTVSPropertyOp54
 70
     1
102
RTVSPropertyOp55
 70
     1
102
RTVSPropertyOp56
 70
     1
102
RTVSPropertyOp57
 70
     1
102
RTVSPropertyOp58
 70
     1
102
RTVSPropertyOp59
 70
     1
102
RTVSPropertyOp60
 70
     1
102
RTVSPropertyOp61
 70
     1
102
RTVSPropertyOp62
 70
     1
  0
XRECORD
  5
6AB
102
{ACAD_REACTORS
330
6AA
102
}
330
6AA
100
AcDbXrecord
280
     1
102
RTVSPost2010Prop28
280
     0
102
RTVSPost2010PropOp28
 70
     1
102
RTVSPost2010Prop29
280
     1
102
RTVSPost2010PropOp29
 70
     1
102
RTVSPost2010Prop30
280
     1
102
RTVSPost2010PropOp30
 70
     1
102
RTVSPost2010Prop31
280
     0
102
RTVSPost2010PropOp31
 70
     1
102
RTVSPost2010Prop32
280
     0
102
RTVSPost2010PropOp32
 70
     1
102
RTVSPost2010Prop33
280
     0
102
RTVSPost2010PropOp33
 70
     1
102
RTVSPost2010Prop34
280
     0
102
RTVSPost2010PropOp34
 70
     1
102
RTVSPost2010Prop35
280
     0
102
RTVSPost2010PropOp35
 70
     1
102
RTVSPost2010Prop36
280
     0
102
RTVSPost2010PropOp36
 70
     1
102
RTVSPost2010Prop37
 90
       50
102
RTVSPost2010PropOp37
 70
     1
102
RTVSPost2010Prop38
140
0.0
102
RTVSPost2010PropOp38
 70
     1
102
RTVSPost2010Prop39
140
1.0
102
RTVSPost2010PropOp39
 70
     1
102
RTVSPost2010Prop40
 90
        0
102
RTVSPost2010PropOp40
 70
     1
102
RTVSPost2010Prop41ColorIndex
 90
       18
102
RTVSPost2010Prop41ColorRGB
 90
        0
102
RTVSPost2010PropOp41
 70
     1
102
RTVSPost2010Prop42
 90
       50
102
RTVSPost2010PropOp42
 70
     1
102
RTVSPost2010Prop43
 90
        3
102
RTVSPost2010PropOp43
 70
     1
102
RTVSPost2010Prop44ColorIndex
 90
        5
102
RTVSPost2010Prop44ColorRGB
 90
      255
102
RTVSPost2010PropOp44
 70
     1
102
RTVSPost2010Prop45
280
     0
102
RTVSPost2010PropOp45
 70
     1
102
RTVSPost2010Prop46
 90
       50
102
RTVSPost2010PropOp46
 70
     1
102
RTVSPost2010Prop47
 90
       50
102
RTVSPost2010PropOp47
 70
     1
102
RTVSPost2010Prop48
 90
       50
102
RTVSPost2010PropOp48
 70
     1
102
RTVSPost2010Prop49
280
     0
102
RTVSPost2010PropOp49
 70
     1
102
RTVSPost2010Prop50
 90
       50
102
RTVSPost2010PropOp50
 70
     1
102
RTVSPost2010Prop51ColorIndex
 90
      256
102
RTVSPost2010Prop51ColorRGB
 90
-16777216
102
RTVSPost2010PropOp51
 70
     0
102
RTVSPost2010Prop52
140
1.0
102
RTVSPost2010PropOp52
 70
     0
102
RTVSPost2010Prop53
 90
        2
102
RTVSPost2010PropOp53
 70
     1
102
RTVSPost2010Prop54
  1
strokes_ogs.tif
102
RTVSPost2010PropOp54
 70
     1
102
RTVSPost2010Prop55
280
     0
102
RTVSPost2010PropOp55
 70
     1
102
RTVSPost2010Prop56
140
1.0
102
RTVSPost2010PropOp56
 70
     1
102
RTVSPost2010Prop57
140
1.0
102
RTVSPost2010PropOp57
 70
     1
102
RTVSPropertyOp0
 70
     1
102
RTVSPropertyOp1
 70
     1
102
RTVSPropertyOp2
 70
     1
102
RTVSPropertyOp3
 70
     1
102
RTVSPropertyOp4
 70
     1
102
RTVSPropertyOp5
 70
     1
102
RTVSPropertyOp6
 70
     1
102
RTVSPropertyOp7
 70
     1
102
RTVSPropertyOp8
 70
     1
102
RTVSPropertyOp9
 70
     1
102
RTVSPropertyOp10
 70
     1
102
RTVSPropertyOp11
 70
     1
102
RTVSPropertyOp12
 70
     1
102
RTVSPropertyOp13
 70
     1
102
RTVSPropertyOp14
 70
     1
102
RTVSPropertyOp15
 70
     1
102
RTVSPropertyOp16
 70
     1
102
RTVSPropertyOp17
 70
     1
102
RTVSPropertyOp18
 70
     1
102
RTVSPropertyOp19
 70
     1
102
RTVSPropertyOp20
 70
     1
102
RTVSPropertyOp21
 70
     1
102
RTVSPropertyOp22
 70
     1
102
RTVSPropertyOp23
 70
     1
102
RTVSPropertyOp24
 70
     1
102
RTVSPropertyOp25
 70
     1
102
RTVSPropertyOp26
 70
     1
102
RTVSPropertyOp27
 70
     1
102
RTVSPropertyOp28
 70
     1
102
RTVSPropertyOp29
 70
     1
102
RTVSPropertyOp30
 70
     1
102
RTVSPropertyOp31
 70
     1
102
RTVSPropertyOp32
 70
     1
102
RTVSPropertyOp33
 70
     1
102
RTVSPropertyOp34
 70
     1
102
RTVSPropertyOp35
 70
     1
102
RTVSPropertyOp36
 70
     1
102
RTVSPropertyOp37
 70
     1
102
RTVSPropertyOp38
 70
     1
102
RTVSPropertyOp39
 70
     1
102
RTVSPropertyOp40
 70
     1
102
RTVSPropertyOp41
 70
     1
102
RTVSPropertyOp42
 70
     1
102
RTVSPropertyOp43
 70
     1
102
RTVSPropertyOp44
 70
     1
102
RTVSPropertyOp45
 70
     1
102
RTVSPropertyOp46
 70
     1
102
RTVSPropertyOp47
 70
     1
102
RTVSPropertyOp48
 70
     1
102
RTVSPropertyOp49
 70
     1
102
RTVSPropertyOp50
 70
     1
102
RTVSPropertyOp51
 70
     0
102
RTVSPropertyOp52
 70
     0
102
RTVSPropertyOp53
 70
     1
102
RTVSPropertyOp54
 70
     1
102
RTVSPropertyOp55
 70
     1
102
RTVSPropertyOp56
 70
     1
102
RTVSPropertyOp57
 70
     1
102
RTVSPropertyOp58
 70
     1
102
RTVSPropertyOp59
 70
     1
102
RTVSPropertyOp60
 70
     1
102
RTVSPropertyOp61
 70
     1
102
RTVSPropertyOp62
 70
     1
  0
XRECORD
  5
69D
102
{ACAD_REACTORS
330
69C
102
}
330
69C
100
AcDbXrecord
280
     1
102
RTVSPost2010Prop28
280
     0
102
RTVSPost2010PropOp28
 70
     1
102
RTVSPost2010Prop29
280
     1
102
RTVSPost2010PropOp29
 70
     1
102
RTVSPost2010Prop30
280
     1
102
RTVSPost2010PropOp30
 70
     1
102
RTVSPost2010Prop31
280
     0
102
RTVSPost2010PropOp31
 70
     1
102
RTVSPost2010Prop32
280
     0
102
RTVSPost2010PropOp32
 70
     1
102
RTVSPost2010Prop33
280
     0
102
RTVSPost2010PropOp33
 70
     1
102
RTVSPost2010Prop34
280
     0
102
RTVSPost2010PropOp34
 70
     1
102
RTVSPost2010Prop35
280
     0
102
RTVSPost2010PropOp35
 70
     1
102
RTVSPost2010Prop36
280
     0
102
RTVSPost2010PropOp36
 70
     1
102
RTVSPost2010Prop37
 90
       50
102
RTVSPost2010PropOp37
 70
     1
102
RTVSPost2010Prop38
140
0.0
102
RTVSPost2010PropOp38
 70
     1
102
RTVSPost2010Prop39
140
1.0
102
RTVSPost2010PropOp39
 70
     1
102
RTVSPost2010Prop40
 90
        0
102
RTVSPost2010PropOp40
 70
     1
102
RTVSPost2010Prop41ColorIndex
 90
       18
102
RTVSPost2010Prop41ColorRGB
 90
        0
102
RTVSPost2010PropOp41
 70
     1
102
RTVSPost2010Prop42
 90
       50
102
RTVSPost2010PropOp42
 70
     1
102
RTVSPost2010Prop43
 90
        3
102
RTVSPost2010PropOp43
 70
     1
102
RTVSPost2010Prop44ColorIndex
 90
        5
102
RTVSPost2010Prop44ColorRGB
 90
      255
102
RTVSPost2010PropOp44
 70
     1
102
RTVSPost2010Prop45
280
     0
102
RTVSPost2010PropOp45
 70
     1
102
RTVSPost2010Prop46
 90
       50
102
RTVSPost2010PropOp46
 70
     1
102
RTVSPost2010Prop47
 90
       50
102
RTVSPost2010PropOp47
 70
     1
102
RTVSPost2010Prop48
 90
       50
102
RTVSPost2010PropOp48
 70
     1
102
RTVSPost2010Prop49
280
     0
102
RTVSPost2010PropOp49
 70
     1
102
RTVSPost2010Prop50
 90
       50
102
RTVSPost2010PropOp50
 70
     1
102
RTVSPost2010Prop51ColorIndex
 90
      256
102
RTVSPost2010Prop51ColorRGB
 90
-16777216
102
RTVSPost2010PropOp51
 70
     0
102
RTVSPost2010Prop52
140
1.0
102
RTVSPost2010PropOp52
 70
     0
102
RTVSPost2010Prop53
 90
        2
102
RTVSPost2010PropOp53
 70
     1
102
RTVSPost2010Prop54
  1
strokes_ogs.tif
102
RTVSPost2010PropOp54
 70
     1
102
RTVSPost2010Prop55
280
     0
102
RTVSPost2010PropOp55
 70
     1
102
RTVSPost2010Prop56
140
1.0
102
RTVSPost2010PropOp56
 70
     1
102
RTVSPost2010Prop57
140
1.0
102
RTVSPost2010PropOp57
 70
     1
102
RTVSPropertyOp0
 70
     1
102
RTVSPropertyOp1
 70
     1
102
RTVSPropertyOp2
 70
     1
102
RTVSPropertyOp3
 70
     1
102
RTVSPropertyOp4
 70
     1
102
RTVSPropertyOp5
 70
     1
102
RTVSPropertyOp6
 70
     1
102
RTVSPropertyOp7
 70
     1
102
RTVSPropertyOp8
 70
     1
102
RTVSPropertyOp9
 70
     1
102
RTVSPropertyOp10
 70
     1
102
RTVSPropertyOp11
 70
     1
102
RTVSPropertyOp12
 70
     1
102
RTVSPropertyOp13
 70
     1
102
RTVSPropertyOp14
 70
     1
102
RTVSPropertyOp15
 70
     1
102
RTVSPropertyOp16
 70
     1
102
RTVSPropertyOp17
 70
     1
102
RTVSPropertyOp18
 70
     1
102
RTVSPropertyOp19
 70
     1
102
RTVSPropertyOp20
 70
     1
102
RTVSPropertyOp21
 70
     1
102
RTVSPropertyOp22
 70
     1
102
RTVSPropertyOp23
 70
     1
102
RTVSPropertyOp24
 70
     1
102
RTVSPropertyOp25
 70
     1
102
RTVSPropertyOp26
 70
     1
102
RTVSPropertyOp27
 70
     1
102
RTVSPropertyOp28
 70
     1
102
RTVSPropertyOp29
 70
     1
102
RTVSPropertyOp30
 70
     1
102
RTVSPropertyOp31
 70
     1
102
RTVSPropertyOp32
 70
     1
102
RTVSPropertyOp33
 70
     1
102
RTVSPropertyOp34
 70
     1
102
RTVSPropertyOp35
 70
     1
102
RTVSPropertyOp36
 70
     1
102
RTVSPropertyOp37
 70
     1
102
RTVSPropertyOp38
 70
     1
102
RTVSPropertyOp39
 70
     1
102
RTVSPropertyOp40
 70
     1
102
RTVSPropertyOp41
 70
     1
102
RTVSPropertyOp42
 70
     1
102
RTVSPropertyOp43
 70
     1
102
RTVSPropertyOp44
 70
     1
102
RTVSPropertyOp45
 70
     1
102
RTVSPropertyOp46
 70
     1
102
RTVSPropertyOp47
 70
     1
102
RTVSPropertyOp48
 70
     1
102
RTVSPropertyOp49
 70
     1
102
RTVSPropertyOp50
 70
     1
102
RTVSPropertyOp51
 70
     0
102
RTVSPropertyOp52
 70
     0
102
RTVSPropertyOp53
 70
     1
102
RTVSPropertyOp54
 70
     1
102
RTVSPropertyOp55
 70
     1
102
RTVSPropertyOp56
 70
     1
102
RTVSPropertyOp57
 70
     1
102
RTVSPropertyOp58
 70
     1
102
RTVSPropertyOp59
 70
     1
102
RTVSPropertyOp60
 70
     1
102
RTVSPropertyOp61
 70
     1
102
RTVSPropertyOp62
 70
     1
  0
XRECORD
  5
6A1
102
{ACAD_REACTORS
330
6A0
102
}
330
6A0
100
AcDbXrecord
280
     1
102
RTVSPost2010Prop28
280
     0
102
RTVSPost2010PropOp28
 70
     1
102
RTVSPost2010Prop29
280
     1
102
RTVSPost2010PropOp29
 70
     1
102
RTVSPost2010Prop30
280
     1
102
RTVSPost2010PropOp30
 70
     1
102
RTVSPost2010Prop31
280
     0
102
RTVSPost2010PropOp31
 70
     1
102
RTVSPost2010Prop32
280
     0
102
RTVSPost2010PropOp32
 70
     1
102
RTVSPost2010Prop33
280
     0
102
RTVSPost2010PropOp33
 70
     1
102
RTVSPost2010Prop34
280
     0
102
RTVSPost2010PropOp34
 70
     1
102
RTVSPost2010Prop35
280
     0
102
RTVSPost2010PropOp35
 70
     1
102
RTVSPost2010Prop36
280
     0
102
RTVSPost2010PropOp36
 70
     1
102
RTVSPost2010Prop37
 90
       50
102
RTVSPost2010PropOp37
 70
     1
102
RTVSPost2010Prop38
140
0.0
102
RTVSPost2010PropOp38
 70
     1
102
RTVSPost2010Prop39
140
1.0
102
RTVSPost2010PropOp39
 70
     1
102
RTVSPost2010Prop40
 90
        0
102
RTVSPost2010PropOp40
 70
     1
102
RTVSPost2010Prop41ColorIndex
 90
       18
102
RTVSPost2010Prop41ColorRGB
 90
        0
102
RTVSPost2010PropOp41
 70
     1
102
RTVSPost2010Prop42
 90
       50
102
RTVSPost2010PropOp42
 70
     1
102
RTVSPost2010Prop43
 90
        3
102
RTVSPost2010PropOp43
 70
     1
102
RTVSPost2010Prop44ColorIndex
 90
        5
102
RTVSPost2010Prop44ColorRGB
 90
      255
102
RTVSPost2010PropOp44
 70
     1
102
RTVSPost2010Prop45
280
     0
102
RTVSPost2010PropOp45
 70
     1
102
RTVSPost2010Prop46
 90
       50
102
RTVSPost2010PropOp46
 70
     1
102
RTVSPost2010Prop47
 90
       50
102
RTVSPost2010PropOp47
 70
     1
102
RTVSPost2010Prop48
 90
       50
102
RTVSPost2010PropOp48
 70
     1
102
RTVSPost2010Prop49
280
     0
102
RTVSPost2010PropOp49
 70
     1
102
RTVSPost2010Prop50
 90
       50
102
RTVSPost2010PropOp50
 70
     1
102
RTVSPost2010Prop51ColorIndex
 90
      256
102
RTVSPost2010Prop51ColorRGB
 90
-16777216
102
RTVSPost2010PropOp51
 70
     0
102
RTVSPost2010Prop52
140
1.0
102
RTVSPost2010PropOp52
 70
     0
102
RTVSPost2010Prop53
 90
        2
102
RTVSPost2010PropOp53
 70
     1
102
RTVSPost2010Prop54
  1
strokes_ogs.tif
102
RTVSPost2010PropOp54
 70
     1
102
RTVSPost2010Prop55
280
     0
102
RTVSPost2010PropOp55
 70
     1
102
RTVSPost2010Prop56
140
1.0
102
RTVSPost2010PropOp56
 70
     1
102
RTVSPost2010Prop57
140
1.0
102
RTVSPost2010PropOp57
 70
     1
102
RTVSPropertyOp0
 70
     1
102
RTVSPropertyOp1
 70
     1
102
RTVSPropertyOp2
 70
     1
102
RTVSPropertyOp3
 70
     1
102
RTVSPropertyOp4
 70
     1
102
RTVSPropertyOp5
 70
     1
102
RTVSPropertyOp6
 70
     1
102
RTVSPropertyOp7
 70
     1
102
RTVSPropertyOp8
 70
     1
102
RTVSPropertyOp9
 70
     1
102
RTVSPropertyOp10
 70
     1
102
RTVSPropertyOp11
 70
     1
102
RTVSPropertyOp12
 70
     1
102
RTVSPropertyOp13
 70
     1
102
RTVSPropertyOp14
 70
     1
102
RTVSPropertyOp15
 70
     1
102
RTVSPropertyOp16
 70
     1
102
RTVSPropertyOp17
 70
     1
102
RTVSPropertyOp18
 70
     1
102
RTVSPropertyOp19
 70
     1
102
RTVSPropertyOp20
 70
     1
102
RTVSPropertyOp21
 70
     1
102
RTVSPropertyOp22
 70
     1
102
RTVSPropertyOp23
 70
     1
102
RTVSPropertyOp24
 70
     1
102
RTVSPropertyOp25
 70
     1
102
RTVSPropertyOp26
 70
     1
102
RTVSPropertyOp27
 70
     1
102
RTVSPropertyOp28
 70
     1
102
RTVSPropertyOp29
 70
     1
102
RTVSPropertyOp30
 70
     1
102
RTVSPropertyOp31
 70
     1
102
RTVSPropertyOp32
 70
     1
102
RTVSPropertyOp33
 70
     1
102
RTVSPropertyOp34
 70
     1
102
RTVSPropertyOp35
 70
     1
102
RTVSPropertyOp36
 70
     1
102
RTVSPropertyOp37
 70
     1
102
RTVSPropertyOp38
 70
     1
102
RTVSPropertyOp39
 70
     1
102
RTVSPropertyOp40
 70
     1
102
RTVSPropertyOp41
 70
     1
102
RTVSPropertyOp42
 70
     1
102
RTVSPropertyOp43
 70
     1
102
RTVSPropertyOp44
 70
     1
102
RTVSPropertyOp45
 70
     1
102
RTVSPropertyOp46
 70
     1
102
RTVSPropertyOp47
 70
     1
102
RTVSPropertyOp48
 70
     1
102
RTVSPropertyOp49
 70
     1
102
RTVSPropertyOp50
 70
     1
102
RTVSPropertyOp51
 70
     0
102
RTVSPropertyOp52
 70
     0
102
RTVSPropertyOp53
 70
     1
102
RTVSPropertyOp54
 70
     1
102
RTVSPropertyOp55
 70
     1
102
RTVSPropertyOp56
 70
     1
102
RTVSPropertyOp57
 70
     1
102
RTVSPropertyOp58
 70
     1
102
RTVSPropertyOp59
 70
     1
102
RTVSPropertyOp60
 70
     1
102
RTVSPropertyOp61
 70
     1
102
RTVSPropertyOp62
 70
     1
  0
XRECORD
  5
6BB
102
{ACAD_REACTORS
330
6BA
102
}
330
6BA
100
AcDbXrecord
280
     1
102
RTVSPost2010Prop28
280
     0
102
RTVSPost2010PropOp28
 70
     1
102
RTVSPost2010Prop29
280
     1
102
RTVSPost2010PropOp29
 70
     1
102
RTVSPost2010Prop30
280
     1
102
RTVSPost2010PropOp30
 70
     1
102
RTVSPost2010Prop31
280
     0
102
RTVSPost2010PropOp31
 70
     1
102
RTVSPost2010Prop32
280
     0
102
RTVSPost2010PropOp32
 70
     1
102
RTVSPost2010Prop33
280
     0
102
RTVSPost2010PropOp33
 70
     1
102
RTVSPost2010Prop34
280
     0
102
RTVSPost2010PropOp34
 70
     1
102
RTVSPost2010Prop35
280
     0
102
RTVSPost2010PropOp35
 70
     1
102
RTVSPost2010Prop36
280
     0
102
RTVSPost2010PropOp36
 70
     1
102
RTVSPost2010Prop37
 90
       50
102
RTVSPost2010PropOp37
 70
     0
102
RTVSPost2010Prop38
140
0.0
102
RTVSPost2010PropOp38
 70
     0
102
RTVSPost2010Prop39
140
1.0
102
RTVSPost2010PropOp39
 70
     0
102
RTVSPost2010Prop40
 90
        0
102
RTVSPost2010PropOp40
 70
     0
102
RTVSPost2010Prop41ColorIndex
 90
       18
102
RTVSPost2010Prop41ColorRGB
 90
        0
102
RTVSPost2010PropOp41
 70
     0
102
RTVSPost2010Prop42
 90
       50
102
RTVSPost2010PropOp42
 70
     0
102
RTVSPost2010Prop43
 90
        3
102
RTVSPost2010PropOp43
 70
     0
102
RTVSPost2010Prop44ColorIndex
 90
        5
102
RTVSPost2010Prop44ColorRGB
 90
      255
102
RTVSPost2010PropOp44
 70
     0
102
RTVSPost2010Prop45
280
     0
102
RTVSPost2010PropOp45
 70
     1
102
RTVSPost2010Prop46
 90
       50
102
RTVSPost2010PropOp46
 70
     0
102
RTVSPost2010Prop47
 90
       50
102
RTVSPost2010PropOp47
 70
     0
102
RTVSPost2010Prop48
 90
       50
102
RTVSPost2010PropOp48
 70
     0
102
RTVSPost2010Prop49
280
     0
102
RTVSPost2010PropOp49
 70
     1
102
RTVSPost2010Prop50
 90
       50
102
RTVSPost2010PropOp50
 70
     0
102
RTVSPost2010Prop51ColorIndex
 90
      256
102
RTVSPost2010Prop51ColorRGB
 90
-16777216
102
RTVSPost2010PropOp51
 70
     0
102
RTVSPost2010Prop52
140
1.0
102
RTVSPost2010PropOp52
 70
     0
102
RTVSPost2010Prop53
 90
        2
102
RTVSPost2010PropOp53
 70
     0
102
RTVSPost2010Prop54
  1
strokes_ogs.tif
102
RTVSPost2010PropOp54
 70
     0
102
RTVSPost2010Prop55
280
     0
102
RTVSPost2010PropOp55
 70
     1
102
RTVSPost2010Prop56
140
1.0
102
RTVSPost2010PropOp56
 70
     0
102
RTVSPost2010Prop57
140
1.0
102
RTVSPost2010PropOp57
 70
     0
102
RTVSPropertyOp0
 70
     0
102
RTVSPropertyOp1
 70
     0
102
RTVSPropertyOp2
 70
     0
102
RTVSPropertyOp3
 70
     0
102
RTVSPropertyOp4
 70
     0
102
RTVSPropertyOp5
 70
     0
102
RTVSPropertyOp6
 70
     0
102
RTVSPropertyOp7
 70
     0
102
RTVSPropertyOp8
 70
     0
102
RTVSPropertyOp9
 70
     0
102
RTVSPropertyOp10
 70
     0
102
RTVSPropertyOp11
 70
     0
102
RTVSPropertyOp12
 70
     0
102
RTVSPropertyOp13
 70
     0
102
RTVSPropertyOp14
 70
     2
102
RTVSPropertyOp15
 70
     0
102
RTVSPropertyOp16
 70
     0
102
RTVSPropertyOp17
 70
     0
102
RTVSPropertyOp18
 70
     0
102
RTVSPropertyOp19
 70
     0
102
RTVSPropertyOp20
 70
     0
102
RTVSPropertyOp21
 70
     0
102
RTVSPropertyOp22
 70
     0
102
RTVSPropertyOp23
 70
     0
102
RTVSPropertyOp24
 70
     0
102
RTVSPropertyOp25
 70
     0
102
RTVSPropertyOp26
 70
     0
102
RTVSPropertyOp27
 70
     0
102
RTVSPropertyOp28
 70
     1
102
RTVSPropertyOp29
 70
     1
102
RTVSPropertyOp30
 70
     1
102
RTVSPropertyOp31
 70
     1
102
RTVSPropertyOp32
 70
     1
102
RTVSPropertyOp33
 70
     1
102
RTVSPropertyOp34
 70
     1
102
RTVSPropertyOp35
 70
     1
102
RTVSPropertyOp36
 70
     1
102
RTVSPropertyOp37
 70
     0
102
RTVSPropertyOp38
 70
     0
102
RTVSPropertyOp39
 70
     0
102
RTVSPropertyOp40
 70
     0
102
RTVSPropertyOp41
 70
     0
102
RTVSPropertyOp42
 70
     0
102
RTVSPropertyOp43
 70
     0
102
RTVSPropertyOp44
 70
     0
102
RTVSPropertyOp45
 70
     1
102
RTVSPropertyOp46
 70
     0
102
RTVSPropertyOp47
 70
     0
102
RTVSPropertyOp48
 70
     0
102
RTVSPropertyOp49
 70
     1
102
RTVSPropertyOp50
 70
     0
102
RTVSPropertyOp51
 70
     0
102
RTVSPropertyOp52
 70
     0
102
RTVSPropertyOp53
 70
     0
102
RTVSPropertyOp54
 70
     0
102
RTVSPropertyOp55
 70
     1
102
RTVSPropertyOp56
 70
     0
102
RTVSPropertyOp57
 70
     0
102
RTVSPropertyOp58
 70
     0
102
RTVSPropertyOp59
 70
     0
102
RTVSPropertyOp60
 70
     0
102
RTVSPropertyOp61
 70
     0
102
RTVSPropertyOp62
 70
     0
  0
XRECORD
  5
6A9
102
{ACAD_REACTORS
330
6A8
102
}
330
6A8
100
AcDbXrecord
280
     1
102
RTVSPost2010Prop28
280
     0
102
RTVSPost2010PropOp28
 70
     1
102
RTVSPost2010Prop29
280
     1
102
RTVSPost2010PropOp29
 70
     1
102
RTVSPost2010Prop30
280
     1
102
RTVSPost2010PropOp30
 70
     1
102
RTVSPost2010Prop31
280
     0
102
RTVSPost2010PropOp31
 70
     1
102
RTVSPost2010Prop32
280
     0
102
RTVSPost2010PropOp32
 70
     1
102
RTVSPost2010Prop33
280
     0
102
RTVSPost2010PropOp33
 70
     1
102
RTVSPost2010Prop34
280
     0
102
RTVSPost2010PropOp34
 70
     1
102
RTVSPost2010Prop35
280
     0
102
RTVSPost2010PropOp35
 70
     1
102
RTVSPost2010Prop36
280
     0
102
RTVSPost2010PropOp36
 70
     1
102
RTVSPost2010Prop37
 90
       50
102
RTVSPost2010PropOp37
 70
     1
102
RTVSPost2010Prop38
140
0.0
102
RTVSPost2010PropOp38
 70
     1
102
RTVSPost2010Prop39
140
1.0
102
RTVSPost2010PropOp39
 70
     1
102
RTVSPost2010Prop40
 90
        0
102
RTVSPost2010PropOp40
 70
     1
102
RTVSPost2010Prop41ColorIndex
 90
       18
102
RTVSPost2010Prop41ColorRGB
 90
        0
102
RTVSPost2010PropOp41
 70
     1
102
RTVSPost2010Prop42
 90
       50
102
RTVSPost2010PropOp42
 70
     1
102
RTVSPost2010Prop43
 90
        3
102
RTVSPost2010PropOp43
 70
     1
102
RTVSPost2010Prop44ColorIndex
 90
        5
102
RTVSPost2010Prop44ColorRGB
 90
      255
102
RTVSPost2010PropOp44
 70
     1
102
RTVSPost2010Prop45
280
     0
102
RTVSPost2010PropOp45
 70
     1
102
RTVSPost2010Prop46
 90
       50
102
RTVSPost2010PropOp46
 70
     1
102
RTVSPost2010Prop47
 90
       50
102
RTVSPost2010PropOp47
 70
     1
102
RTVSPost2010Prop48
 90
       50
102
RTVSPost2010PropOp48
 70
     1
102
RTVSPost2010Prop49
280
     0
102
RTVSPost2010PropOp49
 70
     1
102
RTVSPost2010Prop50
 90
       50
102
RTVSPost2010PropOp50
 70
     1
102
RTVSPost2010Prop51ColorIndex
 90
      256
102
RTVSPost2010Prop51ColorRGB
 90
-16777216
102
RTVSPost2010PropOp51
 70
     0
102
RTVSPost2010Prop52
140
1.0
102
RTVSPost2010PropOp52
 70
     0
102
RTVSPost2010Prop53
 90
        2
102
RTVSPost2010PropOp53
 70
     1
102
RTVSPost2010Prop54
  1
strokes_ogs.tif
102
RTVSPost2010PropOp54
 70
     1
102
RTVSPost2010Prop55
280
     0
102
RTVSPost2010PropOp55
 70
     1
102
RTVSPost2010Prop56
140
1.0
102
RTVSPost2010PropOp56
 70
     1
102
RTVSPost2010Prop57
140
1.0
102
RTVSPost2010PropOp57
 70
     1
102
RTVSPropertyOp0
 70
     1
102
RTVSPropertyOp1
 70
     1
102
RTVSPropertyOp2
 70
     1
102
RTVSPropertyOp3
 70
     1
102
RTVSPropertyOp4
 70
     1
102
RTVSPropertyOp5
 70
     1
102
RTVSPropertyOp6
 70
     1
102
RTVSPropertyOp7
 70
     1
102
RTVSPropertyOp8
 70
     1
102
RTVSPropertyOp9
 70
     1
102
RTVSPropertyOp10
 70
     1
102
RTVSPropertyOp11
 70
     1
102
RTVSPropertyOp12
 70
     1
102
RTVSPropertyOp13
 70
     1
102
RTVSPropertyOp14
 70
     1
102
RTVSPropertyOp15
 70
     1
102
RTVSPropertyOp16
 70
     1
102
RTVSPropertyOp17
 70
     1
102
RTVSPropertyOp18
 70
     1
102
RTVSPropertyOp19
 70
     1
102
RTVSPropertyOp20
 70
     1
102
RTVSPropertyOp21
 70
     1
102
RTVSPropertyOp22
 70
     1
102
RTVSPropertyOp23
 70
     1
102
RTVSPropertyOp24
 70
     1
102
RTVSPropertyOp25
 70
     1
102
RTVSPropertyOp26
 70
     1
102
RTVSPropertyOp27
 70
     1
102
RTVSPropertyOp28
 70
     1
102
RTVSPropertyOp29
 70
     1
102
RTVSPropertyOp30
 70
     1
102
RTVSPropertyOp31
 70
     1
102
RTVSPropertyOp32
 70
     1
102
RTVSPropertyOp33
 70
     1
102
RTVSPropertyOp34
 70
     1
102
RTVSPropertyOp35
 70
     1
102
RTVSPropertyOp36
 70
     1
102
RTVSPropertyOp37
 70
     1
102
RTVSPropertyOp38
 70
     1
102
RTVSPropertyOp39
 70
     1
102
RTVSPropertyOp40
 70
     1
102
RTVSPropertyOp41
 70
     1
102
RTVSPropertyOp42
 70
     1
102
RTVSPropertyOp43
 70
     1
102
RTVSPropertyOp44
 70
     1
102
RTVSPropertyOp45
 70
     1
102
RTVSPropertyOp46
 70
     1
102
RTVSPropertyOp47
 70
     1
102
RTVSPropertyOp48
 70
     1
102
RTVSPropertyOp49
 70
     1
102
RTVSPropertyOp50
 70
     1
102
RTVSPropertyOp51
 70
     0
102
RTVSPropertyOp52
 70
     0
102
RTVSPropertyOp53
 70
     1
102
RTVSPropertyOp54
 70
     1
102
RTVSPropertyOp55
 70
     1
102
RTVSPropertyOp56
 70
     1
102
RTVSPropertyOp57
 70
     1
102
RTVSPropertyOp58
 70
     1
102
RTVSPropertyOp59
 70
     1
102
RTVSPropertyOp60
 70
     1
102
RTVSPropertyOp61
 70
     1
102
RTVSPropertyOp62
 70
     1
  0
XRECORD
  5
68D
102
{ACAD_REACTORS
330
68C
102
}
330
68C
100
AcDbXrecord
280
     1
102
RTVSPost2010Prop28
280
     0
102
RTVSPost2010PropOp28
 70
     1
102
RTVSPost2010Prop29
280
     1
102
RTVSPost2010PropOp29
 70
     1
102
RTVSPost2010Prop30
280
     1
102
RTVSPost2010PropOp30
 70
     1
102
RTVSPost2010Prop31
280
     0
102
RTVSPost2010PropOp31
 70
     1
102
RTVSPost2010Prop32
280
     0
102
RTVSPost2010PropOp32
 70
     1
102
RTVSPost2010Prop33
280
     0
102
RTVSPost2010PropOp33
 70
     1
102
RTVSPost2010Prop34
280
     0
102
RTVSPost2010PropOp34
 70
     1
102
RTVSPost2010Prop35
280
     0
102
RTVSPost2010PropOp35
 70
     1
102
RTVSPost2010Prop36
280
     0
102
RTVSPost2010PropOp36
 70
     1
102
RTVSPost2010Prop37
 90
       50
102
RTVSPost2010PropOp37
 70
     1
102
RTVSPost2010Prop38
140
0.0
102
RTVSPost2010PropOp38
 70
     1
102
RTVSPost2010Prop39
140
1.0
102
RTVSPost2010PropOp39
 70
     1
102
RTVSPost2010Prop40
 90
        0
102
RTVSPost2010PropOp40
 70
     1
102
RTVSPost2010Prop41ColorIndex
 90
       18
102
RTVSPost2010Prop41ColorRGB
 90
        0
102
RTVSPost2010PropOp41
 70
     1
102
RTVSPost2010Prop42
 90
       50
102
RTVSPost2010PropOp42
 70
     1
102
RTVSPost2010Prop43
 90
        3
102
RTVSPost2010PropOp43
 70
     1
102
RTVSPost2010Prop44ColorIndex
 90
        5
102
RTVSPost2010Prop44ColorRGB
 90
      255
102
RTVSPost2010PropOp44
 70
     1
102
RTVSPost2010Prop45
280
     0
102
RTVSPost2010PropOp45
 70
     1
102
RTVSPost2010Prop46
 90
       50
102
RTVSPost2010PropOp46
 70
     1
102
RTVSPost2010Prop47
 90
       50
102
RTVSPost2010PropOp47
 70
     1
102
RTVSPost2010Prop48
 90
       50
102
RTVSPost2010PropOp48
 70
     1
102
RTVSPost2010Prop49
280
     0
102
RTVSPost2010PropOp49
 70
     1
102
RTVSPost2010Prop50
 90
       50
102
RTVSPost2010PropOp50
 70
     1
102
RTVSPost2010Prop51ColorIndex
 90
      256
102
RTVSPost2010Prop51ColorRGB
 90
-16777216
102
RTVSPost2010PropOp51
 70
     0
102
RTVSPost2010Prop52
140
1.0
102
RTVSPost2010PropOp52
 70
     0
102
RTVSPost2010Prop53
 90
        2
102
RTVSPost2010PropOp53
 70
     1
102
RTVSPost2010Prop54
  1
strokes_ogs.tif
102
RTVSPost2010PropOp54
 70
     1
102
RTVSPost2010Prop55
280
     0
102
RTVSPost2010PropOp55
 70
     1
102
RTVSPost2010Prop56
140
1.0
102
RTVSPost2010PropOp56
 70
     1
102
RTVSPost2010Prop57
140
1.0
102
RTVSPost2010PropOp57
 70
     1
102
RTVSPropertyOp0
 70
     1
102
RTVSPropertyOp1
 70
     1
102
RTVSPropertyOp2
 70
     1
102
RTVSPropertyOp3
 70
     1
102
RTVSPropertyOp4
 70
     1
102
RTVSPropertyOp5
 70
     1
102
RTVSPropertyOp6
 70
     1
102
RTVSPropertyOp7
 70
     1
102
RTVSPropertyOp8
 70
     1
102
RTVSPropertyOp9
 70
     1
102
RTVSPropertyOp10
 70
     1
102
RTVSPropertyOp11
 70
     1
102
RTVSPropertyOp12
 70
     1
102
RTVSPropertyOp13
 70
     1
102
RTVSPropertyOp14
 70
     1
102
RTVSPropertyOp15
 70
     1
102
RTVSPropertyOp16
 70
     1
102
RTVSPropertyOp17
 70
     1
102
RTVSPropertyOp18
 70
     1
102
RTVSPropertyOp19
 70
     1
102
RTVSPropertyOp20
 70
     1
102
RTVSPropertyOp21
 70
     1
102
RTVSPropertyOp22
 70
     1
102
RTVSPropertyOp23
 70
     1
102
RTVSPropertyOp24
 70
     1
102
RTVSPropertyOp25
 70
     1
102
RTVSPropertyOp26
 70
     1
102
RTVSPropertyOp27
 70
     1
102
RTVSPropertyOp28
 70
     1
102
RTVSPropertyOp29
 70
     1
102
RTVSPropertyOp30
 70
     1
102
RTVSPropertyOp31
 70
     1
102
RTVSPropertyOp32
 70
     1
102
RTVSPropertyOp33
 70
     1
102
RTVSPropertyOp34
 70
     1
102
RTVSPropertyOp35
 70
     1
102
RTVSPropertyOp36
 70
     1
102
RTVSPropertyOp37
 70
     1
102
RTVSPropertyOp38
 70
     1
102
RTVSPropertyOp39
 70
     1
102
RTVSPropertyOp40
 70
     1
102
RTVSPropertyOp41
 70
     1
102
RTVSPropertyOp42
 70
     1
102
RTVSPropertyOp43
 70
     1
102
RTVSPropertyOp44
 70
     1
102
RTVSPropertyOp45
 70
     1
102
RTVSPropertyOp46
 70
     1
102
RTVSPropertyOp47
 70
     1
102
RTVSPropertyOp48
 70
     1
102
RTVSPropertyOp49
 70
     1
102
RTVSPropertyOp50
 70
     1
102
RTVSPropertyOp51
 70
     0
102
RTVSPropertyOp52
 70
     0
102
RTVSPropertyOp53
 70
     1
102
RTVSPropertyOp54
 70
     1
102
RTVSPropertyOp55
 70
     1
102
RTVSPropertyOp56
 70
     1
102
RTVSPropertyOp57
 70
     1
102
RTVSPropertyOp58
 70
     1
102
RTVSPropertyOp59
 70
     1
102
RTVSPropertyOp60
 70
     1
102
RTVSPropertyOp61
 70
     1
102
RTVSPropertyOp62
 70
     1
  0
XRECORD
  5
68F
102
{ACAD_REACTORS
330
68E
102
}
330
68E
100
AcDbXrecord
280
     1
102
RTVSPost2010Prop28
280
     0
102
RTVSPost2010PropOp28
 70
     1
102
RTVSPost2010Prop29
280
     1
102
RTVSPost2010PropOp29
 70
     1
102
RTVSPost2010Prop30
280
     1
102
RTVSPost2010PropOp30
 70
     1
102
RTVSPost2010Prop31
280
     0
102
RTVSPost2010PropOp31
 70
     1
102
RTVSPost2010Prop32
280
     0
102
RTVSPost2010PropOp32
 70
     1
102
RTVSPost2010Prop33
280
     0
102
RTVSPost2010PropOp33
 70
     1
102
RTVSPost2010Prop34
280
     0
102
RTVSPost2010PropOp34
 70
     1
102
RTVSPost2010Prop35
280
     0
102
RTVSPost2010PropOp35
 70
     1
102
RTVSPost2010Prop36
280
     0
102
RTVSPost2010PropOp36
 70
     1
102
RTVSPost2010Prop37
 90
       50
102
RTVSPost2010PropOp37
 70
     1
102
RTVSPost2010Prop38
140
0.0
102
RTVSPost2010PropOp38
 70
     1
102
RTVSPost2010Prop39
140
1.0
102
RTVSPost2010PropOp39
 70
     1
102
RTVSPost2010Prop40
 90
        0
102
RTVSPost2010PropOp40
 70
     1
102
RTVSPost2010Prop41ColorIndex
 90
       18
102
RTVSPost2010Prop41ColorRGB
 90
        0
102
RTVSPost2010PropOp41
 70
     1
102
RTVSPost2010Prop42
 90
       50
102
RTVSPost2010PropOp42
 70
     1
102
RTVSPost2010Prop43
 90
        3
102
RTVSPost2010PropOp43
 70
     1
102
RTVSPost2010Prop44ColorIndex
 90
        5
102
RTVSPost2010Prop44ColorRGB
 90
      255
102
RTVSPost2010PropOp44
 70
     1
102
RTVSPost2010Prop45
280
     0
102
RTVSPost2010PropOp45
 70
     1
102
RTVSPost2010Prop46
 90
       50
102
RTVSPost2010PropOp46
 70
     1
102
RTVSPost2010Prop47
 90
       50
102
RTVSPost2010PropOp47
 70
     1
102
RTVSPost2010Prop48
 90
       50
102
RTVSPost2010PropOp48
 70
     1
102
RTVSPost2010Prop49
280
     0
102
RTVSPost2010PropOp49
 70
     1
102
RTVSPost2010Prop50
 90
       50
102
RTVSPost2010PropOp50
 70
     1
102
RTVSPost2010Prop51ColorIndex
 90
      256
102
RTVSPost2010Prop51ColorRGB
 90
-16777216
102
RTVSPost2010PropOp51
 70
     0
102
RTVSPost2010Prop52
140
1.0
102
RTVSPost2010PropOp52
 70
     0
102
RTVSPost2010Prop53
 90
        2
102
RTVSPost2010PropOp53
 70
     1
102
RTVSPost2010Prop54
  1
strokes_ogs.tif
102
RTVSPost2010PropOp54
 70
     1
102
RTVSPost2010Prop55
280
     0
102
RTVSPost2010PropOp55
 70
     1
102
RTVSPost2010Prop56
140
1.0
102
RTVSPost2010PropOp56
 70
     1
102
RTVSPost2010Prop57
140
1.0
102
RTVSPost2010PropOp57
 70
     1
102
RTVSPropertyOp0
 70
     1
102
RTVSPropertyOp1
 70
     1
102
RTVSPropertyOp2
 70
     1
102
RTVSPropertyOp3
 70
     1
102
RTVSPropertyOp4
 70
     1
102
RTVSPropertyOp5
 70
     1
102
RTVSPropertyOp6
 70
     1
102
RTVSPropertyOp7
 70
     1
102
RTVSPropertyOp8
 70
     1
102
RTVSPropertyOp9
 70
     1
102
RTVSPropertyOp10
 70
     1
102
RTVSPropertyOp11
 70
     1
102
RTVSPropertyOp12
 70
     1
102
RTVSPropertyOp13
 70
     1
102
RTVSPropertyOp14
 70
     1
102
RTVSPropertyOp15
 70
     1
102
RTVSPropertyOp16
 70
     1
102
RTVSPropertyOp17
 70
     1
102
RTVSPropertyOp18
 70
     1
102
RTVSPropertyOp19
 70
     1
102
RTVSPropertyOp20
 70
     1
102
RTVSPropertyOp21
 70
     1
102
RTVSPropertyOp22
 70
     1
102
RTVSPropertyOp23
 70
     1
102
RTVSPropertyOp24
 70
     1
102
RTVSPropertyOp25
 70
     1
102
RTVSPropertyOp26
 70
     1
102
RTVSPropertyOp27
 70
     1
102
RTVSPropertyOp28
 70
     1
102
RTVSPropertyOp29
 70
     1
102
RTVSPropertyOp30
 70
     1
102
RTVSPropertyOp31
 70
     1
102
RTVSPropertyOp32
 70
     1
102
RTVSPropertyOp33
 70
     1
102
RTVSPropertyOp34
 70
     1
102
RTVSPropertyOp35
 70
     1
102
RTVSPropertyOp36
 70
     1
102
RTVSPropertyOp37
 70
     1
102
RTVSPropertyOp38
 70
     1
102
RTVSPropertyOp39
 70
     1
102
RTVSPropertyOp40
 70
     1
102
RTVSPropertyOp41
 70
     1
102
RTVSPropertyOp42
 70
     1
102
RTVSPropertyOp43
 70
     1
102
RTVSPropertyOp44
 70
     1
102
RTVSPropertyOp45
 70
     1
102
RTVSPropertyOp46
 70
     1
102
RTVSPropertyOp47
 70
     1
102
RTVSPropertyOp48
 70
     1
102
RTVSPropertyOp49
 70
     1
102
RTVSPropertyOp50
 70
     1
102
RTVSPropertyOp51
 70
     0
102
RTVSPropertyOp52
 70
     0
102
RTVSPropertyOp53
 70
     1
102
RTVSPropertyOp54
 70
     1
102
RTVSPropertyOp55
 70
     1
102
RTVSPropertyOp56
 70
     1
102
RTVSPropertyOp57
 70
     1
102
RTVSPropertyOp58
 70
     1
102
RTVSPropertyOp59
 70
     1
102
RTVSPropertyOp60
 70
     1
102
RTVSPropertyOp61
 70
     1
102
RTVSPropertyOp62
 70
     1
  0
XRECORD
  5
691
102
{ACAD_REACTORS
330
690
102
}
330
690
100
AcDbXrecord
280
     1
102
RTVSPost2010Prop28
280
     0
102
RTVSPost2010PropOp28
 70
     1
102
RTVSPost2010Prop29
280
     1
102
RTVSPost2010PropOp29
 70
     1
102
RTVSPost2010Prop30
280
     1
102
RTVSPost2010PropOp30
 70
     1
102
RTVSPost2010Prop31
280
     0
102
RTVSPost2010PropOp31
 70
     1
102
RTVSPost2010Prop32
280
     0
102
RTVSPost2010PropOp32
 70
     1
102
RTVSPost2010Prop33
280
     0
102
RTVSPost2010PropOp33
 70
     1
102
RTVSPost2010Prop34
280
     0
102
RTVSPost2010PropOp34
 70
     1
102
RTVSPost2010Prop35
280
     0
102
RTVSPost2010PropOp35
 70
     1
102
RTVSPost2010Prop36
280
     0
102
RTVSPost2010PropOp36
 70
     1
102
RTVSPost2010Prop37
 90
       50
102
RTVSPost2010PropOp37
 70
     1
102
RTVSPost2010Prop38
140
0.0
102
RTVSPost2010PropOp38
 70
     1
102
RTVSPost2010Prop39
140
1.0
102
RTVSPost2010PropOp39
 70
     1
102
RTVSPost2010Prop40
 90
        0
102
RTVSPost2010PropOp40
 70
     1
102
RTVSPost2010Prop41ColorIndex
 90
       18
102
RTVSPost2010Prop41ColorRGB
 90
        0
102
RTVSPost2010PropOp41
 70
     1
102
RTVSPost2010Prop42
 90
       50
102
RTVSPost2010PropOp42
 70
     1
102
RTVSPost2010Prop43
 90
        3
102
RTVSPost2010PropOp43
 70
     1
102
RTVSPost2010Prop44ColorIndex
 90
        5
102
RTVSPost2010Prop44ColorRGB
 90
      255
102
RTVSPost2010PropOp44
 70
     1
102
RTVSPost2010Prop45
280
     0
102
RTVSPost2010PropOp45
 70
     1
102
RTVSPost2010Prop46
 90
       50
102
RTVSPost2010PropOp46
 70
     1
102
RTVSPost2010Prop47
 90
       50
102
RTVSPost2010PropOp47
 70
     1
102
RTVSPost2010Prop48
 90
       50
102
RTVSPost2010PropOp48
 70
     1
102
RTVSPost2010Prop49
280
     0
102
RTVSPost2010PropOp49
 70
     1
102
RTVSPost2010Prop50
 90
       50
102
RTVSPost2010PropOp50
 70
     1
102
RTVSPost2010Prop51ColorIndex
 90
      256
102
RTVSPost2010Prop51ColorRGB
 90
-16777216
102
RTVSPost2010PropOp51
 70
     0
102
RTVSPost2010Prop52
140
1.0
102
RTVSPost2010PropOp52
 70
     0
102
RTVSPost2010Prop53
 90
        2
102
RTVSPost2010PropOp53
 70
     1
102
RTVSPost2010Prop54
  1
strokes_ogs.tif
102
RTVSPost2010PropOp54
 70
     1
102
RTVSPost2010Prop55
280
     0
102
RTVSPost2010PropOp55
 70
     1
102
RTVSPost2010Prop56
140
1.0
102
RTVSPost2010PropOp56
 70
     1
102
RTVSPost2010Prop57
140
1.0
102
RTVSPost2010PropOp57
 70
     1
102
RTVSPropertyOp0
 70
     1
102
RTVSPropertyOp1
 70
     1
102
RTVSPropertyOp2
 70
     1
102
RTVSPropertyOp3
 70
     1
102
RTVSPropertyOp4
 70
     1
102
RTVSPropertyOp5
 70
     1
102
RTVSPropertyOp6
 70
     1
102
RTVSPropertyOp7
 70
     1
102
RTVSPropertyOp8
 70
     1
102
RTVSPropertyOp9
 70
     1
102
RTVSPropertyOp10
 70
     1
102
RTVSPropertyOp11
 70
     1
102
RTVSPropertyOp12
 70
     1
102
RTVSPropertyOp13
 70
     1
102
RTVSPropertyOp14
 70
     1
102
RTVSPropertyOp15
 70
     1
102
RTVSPropertyOp16
 70
     1
102
RTVSPropertyOp17
 70
     1
102
RTVSPropertyOp18
 70
     1
102
RTVSPropertyOp19
 70
     1
102
RTVSPropertyOp20
 70
     1
102
RTVSPropertyOp21
 70
     1
102
RTVSPropertyOp22
 70
     1
102
RTVSPropertyOp23
 70
     1
102
RTVSPropertyOp24
 70
     1
102
RTVSPropertyOp25
 70
     1
102
RTVSPropertyOp26
 70
     1
102
RTVSPropertyOp27
 70
     1
102
RTVSPropertyOp28
 70
     1
102
RTVSPropertyOp29
 70
     1
102
RTVSPropertyOp30
 70
     1
102
RTVSPropertyOp31
 70
     1
102
RTVSPropertyOp32
 70
     1
102
RTVSPropertyOp33
 70
     1
102
RTVSPropertyOp34
 70
     1
102
RTVSPropertyOp35
 70
     1
102
RTVSPropertyOp36
 70
     1
102
RTVSPropertyOp37
 70
     1
102
RTVSPropertyOp38
 70
     1
102
RTVSPropertyOp39
 70
     1
102
RTVSPropertyOp40
 70
     1
102
RTVSPropertyOp41
 70
     1
102
RTVSPropertyOp42
 70
     1
102
RTVSPropertyOp43
 70
     1
102
RTVSPropertyOp44
 70
     1
102
RTVSPropertyOp45
 70
     1
102
RTVSPropertyOp46
 70
     1
102
RTVSPropertyOp47
 70
     1
102
RTVSPropertyOp48
 70
     1
102
RTVSPropertyOp49
 70
     1
102
RTVSPropertyOp50
 70
     1
102
RTVSPropertyOp51
 70
     0
102
RTVSPropertyOp52
 70
     0
102
RTVSPropertyOp53
 70
     1
102
RTVSPropertyOp54
 70
     1
102
RTVSPropertyOp55
 70
     1
102
RTVSPropertyOp56
 70
     1
102
RTVSPropertyOp57
 70
     1
102
RTVSPropertyOp58
 70
     1
102
RTVSPropertyOp59
 70
     1
102
RTVSPropertyOp60
 70
     1
102
RTVSPropertyOp61
 70
     1
102
RTVSPropertyOp62
 70
     1
  0
XRECORD
  5
693
102
{ACAD_REACTORS
330
692
102
}
330
692
100
AcDbXrecord
280
     1
102
RTVSPost2010Prop28
280
     0
102
RTVSPost2010PropOp28
 70
     1
102
RTVSPost2010Prop29
280
     1
102
RTVSPost2010PropOp29
 70
     1
102
RTVSPost2010Prop30
280
     1
102
RTVSPost2010PropOp30
 70
     1
102
RTVSPost2010Prop31
280
     0
102
RTVSPost2010PropOp31
 70
     1
102
RTVSPost2010Prop32
280
     0
102
RTVSPost2010PropOp32
 70
     1
102
RTVSPost2010Prop33
280
     0
102
RTVSPost2010PropOp33
 70
     1
102
RTVSPost2010Prop34
280
     0
102
RTVSPost2010PropOp34
 70
     1
102
RTVSPost2010Prop35
280
     0
102
RTVSPost2010PropOp35
 70
     1
102
RTVSPost2010Prop36
280
     0
102
RTVSPost2010PropOp36
 70
     1
102
RTVSPost2010Prop37
 90
       50
102
RTVSPost2010PropOp37
 70
     1
102
RTVSPost2010Prop38
140
0.0
102
RTVSPost2010PropOp38
 70
     1
102
RTVSPost2010Prop39
140
1.0
102
RTVSPost2010PropOp39
 70
     1
102
RTVSPost2010Prop40
 90
        0
102
RTVSPost2010PropOp40
 70
     1
102
RTVSPost2010Prop41ColorIndex
 90
       18
102
RTVSPost2010Prop41ColorRGB
 90
        0
102
RTVSPost2010PropOp41
 70
     1
102
RTVSPost2010Prop42
 90
       50
102
RTVSPost2010PropOp42
 70
     1
102
RTVSPost2010Prop43
 90
        3
102
RTVSPost2010PropOp43
 70
     1
102
RTVSPost2010Prop44ColorIndex
 90
        5
102
RTVSPost2010Prop44ColorRGB
 90
      255
102
RTVSPost2010PropOp44
 70
     1
102
RTVSPost2010Prop45
280
     0
102
RTVSPost2010PropOp45
 70
     1
102
RTVSPost2010Prop46
 90
       50
102
RTVSPost2010PropOp46
 70
     1
102
RTVSPost2010Prop47
 90
       50
102
RTVSPost2010PropOp47
 70
     1
102
RTVSPost2010Prop48
 90
       50
102
RTVSPost2010PropOp48
 70
     1
102
RTVSPost2010Prop49
280
     0
102
RTVSPost2010PropOp49
 70
     1
102
RTVSPost2010Prop50
 90
       50
102
RTVSPost2010PropOp50
 70
     1
102
RTVSPost2010Prop51ColorIndex
 90
      256
102
RTVSPost2010Prop51ColorRGB
 90
-16777216
102
RTVSPost2010PropOp51
 70
     0
102
RTVSPost2010Prop52
140
1.0
102
RTVSPost2010PropOp52
 70
     0
102
RTVSPost2010Prop53
 90
        2
102
RTVSPost2010PropOp53
 70
     1
102
RTVSPost2010Prop54
  1
strokes_ogs.tif
102
RTVSPost2010PropOp54
 70
     1
102
RTVSPost2010Prop55
280
     0
102
RTVSPost2010PropOp55
 70
     1
102
RTVSPost2010Prop56
140
1.0
102
RTVSPost2010PropOp56
 70
     1
102
RTVSPost2010Prop57
140
1.0
102
RTVSPost2010PropOp57
 70
     1
102
RTVSPropertyOp0
 70
     1
102
RTVSPropertyOp1
 70
     1
102
RTVSPropertyOp2
 70
     1
102
RTVSPropertyOp3
 70
     1
102
RTVSPropertyOp4
 70
     1
102
RTVSPropertyOp5
 70
     1
102
RTVSPropertyOp6
 70
     1
102
RTVSPropertyOp7
 70
     1
102
RTVSPropertyOp8
 70
     1
102
RTVSPropertyOp9
 70
     1
102
RTVSPropertyOp10
 70
     1
102
RTVSPropertyOp11
 70
     1
102
RTVSPropertyOp12
 70
     1
102
RTVSPropertyOp13
 70
     1
102
RTVSPropertyOp14
 70
     1
102
RTVSPropertyOp15
 70
     1
102
RTVSPropertyOp16
 70
     1
102
RTVSPropertyOp17
 70
     1
102
RTVSPropertyOp18
 70
     1
102
RTVSPropertyOp19
 70
     1
102
RTVSPropertyOp20
 70
     1
102
RTVSPropertyOp21
 70
     1
102
RTVSPropertyOp22
 70
     1
102
RTVSPropertyOp23
 70
     1
102
RTVSPropertyOp24
 70
     1
102
RTVSPropertyOp25
 70
     1
102
RTVSPropertyOp26
 70
     1
102
RTVSPropertyOp27
 70
     1
102
RTVSPropertyOp28
 70
     1
102
RTVSPropertyOp29
 70
     1
102
RTVSPropertyOp30
 70
     1
102
RTVSPropertyOp31
 70
     1
102
RTVSPropertyOp32
 70
     1
102
RTVSPropertyOp33
 70
     1
102
RTVSPropertyOp34
 70
     1
102
RTVSPropertyOp35
 70
     1
102
RTVSPropertyOp36
 70
     1
102
RTVSPropertyOp37
 70
     1
102
RTVSPropertyOp38
 70
     1
102
RTVSPropertyOp39
 70
     1
102
RTVSPropertyOp40
 70
     1
102
RTVSPropertyOp41
 70
     1
102
RTVSPropertyOp42
 70
     1
102
RTVSPropertyOp43
 70
     1
102
RTVSPropertyOp44
 70
     1
102
RTVSPropertyOp45
 70
     1
102
RTVSPropertyOp46
 70
     1
102
RTVSPropertyOp47
 70
     1
102
RTVSPropertyOp48
 70
     1
102
RTVSPropertyOp49
 70
     1
102
RTVSPropertyOp50
 70
     1
102
RTVSPropertyOp51
 70
     0
102
RTVSPropertyOp52
 70
     0
102
RTVSPropertyOp53
 70
     1
102
RTVSPropertyOp54
 70
     1
102
RTVSPropertyOp55
 70
     1
102
RTVSPropertyOp56
 70
     1
102
RTVSPropertyOp57
 70
     1
102
RTVSPropertyOp58
 70
     1
102
RTVSPropertyOp59
 70
     1
102
RTVSPropertyOp60
 70
     1
102
RTVSPropertyOp61
 70
     1
102
RTVSPropertyOp62
 70
     1
  0
XRECORD
  5
69B
102
{ACAD_REACTORS
330
69A
102
}
330
69A
100
AcDbXrecord
280
     1
102
RTVSPost2010Prop28
280
     0
102
RTVSPost2010PropOp28
 70
     1
102
RTVSPost2010Prop29
280
     1
102
RTVSPost2010PropOp29
 70
     1
102
RTVSPost2010Prop30
280
     1
102
RTVSPost2010PropOp30
 70
     1
102
RTVSPost2010Prop31
280
     0
102
RTVSPost2010PropOp31
 70
     1
102
RTVSPost2010Prop32
280
     0
102
RTVSPost2010PropOp32
 70
     1
102
RTVSPost2010Prop33
280
     0
102
RTVSPost2010PropOp33
 70
     1
102
RTVSPost2010Prop34
280
     0
102
RTVSPost2010PropOp34
 70
     1
102
RTVSPost2010Prop35
280
     0
102
RTVSPost2010PropOp35
 70
     1
102
RTVSPost2010Prop36
280
     0
102
RTVSPost2010PropOp36
 70
     1
102
RTVSPost2010Prop37
 90
       50
102
RTVSPost2010PropOp37
 70
     1
102
RTVSPost2010Prop38
140
0.0
102
RTVSPost2010PropOp38
 70
     1
102
RTVSPost2010Prop39
140
1.0
102
RTVSPost2010PropOp39
 70
     1
102
RTVSPost2010Prop40
 90
        0
102
RTVSPost2010PropOp40
 70
     1
102
RTVSPost2010Prop41ColorIndex
 90
       18
102
RTVSPost2010Prop41ColorRGB
 90
        0
102
RTVSPost2010PropOp41
 70
     1
102
RTVSPost2010Prop42
 90
       50
102
RTVSPost2010PropOp42
 70
     1
102
RTVSPost2010Prop43
 90
        3
102
RTVSPost2010PropOp43
 70
     1
102
RTVSPost2010Prop44ColorIndex
 90
        5
102
RTVSPost2010Prop44ColorRGB
 90
      255
102
RTVSPost2010PropOp44
 70
     1
102
RTVSPost2010Prop45
280
     0
102
RTVSPost2010PropOp45
 70
     1
102
RTVSPost2010Prop46
 90
       50
102
RTVSPost2010PropOp46
 70
     1
102
RTVSPost2010Prop47
 90
       50
102
RTVSPost2010PropOp47
 70
     1
102
RTVSPost2010Prop48
 90
       50
102
RTVSPost2010PropOp48
 70
     1
102
RTVSPost2010Prop49
280
     0
102
RTVSPost2010PropOp49
 70
     1
102
RTVSPost2010Prop50
 90
       50
102
RTVSPost2010PropOp50
 70
     1
102
RTVSPost2010Prop51ColorIndex
 90
      256
102
RTVSPost2010Prop51ColorRGB
 90
-16777216
102
RTVSPost2010PropOp51
 70
     0
102
RTVSPost2010Prop52
140
1.0
102
RTVSPost2010PropOp52
 70
     0
102
RTVSPost2010Prop53
 90
        2
102
RTVSPost2010PropOp53
 70
     1
102
RTVSPost2010Prop54
  1
strokes_ogs.tif
102
RTVSPost2010PropOp54
 70
     1
102
RTVSPost2010Prop55
280
     0
102
RTVSPost2010PropOp55
 70
     1
102
RTVSPost2010Prop56
140
1.0
102
RTVSPost2010PropOp56
 70
     1
102
RTVSPost2010Prop57
140
1.0
102
RTVSPost2010PropOp57
 70
     1
102
RTVSPropertyOp0
 70
     1
102
RTVSPropertyOp1
 70
     1
102
RTVSPropertyOp2
 70
     1
102
RTVSPropertyOp3
 70
     1
102
RTVSPropertyOp4
 70
     1
102
RTVSPropertyOp5
 70
     1
102
RTVSPropertyOp6
 70
     1
102
RTVSPropertyOp7
 70
     1
102
RTVSPropertyOp8
 70
     1
102
RTVSPropertyOp9
 70
     1
102
RTVSPropertyOp10
 70
     1
102
RTVSPropertyOp11
 70
     1
102
RTVSPropertyOp12
 70
     1
102
RTVSPropertyOp13
 70
     1
102
RTVSPropertyOp14
 70
     1
102
RTVSPropertyOp15
 70
     1
102
RTVSPropertyOp16
 70
     1
102
RTVSPropertyOp17
 70
     1
102
RTVSPropertyOp18
 70
     1
102
RTVSPropertyOp19
 70
     1
102
RTVSPropertyOp20
 70
     1
102
RTVSPropertyOp21
 70
     1
102
RTVSPropertyOp22
 70
     1
102
RTVSPropertyOp23
 70
     1
102
RTVSPropertyOp24
 70
     1
102
RTVSPropertyOp25
 70
     1
102
RTVSPropertyOp26
 70
     1
102
RTVSPropertyOp27
 70
     1
102
RTVSPropertyOp28
 70
     1
102
RTVSPropertyOp29
 70
     1
102
RTVSPropertyOp30
 70
     1
102
RTVSPropertyOp31
 70
     1
102
RTVSPropertyOp32
 70
     1
102
RTVSPropertyOp33
 70
     1
102
RTVSPropertyOp34
 70
     1
102
RTVSPropertyOp35
 70
     1
102
RTVSPropertyOp36
 70
     1
102
RTVSPropertyOp37
 70
     1
102
RTVSPropertyOp38
 70
     1
102
RTVSPropertyOp39
 70
     1
102
RTVSPropertyOp40
 70
     1
102
RTVSPropertyOp41
 70
     1
102
RTVSPropertyOp42
 70
     1
102
RTVSPropertyOp43
 70
     1
102
RTVSPropertyOp44
 70
     1
102
RTVSPropertyOp45
 70
     1
102
RTVSPropertyOp46
 70
     1
102
RTVSPropertyOp47
 70
     1
102
RTVSPropertyOp48
 70
     1
102
RTVSPropertyOp49
 70
     1
102
RTVSPropertyOp50
 70
     1
102
RTVSPropertyOp51
 70
     0
102
RTVSPropertyOp52
 70
     0
102
RTVSPropertyOp53
 70
     1
102
RTVSPropertyOp54
 70
     1
102
RTVSPropertyOp55
 70
     1
102
RTVSPropertyOp56
 70
     1
102
RTVSPropertyOp57
 70
     1
102
RTVSPropertyOp58
 70
     1
102
RTVSPropertyOp59
 70
     1
102
RTVSPropertyOp60
 70
     1
102
RTVSPropertyOp61
 70
     1
102
RTVSPropertyOp62
 70
     1
  0
XRECORD
  5
6B7
102
{ACAD_REACTORS
330
6B6
102
}
330
6B6
100
AcDbXrecord
280
     1
102
RTVSPost2010Prop28
280
     0
102
RTVSPost2010PropOp28
 70
     1
102
RTVSPost2010Prop29
280
     1
102
RTVSPost2010PropOp29
 70
     1
102
RTVSPost2010Prop30
280
     1
102
RTVSPost2010PropOp30
 70
     1
102
RTVSPost2010Prop31
280
     0
102
RTVSPost2010PropOp31
 70
     1
102
RTVSPost2010Prop32
280
     0
102
RTVSPost2010PropOp32
 70
     1
102
RTVSPost2010Prop33
280
     0
102
RTVSPost2010PropOp33
 70
     1
102
RTVSPost2010Prop34
280
     0
102
RTVSPost2010PropOp34
 70
     1
102
RTVSPost2010Prop35
280
     0
102
RTVSPost2010PropOp35
 70
     1
102
RTVSPost2010Prop36
280
     0
102
RTVSPost2010PropOp36
 70
     1
102
RTVSPost2010Prop37
 90
       50
102
RTVSPost2010PropOp37
 70
     0
102
RTVSPost2010Prop38
140
0.0
102
RTVSPost2010PropOp38
 70
     0
102
RTVSPost2010Prop39
140
1.0
102
RTVSPost2010PropOp39
 70
     0
102
RTVSPost2010Prop40
 90
        0
102
RTVSPost2010PropOp40
 70
     0
102
RTVSPost2010Prop41ColorIndex
 90
       18
102
RTVSPost2010Prop41ColorRGB
 90
        0
102
RTVSPost2010PropOp41
 70
     0
102
RTVSPost2010Prop42
 90
       50
102
RTVSPost2010PropOp42
 70
     0
102
RTVSPost2010Prop43
 90
        3
102
RTVSPost2010PropOp43
 70
     0
102
RTVSPost2010Prop44ColorIndex
 90
        5
102
RTVSPost2010Prop44ColorRGB
 90
      255
102
RTVSPost2010PropOp44
 70
     0
102
RTVSPost2010Prop45
280
     0
102
RTVSPost2010PropOp45
 70
     1
102
RTVSPost2010Prop46
 90
       50
102
RTVSPost2010PropOp46
 70
     0
102
RTVSPost2010Prop47
 90
       50
102
RTVSPost2010PropOp47
 70
     0
102
RTVSPost2010Prop48
 90
       50
102
RTVSPost2010PropOp48
 70
     0
102
RTVSPost2010Prop49
280
     0
102
RTVSPost2010PropOp49
 70
     1
102
RTVSPost2010Prop50
 90
       50
102
RTVSPost2010PropOp50
 70
     0
102
RTVSPost2010Prop51ColorIndex
 90
      256
102
RTVSPost2010Prop51ColorRGB
 90
-16777216
102
RTVSPost2010PropOp51
 70
     0
102
RTVSPost2010Prop52
140
1.0
102
RTVSPost2010PropOp52
 70
     0
102
RTVSPost2010Prop53
 90
        2
102
RTVSPost2010PropOp53
 70
     0
102
RTVSPost2010Prop54
  1
strokes_ogs.tif
102
RTVSPost2010PropOp54
 70
     0
102
RTVSPost2010Prop55
280
     0
102
RTVSPost2010PropOp55
 70
     1
102
RTVSPost2010Prop56
140
1.0
102
RTVSPost2010PropOp56
 70
     0
102
RTVSPost2010Prop57
140
1.0
102
RTVSPost2010PropOp57
 70
     0
102
RTVSPropertyOp0
 70
     0
102
RTVSPropertyOp1
 70
     0
102
RTVSPropertyOp2
 70
     0
102
RTVSPropertyOp3
 70
     0
102
RTVSPropertyOp4
 70
     0
102
RTVSPropertyOp5
 70
     0
102
RTVSPropertyOp6
 70
     0
102
RTVSPropertyOp7
 70
     0
102
RTVSPropertyOp8
 70
     0
102
RTVSPropertyOp9
 70
     0
102
RTVSPropertyOp10
 70
     0
102
RTVSPropertyOp11
 70
     0
102
RTVSPropertyOp12
 70
     0
102
RTVSPropertyOp13
 70
     0
102
RTVSPropertyOp14
 70
     2
102
RTVSPropertyOp15
 70
     0
102
RTVSPropertyOp16
 70
     0
102
RTVSPropertyOp17
 70
     0
102
RTVSPropertyOp18
 70
     0
102
RTVSPropertyOp19
 70
     0
102
RTVSPropertyOp20
 70
     0
102
RTVSPropertyOp21
 70
     0
102
RTVSPropertyOp22
 70
     0
102
RTVSPropertyOp23
 70
     0
102
RTVSPropertyOp24
 70
     0
102
RTVSPropertyOp25
 70
     0
102
RTVSPropertyOp26
 70
     0
102
RTVSPropertyOp27
 70
     0
102
RTVSPropertyOp28
 70
     1
102
RTVSPropertyOp29
 70
     1
102
RTVSPropertyOp30
 70
     1
102
RTVSPropertyOp31
 70
     1
102
RTVSPropertyOp32
 70
     1
102
RTVSPropertyOp33
 70
     1
102
RTVSPropertyOp34
 70
     1
102
RTVSPropertyOp35
 70
     1
102
RTVSPropertyOp36
 70
     1
102
RTVSPropertyOp37
 70
     0
102
RTVSPropertyOp38
 70
     0
102
RTVSPropertyOp39
 70
     0
102
RTVSPropertyOp40
 70
     0
102
RTVSPropertyOp41
 70
     0
102
RTVSPropertyOp42
 70
     0
102
RTVSPropertyOp43
 70
     0
102
RTVSPropertyOp44
 70
     0
102
RTVSPropertyOp45
 70
     1
102
RTVSPropertyOp46
 70
     0
102
RTVSPropertyOp47
 70
     0
102
RTVSPropertyOp48
 70
     0
102
RTVSPropertyOp49
 70
     1
102
RTVSPropertyOp50
 70
     0
102
RTVSPropertyOp51
 70
     0
102
RTVSPropertyOp52
 70
     0
102
RTVSPropertyOp53
 70
     0
102
RTVSPropertyOp54
 70
     0
102
RTVSPropertyOp55
 70
     1
102
RTVSPropertyOp56
 70
     0
102
RTVSPropertyOp57
 70
     0
102
RTVSPropertyOp58
 70
     0
102
RTVSPropertyOp59
 70
     0
102
RTVSPropertyOp60
 70
     0
102
RTVSPropertyOp61
 70
     0
102
RTVSPropertyOp62
 70
     0
  0
XRECORD
  5
6A7
102
{ACAD_REACTORS
330
6A6
102
}
330
6A6
100
AcDbXrecord
280
     1
102
RTVSPost2010Prop28
280
     0
102
RTVSPost2010PropOp28
 70
     1
102
RTVSPost2010Prop29
280
     1
102
RTVSPost2010PropOp29
 70
     1
102
RTVSPost2010Prop30
280
     1
102
RTVSPost2010PropOp30
 70
     1
102
RTVSPost2010Prop31
280
     0
102
RTVSPost2010PropOp31
 70
     1
102
RTVSPost2010Prop32
280
     0
102
RTVSPost2010PropOp32
 70
     1
102
RTVSPost2010Prop33
280
     0
102
RTVSPost2010PropOp33
 70
     1
102
RTVSPost2010Prop34
280
     0
102
RTVSPost2010PropOp34
 70
     1
102
RTVSPost2010Prop35
280
     0
102
RTVSPost2010PropOp35
 70
     1
102
RTVSPost2010Prop36
280
     0
102
RTVSPost2010PropOp36
 70
     1
102
RTVSPost2010Prop37
 90
       50
102
RTVSPost2010PropOp37
 70
     1
102
RTVSPost2010Prop38
140
0.0
102
RTVSPost2010PropOp38
 70
     1
102
RTVSPost2010Prop39
140
1.0
102
RTVSPost2010PropOp39
 70
     1
102
RTVSPost2010Prop40
 90
        0
102
RTVSPost2010PropOp40
 70
     1
102
RTVSPost2010Prop41ColorIndex
 90
       18
102
RTVSPost2010Prop41ColorRGB
 90
        0
102
RTVSPost2010PropOp41
 70
     1
102
RTVSPost2010Prop42
 90
       50
102
RTVSPost2010PropOp42
 70
     1
102
RTVSPost2010Prop43
 90
        3
102
RTVSPost2010PropOp43
 70
     1
102
RTVSPost2010Prop44ColorIndex
 90
        5
102
RTVSPost2010Prop44ColorRGB
 90
      255
102
RTVSPost2010PropOp44
 70
     1
102
RTVSPost2010Prop45
280
     0
102
RTVSPost2010PropOp45
 70
     1
102
RTVSPost2010Prop46
 90
       50
102
RTVSPost2010PropOp46
 70
     1
102
RTVSPost2010Prop47
 90
       50
102
RTVSPost2010PropOp47
 70
     1
102
RTVSPost2010Prop48
 90
       50
102
RTVSPost2010PropOp48
 70
     1
102
RTVSPost2010Prop49
280
     0
102
RTVSPost2010PropOp49
 70
     1
102
RTVSPost2010Prop50
 90
       50
102
RTVSPost2010PropOp50
 70
     1
102
RTVSPost2010Prop51ColorIndex
 90
      256
102
RTVSPost2010Prop51ColorRGB
 90
-16777216
102
RTVSPost2010PropOp51
 70
     0
102
RTVSPost2010Prop52
140
1.0
102
RTVSPost2010PropOp52
 70
     0
102
RTVSPost2010Prop53
 90
        2
102
RTVSPost2010PropOp53
 70
     1
102
RTVSPost2010Prop54
  1
strokes_ogs.tif
102
RTVSPost2010PropOp54
 70
     1
102
RTVSPost2010Prop55
280
     0
102
RTVSPost2010PropOp55
 70
     1
102
RTVSPost2010Prop56
140
1.0
102
RTVSPost2010PropOp56
 70
     1
102
RTVSPost2010Prop57
140
1.0
102
RTVSPost2010PropOp57
 70
     1
102
RTVSPropertyOp0
 70
     1
102
RTVSPropertyOp1
 70
     1
102
RTVSPropertyOp2
 70
     1
102
RTVSPropertyOp3
 70
     1
102
RTVSPropertyOp4
 70
     1
102
RTVSPropertyOp5
 70
     1
102
RTVSPropertyOp6
 70
     1
102
RTVSPropertyOp7
 70
     1
102
RTVSPropertyOp8
 70
     1
102
RTVSPropertyOp9
 70
     1
102
RTVSPropertyOp10
 70
     1
102
RTVSPropertyOp11
 70
     1
102
RTVSPropertyOp12
 70
     1
102
RTVSPropertyOp13
 70
     1
102
RTVSPropertyOp14
 70
     1
102
RTVSPropertyOp15
 70
     1
102
RTVSPropertyOp16
 70
     1
102
RTVSPropertyOp17
 70
     1
102
RTVSPropertyOp18
 70
     1
102
RTVSPropertyOp19
 70
     1
102
RTVSPropertyOp20
 70
     1
102
RTVSPropertyOp21
 70
     1
102
RTVSPropertyOp22
 70
     1
102
RTVSPropertyOp23
 70
     1
102
RTVSPropertyOp24
 70
     1
102
RTVSPropertyOp25
 70
     1
102
RTVSPropertyOp26
 70
     1
102
RTVSPropertyOp27
 70
     1
102
RTVSPropertyOp28
 70
     1
102
RTVSPropertyOp29
 70
     1
102
RTVSPropertyOp30
 70
     1
102
RTVSPropertyOp31
 70
     1
102
RTVSPropertyOp32
 70
     1
102
RTVSPropertyOp33
 70
     1
102
RTVSPropertyOp34
 70
     1
102
RTVSPropertyOp35
 70
     1
102
RTVSPropertyOp36
 70
     1
102
RTVSPropertyOp37
 70
     1
102
RTVSPropertyOp38
 70
     1
102
RTVSPropertyOp39
 70
     1
102
RTVSPropertyOp40
 70
     1
102
RTVSPropertyOp41
 70
     1
102
RTVSPropertyOp42
 70
     1
102
RTVSPropertyOp43
 70
     1
102
RTVSPropertyOp44
 70
     1
102
RTVSPropertyOp45
 70
     1
102
RTVSPropertyOp46
 70
     1
102
RTVSPropertyOp47
 70
     1
102
RTVSPropertyOp48
 70
     1
102
RTVSPropertyOp49
 70
     1
102
RTVSPropertyOp50
 70
     1
102
RTVSPropertyOp51
 70
     0
102
RTVSPropertyOp52
 70
     0
102
RTVSPropertyOp53
 70
     1
102
RTVSPropertyOp54
 70
     1
102
RTVSPropertyOp55
 70
     1
102
RTVSPropertyOp56
 70
     1
102
RTVSPropertyOp57
 70
     1
102
RTVSPropertyOp58
 70
     1
102
RTVSPropertyOp59
 70
     1
102
RTVSPropertyOp60
 70
     1
102
RTVSPropertyOp61
 70
     1
102
RTVSPropertyOp62
 70
     1
  0
XRECORD
  5
6B9
102
{ACAD_REACTORS
330
6B8
102
}
330
6B8
100
AcDbXrecord
280
     1
102
RTVSPost2010Prop28
280
     0
102
RTVSPost2010PropOp28
 70
     1
102
RTVSPost2010Prop29
280
     1
102
RTVSPost2010PropOp29
 70
     1
102
RTVSPost2010Prop30
280
     1
102
RTVSPost2010PropOp30
 70
     1
102
RTVSPost2010Prop31
280
     0
102
RTVSPost2010PropOp31
 70
     1
102
RTVSPost2010Prop32
280
     0
102
RTVSPost2010PropOp32
 70
     1
102
RTVSPost2010Prop33
280
     0
102
RTVSPost2010PropOp33
 70
     1
102
RTVSPost2010Prop34
280
     0
102
RTVSPost2010PropOp34
 70
     1
102
RTVSPost2010Prop35
280
     0
102
RTVSPost2010PropOp35
 70
     1
102
RTVSPost2010Prop36
280
     0
102
RTVSPost2010PropOp36
 70
     1
102
RTVSPost2010Prop37
 90
       50
102
RTVSPost2010PropOp37
 70
     0
102
RTVSPost2010Prop38
140
0.0
102
RTVSPost2010PropOp38
 70
     0
102
RTVSPost2010Prop39
140
1.0
102
RTVSPost2010PropOp39
 70
     0
102
RTVSPost2010Prop40
 90
        0
102
RTVSPost2010PropOp40
 70
     0
102
RTVSPost2010Prop41ColorIndex
 90
       18
102
RTVSPost2010Prop41ColorRGB
 90
        0
102
RTVSPost2010PropOp41
 70
     0
102
RTVSPost2010Prop42
 90
       50
102
RTVSPost2010PropOp42
 70
     0
102
RTVSPost2010Prop43
 90
        3
102
RTVSPost2010PropOp43
 70
     0
102
RTVSPost2010Prop44ColorIndex
 90
        5
102
RTVSPost2010Prop44ColorRGB
 90
      255
102
RTVSPost2010PropOp44
 70
     0
102
RTVSPost2010Prop45
280
     0
102
RTVSPost2010PropOp45
 70
     1
102
RTVSPost2010Prop46
 90
       50
102
RTVSPost2010PropOp46
 70
     0
102
RTVSPost2010Prop47
 90
       50
102
RTVSPost2010PropOp47
 70
     0
102
RTVSPost2010Prop48
 90
       50
102
RTVSPost2010PropOp48
 70
     0
102
RTVSPost2010Prop49
280
     0
102
RTVSPost2010PropOp49
 70
     1
102
RTVSPost2010Prop50
 90
       50
102
RTVSPost2010PropOp50
 70
     0
102
RTVSPost2010Prop51ColorIndex
 90
      256
102
RTVSPost2010Prop51ColorRGB
 90
-16777216
102
RTVSPost2010PropOp51
 70
     0
102
RTVSPost2010Prop52
140
1.0
102
RTVSPost2010PropOp52
 70
     0
102
RTVSPost2010Prop53
 90
        2
102
RTVSPost2010PropOp53
 70
     0
102
RTVSPost2010Prop54
  1
strokes_ogs.tif
102
RTVSPost2010PropOp54
 70
     0
102
RTVSPost2010Prop55
280
     0
102
RTVSPost2010PropOp55
 70
     1
102
RTVSPost2010Prop56
140
1.0
102
RTVSPost2010PropOp56
 70
     0
102
RTVSPost2010Prop57
140
1.0
102
RTVSPost2010PropOp57
 70
     0
102
RTVSPropertyOp0
 70
     0
102
RTVSPropertyOp1
 70
     0
102
RTVSPropertyOp2
 70
     0
102
RTVSPropertyOp3
 70
     0
102
RTVSPropertyOp4
 70
     0
102
RTVSPropertyOp5
 70
     0
102
RTVSPropertyOp6
 70
     0
102
RTVSPropertyOp7
 70
     0
102
RTVSPropertyOp8
 70
     0
102
RTVSPropertyOp9
 70
     0
102
RTVSPropertyOp10
 70
     0
102
RTVSPropertyOp11
 70
     0
102
RTVSPropertyOp12
 70
     0
102
RTVSPropertyOp13
 70
     0
102
RTVSPropertyOp14
 70
     2
102
RTVSPropertyOp15
 70
     0
102
RTVSPropertyOp16
 70
     0
102
RTVSPropertyOp17
 70
     0
102
RTVSPropertyOp18
 70
     0
102
RTVSPropertyOp19
 70
     0
102
RTVSPropertyOp20
 70
     0
102
RTVSPropertyOp21
 70
     0
102
RTVSPropertyOp22
 70
     0
102
RTVSPropertyOp23
 70
     0
102
RTVSPropertyOp24
 70
     0
102
RTVSPropertyOp25
 70
     0
102
RTVSPropertyOp26
 70
     0
102
RTVSPropertyOp27
 70
     0
102
RTVSPropertyOp28
 70
     1
102
RTVSPropertyOp29
 70
     1
102
RTVSPropertyOp30
 70
     1
102
RTVSPropertyOp31
 70
     1
102
RTVSPropertyOp32
 70
     1
102
RTVSPropertyOp33
 70
     1
102
RTVSPropertyOp34
 70
     1
102
RTVSPropertyOp35
 70
     1
102
RTVSPropertyOp36
 70
     1
102
RTVSPropertyOp37
 70
     0
102
RTVSPropertyOp38
 70
     0
102
RTVSPropertyOp39
 70
     0
102
RTVSPropertyOp40
 70
     0
102
RTVSPropertyOp41
 70
     0
102
RTVSPropertyOp42
 70
     0
102
RTVSPropertyOp43
 70
     0
102
RTVSPropertyOp44
 70
     0
102
RTVSPropertyOp45
 70
     1
102
RTVSPropertyOp46
 70
     0
102
RTVSPropertyOp47
 70
     0
102
RTVSPropertyOp48
 70
     0
102
RTVSPropertyOp49
 70
     1
102
RTVSPropertyOp50
 70
     0
102
RTVSPropertyOp51
 70
     0
102
RTVSPropertyOp52
 70
     0
102
RTVSPropertyOp53
 70
     0
102
RTVSPropertyOp54
 70
     0
102
RTVSPropertyOp55
 70
     1
102
RTVSPropertyOp56
 70
     0
102
RTVSPropertyOp57
 70
     0
102
RTVSPropertyOp58
 70
     0
102
RTVSPropertyOp59
 70
     0
102
RTVSPropertyOp60
 70
     0
102
RTVSPropertyOp61
 70
     0
102
RTVSPropertyOp62
 70
     0
  0
XRECORD
  5
69F
102
{ACAD_REACTORS
330
69E
102
}
330
69E
100
AcDbXrecord
280
     1
102
RTVSPost2010Prop28
280
     0
102
RTVSPost2010PropOp28
 70
     1
102
RTVSPost2010Prop29
280
     1
102
RTVSPost2010PropOp29
 70
     1
102
RTVSPost2010Prop30
280
     1
102
RTVSPost2010PropOp30
 70
     1
102
RTVSPost2010Prop31
280
     0
102
RTVSPost2010PropOp31
 70
     1
102
RTVSPost2010Prop32
280
     0
102
RTVSPost2010PropOp32
 70
     1
102
RTVSPost2010Prop33
280
     0
102
RTVSPost2010PropOp33
 70
     1
102
RTVSPost2010Prop34
280
     0
102
RTVSPost2010PropOp34
 70
     1
102
RTVSPost2010Prop35
280
     0
102
RTVSPost2010PropOp35
 70
     1
102
RTVSPost2010Prop36
280
     0
102
RTVSPost2010PropOp36
 70
     1
102
RTVSPost2010Prop37
 90
       50
102
RTVSPost2010PropOp37
 70
     1
102
RTVSPost2010Prop38
140
0.0
102
RTVSPost2010PropOp38
 70
     1
102
RTVSPost2010Prop39
140
1.0
102
RTVSPost2010PropOp39
 70
     1
102
RTVSPost2010Prop40
 90
        0
102
RTVSPost2010PropOp40
 70
     1
102
RTVSPost2010Prop41ColorIndex
 90
       18
102
RTVSPost2010Prop41ColorRGB
 90
        0
102
RTVSPost2010PropOp41
 70
     1
102
RTVSPost2010Prop42
 90
       50
102
RTVSPost2010PropOp42
 70
     1
102
RTVSPost2010Prop43
 90
        3
102
RTVSPost2010PropOp43
 70
     1
102
RTVSPost2010Prop44ColorIndex
 90
        5
102
RTVSPost2010Prop44ColorRGB
 90
      255
102
RTVSPost2010PropOp44
 70
     1
102
RTVSPost2010Prop45
280
     0
102
RTVSPost2010PropOp45
 70
     1
102
RTVSPost2010Prop46
 90
       50
102
RTVSPost2010PropOp46
 70
     1
102
RTVSPost2010Prop47
 90
       50
102
RTVSPost2010PropOp47
 70
     1
102
RTVSPost2010Prop48
 90
       50
102
RTVSPost2010PropOp48
 70
     1
102
RTVSPost2010Prop49
280
     0
102
RTVSPost2010PropOp49
 70
     1
102
RTVSPost2010Prop50
 90
       50
102
RTVSPost2010PropOp50
 70
     1
102
RTVSPost2010Prop51ColorIndex
 90
      256
102
RTVSPost2010Prop51ColorRGB
 90
-16777216
102
RTVSPost2010PropOp51
 70
     0
102
RTVSPost2010Prop52
140
1.0
102
RTVSPost2010PropOp52
 70
     0
102
RTVSPost2010Prop53
 90
        2
102
RTVSPost2010PropOp53
 70
     1
102
RTVSPost2010Prop54
  1
strokes_ogs.tif
102
RTVSPost2010PropOp54
 70
     1
102
RTVSPost2010Prop55
280
     0
102
RTVSPost2010PropOp55
 70
     1
102
RTVSPost2010Prop56
140
1.0
102
RTVSPost2010PropOp56
 70
     1
102
RTVSPost2010Prop57
140
1.0
102
RTVSPost2010PropOp57
 70
     1
102
RTVSPropertyOp0
 70
     1
102
RTVSPropertyOp1
 70
     1
102
RTVSPropertyOp2
 70
     1
102
RTVSPropertyOp3
 70
     1
102
RTVSPropertyOp4
 70
     1
102
RTVSPropertyOp5
 70
     1
102
RTVSPropertyOp6
 70
     1
102
RTVSPropertyOp7
 70
     1
102
RTVSPropertyOp8
 70
     1
102
RTVSPropertyOp9
 70
     1
102
RTVSPropertyOp10
 70
     1
102
RTVSPropertyOp11
 70
     1
102
RTVSPropertyOp12
 70
     1
102
RTVSPropertyOp13
 70
     1
102
RTVSPropertyOp14
 70
     1
102
RTVSPropertyOp15
 70
     1
102
RTVSPropertyOp16
 70
     1
102
RTVSPropertyOp17
 70
     1
102
RTVSPropertyOp18
 70
     1
102
RTVSPropertyOp19
 70
     1
102
RTVSPropertyOp20
 70
     1
102
RTVSPropertyOp21
 70
     1
102
RTVSPropertyOp22
 70
     1
102
RTVSPropertyOp23
 70
     1
102
RTVSPropertyOp24
 70
     1
102
RTVSPropertyOp25
 70
     1
102
RTVSPropertyOp26
 70
     1
102
RTVSPropertyOp27
 70
     1
102
RTVSPropertyOp28
 70
     1
102
RTVSPropertyOp29
 70
     1
102
RTVSPropertyOp30
 70
     1
102
RTVSPropertyOp31
 70
     1
102
RTVSPropertyOp32
 70
     1
102
RTVSPropertyOp33
 70
     1
102
RTVSPropertyOp34
 70
     1
102
RTVSPropertyOp35
 70
     1
102
RTVSPropertyOp36
 70
     1
102
RTVSPropertyOp37
 70
     1
102
RTVSPropertyOp38
 70
     1
102
RTVSPropertyOp39
 70
     1
102
RTVSPropertyOp40
 70
     1
102
RTVSPropertyOp41
 70
     1
102
RTVSPropertyOp42
 70
     1
102
RTVSPropertyOp43
 70
     1
102
RTVSPropertyOp44
 70
     1
102
RTVSPropertyOp45
 70
     1
102
RTVSPropertyOp46
 70
     1
102
RTVSPropertyOp47
 70
     1
102
RTVSPropertyOp48
 70
     1
102
RTVSPropertyOp49
 70
     1
102
RTVSPropertyOp50
 70
     1
102
RTVSPropertyOp51
 70
     0
102
RTVSPropertyOp52
 70
     0
102
RTVSPropertyOp53
 70
     1
102
RTVSPropertyOp54
 70
     1
102
RTVSPropertyOp55
 70
     1
102
RTVSPropertyOp56
 70
     1
102
RTVSPropertyOp57
 70
     1
102
RTVSPropertyOp58
 70
     1
102
RTVSPropertyOp59
 70
     1
102
RTVSPropertyOp60
 70
     1
102
RTVSPropertyOp61
 70
     1
102
RTVSPropertyOp62
 70
     1
  0
XRECORD
  5
6B5
102
{ACAD_REACTORS
330
6B4
102
}
330
6B4
100
AcDbXrecord
280
     1
102
RTVSPost2010Prop28
280
     0
102
RTVSPost2010PropOp28
 70
     1
102
RTVSPost2010Prop29
280
     1
102
RTVSPost2010PropOp29
 70
     1
102
RTVSPost2010Prop30
280
     1
102
RTVSPost2010PropOp30
 70
     1
102
RTVSPost2010Prop31
280
     0
102
RTVSPost2010PropOp31
 70
     1
102
RTVSPost2010Prop32
280
     0
102
RTVSPost2010PropOp32
 70
     1
102
RTVSPost2010Prop33
280
     0
102
RTVSPost2010PropOp33
 70
     1
102
RTVSPost2010Prop34
280
     0
102
RTVSPost2010PropOp34
 70
     1
102
RTVSPost2010Prop35
280
     0
102
RTVSPost2010PropOp35
 70
     1
102
RTVSPost2010Prop36
280
     0
102
RTVSPost2010PropOp36
 70
     1
102
RTVSPost2010Prop37
 90
       50
102
RTVSPost2010PropOp37
 70
     1
102
RTVSPost2010Prop38
140
0.0
102
RTVSPost2010PropOp38
 70
     1
102
RTVSPost2010Prop39
140
1.0
102
RTVSPost2010PropOp39
 70
     1
102
RTVSPost2010Prop40
 90
        0
102
RTVSPost2010PropOp40
 70
     1
102
RTVSPost2010Prop41ColorIndex
 90
       18
102
RTVSPost2010Prop41ColorRGB
 90
        0
102
RTVSPost2010PropOp41
 70
     1
102
RTVSPost2010Prop42
 90
       50
102
RTVSPost2010PropOp42
 70
     1
102
RTVSPost2010Prop43
 90
        3
102
RTVSPost2010PropOp43
 70
     1
102
RTVSPost2010Prop44ColorIndex
 90
        5
102
RTVSPost2010Prop44ColorRGB
 90
      255
102
RTVSPost2010PropOp44
 70
     1
102
RTVSPost2010Prop45
280
     0
102
RTVSPost2010PropOp45
 70
     1
102
RTVSPost2010Prop46
 90
       50
102
RTVSPost2010PropOp46
 70
     1
102
RTVSPost2010Prop47
 90
       50
102
RTVSPost2010PropOp47
 70
     1
102
RTVSPost2010Prop48
 90
       50
102
RTVSPost2010PropOp48
 70
     1
102
RTVSPost2010Prop49
280
     0
102
RTVSPost2010PropOp49
 70
     1
102
RTVSPost2010Prop50
 90
       50
102
RTVSPost2010PropOp50
 70
     1
102
RTVSPost2010Prop51ColorIndex
 90
      256
102
RTVSPost2010Prop51ColorRGB
 90
-16777216
102
RTVSPost2010PropOp51
 70
     0
102
RTVSPost2010Prop52
140
1.0
102
RTVSPost2010PropOp52
 70
     0
102
RTVSPost2010Prop53
 90
        2
102
RTVSPost2010PropOp53
 70
     1
102
RTVSPost2010Prop54
  1
strokes_ogs.tif
102
RTVSPost2010PropOp54
 70
     1
102
RTVSPost2010Prop55
280
     0
102
RTVSPost2010PropOp55
 70
     1
102
RTVSPost2010Prop56
140
1.0
102
RTVSPost2010PropOp56
 70
     1
102
RTVSPost2010Prop57
140
1.0
102
RTVSPost2010PropOp57
 70
     1
102
RTVSPropertyOp0
 70
     1
102
RTVSPropertyOp1
 70
     1
102
RTVSPropertyOp2
 70
     1
102
RTVSPropertyOp3
 70
     1
102
RTVSPropertyOp4
 70
     1
102
RTVSPropertyOp5
 70
     1
102
RTVSPropertyOp6
 70
     1
102
RTVSPropertyOp7
 70
     1
102
RTVSPropertyOp8
 70
     1
102
RTVSPropertyOp9
 70
     1
102
RTVSPropertyOp10
 70
     1
102
RTVSPropertyOp11
 70
     1
102
RTVSPropertyOp12
 70
     1
102
RTVSPropertyOp13
 70
     1
102
RTVSPropertyOp14
 70
     1
102
RTVSPropertyOp15
 70
     1
102
RTVSPropertyOp16
 70
     1
102
RTVSPropertyOp17
 70
     1
102
RTVSPropertyOp18
 70
     1
102
RTVSPropertyOp19
 70
     1
102
RTVSPropertyOp20
 70
     1
102
RTVSPropertyOp21
 70
     1
102
RTVSPropertyOp22
 70
     1
102
RTVSPropertyOp23
 70
     1
102
RTVSPropertyOp24
 70
     1
102
RTVSPropertyOp25
 70
     1
102
RTVSPropertyOp26
 70
     1
102
RTVSPropertyOp27
 70
     1
102
RTVSPropertyOp28
 70
     1
102
RTVSPropertyOp29
 70
     1
102
RTVSPropertyOp30
 70
     1
102
RTVSPropertyOp31
 70
     1
102
RTVSPropertyOp32
 70
     1
102
RTVSPropertyOp33
 70
     1
102
RTVSPropertyOp34
 70
     1
102
RTVSPropertyOp35
 70
     1
102
RTVSPropertyOp36
 70
     1
102
RTVSPropertyOp37
 70
     1
102
RTVSPropertyOp38
 70
     1
102
RTVSPropertyOp39
 70
     1
102
RTVSPropertyOp40
 70
     1
102
RTVSPropertyOp41
 70
     1
102
RTVSPropertyOp42
 70
     1
102
RTVSPropertyOp43
 70
     1
102
RTVSPropertyOp44
 70
     1
102
RTVSPropertyOp45
 70
     1
102
RTVSPropertyOp46
 70
     1
102
RTVSPropertyOp47
 70
     1
102
RTVSPropertyOp48
 70
     1
102
RTVSPropertyOp49
 70
     1
102
RTVSPropertyOp50
 70
     1
102
RTVSPropertyOp51
 70
     0
102
RTVSPropertyOp52
 70
     0
102
RTVSPropertyOp53
 70
     1
102
RTVSPropertyOp54
 70
     1
102
RTVSPropertyOp55
 70
     1
102
RTVSPropertyOp56
 70
     1
102
RTVSPropertyOp57
 70
     1
102
RTVSPropertyOp58
 70
     1
102
RTVSPropertyOp59
 70
     1
102
RTVSPropertyOp60
 70
     1
102
RTVSPropertyOp61
 70
     1
102
RTVSPropertyOp62
 70
     1
  0
XRECORD
  5
6B3
102
{ACAD_REACTORS
330
6B2
102
}
330
6B2
100
AcDbXrecord
280
     1
102
RTVSPost2010Prop28
280
     0
102
RTVSPost2010PropOp28
 70
     1
102
RTVSPost2010Prop29
280
     1
102
RTVSPost2010PropOp29
 70
     1
102
RTVSPost2010Prop30
280
     1
102
RTVSPost2010PropOp30
 70
     1
102
RTVSPost2010Prop31
280
     0
102
RTVSPost2010PropOp31
 70
     1
102
RTVSPost2010Prop32
280
     0
102
RTVSPost2010PropOp32
 70
     1
102
RTVSPost2010Prop33
280
     0
102
RTVSPost2010PropOp33
 70
     1
102
RTVSPost2010Prop34
280
     0
102
RTVSPost2010PropOp34
 70
     1
102
RTVSPost2010Prop35
280
     0
102
RTVSPost2010PropOp35
 70
     1
102
RTVSPost2010Prop36
280
     0
102
RTVSPost2010PropOp36
 70
     1
102
RTVSPost2010Prop37
 90
       50
102
RTVSPost2010PropOp37
 70
     1
102
RTVSPost2010Prop38
140
0.0
102
RTVSPost2010PropOp38
 70
     1
102
RTVSPost2010Prop39
140
1.0
102
RTVSPost2010PropOp39
 70
     1
102
RTVSPost2010Prop40
 90
        0
102
RTVSPost2010PropOp40
 70
     1
102
RTVSPost2010Prop41ColorIndex
 90
       18
102
RTVSPost2010Prop41ColorRGB
 90
        0
102
RTVSPost2010PropOp41
 70
     1
102
RTVSPost2010Prop42
 90
       50
102
RTVSPost2010PropOp42
 70
     1
102
RTVSPost2010Prop43
 90
        3
102
RTVSPost2010PropOp43
 70
     1
102
RTVSPost2010Prop44ColorIndex
 90
        5
102
RTVSPost2010Prop44ColorRGB
 90
      255
102
RTVSPost2010PropOp44
 70
     1
102
RTVSPost2010Prop45
280
     0
102
RTVSPost2010PropOp45
 70
     1
102
RTVSPost2010Prop46
 90
       50
102
RTVSPost2010PropOp46
 70
     1
102
RTVSPost2010Prop47
 90
       50
102
RTVSPost2010PropOp47
 70
     1
102
RTVSPost2010Prop48
 90
       50
102
RTVSPost2010PropOp48
 70
     1
102
RTVSPost2010Prop49
280
     0
102
RTVSPost2010PropOp49
 70
     1
102
RTVSPost2010Prop50
 90
       50
102
RTVSPost2010PropOp50
 70
     1
102
RTVSPost2010Prop51ColorIndex
 90
      256
102
RTVSPost2010Prop51ColorRGB
 90
-16777216
102
RTVSPost2010PropOp51
 70
     0
102
RTVSPost2010Prop52
140
1.0
102
RTVSPost2010PropOp52
 70
     0
102
RTVSPost2010Prop53
 90
        2
102
RTVSPost2010PropOp53
 70
     1
102
RTVSPost2010Prop54
  1
strokes_ogs.tif
102
RTVSPost2010PropOp54
 70
     1
102
RTVSPost2010Prop55
280
     0
102
RTVSPost2010PropOp55
 70
     1
102
RTVSPost2010Prop56
140
1.0
102
RTVSPost2010PropOp56
 70
     1
102
RTVSPost2010Prop57
140
1.0
102
RTVSPost2010PropOp57
 70
     1
102
RTVSPropertyOp0
 70
     1
102
RTVSPropertyOp1
 70
     1
102
RTVSPropertyOp2
 70
     1
102
RTVSPropertyOp3
 70
     1
102
RTVSPropertyOp4
 70
     1
102
RTVSPropertyOp5
 70
     1
102
RTVSPropertyOp6
 70
     1
102
RTVSPropertyOp7
 70
     1
102
RTVSPropertyOp8
 70
     1
102
RTVSPropertyOp9
 70
     1
102
RTVSPropertyOp10
 70
     1
102
RTVSPropertyOp11
 70
     1
102
RTVSPropertyOp12
 70
     1
102
RTVSPropertyOp13
 70
     1
102
RTVSPropertyOp14
 70
     1
102
RTVSPropertyOp15
 70
     1
102
RTVSPropertyOp16
 70
     1
102
RTVSPropertyOp17
 70
     1
102
RTVSPropertyOp18
 70
     1
102
RTVSPropertyOp19
 70
     1
102
RTVSPropertyOp20
 70
     1
102
RTVSPropertyOp21
 70
     1
102
RTVSPropertyOp22
 70
     1
102
RTVSPropertyOp23
 70
     1
102
RTVSPropertyOp24
 70
     1
102
RTVSPropertyOp25
 70
     1
102
RTVSPropertyOp26
 70
     1
102
RTVSPropertyOp27
 70
     1
102
RTVSPropertyOp28
 70
     1
102
RTVSPropertyOp29
 70
     1
102
RTVSPropertyOp30
 70
     1
102
RTVSPropertyOp31
 70
     1
102
RTVSPropertyOp32
 70
     1
102
RTVSPropertyOp33
 70
     1
102
RTVSPropertyOp34
 70
     1
102
RTVSPropertyOp35
 70
     1
102
RTVSPropertyOp36
 70
     1
102
RTVSPropertyOp37
 70
     1
102
RTVSPropertyOp38
 70
     1
102
RTVSPropertyOp39
 70
     1
102
RTVSPropertyOp40
 70
     1
102
RTVSPropertyOp41
 70
     1
102
RTVSPropertyOp42
 70
     1
102
RTVSPropertyOp43
 70
     1
102
RTVSPropertyOp44
 70
     1
102
RTVSPropertyOp45
 70
     1
102
RTVSPropertyOp46
 70
     1
102
RTVSPropertyOp47
 70
     1
102
RTVSPropertyOp48
 70
     1
102
RTVSPropertyOp49
 70
     1
102
RTVSPropertyOp50
 70
     1
102
RTVSPropertyOp51
 70
     0
102
RTVSPropertyOp52
 70
     0
102
RTVSPropertyOp53
 70
     1
102
RTVSPropertyOp54
 70
     1
102
RTVSPropertyOp55
 70
     1
102
RTVSPropertyOp56
 70
     1
102
RTVSPropertyOp57
 70
     1
102
RTVSPropertyOp58
 70
     1
102
RTVSPropertyOp59
 70
     1
102
RTVSPropertyOp60
 70
     1
102
RTVSPropertyOp61
 70
     1
102
RTVSPropertyOp62
 70
     1
  0
XRECORD
  5
6AD
102
{ACAD_REACTORS
330
6AC
102
}
330
6AC
100
AcDbXrecord
280
     1
102
RTVSPost2010Prop28
280
     0
102
RTVSPost2010PropOp28
 70
     1
102
RTVSPost2010Prop29
280
     1
102
RTVSPost2010PropOp29
 70
     1
102
RTVSPost2010Prop30
280
     1
102
RTVSPost2010PropOp30
 70
     1
102
RTVSPost2010Prop31
280
     0
102
RTVSPost2010PropOp31
 70
     1
102
RTVSPost2010Prop32
280
     0
102
RTVSPost2010PropOp32
 70
     1
102
RTVSPost2010Prop33
280
     0
102
RTVSPost2010PropOp33
 70
     1
102
RTVSPost2010Prop34
280
     0
102
RTVSPost2010PropOp34
 70
     1
102
RTVSPost2010Prop35
280
     0
102
RTVSPost2010PropOp35
 70
     1
102
RTVSPost2010Prop36
280
     0
102
RTVSPost2010PropOp36
 70
     1
102
RTVSPost2010Prop37
 90
       50
102
RTVSPost2010PropOp37
 70
     1
102
RTVSPost2010Prop38
140
0.0
102
RTVSPost2010PropOp38
 70
     1
102
RTVSPost2010Prop39
140
1.0
102
RTVSPost2010PropOp39
 70
     1
102
RTVSPost2010Prop40
 90
        0
102
RTVSPost2010PropOp40
 70
     1
102
RTVSPost2010Prop41ColorIndex
 90
       18
102
RTVSPost2010Prop41ColorRGB
 90
        0
102
RTVSPost2010PropOp41
 70
     1
102
RTVSPost2010Prop42
 90
       50
102
RTVSPost2010PropOp42
 70
     1
102
RTVSPost2010Prop43
 90
        3
102
RTVSPost2010PropOp43
 70
     1
102
RTVSPost2010Prop44ColorIndex
 90
        5
102
RTVSPost2010Prop44ColorRGB
 90
      255
102
RTVSPost2010PropOp44
 70
     1
102
RTVSPost2010Prop45
280
     0
102
RTVSPost2010PropOp45
 70
     1
102
RTVSPost2010Prop46
 90
       50
102
RTVSPost2010PropOp46
 70
     1
102
RTVSPost2010Prop47
 90
       50
102
RTVSPost2010PropOp47
 70
     1
102
RTVSPost2010Prop48
 90
       50
102
RTVSPost2010PropOp48
 70
     1
102
RTVSPost2010Prop49
280
     0
102
RTVSPost2010PropOp49
 70
     1
102
RTVSPost2010Prop50
 90
       50
102
RTVSPost2010PropOp50
 70
     1
102
RTVSPost2010Prop51ColorIndex
 90
      256
102
RTVSPost2010Prop51ColorRGB
 90
-16777216
102
RTVSPost2010PropOp51
 70
     0
102
RTVSPost2010Prop52
140
1.0
102
RTVSPost2010PropOp52
 70
     0
102
RTVSPost2010Prop53
 90
        2
102
RTVSPost2010PropOp53
 70
     1
102
RTVSPost2010Prop54
  1
strokes_ogs.tif
102
RTVSPost2010PropOp54
 70
     1
102
RTVSPost2010Prop55
280
     0
102
RTVSPost2010PropOp55
 70
     1
102
RTVSPost2010Prop56
140
1.0
102
RTVSPost2010PropOp56
 70
     1
102
RTVSPost2010Prop57
140
1.0
102
RTVSPost2010PropOp57
 70
     1
102
RTVSPropertyOp0
 70
     1
102
RTVSPropertyOp1
 70
     1
102
RTVSPropertyOp2
 70
     1
102
RTVSPropertyOp3
 70
     1
102
RTVSPropertyOp4
 70
     1
102
RTVSPropertyOp5
 70
     1
102
RTVSPropertyOp6
 70
     1
102
RTVSPropertyOp7
 70
     1
102
RTVSPropertyOp8
 70
     1
102
RTVSPropertyOp9
 70
     1
102
RTVSPropertyOp10
 70
     1
102
RTVSPropertyOp11
 70
     1
102
RTVSPropertyOp12
 70
     1
102
RTVSPropertyOp13
 70
     1
102
RTVSPropertyOp14
 70
     1
102
RTVSPropertyOp15
 70
     1
102
RTVSPropertyOp16
 70
     1
102
RTVSPropertyOp17
 70
     1
102
RTVSPropertyOp18
 70
     1
102
RTVSPropertyOp19
 70
     1
102
RTVSPropertyOp20
 70
     1
102
RTVSPropertyOp21
 70
     1
102
RTVSPropertyOp22
 70
     1
102
RTVSPropertyOp23
 70
     1
102
RTVSPropertyOp24
 70
     1
102
RTVSPropertyOp25
 70
     1
102
RTVSPropertyOp26
 70
     1
102
RTVSPropertyOp27
 70
     1
102
RTVSPropertyOp28
 70
     1
102
RTVSPropertyOp29
 70
     1
102
RTVSPropertyOp30
 70
     1
102
RTVSPropertyOp31
 70
     1
102
RTVSPropertyOp32
 70
     1
102
RTVSPropertyOp33
 70
     1
102
RTVSPropertyOp34
 70
     1
102
RTVSPropertyOp35
 70
     1
102
RTVSPropertyOp36
 70
     1
102
RTVSPropertyOp37
 70
     1
102
RTVSPropertyOp38
 70
     1
102
RTVSPropertyOp39
 70
     1
102
RTVSPropertyOp40
 70
     1
102
RTVSPropertyOp41
 70
     1
102
RTVSPropertyOp42
 70
     1
102
RTVSPropertyOp43
 70
     1
102
RTVSPropertyOp44
 70
     1
102
RTVSPropertyOp45
 70
     1
102
RTVSPropertyOp46
 70
     1
102
RTVSPropertyOp47
 70
     1
102
RTVSPropertyOp48
 70
     1
102
RTVSPropertyOp49
 70
     1
102
RTVSPropertyOp50
 70
     1
102
RTVSPropertyOp51
 70
     0
102
RTVSPropertyOp52
 70
     0
102
RTVSPropertyOp53
 70
     1
102
RTVSPropertyOp54
 70
     1
102
RTVSPropertyOp55
 70
     1
102
RTVSPropertyOp56
 70
     1
102
RTVSPropertyOp57
 70
     1
102
RTVSPropertyOp58
 70
     1
102
RTVSPropertyOp59
 70
     1
102
RTVSPropertyOp60
 70
     1
102
RTVSPropertyOp61
 70
     1
102
RTVSPropertyOp62
 70
     1
  0
XRECORD
  5
6AF
102
{ACAD_REACTORS
330
6AE
102
}
330
6AE
100
AcDbXrecord
280
     1
102
RTVSPost2010Prop28
280
     0
102
RTVSPost2010PropOp28
 70
     1
102
RTVSPost2010Prop29
280
     1
102
RTVSPost2010PropOp29
 70
     1
102
RTVSPost2010Prop30
280
     1
102
RTVSPost2010PropOp30
 70
     1
102
RTVSPost2010Prop31
280
     0
102
RTVSPost2010PropOp31
 70
     1
102
RTVSPost2010Prop32
280
     0
102
RTVSPost2010PropOp32
 70
     1
102
RTVSPost2010Prop33
280
     0
102
RTVSPost2010PropOp33
 70
     1
102
RTVSPost2010Prop34
280
     0
102
RTVSPost2010PropOp34
 70
     1
102
RTVSPost2010Prop35
280
     0
102
RTVSPost2010PropOp35
 70
     1
102
RTVSPost2010Prop36
280
     0
102
RTVSPost2010PropOp36
 70
     1
102
RTVSPost2010Prop37
 90
       50
102
RTVSPost2010PropOp37
 70
     1
102
RTVSPost2010Prop38
140
0.0
102
RTVSPost2010PropOp38
 70
     1
102
RTVSPost2010Prop39
140
1.0
102
RTVSPost2010PropOp39
 70
     1
102
RTVSPost2010Prop40
 90
        0
102
RTVSPost2010PropOp40
 70
     1
102
RTVSPost2010Prop41ColorIndex
 90
       18
102
RTVSPost2010Prop41ColorRGB
 90
        0
102
RTVSPost2010PropOp41
 70
     1
102
RTVSPost2010Prop42
 90
       50
102
RTVSPost2010PropOp42
 70
     1
102
RTVSPost2010Prop43
 90
        3
102
RTVSPost2010PropOp43
 70
     1
102
RTVSPost2010Prop44ColorIndex
 90
        5
102
RTVSPost2010Prop44ColorRGB
 90
      255
102
RTVSPost2010PropOp44
 70
     1
102
RTVSPost2010Prop45
280
     0
102
RTVSPost2010PropOp45
 70
     1
102
RTVSPost2010Prop46
 90
       50
102
RTVSPost2010PropOp46
 70
     1
102
RTVSPost2010Prop47
 90
       50
102
RTVSPost2010PropOp47
 70
     1
102
RTVSPost2010Prop48
 90
       50
102
RTVSPost2010PropOp48
 70
     1
102
RTVSPost2010Prop49
280
     0
102
RTVSPost2010PropOp49
 70
     1
102
RTVSPost2010Prop50
 90
       50
102
RTVSPost2010PropOp50
 70
     1
102
RTVSPost2010Prop51ColorIndex
 90
      256
102
RTVSPost2010Prop51ColorRGB
 90
-16777216
102
RTVSPost2010PropOp51
 70
     0
102
RTVSPost2010Prop52
140
1.0
102
RTVSPost2010PropOp52
 70
     0
102
RTVSPost2010Prop53
 90
        2
102
RTVSPost2010PropOp53
 70
     1
102
RTVSPost2010Prop54
  1
strokes_ogs.tif
102
RTVSPost2010PropOp54
 70
     1
102
RTVSPost2010Prop55
280
     0
102
RTVSPost2010PropOp55
 70
     1
102
RTVSPost2010Prop56
140
1.0
102
RTVSPost2010PropOp56
 70
     1
102
RTVSPost2010Prop57
140
1.0
102
RTVSPost2010PropOp57
 70
     1
102
RTVSPropertyOp0
 70
     1
102
RTVSPropertyOp1
 70
     1
102
RTVSPropertyOp2
 70
     1
102
RTVSPropertyOp3
 70
     1
102
RTVSPropertyOp4
 70
     1
102
RTVSPropertyOp5
 70
     1
102
RTVSPropertyOp6
 70
     1
102
RTVSPropertyOp7
 70
     1
102
RTVSPropertyOp8
 70
     1
102
RTVSPropertyOp9
 70
     1
102
RTVSPropertyOp10
 70
     1
102
RTVSPropertyOp11
 70
     1
102
RTVSPropertyOp12
 70
     1
102
RTVSPropertyOp13
 70
     1
102
RTVSPropertyOp14
 70
     1
102
RTVSPropertyOp15
 70
     1
102
RTVSPropertyOp16
 70
     1
102
RTVSPropertyOp17
 70
     1
102
RTVSPropertyOp18
 70
     1
102
RTVSPropertyOp19
 70
     1
102
RTVSPropertyOp20
 70
     1
102
RTVSPropertyOp21
 70
     1
102
RTVSPropertyOp22
 70
     1
102
RTVSPropertyOp23
 70
     1
102
RTVSPropertyOp24
 70
     1
102
RTVSPropertyOp25
 70
     1
102
RTVSPropertyOp26
 70
     1
102
RTVSPropertyOp27
 70
     1
102
RTVSPropertyOp28
 70
     1
102
RTVSPropertyOp29
 70
     1
102
RTVSPropertyOp30
 70
     1
102
RTVSPropertyOp31
 70
     1
102
RTVSPropertyOp32
 70
     1
102
RTVSPropertyOp33
 70
     1
102
RTVSPropertyOp34
 70
     1
102
RTVSPropertyOp35
 70
     1
102
RTVSPropertyOp36
 70
     1
102
RTVSPropertyOp37
 70
     1
102
RTVSPropertyOp38
 70
     1
102
RTVSPropertyOp39
 70
     1
102
RTVSPropertyOp40
 70
     1
102
RTVSPropertyOp41
 70
     1
102
RTVSPropertyOp42
 70
     1
102
RTVSPropertyOp43
 70
     1
102
RTVSPropertyOp44
 70
     1
102
RTVSPropertyOp45
 70
     1
102
RTVSPropertyOp46
 70
     1
102
RTVSPropertyOp47
 70
     1
102
RTVSPropertyOp48
 70
     1
102
RTVSPropertyOp49
 70
     1
102
RTVSPropertyOp50
 70
     1
102
RTVSPropertyOp51
 70
     0
102
RTVSPropertyOp52
 70
     0
102
RTVSPropertyOp53
 70
     1
102
RTVSPropertyOp54
 70
     1
102
RTVSPropertyOp55
 70
     1
102
RTVSPropertyOp56
 70
     1
102
RTVSPropertyOp57
 70
     1
102
RTVSPropertyOp58
 70
     1
102
RTVSPropertyOp59
 70
     1
102
RTVSPropertyOp60
 70
     1
102
RTVSPropertyOp61
 70
     1
102
RTVSPropertyOp62
 70
     1
  0
XRECORD
  5
6A5
102
{ACAD_REACTORS
330
6A4
102
}
330
6A4
100
AcDbXrecord
280
     1
102
RTVSPost2010Prop28
280
     0
102
RTVSPost2010PropOp28
 70
     1
102
RTVSPost2010Prop29
280
     1
102
RTVSPost2010PropOp29
 70
     1
102
RTVSPost2010Prop30
280
     1
102
RTVSPost2010PropOp30
 70
     1
102
RTVSPost2010Prop31
280
     0
102
RTVSPost2010PropOp31
 70
     1
102
RTVSPost2010Prop32
280
     0
102
RTVSPost2010PropOp32
 70
     1
102
RTVSPost2010Prop33
280
     0
102
RTVSPost2010PropOp33
 70
     1
102
RTVSPost2010Prop34
280
     0
102
RTVSPost2010PropOp34
 70
     1
102
RTVSPost2010Prop35
280
     0
102
RTVSPost2010PropOp35
 70
     1
102
RTVSPost2010Prop36
280
     0
102
RTVSPost2010PropOp36
 70
     1
102
RTVSPost2010Prop37
 90
       50
102
RTVSPost2010PropOp37
 70
     1
102
RTVSPost2010Prop38
140
0.0
102
RTVSPost2010PropOp38
 70
     1
102
RTVSPost2010Prop39
140
1.0
102
RTVSPost2010PropOp39
 70
     1
102
RTVSPost2010Prop40
 90
        0
102
RTVSPost2010PropOp40
 70
     1
102
RTVSPost2010Prop41ColorIndex
 90
       18
102
RTVSPost2010Prop41ColorRGB
 90
        0
102
RTVSPost2010PropOp41
 70
     1
102
RTVSPost2010Prop42
 90
       50
102
RTVSPost2010PropOp42
 70
     1
102
RTVSPost2010Prop43
 90
        3
102
RTVSPost2010PropOp43
 70
     1
102
RTVSPost2010Prop44ColorIndex
 90
        5
102
RTVSPost2010Prop44ColorRGB
 90
      255
102
RTVSPost2010PropOp44
 70
     1
102
RTVSPost2010Prop45
280
     0
102
RTVSPost2010PropOp45
 70
     1
102
RTVSPost2010Prop46
 90
       50
102
RTVSPost2010PropOp46
 70
     1
102
RTVSPost2010Prop47
 90
       50
102
RTVSPost2010PropOp47
 70
     1
102
RTVSPost2010Prop48
 90
       50
102
RTVSPost2010PropOp48
 70
     1
102
RTVSPost2010Prop49
280
     0
102
RTVSPost2010PropOp49
 70
     1
102
RTVSPost2010Prop50
 90
       50
102
RTVSPost2010PropOp50
 70
     1
102
RTVSPost2010Prop51ColorIndex
 90
      256
102
RTVSPost2010Prop51ColorRGB
 90
-16777216
102
RTVSPost2010PropOp51
 70
     0
102
RTVSPost2010Prop52
140
1.0
102
RTVSPost2010PropOp52
 70
     0
102
RTVSPost2010Prop53
 90
        2
102
RTVSPost2010PropOp53
 70
     1
102
RTVSPost2010Prop54
  1
strokes_ogs.tif
102
RTVSPost2010PropOp54
 70
     1
102
RTVSPost2010Prop55
280
     0
102
RTVSPost2010PropOp55
 70
     1
102
RTVSPost2010Prop56
140
1.0
102
RTVSPost2010PropOp56
 70
     1
102
RTVSPost2010Prop57
140
1.0
102
RTVSPost2010PropOp57
 70
     1
102
RTVSPropertyOp0
 70
     1
102
RTVSPropertyOp1
 70
     1
102
RTVSPropertyOp2
 70
     1
102
RTVSPropertyOp3
 70
     1
102
RTVSPropertyOp4
 70
     1
102
RTVSPropertyOp5
 70
     1
102
RTVSPropertyOp6
 70
     1
102
RTVSPropertyOp7
 70
     1
102
RTVSPropertyOp8
 70
     1
102
RTVSPropertyOp9
 70
     1
102
RTVSPropertyOp10
 70
     1
102
RTVSPropertyOp11
 70
     1
102
RTVSPropertyOp12
 70
     1
102
RTVSPropertyOp13
 70
     1
102
RTVSPropertyOp14
 70
     1
102
RTVSPropertyOp15
 70
     1
102
RTVSPropertyOp16
 70
     1
102
RTVSPropertyOp17
 70
     1
102
RTVSPropertyOp18
 70
     1
102
RTVSPropertyOp19
 70
     1
102
RTVSPropertyOp20
 70
     1
102
RTVSPropertyOp21
 70
     1
102
RTVSPropertyOp22
 70
     1
102
RTVSPropertyOp23
 70
     1
102
RTVSPropertyOp24
 70
     1
102
RTVSPropertyOp25
 70
     1
102
RTVSPropertyOp26
 70
     1
102
RTVSPropertyOp27
 70
     1
102
RTVSPropertyOp28
 70
     1
102
RTVSPropertyOp29
 70
     1
102
RTVSPropertyOp30
 70
     1
102
RTVSPropertyOp31
 70
     1
102
RTVSPropertyOp32
 70
     1
102
RTVSPropertyOp33
 70
     1
102
RTVSPropertyOp34
 70
     1
102
RTVSPropertyOp35
 70
     1
102
RTVSPropertyOp36
 70
     1
102
RTVSPropertyOp37
 70
     1
102
RTVSPropertyOp38
 70
     1
102
RTVSPropertyOp39
 70
     1
102
RTVSPropertyOp40
 70
     1
102
RTVSPropertyOp41
 70
     1
102
RTVSPropertyOp42
 70
     1
102
RTVSPropertyOp43
 70
     1
102
RTVSPropertyOp44
 70
     1
102
RTVSPropertyOp45
 70
     1
102
RTVSPropertyOp46
 70
     1
102
RTVSPropertyOp47
 70
     1
102
RTVSPropertyOp48
 70
     1
102
RTVSPropertyOp49
 70
     1
102
RTVSPropertyOp50
 70
     1
102
RTVSPropertyOp51
 70
     0
102
RTVSPropertyOp52
 70
     0
102
RTVSPropertyOp53
 70
     1
102
RTVSPropertyOp54
 70
     1
102
RTVSPropertyOp55
 70
     1
102
RTVSPropertyOp56
 70
     1
102
RTVSPropertyOp57
 70
     1
102
RTVSPropertyOp58
 70
     1
102
RTVSPropertyOp59
 70
     1
102
RTVSPropertyOp60
 70
     1
102
RTVSPropertyOp61
 70
     1
102
RTVSPropertyOp62
 70
     1
  0
XRECORD
  5
699
102
{ACAD_REACTORS
330
698
102
}
330
698
100
AcDbXrecord
280
     1
102
RTVSPost2010Prop28
280
     0
102
RTVSPost2010PropOp28
 70
     1
102
RTVSPost2010Prop29
280
     1
102
RTVSPost2010PropOp29
 70
     1
102
RTVSPost2010Prop30
280
     1
102
RTVSPost2010PropOp30
 70
     1
102
RTVSPost2010Prop31
280
     0
102
RTVSPost2010PropOp31
 70
     1
102
RTVSPost2010Prop32
280
     0
102
RTVSPost2010PropOp32
 70
     1
102
RTVSPost2010Prop33
280
     0
102
RTVSPost2010PropOp33
 70
     1
102
RTVSPost2010Prop34
280
     0
102
RTVSPost2010PropOp34
 70
     1
102
RTVSPost2010Prop35
280
     0
102
RTVSPost2010PropOp35
 70
     1
102
RTVSPost2010Prop36
280
     0
102
RTVSPost2010PropOp36
 70
     1
102
RTVSPost2010Prop37
 90
       50
102
RTVSPost2010PropOp37
 70
     1
102
RTVSPost2010Prop38
140
0.0
102
RTVSPost2010PropOp38
 70
     1
102
RTVSPost2010Prop39
140
1.0
102
RTVSPost2010PropOp39
 70
     1
102
RTVSPost2010Prop40
 90
        0
102
RTVSPost2010PropOp40
 70
     1
102
RTVSPost2010Prop41ColorIndex
 90
       18
102
RTVSPost2010Prop41ColorRGB
 90
        0
102
RTVSPost2010PropOp41
 70
     1
102
RTVSPost2010Prop42
 90
       50
102
RTVSPost2010PropOp42
 70
     1
102
RTVSPost2010Prop43
 90
        3
102
RTVSPost2010PropOp43
 70
     1
102
RTVSPost2010Prop44ColorIndex
 90
        5
102
RTVSPost2010Prop44ColorRGB
 90
      255
102
RTVSPost2010PropOp44
 70
     1
102
RTVSPost2010Prop45
280
     0
102
RTVSPost2010PropOp45
 70
     1
102
RTVSPost2010Prop46
 90
       50
102
RTVSPost2010PropOp46
 70
     1
102
RTVSPost2010Prop47
 90
       50
102
RTVSPost2010PropOp47
 70
     1
102
RTVSPost2010Prop48
 90
       50
102
RTVSPost2010PropOp48
 70
     1
102
RTVSPost2010Prop49
280
     0
102
RTVSPost2010PropOp49
 70
     1
102
RTVSPost2010Prop50
 90
       50
102
RTVSPost2010PropOp50
 70
     1
102
RTVSPost2010Prop51ColorIndex
 90
      256
102
RTVSPost2010Prop51ColorRGB
 90
-16777216
102
RTVSPost2010PropOp51
 70
     0
102
RTVSPost2010Prop52
140
1.0
102
RTVSPost2010PropOp52
 70
     0
102
RTVSPost2010Prop53
 90
        2
102
RTVSPost2010PropOp53
 70
     1
102
RTVSPost2010Prop54
  1
strokes_ogs.tif
102
RTVSPost2010PropOp54
 70
     1
102
RTVSPost2010Prop55
280
     0
102
RTVSPost2010PropOp55
 70
     1
102
RTVSPost2010Prop56
140
1.0
102
RTVSPost2010PropOp56
 70
     1
102
RTVSPost2010Prop57
140
1.0
102
RTVSPost2010PropOp57
 70
     1
102
RTVSPropertyOp0
 70
     1
102
RTVSPropertyOp1
 70
     1
102
RTVSPropertyOp2
 70
     1
102
RTVSPropertyOp3
 70
     1
102
RTVSPropertyOp4
 70
     1
102
RTVSPropertyOp5
 70
     1
102
RTVSPropertyOp6
 70
     1
102
RTVSPropertyOp7
 70
     1
102
RTVSPropertyOp8
 70
     1
102
RTVSPropertyOp9
 70
     1
102
RTVSPropertyOp10
 70
     1
102
RTVSPropertyOp11
 70
     1
102
RTVSPropertyOp12
 70
     1
102
RTVSPropertyOp13
 70
     1
102
RTVSPropertyOp14
 70
     1
102
RTVSPropertyOp15
 70
     1
102
RTVSPropertyOp16
 70
     1
102
RTVSPropertyOp17
 70
     1
102
RTVSPropertyOp18
 70
     1
102
RTVSPropertyOp19
 70
     1
102
RTVSPropertyOp20
 70
     1
102
RTVSPropertyOp21
 70
     1
102
RTVSPropertyOp22
 70
     1
102
RTVSPropertyOp23
 70
     1
102
RTVSPropertyOp24
 70
     1
102
RTVSPropertyOp25
 70
     1
102
RTVSPropertyOp26
 70
     1
102
RTVSPropertyOp27
 70
     1
102
RTVSPropertyOp28
 70
     1
102
RTVSPropertyOp29
 70
     1
102
RTVSPropertyOp30
 70
     1
102
RTVSPropertyOp31
 70
     1
102
RTVSPropertyOp32
 70
     1
102
RTVSPropertyOp33
 70
     1
102
RTVSPropertyOp34
 70
     1
102
RTVSPropertyOp35
 70
     1
102
RTVSPropertyOp36
 70
     1
102
RTVSPropertyOp37
 70
     1
102
RTVSPropertyOp38
 70
     1
102
RTVSPropertyOp39
 70
     1
102
RTVSPropertyOp40
 70
     1
102
RTVSPropertyOp41
 70
     1
102
RTVSPropertyOp42
 70
     1
102
RTVSPropertyOp43
 70
     1
102
RTVSPropertyOp44
 70
     1
102
RTVSPropertyOp45
 70
     1
102
RTVSPropertyOp46
 70
     1
102
RTVSPropertyOp47
 70
     1
102
RTVSPropertyOp48
 70
     1
102
RTVSPropertyOp49
 70
     1
102
RTVSPropertyOp50
 70
     1
102
RTVSPropertyOp51
 70
     0
102
RTVSPropertyOp52
 70
     0
102
RTVSPropertyOp53
 70
     1
102
RTVSPropertyOp54
 70
     1
102
RTVSPropertyOp55
 70
     1
102
RTVSPropertyOp56
 70
     1
102
RTVSPropertyOp57
 70
     1
102
RTVSPropertyOp58
 70
     1
102
RTVSPropertyOp59
 70
     1
102
RTVSPropertyOp60
 70
     1
102
RTVSPropertyOp61
 70
     1
102
RTVSPropertyOp62
 70
     1
  0
XRECORD
  5
6B1
102
{ACAD_REACTORS
330
6B0
102
}
330
6B0
100
AcDbXrecord
280
     1
102
RTVSPost2010Prop28
280
     0
102
RTVSPost2010PropOp28
 70
     1
102
RTVSPost2010Prop29
280
     1
102
RTVSPost2010PropOp29
 70
     1
102
RTVSPost2010Prop30
280
     1
102
RTVSPost2010PropOp30
 70
     1
102
RTVSPost2010Prop31
280
     0
102
RTVSPost2010PropOp31
 70
     1
102
RTVSPost2010Prop32
280
     0
102
RTVSPost2010PropOp32
 70
     1
102
RTVSPost2010Prop33
280
     0
102
RTVSPost2010PropOp33
 70
     1
102
RTVSPost2010Prop34
280
     0
102
RTVSPost2010PropOp34
 70
     1
102
RTVSPost2010Prop35
280
     0
102
RTVSPost2010PropOp35
 70
     1
102
RTVSPost2010Prop36
280
     0
102
RTVSPost2010PropOp36
 70
     1
102
RTVSPost2010Prop37
 90
       50
102
RTVSPost2010PropOp37
 70
     1
102
RTVSPost2010Prop38
140
0.0
102
RTVSPost2010PropOp38
 70
     1
102
RTVSPost2010Prop39
140
1.0
102
RTVSPost2010PropOp39
 70
     1
102
RTVSPost2010Prop40
 90
        0
102
RTVSPost2010PropOp40
 70
     1
102
RTVSPost2010Prop41ColorIndex
 90
       18
102
RTVSPost2010Prop41ColorRGB
 90
        0
102
RTVSPost2010PropOp41
 70
     1
102
RTVSPost2010Prop42
 90
       50
102
RTVSPost2010PropOp42
 70
     1
102
RTVSPost2010Prop43
 90
        3
102
RTVSPost2010PropOp43
 70
     1
102
RTVSPost2010Prop44ColorIndex
 90
        5
102
RTVSPost2010Prop44ColorRGB
 90
      255
102
RTVSPost2010PropOp44
 70
     1
102
RTVSPost2010Prop45
280
     0
102
RTVSPost2010PropOp45
 70
     1
102
RTVSPost2010Prop46
 90
       50
102
RTVSPost2010PropOp46
 70
     1
102
RTVSPost2010Prop47
 90
       50
102
RTVSPost2010PropOp47
 70
     1
102
RTVSPost2010Prop48
 90
       50
102
RTVSPost2010PropOp48
 70
     1
102
RTVSPost2010Prop49
280
     0
102
RTVSPost2010PropOp49
 70
     1
102
RTVSPost2010Prop50
 90
       50
102
RTVSPost2010PropOp50
 70
     1
102
RTVSPost2010Prop51ColorIndex
 90
      256
102
RTVSPost2010Prop51ColorRGB
 90
-16777216
102
RTVSPost2010PropOp51
 70
     0
102
RTVSPost2010Prop52
140
1.0
102
RTVSPost2010PropOp52
 70
     0
102
RTVSPost2010Prop53
 90
        2
102
RTVSPost2010PropOp53
 70
     1
102
RTVSPost2010Prop54
  1
strokes_ogs.tif
102
RTVSPost2010PropOp54
 70
     1
102
RTVSPost2010Prop55
280
     0
102
RTVSPost2010PropOp55
 70
     1
102
RTVSPost2010Prop56
140
1.0
102
RTVSPost2010PropOp56
 70
     1
102
RTVSPost2010Prop57
140
1.0
102
RTVSPost2010PropOp57
 70
     1
102
RTVSPropertyOp0
 70
     1
102
RTVSPropertyOp1
 70
     1
102
RTVSPropertyOp2
 70
     1
102
RTVSPropertyOp3
 70
     1
102
RTVSPropertyOp4
 70
     1
102
RTVSPropertyOp5
 70
     1
102
RTVSPropertyOp6
 70
     1
102
RTVSPropertyOp7
 70
     1
102
RTVSPropertyOp8
 70
     1
102
RTVSPropertyOp9
 70
     1
102
RTVSPropertyOp10
 70
     1
102
RTVSPropertyOp11
 70
     1
102
RTVSPropertyOp12
 70
     1
102
RTVSPropertyOp13
 70
     1
102
RTVSPropertyOp14
 70
     1
102
RTVSPropertyOp15
 70
     1
102
RTVSPropertyOp16
 70
     1
102
RTVSPropertyOp17
 70
     1
102
RTVSPropertyOp18
 70
     1
102
RTVSPropertyOp19
 70
     1
102
RTVSPropertyOp20
 70
     1
102
RTVSPropertyOp21
 70
     1
102
RTVSPropertyOp22
 70
     1
102
RTVSPropertyOp23
 70
     1
102
RTVSPropertyOp24
 70
     1
102
RTVSPropertyOp25
 70
     1
102
RTVSPropertyOp26
 70
     1
102
RTVSPropertyOp27
 70
     1
102
RTVSPropertyOp28
 70
     1
102
RTVSPropertyOp29
 70
     1
102
RTVSPropertyOp30
 70
     1
102
RTVSPropertyOp31
 70
     1
102
RTVSPropertyOp32
 70
     1
102
RTVSPropertyOp33
 70
     1
102
RTVSPropertyOp34
 70
     1
102
RTVSPropertyOp35
 70
     1
102
RTVSPropertyOp36
 70
     1
102
RTVSPropertyOp37
 70
     1
102
RTVSPropertyOp38
 70
     1
102
RTVSPropertyOp39
 70
     1
102
RTVSPropertyOp40
 70
     1
102
RTVSPropertyOp41
 70
     1
102
RTVSPropertyOp42
 70
     1
102
RTVSPropertyOp43
 70
     1
102
RTVSPropertyOp44
 70
     1
102
RTVSPropertyOp45
 70
     1
102
RTVSPropertyOp46
 70
     1
102
RTVSPropertyOp47
 70
     1
102
RTVSPropertyOp48
 70
     1
102
RTVSPropertyOp49
 70
     1
102
RTVSPropertyOp50
 70
     1
102
RTVSPropertyOp51
 70
     0
102
RTVSPropertyOp52
 70
     0
102
RTVSPropertyOp53
 70
     1
102
RTVSPropertyOp54
 70
     1
102
RTVSPropertyOp55
 70
     1
102
RTVSPropertyOp56
 70
     1
102
RTVSPropertyOp57
 70
     1
102
RTVSPropertyOp58
 70
     1
102
RTVSPropertyOp59
 70
     1
102
RTVSPropertyOp60
 70
     1
102
RTVSPropertyOp61
 70
     1
102
RTVSPropertyOp62
 70
     1
  0
ENDSEC
  0
EOF
