0
SECTION
2
HEADER
9
$ACADVER
1
AC1015
9
$DWGCODEPAGE
3
ANSI_1252
9
$HANDSEED
5
323
9
$ANGBASE
50
0
9
$ANGDIR
70
0
9
$ATTMODE
70
1
9
$AUNITS
70
0
9
$AUPREC
70
0
9
$CECOLOR
62
256
9
$CELTSCALE
40
1
9
$CELTYPE
6
ByLayer
9
$CELWEIGHT
370
18
9
$CLAYER
8
0
9
$CMLJUST
70
0
9
$CMLSCALE
40
1
9
$CMLSTYLE
2
Standard
9
$DIMSTYLE
2
Standard
9
$TEXTSIZE
40
0.2
9
$TEXTSTYLE
7
Standard
9
$LUNITS
70
2
9
$LUPREC
70
4
9
$EXTNAMES
290
1
9
$INSUNITS
70
4
9
$LTSCALE
40
1
9
$LWDISPLAY
290
1
9
$PDMODE
70
0
9
$PDSIZE
40
0
9
$PLINEGEN
70
0
0
ENDSEC
0
SECTION
2
CLASSES
0
CLASS
1
RASTERVARIABLES
2
AcDbRasterVariables
3
ISM
90
0
280
0
281
0
0
ENDSEC
0
SECTION
2
TABLES
0
TABLE
2
VPORT
5
319
100
AcDbSymbolTable
0
VPORT
5
1
100
AcDbSymbolTableRecord
100
AcDbViewportTableRecord
2
*Active
70
0
10
0
20
0
11
1
21
1
12
-1
22
1
13
0
23
0
14
0.5
24
0.5
15
10
25
10
16
0
26
0
36
1
17
0
27
0
37
0
0
ENDTAB
0
TABLE
2
LTYPE
5
31a
100
AcDbSymbolTable
0
LTYPE
5
14
100
AcDbSymbolTableRecord
100
AcDbLinetypeTableRecord
70
0
2
ByBlock
3

72
65
73
0
40
0
0
LTYPE
5
15
100
AcDbSymbolTableRecord
100
AcDbLinetypeTableRecord
70
0
2
ByLayer
3

72
65
73
0
40
0
0
LTYPE
5
16
100
AcDbSymbolTableRecord
100
AcDbLinetypeTableRecord
70
0
2
Continuous
3
Solid line
72
65
73
0
40
0
0
LTYPE
5
6E
100
AcDbSymbolTableRecord
100
AcDbLinetypeTableRecord
70
0
2
CENTER
3
____ _ ____ _ ____ _ ____
72
65
73
4
40
47.5
49
22
74
0
49
-8.5
74
0
49
8.5
74
0
49
-8.5
74
0
0
LTYPE
5
6F
100
AcDbSymbolTableRecord
100
AcDbLinetypeTableRecord
70
0
2
DASHED
3
__ __ __ __ __ __ __ __ __
72
65
73
2
40
25.72
49
12.86
74
0
49
-12.86
74
0
0
ENDTAB
0
TABLE
2
LAYER
5
31b
100
AcDbSymbolTable
0
LAYER
5
10
100
AcDbSymbolTableRecord
100
AcDbLayerTableRecord
2
0
70
0
62
7
6
Continuous
290
1
370
-3
390
0
0
LAYER
5
71
100
AcDbSymbolTableRecord
100
AcDbLayerTableRecord
2
80
70
0
62
-6
6
Continuous
290
1
370
-3
390
0
0
LAYER
5
73
100
AcDbSymbolTableRecord
100
AcDbLayerTableRecord
2
81
70
0
62
-3
6
Continuous
290
1
370
-3
390
0
0
LAYER
5
75
100
AcDbSymbolTableRecord
100
AcDbLayerTableRecord
2
1
70
0
62
4
6
Continuous
290
1
370
-3
390
0
0
LAYER
5
81
100
AcDbSymbolTableRecord
100
AcDbLayerTableRecord
2
4
70
0
62
-2
6
CENTER
290
1
370
-3
390
0
0
LAYER
5
CD
100
AcDbSymbolTableRecord
100
AcDbLayerTableRecord
2
2
70
0
62
7
6
Continuous
290
1
370
-3
390
0
0
LAYER
5
229
100
AcDbSymbolTableRecord
100
AcDbLayerTableRecord
2
Defpoints
70
0
62
7
6
Continuous
290
0
370
-3
390
0
0
LAYER
5
305
100
AcDbSymbolTableRecord
100
AcDbLayerTableRecord
2
SK4
70
0
62
2
6
CENTER
290
1
370
-3
390
0
0
LAYER
5
306
100
AcDbSymbolTableRecord
100
AcDbLayerTableRecord
2
SK1
70
0
62
4
6
Continuous
290
1
370
-3
390
0
0
LAYER
5
307
100
AcDbSymbolTableRecord
100
AcDbLayerTableRecord
2
SK2
70
0
62
7
6
Continuous
290
1
370
-3
390
0
0
LAYER
5
308
100
AcDbSymbolTableRecord
100
AcDbLayerTableRecord
2
SK6
70
0
62
5
6
Continuous
290
1
370
-3
390
0
0
ENDTAB
0
TABLE
2
STYLE
5
31c
100
AcDbSymbolTable
0
STYLE
5
11
100
AcDbSymbolTableRecord
100
AcDbTextStyleTableRecord
2
Standard
3
txt
70
0
71
0
40
0
41
1
42
0
50
0
0
STYLE
5
20F
100
AcDbSymbolTableRecord
100
AcDbTextStyleTableRecord
2
iso_b_vert
3
simplex.shx
70
0
71
0
40
0
41
1
42
0
50
0
0
STYLE
5
210
100
AcDbSymbolTableRecord
100
AcDbTextStyleTableRecord
2
DWGDirectTextStyle
3
simplex
70
0
71
0
40
0
41
1
42
0
50
0
0
ENDTAB
0
TABLE
2
DIMSTYLE
5
31d
100
AcDbSymbolTable
100
AcDbDimStyleTable
0
DIMSTYLE
105
27
100
AcDbSymbolTableRecord
100
AcDbDimStyleTableRecord
2
Standard
70
0
3
<>
41
0.18
42
0.0625
44
0.18
140
0.18
147
0.09
73
0
74
0
77
1
271
2
275
0
278
52
280
0
340
11
0
ENDTAB
0
TABLE
2
VIEW
5
31e
100
AcDbSymbolTable
0
ENDTAB
0
TABLE
2
UCS
5
31f
100
AcDbSymbolTable
0
ENDTAB
0
TABLE
2
APPID
5
320
100
AcDbSymbolTable
0
APPID
5
12
100
AcDbSymbolTableRecord
100
AcDbRegAppTableRecord
2
ACAD
70
0
0
APPID
5
225
100
AcDbSymbolTableRecord
100
AcDbRegAppTableRecord
2
ACAD_DSTYLE_DIMBREAK
70
0
0
APPID
5
2C4
100
AcDbSymbolTableRecord
100
AcDbRegAppTableRecord
2
ACAD_DSTYLE_DIM_LINETYPE
70
0
0
APPID
5
2C5
100
AcDbSymbolTableRecord
100
AcDbRegAppTableRecord
2
ACAD_DSTYLE_DIM_EXT1_LINETYPE
70
0
0
APPID
5
2C6
100
AcDbSymbolTableRecord
100
AcDbRegAppTableRecord
2
ACAD_DSTYLE_DIM_EXT2_LINETYPE
70
0
0
APPID
5
301
100
AcDbSymbolTableRecord
100
AcDbRegAppTableRecord
2
ACAD_MLEADERVER
70
0
0
ENDTAB
0
TABLE
2
BLOCK_RECORD
5
321
100
AcDbSymbolTable
0
BLOCK_RECORD
5
1F
100
AcDbSymbolTableRecord
100
AcDbBlockTableRecord
2
*Model_Space
340
0
70
0
0
BLOCK_RECORD
5
1B
100
AcDbSymbolTableRecord
100
AcDbBlockTableRecord
2
*Paper_Space
340
0
70
0
0
BLOCK_RECORD
5
23
100
AcDbSymbolTableRecord
100
AcDbBlockTableRecord
2
*Paper_Space0
340
0
70
0
0
BLOCK_RECORD
5
22A
100
AcDbSymbolTableRecord
100
AcDbBlockTableRecord
2
*D1
340
0
70
0
0
BLOCK_RECORD
5
238
100
AcDbSymbolTableRecord
100
AcDbBlockTableRecord
2
_U0
340
0
70
0
0
BLOCK_RECORD
5
244
100
AcDbSymbolTableRecord
100
AcDbBlockTableRecord
2
*D3
340
0
70
0
0
BLOCK_RECORD
5
251
100
AcDbSymbolTableRecord
100
AcDbBlockTableRecord
2
_U1
340
0
70
0
0
BLOCK_RECORD
5
25E
100
AcDbSymbolTableRecord
100
AcDbBlockTableRecord
2
*D5
340
0
70
0
0
BLOCK_RECORD
5
26C
100
AcDbSymbolTableRecord
100
AcDbBlockTableRecord
2
_U2
340
0
70
0
0
BLOCK_RECORD
5
279
100
AcDbSymbolTableRecord
100
AcDbBlockTableRecord
2
*D7
340
0
70
0
0
BLOCK_RECORD
5
285
100
AcDbSymbolTableRecord
100
AcDbBlockTableRecord
2
_U3
340
0
70
0
0
BLOCK_RECORD
5
291
100
AcDbSymbolTableRecord
100
AcDbBlockTableRecord
2
*D9
340
0
70
0
0
BLOCK_RECORD
5
29D
100
AcDbSymbolTableRecord
100
AcDbBlockTableRecord
2
_U4
340
0
70
0
0
ENDTAB
0
ENDSEC
0
SECTION
2
BLOCKS
0
BLOCK
5
20
100
AcDbEntity
8
0
100
AcDbBlockBegin
2
*Model_Space
70
0
10
0
20
0
30
0
3
*Model_Space
0
ENDBLK
5
21
100
AcDbEntity
8
0
100
AcDbBlockEnd
0
BLOCK
5
1C
100
AcDbEntity
8
0
100
AcDbBlockBegin
2
*Paper_Space
70
0
10
0
20
0
30
0
3
*Paper_Space
0
ENDBLK
5
1D
100
AcDbEntity
8
0
100
AcDbBlockEnd
0
BLOCK
5
24
100
AcDbEntity
8
0
100
AcDbBlockBegin
2
*Paper_Space0
70
0
10
0
20
0
30
0
3
*Paper_Space0
0
ENDBLK
5
25
100
AcDbEntity
8
0
100
AcDbBlockEnd
0
BLOCK
5
22B
100
AcDbEntity
8
0
100
AcDbBlockBegin
2
*D1
70
1
10
0
20
0
30
0
3
*D1
0
LINE
5
22D
100
AcDbEntity
8
0
62
256
6
ByLayer
370
-2
48
1
60
0
100
AcDbLine
10
66.9375
20
4.064208
30
0
11
85.725792
21
4.064208
31
0
39
0
210
0
220
0
230
1
0
LINE
5
22E
100
AcDbEntity
8
0
62
256
6
ByLayer
370
-2
48
1
60
0
100
AcDbLine
10
66.9375
20
-4.064208
30
0
11
85.725792
21
-4.064208
31
0
39
0
210
0
220
0
230
1
0
LINE
5
22F
100
AcDbEntity
8
0
62
256
6
ByLayer
370
-2
48
1
60
0
100
AcDbLine
10
83.725792
20
4.064208
30
0
11
83.725792
21
32.064208
31
0
39
0
210
0
220
0
230
1
0
LINE
5
230
100
AcDbEntity
8
0
62
256
6
ByLayer
370
-2
48
1
60
0
100
AcDbLine
10
83.725792
20
7.564208
30
0
11
83.725792
21
11.064208
31
0
39
0
210
0
220
0
230
1
0
LINE
5
231
100
AcDbEntity
8
0
62
256
6
ByLayer
370
-2
48
1
60
0
100
AcDbLine
10
83.725792
20
-7.564208
30
0
11
83.725792
21
-11.064208
31
0
39
0
210
0
220
0
230
1
0
SOLID
5
232
100
AcDbEntity
8
0
62
256
6
ByLayer
370
-1
48
1
60
0
100
AcDbTrace
10
83.142458
20
7.564208
30
0
11
84.309125
21
7.564208
31
0
12
83.725792
22
4.064208
32
0
13
83.725792
23
4.064208
33
0
39
0
210
0
220
0
230
1
0
SOLID
5
233
100
AcDbEntity
8
0
62
256
6
ByLayer
370
-1
48
1
60
0
100
AcDbTrace
10
84.309125
20
-7.564208
30
0
11
83.142458
21
-7.564208
31
0
12
83.725792
22
-4.064208
32
0
13
83.725792
23
-4.064208
33
0
39
0
210
0
220
0
230
1
0
MTEXT
5
234
100
AcDbEntity
8
0
62
256
6
ByLayer
370
18
48
1
60
0
100
AcDbMText
10
77.725792
20
21.564208
30
0
210
0
220
0
230
1
1
\A1;8.128
40
3
41
0
44
1
50
90
71
5
72
5
7
iso_b_vert
0
POINT
5
235
100
AcDbEntity
8
Defpoints
62
0
6
ByLayer
370
-1
48
1
60
0
100
AcDbPoint
10
65.35
20
4.064208
30
0
39
0
210
0
220
0
230
1
50
360
0
POINT
5
236
100
AcDbEntity
8
Defpoints
62
0
6
ByLayer
370
-1
48
1
60
0
100
AcDbPoint
10
65.35
20
-4.064208
30
0
39
0
210
0
220
0
230
1
50
360
0
POINT
5
237
100
AcDbEntity
8
Defpoints
62
0
6
ByLayer
370
-1
48
1
60
0
100
AcDbPoint
10
83.725792
20
-4.064208
30
0
39
0
210
0
220
0
230
1
50
360
0
ENDBLK
5
22C
100
AcDbEntity
8
0
100
AcDbBlockEnd
0
BLOCK
5
23F
100
AcDbEntity
8
0
100
AcDbBlockBegin
2
_U0
70
0
10
0
20
0
30
0
3
_U0
0
MTEXT
5
239
100
AcDbEntity
8
2
62
256
6
ByLayer
370
18
48
1
60
0
100
AcDbMText
10
83.134677
20
14.199208
30
0
210
0
220
0
230
1
1
\W0.7203;M8
40
3
41
0
44
1.084337
50
90
71
7
72
5
7
iso_b_vert
0
LINE
5
23A
100
AcDbEntity
8
2
62
256
6
ByLayer
370
13
48
1
60
0
100
AcDbLine
10
66.9375
20
4.064208
30
0
11
85.725792
21
4.064208
31
0
39
0
210
0
220
0
230
1
0
LINE
5
23B
100
AcDbEntity
8
2
62
256
6
ByLayer
370
13
48
1
60
0
100
AcDbLine
10
66.9375
20
-4.064208
30
0
11
85.725792
21
-4.064208
31
0
39
0
210
0
220
0
230
1
0
LINE
5
23C
100
AcDbEntity
8
2
62
256
6
ByLayer
370
13
48
1
60
0
100
AcDbLine
10
83.725792
20
-4.064208
30
0
11
83.725792
21
18.319008
31
0
39
0
210
0
220
0
230
1
0
SOLID
5
23D
100
AcDbEntity
8
2
62
256
6
ByLayer
370
18
48
1
60
0
100
AcDbTrace
10
83.725792
20
4.064208
30
0
11
84.186575
21
0.56421
31
0
12
83.265008
22
0.564207
32
0
13
83.265008
23
0.564207
33
0
39
0
210
0
220
0
230
1
0
SOLID
5
23E
100
AcDbEntity
8
2
62
256
6
ByLayer
370
18
48
1
60
0
100
AcDbTrace
10
83.725792
20
-4.064208
30
0
11
83.265008
21
-0.56421
31
0
12
84.186575
22
-0.564207
32
0
13
84.186575
23
-0.564207
33
0
39
0
210
0
220
0
230
1
0
ENDBLK
5
240
100
AcDbEntity
8
0
100
AcDbBlockEnd
0
BLOCK
5
245
100
AcDbEntity
8
0
100
AcDbBlockBegin
2
*D3
70
1
10
0
20
0
30
0
3
*D3
0
LINE
5
247
100
AcDbEntity
8
0
62
256
6
ByLayer
370
-2
48
1
60
0
100
AcDbLine
10
65.35
20
5.651708
30
0
11
65.35
21
15.905315
31
0
39
0
210
0
220
0
230
1
0
LINE
5
248
100
AcDbEntity
8
0
62
256
6
ByLayer
370
-2
48
1
60
0
100
AcDbLine
10
61.91
20
1.5875
30
0
11
61.91
21
15.905315
31
0
39
0
210
0
220
0
230
1
0
LINE
5
249
100
AcDbEntity
8
0
62
256
6
ByLayer
370
-2
48
1
60
0
100
AcDbLine
10
68.85
20
13.905315
30
0
11
72.35
21
13.905315
31
0
39
0
210
0
220
0
230
1
0
LINE
5
24A
100
AcDbEntity
8
0
62
256
6
ByLayer
370
-2
48
1
60
0
100
AcDbLine
10
58.41
20
13.905315
30
0
11
54.91
21
13.905315
31
0
39
0
210
0
220
0
230
1
0
SOLID
5
24B
100
AcDbEntity
8
0
62
256
6
ByLayer
370
-1
48
1
60
0
100
AcDbTrace
10
68.85
20
14.488648
30
0
11
68.85
21
13.321981
31
0
12
65.35
22
13.905315
32
0
13
65.35
23
13.905315
33
0
39
0
210
0
220
0
230
1
0
SOLID
5
24C
100
AcDbEntity
8
0
62
256
6
ByLayer
370
-1
48
1
60
0
100
AcDbTrace
10
58.41
20
13.321981
30
0
11
58.41
21
14.488648
31
0
12
61.91
22
13.905315
32
0
13
61.91
23
13.905315
33
0
39
0
210
0
220
0
230
1
0
MTEXT
5
24D
100
AcDbEntity
8
0
62
256
6
ByLayer
370
18
48
1
60
0
100
AcDbMText
10
63.63
20
19.905315
30
0
210
0
220
0
230
1
1
\A1;3.44
40
3
41
0
44
1
50
0
71
5
72
5
7
iso_b_vert
0
POINT
5
24E
100
AcDbEntity
8
Defpoints
62
0
6
ByLayer
370
-1
48
1
60
0
100
AcDbPoint
10
65.35
20
4.064208
30
0
39
0
210
0
220
0
230
1
50
360
0
POINT
5
24F
100
AcDbEntity
8
Defpoints
62
0
6
ByLayer
370
-1
48
1
60
0
100
AcDbPoint
10
61.91
20
0
30
0
39
0
210
0
220
0
230
1
50
360
0
POINT
5
250
100
AcDbEntity
8
Defpoints
62
0
6
ByLayer
370
-1
48
1
60
0
100
AcDbPoint
10
61.91
20
13.905315
30
0
39
0
210
0
220
0
230
1
50
360
0
ENDBLK
5
246
100
AcDbEntity
8
0
100
AcDbBlockEnd
0
BLOCK
5
259
100
AcDbEntity
8
0
100
AcDbBlockBegin
2
_U1
70
0
10
0
20
0
30
0
3
_U1
0
MTEXT
5
252
100
AcDbEntity
8
SK2
62
256
6
ByLayer
370
18
48
1
60
0
100
AcDbMText
10
59.979158
20
14.687948
30
0
210
0
220
0
230
1
1
\W0.6474;'C'
40
3.5
41
0
44
1.084337
50
0
71
7
72
5
7
iso_b_vert
0
MTEXT
5
253
100
AcDbEntity
8
SK2
62
256
6
ByLayer
370
18
48
1
60
0
100
AcDbMText
10
59.952658
20
21.790429
30
0
210
0
220
0
230
1
1
\W0.7865;3.44
40
3
41
0
44
1.084337
50
0
71
7
72
5
7
iso_b_vert
0
LINE
5
254
100
AcDbEntity
8
SK2
62
256
6
ByLayer
370
13
48
1
60
0
100
AcDbLine
10
65.35
20
5.651708
30
0
11
65.35
21
15.905315
31
0
39
0
210
0
220
0
230
1
0
LINE
5
255
100
AcDbEntity
8
SK2
62
256
6
ByLayer
370
13
48
1
60
0
100
AcDbLine
10
61.91
20
1.5875
30
0
11
61.91
21
15.905315
31
0
39
0
210
0
220
0
230
1
0
LINE
5
256
100
AcDbEntity
8
SK2
62
256
6
ByLayer
370
13
48
1
60
0
100
AcDbLine
10
72.85
20
13.905315
30
0
11
54.41
21
13.905315
31
0
39
0
210
0
220
0
230
1
0
SOLID
5
257
100
AcDbEntity
8
SK2
62
256
6
ByLayer
370
18
48
1
60
0
100
AcDbTrace
10
65.35
20
13.905315
30
0
11
68.849998
21
14.366099
31
0
12
68.850002
22
13.444531
32
0
13
68.850002
23
13.444531
33
0
39
0
210
0
220
0
230
1
0
SOLID
5
258
100
AcDbEntity
8
SK2
62
256
6
ByLayer
370
18
48
1
60
0
100
AcDbTrace
10
61.91
20
13.905315
30
0
11
58.410002
21
13.444531
31
0
12
58.409998
22
14.366099
32
0
13
58.409998
23
14.366099
33
0
39
0
210
0
220
0
230
1
0
ENDBLK
5
25A
100
AcDbEntity
8
0
100
AcDbBlockEnd
0
BLOCK
5
25F
100
AcDbEntity
8
0
100
AcDbBlockBegin
2
*D5
70
1
10
0
20
0
30
0
3
*D5
0
LINE
5
261
100
AcDbEntity
8
0
62
256
6
ByLayer
370
-2
48
1
60
0
100
AcDbLine
10
65.35
20
-5.651708
30
0
11
65.35
21
-13.064208
31
0
39
0
210
0
220
0
230
1
0
LINE
5
262
100
AcDbEntity
8
0
62
256
6
ByLayer
370
-2
48
1
60
0
100
AcDbLine
10
52.35
20
-5.651708
30
0
11
52.35
21
-13.064208
31
0
39
0
210
0
220
0
230
1
0
LINE
5
263
100
AcDbEntity
8
0
62
256
6
ByLayer
370
-2
48
1
60
0
100
AcDbLine
10
65.35
20
-11.064208
30
0
11
85.778571
21
-11.064208
31
0
39
0
210
0
220
0
230
1
0
LINE
5
264
100
AcDbEntity
8
0
62
256
6
ByLayer
370
-2
48
1
60
0
100
AcDbLine
10
68.85
20
-11.064208
30
0
11
72.35
21
-11.064208
31
0
39
0
210
0
220
0
230
1
0
LINE
5
265
100
AcDbEntity
8
0
62
256
6
ByLayer
370
-2
48
1
60
0
100
AcDbLine
10
48.85
20
-11.064208
30
0
11
45.35
21
-11.064208
31
0
39
0
210
0
220
0
230
1
0
SOLID
5
266
100
AcDbEntity
8
0
62
256
6
ByLayer
370
-1
48
1
60
0
100
AcDbTrace
10
68.85
20
-10.480875
30
0
11
68.85
21
-11.647542
31
0
12
65.35
22
-11.064208
32
0
13
65.35
23
-11.064208
33
0
39
0
210
0
220
0
230
1
0
SOLID
5
267
100
AcDbEntity
8
0
62
256
6
ByLayer
370
-1
48
1
60
0
100
AcDbTrace
10
48.85
20
-11.647542
30
0
11
48.85
21
-10.480875
31
0
12
52.35
22
-11.064208
32
0
13
52.35
23
-11.064208
33
0
39
0
210
0
220
0
230
1
0
MTEXT
5
268
100
AcDbEntity
8
0
62
256
6
ByLayer
370
18
48
1
60
0
100
AcDbMText
10
79.064286
20
-5.064208
30
0
210
0
220
0
230
1
1
\A1;13
40
3
41
0
44
1
50
0
71
5
72
5
7
iso_b_vert
0
POINT
5
269
100
AcDbEntity
8
Defpoints
62
0
6
ByLayer
370
-1
48
1
60
0
100
AcDbPoint
10
65.35
20
-4.064208
30
0
39
0
210
0
220
0
230
1
50
360
0
POINT
5
26A
100
AcDbEntity
8
Defpoints
62
0
6
ByLayer
370
-1
48
1
60
0
100
AcDbPoint
10
52.35
20
-4.064208
30
0
39
0
210
0
220
0
230
1
50
360
0
POINT
5
26B
100
AcDbEntity
8
Defpoints
62
0
6
ByLayer
370
-1
48
1
60
0
100
AcDbPoint
10
52.35
20
-11.064208
30
0
39
0
210
0
220
0
230
1
50
360
0
ENDBLK
5
260
100
AcDbEntity
8
0
100
AcDbBlockEnd
0
BLOCK
5
274
100
AcDbEntity
8
0
100
AcDbBlockBegin
2
_U2
70
0
10
0
20
0
30
0
3
_U2
0
MTEXT
5
26D
100
AcDbEntity
8
SK2
62
256
6
ByLayer
370
18
48
1
60
0
100
AcDbMText
10
71.509
20
-10.179094
30
0
210
0
220
0
230
1
1
\W0.5321;13
40
3
41
0
44
1.084337
50
0
71
7
72
5
7
iso_b_vert
0
MTEXT
5
26E
100
AcDbEntity
8
SK2
62
256
6
ByLayer
370
18
48
1
60
0
100
AcDbMText
10
76.816271
20
-9.826613
30
0
210
0
220
0
230
1
1
\W0.8315;\W0.4158;%%p\W0.8315;0.5
40
2.5
41
0
44
1.084337
50
0
71
7
72
5
7
iso_b_vert
0
LINE
5
26F
100
AcDbEntity
8
SK2
62
256
6
ByLayer
370
13
48
1
60
0
100
AcDbLine
10
65.35
20
-5.651708
30
0
11
65.35
21
-13.064208
31
0
39
0
210
0
220
0
230
1
0
LINE
5
270
100
AcDbEntity
8
SK2
62
256
6
ByLayer
370
13
48
1
60
0
100
AcDbLine
10
52.35
20
-5.651708
30
0
11
52.35
21
-13.064208
31
0
39
0
210
0
220
0
230
1
0
LINE
5
271
100
AcDbEntity
8
SK2
62
256
6
ByLayer
370
13
48
1
60
0
100
AcDbLine
10
52.35
20
-11.064208
30
0
11
83.933008
21
-11.064208
31
0
39
0
210
0
220
0
230
1
0
SOLID
5
272
100
AcDbEntity
8
SK2
62
256
6
ByLayer
370
18
48
1
60
0
100
AcDbTrace
10
65.35
20
-11.064208
30
0
11
61.850002
21
-11.524992
31
0
12
61.849998
22
-10.603425
32
0
13
61.849998
23
-10.603425
33
0
39
0
210
0
220
0
230
1
0
SOLID
5
273
100
AcDbEntity
8
SK2
62
256
6
ByLayer
370
18
48
1
60
0
100
AcDbTrace
10
52.35
20
-11.064208
30
0
11
55.849998
21
-10.603425
31
0
12
55.850002
22
-11.524992
32
0
13
55.850002
23
-11.524992
33
0
39
0
210
0
220
0
230
1
0
ENDBLK
5
275
100
AcDbEntity
8
0
100
AcDbBlockEnd
0
BLOCK
5
27A
100
AcDbEntity
8
0
100
AcDbBlockBegin
2
*D7
70
1
10
0
20
0
30
0
3
*D7
0
LINE
5
27C
100
AcDbEntity
8
0
62
256
6
ByLayer
370
-2
48
1
60
0
100
AcDbLine
10
65.35
20
-5.651708
30
0
11
65.35
21
-35.564208
31
0
39
0
210
0
220
0
230
1
0
LINE
5
27D
100
AcDbEntity
8
0
62
256
6
ByLayer
370
-2
48
1
60
0
100
AcDbLine
10
31.35
20
-4.70135
30
0
11
31.35
21
-35.564208
31
0
39
0
210
0
220
0
230
1
0
LINE
5
27E
100
AcDbEntity
8
0
62
256
6
ByLayer
370
-2
48
1
60
0
100
AcDbLine
10
61.85
20
-33.564208
30
0
11
34.85
21
-33.564208
31
0
39
0
210
0
220
0
230
1
0
SOLID
5
27F
100
AcDbEntity
8
0
62
256
6
ByLayer
370
-1
48
1
60
0
100
AcDbTrace
10
61.85
20
-34.147542
30
0
11
61.85
21
-32.980875
31
0
12
65.35
22
-33.564208
32
0
13
65.35
23
-33.564208
33
0
39
0
210
0
220
0
230
1
0
SOLID
5
280
100
AcDbEntity
8
0
62
256
6
ByLayer
370
-1
48
1
60
0
100
AcDbTrace
10
34.85
20
-32.980875
30
0
11
34.85
21
-34.147542
31
0
12
31.35
22
-33.564208
32
0
13
31.35
23
-33.564208
33
0
39
0
210
0
220
0
230
1
0
MTEXT
5
281
100
AcDbEntity
8
0
62
256
6
ByLayer
370
18
48
1
60
0
100
AcDbMText
10
48.35
20
-27.564208
30
0
210
0
220
0
230
1
1
\A1;34
40
3
41
0
44
1
50
0
71
5
72
5
7
iso_b_vert
0
POINT
5
282
100
AcDbEntity
8
Defpoints
62
0
6
ByLayer
370
-1
48
1
60
0
100
AcDbPoint
10
65.35
20
-4.064208
30
0
39
0
210
0
220
0
230
1
50
360
0
POINT
5
283
100
AcDbEntity
8
Defpoints
62
0
6
ByLayer
370
-1
48
1
60
0
100
AcDbPoint
10
31.35
20
-3.11385
30
0
39
0
210
0
220
0
230
1
50
360
0
POINT
5
284
100
AcDbEntity
8
Defpoints
62
0
6
ByLayer
370
-1
48
1
60
0
100
AcDbPoint
10
31.35
20
-33.564208
30
0
39
0
210
0
220
0
230
1
50
360
0
ENDBLK
5
27B
100
AcDbEntity
8
0
100
AcDbBlockEnd
0
BLOCK
5
28C
100
AcDbEntity
8
0
100
AcDbBlockBegin
2
_U3
70
0
10
0
20
0
30
0
3
_U3
0
MTEXT
5
286
100
AcDbEntity
8
SK2
62
256
6
ByLayer
370
18
48
1
60
0
100
AcDbMText
10
46.559229
20
-32.679094
30
0
210
0
220
0
230
1
1
\W0.7167;34
40
3
41
0
44
1.084337
50
0
71
7
72
5
7
iso_b_vert
0
LINE
5
287
100
AcDbEntity
8
SK2
62
256
6
ByLayer
370
13
48
1
60
0
100
AcDbLine
10
65.35
20
-5.651708
30
0
11
65.35
21
-35.564208
31
0
39
0
210
0
220
0
230
1
0
LINE
5
288
100
AcDbEntity
8
SK2
62
256
6
ByLayer
370
13
48
1
60
0
100
AcDbLine
10
31.35
20
-4.70135
30
0
11
31.35
21
-35.564208
31
0
39
0
210
0
220
0
230
1
0
LINE
5
289
100
AcDbEntity
8
SK2
62
256
6
ByLayer
370
13
48
1
60
0
100
AcDbLine
10
65.35
20
-33.564208
30
0
11
31.35
21
-33.564208
31
0
39
0
210
0
220
0
230
1
0
SOLID
5
28A
100
AcDbEntity
8
SK2
62
256
6
ByLayer
370
18
48
1
60
0
100
AcDbTrace
10
65.35
20
-33.564208
30
0
11
61.850002
21
-34.024992
31
0
12
61.849998
22
-33.103425
32
0
13
61.849998
23
-33.103425
33
0
39
0
210
0
220
0
230
1
0
SOLID
5
28B
100
AcDbEntity
8
SK2
62
256
6
ByLayer
370
18
48
1
60
0
100
AcDbTrace
10
31.35
20
-33.564208
30
0
11
34.849998
21
-33.103425
31
0
12
34.850002
22
-34.024992
32
0
13
34.850002
23
-34.024992
33
0
39
0
210
0
220
0
230
1
0
ENDBLK
5
28D
100
AcDbEntity
8
0
100
AcDbBlockEnd
0
BLOCK
5
292
100
AcDbEntity
8
0
100
AcDbBlockBegin
2
*D9
70
1
10
0
20
0
30
0
3
*D9
0
LINE
5
294
100
AcDbEntity
8
0
62
256
6
ByLayer
370
-2
48
1
60
0
100
AcDbLine
10
65.35
20
-5.651708
30
0
11
65.35
21
-24.564208
31
0
39
0
210
0
220
0
230
1
0
LINE
5
295
100
AcDbEntity
8
0
62
256
6
ByLayer
370
-2
48
1
60
0
100
AcDbLine
10
36.45
20
-1.5875
30
0
11
36.45
21
-24.564208
31
0
39
0
210
0
220
0
230
1
0
LINE
5
296
100
AcDbEntity
8
0
62
256
6
ByLayer
370
-2
48
1
60
0
100
AcDbLine
10
61.85
20
-22.564208
30
0
11
39.95
21
-22.564208
31
0
39
0
210
0
220
0
230
1
0
SOLID
5
297
100
AcDbEntity
8
0
62
256
6
ByLayer
370
-1
48
1
60
0
100
AcDbTrace
10
61.85
20
-23.147542
30
0
11
61.85
21
-21.980875
31
0
12
65.35
22
-22.564208
32
0
13
65.35
23
-22.564208
33
0
39
0
210
0
220
0
230
1
0
SOLID
5
298
100
AcDbEntity
8
0
62
256
6
ByLayer
370
-1
48
1
60
0
100
AcDbTrace
10
39.95
20
-21.980875
30
0
11
39.95
21
-23.147542
31
0
12
36.45
22
-22.564208
32
0
13
36.45
23
-22.564208
33
0
39
0
210
0
220
0
230
1
0
MTEXT
5
299
100
AcDbEntity
8
0
62
256
6
ByLayer
370
18
48
1
60
0
100
AcDbMText
10
50.9
20
-16.564208
30
0
210
0
220
0
230
1
1
\A1;28.9
40
3
41
0
44
1
50
0
71
5
72
5
7
iso_b_vert
0
POINT
5
29A
100
AcDbEntity
8
Defpoints
62
0
6
ByLayer
370
-1
48
1
60
0
100
AcDbPoint
10
65.35
20
-4.064208
30
0
39
0
210
0
220
0
230
1
50
360
0
POINT
5
29B
100
AcDbEntity
8
Defpoints
62
0
6
ByLayer
370
-1
48
1
60
0
100
AcDbPoint
10
36.45
20
0
30
0
39
0
210
0
220
0
230
1
50
360
0
POINT
5
29C
100
AcDbEntity
8
Defpoints
62
0
6
ByLayer
370
-1
48
1
60
0
100
AcDbPoint
10
36.45
20
-22.564208
30
0
39
0
210
0
220
0
230
1
50
360
0
ENDBLK
5
293
100
AcDbEntity
8
0
100
AcDbBlockEnd
0
BLOCK
5
2A4
100
AcDbEntity
8
0
100
AcDbBlockBegin
2
_U4
70
0
10
0
20
0
30
0
3
_U4
0
MTEXT
5
29E
100
AcDbEntity
8
2
62
256
6
ByLayer
370
18
48
1
60
0
100
AcDbMText
10
47.538544
20
-21.679094
30
0
210
0
220
0
230
1
1
\W0.7457;28.9
40
3
41
0
44
1.084337
50
0
71
7
72
5
7
iso_b_vert
0
LINE
5
29F
100
AcDbEntity
8
2
62
256
6
ByLayer
370
13
48
1
60
0
100
AcDbLine
10
65.35
20
-5.651708
30
0
11
65.35
21
-24.564208
31
0
39
0
210
0
220
0
230
1
0
LINE
5
2A0
100
AcDbEntity
8
2
62
256
6
ByLayer
370
13
48
1
60
0
100
AcDbLine
10
36.45
20
-1.5875
30
0
11
36.45
21
-24.564208
31
0
39
0
210
0
220
0
230
1
0
LINE
5
2A1
100
AcDbEntity
8
2
62
256
6
ByLayer
370
13
48
1
60
0
100
AcDbLine
10
65.35
20
-22.564208
30
0
11
36.45
21
-22.564208
31
0
39
0
210
0
220
0
230
1
0
SOLID
5
2A2
100
AcDbEntity
8
2
62
256
6
ByLayer
370
18
48
1
60
0
100
AcDbTrace
10
65.35
20
-22.564208
30
0
11
61.850002
21
-23.024992
31
0
12
61.849998
22
-22.103425
32
0
13
61.849998
23
-22.103425
33
0
39
0
210
0
220
0
230
1
0
SOLID
5
2A3
100
AcDbEntity
8
2
62
256
6
ByLayer
370
18
48
1
60
0
100
AcDbTrace
10
36.45
20
-22.564208
30
0
11
39.949998
21
-22.103425
31
0
12
39.950002
22
-23.024992
32
0
13
39.950002
23
-23.024992
33
0
39
0
210
0
220
0
230
1
0
ENDBLK
5
2A5
100
AcDbEntity
8
0
100
AcDbBlockEnd
0
ENDSEC
0
SECTION
2
ENTITIES
0
ARC
5
D6
100
AcDbEntity
8
SK1
62
256
6
ByLayer
370
18
48
1
60
0
100
AcDbCircle
39
0
10
-18.025
20
0
30
0
40
3.87696
210
0
220
0
230
1
100
AcDbArc
50
321.283517
51
38.716483
0
ARC
5
D7
100
AcDbEntity
8
1
62
256
6
ByLayer
370
18
48
1
60
0
100
AcDbCircle
39
0
10
50.106078
20
4.21385
30
0
40
1.1
210
0
220
0
230
1
100
AcDbArc
50
270
51
300
0
ARC
5
D8
100
AcDbEntity
8
1
62
256
6
ByLayer
370
18
48
1
60
0
100
AcDbCircle
39
0
10
31.446238
20
-4.21385
30
0
40
1.1
210
0
220
0
230
1
100
AcDbArc
50
90
51
100
0
ARC
5
D9
100
AcDbEntity
8
1
62
256
6
ByLayer
370
18
48
1
60
0
100
AcDbCircle
39
0
10
31.446238
20
4.21385
30
0
40
1.1
210
0
220
0
230
1
100
AcDbArc
50
260
51
270
0
POINT
5
70
100
AcDbEntity
8
80
62
256
6
ByLayer
370
18
48
1
60
0
100
AcDbPoint
10
0
20
0
30
0
39
0
210
0
220
0
230
1
50
360
0
POINT
5
72
100
AcDbEntity
8
81
62
256
6
ByLayer
370
18
48
1
60
0
100
AcDbPoint
10
65.55
20
0
30
0
39
0
210
0
220
0
230
1
50
360
0
POINT
5
74
100
AcDbEntity
8
1
62
256
6
ByLayer
370
18
48
1
60
1
100
AcDbPoint
10
65.35
20
4.064208
30
0
39
0
210
0
220
0
230
1
50
360
0
POINT
5
76
100
AcDbEntity
8
1
62
256
6
ByLayer
370
18
48
1
60
1
100
AcDbPoint
10
65.35
20
-4.064208
30
0
39
0
210
0
220
0
230
1
50
360
0
POINT
5
77
100
AcDbEntity
8
1
62
256
6
ByLayer
370
18
48
1
60
1
100
AcDbPoint
10
65.35
20
4.064208
30
0
39
0
210
0
220
0
230
1
50
360
0
POINT
5
78
100
AcDbEntity
8
1
62
256
6
ByLayer
370
18
48
1
60
1
100
AcDbPoint
10
61.91
20
0
30
0
39
0
210
0
220
0
230
1
50
360
0
POINT
5
79
100
AcDbEntity
8
1
62
256
6
ByLayer
370
18
48
1
60
1
100
AcDbPoint
10
65.35
20
-4.064208
30
0
39
0
210
0
220
0
230
1
50
360
0
POINT
5
7A
100
AcDbEntity
8
1
62
256
6
ByLayer
370
18
48
1
60
1
100
AcDbPoint
10
52.35
20
-4.064208
30
0
39
0
210
0
220
0
230
1
50
360
0
POINT
5
7B
100
AcDbEntity
8
1
62
256
6
ByLayer
370
18
48
1
60
1
100
AcDbPoint
10
65.35
20
-4.064208
30
0
39
0
210
0
220
0
230
1
50
360
0
POINT
5
7C
100
AcDbEntity
8
1
62
256
6
ByLayer
370
18
48
1
60
1
100
AcDbPoint
10
31.35
20
-3.11385
30
0
39
0
210
0
220
0
230
1
50
360
0
POINT
5
7D
100
AcDbEntity
8
1
62
256
6
ByLayer
370
18
48
1
60
1
100
AcDbPoint
10
65.35
20
-4.064208
30
0
39
0
210
0
220
0
230
1
50
360
0
POINT
5
7E
100
AcDbEntity
8
1
62
256
6
ByLayer
370
18
48
1
60
1
100
AcDbPoint
10
36.45
20
0
30
0
39
0
210
0
220
0
230
1
50
360
0
SPLINE
5
DA
100
AcDbEntity
8
1
62
256
6
ByLayer
370
13
48
1
60
0
100
AcDbSpline
70
4
71
3
72
9
73
5
40
0
40
0
40
0
40
0
40
0.690642354432629
40
1
40
1
40
1
40
1
41
1.04
10
63.828077389574
20
-3.33748595862503
30
0
41
1.04
10
63.82038720292
20
-3.3510859966454
30
0
41
1.04
10
63.8091870206324
20
-3.35999210385938
30
0
41
1.04
10
63.7978807944691
20
-3.35238762718315
30
0
41
1.04
10
63.7943728592821
20
-3.34845039294958
30
0
0
SPLINE
5
DB
100
AcDbEntity
8
1
62
256
6
ByLayer
370
18
48
1
60
0
100
AcDbSpline
70
4
71
3
72
10
73
6
40
0
40
0
40
0
40
0
40
0.159034863041808
40
0.159034863041808
40
1
40
1
40
1
40
1
41
1
10
63.6946727221517
20
-3.55790716198933
30
0
41
1
10
63.6937993748327
20
-3.55780602886602
30
0
41
1
10
63.6929265728231
20
-3.55749297638644
30
0
41
1
10
63.6874383489894
20
-3.55419869187213
30
0
41
1
10
63.6828102888094
20
-3.54553480900069
30
0
41
1
10
63.6782342895484
20
-3.53088524206149
30
0
0
SPLINE
5
DC
100
AcDbEntity
8
1
62
256
6
ByLayer
370
13
48
1
60
0
100
AcDbSpline
70
4
71
3
72
9
73
5
40
0
40
0
40
0
40
0
40
0.0951671672343578
40
1
40
1
40
1
40
1
41
1.04
10
55.0755367687801
20
-3.34223550513352
30
0
41
1.04
10
55.0741154874333
20
-3.34441624817919
30
0
41
1.04
10
55.0591813273655
20
-3.36454221621416
30
0
41
1.04
10
55.0442510130451
20
-3.35512310112003
30
0
41
1.04
10
55.0309898385127
20
-3.32559025648754
30
0
0
SPLINE
5
DD
100
AcDbEntity
8
1
62
256
6
ByLayer
370
18
48
1
60
0
100
AcDbSpline
70
4
71
3
72
10
73
6
40
0
40
0
40
0
40
0
40
0.620923879222369
40
0.620923879222369
40
1
40
1
40
1
40
1
41
1
10
63.007572080001
20
-3.55841509175903
30
0
41
1
10
63.0163770158657
20
-3.59391473106734
30
0
41
1
10
63.0250507557861
20
-3.62297184783
30
0
41
1
10
63.0387655070993
20
-3.65946413196645
30
0
41
1
10
63.0439124739124
20
-3.67092377449689
30
0
41
1
10
63.0490250974665
20
-3.67999684938655
30
0
0
SPLINE
5
DE
100
AcDbEntity
8
1
62
256
6
ByLayer
370
13
48
1
60
0
100
AcDbSpline
70
4
71
3
72
9
73
5
40
0
40
0
40
0
40
0
40
0.479327970328747
40
1
40
1
40
1
40
1
41
1
10
57.2665461576325
20
3.33702420570094
30
0
41
1
10
57.2600193336842
20
3.34877452571399
30
0
41
1
10
57.2463741315351
20
3.36205463722621
30
0
41
1
10
57.2326576169601
20
3.35111357780792
30
0
41
1
10
57.2254904616285
20
3.33885825638205
30
0
0
SPLINE
5
DF
100
AcDbEntity
8
1
62
256
6
ByLayer
370
13
48
1
60
0
100
AcDbSpline
70
4
71
3
72
8
73
4
40
0
40
0
40
0
40
0
40
1
40
1
40
1
40
1
41
1
10
62.8493195219185
20
-3.33594791551519
30
0
41
1
10
62.8357799741792
20
-3.3116552529024
30
0
41
1
10
62.8223861225752
20
-3.26467506940986
30
0
41
1
10
62.8091321070117
20
-3.19714994584587
30
0
0
SPLINE
5
E0
100
AcDbEntity
8
1
62
256
6
ByLayer
370
13
48
1
60
0
100
AcDbSpline
70
4
71
3
72
9
73
5
40
0
40
0
40
0
40
0
40
0.810590902683375
40
1
40
1
40
1
40
1
41
1.04
10
58.2518887974448
20
3.15206643394084
30
0
41
1.04
10
58.2386315967297
20
3.2287636053485
30
0
41
1.04
10
58.222556741121
20
3.29607568798467
30
0
41
1.04
10
58.2067582058368
20
3.33082289998017
30
0
41
1.04
10
58.2037751827776
20
3.33625537399654
30
0
0
SPLINE
5
E1
100
AcDbEntity
8
1
62
256
6
ByLayer
370
13
48
1
60
0
100
AcDbSpline
70
4
71
3
72
8
73
4
40
0
40
0
40
0
40
0
40
1
40
1
40
1
40
1
41
1
10
54.0980312872191
20
-3.33439314393286
30
0
41
1
10
54.0806195459361
20
-3.30116257295578
30
0
41
1
10
54.0632354052589
20
-3.22971000776963
30
0
41
1
10
54.0457845778326
20
-3.12201900527609
30
0
0
SPLINE
5
E2
100
AcDbEntity
8
1
62
256
6
ByLayer
370
13
48
1
60
0
100
AcDbSpline
70
4
71
3
72
9
73
5
40
0
40
0
40
0
40
0
40
0.933389679788637
40
1
40
1
40
1
40
1
41
1.04
10
62.5766430630095
20
-3.33954900568119
30
0
41
1.04
10
62.5457621792366
20
-3.38971761885111
30
0
41
1.04
10
62.5134864559379
20
-3.31115218536654
30
0
41
1.04
10
62.4820024127706
20
-3.11798393065778
30
0
41
1.04
10
62.4799085937997
20
-3.10461935863486
30
0
0
SPLINE
5
E3
100
AcDbEntity
8
1
62
256
6
ByLayer
370
18
48
1
60
0
100
AcDbSpline
70
4
71
3
72
18
73
14
40
0
40
0
40
0
40
0
40
0.0077176062264673
40
0.0077176062264673
40
0.206174084981174
40
0.206174084981174
40
0.40463056373588
40
0.40463056373588
40
0.603087042490587
40
0.603087042490587
40
0.801543521245293
40
0.801543521245293
40
1
40
1
40
1
40
1
41
1
10
62.2460340366447
20
-3.9050996870466
30
0
41
1
10
62.2458455597152
20
-3.90520253965289
30
0
41
1
10
62.2456572624738
20
-3.90529505724692
30
0
41
1
10
62.2406322105154
20
-3.90749013155491
30
0
41
1
10
62.2359015824598
20
-3.90284410902402
30
0
41
1
10
62.2267170162366
20
-3.88034277350511
30
0
41
1
10
62.2222643181504
20
-3.86248614081174
30
0
41
1
10
62.2136561921037
20
-3.8133967379521
30
0
41
1
10
62.2095260060619
20
-3.78212311384129
30
0
41
1
10
62.2013354059013
20
-3.7058512585395
30
0
41
1
10
62.1973126812931
20
-3.66144511596752
30
0
41
1
10
62.1889889649096
20
-3.56064677896075
30
0
41
1
10
62.1846923270442
20
-3.50424516851208
30
0
41
1
10
62.1802672347439
20
-3.44175531888729
30
0
0
SPLINE
5
E4
100
AcDbEntity
8
1
62
256
6
ByLayer
370
18
48
1
60
0
100
AcDbSpline
70
4
71
3
72
19
73
15
40
0
40
0
40
0
40
0
40
0.22528907707452
40
0.45057815414904
40
0.45057815414904
40
0.50690042341767
40
0.50690042341767
40
0.5632226926863
40
0.5632226926863
40
0.675867231223557
40
0.675867231223557
40
0.901156308298073
40
0.901156308298073
40
1
40
1
40
1
40
1
41
1
10
61.8357068631309
20
-3.34194744705832
30
0
41
1
10
61.8445668969488
20
-3.41609938746925
30
0
41
1
10
61.86229713067
20
-3.5517163615215
30
0
41
1
10
61.8801297228181
20
-3.66258308264611
30
0
41
1
10
61.8913093301069
20
-3.72395673005224
30
0
41
1
10
61.8935468703456
20
-3.73583402055695
30
0
41
1
10
61.8980248586313
20
-3.7587827312552
30
0
41
1
10
61.9002661809843
20
-3.76985689832227
30
0
41
1
10
61.9069540413845
20
-3.80166942977616
30
0
41
1
10
61.9113776718695
20
-3.82106846545614
30
0
41
1
10
61.9245353843027
20
-3.87389191140483
30
0
41
1
10
61.9331332774187
20
-3.90192167428458
30
0
41
1
10
61.9453722522913
20
-3.93204703358666
30
0
41
1
10
61.9490892811067
20
-3.93987196895469
30
0
41
1
10
61.952801566188
20
-3.94632577576829
30
0
0
SPLINE
5
E5
100
AcDbEntity
8
1
62
256
6
ByLayer
370
13
48
1
60
0
100
AcDbSpline
70
4
71
3
72
9
73
5
40
0
40
0
40
0
40
0
40
0.0628459361473182
40
1
40
1
40
1
40
1
41
1.04
10
53.8270014337018
20
-3.33934267818683
30
0
41
1.04
10
53.8246754398922
20
-3.3432472165488
30
0
41
1.04
10
53.7876898135913
20
-3.39434872909487
30
0
41
1.04
10
53.751101876155
20
-3.26896079094987
30
0
41
1.04
10
53.716430012048
20
-3.01154337575104
30
0
0
SPLINE
5
E6
100
AcDbEntity
8
1
62
256
6
ByLayer
370
13
48
1
60
0
100
AcDbSpline
70
4
71
3
72
9
73
5
40
0
40
0
40
0
40
0
40
0.88834316723041
40
1
40
1
40
1
40
1
41
1
10
61.6020284295063
20
-3.34144685274714
30
0
41
1
10
61.5700500318152
20
-3.29092868521786
30
0
41
1
10
61.5342080744065
20
-3.08771823614816
30
0
41
1
10
61.4985487742944
20
-2.74640146286725
30
0
41
1
10
61.4945704396107
20
-2.70668064380374
30
0
0
SPLINE
5
E7
100
AcDbEntity
8
1
62
256
6
ByLayer
370
13
48
1
60
0
100
AcDbSpline
70
4
71
3
72
9
73
5
40
0
40
0
40
0
40
0
40
0.525480584073319
40
1
40
1
40
1
40
1
41
1
10
58.5811662076109
20
3.04850915543551
30
0
41
1
10
58.5619382605225
20
3.18386499690678
30
0
41
1
10
58.5263045995903
20
3.35413164290782
30
0
41
1
10
58.4920127286404
20
3.36628408148047
30
0
41
1
10
58.4759501589934
20
3.33972964916805
30
0
0
SPLINE
5
E8
100
AcDbEntity
8
1
62
256
6
ByLayer
370
13
48
1
60
0
100
AcDbSpline
70
4
71
3
72
9
73
5
40
0
40
0
40
0
40
0
40
0.65782487110634
40
1
40
1
40
1
40
1
41
1.04
10
59.5665170362954
20
2.62000380540097
30
0
41
1.04
10
59.5411943208683
20
2.8865612999984
30
0
41
1.04
10
59.5028045928474
20
3.19506851006903
30
0
41
1.04
10
59.4641718076505
20
3.32009530014001
30
0
41
1.04
10
59.4509765382814
20
3.34086827919979
30
0
0
SPLINE
5
E9
100
AcDbEntity
8
1
62
256
6
ByLayer
370
18
48
1
60
0
100
AcDbSpline
70
4
71
3
72
25
73
21
40
0
40
0
40
0
40
0
40
0.121749813129139
40
0.121749813129139
40
0.165662322472682
40
0.165662322472682
40
0.209574831816225
40
0.297399850503311
40
0.297399850503311
40
0.473049887877483
40
0.473049887877483
40
0.648699925251654
40
0.648699925251654
40
0.692612434595197
40
0.692612434595197
40
0.73652494393874
40
0.73652494393874
40
0.824349962625827
40
0.824349962625827
40
1
40
1
40
1
40
1
41
1
10
58.9044834649127
20
4.0642111097292
30
0
41
1
10
58.9092286288915
20
4.06421270739082
30
0
41
1
10
58.9140001614736
20
4.06074518722204
30
0
41
1
10
58.9205466270973
20
4.05119287171175
30
0
41
1
10
58.9222851499621
20
4.04819867462518
30
0
41
1
10
58.9257530983903
20
4.0413200558576
30
0
41
1
10
58.930948113616
20
4.02965681595288
30
0
41
1
10
58.9361262358832
20
4.01400347670022
30
0
41
1
10
58.9464567324176
20
3.97745644356348
30
0
41
1
10
58.9533052444087
20
3.94611817474132
30
0
41
1
10
58.9669588543546
20
3.86957917794535
30
0
41
1
10
58.9737650408072
20
3.82437914008963
30
0
41
1
10
58.982310264549
20
3.75899035744868
30
0
41
1
10
58.9840213065398
20
3.74546702869216
30
0
41
1
10
58.9874494023385
20
3.71751888583972
30
0
41
1
10
58.989166135813
20
3.70309509709685
30
0
41
1
10
58.9942981532014
20
3.658726424827
30
0
41
1
10
58.9977054058268
20
3.6276041003959
30
0
41
1
10
59.0079095644369
20
3.52969745162738
30
0
41
1
10
59.0146901847556
20
3.45838525877124
30
0
41
1
10
59.0215032092568
20
3.38112194027028
30
0
0
SPLINE
5
EA
100
AcDbEntity
8
1
62
256
6
ByLayer
370
18
48
1
60
0
100
AcDbSpline
70
4
71
3
72
8
73
4
40
0
40
0
40
0
40
0
40
1
40
1
40
1
40
1
41
1.04
10
61.3193711335613
20
-3.34974752965961
30
0
41
1.04
10
61.3166272682073
20
-3.35257253333355
30
0
41
1.04
10
61.3138852678697
20
-3.35443312481344
30
0
41
1.04
10
61.311144750811
20
-3.35532740174065
30
0
0
SPLINE
5
EB
100
AcDbEntity
8
1
62
256
6
ByLayer
370
13
48
1
60
0
100
AcDbSpline
70
4
71
3
72
10
73
6
40
0
40
0
40
0
40
0
40
0.0697874160489176
40
0.799272370663197
40
1
40
1
40
1
40
1
41
1.04
10
61.3111438568522
20
-3.3553276934202
30
0
41
1.04
10
61.3077274339876
20
-3.35644226797032
30
0
41
1.04
10
61.2686256853163
20
-3.35200799159608
30
0
41
1.04
10
61.2199609242813
20
-3.09940032260255
30
0
41
1.04
10
61.1749833702666
20
-2.64364618527002
30
0
41
1.04
10
61.1653057717861
20
-2.53662862498132
30
0
0
SPLINE
5
EC
100
AcDbEntity
8
1
62
256
6
ByLayer
370
13
48
1
60
0
100
AcDbSpline
70
4
71
3
72
10
73
6
40
0
40
0
40
0
40
0
40
0.159538549897701
40
0.852555850651151
40
1
40
1
40
1
40
1
41
1
10
60.3340174877384
20
-3.29996121459956
30
0
41
1
10
60.3254516359522
20
-3.27354764974962
30
0
41
1
10
60.279994966229
20
-3.08430209154591
30
0
41
1
10
60.2290371417401
20
-2.58621569350626
30
0
41
1
10
60.1874010028591
20
-2.03441416316224
30
0
41
1
10
60.1801358473943
20
-1.93427603811742
30
0
0
SPLINE
5
ED
100
AcDbEntity
8
1
62
256
6
ByLayer
370
13
48
1
60
0
100
AcDbSpline
70
4
71
3
72
9
73
5
40
0
40
0
40
0
40
0
40
0.618267222732673
40
1
40
1
40
1
40
1
41
1.04
10
52.5552095250409
20
-3.35491966195421
30
0
41
1.04
10
52.5249702246604
20
-3.34923841188614
30
0
41
1.04
10
52.475029060749
20
-3.15346781473143
30
0
41
1.04
10
52.4225212290734
20
-2.62658019786506
30
0
41
1.04
10
52.4020136143716
20
-2.38306262243302
30
0
0
SPLINE
5
EE
100
AcDbEntity
8
1
62
256
6
ByLayer
370
13
48
1
60
0
100
AcDbSpline
70
4
71
3
72
10
73
6
40
0
40
0
40
0
40
0
40
0.622936722782137
40
0.978240549788841
40
1
40
1
40
1
40
1
41
1
10
59.8958263659216
20
2.4413030537749
30
0
41
1
10
59.8647242201378
20
2.80055583547278
30
0
41
1
10
59.8161383712321
20
3.22226110743029
30
0
41
1
10
59.766073348027
20
3.3518537443872
30
0
41
1
10
59.7472810688594
20
3.355534529961
30
0
41
1
10
59.7461968758635
20
3.3555969182367
30
0
0
SPLINE
5
EF
100
AcDbEntity
8
1
62
256
6
ByLayer
370
13
48
1
60
0
100
AcDbSpline
70
4
71
3
72
10
73
6
40
0
40
0
40
0
40
0
40
0.207204752328737
40
0.903182718726065
40
1
40
1
40
1
40
1
41
1.04
10
60.8811186509584
20
1.81452202808044
30
0
41
1.04
10
60.8700973784537
20
1.97090448100264
30
0
41
1.04
10
60.8224350258329
20
2.6115003185374
30
0
41
1.04
10
60.7719073592462
20
3.07834853012164
30
0
41
1.04
10
60.7321074782047
20
3.25199811727461
30
0
41
1.04
10
60.7272493482972
20
3.27026429271722
30
0
0
SPLINE
5
F0
100
AcDbEntity
8
1
62
256
6
ByLayer
370
18
48
1
60
0
100
AcDbSpline
70
4
71
3
72
27
73
23
40
0
40
0
40
0
40
0
40
0.124999999999997
40
0.124999999999997
40
0.156249999999997
40
0.156249999999997
40
0.187499999999997
40
0.249999999999997
40
0.249999999999997
40
0.374999999999998
40
0.499999999999999
40
0.499999999999999
40
0.562499999999999
40
0.562499999999999
40
0.625
40
0.625
40
0.75
40
0.875
40
0.875
40
0.9375
40
0.9375
40
1
40
1
40
1
40
1
41
1
10
60.1717984556843
20
4.04899916499201
30
0
41
1
10
60.178583467892
20
4.0369537888096
30
0
41
1
10
60.1853561497125
20
4.01776015151793
30
0
41
1
10
60.1938783164275
20
3.98456637820306
30
0
41
1
10
60.1955876398362
20
3.97745909919527
30
0
41
1
10
60.199009142938
20
3.96234303073837
30
0
41
1
10
60.2041336328251
20
3.93837106232763
30
0
41
1
10
60.2092558287318
20
3.91055512301392
30
0
41
1
10
60.2195499510367
20
3.84988901086214
30
0
41
1
10
60.2333791397746
20
3.75560194358141
30
0
41
1
10
60.247270357466
20
3.63481633895393
30
0
41
1
10
60.2576978872729
20
3.53408256221448
30
0
41
1
10
60.2611771891401
20
3.49879461830588
30
0
41
1
10
60.2681370993573
20
3.42481809002629
30
0
41
1
10
60.271589950827
20
3.38642620383021
30
0
41
1
10
60.281879906687
20
3.26713203474623
30
0
41
1
10
60.29541381859
20
3.09711207380676
30
0
41
1
10
60.3087872330848
20
2.90560319587272
30
0
41
1
10
60.3188737705888
20
2.75381973882696
30
0
41
1
10
60.3222457512027
20
2.7018639936891
30
0
41
1
10
60.3290334891558
20
2.59518127135783
30
0
41
1
10
60.332457442386
20
2.54031755715502
30
0
41
1
10
60.3358792519585
20
2.48465244160624
30
0
0
SPLINE
5
F1
100
AcDbEntity
8
1
62
256
6
ByLayer
370
18
48
1
60
0
100
AcDbSpline
70
4
71
3
72
28
73
24
40
0
40
0
40
0
40
0
40
0.124999999999999
40
0.124999999999999
40
0.249999999999998
40
0.249999999999998
40
0.281249999999998
40
0.281249999999998
40
0.312499999999997
40
0.374999999999997
40
0.374999999999997
40
0.499999999999997
40
0.624999999999997
40
0.624999999999997
40
0.656249999999997
40
0.656249999999997
40
0.687499999999997
40
0.687499999999997
40
0.749999999999997
40
0.749999999999997
40
0.874999999999999
40
0.874999999999999
40
1
40
1
40
1
40
1
41
1
10
60.4599955104306
20
2.38481980210534
30
0
41
1
10
60.4531981248738
20
2.49784992487773
30
0
41
1
10
60.4464866253757
20
2.60634881433208
30
0
41
1
10
60.4329996664746
20
2.81428749936586
30
0
41
1
10
60.4262155079496
20
2.91372777937011
30
0
41
1
10
60.4176447981043
20
3.03218958212892
30
0
41
1
10
60.4159236610558
20
3.05562244840144
30
0
41
1
10
60.4124851787033
20
3.10171218663581
30
0
41
1
10
60.4073354712023
20
3.16965504724124
30
0
41
1
10
60.402205961846
20
3.23406679391897
30
0
41
1
10
60.3919637506573
20
3.35826170434353
30
0
41
1
10
60.3783529126355
20
3.51153572548765
30
0
41
1
10
60.3647122332985
20
3.64041363465435
30
0
41
1
10
60.3561213782066
20
3.71316829993944
30
0
41
1
10
60.3543998397603
20
3.72732854046038
30
0
41
1
10
60.3509481943735
20
3.75485928924167
30
0
41
1
10
60.3492158470564
20
3.76824637140737
30
0
41
1
10
60.3440195313709
20
3.80708452942974
30
0
41
1
10
60.3405649244428
20
3.83115447625676
30
0
41
1
10
60.3302040400401
20
3.89801374133876
30
0
41
1
10
60.3232902075363
20
3.9354663825421
30
0
41
1
10
60.3094673447773
20
3.99639307714611
30
0
41
1
10
60.302561141168
20
4.01986694709919
30
0
41
1
10
60.2956559916559
20
4.03625704824918
30
0
0
SPLINE
5
F2
100
AcDbEntity
8
1
62
256
6
ByLayer
370
13
48
1
60
0
100
AcDbSpline
70
4
71
3
72
10
73
6
40
0
40
0
40
0
40
0
40
0.0518317226447514
40
0.73783266904155
40
1
40
1
40
1
40
1
41
1.04
10
60.004731829004
20
-3.23919090014905
30
0
41
1.04
10
60.0019483301864
20
-3.22689527900009
30
0
41
1.04
10
59.9624273477808
20
-3.03881765611681
30
0
41
1.04
10
59.9109482795106
20
-2.53947716976527
30
0
41
1.04
10
59.8636856205741
20
-1.89182317283264
30
0
41
1.04
10
59.8507503377013
20
-1.70385531489189
30
0
0
SPLINE
5
F3
100
AcDbEntity
8
1
62
256
6
ByLayer
370
13
48
1
60
0
100
AcDbSpline
70
4
71
3
72
11
73
7
40
0
40
0
40
0
40
0
40
0.0994554309477135
40
0.444912804433158
40
0.965884031761791
40
1
40
1
40
1
40
1
41
1
10
59.0194058432736
20
-2.93241318317237
30
0
41
1
10
59.0142788250941
20
-2.89047209988604
30
0
41
1
10
58.9913545296437
20
-2.68979773509429
30
0
41
1
10
58.9416788507747
20
-2.1312693490305
30
0
41
1
10
58.8957835234486
20
-1.44557382078653
30
0
41
1
10
58.8674224784461
20
-0.988830019299655
30
0
41
1
10
58.8656795248677
20
-0.960647581091678
30
0
0
SPLINE
5
F4
100
AcDbEntity
8
1
62
256
6
ByLayer
370
18
48
1
60
0
100
AcDbSpline
70
4
71
3
72
25
73
21
40
0
40
0
40
0
40
0
40
0.125
40
0.125
40
0.249999999999999
40
0.249999999999999
40
0.312499999999999
40
0.312499999999999
40
0.374999999999999
40
0.374999999999999
40
0.499999999999999
40
0.624999999999999
40
0.624999999999999
40
0.687499999999999
40
0.687499999999999
40
0.75
40
0.75
40
0.875
40
0.875
40
1
40
1
40
1
40
1
41
1
10
63.7880248476344
20
1.96029770006106
30
0
41
1
10
63.7962096190836
20
1.8635006575436
30
0
41
1
10
63.8042595200012
20
1.76375848203025
30
0
41
1
10
63.8202945709106
20
1.55849898308045
30
0
41
1
10
63.8282869754148
20
1.45298132900302
30
0
41
1
10
63.8403655734751
20
1.29030152473683
30
0
41
1
10
63.84440237994
20
1.23531098120418
30
0
41
1
10
63.8524644701627
20
1.1239465372482
30
0
41
1
10
63.8564603542052
20
1.06796695306664
30
0
41
1
10
63.8683278345628
20
0.899154965672494
30
0
41
1
10
63.8838346784684
20
0.671751303745651
30
0
41
1
10
63.898720400361
20
0.439817268755689
30
0
41
1
10
63.909696904556
20
0.264151384738739
30
0
41
1
10
63.9133248957228
20
0.205309604649386
30
0
41
1
10
63.9205332707053
20
0.0870429901613079
30
0
41
1
10
63.9241224036315
20
0.0274695095509685
30
0
41
1
10
63.9347506442652
20
-0.150512153919948
30
0
41
1
10
63.9416730798682
20
-0.26845865546008
30
0
41
1
10
63.9553764842729
20
-0.502944872118945
30
0
41
1
10
63.9621413086696
20
-0.619485876994958
30
0
41
1
10
63.9688436532768
20
-0.735313076015331
30
0
0
SPLINE
5
F5
100
AcDbEntity
8
1
62
256
6
ByLayer
370
13
48
1
60
0
100
AcDbSpline
70
4
71
3
72
10
73
6
40
0
40
0
40
0
40
0
40
0.104067977792213
40
0.738674776241334
40
1
40
1
40
1
40
1
41
1
10
63.839675271346
20
-0.533509892884553
30
0
41
1
10
63.8344378529824
20
-0.446308420040822
30
0
41
1
10
63.7971604224302
20
0.178353330355321
30
0
41
1
10
63.7456371470986
20
1.06243989178137
30
0
41
1
10
63.6991197317928
20
1.74905165963807
30
0
41
1
10
63.6855042165011
20
1.93648619389361
30
0
0
SPLINE
5
F6
100
AcDbEntity
8
1
62
256
6
ByLayer
370
13
48
1
60
0
100
AcDbSpline
70
4
71
3
72
9
73
5
40
0
40
0
40
0
40
0
40
0.316591024890791
40
1
40
1
40
1
40
1
41
1
10
61.2104463573062
20
1.57897534667549
30
0
41
1
10
61.1935784019918
20
1.82979334206263
30
0
41
1
10
61.1408553145833
20
2.56086853792922
30
0
41
1
10
61.0905874054806
20
3.02562724612389
30
0
41
1
10
61.0564463091617
20
3.19925054071916
30
0
0
SPLINE
5
F7
100
AcDbEntity
8
1
62
256
6
ByLayer
370
18
48
1
60
0
100
AcDbSpline
70
4
71
3
72
8
73
4
40
0
40
0
40
0
40
0
40
1
40
1
40
1
40
1
41
1
10
61.6345090910521
20
1.63560427634351
30
0
41
1
10
61.6398098301835
20
1.53471083154591
30
0
41
1
10
61.6451316552876
20
1.43215920595588
30
0
41
1
10
61.6505452846768
20
1.32795044402207
30
0
0
SPLINE
5
F8
100
AcDbEntity
8
1
62
256
6
ByLayer
370
13
48
1
60
0
100
AcDbSpline
70
4
71
3
72
10
73
6
40
0
40
0
40
0
40
0
40
0.345267443258903
40
0.970380337362217
40
1
40
1
40
1
40
1
41
1.04
10
62.1957930279836
20
0.819030306656534
30
0
41
1.04
10
62.1787914364638
20
1.09664680279011
30
0
41
1.04
10
62.1304404019301
20
1.86009006376372
30
0
41
1.04
10
62.0786193175741
20
2.52836395437687
30
0
41
1.04
10
62.0433818264687
20
2.84594377798455
30
0
41
1.04
10
62.0417849458622
20
2.86005871051931
30
0
0
SPLINE
5
F9
100
AcDbEntity
8
1
62
256
6
ByLayer
370
18
48
1
60
0
100
AcDbSpline
70
4
71
3
72
30
73
26
40
0
40
0
40
0
40
0
40
0.125
40
0.125
40
0.249999999999999
40
0.249999999999999
40
0.312499999999999
40
0.312499999999999
40
0.343749999999999
40
0.343749999999999
40
0.374999999999999
40
0.374999999999999
40
0.499999999999998
40
0.499999999999998
40
0.624999999999998
40
0.624999999999998
40
0.687499999999997
40
0.687499999999997
40
0.718749999999998
40
0.718749999999998
40
0.749999999999998
40
0.749999999999998
40
0.874999999999999
40
0.874999999999999
40
1
40
1
40
1
40
1
41
1
10
61.7884352202239
20
1.19452878295397
30
0
41
1
10
61.7835220834596
20
1.32285885199471
30
0
41
1
10
61.7787638470664
20
1.44830037777163
30
0
41
1
10
61.7693083358375
20
1.69354426036546
30
0
41
1
10
61.7646083718813
20
1.81334795703066
30
0
41
1
10
61.7574646900048
20
1.98877392047984
30
0
41
1
10
61.7550692347722
20
2.04653426969583
30
0
41
1
10
61.7514718317635
20
2.13207796540667
30
0
41
1
10
61.7502705616113
20
2.16044202946458
30
0
41
1
10
61.7478820176097
20
2.21649463506498
30
0
41
1
10
61.7466934996706
20
2.24421320083778
30
0
41
1
10
61.7407846742213
20
2.38128150483769
30
0
41
1
10
61.7361682153294
20
2.48607102352557
30
0
41
1
10
61.7272398340291
20
2.68606153111202
30
0
41
1
10
61.7229487195565
20
2.78123649983928
30
0
41
1
10
61.7165804542686
20
2.91688029880618
30
0
41
1
10
61.7144677612657
20
2.96090721734009
30
0
41
1
10
61.7112915994407
20
3.02515316574647
30
0
41
1
10
61.7102317406486
20
3.04626918128312
30
0
41
1
10
61.7081066584976
20
3.08789762937161
30
0
41
1
10
61.7070401594635
20
3.10843373143302
30
0
41
1
10
61.7017093350207
20
3.20918193096469
30
0
41
1
10
61.6974363302344
20
3.28376279676905
30
0
41
1
10
61.6888114551145
20
3.42101876031842
30
0
41
1
10
61.684469621928
20
3.48369211231756
30
0
41
1
10
61.680161880432
20
3.54017533005071
30
0
0
SPLINE
5
FA
100
AcDbEntity
8
1
62
256
6
ByLayer
370
18
48
1
60
0
100
AcDbSpline
70
4
71
3
72
8
73
4
40
0
40
0
40
0
40
0
40
1
40
1
40
1
40
1
41
1
10
61.6808812460779
20
1.29911058469273
30
0
41
1
10
61.6659304101769
20
1.41386351307168
30
0
41
1
10
61.6504248020187
20
1.52599323424326
30
0
41
1
10
61.6345090910499
20
1.6356042763432
30
0
0
SPLINE
5
FB
100
AcDbEntity
8
1
62
256
6
ByLayer
370
13
48
1
60
0
100
AcDbSpline
70
4
71
3
72
9
73
5
40
0
40
0
40
0
40
0
40
0.62751786053606
40
1
40
1
40
1
40
1
41
1.04
10
63.510334672546
20
-0.261934413474061
30
0
41
1.04
10
63.4786891992713
20
0.270287812143594
30
0
41
1.04
10
63.4273777322853
20
1.15008663939047
30
0
41
1.04
10
63.3756264213651
20
1.90125561003164
30
0
41
1.04
10
63.3562402436116
20
2.15211822335012
30
0
0
SPLINE
5
FC
100
AcDbEntity
8
1
62
256
6
ByLayer
370
13
48
1
60
0
100
AcDbSpline
70
4
71
3
72
9
73
5
40
0
40
0
40
0
40
0
40
0.457462836634907
40
1
40
1
40
1
40
1
41
1
10
62.5251377767446
20
0.551550069630679
30
0
41
1
10
62.5025446808065
20
0.92716410542306
30
0
41
1
10
62.4524219282866
20
1.73550919570863
30
0
41
1
10
62.4001993360805
20
2.41753702221769
30
0
41
1
10
62.3709854061225
20
2.70881011138564
30
0
0
SPLINE
5
FD
100
AcDbEntity
8
1
62
256
6
ByLayer
370
18
48
1
60
0
100
AcDbSpline
70
4
71
3
72
29
73
25
40
0
40
0
40
0
40
0
40
0.125
40
0.125
40
0.25
40
0.25
40
0.312499999999999
40
0.312499999999999
40
0.34375
40
0.34375
40
0.375
40
0.375
40
0.500000000000002
40
0.500000000000002
40
0.625000000000004
40
0.625000000000004
40
0.687500000000005
40
0.718750000000005
40
0.718750000000005
40
0.750000000000005
40
0.750000000000005
40
0.875000000000003
40
0.875000000000003
40
1
40
1
40
1
40
1
41
1
10
62.6171424801869
20
2.89787517565682
30
0
41
1
10
62.6259234010546
20
2.817805740605
30
0
41
1
10
62.6346481948299
20
2.73293376959825
30
0
41
1
10
62.6519420192489
20
2.55360971771105
30
0
41
1
10
62.6604920414337
20
2.45913467622566
30
0
41
1
10
62.673203517671
20
2.31000655011619
30
0
41
1
10
62.6774262343469
20
2.2590639087297
30
0
41
1
10
62.6837595766112
20
2.18076609980656
30
0
41
1
10
62.6858722099749
20
2.15433150336196
30
0
41
1
10
62.6900764537467
20
2.10114338977903
30
0
41
1
10
62.6921709783787
20
2.07435436822607
30
0
41
1
10
62.702616342738
20
1.93944615603243
30
0
41
1
10
62.710901125201
20
1.828446124826
30
0
41
1
10
62.7274955409274
20
1.60045188705075
30
0
41
1
10
62.7357855411672
20
1.48345860393968
30
0
41
1
10
62.7481675221091
20
1.3034223934142
30
0
41
1
10
62.7543446564302
20
1.21226504259806
30
0
41
1
10
62.7604888460531
20
1.11936364923008
30
0
41
1
10
62.7645780433809
20
1.05703770461142
30
0
41
1
10
62.7666209022252
20
1.02565143826055
30
0
41
1
10
62.7767654900069
20
0.868557409057814
30
0
41
1
10
62.7846960707382
20
0.741793497602032
30
0
41
1
10
62.8002273901305
20
0.486144524447354
30
0
41
1
10
62.807827266467
20
0.357259296898775
30
0
41
1
10
62.8152883845008
20
0.227302725950693
30
0
0
SPLINE
5
FE
100
AcDbEntity
8
1
62
256
6
ByLayer
370
18
48
1
60
0
100
AcDbSpline
70
4
71
3
72
29
73
25
40
0
40
0
40
0
40
0
40
0.125000000000001
40
0.250000000000002
40
0.250000000000002
40
0.281250000000002
40
0.281250000000002
40
0.312500000000002
40
0.312500000000002
40
0.375000000000002
40
0.375000000000002
40
0.500000000000001
40
0.500000000000001
40
0.625000000000001
40
0.625000000000001
40
0.687500000000001
40
0.687500000000001
40
0.718750000000001
40
0.718750000000001
40
0.750000000000001
40
0.750000000000001
40
0.875
40
0.875
40
1
40
1
40
1
40
1
41
1
10
63.298026442472
20
-0.195515858697519
30
0
41
1
10
63.2919263671964
20
-0.0731928412023422
30
0
41
1
10
63.2800679861368
20
0.170717325315138
30
0
41
1
10
63.2689844702447
20
0.413184804799897
30
0
41
1
10
63.262268032025
20
0.564267607967338
30
0
41
1
10
63.2609350715538
20
0.59446113008832
30
0
41
1
10
63.2582882004845
20
0.654801597384278
30
0
41
1
10
63.2569732987516
20
0.684971831133311
30
0
41
1
10
63.2530743231055
20
0.77494668641009
30
0
41
1
10
63.2505297976891
20
0.834357366801441
30
0
41
1
10
63.2430273838993
20
1.01090314357234
30
0
41
1
10
63.2382054888245
20
1.12635454027901
30
0
41
1
10
63.2286883514394
20
1.35282919912115
30
0
41
1
10
63.223959191707
20
1.46385947123653
30
0
41
1
10
63.2167639685115
20
1.62706593014283
30
0
41
1
10
63.2143575762861
20
1.68090991603526
30
0
41
1
10
63.2107472227657
20
1.76082181305904
30
0
41
1
10
63.2095420048901
20
1.78735219241978
30
0
41
1
10
63.2071437728021
20
1.83988920974744
30
0
41
1
10
63.2059503446362
20
1.86590547750558
30
0
41
1
10
63.2000152583162
20
1.99473677218697
30
0
41
1
10
63.1953713650982
20
2.0938127013678
30
0
41
1
10
63.1863589729039
20
2.28409004716417
30
0
41
1
10
63.1819949756385
20
2.37528653486271
30
0
41
1
10
63.1777709987704
20
2.46247106618438
30
0
0
SPLINE
5
FF
100
AcDbEntity
8
1
62
256
6
ByLayer
370
13
48
1
60
0
100
AcDbSpline
70
4
71
3
72
9
73
5
40
0
40
0
40
0
40
0
40
0.535827020332251
40
1
40
1
40
1
40
1
41
1.04
10
56.0608549562656
20
-1.0940880146688
30
0
41
1.04
10
56.0316366356751
20
-0.629124116924264
30
0
41
1.04
10
55.9794015744131
20
0.269644498527609
30
0
41
1.04
10
55.9300114560755
20
1.08204693059657
30
0
41
1.04
10
55.9073843094991
20
1.42732404363501
30
0
0
SPLINE
5
100
100
AcDbEntity
8
1
62
256
6
ByLayer
370
13
48
1
60
0
100
AcDbSpline
70
4
71
3
72
10
73
6
40
0
40
0
40
0
40
0
40
0.599617018006222
40
0.772127764222123
40
1
40
1
40
1
40
1
41
1
10
55.0755591019277
20
-0.297104481513571
30
0
41
1
10
55.0451102891161
20
0.214528307336224
30
0
41
1
10
55.0060598653597
20
0.88419838141067
30
0
41
1
10
54.9546009675967
20
1.67219959532719
30
0
41
1
10
54.9338898528293
20
1.96265111026884
30
0
41
1
10
54.9220949002965
20
2.11703516861215
30
0
0
SPLINE
5
101
100
AcDbEntity
8
1
62
256
6
ByLayer
370
13
48
1
60
0
100
AcDbSpline
70
4
71
3
72
9
73
5
40
0
40
0
40
0
40
0
40
0.648313301737314
40
1
40
1
40
1
40
1
41
1
10
56.3902236523278
20
-1.34862763534693
30
0
41
1
10
56.3547063797775
20
-0.80125085206501
30
0
41
1
10
56.3028089128957
20
0.0961775411901726
30
0
41
1
10
56.2536880850246
20
0.9077670715034
30
0
41
1
10
56.2366244550637
20
1.17705792226221
30
0
0
SPLINE
5
102
100
AcDbEntity
8
1
62
256
6
ByLayer
370
18
48
1
60
0
100
AcDbSpline
70
4
71
3
72
27
73
23
40
0
40
0
40
0
40
0
40
0.125
40
0.125
40
0.187499999999999
40
0.187499999999999
40
0.249999999999999
40
0.249999999999999
40
0.374999999999999
40
0.374999999999999
40
0.499999999999999
40
0.499999999999999
40
0.624999999999999
40
0.624999999999999
40
0.656249999999999
40
0.656249999999999
40
0.687499999999999
40
0.749999999999999
40
0.749999999999999
40
0.874999999999999
40
0.874999999999999
40
1
40
1
40
1
40
1
41
1
10
56.6662304220338
20
1.02822170165655
30
0
41
1
10
56.6731145277108
20
0.893438489668199
30
0
41
1
10
56.6800071248236
20
0.756943419987664
30
0
41
1
10
56.6903786361585
20
0.549603957026534
30
0
41
1
10
56.6938409101058
20
0.480057130831824
30
0
41
1
10
56.7007741660348
20
0.340080360377954
30
0
41
1
10
56.7042533344815
20
0.269472574831156
30
0
41
1
10
56.7145958592766
20
0.0585644442177227
30
0
41
1
10
56.7213882684397
20
-0.081341122122069
30
0
41
1
10
56.7348676193283
20
-0.359787721945054
30
0
41
1
10
56.7415557286313
20
-0.498328599932506
30
0
41
1
10
56.7549812543273
20
-0.774033878271837
30
0
41
1
10
56.7617196391344
20
-0.91119837220694
30
0
41
1
10
56.7702833084018
20
-1.08175784740888
30
0
41
1
10
56.7719995902803
20
-1.11575461025313
30
0
41
1
10
56.7754299686362
20
-1.18328860293667
30
0
41
1
10
56.7805775367918
20
-1.28400666596104
30
0
41
1
10
56.7857416354987
20
-1.38299505550685
30
0
41
1
10
56.7961141260029
20
-1.57869859137341
30
0
41
1
10
56.803106645269
20
-1.70614170065889
30
0
41
1
10
56.8171964120538
20
-1.95501230879273
30
0
41
1
10
56.8242481172736
20
-2.07644222440999
30
0
41
1
10
56.8312199483212
20
-2.19478955477172
30
0
0
SPLINE
5
103
100
AcDbEntity
8
1
62
256
6
ByLayer
370
13
48
1
60
0
100
AcDbSpline
70
4
71
3
72
10
73
6
40
0
40
0
40
0
40
0
40
0.177006994920028
40
0.513461324725986
40
1
40
1
40
1
40
1
41
1
10
53.7609714190103
20
0.785003824415639
30
0
41
1
10
53.7516048930286
20
0.938581018453817
30
0
41
1
10
53.7243492762737
20
1.37769673393367
30
0
41
1
10
53.670937650235
20
2.1681117897646
30
0
41
1
10
53.6305390482356
20
2.62976361531003
30
0
41
1
10
53.6075989749027
20
2.83679373743519
30
0
0
SPLINE
5
104
100
AcDbEntity
8
1
62
256
6
ByLayer
370
13
48
1
60
0
100
AcDbSpline
70
4
71
3
72
10
73
6
40
0
40
0
40
0
40
0
40
0.212446388996943
40
0.560997837826925
40
1
40
1
40
1
40
1
41
1
10
57.7047897187595
20
-2.25818984260906
30
0
41
1
10
57.6942167463357
20
-2.12636428471586
30
0
41
1
10
57.6661670853797
20
-1.75146326363688
30
0
41
1
10
57.6152174625641
20
-0.969442572437202
30
0
41
1
10
57.5742297425674
20
-0.274520658922427
30
0
41
1
10
57.5511943065239
20
0.113584641270307
30
0
0
SPLINE
5
105
100
AcDbEntity
8
1
62
256
6
ByLayer
370
18
48
1
60
0
100
AcDbSpline
70
4
71
3
72
30
73
26
40
0
40
0
40
0
40
0
40
0.124999999999999
40
0.124999999999999
40
0.187499999999998
40
0.187499999999998
40
0.218749999999998
40
0.218749999999998
40
0.249999999999999
40
0.249999999999999
40
0.374999999999999
40
0.374999999999999
40
0.499999999999999
40
0.499999999999999
40
0.562499999999999
40
0.562499999999999
40
0.593749999999999
40
0.593749999999999
40
0.624999999999999
40
0.624999999999999
40
0.749999999999999
40
0.749999999999999
40
0.875
40
0.875
40
1
40
1
40
1
40
1
41
1
10
56.9547035713185
20
-2.29809816471675
30
0
41
1
10
56.9478650736988
20
-2.18322771767683
30
0
41
1
10
56.941004393372
20
-2.06431383186944
30
0
41
1
10
56.930690659916
20
-1.8797778373951
30
0
41
1
10
56.9272481717141
20
-1.81723632592036
30
0
41
1
10
56.9220705813134
20
-1.72184837243592
30
0
41
1
10
56.9203404921556
20
-1.68975451818398
30
0
41
1
10
56.9168929580108
20
-1.6253958008574
30
0
41
1
10
56.9151735349968
20
-1.59309498764071
30
0
41
1
10
56.9065924891669
20
-1.43099063461503
30
0
41
1
10
56.8997721193393
20
-1.29939142585428
30
0
41
1
10
56.8860965324109
20
-1.03245889207054
30
0
41
1
10
56.8792663126833
20
-0.897124254985698
30
0
41
1
10
56.869038665675
20
-0.691297745132999
30
0
41
1
10
56.8656313897189
20
-0.622217276719567
30
0
41
1
10
56.8605153302048
20
-0.517878184717404
30
0
41
1
10
56.8588090590634
20
-0.482978697001499
30
0
41
1
10
56.8553926090867
20
-0.412937581496038
30
0
41
1
10
56.8536801041778
20
-0.37774798516449
30
0
41
1
10
56.8451454382314
20
-0.202094267719815
30
0
41
1
10
56.8383899868986
20
-0.0621108470612342
30
0
41
1
10
56.8248066015954
20
0.216801383078831
30
0
41
1
10
56.8179498526587
20
0.355728678686319
30
0
41
1
10
56.8040340092317
20
0.632523192400072
30
0
41
1
10
56.7970202470934
20
0.770392737159938
30
0
41
1
10
56.7900219785101
20
0.907721442473417
30
0
0
SPLINE
5
106
100
AcDbEntity
8
1
62
256
6
ByLayer
370
13
48
1
60
0
100
AcDbSpline
70
4
71
3
72
11
73
7
40
0
40
0
40
0
40
0
40
0.0979417693835094
40
0.448589686308213
40
0.963044999112911
40
1
40
1
40
1
40
1
41
1.04
10
57.3754523686582
20
-2.04872991561313
30
0
41
1.04
10
57.3705790574834
20
-1.98367343176205
30
0
41
1.04
10
57.3481969407769
20
-1.67640850220129
30
0
41
1.04
10
57.2994235374748
20
-0.929640866084551
30
0
41
1.04
10
57.2526669769886
20
-0.130681397157144
30
0
41
1.04
10
57.2238133766076
20
0.353302573499001
30
0
41
1.04
10
57.2218786225198
20
0.385702040185867
30
0
0
SPLINE
5
107
100
AcDbEntity
8
1
62
256
6
ByLayer
370
13
48
1
60
0
100
AcDbSpline
70
4
71
3
72
10
73
6
40
0
40
0
40
0
40
0
40
0.3331450223396
40
0.853373768982173
40
1
40
1
40
1
40
1
41
1.04
10
58.6900968683429
20
-2.79025514936281
30
0
41
1.04
10
58.6729157748279
20
-2.62927673160316
30
0
41
1.04
10
58.628969362098
20
-2.1358524686885
30
0
41
1.04
10
58.577932547595
20
-1.37559439363364
30
0
41
1.04
10
58.5437948291494
20
-0.818565248142742
30
0
41
1.04
10
58.5363158056697
20
-0.695103631391256
30
0
0
SPLINE
5
108
100
AcDbEntity
8
1
62
256
6
ByLayer
370
18
48
1
60
0
100
AcDbSpline
70
4
71
3
72
27
73
23
40
0
40
0
40
0
40
0
40
0.125
40
0.125
40
0.25
40
0.25
40
0.281250000000001
40
0.281250000000001
40
0.312500000000001
40
0.375000000000001
40
0.375000000000001
40
0.500000000000001
40
0.625000000000002
40
0.625000000000002
40
0.656250000000002
40
0.656250000000002
40
0.687500000000002
40
0.687500000000002
40
0.750000000000001
40
0.750000000000001
40
0.875000000000001
40
1
40
1
40
1
40
1
41
1
10
54.0371412802653
20
3.19558539269468
30
0
41
1
10
54.0439634185659
20
3.10943975605531
30
0
41
1
10
54.0507505757082
20
3.01791466702363
30
0
41
1
10
54.0643791256999
20
2.82412471467004
30
0
41
1
10
54.0712219187873
20
2.72186074434785
30
0
41
1
10
54.0798823381367
20
2.58711407835349
30
0
41
1
10
54.0816221908093
20
2.55977810839886
30
0
41
1
10
54.0851001747981
20
2.50462043513676
30
0
41
1
10
54.0903134141349
20
2.42120161315361
30
0
41
1
10
54.0955082864078
20
2.33576094679339
30
0
41
1
10
54.1058173044337
20
2.16222723039709
30
0
41
1
10
54.119319892174
20
1.92378840077987
30
0
41
1
10
54.1325108342715
20
1.67137407776775
30
0
41
1
10
54.1409886143223
20
1.50916667713614
30
0
41
1
10
54.1426981842896
20
1.47650232830989
30
0
41
1
10
54.1461447165104
20
1.41072317264062
30
0
41
1
10
54.1478833358152
20
1.37756795126347
30
0
41
1
10
54.1531184188427
20
1.27770898444797
30
0
41
1
10
54.156623139641
20
1.21081641101452
30
0
41
1
10
54.1671422078113
20
1.00919763044996
30
0
41
1
10
54.1811737488671
20
0.737867757409731
30
0
41
1
10
54.1949749078088
20
0.461608900801423
30
0
41
1
10
54.2018194464443
20
0.322230912659251
30
0
0
SPLINE
5
109
100
AcDbEntity
8
1
62
256
6
ByLayer
370
13
48
1
60
0
100
AcDbSpline
70
4
71
3
72
10
73
6
40
0
40
0
40
0
40
0
40
0.487956448129179
40
0.66096266470053
40
1
40
1
40
1
40
1
41
1.04
10
54.7462389719378
20
-0.0242295026126818
30
0
41
1.04
10
54.7215536008568
20
0.392197143105997
30
0
41
1.04
10
54.6881358813019
20
0.956684650311356
30
0
41
1.04
10
54.6368243258039
20
1.74427445767672
30
0
41
1.04
10
54.6103751814815
20
2.10720942752635
30
0
41
1.04
10
54.5928751464495
20
2.32063227585793
30
0
0
SPLINE
5
10A
100
AcDbEntity
8
1
62
256
6
ByLayer
370
18
48
1
60
0
100
AcDbSpline
70
4
71
3
72
33
73
29
40
0
40
0
40
0
40
0
40
0.0312500000000002
40
0.0312500000000002
40
0.0625000000000005
40
0.0625000000000005
40
0.125000000000001
40
0.125000000000001
40
0.250000000000001
40
0.250000000000001
40
0.375000000000002
40
0.375000000000002
40
0.437500000000002
40
0.437500000000002
40
0.468750000000002
40
0.468750000000002
40
0.500000000000001
40
0.500000000000001
40
0.625000000000001
40
0.750000000000002
40
0.750000000000002
40
0.812500000000002
40
0.812500000000002
40
0.843750000000002
40
0.843750000000002
40
0.875000000000002
40
0.875000000000002
40
1
40
1
40
1
40
1
41
1
10
55.351845982592
20
2.22848993342043
30
0
41
1
10
55.3535416177145
20
2.19914863624919
30
0
41
1
10
55.3552381222702
20
2.16950711926262
30
0
41
1
10
55.3586365023305
20
2.10961685175033
30
0
41
1
10
55.360338577952
20
2.07936366692121
30
0
41
1
10
55.3654291140247
20
1.98822611722826
30
0
41
1
10
55.3688144423646
20
1.92678840793931
30
0
41
1
10
55.3789650579291
20
1.74047774932032
30
0
41
1
10
55.3857128000096
20
1.61361189512206
30
0
41
1
10
55.3993101676114
20
1.354648619128
30
0
41
1
10
55.4061649603483
20
1.22255149948796
30
0
41
1
10
55.4165296871868
20
1.02041673934986
30
0
41
1
10
55.4199984357082
20
0.952372340120519
30
0
41
1
10
55.4252234534056
20
0.849285879617838
30
0
41
1
10
55.426970220536
20
0.814724967350543
30
0
41
1
10
55.4304514075915
20
0.745656962627493
30
0
41
1
10
55.432188116885
20
0.711104868090331
30
0
41
1
10
55.4408533754179
20
0.538254973305897
30
0
41
1
10
55.4545988056693
20
0.261124207970539
30
0
41
1
10
55.4681956081569
20
-0.0171176176325787
30
0
41
1
10
55.4783944516422
20
-0.22621617027923
30
0
41
1
10
55.481794532878
20
-0.295985340724258
30
0
41
1
10
55.4869050014223
20
-0.400744784869431
30
0
41
1
10
55.4886102338047
20
-0.435682222521905
30
0
41
1
10
55.492026020708
20
-0.505592647718032
30
0
41
1
10
55.4937387483249
20
-0.540609891788648
30
0
41
1
10
55.5022751252073
20
-0.714857073446893
30
0
41
1
10
55.5090414252196
20
-0.852081048060683
30
0
41
1
10
55.5158117166045
20
-0.987198113226981
30
0
0
SPLINE
5
10B
100
AcDbEntity
8
1
62
256
6
ByLayer
370
18
48
1
60
0
100
AcDbSpline
70
4
71
3
72
8
73
4
40
0
40
0
40
0
40
0
40
1
40
1
40
1
40
1
41
1
10
63.5851424643015
20
3.35526342324707
30
0
41
1
10
63.5242608769182
20
3.23384727195537
30
0
41
1
10
63.4630796294885
20
3.11134513304788
30
0
41
1
10
63.4014441393065
20
2.98778210274307
30
0
0
SPLINE
5
10C
100
AcDbEntity
8
1
62
256
6
ByLayer
370
18
48
1
60
0
100
AcDbSpline
70
4
71
3
72
30
73
26
40
0
40
0
40
0
40
0
40
0.125000000000032
40
0.125000000000032
40
0.250000000000063
40
0.250000000000063
40
0.375000000000095
40
0.375000000000095
40
0.437500000000079
40
0.437500000000079
40
0.500000000000064
40
0.500000000000064
40
0.625000000000099
40
0.625000000000099
40
0.687500000000082
40
0.687500000000082
40
0.750000000000066
40
0.750000000000066
40
0.81250000000005
40
0.81250000000005
40
0.875000000000033
40
0.875000000000033
40
0.937500000000017
40
0.937500000000017
40
1
40
1
40
1
40
1
41
1
10
63.4014441393065
20
2.98778210274304
30
0
41
1
10
63.3926021993288
20
2.97005632666529
30
0
41
1
10
63.382340705099
20
2.9537625141044
30
0
41
1
10
63.3596029039417
20
2.92339077848365
30
0
41
1
10
63.3470105262419
20
2.90924780753417
30
0
41
1
10
63.3205659389245
20
2.88383740870856
30
0
41
1
10
63.3066510840304
20
2.87246349866354
30
0
41
1
10
63.2847820903864
20
2.85735624273906
30
0
41
1
10
63.2773212672191
20
2.85265228901886
30
0
41
1
10
63.2623234712007
20
2.84407212099214
30
0
41
1
10
63.2547550774219
20
2.84017285821869
30
0
41
1
10
63.231849120702
20
2.82966474039421
30
0
41
1
10
63.2163142528937
20
2.82422218800693
30
0
41
1
10
63.1925966444115
20
2.81881347794561
30
0
41
1
10
63.1846104914801
20
2.81748132842253
30
0
41
1
10
63.1688719354707
20
2.81591607935496
30
0
41
1
10
63.1610744058912
20
2.81566973695129
30
0
41
1
10
63.1456483678134
20
2.81637252334335
30
0
41
1
10
63.1380015490912
20
2.81732385095651
30
0
41
1
10
63.1229937419311
20
2.82062664478127
30
0
41
1
10
63.115764584612
20
2.82294674187517
30
0
41
1
10
63.1019263459627
20
2.82908253226381
30
0
41
1
10
63.0952918755705
20
2.83291356128336
30
0
41
1
10
63.0828765132291
20
2.84230401993071
30
0
41
1
10
63.0772047821645
20
2.84777356184418
30
0
41
1
10
63.0721380447025
20
2.85412305771325
30
0
0
SPLINE
5
10D
100
AcDbEntity
8
1
62
256
6
ByLayer
370
18
48
1
60
0
100
AcDbSpline
70
4
71
3
72
10
73
6
40
0
40
0
40
0
40
0
40
0.5
40
0.5
40
1
40
1
40
1
40
1
41
1
10
63.0721380447026
20
2.85412305771325
30
0
41
1
10
63.0253870027864
20
2.91271017610074
30
0
41
1
10
62.9787986111859
20
2.96936083468546
30
0
41
1
10
62.8859642814514
20
3.07875406405805
30
0
41
1
10
62.8397316865773
20
3.13147492301323
30
0
41
1
10
62.7937323263736
20
3.18215897152208
30
0
0
SPLINE
5
10E
100
AcDbEntity
8
1
62
256
6
ByLayer
370
18
48
1
60
0
100
AcDbSpline
70
4
71
3
72
8
73
4
40
0
40
0
40
0
40
0
40
1
40
1
40
1
40
1
41
1
10
62.7937323263736
20
3.18215897152211
30
0
41
1
10
62.6713957318489
20
3.14388721009141
30
0
41
1
10
62.549768695987
20
3.10044169984525
30
0
41
1
10
62.4285757020989
20
3.05187356552708
30
0
0
SPLINE
5
10F
100
AcDbEntity
8
1
62
256
6
ByLayer
370
18
48
1
60
0
100
AcDbSpline
70
4
71
3
72
10
73
6
40
0
40
0
40
0
40
0
40
0.502749190756733
40
0.502749190756733
40
1
40
1
40
1
40
1
41
1
10
62.4285757020989
20
3.05187356552708
30
0
41
1
10
62.4004204492927
20
2.99268371328859
30
0
41
1
10
62.3721850159467
20
2.93351093644466
30
0
41
1
10
62.3158376639654
20
2.81585830675229
30
0
41
1
10
62.2877244182683
20
2.75737110251191
30
0
41
1
10
62.2595580183826
20
2.69901832275812
30
0
0
SPLINE
5
110
100
AcDbEntity
8
1
62
256
6
ByLayer
370
18
48
1
60
0
100
AcDbSpline
70
4
71
3
72
20
73
16
40
0
40
0
40
0
40
0
40
0.0709179271664085
40
0.0709179271664085
40
0.22576493930534
40
0.22576493930534
40
0.380611951444272
40
0.380611951444272
40
0.535458963583204
40
0.535458963583204
40
0.690305975722136
40
0.690305975722136
40
0.845152987861068
40
0.845152987861068
40
1
40
1
40
1
40
1
41
1
10
52.6943782636858
20
-3.26598370138021
30
0
41
1
10
52.6908069341974
20
-3.26645710222024
30
0
41
1
10
52.6872266277751
20
-3.26702639457542
30
0
41
1
10
52.6758006176653
20
-3.2691531883753
30
0
41
1
10
52.6679211728979
20
-3.27108745658802
30
0
41
1
10
52.6520735388429
20
-3.27605449724831
30
0
41
1
10
52.6442011558123
20
-3.27906170173341
30
0
41
1
10
52.6287517490204
20
-3.28616451417648
30
0
41
1
10
52.6211485016412
20
-3.29026668747193
30
0
41
1
10
52.6062306579737
20
-3.29974688476324
30
0
41
1
10
52.5988786446233
20
-3.30516649010565
30
0
41
1
10
52.5849869506508
20
-3.31716042608164
30
0
41
1
10
52.5783952997123
20
-3.32375747820558
30
0
41
1
10
52.5660379729933
20
-3.33835062628771
30
0
41
1
10
52.5602846742011
20
-3.34635692485344
30
0
41
1
10
52.5552095250409
20
-3.3549196619542
30
0
0
SPLINE
5
111
100
AcDbEntity
8
1
62
256
6
ByLayer
370
18
48
1
60
0
100
AcDbSpline
70
4
71
3
72
12
73
8
40
0
40
0
40
0
40
0
40
0.500000000000012
40
0.500000000000012
40
0.750000000000006
40
0.750000000000006
40
1
40
1
40
1
40
1
41
1
10
52.5552095250409
20
-3.3549196619542
30
0
41
1
10
52.4841271940606
20
-3.47484900658819
30
0
41
1
10
52.4134097686043
20
-3.59346834941732
30
0
41
1
10
52.3080430239176
20
-3.76876553952121
30
0
41
1
10
52.2730344151929
20
-3.82676676806383
30
0
41
1
10
52.2033247753153
20
-3.94170617440966
30
0
41
1
10
52.1686071913642
20
-3.99867191225869
30
0
41
1
10
52.134004543043
20
-4.05513462461425
30
0
0
SPLINE
5
112
100
AcDbEntity
8
1
62
256
6
ByLayer
370
18
48
1
60
0
100
AcDbSpline
70
4
71
3
72
8
73
4
40
0
40
0
40
0
40
0
40
1
40
1
40
1
40
1
41
1
10
52.0468911086753
20
-4.04835471095987
30
0
41
1
10
52.075964912369
20
-4.05093061123605
30
0
41
1
10
52.1050016409485
20
-4.05318988013548
30
0
41
1
10
52.134004543043
20
-4.05513462461417
30
0
0
SPLINE
5
113
100
AcDbEntity
8
1
62
256
6
ByLayer
370
18
48
1
60
0
100
AcDbSpline
70
4
71
3
72
14
73
10
40
0
40
0
40
0
40
0
40
0.125000000000009
40
0.125000000000009
40
0.250000000000017
40
0.250000000000017
40
0.500000000000012
40
0.500000000000012
40
1
40
1
40
1
40
1
41
1
10
59.7418974249651
20
3.35505854234785
30
0
41
1
10
59.7599885244148
20
3.38504972927072
30
0
41
1
10
59.7781124577593
20
3.41503654196035
30
0
41
1
10
59.8143937568664
20
3.47494174193244
30
0
41
1
10
59.8325448743714
20
3.50484750681997
30
0
41
1
10
59.8868199604608
20
3.59393055275115
30
0
41
1
10
59.9228288289867
20
3.65261121519379
30
0
41
1
10
60.0304565547706
20
3.82659472032273
30
0
41
1
10
60.1014071211377
20
3.93938352586673
30
0
41
1
10
60.1717984556843
20
4.04899916499201
30
0
0
SPLINE
5
114
100
AcDbEntity
8
1
62
256
6
ByLayer
370
18
48
1
60
0
100
AcDbSpline
70
4
71
3
72
8
73
4
40
0
40
0
40
0
40
0
40
1
40
1
40
1
40
1
41
1
10
60.2956559916559
20
4.03625704824918
30
0
41
1
10
60.2542918806122
20
4.0411473038254
30
0
41
1
10
60.2130238388627
20
4.04539537607161
30
0
41
1
10
60.1717984556843
20
4.04899916499201
30
0
0
SPLINE
5
115
100
AcDbEntity
8
1
62
256
6
ByLayer
370
18
48
1
60
0
100
AcDbSpline
70
4
71
3
72
14
73
10
40
0
40
0
40
0
40
0
40
0.499999999999999
40
0.499999999999999
40
0.75
40
0.75
40
0.875
40
0.875
40
1
40
1
40
1
40
1
41
1
10
60.2956559916559
20
4.03625704824918
30
0
41
1
10
60.3661700294999
20
3.91272618775966
30
0
41
1
10
60.4373057354873
20
3.7869440779061
30
0
41
1
10
60.5452183091293
20
3.59511776776679
30
0
41
1
10
60.5813293268994
20
3.53076184402664
30
0
41
1
10
60.6357288692751
20
3.43364975625323
30
0
41
1
10
60.6538842064574
20
3.40120083533543
30
0
41
1
10
60.6903896157861
20
3.3359917224725
30
0
41
1
10
60.7087497225987
20
3.30322114603001
30
0
41
1
10
60.7272493482968
20
3.27026429271845
30
0
0
SPLINE
5
116
100
AcDbEntity
8
1
62
256
6
ByLayer
370
18
48
1
60
0
100
AcDbSpline
70
4
71
3
72
31
73
27
40
0
40
0
40
0
40
0
40
0.125000000000008
40
0.125000000000008
40
0.187500000000013
40
0.187500000000013
40
0.250000000000019
40
0.312500000000024
40
0.312500000000024
40
0.375000000000029
40
0.375000000000029
40
0.500000000000038
40
0.500000000000038
40
0.562500000000043
40
0.562500000000043
40
0.625000000000048
40
0.625000000000048
40
0.74999999999999
40
0.74999999999999
40
0.812499999999993
40
0.812499999999993
40
0.874999999999995
40
0.874999999999995
40
0.937499999999998
40
0.937499999999998
40
1
40
1
40
1
40
1
41
1
10
60.7272493482968
20
3.27026429271848
30
0
41
1
10
60.7368858884682
20
3.25309691614331
30
0
41
1
10
60.7483052874654
20
3.23804105020096
30
0
41
1
10
60.7674225449899
20
3.21783356255318
30
0
41
1
10
60.7741680935945
20
3.21148425094066
30
0
41
1
10
60.787928846565
20
3.1998438959418
30
0
41
1
10
60.8020333184301
20
3.18917191935009
30
0
41
1
10
60.8167372820064
20
3.18023275447754
30
0
41
1
10
60.8317144283693
20
3.17210732779648
30
0
41
1
10
60.8393740843368
20
3.16843947071936
30
0
41
1
10
60.8623663629216
20
3.15877947021124
30
0
41
1
10
60.8777740242618
20
3.15406088007992
30
0
41
1
10
60.9009472851911
20
3.14938289583719
30
0
41
1
10
60.9087149111182
20
3.14822560124045
30
0
41
1
10
60.9240965487379
20
3.14675642356255
30
0
41
1
10
60.9316905125202
20
3.14644228872277
30
0
41
1
10
60.9541757909935
20
3.14675043483652
30
0
41
1
10
60.9687751648622
20
3.14859940658636
30
0
41
1
10
60.9899939852895
20
3.1541668907806
30
0
41
1
10
60.9969885924761
20
3.15651248134222
30
0
41
1
10
61.0104326355506
20
3.16216085479422
30
0
41
1
10
61.0169047077633
20
3.16546318724491
30
0
41
1
10
61.0293015228274
20
3.17312615051128
30
0
41
1
10
61.0352270370593
20
3.17748510228986
30
0
41
1
10
61.0464414211042
20
3.18745487335227
30
0
41
1
10
61.0516928328844
20
3.19304111495626
30
0
41
1
10
61.0564463091617
20
3.19925054071916
30
0
0
SPLINE
5
117
100
AcDbEntity
8
1
62
256
6
ByLayer
370
18
48
1
60
0
100
AcDbSpline
70
4
71
3
72
16
73
12
40
0
40
0
40
0
40
0
40
0.125
40
0.125
40
0.25
40
0.25
40
0.5
40
0.5
40
0.75
40
0.75
40
1
40
1
40
1
40
1
41
1
10
61.0564463091618
20
3.19925054071916
30
0
41
1
10
61.0727733392164
20
3.22057840166502
30
0
41
1
10
61.089127084073
20
3.2419089123137
30
0
41
1
10
61.1218671099141
20
3.28451083172865
30
0
41
1
10
61.1382561750807
20
3.30579471206571
30
0
41
1
10
61.1872924370902
20
3.36885636677448
30
0
41
1
10
61.2198386623042
20
3.40995176224348
30
0
41
1
10
61.2847109180661
20
3.49035337982798
30
0
41
1
10
61.3170223178103
20
3.52963366478303
30
0
41
1
10
61.3813305237157
20
3.60622533186844
30
0
41
1
10
61.4133424633416
20
3.64355562288537
30
0
41
1
10
61.4452314655577
20
3.67991737719652
30
0
0
SPLINE
5
118
100
AcDbEntity
8
1
62
256
6
ByLayer
370
18
48
1
60
0
100
AcDbSpline
70
4
71
3
72
8
73
4
40
0
40
0
40
0
40
0
40
1
40
1
40
1
40
1
41
1
10
61.4452314655577
20
3.67991737719652
30
0
41
1
10
61.5233049045967
20
3.63525557901502
30
0
41
1
10
61.6015708177346
20
3.58867450644902
30
0
41
1
10
61.680161880432
20
3.540175330051
30
0
0
SPLINE
5
119
100
AcDbEntity
8
1
62
256
6
ByLayer
370
18
48
1
60
0
100
AcDbSpline
70
4
71
3
72
16
73
12
40
0
40
0
40
0
40
0
40
0.25
40
0.25
40
0.5
40
0.5
40
0.75
40
0.75
40
0.875
40
0.875
40
1
40
1
40
1
40
1
41
1
10
61.680161880432
20
3.54017533005069
30
0
41
1
10
61.7097805571223
20
3.4833813542923
30
0
41
1
10
61.7395095281851
20
3.42656473177519
30
0
41
1
10
61.7992392467422
20
3.31290543658537
30
0
41
1
10
61.8292566933947
20
3.25603389503078
30
0
41
1
10
61.8894876777011
20
3.14250288301233
30
0
41
1
10
61.9197101210116
20
3.08582918317552
30
0
41
1
10
61.9652134386474
20
3.00095868192878
30
0
41
1
10
61.9804071944399
20
2.97269032492875
30
0
41
1
10
62.0109660172179
20
2.9162795282225
30
0
41
1
10
62.0263266696612
20
2.88813394880438
30
0
41
1
10
62.0417849458622
20
2.86005871051907
30
0
0
SPLINE
5
11A
100
AcDbEntity
8
1
62
256
6
ByLayer
370
18
48
1
60
0
100
AcDbSpline
70
4
71
3
72
31
73
27
40
0
40
0
40
0
40
0
40
0.124999999999984
40
0.124999999999984
40
0.187500000000004
40
0.187500000000004
40
0.250000000000024
40
0.312500000000044
40
0.312500000000044
40
0.375000000000064
40
0.375000000000064
40
0.500000000000171
40
0.500000000000171
40
0.56250000000019
40
0.56250000000019
40
0.62500000000021
40
0.62500000000021
40
0.750000000000182
40
0.750000000000182
40
0.812500000000137
40
0.812500000000137
40
0.875000000000092
40
0.875000000000092
40
0.937500000000046
40
0.937500000000046
40
1
40
1
40
1
40
1
41
1
10
62.0417849458622
20
2.8600587105191
30
0
41
1
10
62.0514238513887
20
2.84255258202552
30
0
41
1
10
62.062846081816
20
2.82646963374179
30
0
41
1
10
62.0819669221473
20
2.80393428273752
30
0
41
1
10
62.0887133348173
20
2.79666860144528
30
0
41
1
10
62.1024750781531
20
2.78299382042104
30
0
41
1
10
62.116580203557
20
2.77007776387956
30
0
41
1
10
62.1312842357932
20
2.7585114154239
30
0
41
1
10
62.146261195331
20
2.7475746744384
30
0
41
1
10
62.153920515257
20
2.74240176431448
30
0
41
1
10
62.176911030985
20
2.72802812182886
30
0
41
1
10
62.1923174895445
20
2.71989521160822
30
0
41
1
10
62.2154890664455
20
2.70969596436444
30
0
41
1
10
62.2232561851242
20
2.70662251690155
30
0
41
1
10
62.2386363549614
20
2.70122332670783
30
0
41
1
10
62.2462296941678
20
2.6989009989997
30
0
41
1
10
62.2687133656021
20
2.69305305313185
30
0
41
1
10
62.2833120288367
20
2.69062480955438
30
0
41
1
10
62.3045300005376
20
2.68947585184759
30
0
41
1
10
62.3115244113274
20
2.6895190012458
30
0
41
1
10
62.3249685103541
20
2.69054538577873
30
0
41
1
10
62.3314406683479
20
2.6915220879165
30
0
41
1
10
62.3438377463809
20
2.69450282692068
30
0
41
1
10
62.3497634367844
20
2.69650520780124
30
0
41
1
10
62.3609782766043
20
2.70172795583568
30
0
41
1
10
62.3662308540951
20
2.70493860342245
30
0
41
1
10
62.3709854061232
20
2.70881011137956
30
0
0
SPLINE
5
11B
100
AcDbEntity
8
1
62
256
6
ByLayer
370
18
48
1
60
0
100
AcDbSpline
70
4
71
3
72
14
73
10
40
0
40
0
40
0
40
0
40
0.250000000000028
40
0.250000000000028
40
0.375000000000023
40
0.375000000000023
40
0.500000000000018
40
0.500000000000018
40
1
40
1
40
1
40
1
41
1
10
62.3709854061232
20
2.70881011137956
30
0
41
1
10
62.3915398847368
20
2.72554708828864
30
0
41
1
10
62.4121386713393
20
2.7423112391499
30
0
41
1
10
62.4430639917061
20
2.76732800629892
30
0
41
1
10
62.4533757297359
20
2.77563935804571
30
0
41
1
10
62.4739666711281
20
2.79200536438256
30
0
41
1
10
62.4842483480214
20
2.80007216016563
30
0
41
1
10
62.5355874636412
20
2.83980661382475
30
0
41
1
10
62.5764736642029
20
2.86976038581866
30
0
41
1
10
62.6171424801869
20
2.89787517565682
30
0
0
SPLINE
5
11C
100
AcDbEntity
8
1
62
256
6
ByLayer
370
18
48
1
60
0
100
AcDbSpline
70
4
71
3
72
8
73
4
40
0
40
0
40
0
40
0
40
1
40
1
40
1
40
1
41
1
10
62.6171424801869
20
2.89787517565682
30
0
41
1
10
62.8033738283059
20
2.75903909092369
30
0
41
1
10
62.990116173299
20
2.61379222500659
30
0
41
1
10
63.1777709987703
20
2.46247106618438
30
0
0
SPLINE
5
11D
100
AcDbEntity
8
1
62
256
6
ByLayer
370
18
48
1
60
0
100
AcDbSpline
70
4
71
3
72
12
73
8
40
0
40
0
40
0
40
0
40
0.500000000000026
40
0.500000000000026
40
0.750000000000013
40
0.750000000000013
40
1
40
1
40
1
40
1
41
1
10
63.1777709987703
20
2.46247106618438
30
0
41
1
10
63.2072388817161
20
2.4097407433284
30
0
41
1
10
63.236800563252
20
2.35742474378986
30
0
41
1
10
63.2813128837716
20
2.27960096035204
30
0
41
1
10
63.2961805639308
20
2.25377351859828
30
0
41
1
10
63.3260841521515
20
2.20259459956384
30
0
41
1
10
63.3411152830759
20
2.17723098242379
30
0
41
1
10
63.3562402436125
20
2.15211822333825
30
0
0
SPLINE
5
11E
100
AcDbEntity
8
1
62
256
6
ByLayer
370
18
48
1
60
0
100
AcDbSpline
70
4
71
3
72
31
73
27
40
0
40
0
40
0
40
0
40
0.124999999999951
40
0.124999999999951
40
0.187499999999955
40
0.187499999999955
40
0.249999999999959
40
0.312499999999964
40
0.312499999999964
40
0.374999999999968
40
0.374999999999968
40
0.500000000000044
40
0.500000000000044
40
0.562500000000047
40
0.562500000000047
40
0.62500000000005
40
0.62500000000005
40
0.749999999999992
40
0.749999999999992
40
0.812499999999994
40
0.812499999999994
40
0.874999999999996
40
0.874999999999996
40
0.937499999999998
40
0.937499999999998
40
1
40
1
40
1
40
1
41
1
10
63.3562402436125
20
2.15211822333825
30
0
41
1
10
63.3658953329853
20
2.13608737599958
30
0
41
1
10
63.3773362586501
20
2.12064249828614
30
0
41
1
10
63.3964847388737
20
2.09811277618252
30
0
41
1
10
63.4032393043892
20
2.09068414390754
30
0
41
1
10
63.4170144033897
20
2.07639513128166
30
0
41
1
10
63.4311318270896
20
2.06257717857878
30
0
41
1
10
63.4458463071629
20
2.04958740200533
30
0
41
1
10
63.46083288246
20
2.03697869920805
30
0
41
1
10
63.4684958979656
20
2.03084078958557
30
0
41
1
10
63.4914912391493
20
2.01325939009308
30
0
41
1
10
63.5068998272975
20
2.00256661610857
30
0
41
1
10
63.5300731009379
20
1.9879216797909
30
0
41
1
10
63.5378411294683
20
1.9832567084145
30
0
41
1
10
63.5532155007368
20
1.97450324847071
30
0
41
1
10
63.5608060794375
20
1.97042118011498
30
0
41
1
10
63.583281723417
20
1.95904556606504
30
0
41
1
10
63.5978753748197
20
1.9526054183612
30
0
41
1
10
63.6190856947197
20
1.94487709362875
30
0
41
1
10
63.6260763561378
20
1.94261936543472
30
0
41
1
10
63.6395105240132
20
1.93892815784483
30
0
41
1
10
63.6459783589153
20
1.93748228746875
30
0
41
1
10
63.6583679986058
20
1.93547826499034
30
0
41
1
10
63.6642905752256
20
1.9349186575119
30
0
41
1
10
63.6755004208021
20
1.93485509030492
30
0
41
1
10
63.6807506987748
20
1.93535630595585
30
0
41
1
10
63.6855042165011
20
1.93648619389327
30
0
0
SPLINE
5
11F
100
AcDbEntity
8
1
62
256
6
ByLayer
370
18
48
1
60
0
100
AcDbSpline
70
4
71
3
72
10
73
6
40
0
40
0
40
0
40
0
40
0.5
40
0.5
40
1
40
1
40
1
40
1
41
1
10
63.6855042165011
20
1.93648619389327
30
0
41
1
10
63.7025561892185
20
1.94053936449058
30
0
41
1
10
63.7196381029058
20
1.9446143192294
30
0
41
1
10
63.7538376997093
20
1.95269519361435
30
0
41
1
10
63.7709560194972
20
1.95670743906908
30
0
41
1
10
63.7880248476342
20
1.96029770006066
30
0
0
SPLINE
5
120
100
AcDbEntity
8
1
62
256
6
ByLayer
370
18
48
1
60
0
100
AcDbSpline
70
4
71
3
72
12
73
8
40
0
40
0
40
0
40
0
40
0.500000000000001
40
0.500000000000001
40
0.750000000000001
40
0.750000000000001
40
1
40
1
40
1
40
1
41
1
10
61.3193711335597
20
-3.34974752965914
30
0
41
1
10
61.2484308549765
20
-3.47110517717229
30
0
41
1
10
61.1778484141566
20
-3.59162886826965
30
0
41
1
10
61.0726594226697
20
-3.77048946295042
30
0
41
1
10
61.0377060388999
20
-3.82979539454942
30
0
41
1
10
60.9680977865811
20
-3.9475668044567
30
0
41
1
10
60.9334266795285
20
-4.00605990375163
30
0
41
1
10
60.8988664390795
20
-4.06415749477361
30
0
0
SPLINE
5
121
100
AcDbEntity
8
1
62
256
6
ByLayer
370
18
48
1
60
0
100
AcDbSpline
70
4
71
3
72
10
73
6
40
0
40
0
40
0
40
0
40
0.112023578613723
40
0.112023578613723
40
1
40
1
40
1
40
1
41
1
10
60.5833944915892
20
-3.74074721296839
30
0
41
1
10
60.5741527766028
20
-3.7248053906622
30
0
41
1
10
60.5649016493429
20
-3.70879999363362
30
0
41
1
10
60.482231544921
20
-3.56535758945859
30
0
41
1
10
60.4084584532545
20
-3.4344466822937
30
0
41
1
10
60.3340174877385
20
-3.29996121460005
30
0
0
SPLINE
5
122
100
AcDbEntity
8
1
62
256
6
ByLayer
370
18
48
1
60
0
100
AcDbSpline
70
4
71
3
72
30
73
26
40
0
40
0
40
0
40
0
40
0.124999999999961
40
0.124999999999961
40
0.249999999999923
40
0.249999999999923
40
0.374999999999884
40
0.374999999999884
40
0.437499999999896
40
0.437499999999896
40
0.499999999999907
40
0.499999999999907
40
0.624999999999931
40
0.624999999999931
40
0.687499999999942
40
0.687499999999942
40
0.749999999999954
40
0.749999999999954
40
0.812499999999965
40
0.812499999999965
40
0.874999999999977
40
0.874999999999977
40
0.937499999999988
40
0.937499999999988
40
1
40
1
40
1
40
1
41
1
10
60.3340174877375
20
-3.29996121459931
30
0
41
1
10
60.3251785949713
20
-3.28399282113045
30
0
41
1
10
60.3149193499963
20
-3.26977598777097
30
0
41
1
10
60.2921834874007
20
-3.24404464805539
30
0
41
1
10
60.2795906340068
20
-3.23248978278627
30
0
41
1
10
60.2531442655962
20
-3.21254806701978
30
0
41
1
10
60.2392297297432
20
-3.20406678215579
30
0
41
1
10
60.2173631137951
20
-3.19353807141235
30
0
41
1
10
60.2099032451869
20
-3.19040159318305
30
0
41
1
10
60.1949073219687
20
-3.18498692005352
30
0
41
1
10
60.1873398587442
20
-3.18269223873259
30
0
41
1
10
60.1644364488667
20
-3.17706876203937
30
0
41
1
10
60.1489026967635
20
-3.17497560355545
30
0
41
1
10
60.1251851576199
20
-3.17477646251189
30
0
41
1
10
60.1171992008628
20
-3.17521467565425
30
0
41
1
10
60.1014611233882
20
-3.17717817182202
30
0
41
1
10
60.0936638402447
20
-3.17870001912007
30
0
41
1
10
60.0782390967759
20
-3.18294987960152
30
0
41
1
10
60.0705932895823
20
-3.18568424016382
30
0
41
1
10
60.0555873654502
20
-3.19255233936494
30
0
41
1
10
60.0483588365335
20
-3.19662344851085
30
0
41
1
10
60.0345212591142
20
-3.20619239873702
30
0
41
1
10
60.0278866511461
20
-3.21171228207763
30
0
41
1
10
60.015471169986
20
-3.22436964683104
30
0
41
1
10
60.0097991115884
20
-3.23138850437567
30
0
41
1
10
60.004731829004
20
-3.23919090014906
30
0
0
SPLINE
5
123
100
AcDbEntity
8
1
62
256
6
ByLayer
370
18
48
1
60
0
100
AcDbSpline
70
4
71
3
72
12
73
8
40
0
40
0
40
0
40
0
40
0.5
40
0.5
40
0.75
40
0.75
40
1
40
1
40
1
40
1
41
1
10
60.004731829004
20
-3.23919090014906
30
0
41
1
10
59.9337333574176
20
-3.34851146109918
30
0
41
1
10
59.8630938153668
20
-3.45494919110641
30
0
41
1
10
59.7578237187444
20
-3.60981230812155
30
0
41
1
10
59.7228441575035
20
-3.66064037512334
30
0
41
1
10
59.653186193268
20
-3.76055394398304
30
0
41
1
10
59.6184914129966
20
-3.8096636806402
30
0
41
1
10
59.5839088708856
20
-3.85793491333081
30
0
0
SPLINE
5
124
100
AcDbEntity
8
1
62
256
6
ByLayer
370
18
48
1
60
0
100
AcDbSpline
70
4
71
3
72
10
73
6
40
0
40
0
40
0
40
0
40
0.5
40
0.5
40
1
40
1
40
1
40
1
41
1
10
59.4602489209611
20
-3.81708161768171
30
0
41
1
10
59.3878103084684
20
-3.6731229419963
30
0
41
1
10
59.3149259994801
20
-3.52724695542048
30
0
41
1
10
59.1678688950723
20
-3.23180728897137
30
0
41
1
10
59.0939533021645
20
-3.08275283795931
30
0
41
1
10
59.0194058433023
20
-2.93241318340722
30
0
0
SPLINE
5
125
100
AcDbEntity
8
1
62
256
6
ByLayer
370
18
48
1
60
0
100
AcDbSpline
70
4
71
3
72
28
73
24
40
0
40
0
40
0
40
0
40
0.125
40
0.125
40
0.249999999999999
40
0.249999999999999
40
0.374999999999999
40
0.374999999999999
40
0.499999999999999
40
0.499999999999999
40
0.624999999999998
40
0.624999999999998
40
0.687499999999999
40
0.687499999999999
40
0.749999999999999
40
0.749999999999999
40
0.812499999999999
40
0.812499999999999
40
0.874999999999999
40
0.874999999999999
40
0.9375
40
0.9375
40
1
40
1
40
1
40
1
41
1
10
59.0194058433023
20
-2.93241318340722
30
0
41
1
10
59.0105454936905
20
-2.91454454079798
30
0
41
1
10
59.0002601896904
20
-2.89806733781413
30
0
41
1
10
58.9774708328161
20
-2.86726422716868
30
0
41
1
10
58.9648401873378
20
-2.85286351718031
30
0
41
1
10
58.9384140751814
20
-2.82697150562006
30
0
41
1
10
58.9245489252293
20
-2.81535907278916
30
0
41
1
10
58.8955904344899
20
-2.79469653593588
30
0
41
1
10
58.8803580715964
20
-2.78559874366277
30
0
41
1
10
58.8497062520655
20
-2.77078449186891
30
0
41
1
10
58.8342029184674
20
-2.7649741967108
30
0
41
1
10
58.8106951386499
20
-2.75896878082062
30
0
41
1
10
58.8028166827358
20
-2.75742307379946
30
0
41
1
10
58.7869711208356
20
-2.75537880827406
30
0
41
1
10
58.7790957231051
20
-2.75489661557526
30
0
41
1
10
58.7636440994912
20
-2.75512846394202
30
0
41
1
10
58.7560399196762
20
-2.75583728165506
30
0
41
1
10
58.741120689998
20
-2.75862263657601
30
0
41
1
10
58.7337673821286
20
-2.7607236065873
30
0
41
1
10
58.719873319433
20
-2.76639651768247
30
0
41
1
10
58.7132810910931
20
-2.76996784091966
30
0
41
1
10
58.700924034263
20
-2.77882261998462
30
0
41
1
10
58.695171046277
20
-2.78412166426023
30
0
41
1
10
58.6900968683912
20
-2.79025514979475
30
0
0
SPLINE
5
126
100
AcDbEntity
8
1
62
256
6
ByLayer
370
18
48
1
60
0
100
AcDbSpline
70
4
71
3
72
12
73
8
40
0
40
0
40
0
40
0
40
0.5
40
0.5
40
0.75
40
0.75
40
1
40
1
40
1
40
1
41
1
10
58.6900968683878
20
-2.79025514979497
30
0
41
1
10
58.6191621307487
20
-2.87599853463882
30
0
41
1
10
58.5485795929013
20
-2.95717653274659
30
0
41
1
10
58.4433966603398
20
-3.07173597778313
30
0
41
1
10
58.4084462920757
20
-3.10872763928109
30
0
41
1
10
58.3388476487963
20
-3.18024424104019
30
0
41
1
10
58.3041827444474
20
-3.21478756933573
30
0
41
1
10
58.269629705464
20
-3.24813809336013
30
0
0
SPLINE
5
127
100
AcDbEntity
8
1
62
256
6
ByLayer
370
18
48
1
60
0
100
AcDbSpline
70
4
71
3
72
8
73
4
40
0
40
0
40
0
40
0
40
1
40
1
40
1
40
1
41
1
10
58.1452879085147
20
-3.17156927992551
30
0
41
1
10
58.1867298201557
20
-3.19759243255453
30
0
41
1
10
58.2281740366582
20
-3.22311738568928
30
0
41
1
10
58.269629705464
20
-3.24813809336013
30
0
0
SPLINE
5
128
100
AcDbEntity
8
1
62
256
6
ByLayer
370
18
48
1
60
0
100
AcDbSpline
70
4
71
3
72
10
73
6
40
0
40
0
40
0
40
0
40
0.5
40
0.5
40
1
40
1
40
1
40
1
41
1
10
58.1452879085163
20
-3.17156927991428
30
0
41
1
10
58.0728949170411
20
-3.01826418782287
30
0
41
1
10
58.000064641133
20
-2.86527126233142
30
0
41
1
10
57.8531276875216
20
-2.56019349179076
30
0
41
1
10
57.7792762452668
20
-2.40862907840929
30
0
41
1
10
57.7047897187595
20
-2.25818984260903
30
0
0
SPLINE
5
129
100
AcDbEntity
8
1
62
256
6
ByLayer
370
18
48
1
60
0
100
AcDbSpline
70
4
71
3
72
28
73
24
40
0
40
0
40
0
40
0
40
0.125000000000026
40
0.125000000000026
40
0.250000000000053
40
0.250000000000053
40
0.375000000000079
40
0.375000000000079
40
0.500000000000105
40
0.500000000000105
40
0.625000000000132
40
0.625000000000132
40
0.68750000000011
40
0.68750000000011
40
0.750000000000088
40
0.750000000000088
40
0.812500000000066
40
0.812500000000066
40
0.875000000000044
40
0.875000000000044
40
0.937500000000022
40
0.937500000000022
40
1
40
1
40
1
40
1
41
1
10
57.7047897187595
20
-2.25818984260906
30
0
41
1
10
57.6959286938933
20
-2.24029337365309
30
0
41
1
10
57.6856423138985
20
-2.22326786499596
30
0
41
1
10
57.6628499768553
20
-2.19057460197783
30
0
41
1
10
57.6502176551416
20
-2.17480994110562
30
0
41
1
10
57.6237885382295
20
-2.14555830656758
30
0
41
1
10
57.6099216774944
20
-2.13194725829095
30
0
41
1
10
57.5809604104416
20
-2.10666081707947
30
0
41
1
10
57.5657275021735
20
-2.09490938697877
30
0
41
1
10
57.535075258879
20
-2.074283203124
30
0
41
1
10
57.5195715623798
20
-2.06530557279572
30
0
41
1
10
57.4960632761907
20
-2.05408317409362
30
0
41
1
10
57.4881846816963
20
-2.05072001322074
30
0
41
1
10
57.4723390823939
20
-2.04485628001396
30
0
41
1
10
57.4644646960423
20
-2.0423937661617
30
0
41
1
10
57.4490135963235
20
-2.03855198880268
30
0
41
1
10
57.4414094220729
20
-2.03716118803197
30
0
41
1
10
57.4264894697104
20
-2.03559951866111
30
0
41
1
10
57.4191356242901
20
-2.03543906396055
30
0
41
1
10
57.4052394855099
20
-2.03655785275421
30
0
41
1
10
57.3986456311235
20
-2.03782313855063
30
0
41
1
10
57.3862842290085
20
-2.04199950569276
30
0
41
1
10
57.3805289093494
20
-2.04492658260719
30
0
41
1
10
57.3754523714474
20
-2.04872995284811
30
0
0
SPLINE
5
12A
100
AcDbEntity
8
1
62
256
6
ByLayer
370
18
48
1
60
0
100
AcDbSpline
70
4
71
3
72
12
73
8
40
0
40
0
40
0
40
0
40
0.500000000000001
40
0.500000000000001
40
0.75
40
0.75
40
1
40
1
40
1
40
1
41
1
10
57.3754523714474
20
-2.04872995284808
30
0
41
1
10
57.3044667171094
20
-2.10191279723054
30
0
41
1
10
57.2338352933566
20
-2.14933064200673
30
0
41
1
10
57.1285799079462
20
-2.21168340128838
30
0
41
1
10
57.0936057612751
20
-2.23100971115224
30
0
41
1
10
57.0239622392498
20
-2.2667260707662
30
0
41
1
10
56.9892763609185
20
-2.28312602690207
30
0
41
1
10
56.9547035713185
20
-2.29809816471672
30
0
0
SPLINE
5
12B
100
AcDbEntity
8
1
62
256
6
ByLayer
370
18
48
1
60
0
100
AcDbSpline
70
4
71
3
72
8
73
4
40
0
40
0
40
0
40
0
40
1
40
1
40
1
40
1
41
1
10
56.8312199483138
20
-2.19478955477422
30
0
41
1
10
56.8723785396744
20
-2.22956565145768
30
0
41
1
10
56.9135374787924
20
-2.26400389198548
30
0
41
1
10
56.9547035713185
20
-2.29809816471675
30
0
0
SPLINE
5
12C
100
AcDbEntity
8
1
62
256
6
ByLayer
370
18
48
1
60
0
100
AcDbSpline
70
4
71
3
72
10
73
6
40
0
40
0
40
0
40
0
40
0.5
40
0.5
40
1
40
1
40
1
40
1
41
1
10
56.8312199483151
20
-2.19478955476748
30
0
41
1
10
56.7587839615042
20
-2.04822149231262
30
0
41
1
10
56.6858662235292
20
-1.90418933230364
30
0
41
1
10
56.5387305126085
20
-1.62152866775864
30
0
41
1
10
56.4647716352875
20
-1.48338243537998
30
0
41
1
10
56.3902236523278
20
-1.34862763534679
30
0
0
SPLINE
5
12D
100
AcDbEntity
8
1
62
256
6
ByLayer
370
18
48
1
60
0
100
AcDbSpline
70
4
71
3
72
28
73
24
40
0
40
0
40
0
40
0
40
0.125000000000025
40
0.125000000000025
40
0.250000000000051
40
0.250000000000051
40
0.375000000000076
40
0.375000000000076
40
0.500000000000101
40
0.500000000000101
40
0.625000000000126
40
0.625000000000126
40
0.687500000000105
40
0.687500000000105
40
0.750000000000084
40
0.750000000000084
40
0.812500000000063
40
0.812500000000063
40
0.875000000000042
40
0.875000000000042
40
0.937500000000021
40
0.937500000000021
40
1
40
1
40
1
40
1
41
1
10
56.3902236523278
20
-1.34862763534679
30
0
41
1
10
56.3813522506326
20
-1.33259146757953
30
0
41
1
10
56.3710531284511
20
-1.3168171044089
30
0
41
1
10
56.3482344615636
20
-1.28569333565775
30
0
41
1
10
56.3355882099542
20
-1.27023465033156
30
0
41
1
10
56.3091356267707
20
-1.24072590217318
30
0
41
1
10
56.2952589559154
20
-1.22656194269979
30
0
41
1
10
56.2662838018374
20
-1.19934003666879
30
0
41
1
10
56.2510475035211
20
-1.18618600290264
30
0
41
1
10
56.220394371898
20
-1.16194401038294
30
0
41
1
10
56.204892745509
20
-1.15075534266131
30
0
41
1
10
56.1813922982881
20
-1.13551151316986
30
0
41
1
10
56.1735171434172
20
-1.13068919377531
30
0
41
1
10
56.1576801247153
20
-1.1216311554906
30
0
41
1
10
56.1498115069977
20
-1.11745135857078
30
0
41
1
10
56.134371178796
20
-1.10994589840487
30
0
41
1
10
56.1267725431652
20
-1.10660386988403
30
0
41
1
10
56.1118637967108
20
-1.10086184988805
30
0
41
1
10
56.1045153298714
20
-1.09845706442309
30
0
41
1
10
56.0906282028101
20
-1.09490223695283
30
0
41
1
10
56.0840383843443
20
-1.09372644654249
30
0
41
1
10
56.0716839401485
20
-1.09277824443225
30
0
41
1
10
56.0659304204125
20
-1.0930208239113
30
0
41
1
10
56.0608549562656
20
-1.09408801466879
30
0
0
SPLINE
5
12E
100
AcDbEntity
8
1
62
256
6
ByLayer
370
18
48
1
60
0
100
AcDbSpline
70
4
71
3
72
12
73
8
40
0
40
0
40
0
40
0
40
0.5
40
0.5
40
0.75
40
0.75
40
1
40
1
40
1
40
1
41
1
10
56.0608549562656
20
-1.09408801466879
30
0
41
1
10
55.9899245806514
20
-1.10900216618054
30
0
41
1
10
55.919348890514
20
-1.11752952574599
30
0
41
1
10
55.8141668793598
20
-1.12094329718309
30
0
41
1
10
55.7792154519925
20
-1.12052044662673
30
0
41
1
10
55.7096130309101
20
-1.11661005945271
30
0
41
1
10
55.6749457953375
20
-1.11312323064178
30
0
41
1
10
55.6403915717421
20
-1.10812396836496
30
0
0
SPLINE
5
12F
100
AcDbEntity
8
1
62
256
6
ByLayer
370
18
48
1
60
0
100
AcDbSpline
70
4
71
3
72
8
73
4
40
0
40
0
40
0
40
0
40
1
40
1
40
1
40
1
41
1
10
55.5158117165963
20
-0.987198113227947
30
0
41
1
10
55.5573368601446
20
-1.02766113662162
30
0
41
1
10
55.5988597483905
20
-1.06797342753404
30
0
41
1
10
55.6403915717421
20
-1.10812396836499
30
0
0
SPLINE
5
130
100
AcDbEntity
8
1
62
256
6
ByLayer
370
18
48
1
60
0
100
AcDbSpline
70
4
71
3
72
10
73
6
40
0
40
0
40
0
40
0
40
0.5
40
0.5
40
1
40
1
40
1
40
1
41
1
10
55.5158117165977
20
-0.987198113223826
30
0
41
1
10
55.4434842072519
20
-0.862705437723179
30
0
41
1
10
55.3707053245346
20
-0.742739487188317
30
0
41
1
10
55.2238461099222
20
-0.512192061608459
30
0
41
1
10
55.1500235995266
20
-0.401996921662885
30
0
41
1
10
55.0755591019276
20
-0.297104481513571
30
0
0
SPLINE
5
131
100
AcDbEntity
8
1
62
256
6
ByLayer
370
18
48
1
60
0
100
AcDbSpline
70
4
71
3
72
28
73
24
40
0
40
0
40
0
40
0
40
0.125000000000026
40
0.125000000000026
40
0.250000000000052
40
0.250000000000052
40
0.375000000000078
40
0.375000000000078
40
0.500000000000104
40
0.500000000000104
40
0.62500000000013
40
0.62500000000013
40
0.687500000000108
40
0.687500000000108
40
0.750000000000087
40
0.750000000000087
40
0.812500000000065
40
0.812500000000065
40
0.875000000000043
40
0.875000000000043
40
0.937500000000022
40
0.937500000000022
40
1
40
1
40
1
40
1
41
1
10
55.0755591019276
20
-0.297104481513543
30
0
41
1
10
55.0666958009782
20
-0.284619427637523
30
0
41
1
10
55.0564055492574
20
-0.271755113297928
30
0
41
1
10
55.0336023885866
20
-0.245468693679413
30
0
41
1
10
55.0209627576634
20
-0.231936218348125
30
0
41
1
10
54.9945195445498
20
-0.205257360500809
30
0
41
1
10
54.9806458570055
20
-0.192019626607021
30
0
41
1
10
54.9516727975463
20
-0.165702102554548
30
0
41
1
10
54.9364360629549
20
-0.15251637449407
30
0
41
1
10
54.9057823725774
20
-0.127188687519407
30
0
41
1
10
54.8902793113693
20
-0.114957411329698
30
0
41
1
10
54.8667747959068
20
-0.0972866851234642
30
0
41
1
10
54.8588979589182
20
-0.0915101626870012
30
0
41
1
10
54.8430568061331
20
-0.0802076475291074
30
0
41
1
10
54.8351908959516
20
-0.0747529791047157
30
0
41
1
10
54.8197512712303
20
-0.0643783876597865
30
0
41
1
10
54.8121526991867
20
-0.0594402866785231
30
0
41
1
10
54.7972433901231
20
-0.0501312586238214
30
0
41
1
10
54.7898956184711
20
-0.0457417684559687
30
0
41
1
10
54.776010571507
20
-0.0379025021664177
30
0
41
1
10
54.7694212798667
20
-0.0344174287594115
30
0
41
1
10
54.7570668363364
20
-0.0284613029195953
30
0
41
1
10
54.7513141822552
20
-0.0260027824162137
30
0
41
1
10
54.7462389719378
20
-0.0242295026129398
30
0
0
SPLINE
5
132
100
AcDbEntity
8
1
62
256
6
ByLayer
370
18
48
1
60
0
100
AcDbSpline
70
4
71
3
72
12
73
8
40
0
40
0
40
0
40
0
40
0.5
40
0.5
40
0.75
40
0.75
40
1
40
1
40
1
40
1
41
1
10
54.7462389719374
20
-0.024229502612684
30
0
41
1
10
54.6751923437108
20
0.0005942077455074
30
0
41
1
10
54.6045073488015
20
0.0317859263029732
30
0
41
1
10
54.4991751206602
20
0.0876746120758867
30
0
41
1
10
54.4641761535354
20
0.107820202033736
30
0
41
1
10
54.3944822549436
20
0.151004187967374
30
0
41
1
10
54.3597711007922
20
0.174050881647617
30
0
41
1
10
54.3251744352952
20
0.198525564855032
30
0
0
SPLINE
5
133
100
AcDbEntity
8
1
62
256
6
ByLayer
370
18
48
1
60
0
100
AcDbSpline
70
4
71
3
72
8
73
4
40
0
40
0
40
0
40
0
40
1
40
1
40
1
40
1
41
1
10
54.2018194464363
20
0.322230912656551
30
0
41
1
10
54.2429318598986
20
0.281043063561327
30
0
41
1
10
54.2840468064059
20
0.239804587431536
30
0
41
1
10
54.3251744352952
20
0.198525564855061
30
0
0
SPLINE
5
134
100
AcDbEntity
8
1
62
256
6
ByLayer
370
18
48
1
60
0
100
AcDbSpline
70
4
71
3
72
10
73
6
40
0
40
0
40
0
40
0
40
0.5
40
0.5
40
1
40
1
40
1
40
1
41
1
10
54.2018194464376
20
0.322230912656892
30
0
41
1
10
54.1294526216317
20
0.411756846743515
30
0
41
1
10
54.0566152100534
20
0.495335375007215
30
0
41
1
10
53.9095445199454
20
0.650000302156997
30
0
41
1
10
53.8355762941102
20
0.720839886465569
30
0
41
1
10
53.7609714190106
20
0.785003824411007
30
0
0
SPLINE
5
135
100
AcDbEntity
8
1
62
256
6
ByLayer
370
18
48
1
60
0
100
AcDbSpline
70
4
71
3
72
31
73
27
40
0
40
0
40
0
40
0
40
0.124999999999968
40
0.124999999999968
40
0.187499999999951
40
0.187499999999951
40
0.249999999999934
40
0.312499999999917
40
0.312499999999917
40
0.3749999999999
40
0.3749999999999
40
0.499999999999867
40
0.499999999999867
40
0.562499999999884
40
0.562499999999884
40
0.624999999999902
40
0.624999999999902
40
0.749999999999936
40
0.749999999999936
40
0.812499999999952
40
0.812499999999952
40
0.874999999999968
40
0.874999999999968
40
0.937499999999984
40
0.937499999999984
40
1
40
1
40
1
40
1
41
1
10
53.716430012048
20
-3.01154337575105
30
0
41
1
10
53.7260616811302
20
-3.00075696660528
30
0
41
1
10
53.7374648999228
20
-2.99272888354361
30
0
41
1
10
53.756538244249
20
-2.98381189524497
30
0
41
1
10
53.7632689297981
20
-2.98137105470184
30
0
41
1
10
53.7770049825491
20
-2.97758873231052
30
0
41
1
10
53.791082599203
20
-2.9748635288654
30
0
41
1
10
53.80575362395
20
-2.97404236115
30
0
41
1
10
53.8206947924611
20
-2.97412432879267
30
0
41
1
10
53.8283365054708
20
-2.97462262971968
30
0
41
1
10
53.8513095694181
20
-2.97740868124058
30
0
41
1
10
53.8667017579103
20
-2.98094958604264
30
0
41
1
10
53.8898470139196
20
-2.98864479104734
30
0
41
1
10
53.8975951207747
20
-2.99162176875646
30
0
41
1
10
53.9130003779435
20
-2.99835962625997
30
0
41
1
10
53.9206050013194
20
-3.00209488529705
30
0
41
1
10
53.943120231592
20
-3.01439480334443
30
0
41
1
10
53.9577369281519
20
-3.02403336169772
30
0
41
1
10
53.9789821480626
20
-3.04094461079512
30
0
41
1
10
53.985990326444
20
-3.04703551798937
30
0
41
1
10
53.9995171359956
20
-3.05994993077553
30
0
41
1
10
54.0060265183957
20
-3.06675617841225
30
0
41
1
10
54.0184899648601
20
-3.08113667969516
30
0
41
1
10
54.0244448039634
20
-3.08870978509876
30
0
41
1
10
54.0357092563203
20
-3.10475703673052
30
0
41
1
10
54.0410028387914
20
-3.11322002207581
30
0
41
1
10
54.0457845778325
20
-3.12201900527609
30
0
0
SPLINE
5
136
100
AcDbEntity
8
1
62
256
6
ByLayer
370
18
48
1
60
0
100
AcDbSpline
70
4
71
3
72
14
73
10
40
0
40
0
40
0
40
0
40
0.125
40
0.125
40
0.249999999999999
40
0.249999999999999
40
0.5
40
0.5
40
1
40
1
40
1
40
1
41
1
10
54.0457845778326
20
-3.12201900527609
30
0
41
1
10
54.0638630004541
20
-3.15528550843837
30
0
41
1
10
54.081975905726
20
-3.18853880214587
30
0
41
1
10
54.1182330327586
20
-3.25501494356951
30
0
41
1
10
54.1363638637237
20
-3.28823536119694
30
0
41
1
10
54.1905856759854
20
-3.38780125345394
30
0
41
1
10
54.2265692821608
20
-3.45406357478157
30
0
41
1
10
54.3341493803845
20
-3.65247641137745
30
0
41
1
10
54.4051399126544
20
-3.7838364682311
30
0
41
1
10
54.4756108393911
20
-3.9141928675613
30
0
0
SPLINE
5
137
100
AcDbEntity
8
1
62
256
6
ByLayer
370
18
48
1
60
0
100
AcDbSpline
70
4
71
3
72
14
73
10
40
0
40
0
40
0
40
0
40
0.500000000000011
40
0.500000000000011
40
0.750000000000005
40
0.750000000000005
40
0.875000000000003
40
0.875000000000003
40
1
40
1
40
1
40
1
41
1
10
54.59935299991
20
-3.94572886568247
30
0
41
1
10
54.6699343854647
20
-3.85055368927564
30
0
41
1
10
54.7410867117273
20
-3.7512338237801
30
0
41
1
10
54.8489942752559
20
-3.59610709044773
30
0
41
1
10
54.8851011435984
20
-3.54345345796617
30
0
41
1
10
54.9394936959845
20
-3.46313187011347
30
0
41
1
10
54.9576463759281
20
-3.43618323064038
30
0
41
1
10
54.9941411623031
20
-3.38153460901319
30
0
41
1
10
55.0124955025279
20
-3.35380017019116
30
0
41
1
10
55.0309898385127
20
-3.32559025648757
30
0
0
SPLINE
5
138
100
AcDbEntity
8
1
62
256
6
ByLayer
370
18
48
1
60
0
100
AcDbSpline
70
4
71
3
72
31
73
27
40
0
40
0
40
0
40
0
40
0.124999999999943
40
0.124999999999943
40
0.187499999999914
40
0.187499999999914
40
0.249999999999884
40
0.312499999999855
40
0.312499999999855
40
0.374999999999825
40
0.374999999999825
40
0.499999999999766
40
0.499999999999766
40
0.562499999999771
40
0.562499999999771
40
0.624999999999776
40
0.624999999999776
40
0.749999999999851
40
0.749999999999851
40
0.812499999999888
40
0.812499999999888
40
0.874999999999925
40
0.874999999999925
40
0.937499999999963
40
0.937499999999963
40
1
40
1
40
1
40
1
41
1
10
55.0309898385127
20
-3.32559025648754
30
0
41
1
10
55.0406162329531
20
-3.31090685522011
30
0
41
1
10
55.052016343193
20
-3.29882066373935
30
0
41
1
10
55.0710926338256
20
-3.28362849800377
30
0
41
1
10
55.0778248948598
20
-3.2790538143212
30
0
41
1
10
55.0915638465271
20
-3.27104853794421
30
0
41
1
10
55.1056458020434
20
-3.26411996298745
30
0
41
1
10
55.1203256676499
20
-3.25912731278717
30
0
41
1
10
55.1352778188469
20
-3.25504847942872
30
0
41
1
10
55.1429261008419
20
-3.25346277836783
30
0
41
1
10
55.1659077658789
20
-3.25009926780996
30
0
41
1
10
55.1813080768326
20
-3.2496663683587
30
0
41
1
10
55.2044697881989
20
-3.25156147667377
30
0
41
1
10
55.2122284053774
20
-3.2526276112788
30
0
41
1
10
55.227630562523
20
-3.25561802320277
30
0
41
1
10
55.2352338373435
20
-3.25753100691762
30
0
41
1
10
55.2577446654319
20
-3.26451486761533
30
0
41
1
10
55.2723578886145
20
-3.27080733800787
30
0
41
1
10
55.2935944473035
20
-3.28303032135273
30
0
41
1
10
55.3005990521513
20
-3.28760658903735
30
0
41
1
10
55.3140895650199
20
-3.29764438507726
30
0
41
1
10
55.3205819028832
20
-3.30310077947283
30
0
41
1
10
55.3330137823993
20
-3.31497870536759
30
0
41
1
10
55.338954097764
20
-3.32139874605835
30
0
41
1
10
55.3501927233883
20
-3.33537578011908
30
0
41
1
10
55.3554662124401
20
-3.34291308305333
30
0
41
1
10
55.3602334127243
20
-3.35095417092572
30
0
0
SPLINE
5
139
100
AcDbEntity
8
1
62
256
6
ByLayer
370
18
48
1
60
0
100
AcDbSpline
70
4
71
3
72
14
73
10
40
0
40
0
40
0
40
0
40
0.125000000000011
40
0.125000000000011
40
0.250000000000022
40
0.250000000000022
40
0.500000000000022
40
0.500000000000022
40
1
40
1
40
1
40
1
41
1
10
55.3602334127241
20
-3.35095417092569
30
0
41
1
10
55.3783043758985
20
-3.38143541655427
30
0
41
1
10
55.3964065464875
20
-3.41191319798003
30
0
41
1
10
55.4326377160467
20
-3.47279878604391
30
0
41
1
10
55.4507563400803
20
-3.5031864091668
30
0
41
1
10
55.504930501685
20
-3.59376763015456
30
0
41
1
10
55.5408685549183
20
-3.65350884943018
30
0
41
1
10
55.6482903309781
20
-3.8308670443086
30
0
41
1
10
55.7191398238239
20
-3.94621421322376
30
0
41
1
10
55.7895153697357
20
-4.05873555518181
30
0
0
SPLINE
5
13A
100
AcDbEntity
8
1
62
256
6
ByLayer
370
18
48
1
60
0
100
AcDbSpline
70
4
71
3
72
8
73
4
40
0
40
0
40
0
40
0
40
1
40
1
40
1
40
1
41
1
10
55.9142270758491
20
-4.05030165930151
30
0
41
1
10
55.8725934523067
20
-4.05375556654874
30
0
41
1
10
55.8310235288961
20
-4.05656709260376
30
0
41
1
10
55.7895153697357
20
-4.05873555518184
30
0
0
SPLINE
5
13B
100
AcDbEntity
8
1
62
256
6
ByLayer
370
18
48
1
60
0
100
AcDbSpline
70
4
71
3
72
14
73
10
40
0
40
0
40
0
40
0
40
0.49999999999999
40
0.49999999999999
40
0.749999999999996
40
0.749999999999996
40
0.874999999999998
40
0.874999999999998
40
1
40
1
40
1
40
1
41
1
10
55.9142270758497
20
-4.05030165928741
30
0
41
1
10
55.9847407614652
20
-3.9287838843054
30
0
41
1
10
56.0558331142717
20
-3.8048156748695
30
0
41
1
10
56.1636593421791
20
-3.6153824494709
30
0
41
1
10
56.1997381404639
20
-3.55176697475466
30
0
41
1
10
56.2540857062455
20
-3.45568474671788
30
0
41
1
10
56.2722229808749
20
-3.42356883891537
30
0
41
1
10
56.3086851180965
20
-3.35898680028555
30
0
41
1
10
56.3270224824319
20
-3.32650529006159
30
0
41
1
10
56.3454995003617
20
-3.2938074784808
30
0
0
SPLINE
5
13C
100
AcDbEntity
8
1
62
256
6
ByLayer
370
18
48
1
60
0
100
AcDbSpline
70
4
71
3
72
31
73
27
40
0
40
0
40
0
40
0
40
0.125000000000047
40
0.125000000000047
40
0.187500000000044
40
0.187500000000044
40
0.250000000000041
40
0.312500000000037
40
0.312500000000037
40
0.375000000000034
40
0.375000000000034
40
0.500000000000026
40
0.500000000000026
40
0.562500000000023
40
0.562500000000023
40
0.625000000000019
40
0.625000000000019
40
0.750000000000013
40
0.750000000000013
40
0.81250000000001
40
0.81250000000001
40
0.875000000000006
40
0.875000000000006
40
0.937500000000003
40
0.937500000000003
40
1
40
1
40
1
40
1
41
1
10
56.3454995003617
20
-3.2938074784808
30
0
41
1
10
56.3551192914227
20
-3.27678383772053
30
0
41
1
10
56.3665127671817
20
-3.2619210652262
30
0
41
1
10
56.3855806988793
20
-3.24206143726766
30
0
41
1
10
56.3923104285432
20
-3.23583599258558
30
0
41
1
10
56.4060449216332
20
-3.22445077248827
30
0
41
1
10
56.4201230137845
20
-3.21404708050426
30
0
41
1
10
56.4348003104054
20
-3.20540115812588
30
0
41
1
10
56.449750598206
20
-3.19758125580643
30
0
41
1
10
56.4573982958208
20
-3.1940719678316
30
0
41
1
10
56.4803785211773
20
-3.18489151890969
30
0
41
1
10
56.4957791364154
20
-3.1805118276047
30
0
41
1
10
56.5189431797869
20
-3.17637075538866
30
0
41
1
10
56.5267031515532
20
-3.17539805742339
30
0
41
1
10
56.5421070243349
20
-3.17430267240212
30
0
41
1
10
56.549711347871
20
-3.17417942217446
30
0
41
1
10
56.5722257705087
20
-3.1750715602478
30
0
41
1
10
56.5868419980498
20
-3.17732483394391
30
0
41
1
10
56.608083349696
20
-3.18352171178458
30
0
41
1
10
56.6150895477542
20
-3.18608292766086
30
0
41
1
10
56.6285808393958
20
-3.19217803888483
30
0
41
1
10
56.6350734531194
20
-3.19570582380044
30
0
41
1
10
56.6475055619357
20
-3.2038226493855
30
0
41
1
10
56.6534458290467
20
-3.20841002525202
30
0
41
1
10
56.6646839852705
20
-3.21883822096066
30
0
41
1
10
56.6699559727247
20
-3.22466553593202
30
0
41
1
10
56.6747219471954
20
-3.23111015973981
30
0
0
SPLINE
5
13D
100
AcDbEntity
8
1
62
256
6
ByLayer
370
18
48
1
60
0
100
AcDbSpline
70
4
71
3
72
14
73
10
40
0
40
0
40
0
40
0
40
0.12500000000001
40
0.12500000000001
40
0.250000000000021
40
0.250000000000021
40
0.500000000000021
40
0.500000000000021
40
1
40
1
40
1
40
1
41
1
10
56.6747219471954
20
-3.23111015973981
30
0
41
1
10
56.6928227109765
20
-3.25558629026006
30
0
41
1
10
56.7109554922151
20
-3.28006979003644
30
0
41
1
10
56.747250563081
20
-3.32894215759003
30
0
41
1
10
56.7654043968935
20
-3.35330149896538
30
0
41
1
10
56.8196868956738
20
-3.42537894626713
30
0
41
1
10
56.8557002023256
20
-3.47232843907955
30
0
41
1
10
56.9633379354339
20
-3.61000659985274
30
0
41
1
10
57.0342940074395
20
-3.69716590265932
30
0
41
1
10
57.1046788331223
20
-3.77975098891122
30
0
0
SPLINE
5
13E
100
AcDbEntity
8
1
62
256
6
ByLayer
370
18
48
1
60
0
100
AcDbSpline
70
4
71
3
72
8
73
4
40
0
40
0
40
0
40
0
40
1
40
1
40
1
40
1
41
1
10
57.2287249412478
20
-3.73189113664853
30
0
41
1
10
57.1873199882467
20
-3.74844004753885
30
0
41
1
10
57.1459799193239
20
-3.76439650328209
30
0
41
1
10
57.1046788331223
20
-3.77975098891125
30
0
0
SPLINE
5
13F
100
AcDbEntity
8
1
62
256
6
ByLayer
370
18
48
1
60
0
100
AcDbSpline
70
4
71
3
72
14
73
10
40
0
40
0
40
0
40
0
40
0.499999999999999
40
0.499999999999999
40
0.749999999999999
40
0.749999999999999
40
0.874999999999999
40
0.874999999999999
40
1
40
1
40
1
40
1
41
1
10
57.2287249412483
20
-3.73189113663565
30
0
41
1
10
57.2992112104897
20
-3.59659638740922
30
0
41
1
10
57.3702920185785
20
-3.46088258891228
30
0
41
1
10
57.47813638649
20
-3.25690924359736
30
0
41
1
10
57.514225551031
20
-3.18897909157934
30
0
41
1
10
57.5685953161183
20
-3.08718930911993
30
0
41
1
10
57.5867412025972
20
-3.05326880287524
30
0
41
1
10
57.6232204871957
20
-2.98551634099383
30
0
41
1
10
57.6415668829043
20
-2.95169074136445
30
0
41
1
10
57.6600537499456
20
-2.91793266886077
30
0
0
SPLINE
5
140
100
AcDbEntity
8
1
62
256
6
ByLayer
370
18
48
1
60
0
100
AcDbSpline
70
4
71
3
72
27
73
23
40
0
40
0
40
0
40
0
40
0.146429193142514
40
0.146429193142514
40
0.21964378971377
40
0.21964378971377
40
0.292858386285027
40
0.366072982856284
40
0.366072982856284
40
0.43928757942754
40
0.43928757942754
40
0.585716772570135
40
0.585716772570135
40
0.658931369141392
40
0.658931369141392
40
0.732145965712649
40
0.732145965712649
40
0.878575158855164
40
0.878575158855164
40
0.951789755426384
40
0.951789755426384
40
1
40
1
40
1
40
1
41
1
10
57.6600537499452
20
-2.91793266886123
30
0
41
1
10
57.6696755145379
20
-2.90036277851667
30
0
41
1
10
57.6810719116301
20
-2.88429772921501
30
0
41
1
10
57.7001456323745
20
-2.86188374671852
30
0
41
1
10
57.7068771009404
20
-2.8546723885363
30
0
41
1
10
57.7206140623813
20
-2.84112789193199
30
0
41
1
10
57.7346946519793
20
-2.82836865331959
30
0
41
1
10
57.7493747318645
20
-2.81700801214134
30
0
41
1
10
57.7643280623231
20
-2.80630056325276
30
0
41
1
10
57.7719772194769
20
-2.801253489658
30
0
41
1
10
57.7949579038155
20
-2.78727596702498
30
0
41
1
10
57.8103593378882
20
-2.7794484723598
30
0
41
1
10
57.8335255492034
20
-2.76976729116723
30
0
41
1
10
57.8412874491735
20
-2.76687845662215
30
0
41
1
10
57.8566885717544
20
-2.76185627443704
30
0
41
1
10
57.8642917747588
20
-2.7597316461366
30
0
41
1
10
57.8868034288002
20
-2.75450388066213
30
0
41
1
10
57.9014186144271
20
-2.75252472867882
30
0
41
1
10
57.9226587580226
20
-2.7521087121732
30
0
41
1
10
57.9296641609891
20
-2.75240725507635
30
0
41
1
10
57.9408459106749
20
-2.7536961542848
30
0
41
1
10
57.945175922191
20
-2.7544124107668
30
0
41
1
10
57.9493896276825
20
-2.75534755689515
30
0
0
SPLINE
5
141
100
AcDbEntity
8
1
62
256
6
ByLayer
370
18
48
1
60
0
100
AcDbSpline
70
4
71
3
72
8
73
4
40
0
40
0
40
0
40
0
40
1
40
1
40
1
40
1
41
1
10
58.543494300864
20
-3.02452215524019
30
0
41
1
10
58.5019893604208
20
-3.05250795192532
30
0
41
1
10
58.4604796899099
20
-3.07996376814762
30
0
41
1
10
58.4189498997492
20
-3.10688465270081
30
0
0
SPLINE
5
142
100
AcDbEntity
8
1
62
256
6
ByLayer
370
18
48
1
60
0
100
AcDbSpline
70
4
71
3
72
8
73
4
40
0
40
0
40
0
40
0
40
1
40
1
40
1
40
1
41
1
10
58.5434943008647
20
-3.02452215522888
30
0
41
1
10
58.5727909673168
20
-2.96845279587845
30
0
41
1
10
58.6021766026656
20
-2.91265005681473
30
0
41
1
10
58.6316733337256
20
-2.85713771865832
30
0
0
SPLINE
5
143
100
AcDbEntity
8
1
62
256
6
ByLayer
370
18
48
1
60
0
100
AcDbSpline
70
4
71
3
72
8
73
4
40
0
40
0
40
0
40
0
40
1
40
1
40
1
40
1
41
1
10
63.9688436532768
20
-0.735313076015331
30
0
41
1
10
63.9259607396438
20
-0.666413997292437
30
0
41
1
10
63.8829213854099
20
-0.59912930698502
30
0
41
1
10
63.8396752713461
20
-0.533509892884553
30
0
0
SPLINE
5
144
100
AcDbEntity
8
1
62
256
6
ByLayer
370
18
48
1
60
0
100
AcDbSpline
70
4
71
3
72
28
73
24
40
0
40
0
40
0
40
0
40
0.124999999999974
40
0.124999999999974
40
0.249999999999948
40
0.249999999999948
40
0.374999999999923
40
0.374999999999923
40
0.499999999999897
40
0.499999999999897
40
0.624999999999871
40
0.624999999999871
40
0.687499999999893
40
0.687499999999893
40
0.749999999999914
40
0.749999999999914
40
0.812499999999936
40
0.812499999999936
40
0.874999999999957
40
0.874999999999957
40
0.937499999999979
40
0.937499999999979
40
1
40
1
40
1
40
1
41
1
10
63.839675271346
20
-0.533509892884553
30
0
41
1
10
63.8308216363141
20
-0.520075845547893
30
0
41
1
10
63.8205458105337
20
-0.50640394138739
30
0
41
1
10
63.7977790891031
20
-0.478720275873201
30
0
41
1
10
63.785162940339
20
-0.464598419394577
30
0
41
1
10
63.7587634959065
20
-0.43697784846043
30
0
41
1
10
63.744908614239
20
-0.423383852566843
30
0
41
1
10
63.7159640952139
20
-0.396577427626369
30
0
41
1
10
63.7007352351491
20
-0.383257093305673
30
0
41
1
10
63.6700863490809
20
-0.357896946659423
30
0
41
1
10
63.6545846227048
20
-0.345766809823431
30
0
41
1
10
63.631077538395
20
-0.328453476544126
30
0
41
1
10
63.6231989606073
20
-0.32283085125502
30
0
41
1
10
63.6073509571542
20
-0.311918393865796
30
0
41
1
10
63.5994647566456
20
-0.306687806521893
30
0
41
1
10
63.5839960665684
20
-0.296855610830249
30
0
41
1
10
63.5763821090786
20
-0.292231936445063
30
0
41
1
10
63.5614422140737
20
-0.283648592158471
30
0
41
1
10
63.5540770610973
20
-0.279671994963479
30
0
41
1
10
63.540159347857
20
-0.272744936872215
30
0
41
1
10
63.5335557287747
20
-0.269761433903426
30
0
41
1
10
63.5211773783438
20
-0.264912556423155
30
0
41
1
10
63.515415481141
20
-0.2630603487016
30
0
41
1
10
63.510334672546
20
-0.261934413474052
30
0
0
SPLINE
5
145
100
AcDbEntity
8
1
62
256
6
ByLayer
370
18
48
1
60
0
100
AcDbSpline
70
4
71
3
72
8
73
4
40
0
40
0
40
0
40
0
40
1
40
1
40
1
40
1
41
1
10
63.510334672546
20
-0.26193441347408
30
0
41
1
10
63.4391838722725
20
-0.246167003425285
30
0
41
1
10
63.3683785975252
20
-0.223949687334425
30
0
41
1
10
63.2980264424721
20
-0.195515858697519
30
0
0
SPLINE
5
146
100
AcDbEntity
8
1
62
256
6
ByLayer
370
18
48
1
60
0
100
AcDbSpline
70
4
71
3
72
8
73
4
40
0
40
0
40
0
40
0
40
1
40
1
40
1
40
1
41
1
10
63.2980264424721
20
-0.195515858697576
30
0
41
1
10
63.1355099193801
20
-0.0576322013654647
30
0
41
1
10
62.97476616166
20
0.0834852445555612
30
0
41
1
10
62.8152883845008
20
0.227302725950693
30
0
0
SPLINE
5
147
100
AcDbEntity
8
1
62
256
6
ByLayer
370
18
48
1
60
0
100
AcDbSpline
70
4
71
3
72
10
73
6
40
0
40
0
40
0
40
0
40
0.5
40
0.5
40
1
40
1
40
1
40
1
41
1
10
62.8152883845008
20
0.227302725950693
30
0
41
1
10
62.7674051551073
20
0.286554989109618
30
0
41
1
10
62.719236285086
20
0.343344677817271
30
0
41
1
10
62.6225397066617
20
0.451497635647513
30
0
41
1
10
62.5739788316575
20
0.502899423655379
30
0
41
1
10
62.5251377767446
20
0.551550069630679
30
0
0
SPLINE
5
148
100
AcDbEntity
8
1
62
256
6
ByLayer
370
18
48
1
60
0
100
AcDbSpline
70
4
71
3
72
28
73
24
40
0
40
0
40
0
40
0
40
0.124999999999974
40
0.124999999999974
40
0.249999999999948
40
0.249999999999948
40
0.374999999999922
40
0.374999999999922
40
0.499999999999896
40
0.499999999999896
40
0.62499999999987
40
0.62499999999987
40
0.687499999999892
40
0.687499999999892
40
0.749999999999913
40
0.749999999999913
40
0.812499999999935
40
0.812499999999935
40
0.874999999999957
40
0.874999999999957
40
0.937499999999978
40
0.937499999999978
40
1
40
1
40
1
40
1
41
1
10
62.5251377767446
20
0.551550069630707
30
0
41
1
10
62.5162740982487
20
0.560379192697496
30
0
41
1
10
62.5059850908334
20
0.57005853691885
30
0
41
1
10
62.4831879191425
20
0.590699584359641
30
0
41
1
10
62.4705531571919
20
0.601763649541226
30
0
41
1
10
62.4441195819338
20
0.624326640871573
30
0
41
1
10
62.4302495822771
20
0.635891271200705
30
0
41
1
10
62.4012785758552
20
0.659604909605349
30
0
41
1
10
62.3860402434978
20
0.67186171934091
30
0
41
1
10
62.3553837875679
20
0.696208173840546
30
0
41
1
10
62.3398806069309
20
0.708370677736724
30
0
41
1
10
62.3163756751312
20
0.726658304469595
30
0
41
1
10
62.3084985552038
20
0.732761513653315
30
0
41
1
10
62.2926553673475
20
0.744995290532302
30
0
41
1
10
62.2847848160382
20
0.751051939862265
30
0
41
1
10
62.2693375252834
20
0.762910384373129
30
0
41
1
10
62.2617346310308
20
0.768732439551258
30
0
41
1
10
62.2468171970012
20
0.780140976570664
30
0
41
1
10
62.2394652579974
20
0.785755800953154
30
0
41
1
10
62.2255731319049
20
0.796357638110123
30
0
41
1
10
62.2189809616833
20
0.801384604016363
30
0
41
1
10
62.206622340881
20
0.810800259696435
30
0
41
1
10
62.2008685503753
20
0.8151793850692
30
0
41
1
10
62.1957930279836
20
0.819030306656572
30
0
0
SPLINE
5
149
100
AcDbEntity
8
1
62
256
6
ByLayer
370
18
48
1
60
0
100
AcDbSpline
70
4
71
3
72
12
73
8
40
0
40
0
40
0
40
0
40
0.500000000000012
40
0.500000000000012
40
0.750000000000006
40
0.750000000000006
40
1
40
1
40
1
40
1
41
1
10
62.1957930279836
20
0.819030306656543
30
0
41
1
10
62.1270941722109
20
0.871153789976319
30
0
41
1
10
62.058729403505
20
0.928756090203535
30
0
41
1
10
61.9568305453639
20
1.02285002253956
30
0
41
1
10
61.9229627849182
20
1.05550404516953
30
0
41
1
10
61.8555152353194
20
1.12320974368905
30
0
41
1
10
61.8219204041667
20
1.15827479560306
30
0
41
1
10
61.788435220224
20
1.19452878295391
30
0
0
SPLINE
5
14A
100
AcDbEntity
8
1
62
256
6
ByLayer
370
18
48
1
60
0
100
AcDbSpline
70
4
71
3
72
8
73
4
40
0
40
0
40
0
40
0
40
1
40
1
40
1
40
1
41
1
10
61.788435220224
20
1.19452878295394
30
0
41
1
10
61.752544979193
20
1.22936954519346
30
0
41
1
10
61.7166529439094
20
1.26427425423074
30
0
41
1
10
61.6808812460778
20
1.29911058469273
30
0
0
SPLINE
5
14B
100
AcDbEntity
8
1
62
256
6
ByLayer
370
18
48
1
60
0
100
AcDbSpline
70
4
71
3
72
8
73
4
40
0
40
0
40
0
40
0
40
1
40
1
40
1
40
1
41
1
10
61.6505452846768
20
1.32795044402209
30
0
41
1
10
61.66065834825
20
1.31834884391506
30
0
41
1
10
61.6707702882866
20
1.30873551157225
30
0
41
1
10
61.6808812460778
20
1.29911058469273
30
0
0
SPLINE
5
14C
100
AcDbEntity
8
1
62
256
6
ByLayer
370
18
48
1
60
0
100
AcDbSpline
70
4
71
3
72
10
73
6
40
0
40
0
40
0
40
0
40
0.5
40
0.5
40
1
40
1
40
1
40
1
41
1
10
61.6505452846768
20
1.32795044402207
30
0
41
1
10
61.5781979336646
20
1.38361444294773
30
0
41
1
10
61.5054369095363
20
1.4324781984466
30
0
41
1
10
61.3586424457944
20
1.51638486696069
30
0
41
1
10
61.2848662271762
20
1.55129426499914
30
0
41
1
10
61.2104463573062
20
1.57897534667549
30
0
0
SPLINE
5
14D
100
AcDbEntity
8
1
62
256
6
ByLayer
370
18
48
1
60
0
100
AcDbSpline
70
4
71
3
72
28
73
24
40
0
40
0
40
0
40
0
40
0.125
40
0.125
40
0.249999999999999
40
0.249999999999999
40
0.374999999999999
40
0.374999999999999
40
0.499999999999999
40
0.499999999999999
40
0.624999999999998
40
0.624999999999998
40
0.687499999999999
40
0.687499999999999
40
0.749999999999999
40
0.749999999999999
40
0.812499999999999
40
0.812499999999999
40
0.874999999999999
40
0.874999999999999
40
0.9375
40
0.9375
40
1
40
1
40
1
40
1
41
1
10
61.2104463573062
20
1.57897534667549
30
0
41
1
10
61.2015912663413
20
1.582269070471
30
0
41
1
10
61.1913118442214
20
1.58693481534365
30
0
41
1
10
61.1685337832837
20
1.59835633425658
30
0
41
1
10
61.1559091150901
20
1.60519491408877
30
0
41
1
10
61.1294931659552
20
1.62032405642387
30
0
41
1
10
61.1156319036677
20
1.62864481951769
30
0
41
1
10
61.0866763025908
20
1.64678077423855
30
0
41
1
10
61.0714437301765
20
1.65669436297998
30
0
41
1
10
61.0407919862479
20
1.67749507506022
30
0
41
1
10
61.0252886539743
20
1.68842673963636
30
0
41
1
10
61.0017797192246
20
1.70579261892354
30
0
41
1
10
60.9939006490063
20
1.71174420223096
30
0
41
1
10
60.9780525250702
20
1.72403343362171
30
0
41
1
10
60.9701753942612
20
1.73030120618407
30
0
41
1
10
60.9547184607433
20
1.7429718367035
30
0
41
1
10
60.9471109839204
20
1.74939594381681
30
0
41
1
10
60.9321837755987
20
1.76245928310181
30
0
41
1
10
60.9248261629033
20
1.76913742958172
30
0
41
1
10
60.9109226670362
20
1.78232743504697
30
0
41
1
10
60.9043249778424
20
1.78888138818448
30
0
41
1
10
60.8919558063962
20
1.80189394840443
30
0
41
1
10
60.886197611423
20
1.80834680581924
30
0
41
1
10
60.8811186509584
20
1.81452202808049
30
0
0
SPLINE
5
14E
100
AcDbEntity
8
1
62
256
6
ByLayer
370
18
48
1
60
0
100
AcDbSpline
70
4
71
3
72
12
73
8
40
0
40
0
40
0
40
0
40
0.5
40
0.5
40
0.75
40
0.75
40
1
40
1
40
1
40
1
41
1
10
60.8811186509584
20
1.81452202808043
30
0
41
1
10
60.8100705520175
20
1.90090541406161
30
0
41
1
10
60.7393788127154
20
1.99196685943517
30
0
41
1
10
60.6340310618546
20
2.1348415987448
30
0
41
1
10
60.5990260566665
20
2.18351699348105
30
0
41
1
10
60.5293185670961
20
2.28274206786372
30
0
41
1
10
60.4945999658217
20
2.3333133598064
30
0
41
1
10
60.4599955104305
20
2.38481980210551
30
0
0
SPLINE
5
14F
100
AcDbEntity
8
1
62
256
6
ByLayer
370
18
48
1
60
0
100
AcDbSpline
70
4
71
3
72
8
73
4
40
0
40
0
40
0
40
0
40
1
40
1
40
1
40
1
41
1
10
60.3358792519585
20
2.48465244160624
30
0
41
1
10
60.3772642659362
20
2.45174999382709
30
0
41
1
10
60.418633051976
20
2.41846962931802
30
0
41
1
10
60.4599955104306
20
2.38481980210548
30
0
0
SPLINE
5
150
100
AcDbEntity
8
1
62
256
6
ByLayer
370
18
48
1
60
0
100
AcDbSpline
70
4
71
3
72
10
73
6
40
0
40
0
40
0
40
0
40
0.5
40
0.5
40
1
40
1
40
1
40
1
41
1
10
60.3358792519585
20
2.48465244160621
30
0
41
1
10
60.263577052322
20
2.49174758936709
30
0
41
1
10
60.1908494957439
20
2.49179111318773
30
0
41
1
10
60.0440646997786
20
2.47739831032382
30
0
41
1
10
59.9702715819602
20
2.46301397332292
30
0
41
1
10
59.8958263659216
20
2.4413030537749
30
0
0
SPLINE
5
151
100
AcDbEntity
8
1
62
256
6
ByLayer
370
18
48
1
60
0
100
AcDbSpline
70
4
71
3
72
30
73
26
40
0
40
0
40
0
40
0
40
0.124999999999966
40
0.124999999999966
40
0.249999999999931
40
0.249999999999931
40
0.374999999999897
40
0.374999999999897
40
0.43749999999988
40
0.43749999999988
40
0.499999999999864
40
0.499999999999864
40
0.624999999999899
40
0.624999999999899
40
0.687499999999916
40
0.687499999999916
40
0.749999999999932
40
0.749999999999932
40
0.812499999999949
40
0.812499999999949
40
0.874999999999966
40
0.874999999999966
40
0.937499999999983
40
0.937499999999983
40
1
40
1
40
1
40
1
41
1
10
59.8958263659208
20
2.44130305377615
30
0
41
1
10
59.8869799262555
20
2.43872311177211
30
0
41
1
10
59.876710810542
20
2.4378890337475
30
0
41
1
10
59.8539547990859
20
2.43889305218448
30
0
41
1
10
59.8413516327386
20
2.44078246426727
30
0
41
1
10
59.8148893536987
20
2.44689690660104
30
0
41
1
10
59.8009687382682
20
2.45111255492881
30
0
41
1
10
59.7790972881502
20
2.45916271700767
30
0
41
1
10
59.7716378901949
20
2.46214067174438
30
0
41
1
10
59.7566437223696
20
2.46859106761789
30
0
41
1
10
59.7490775844722
20
2.47207439301798
30
0
41
1
10
59.7261792818112
20
2.483323965686
30
0
41
1
10
59.7106504576004
20
2.49187322471286
30
0
41
1
10
59.6869414865594
20
2.50661367907779
30
0
41
1
10
59.6789609185672
20
2.5118600501645
30
0
41
1
10
59.6632324402424
20
2.522833738093
30
0
41
1
10
59.6554394113068
20
2.52858735808158
30
0
41
1
10
59.6400217373275
20
2.54070037305851
30
0
41
1
10
59.6323777017431
20
2.54707587112443
30
0
41
1
10
59.6173780033108
20
2.56048381434007
30
0
41
1
10
59.6101512191412
20
2.56739962809212
30
0
41
1
10
59.5963145387516
20
2.58171108059347
30
0
41
1
10
59.5896782914305
20
2.58913687781288
30
0
41
1
10
59.577260886717
20
2.60443567390376
30
0
41
1
10
59.5715868233331
20
2.61217202953282
30
0
41
1
10
59.5665170362957
20
2.6200038053982
30
0
0
SPLINE
5
152
100
AcDbEntity
8
1
62
256
6
ByLayer
370
18
48
1
60
0
100
AcDbSpline
70
4
71
3
72
12
73
8
40
0
40
0
40
0
40
0
40
0.499999999999988
40
0.499999999999988
40
0.749999999999994
40
0.749999999999994
40
1
40
1
40
1
40
1
41
1
10
59.5665170362955
20
2.6200038053982
30
0
41
1
10
59.4954513539597
20
2.7297856348263
30
0
41
1
10
59.4247450553513
20
2.84260084964364
30
0
41
1
10
59.3193774356888
20
3.01555550896225
30
0
41
1
10
59.2843661109015
20
3.07383360816598
30
0
41
1
10
59.214645851294
20
3.19139362564039
30
0
41
1
10
59.1799207457867
20
3.25070192731053
30
0
41
1
10
59.1453093182384
20
3.31051882306682
30
0
0
SPLINE
5
153
100
AcDbEntity
8
1
62
256
6
ByLayer
370
18
48
1
60
0
100
AcDbSpline
70
4
71
3
72
8
73
4
40
0
40
0
40
0
40
0
40
1
40
1
40
1
40
1
41
1
10
59.0215032092568
20
3.38112194027028
30
0
41
1
10
59.0627828202334
20
3.35810421437117
30
0
41
1
10
59.1040481194772
20
3.3345676113895
30
0
41
1
10
59.1453093182385
20
3.31051882306676
30
0
0
SPLINE
5
154
100
AcDbEntity
8
1
62
256
6
ByLayer
370
18
48
1
60
0
100
AcDbSpline
70
4
71
3
72
10
73
6
40
0
40
0
40
0
40
0
40
0.5
40
0.5
40
1
40
1
40
1
40
1
41
1
10
59.0215032092568
20
3.38112194027028
30
0
41
1
10
58.9491449967496
20
3.33893468590861
30
0
41
1
10
58.8763675695681
20
3.29019538177366
30
0
41
1
10
58.7295042497773
20
3.17926125908116
30
0
41
1
10
58.6556733968597
20
3.11724974520942
30
0
41
1
10
58.5811662076109
20
3.04850915543551
30
0
0
SPLINE
5
155
100
AcDbEntity
8
1
62
256
6
ByLayer
370
18
48
1
60
0
100
AcDbSpline
70
4
71
3
72
30
73
26
40
0
40
0
40
0
40
0
40
0.125000000000026
40
0.125000000000026
40
0.250000000000051
40
0.250000000000051
40
0.375000000000077
40
0.375000000000077
40
0.43750000000009
40
0.43750000000009
40
0.500000000000103
40
0.500000000000103
40
0.62500000000013
40
0.62500000000013
40
0.687500000000108
40
0.687500000000108
40
0.750000000000086
40
0.750000000000086
40
0.812500000000065
40
0.812500000000065
40
0.875000000000043
40
0.875000000000043
40
0.937500000000022
40
0.937500000000022
40
1
40
1
40
1
40
1
41
1
10
58.5811662076109
20
3.04850915543551
30
0
41
1
10
58.5723197999964
20
3.04034742925936
30
0
41
1
10
58.5620499740275
20
3.0341255023146
30
0
41
1
10
58.5392899738761
20
3.02465983363561
30
0
41
1
10
58.5266830744751
20
3.02143682310239
30
0
41
1
10
58.5002118325509
20
3.01791507286606
30
0
41
1
10
58.4862860453589
20
3.01757198397374
30
0
41
1
10
58.4644082049031
20
3.01916084258971
30
0
41
1
10
58.4569469332363
20
3.02004905612637
30
0
41
1
10
58.441949668351
20
3.02251817885326
30
0
41
1
10
58.4343822535917
20
3.02410038250898
30
0
41
1
10
58.4114808321549
20
3.02991652584063
30
0
41
1
10
58.3959507778499
20
3.03519828719323
30
0
41
1
10
58.3722421967783
20
3.04565195963949
30
0
41
1
10
58.3642635772474
20
3.04957300004409
30
0
41
1
10
58.3485403082145
20
3.05818729386749
30
0
41
1
10
58.3407505455971
20
3.06289812058731
30
0
41
1
10
58.3253402905228
20
3.07322824001807
30
0
41
1
10
58.3177000889607
20
3.07886202784988
30
0
41
1
10
58.3027103892378
20
3.09114878399899
30
0
41
1
10
58.2954888265257
20
3.0976947648532
30
0
41
1
10
58.2816627827697
20
3.11169245933465
30
0
41
1
10
58.2750322648097
20
3.11917435730666
30
0
41
1
10
58.2626247048173
20
3.13509638847603
30
0
41
1
10
58.2569549955743
20
3.14339234306789
30
0
41
1
10
58.2518887974448
20
3.15206643394083
30
0
0
SPLINE
5
156
100
AcDbEntity
8
1
62
256
6
ByLayer
370
18
48
1
60
0
100
AcDbSpline
70
4
71
3
72
12
73
8
40
0
40
0
40
0
40
0
40
0.499999999999988
40
0.499999999999988
40
0.749999999999994
40
0.749999999999994
40
1
40
1
40
1
40
1
41
1
10
58.2518887974448
20
3.15206643394083
30
0
41
1
10
58.1808611300076
20
3.27367645117786
30
0
41
1
10
58.1101956649171
20
3.39632723772152
30
0
41
1
10
58.0048912737593
20
3.58108123418117
30
0
41
1
10
57.9699012721597
20
3.64280127234488
30
0
41
1
10
57.9002234415455
20
3.76627127832555
30
0
41
1
10
57.8655194256491
20
3.82804954549638
30
0
41
1
10
57.8309286017324
20
3.88985948940504
30
0
0
SPLINE
5
157
100
AcDbEntity
8
1
62
256
6
ByLayer
370
18
48
1
60
0
100
AcDbSpline
70
4
71
3
72
10
73
6
40
0
40
0
40
0
40
0
40
0.5
40
0.5
40
1
40
1
40
1
40
1
41
1
10
57.7071120180092
20
3.92407033980996
30
0
41
1
10
57.6347196465463
20
3.83700591266396
30
0
41
1
10
57.5618900217386
20
3.74452745526298
30
0
41
1
10
57.4149349281914
20
3.54857902857171
30
0
41
1
10
57.3410684413612
20
3.44545710028308
30
0
41
1
10
57.2665461576325
20
3.33702420570094
30
0
0
SPLINE
5
158
100
AcDbEntity
8
1
62
256
6
ByLayer
370
18
48
1
60
0
100
AcDbSpline
70
4
71
3
72
30
73
26
40
0
40
0
40
0
40
0
40
0.125
40
0.125
40
0.249999999999999
40
0.249999999999999
40
0.374999999999999
40
0.374999999999999
40
0.437499999999999
40
0.437499999999999
40
0.499999999999999
40
0.499999999999999
40
0.624999999999999
40
0.624999999999999
40
0.687499999999999
40
0.687499999999999
40
0.749999999999999
40
0.749999999999999
40
0.812499999999999
40
0.812499999999999
40
0.875
40
0.875
40
0.9375
40
0.9375
40
1
40
1
40
1
40
1
41
1
10
57.2665461576325
20
3.33702420570094
30
0
41
1
10
57.2576982921715
20
3.32415020862629
30
0
41
1
10
57.247427869418
20
3.31321118695308
30
0
41
1
10
57.2246685992847
20
3.2943078620419
30
0
41
1
10
57.2120631069932
20
3.28633168081279
30
0
41
1
10
57.1855949527946
20
3.27358227367006
30
0
41
1
10
57.171670967932
20
3.26873484117246
30
0
41
1
10
57.149794883387
20
3.26371856967367
30
0
41
1
10
57.1423340317576
20
3.26243078353485
30
0
41
1
10
57.127336985891
20
3.2606722797766
30
0
41
1
10
57.119769373509
20
3.26019315204928
30
0
41
1
10
57.096866136718
20
3.25998195170123
30
0
41
1
10
57.081332918171
20
3.26145160267359
30
0
41
1
10
57.0576187665003
20
3.26653578276637
30
0
41
1
10
57.0496374878846
20
3.26872582895871
30
0
41
1
10
57.0339097990682
20
3.27408838851781
30
0
41
1
10
57.02611818704
20
3.27726777329028
30
0
41
1
10
57.010705303903
20
3.28474246004185
30
0
41
1
10
57.0030648983155
20
3.289048439053
30
0
41
1
10
56.9880734033287
20
3.29893797184377
30
0
41
1
10
56.9808516075825
20
3.30443381370648
30
0
41
1
10
56.9670263722653
20
3.31666185989582
30
0
41
1
10
56.9603975184057
20
3.32342074056814
30
0
41
1
10
56.9479915389183
20
3.33830837562292
30
0
41
1
10
56.9423230196857
20
3.34629952504957
30
0
41
1
10
56.9372582197187
20
3.35491096576166
30
0
0
SPLINE
5
159
100
AcDbEntity
8
1
62
256
6
ByLayer
370
18
48
1
60
0
100
AcDbSpline
70
4
71
3
72
12
73
8
40
0
40
0
40
0
40
0
40
0.500000000000001
40
0.500000000000001
40
0.750000000000001
40
0.750000000000001
40
1
40
1
40
1
40
1
41
1
10
56.9372582197187
20
3.35491096576166
30
0
41
1
10
56.866291856553
20
3.47557172885806
30
0
41
1
10
56.795684309654
20
3.59515476089322
30
0
41
1
10
56.6904610943612
20
3.77224816173839
30
0
41
1
10
56.6554970637862
20
3.83090541465884
30
0
41
1
10
56.5858699007715
20
3.94726512365636
30
0
41
1
10
56.5511903133692
20
4.00499530433848
30
0
41
1
10
56.516622470464
20
4.06227532523633
30
0
0
SPLINE
5
15A
100
AcDbEntity
8
1
62
256
6
ByLayer
370
18
48
1
60
0
100
AcDbSpline
70
4
71
3
72
8
73
4
40
0
40
0
40
0
40
0
40
1
40
1
40
1
40
1
41
1
10
56.392529782568
20
4.05652354902597
30
0
41
1
10
56.4339051851123
20
4.0590776182795
30
0
41
1
10
56.4752661803611
20
4.06099465788398
30
0
41
1
10
56.516622470464
20
4.06227532523627
30
0
0
SPLINE
5
15B
100
AcDbEntity
8
1
62
256
6
ByLayer
370
18
48
1
60
0
100
AcDbSpline
70
4
71
3
72
10
73
6
40
0
40
0
40
0
40
0
40
0.5
40
0.5
40
1
40
1
40
1
40
1
41
1
10
56.392529782568
20
4.05652354902597
30
0
41
1
10
56.3201349933984
20
3.93363023301538
30
0
41
1
10
56.2473020926016
20
3.80699672041232
30
0
41
1
10
56.1003454322866
20
3.54630408720968
30
0
41
1
10
56.0264786345837
20
3.41269777240117
30
0
41
1
10
55.9519636679219
20
3.2757967561401
30
0
0
SPLINE
5
15C
100
AcDbEntity
8
1
62
256
6
ByLayer
370
18
48
1
60
0
100
AcDbSpline
70
4
71
3
72
28
73
24
40
0
40
0
40
0
40
0
40
0.125000000000026
40
0.125000000000026
40
0.250000000000052
40
0.250000000000052
40
0.375000000000078
40
0.375000000000078
40
0.500000000000104
40
0.500000000000104
40
0.625000000000129
40
0.625000000000129
40
0.687500000000108
40
0.687500000000108
40
0.750000000000086
40
0.750000000000086
40
0.812500000000065
40
0.812500000000065
40
0.875000000000043
40
0.875000000000043
40
0.937500000000022
40
0.937500000000022
40
1
40
1
40
1
40
1
41
1
10
55.9519636679219
20
3.2757967561401
30
0
41
1
10
55.9431026428918
20
3.25951702891101
30
0
41
1
10
55.9328162565424
20
3.24496960283636
30
0
41
1
10
55.910022963975
20
3.21854355838869
30
0
41
1
10
55.8973894266862
20
3.20661666116456
30
0
41
1
10
55.8709571303351
20
3.18598165610817
30
0
41
1
10
55.8570885298428
20
3.17716528981219
30
0
41
1
10
55.8281232569857
20
3.16242915265701
30
0
41
1
10
55.8128884254921
20
3.1564914822039
30
0
41
1
10
55.7822336056062
20
3.14815179555856
30
0
41
1
10
55.766728455555
20
3.14567185770278
30
0
41
1
10
55.7432183583008
20
3.14483885561933
30
0
41
1
10
55.7353392566041
20
3.14504701734228
30
0
41
1
10
55.7194928088252
20
3.14658206487087
30
0
41
1
10
55.7116208856501
20
3.14790430834754
30
0
41
1
10
55.6961728275908
20
3.15173931752165
30
0
41
1
10
55.6885703429154
20
3.15425294547865
30
0
41
1
10
55.6736542913993
20
3.1606580874585
30
0
41
1
10
55.6663031690483
20
3.16458400134218
30
0
41
1
10
55.6524133848175
20
3.17380369270202
30
0
41
1
10
55.6458228785669
20
3.17910907801678
30
0
41
1
10
55.6334682643001
20
3.19134095896638
30
0
41
1
10
55.627716140539
20
3.19828113825059
30
0
41
1
10
55.6226421740166
20
3.20594598466826
30
0
0
SPLINE
5
15D
100
AcDbEntity
8
1
62
256
6
ByLayer
370
18
48
1
60
0
100
AcDbSpline
70
4
71
3
72
12
73
8
40
0
40
0
40
0
40
0
40
0.500000000000012
40
0.500000000000012
40
0.750000000000006
40
0.750000000000006
40
1
40
1
40
1
40
1
41
1
10
55.6226421740166
20
3.20594598466829
30
0
41
1
10
55.5516614392013
20
3.31317105770833
30
0
41
1
10
55.4810410568645
20
3.41732559418199
30
0
41
1
10
55.3758094475915
20
3.56842995344147
30
0
41
1
10
55.3408441039256
20
3.61795142478007
30
0
41
1
10
55.2712172310513
20
3.71515229142011
30
0
41
1
10
55.2365390651176
20
3.76285602998473
30
0
41
1
10
55.2019731712773
20
3.80967467842396
30
0
0
SPLINE
5
15E
100
AcDbEntity
8
1
62
256
6
ByLayer
370
18
48
1
60
0
100
AcDbSpline
70
4
71
3
72
8
73
4
40
0
40
0
40
0
40
0
40
1
40
1
40
1
40
1
41
1
10
55.0781995145406
20
3.76461095575101
30
0
41
1
10
55.119469653041
20
3.78022595859636
30
0
41
1
10
55.1607245042651
20
3.79524798708286
30
0
41
1
10
55.2019731712774
20
3.80967467842393
30
0
0
SPLINE
5
15F
100
AcDbEntity
8
1
62
256
6
ByLayer
370
18
48
1
60
0
100
AcDbSpline
70
4
71
3
72
10
73
6
40
0
40
0
40
0
40
0
40
0.5
40
0.5
40
1
40
1
40
1
40
1
41
1
10
55.0781995145406
20
3.76461095575101
30
0
41
1
10
55.0057870650411
20
3.61884471978411
30
0
41
1
10
54.9329183643461
20
3.47141429228583
30
0
41
1
10
54.7858663623563
20
3.17340361352532
30
0
41
1
10
54.7119385171819
20
3.02333415254282
30
0
41
1
10
54.6373656235385
20
2.87227011381344
30
0
0
SPLINE
5
160
100
AcDbEntity
8
1
62
256
6
ByLayer
370
18
48
1
60
0
100
AcDbSpline
70
4
71
3
72
22
73
18
40
0
40
0
40
0
40
0
40
0.164744391472484
40
0.164744391472484
40
0.329488782944968
40
0.329488782944968
40
0.494233174417452
40
0.494233174417452
40
0.658977565889936
40
0.658977565889936
40
0.823721957362419
40
0.823721957362419
40
0.906094153098707
40
0.906094153098707
40
0.988466348834994
40
0.988466348834994
40
1
40
1
40
1
40
1
41
1
10
54.6373656235385
20
2.87227011381341
30
0
41
1
10
54.6284962433215
20
2.85430320477792
30
0
41
1
10
54.6181992728504
20
2.83768055390181
30
0
41
1
10
54.5953827265751
20
2.80651427246923
30
0
41
1
10
54.5827361442822
20
2.79189290165991
30
0
41
1
10
54.5562809260317
20
2.76551142412421
30
0
41
1
10
54.5424020997361
20
2.75362876451265
30
0
41
1
10
54.5134207375021
20
2.73237281310304
30
0
41
1
10
54.4981811485428
20
2.72294963829651
30
0
41
1
10
54.4675243920321
20
2.70744638461594
30
0
41
1
10
54.4520207156616
20
2.70127017980826
30
0
41
1
10
54.4285169000311
20
2.69467437986316
30
0
41
1
10
54.4206405710397
20
2.69292482981245
30
0
41
1
10
54.4048011089013
20
2.69045563294245
30
0
41
1
10
54.3969379068841
20
2.68975551868189
30
0
41
1
10
54.3881396738561
20
2.68963263738658
30
0
41
1
10
54.3870614430843
20
2.68962905334576
30
0
41
1
10
54.3859856555729
20
2.6896372250082
30
0
0
SPLINE
5
161
100
AcDbEntity
8
1
62
256
6
ByLayer
370
18
48
1
60
0
100
AcDbSpline
70
4
71
3
72
8
73
4
40
0
40
0
40
0
40
0
40
1
40
1
40
1
40
1
41
1
10
53.9321532702235
20
3.11729876638026
30
0
41
1
10
53.9172580335418
20
3.13127113629525
30
0
41
1
10
53.9023856313953
20
3.14501437304961
30
0
41
1
10
53.8875342842951
20
3.15852985879047
30
0
0
SPLINE
5
162
100
AcDbEntity
8
1
62
256
6
ByLayer
370
18
48
1
60
0
100
AcDbSpline
70
4
71
3
72
8
73
4
40
0
40
0
40
0
40
0
40
1
40
1
40
1
40
1
41
1
10
53.7634438694232
20
3.07864738843094
30
0
41
1
10
53.8048215540427
20
3.10576825762297
30
0
41
1
10
53.8461824027467
20
3.13239721633596
30
0
41
1
10
53.8875342842951
20
3.15852985879042
30
0
0
SPLINE
5
163
100
AcDbEntity
8
1
62
256
6
ByLayer
370
18
48
1
60
0
100
AcDbSpline
70
4
71
3
72
8
73
4
40
0
40
0
40
0
40
0
40
1
40
1
40
1
40
1
41
1
10
53.7634438694232
20
3.07864738843097
30
0
41
1
10
53.7352929100125
20
3.01907473279621
30
0
41
1
10
53.7070727630999
20
2.9595897788104
30
0
41
1
10
53.6787722367819
20
2.90020061599344
30
0
0
SPLINE
5
164
100
AcDbEntity
8
1
62
256
6
ByLayer
370
18
48
1
60
0
100
AcDbSpline
70
4
71
3
72
26
73
22
40
0
40
0
40
0
40
0
40
0.0649814768802461
40
0.0649814768802461
40
0.129962953760492
40
0.129962953760492
40
0.259925907520994
40
0.259925907520994
40
0.389888861281496
40
0.389888861281496
40
0.519851815041997
40
0.519851815041997
40
0.584833291922253
40
0.584833291922253
40
0.649814768802508
40
0.649814768802508
40
0.714796245682764
40
0.714796245682764
40
0.77977772256302
40
0.77977772256302
40
1
40
1
40
1
40
1
41
1
10
38.6302243468034
20
-3.1137227105078
30
0
41
1
10
38.6900811252729
20
-3.11330498157463
30
0
41
1
10
38.7497808090181
20
-3.11185886702029
30
0
41
1
10
38.8689516993111
20
-3.10691745366299
30
0
41
1
10
38.9284604267903
20
-3.103422462818
30
0
41
1
10
39.1072587864688
20
-3.08997759486564
30
0
41
1
10
39.226492621788
20
-3.07704563970549
30
0
41
1
10
39.4649427294746
20
-3.04340107213622
30
0
41
1
10
39.5841869985496
20
-3.022694663111
30
0
41
1
10
39.8226430950277
20
-2.97347505495227
30
0
41
1
10
39.9418676255324
20
-2.94496320869541
30
0
41
1
10
40.1207873742454
20
-2.89624019680309
30
0
41
1
10
40.1804393492727
20
-2.87900490260387
30
0
41
1
10
40.2997687952671
20
-2.84250654192306
30
0
41
1
10
40.359407292209
20
-2.8232177721504
30
0
41
1
10
40.4791420158656
20
-2.78282468190665
30
0
41
1
10
40.5392608482292
20
-2.76174058444226
30
0
41
1
10
40.6598219968376
20
-2.71768999309563
30
0
41
1
10
40.7200871267009
20
-2.69480751636925
30
0
41
1
10
40.9840708352159
20
-2.59089001559468
30
0
41
1
10
41.1869585711489
20
-2.50142722695492
30
0
41
1
10
41.3890609866363
20
-2.40306431859517
30
0
0
SPLINE
5
165
100
AcDbEntity
8
1
62
256
6
ByLayer
370
18
48
1
60
0
100
AcDbSpline
70
4
71
3
72
10
73
6
40
0
40
0
40
0
40
0
40
0.5
40
0.5
40
1
40
1
40
1
40
1
41
1
10
50.9784998323224
20
3.34419283879566
30
0
41
1
10
50.9926726935853
20
3.36841764040904
30
0
41
1
10
51.006866111447
20
3.392640832197
30
0
41
1
10
51.0352776400658
20
3.44105908426516
30
0
41
1
10
51.0494995537691
20
3.46526191868995
30
0
41
1
10
51.0636937943269
20
3.48937422112814
30
0
0
SPLINE
5
166
100
AcDbEntity
8
1
62
256
6
ByLayer
370
18
48
1
60
0
100
AcDbSpline
70
4
71
3
72
14
73
10
40
0
40
0
40
0
40
0
40
0.125
40
0.125
40
0.25
40
0.25
40
0.5
40
0.5
40
1
40
1
40
1
40
1
41
1
10
53.6075989749028
20
2.83679373743519
30
0
41
1
10
53.6256840966302
20
2.85378517469218
30
0
41
1
10
53.6438012832805
20
2.87079623781184
30
0
41
1
10
53.6800625086
20
2.90469778464285
30
0
41
1
10
53.6981953010318
20
2.92153515275621
30
0
41
1
10
53.7524175917343
20
2.9707640676923
30
0
41
1
10
53.7883938787588
20
3.00217665068914
30
0
41
1
10
53.8959226465593
20
3.09235241386207
30
0
41
1
10
53.9668031682487
20
3.14671328128125
30
0
41
1
10
54.0371412802653
20
3.19558539269471
30
0
0
SPLINE
5
167
100
AcDbEntity
8
1
62
256
6
ByLayer
370
18
48
1
60
0
100
AcDbSpline
70
4
71
3
72
8
73
4
40
0
40
0
40
0
40
0
40
1
40
1
40
1
40
1
41
1
10
54.161579219385
20
3.11641476321026
30
0
41
1
10
54.1200639420723
20
3.14329919891617
30
0
41
1
10
54.0785957943119
20
3.16969661311063
30
0
41
1
10
54.0371412802653
20
3.19558539269471
30
0
0
SPLINE
5
168
100
AcDbEntity
8
1
62
256
6
ByLayer
370
18
48
1
60
0
100
AcDbSpline
70
4
71
3
72
14
73
10
40
0
40
0
40
0
40
0
40
0.5
40
0.5
40
0.75
40
0.75
40
0.875
40
0.875
40
1
40
1
40
1
40
1
41
1
10
54.161579219385
20
3.11641476321026
30
0
41
1
10
54.232060818542
20
2.98034579451465
30
0
41
1
10
54.3031299815442
20
2.84570756210661
30
0
41
1
10
54.4109642602243
20
2.6461750028833
30
0
41
1
10
54.4470510762498
20
2.58019851508132
30
0
41
1
10
54.5014209205909
20
2.48202070092009
30
0
41
1
10
54.5195675660869
20
2.44939286653542
30
0
41
1
10
54.5560436710879
20
2.38459541719385
30
0
41
1
10
54.5743885077558
20
2.35245615922435
30
0
41
1
10
54.5928751464495
20
2.32063227585795
30
0
0
SPLINE
5
169
100
AcDbEntity
8
1
62
256
6
ByLayer
370
18
48
1
60
0
100
AcDbSpline
70
4
71
3
72
31
73
27
40
0
40
0
40
0
40
0
40
0.124999999999963
40
0.124999999999963
40
0.187499999999946
40
0.187499999999946
40
0.249999999999929
40
0.312499999999912
40
0.312499999999912
40
0.374999999999895
40
0.374999999999895
40
0.499999999999929
40
0.499999999999929
40
0.562499999999979
40
0.562499999999979
40
0.625000000000029
40
0.625000000000029
40
0.750000000000061
40
0.750000000000061
40
0.812500000000046
40
0.812500000000046
40
0.87500000000003
40
0.87500000000003
40
0.937500000000015
40
0.937500000000015
40
1
40
1
40
1
40
1
41
1
10
54.5928751464495
20
2.32063227585795
30
0
41
1
10
54.6024832604907
20
2.30409235718017
30
0
41
1
10
54.6138581937745
20
2.28833692993536
30
0
41
1
10
54.6328913473567
20
2.26556735428076
30
0
41
1
10
54.6396095160109
20
2.25809162249149
30
0
41
1
10
54.6533243290394
20
2.24376783124271
30
0
41
1
10
54.66738279012
20
2.22998419317696
30
0
41
1
10
54.6820410582108
20
2.21715454732748
30
0
41
1
10
54.6969728128923
20
2.20476603702659
30
0
41
1
10
54.7046118657751
20
2.19876646924669
30
0
41
1
10
54.7275828312096
20
2.18165112096193
30
0
41
1
10
54.7429792778235
20
2.17138091747446
30
0
41
1
10
54.766140062656
20
2.1575297150012
30
0
41
1
10
54.7738952529273
20
2.15316241058079
30
0
41
1
10
54.7893152597991
20
2.14501772189783
30
0
41
1
10
54.7969273421178
20
2.14126636654282
30
0
41
1
10
54.8194640798694
20
2.13096069185403
30
0
41
1
10
54.8340939284259
20
2.12533614777988
30
0
41
1
10
54.8553531911858
20
2.11900315746436
30
0
41
1
10
54.8623656293237
20
2.11723994202714
30
0
41
1
10
54.8758864658025
20
2.11457755915441
30
0
41
1
10
54.882391556609
20
2.11367336119926
30
0
41
1
10
54.8948441292313
20
2.11281038630588
30
0
41
1
10
54.9007923801077
20
2.11285009452339
30
0
41
1
10
54.9120419811343
20
2.11405022603066
30
0
41
1
10
54.9173236589556
20
2.11521579345529
30
0
41
1
10
54.922094900297
20
2.1170351686055
30
0
0
SPLINE
5
16A
100
AcDbEntity
8
1
62
256
6
ByLayer
370
18
48
1
60
0
100
AcDbSpline
70
4
71
3
72
14
73
10
40
0
40
0
40
0
40
0
40
0.124999999999994
40
0.124999999999994
40
0.249999999999989
40
0.249999999999989
40
0.499999999999999
40
0.499999999999999
40
1
40
1
40
1
40
1
41
1
10
54.922094900297
20
2.1170351686055
30
0
41
1
10
54.9401825061
20
2.12393235492851
30
0
41
1
10
54.9583022480844
20
2.13085986243647
30
0
41
1
10
54.9945699284916
20
2.14459557179885
30
0
41
1
10
55.012707612266
20
2.15134760905406
30
0
41
1
10
55.0669461106112
20
2.17014331684487
30
0
41
1
10
55.1029351486532
20
2.18107975668571
30
0
41
1
10
55.2105124811695
20
2.20934929746289
30
0
41
1
10
55.2814633745432
20
2.22200781566968
30
0
41
1
10
55.351845982592
20
2.22848993342041
30
0
0
SPLINE
5
16B
100
AcDbEntity
8
1
62
256
6
ByLayer
370
18
48
1
60
0
100
AcDbSpline
70
4
71
3
72
8
73
4
40
0
40
0
40
0
40
0
40
1
40
1
40
1
40
1
41
1
10
55.4759150395686
20
2.12296034765831
30
0
41
1
10
55.4345804264182
20
2.15851651074485
30
0
41
1
10
55.3932292286686
20
2.19369658945689
30
0
41
1
10
55.351845982592
20
2.22848993342043
30
0
0
SPLINE
5
16C
100
AcDbEntity
8
1
62
256
6
ByLayer
370
18
48
1
60
0
100
AcDbSpline
70
4
71
3
72
14
73
10
40
0
40
0
40
0
40
0
40
0.500000000000011
40
0.500000000000011
40
0.750000000000016
40
0.750000000000016
40
0.875000000000008
40
0.875000000000008
40
1
40
1
40
1
40
1
41
1
10
55.4759150395686
20
2.12296034765839
30
0
41
1
10
55.5464687389021
20
1.99977161091292
30
0
41
1
10
55.6175459767776
20
1.87973313618781
30
0
41
1
10
55.725397308424
20
1.70507276937565
30
0
41
1
10
55.7614929746171
20
1.64788343875651
30
0
41
1
10
55.8158834128125
20
1.56361051104503
30
0
41
1
10
55.8340381446619
20
1.53571339231024
30
0
41
1
10
55.8705324067803
20
1.48076166423698
30
0
41
1
10
55.8888870347672
20
1.4537591936226
30
0
41
1
10
55.9073843094995
20
1.42732404362911
30
0
0
SPLINE
5
16D
100
AcDbEntity
8
1
62
256
6
ByLayer
370
18
48
1
60
0
100
AcDbSpline
70
4
71
3
72
31
73
27
40
0
40
0
40
0
40
0
40
0.124999999999936
40
0.124999999999936
40
0.187499999999932
40
0.187499999999932
40
0.249999999999928
40
0.312499999999923
40
0.312499999999923
40
0.374999999999919
40
0.374999999999919
40
0.499999999999911
40
0.499999999999911
40
0.562499999999906
40
0.562499999999906
40
0.624999999999902
40
0.624999999999902
40
0.749999999999893
40
0.749999999999893
40
0.81249999999992
40
0.81249999999992
40
0.874999999999946
40
0.874999999999946
40
0.937499999999973
40
0.937499999999973
40
1
40
1
40
1
40
1
41
1
10
55.9073843094966
20
1.42732404363488
30
0
41
1
10
55.9169990155908
20
1.41358330607125
30
0
41
1
10
55.9283821203708
20
1.39974622659099
30
0
41
1
10
55.9474284583351
20
1.37885577732672
30
0
41
1
10
55.954150697084
20
1.37183573928917
30
0
41
1
10
55.9678720586515
20
1.35808907505094
30
0
41
1
10
55.9819368118828
20
1.3445569957174
30
0
41
1
10
55.9966009799987
20
1.33139041090411
30
0
41
1
10
56.0115384548455
20
1.31838544895129
30
0
41
1
10
56.0191801751661
20
1.31193475341698
30
0
41
1
10
56.0421544710703
20
1.29308082806858
30
0
41
1
10
56.0575529683678
20
1.28114398945377
30
0
41
1
10
56.0807161415361
20
1.26406898163756
30
0
41
1
10
56.0884731448738
20
1.25850026771886
30
0
41
1
10
56.103890039763
20
1.24772248753948
30
0
41
1
10
56.1115006555856
20
1.24254680196205
30
0
41
1
10
56.1340330228148
20
1.22764539352397
30
0
41
1
10
56.1486599888044
20
1.21853257663369
30
0
41
1
10
56.1699141209446
20
1.20624173030527
30
0
41
1
10
56.1769246488984
20
1.20235630547592
30
0
41
1
10
56.1904379191141
20
1.19524986164998
30
0
41
1
10
56.1969395690954
20
1.19202640100804
30
0
41
1
10
56.2093858764227
20
1.1863116559413
30
0
41
1
10
56.2153313009704
20
1.18381916801462
30
0
41
1
10
56.2265758800916
20
1.17970572623597
30
0
41
1
10
56.2318549726528
20
1.17809589504822
30
0
41
1
10
56.2366244550641
20
1.17705792225556
30
0
0
SPLINE
5
16E
100
AcDbEntity
8
1
62
256
6
ByLayer
370
18
48
1
60
0
100
AcDbSpline
70
4
71
3
72
14
73
10
40
0
40
0
40
0
40
0
40
0.124999999999994
40
0.124999999999994
40
0.249999999999988
40
0.249999999999988
40
0.499999999999999
40
0.499999999999999
40
1
40
1
40
1
40
1
41
1
10
56.236624455061
20
1.17705792226204
30
0
41
1
10
56.2546964701287
20
1.17312494624252
30
0
41
1
10
56.2728015945709
20
1.169226918248
30
0
41
1
10
56.3090416646205
20
1.16131277324195
30
0
41
1
10
56.3271661159224
20
1.15723705420197
30
0
41
1
10
56.3813686021266
20
1.14351475457033
30
0
41
1
10
56.4173383290812
20
1.13273724322775
30
0
41
1
10
56.5248737587332
20
1.0957958761885
30
0
41
1
10
56.5958218879525
20
1.06502519045125
30
0
41
1
10
56.6662304220338
20
1.02822170165655
30
0
0
SPLINE
5
16F
100
AcDbEntity
8
1
62
256
6
ByLayer
370
18
48
1
60
0
100
AcDbSpline
70
4
71
3
72
8
73
4
40
0
40
0
40
0
40
0
40
1
40
1
40
1
40
1
41
1
10
56.7900219785179
20
0.907721442476401
30
0
41
1
10
56.7487698643033
20
0.948070672043997
30
0
41
1
10
56.7075065657209
20
0.988237688743396
30
0
41
1
10
56.6662304220338
20
1.02822170165658
30
0
0
SPLINE
5
170
100
AcDbEntity
8
1
62
256
6
ByLayer
370
18
48
1
60
0
100
AcDbSpline
70
4
71
3
72
14
73
10
40
0
40
0
40
0
40
0
40
0.500000000000001
40
0.500000000000001
40
0.750000000000012
40
0.750000000000012
40
0.875000000000006
40
0.875000000000006
40
1
40
1
40
1
40
1
41
1
10
56.7900219785181
20
0.907721442472763
30
0
41
1
10
56.8607022513984
20
0.810636654398763
30
0
41
1
10
56.9319227909106
20
0.718217586697875
30
0
41
1
10
57.0398687977105
20
0.586940861259507
30
0
41
1
10
57.0759760594246
20
0.544486519654811
30
0
41
1
10
57.1303704203567
20
0.48281566533052
30
0
41
1
10
57.1485252763961
20
0.462521774106591
30
0
41
1
10
57.1850244045292
20
0.423096950284645
30
0
41
1
10
57.2033809866526
20
0.40402192704434
30
0
41
1
10
57.2218786225198
20
0.385702040185805
30
0
0
SPLINE
5
171
100
AcDbEntity
8
1
62
256
6
ByLayer
370
18
48
1
60
0
100
AcDbSpline
70
4
71
3
72
31
73
27
40
0
40
0
40
0
40
0
40
0.124999999999999
40
0.124999999999999
40
0.187499999999998
40
0.187499999999998
40
0.249999999999998
40
0.312499999999997
40
0.312499999999997
40
0.374999999999996
40
0.374999999999996
40
0.500000000000062
40
0.500000000000062
40
0.562500000000095
40
0.562500000000095
40
0.625000000000128
40
0.625000000000128
40
0.750000000000128
40
0.750000000000128
40
0.812500000000096
40
0.812500000000096
40
0.875000000000064
40
0.875000000000064
40
0.937500000000032
40
0.937500000000032
40
1
40
1
40
1
40
1
41
1
10
57.2218786225198
20
0.385702040185862
30
0
41
1
10
57.2315116299224
20
0.376161599072731
30
0
41
1
10
57.2429153441878
20
0.365640678515973
30
0
41
1
10
57.2619890014925
20
0.348728992585308
30
0
41
1
10
57.2687189239389
20
0.342868493235045
30
0
41
1
10
57.282451461447
20
0.331074811148738
30
0
41
1
10
57.2965252421734
20
0.319145955225679
30
0
41
1
10
57.3111941635097
20
0.306953546448597
30
0
41
1
10
57.3261342542274
20
0.294625686724942
30
0
41
1
10
57.3337759094736
20
0.288364853581413
30
0
41
1
10
57.3567452012352
20
0.269642847267051
30
0
41
1
10
57.3721386816534
20
0.257220451101205
30
0
41
1
10
57.3952929179368
20
0.238608657979597
30
0
41
1
10
57.4030469067404
20
0.232388692420216
30
0
41
1
10
57.4184560605843
20
0.220039926675923
30
0
41
1
10
57.4260632402278
20
0.213949481879865
30
0
41
1
10
57.4485865386379
20
0.195918433381877
30
0
41
1
10
57.4632091329574
20
0.184212571495095
30
0
41
1
10
57.4844586726029
20
0.167169894283262
30
0
41
1
10
57.4914678383373
20
0.161543239268724
30
0
41
1
10
57.5049852808691
20
0.150683006748807
30
0
41
1
10
57.5114891850994
20
0.14545295896562
30
0
41
1
10
57.5239400082851
20
0.135439283141636
30
0
41
1
10
57.529887694208
20
0.130654883735076
30
0
41
1
10
57.5411365289499
20
0.121621632928964
30
0
41
1
10
57.5464207022462
20
0.117386408012152
30
0
41
1
10
57.5511943065238
20
0.113584641271643
30
0
0
SPLINE
5
172
100
AcDbEntity
8
1
62
256
6
ByLayer
370
18
48
1
60
0
100
AcDbSpline
70
4
71
3
72
14
73
10
40
0
40
0
40
0
40
0
40
0.124999999999994
40
0.124999999999994
40
0.249999999999988
40
0.249999999999988
40
0.499999999999999
40
0.499999999999999
40
1
40
1
40
1
40
1
41
1
10
57.5511943065239
20
0.113584641270307
30
0
41
1
10
57.569260963993
20
0.0991960967903651
30
0
41
1
10
57.5873623230494
20
0.0848485430737753
30
0
41
1
10
57.6235967986759
20
0.0560563511511134
30
0
41
1
10
57.6417189702553
20
0.0415538997296494
30
0
41
1
10
57.6959165656705
20
-0.0033224667426168
30
0
41
1
10
57.7318858214157
20
-0.0347265561065342
30
0
41
1
10
57.8394249228472
20
-0.133125733530591
30
0
41
1
10
57.9103867765288
20
-0.204169119003865
30
0
41
1
10
57.9808170223708
20
-0.280493032477239
30
0
0
SPLINE
5
173
100
AcDbEntity
8
1
62
256
6
ByLayer
370
18
48
1
60
0
100
AcDbSpline
70
4
71
3
72
14
73
10
40
0
40
0
40
0
40
0
40
0.49999999999999
40
0.49999999999999
40
0.749999999999985
40
0.749999999999985
40
0.874999999999992
40
0.874999999999992
40
1
40
1
40
1
40
1
41
1
10
58.1049027250918
20
-0.404048610623221
30
0
41
1
10
58.1755154049945
20
-0.464624328735454
30
0
41
1
10
58.2466711399827
20
-0.519451214440949
30
0
41
1
10
58.3545231964496
20
-0.592821102903031
30
0
41
1
10
58.3906033904593
20
-0.615734360153311
30
0
41
1
10
58.4449380213082
20
-0.647886782932602
30
0
41
1
10
58.4630688555598
20
-0.658321908501478
30
0
41
1
10
58.4995202140319
20
-0.677850934536934
30
0
41
1
10
58.5178497813779
20
-0.686898687146311
30
0
41
1
10
58.5363158041878
20
-0.695103606927887
30
0
0
SPLINE
5
174
100
AcDbEntity
8
1
62
256
6
ByLayer
370
18
48
1
60
0
100
AcDbSpline
70
4
71
3
72
31
73
27
40
0
40
0
40
0
40
0
40
0.12500000000006
40
0.12500000000006
40
0.187500000000089
40
0.187500000000089
40
0.250000000000119
40
0.312500000000148
40
0.312500000000148
40
0.375000000000177
40
0.375000000000177
40
0.500000000000236
40
0.500000000000236
40
0.562500000000231
40
0.562500000000231
40
0.625000000000227
40
0.625000000000227
40
0.750000000000151
40
0.750000000000151
40
0.812500000000113
40
0.812500000000113
40
0.875000000000076
40
0.875000000000076
40
0.937500000000038
40
0.937500000000038
40
1
40
1
40
1
40
1
41
1
10
58.5363158041878
20
-0.695103606927802
30
0
41
1
10
58.5459655898576
20
-0.699391250138518
30
0
41
1
10
58.5573917941181
20
-0.705454857135294
30
0
41
1
10
58.5765005780597
20
-0.716577763367951
30
0
41
1
10
58.5832412093052
20
-0.72065562261966
30
0
41
1
10
58.596990566908
20
-0.729248539261022
30
0
41
1
10
58.6110795691441
20
-0.738317904744321
30
0
41
1
10
58.6257605254246
20
-0.748261683926785
30
0
41
1
10
58.6407110745749
20
-0.758627989625268
30
0
41
1
10
58.6483566581862
20
-0.764048648326963
30
0
41
1
10
58.6713246338855
20
-0.780692549421332
30
0
41
1
10
58.6867149060499
20
-0.792313990714376
30
0
41
1
10
58.7098631624806
20
-0.810539762370269
30
0
41
1
10
58.7176177850635
20
-0.816771391140776
30
0
41
1
10
58.7330110385425
20
-0.829409278114866
30
0
41
1
10
58.7406110668497
20
-0.835782813604425
30
0
41
1
10
58.7631157060627
20
-0.85507487927427
30
0
41
1
10
58.7777296014621
20
-0.868162588896183
30
0
41
1
10
58.7989712319473
20
-0.888198793462635
30
0
41
1
10
58.8059784527663
20
-0.894987020383297
30
0
41
1
10
58.8194825875369
20
-0.908469438629368
30
0
41
1
10
58.8259817631883
20
-0.915162782790617
30
0
41
1
10
58.8384266013821
20
-0.928438836313944
30
0
41
1
10
58.8443730359116
20
-0.935021804322361
30
0
41
1
10
58.8556224956203
20
-0.948047762678073
30
0
41
1
10
58.8609051722213
20
-0.954470954893537
30
0
41
1
10
58.8656795246134
20
-0.960647576979568
30
0
0
SPLINE
5
175
100
AcDbEntity
8
1
62
256
6
ByLayer
370
18
48
1
60
0
100
AcDbSpline
70
4
71
3
72
14
73
10
40
0
40
0
40
0
40
0
40
0.125
40
0.125
40
0.25
40
0.25
40
0.5
40
0.5
40
1
40
1
40
1
40
1
41
1
10
58.8656795246134
20
-0.96064757697954
30
0
41
1
10
58.8837454467669
20
-0.984019620895708
30
0
41
1
10
58.9018467160014
20
-1.00735100427281
30
0
41
1
10
58.9380834672755
20
-1.05407618966092
30
0
41
1
10
58.9562088599031
20
-1.07751314440165
30
0
41
1
10
59.0104159891945
20
-1.148931332686
30
0
41
1
10
59.0463924851572
20
-1.19773948449117
30
0
41
1
10
59.1539589284108
20
-1.34750761447881
30
0
41
1
10
59.2249465106038
20
-1.45156043669613
30
0
41
1
10
59.2954128781837
20
-1.55964994083328
30
0
0
SPLINE
5
176
100
AcDbEntity
8
1
62
256
6
ByLayer
370
18
48
1
60
0
100
AcDbSpline
70
4
71
3
72
14
73
10
40
0
40
0
40
0
40
0
40
0.49999999999999
40
0.49999999999999
40
0.749999999999995
40
0.749999999999995
40
0.874999999999997
40
0.874999999999997
40
1
40
1
40
1
40
1
41
1
10
59.4189536010869
20
-1.67289619133226
30
0
41
1
10
59.4895814661881
20
-1.69090214492658
30
0
41
1
10
59.5607785187552
20
-1.7027138533758
30
0
41
1
10
59.6687264700787
20
-1.71096520217668
30
0
41
1
10
59.7048436654466
20
-1.7121080354373
30
0
41
1
10
59.7592405293613
20
-1.71151933239409
30
0
41
1
10
59.7773933849688
20
-1.71102823396282
30
0
41
1
10
59.8138973468106
20
-1.70862296142593
30
0
41
1
10
59.8322557206088
20
-1.70667122058762
30
0
41
1
10
59.8507503377014
20
-1.70385531489185
30
0
0
SPLINE
5
177
100
AcDbEntity
8
1
62
256
6
ByLayer
370
18
48
1
60
0
100
AcDbSpline
70
4
71
3
72
31
73
27
40
0
40
0
40
0
40
0
40
0.124999999999891
40
0.124999999999891
40
0.187499999999866
40
0.187499999999866
40
0.249999999999841
40
0.312499999999815
40
0.312499999999815
40
0.37499999999979
40
0.37499999999979
40
0.499999999999738
40
0.499999999999738
40
0.562499999999746
40
0.562499999999746
40
0.624999999999754
40
0.624999999999754
40
0.749999999999836
40
0.749999999999836
40
0.812499999999877
40
0.812499999999877
40
0.874999999999918
40
0.874999999999918
40
0.937499999999959
40
0.937499999999959
40
1
40
1
40
1
40
1
41
1
10
59.8507503377014
20
-1.70385531489185
30
0
41
1
10
59.8604183642949
20
-1.70238330544092
30
0
41
1
10
59.8718753694418
20
-1.70329342209243
30
0
41
1
10
59.8910468446646
20
-1.70737203781104
30
0
41
1
10
59.8978090783044
20
-1.70921085136646
30
0
41
1
10
59.9115983505462
20
-1.71364812032815
30
0
41
1
10
59.9257285476543
20
-1.71885549181624
30
0
41
1
10
59.9404515261768
20
-1.72546344311877
30
0
41
1
10
59.9554438075736
20
-1.73274103430208
30
0
41
1
10
59.9631084327445
20
-1.73673486592844
30
0
41
1
10
59.9861073820168
20
-1.74950329050765
30
0
41
1
10
60.0015134728355
20
-1.75907753014064
30
0
41
1
10
60.0246756008705
20
-1.77497858115578
30
0
41
1
10
60.0324380281509
20
-1.78056312683296
30
0
41
1
10
60.0478048232837
20
-1.7921434874379
30
0
41
1
10
60.0553911828528
20
-1.79812307662308
30
0
41
1
10
60.0778541136153
20
-1.81663334842361
30
0
41
1
10
60.0924392151161
20
-1.82972563754717
30
0
41
1
10
60.1136413936792
20
-1.85065657705843
30
0
41
1
10
60.1206319461957
20
-1.85789349653962
30
0
41
1
10
60.1340758626787
20
-1.8725586055879
30
0
41
1
10
60.1405495455085
20
-1.88000257204897
30
0
41
1
10
60.1529527598844
20
-1.89513189194912
30
0
41
1
10
60.1588830703639
20
-1.90281694298238
30
0
41
1
10
60.1701098092769
20
-1.91846334149915
30
0
41
1
10
60.1753722799005
20
-1.92638331038336
30
0
41
1
10
60.1801358473943
20
-1.93427603811742
30
0
0
SPLINE
5
178
100
AcDbEntity
8
1
62
256
6
ByLayer
370
18
48
1
60
0
100
AcDbSpline
70
4
71
3
72
14
73
10
40
0
40
0
40
0
40
0
40
0.125000000000007
40
0.125000000000007
40
0.250000000000015
40
0.250000000000015
40
0.500000000000009
40
0.500000000000009
40
1
40
1
40
1
40
1
41
1
10
60.1801358473943
20
-1.93427603811742
30
0
41
1
10
60.1981881877812
20
-1.96418685764959
30
0
41
1
10
60.2162753220283
20
-1.99406747774336
30
0
41
1
10
60.2524859624722
20
-2.05385499864033
30
0
41
1
10
60.2706008450825
20
-2.08378627636373
30
0
41
1
10
60.3247745018495
20
-2.17430634723218
30
0
41
1
10
60.3607295942672
20
-2.23542442606239
30
0
41
1
10
60.4682421524999
20
-2.42089957743175
30
0
41
1
10
60.5392010652804
20
-2.54707339887935
30
0
41
1
10
60.6096557324683
20
-2.675610714209
30
0
0
SPLINE
5
179
100
AcDbEntity
8
1
62
256
6
ByLayer
370
18
48
1
60
0
100
AcDbSpline
70
4
71
3
72
14
73
10
40
0
40
0
40
0
40
0
40
0.5
40
0.5
40
0.749999999999989
40
0.749999999999989
40
0.874999999999995
40
0.874999999999995
40
1
40
1
40
1
40
1
41
1
10
60.7341264849276
20
-2.76813500335939
30
0
41
1
10
60.8046444356781
20
-2.74190096952358
30
0
41
1
10
60.8757301536583
20
-2.70962735679456
30
0
41
1
10
60.9835261055052
20
-2.65206721260583
30
0
41
1
10
61.0195933884438
20
-2.63136731854317
30
0
41
1
10
61.0739169259754
20
-2.5981633005791
30
0
41
1
10
61.092045500615
20
-2.58681834227744
30
0
41
1
10
61.128500841153
20
-2.56281411773239
30
0
41
1
10
61.1468350783051
20
-2.55011943380029
30
0
41
1
10
61.165305771786
20
-2.53662862498112
30
0
0
SPLINE
5
17A
100
AcDbEntity
8
1
62
256
6
ByLayer
370
18
48
1
60
0
100
AcDbSpline
70
4
71
3
72
31
73
27
40
0
40
0
40
0
40
0
40
0.1250000000001
40
0.1250000000001
40
0.187500000000122
40
0.187500000000122
40
0.250000000000144
40
0.312500000000165
40
0.312500000000165
40
0.375000000000188
40
0.375000000000188
40
0.500000000000164
40
0.500000000000164
40
0.562500000000118
40
0.562500000000118
40
0.625000000000073
40
0.625000000000073
40
0.750000000000048
40
0.750000000000048
40
0.812500000000036
40
0.812500000000036
40
0.875000000000024
40
0.875000000000024
40
0.937500000000012
40
0.937500000000012
40
1
40
1
40
1
40
1
41
1
10
61.165305771786
20
-2.53662862498112
30
0
41
1
10
61.1749593145082
20
-2.52957777443095
30
0
41
1
10
61.186402400027
20
-2.52524596729774
30
0
41
1
10
61.2055592322729
20
-2.52184032574053
30
0
41
1
10
61.2123175039387
20
-2.5212404101963
30
0
41
1
10
61.2261004104016
20
-2.52104011367888
30
0
41
1
10
61.2402260758426
20
-2.52181716392329
30
0
41
1
10
61.254948419453
20
-2.52436246105842
30
0
41
1
10
61.2699421785767
20
-2.52774837474323
30
0
41
1
10
61.2776082054556
20
-2.52987469785975
30
0
41
1
10
61.3006086232668
20
-2.53737062309494
30
0
41
1
10
61.3160180560336
20
-2.54384528728875
30
0
41
1
10
61.3391888847928
20
-2.55566734167297
30
0
41
1
10
61.3469557698224
20
-2.55998431568386
30
0
41
1
10
61.3623226998882
20
-2.5692448411298
30
0
41
1
10
61.3699094314625
20
-2.57417654960943
30
0
41
1
10
61.3923736989789
20
-2.58987592257205
30
0
41
1
10
61.4069599486323
20
-2.60153143752586
30
0
41
1
10
61.4281621992305
20
-2.62105085942781
30
0
41
1
10
61.4351496153657
20
-2.62793985949634
30
0
41
1
10
61.4485767507438
20
-2.64219239226546
30
0
41
1
10
61.4550423381092
20
-2.64957451279318
30
0
41
1
10
61.4674301036525
20
-2.6649012005625
30
0
41
1
10
61.473353058463
20
-2.67284493547993
30
0
41
1
10
61.4845662085923
20
-2.68939052525079
30
0
41
1
10
61.4898158384384
20
-2.69793982783847
30
0
41
1
10
61.4945704396106
20
-2.70668064380237
30
0
0
SPLINE
5
17B
100
AcDbEntity
8
1
62
256
6
ByLayer
370
18
48
1
60
0
100
AcDbSpline
70
4
71
3
72
16
73
12
40
0
40
0
40
0
40
0
40
0.12500000000001
40
0.12500000000001
40
0.250000000000021
40
0.250000000000021
40
0.500000000000014
40
0.500000000000014
40
0.750000000000007
40
0.750000000000007
40
1
40
1
40
1
40
1
41
1
10
61.4945704396106
20
-2.70668064380237
30
0
41
1
10
61.5088687189295
20
-2.73296647169798
30
0
41
1
10
61.5231867964154
20
-2.75924094951651
30
0
41
1
10
61.5518513020625
20
-2.81177938245952
30
0
41
1
10
61.5662023777599
20
-2.83803747192266
30
0
41
1
10
61.6091864195658
20
-2.91693330125793
30
0
41
1
10
61.6377260079606
20
-2.96972350294684
30
0
41
1
10
61.6946237682715
20
-3.07564712692272
30
0
41
1
10
61.7229933675569
20
-3.12879945229267
30
0
41
1
10
61.7795021228303
20
-3.23524869917259
30
0
41
1
10
61.8076499920022
20
-3.28855944168834
30
0
41
1
10
61.835706863131
20
-3.34194744705826
30
0
0
SPLINE
5
17C
100
AcDbEntity
8
1
62
256
6
ByLayer
370
18
48
1
60
0
100
AcDbSpline
70
4
71
3
72
10
73
6
40
0
40
0
40
0
40
0
40
0.5
40
0.5
40
1
40
1
40
1
40
1
41
1
10
61.835706863131
20
-3.34194744705829
30
0
41
1
10
61.8926469220459
20
-3.36108545282821
30
0
41
1
10
61.9499047832989
20
-3.37898909925289
30
0
41
1
10
62.065060298769
20
-3.41233200890221
30
0
41
1
10
62.1226495558612
20
-3.42768427668713
30
0
41
1
10
62.1802672347439
20
-3.44175531888729
30
0
0
SPLINE
5
17D
100
AcDbEntity
8
1
62
256
6
ByLayer
370
18
48
1
60
0
100
AcDbSpline
70
4
71
3
72
12
73
8
40
0
40
0
40
0
40
0
40
0.5
40
0.5
40
0.75
40
0.75
40
1
40
1
40
1
40
1
41
1
10
62.1802672347439
20
-3.44175531888729
30
0
41
1
10
62.2295206357433
20
-3.39062326378297
30
0
41
1
10
62.2791465727972
20
-3.33695216928837
30
0
41
1
10
62.3539663700754
20
-3.25295302735674
30
0
41
1
10
62.3789672205537
20
-3.22440418722223
30
0
41
1
10
62.4291443585081
20
-3.16606407795226
30
0
41
1
10
62.45439066632
20
-3.13597936274601
30
0
41
1
10
62.4799085937992
20
-3.10461935863117
30
0
0
SPLINE
5
17E
100
AcDbEntity
8
1
62
256
6
ByLayer
370
18
48
1
60
0
100
AcDbSpline
70
4
71
3
72
31
73
27
40
0
40
0
40
0
40
0
40
0.125000000000077
40
0.125000000000077
40
0.187500000000116
40
0.187500000000116
40
0.250000000000154
40
0.312500000000192
40
0.312500000000192
40
0.37500000000023
40
0.37500000000023
40
0.500000000000239
40
0.500000000000239
40
0.562500000000209
40
0.562500000000209
40
0.625000000000179
40
0.625000000000179
40
0.75000000000012
40
0.75000000000012
40
0.81250000000009
40
0.81250000000009
40
0.87500000000006
40
0.87500000000006
40
0.93750000000003
40
0.93750000000003
40
1
40
1
40
1
40
1
41
1
10
62.4799085937992
20
-3.10461935863117
30
0
41
1
10
62.489553766377
20
-3.09276601936708
30
0
41
1
10
62.5009875262974
20
-3.08368725325087
30
0
41
1
10
62.5201313040208
20
-3.0732138042124
30
0
41
1
10
62.5268855554981
20
-3.07025756495867
30
0
41
1
10
62.5406615687909
20
-3.06547783918902
30
0
41
1
10
62.5547811208789
20
-3.06177865278013
30
0
41
1
10
62.5694990884087
20
-3.06002658639275
30
0
41
1
10
62.5844893943878
20
-3.05919614173959
30
0
41
1
10
62.5921542956942
20
-3.05924647079834
30
0
41
1
10
62.6151532134204
20
-3.06072753025984
30
0
41
1
10
62.6305631016377
20
-3.06345001278734
30
0
41
1
10
62.6537362997037
20
-3.0699890241882
30
0
41
1
10
62.6615042752449
20
-3.07259622708625
30
0
41
1
10
62.6768744476688
20
-3.07859317315129
30
0
41
1
10
62.6844628234221
20
-3.08197306583392
30
0
41
1
10
62.7069319682942
20
-3.09325291662321
30
0
41
1
10
62.7215214041058
20
-3.10227188250318
30
0
41
1
10
62.7427277182086
20
-3.11836027713829
30
0
41
1
10
62.7497163223494
20
-3.12418977754703
30
0
41
1
10
62.7631445750068
20
-3.13656534112425
30
0
41
1
10
62.7696103243599
20
-3.14312515030713
30
0
41
1
10
62.7819976487382
20
-3.15706581545686
30
0
41
1
10
62.7879199969603
20
-3.16444540683489
30
0
41
1
10
62.7991312550284
20
-3.18017108988133
30
0
41
1
10
62.804379134076
20
-3.18846804648811
30
0
41
1
10
62.8091321070117
20
-3.1971499458455
30
0
0
SPLINE
5
17F
100
AcDbEntity
8
1
62
256
6
ByLayer
370
18
48
1
60
0
100
AcDbSpline
70
4
71
3
72
12
73
8
40
0
40
0
40
0
40
0
40
0.250000000000012
40
0.250000000000012
40
0.500000000000024
40
0.500000000000024
40
1
40
1
40
1
40
1
41
1
10
62.8091321070115
20
-3.19714994584533
30
0
41
1
10
62.8256774947075
20
-3.22737216523325
30
0
41
1
10
62.842249874275
20
-3.2575828071225
30
0
41
1
10
62.8754287203605
20
-3.31797298051222
30
0
41
1
10
62.8920385079879
20
-3.34815514161633
30
0
41
1
10
62.9417324270246
20
-3.43853370545372
30
0
41
1
10
62.974710267999
20
-3.49857849590083
30
0
41
1
10
63.0075720800011
20
-3.55841509175903
30
0
0
SPLINE
5
180
100
AcDbEntity
8
1
62
256
6
ByLayer
370
18
48
1
60
0
100
AcDbSpline
70
4
71
3
72
12
73
8
40
0
40
0
40
0
40
0
40
0.25
40
0.25
40
0.5
40
0.5
40
1
40
1
40
1
40
1
41
1
10
63.0075720800011
20
-3.55841509175903
30
0
41
1
10
63.0628602532377
20
-3.56065362186351
30
0
41
1
10
63.1182175034188
20
-3.56179648163291
30
0
41
1
10
63.2290860607481
20
-3.56187387084415
30
0
41
1
10
63.284634228582
20
-3.56078418553096
30
0
41
1
10
63.4520759104379
20
-3.55394229568123
30
0
41
1
10
63.5646448239737
20
-3.54469834907576
30
0
41
1
10
63.6782342895484
20
-3.5308852420616
30
0
0
SPLINE
5
181
100
AcDbEntity
8
1
62
256
6
ByLayer
370
18
48
1
60
0
100
AcDbSpline
70
4
71
3
72
10
73
6
40
0
40
0
40
0
40
0
40
0.5
40
0.5
40
1
40
1
40
1
40
1
41
1
10
63.6782342895484
20
-3.53088524206149
30
0
41
1
10
63.6974374050943
20
-3.50109260834933
30
0
41
1
10
63.7166644458312
20
-3.4711226202231
30
0
41
1
10
63.7553228098206
20
-3.41043838251224
30
0
41
1
10
63.7747701614782
20
-3.37968304981737
30
0
41
1
10
63.7943728592821
20
-3.34845039294956
30
0
0
SPLINE
5
182
100
AcDbEntity
8
1
62
256
6
ByLayer
370
18
48
1
60
0
100
AcDbSpline
70
4
71
3
72
31
73
27
40
0
40
0
40
0
40
0
40
0.124999999999958
40
0.124999999999958
40
0.187499999999937
40
0.187499999999937
40
0.249999999999917
40
0.312499999999896
40
0.312499999999896
40
0.374999999999875
40
0.374999999999875
40
0.499999999999835
40
0.499999999999835
40
0.562499999999814
40
0.562499999999814
40
0.624999999999794
40
0.624999999999794
40
0.749999999999821
40
0.749999999999821
40
0.812499999999866
40
0.812499999999866
40
0.874999999999911
40
0.874999999999911
40
0.937499999999955
40
0.937499999999955
40
1
40
1
40
1
40
1
41
1
10
63.7943728592821
20
-3.34845039294956
30
0
41
1
10
63.8040241901374
20
-3.33307308580848
30
0
41
1
10
63.815467350571
20
-3.32024832233895
30
0
41
1
10
63.8346298910968
20
-3.30389419617845
30
0
41
1
10
63.841389996659
20
-3.29892520285333
30
0
41
1
10
63.855175795281
20
-3.29013892509096
30
0
41
1
10
63.869305604206
20
-3.2824273087671
30
0
41
1
10
63.8840340999114
20
-3.27664224624732
30
0
41
1
10
63.899035721836
20
-3.27176673567146
30
0
41
1
10
63.9067052767383
20
-3.26977998059869
30
0
41
1
10
63.9297096597223
20
-3.26522562520287
30
0
41
1
10
63.9451235880751
20
-3.2640013961599
30
0
41
1
10
63.9683037181228
20
-3.26470902316774
30
0
41
1
10
63.9760749494368
20
-3.26537953688381
30
0
41
1
10
63.9914376511408
20
-3.2675729892745
30
0
41
1
10
63.9990227220381
20
-3.26909007599286
30
0
41
1
10
64.0214829730174
20
-3.27489502904447
30
0
41
1
10
64.0360678390147
20
-3.28041293990856
30
0
41
1
10
64.0572681742041
20
-3.2914999986549
30
0
41
1
10
64.0642505761102
20
-3.29569474134271
30
0
41
1
10
64.0776588960493
20
-3.30495698988253
30
0
41
1
10
64.0841158647741
20
-3.31003526494862
30
0
41
1
10
64.0964877690389
20
-3.32118147643598
30
0
41
1
10
64.1024034772458
20
-3.32724784627126
30
0
41
1
10
64.1136035159347
20
-3.34055023018661
30
0
41
1
10
64.118840327427
20
-3.34773746340528
30
0
41
1
10
64.1235865429028
20
-3.35546156625125
30
0
0
SPLINE
5
183
100
AcDbEntity
8
1
62
256
6
ByLayer
370
18
48
1
60
0
100
AcDbSpline
70
4
71
3
72
8
73
4
40
0
40
0
40
0
40
0
40
1
40
1
40
1
40
1
41
1
10
64.1235865429028
20
-3.35546156625125
30
0
41
1
10
64.1414163841777
20
-3.38447826986183
30
0
41
1
10
64.1592792076691
20
-3.41348888995418
30
0
41
1
10
64.1771612011103
20
-3.4424672702263
30
0
0
SPLINE
5
184
100
AcDbEntity
8
1
62
256
6
ByLayer
370
18
48
1
60
0
100
AcDbSpline
70
4
71
3
72
18
73
14
40
0
40
0
40
0
40
0
40
0.0263946301064817
40
0.0263946301064817
40
0.152383675878905
40
0.152383675878905
40
0.404361767423756
40
0.404361767423756
40
0.656339858968607
40
0.656339858968607
40
0.908317950513458
40
0.908317950513458
40
1
40
1
40
1
40
1
41
1
10
39.35313651326
20
-1.32009446595902
30
0
41
1
10
39.3413598970412
20
-1.32871846919662
30
0
41
1
10
39.3296679025035
20
-1.33766666354893
30
0
41
1
10
39.2627142194053
20
-1.39118657885226
30
0
41
1
10
39.210598650223
20
-1.4418179961495
30
0
41
1
10
39.0633906401117
20
-1.61170728826522
30
0
41
1
10
38.9771192792216
20
-1.75061810622393
30
0
41
1
10
38.8367783246485
20
-2.05396659955562
30
0
41
1
10
38.7809397660288
20
-2.2210941402322
30
0
41
1
10
38.6963634994431
20
-2.56187520034257
30
0
41
1
10
38.6666495057666
20
-2.73820090825734
30
0
41
1
10
38.640113551089
20
-2.98315640342094
30
0
41
1
10
38.6344826320758
20
-3.04846042893581
30
0
41
1
10
38.6301323158359
20
-3.11372423859675
30
0
0
SPLINE
5
185
100
AcDbEntity
8
1
62
256
6
ByLayer
370
18
48
1
60
0
100
AcDbSpline
70
4
71
3
72
15
73
11
40
0
40
0
40
0
40
0
40
0.146393035766996
40
0.146393035766996
40
0.253093906296121
40
0.253093906296121
40
0.359794776825246
40
0.573196517883498
40
0.573196517883498
40
1
40
1
40
1
40
1
41
1
10
54.6476252466443
20
-4.06421144736399
30
0
41
1
10
54.6451979027863
20
-4.06420624423168
30
0
41
1
10
54.6427681671675
20
-4.06334899102808
30
0
41
1
10
54.6385771479564
20
-4.06037865925171
30
0
41
1
10
54.6368098741024
20
-4.05866470727671
30
0
41
1
10
54.6332936586966
20
-4.05432397701014
30
0
41
1
10
54.6280513744806
20
-4.04645383860452
30
0
41
1
10
54.6229085213099
20
-4.03455701674051
30
0
41
1
10
54.6127239851448
20
-4.0054859398486
30
0
41
1
10
54.6060573405604
20
-3.9790821976726
30
0
41
1
10
54.5993529999101
20
-3.9457288656823
30
0
0
SPLINE
5
186
100
AcDbEntity
8
1
62
256
6
ByLayer
370
18
48
1
60
0
100
AcDbSpline
70
4
71
3
72
12
73
8
40
0
40
0
40
0
40
0
40
0.217562092955883
40
0.217562092955883
40
0.608781046477942
40
0.608781046477942
40
1
40
1
40
1
40
1
41
1
10
57.6543251921792
20
4.06421205486666
30
0
41
1
10
57.6581175991084
20
4.06421768550743
30
0
41
1
10
57.6619163770468
20
4.0619807572651
30
0
41
1
10
57.6725856193257
20
4.04956213409542
30
0
41
1
10
57.6794687982597
20
4.03446287646628
30
0
41
1
10
57.6932642413526
20
3.99004279117222
30
0
41
1
10
57.7001759390755
20
3.96072306051786
30
0
41
1
10
57.7071120180092
20
3.92407033980999
30
0
0
SPLINE
5
187
100
AcDbEntity
8
1
62
256
6
ByLayer
370
18
48
1
60
0
100
AcDbSpline
70
4
71
3
72
14
73
10
40
0
40
0
40
0
40
0
40
0.351323048435215
40
0.351323048435215
40
0.526984572652822
40
0.526984572652822
40
0.70264609687043
40
0.70264609687043
40
1
40
1
40
1
40
1
41
1
10
57.8309286017324
20
3.88985948940501
30
0
41
1
10
57.8241470530481
20
3.93019980963459
30
0
41
1
10
57.8174061734719
20
3.96368480947407
30
0
41
1
10
57.8072488163986
20
4.00350539092977
30
0
41
1
10
57.8038537613311
20
4.01504104642902
30
0
41
1
10
57.7970214539993
20
4.03457341136789
30
0
41
1
10
57.793576778733
20
4.04257796270312
30
0
41
1
10
57.7843324557361
20
4.05910015063836
30
0
41
1
10
57.7785346329812
20
4.06422321742696
30
0
41
1
10
57.7727352951317
20
4.0642093242484
30
0
0
SPLINE
5
188
100
AcDbEntity
8
1
62
256
6
ByLayer
370
18
48
1
60
0
100
AcDbSpline
70
4
71
3
72
15
73
11
40
0
40
0
40
0
40
0
40
0.0945710805599004
40
0.0945710805599004
40
0.189142161119801
40
0.189142161119801
40
0.378284322239601
40
0.378284322239601
40
0.756568644479202
40
1
40
1
40
1
40
1
41
1
10
54.4756108393911
20
-3.91419286756135
30
0
41
1
10
54.4773224723358
20
-3.92361106558113
30
0
41
1
10
54.4790348650987
20
-3.93260891328543
30
0
41
1
10
54.4824624642366
20
-3.9497551031096
30
0
41
1
10
54.4841792425983
20
-3.95791045178541
30
0
41
1
10
54.489325482096
20
-3.98103913229778
30
0
41
1
10
54.4927345333045
20
-3.99460642984442
30
0
41
1
10
54.502917706057
20
-4.02987230007957
30
0
41
1
10
54.5139774168806
20
-4.05662342686145
30
0
41
1
10
54.5250566809771
20
-4.06420511760459
30
0
41
1
10
54.5294189767358
20
-4.06421130108302
30
0
0
SPLINE
5
189
100
AcDbEntity
8
1
62
256
6
ByLayer
370
18
48
1
60
0
100
AcDbSpline
70
4
71
3
72
22
73
18
40
0
40
0
40
0
40
0
40
0.0779054749721313
40
0.0779054749721313
40
0.155810949944263
40
0.155810949944263
40
0.311621899888525
40
0.467432849832788
40
0.467432849832788
40
0.545338324804919
40
0.584291062290984
40
0.584291062290984
40
0.62324379977705
40
0.62324379977705
40
0.779054749721312
40
0.934865699665575
40
1
40
1
40
1
40
1
41
1
10
50.8071888681395
20
2.75561107049444
30
0
41
1
10
50.8049273350749
20
2.784432195862
30
0
41
1
10
50.8026720004352
20
2.81226408608876
30
0
41
1
10
50.7981954413733
20
2.865533828286
30
0
41
1
10
50.7959704127881
20
2.89101946764796
30
0
41
1
10
50.7893165638978
20
2.96407595102335
30
0
41
1
10
50.7805122135819
20
3.05243778050365
30
0
41
1
10
50.7719650625458
20
3.12301780147323
30
0
41
1
10
50.7656769025863
20
3.1692143146241
30
0
41
1
10
50.7625630373838
20
3.19062503938329
30
0
41
1
10
50.7594960148056
20
3.20946370661915
30
0
41
1
10
50.7574616618303
20
3.22144467684495
30
0
41
1
10
50.7564495690692
20
3.22714577605356
30
0
41
1
10
50.7514410678612
20
3.25405454147457
30
0
41
1
10
50.7437187874463
20
3.28717768566798
30
0
41
1
10
50.7349640128727
20
3.30385056584095
30
0
41
1
10
50.7299938418729
20
3.30390045658837
30
0
41
1
10
50.7285393558798
20
3.30305954784302
30
0
0
SPLINE
5
18A
100
AcDbEntity
8
1
62
256
6
ByLayer
370
18
48
1
60
0
100
AcDbSpline
70
4
71
3
72
24
73
20
40
0
40
0
40
0
40
0
40
0.0904715479835194
40
0.272377238386813
40
0.272377238386813
40
0.317853660987637
40
0.317853660987637
40
0.36333008358846
40
0.36333008358846
40
0.454282928790109
40
0.454282928790109
40
0.636188619193406
40
0.818094309596703
40
0.818094309596703
40
0.909047154798352
40
0.909047154798352
40
0.954523577399176
40
0.954523577399176
40
1
40
1
40
1
40
1
41
1
10
53.3977355608558
20
-4.06421170044052
30
0
41
1
10
53.394329603156
20
-4.06420495514794
30
0
41
1
10
53.3840574995946
20
-4.0588686596497
30
0
41
1
10
53.3737427001142
20
-4.03758127027223
30
0
41
1
10
53.3650989918347
20
-4.01069045182274
30
0
41
1
10
53.3633685078566
20
-4.00485512490164
30
0
41
1
10
53.359903402593
20
-3.99225965006781
30
0
41
1
10
53.3581680959318
20
-3.98549511098696
30
0
41
1
10
53.3529851775709
20
-3.96393142582559
30
0
41
1
10
53.349550597491
20
-3.94782901931234
30
0
41
1
10
53.3392956998031
20
-3.89444328378556
30
0
41
1
10
53.3257546651262
20
-3.8097458230115
30
0
41
1
10
53.3122901471801
20
-3.69842789077461
30
0
41
1
10
53.3021273245684
20
-3.60479415661243
30
0
41
1
10
53.2987287494772
20
-3.57188874832451
30
0
41
1
10
53.2936007723287
20
-3.51993767561055
30
0
41
1
10
53.2918845690733
20
-3.5021679188221
30
0
41
1
10
53.2884587884702
20
-3.46595770351644
30
0
41
1
10
53.2867472609555
20
-3.44749830940168
30
0
41
1
10
53.2850359549689
20
-3.42868859132014
30
0
0
SPLINE
5
18B
100
AcDbEntity
8
1
62
256
6
ByLayer
370
18
48
1
60
0
100
AcDbSpline
70
4
71
3
72
26
73
22
40
0
40
0
40
0
40
0
40
0.172700585511642
40
0.172700585511642
40
0.345401171023285
40
0.345401171023285
40
0.388576317401196
40
0.388576317401196
40
0.431751463779106
40
0.431751463779106
40
0.518101756534928
40
0.518101756534928
40
0.69080234204657
40
0.69080234204657
40
0.863502927558212
40
0.863502927558212
40
0.949853220314034
40
0.949853220314034
40
0.993028366691945
40
0.993028366691945
40
1
40
1
40
1
40
1
41
1
10
53.1608720623506
20
-3.36047768535954
30
0
41
1
10
53.1675229557703
20
-3.43890965475768
30
0
41
1
10
53.1741226776138
20
-3.51114209530408
30
0
41
1
10
53.1875100296496
20
-3.64327172941884
30
0
41
1
10
53.1943167225127
20
-3.70316935514677
30
0
41
1
10
53.2029692204016
20
-3.77012967752623
30
0
41
1
10
53.204706796325
20
-3.78312514376844
30
0
41
1
10
53.2081958627542
20
-3.80831361037093
30
0
41
1
10
53.209946249936
20
-3.82049708985156
30
0
41
1
10
53.2151870421343
20
-3.85563322506508
30
0
41
1
10
53.2186769695891
20
-3.8772452212144
30
0
41
1
10
53.2291298912254
20
-3.93674906147555
30
0
41
1
10
53.2360750446759
20
-3.96932264125488
30
0
41
1
10
53.2499053551624
20
-4.02048109572553
30
0
41
1
10
53.2567895888673
20
-4.03906605618485
30
0
41
1
10
53.2670913011527
20
-4.05626753394185
30
0
41
1
10
53.2705215090884
20
-4.06021854654136
30
0
41
1
10
53.275668731876
20
-4.06341437983045
30
0
41
1
10
53.2773852512035
20
-4.06402268580183
30
0
41
1
10
53.2793686742453
20
-4.06419590118725
30
0
41
1
10
53.2796442539511
20
-4.06420806474333
30
0
41
1
10
53.2799196734325
20
-4.06420833145486
30
0
0
SPLINE
5
18C
100
AcDbEntity
8
1
62
256
6
ByLayer
370
18
48
1
60
0
100
AcDbSpline
70
4
71
3
72
25
73
21
40
0
40
0
40
0
40
0
40
0.0416841373321668
40
0.0416841373321668
40
0.0833682746643336
40
0.0833682746643336
40
0.166736549328667
40
0.166736549328667
40
0.333473098657334
40
0.500209647986001
40
0.500209647986001
40
0.583577922650335
40
0.583577922650335
40
0.625262059982502
40
0.625262059982502
40
0.666946197314668
40
0.666946197314668
40
0.833682746643335
40
0.833682746643335
40
1
40
1
40
1
40
1
41
1
10
59.1453093182384
20
3.31051882306676
30
0
41
1
10
59.1435917363162
20
3.33087862780835
30
0
41
1
10
59.1418744152767
20
3.35090380657064
30
0
41
1
10
59.1384389354642
20
3.3902770958228
30
0
41
1
10
59.1367208323347
20
3.40962319000778
30
0
41
1
10
59.1315931169334
20
3.46630507967021
30
0
41
1
10
59.1282000121535
20
3.50240331471619
30
0
41
1
10
59.1180720882338
20
3.60572636332154
30
0
41
1
10
59.10470800531
20
3.73025839515117
30
0
41
1
10
59.0912925995547
20
3.82870989766715
30
0
41
1
10
59.0810536498481
20
3.89260043623492
30
0
41
1
10
59.077607494008
20
3.91223601325996
30
0
41
1
10
59.0724003351106
20
3.93914601792267
30
0
41
1
10
59.070657216319
20
3.94769624320662
30
0
41
1
10
59.0671805420224
20
3.96384836612898
30
0
41
1
10
59.0654446133073
20
3.9714632501412
30
0
41
1
10
59.0567796866962
20
4.00725707499083
30
0
41
1
10
59.0499015106256
20
4.0286128304048
30
0
41
1
10
59.0362293389554
20
4.05706932440395
30
0
41
1
10
59.0294266894392
20
4.06420505555187
30
0
41
1
10
59.0225736745164
20
4.06420833042037
30
0
0
SPLINE
5
18D
100
AcDbEntity
8
1
62
256
6
ByLayer
370
13
48
1
60
0
100
AcDbSpline
70
4
71
3
72
9
73
5
40
0
40
0
40
0
40
0
40
0.639817291066648
40
1
40
1
40
1
40
1
41
1
10
52.8479404056068
20
-3.33375303428485
30
0
41
1
10
52.8239039063561
20
-3.28820747505441
30
0
41
1
10
52.7856474614102
20
-3.10292969352858
30
0
41
1
10
52.7459051173905
20
-2.72624993430151
30
0
41
1
10
52.7313646623101
20
-2.56794898064402
30
0
0
SPLINE
5
18E
100
AcDbEntity
8
1
62
256
6
ByLayer
370
13
48
1
60
0
100
AcDbSpline
70
4
71
3
72
9
73
5
40
0
40
0
40
0
40
0
40
0.251195135587707
40
1
40
1
40
1
40
1
41
1
10
51.1317107898437
20
2.59909148882517
30
0
41
1
10
51.1202941222284
20
2.72105863241961
30
0
41
1
10
51.0745251955368
20
3.15858256865221
30
0
41
1
10
51.0271761072094
20
3.36913443104873
30
0
41
1
10
50.99054617939
20
3.35502399048193
30
0
0
SPLINE
5
18F
100
AcDbEntity
8
1
62
256
6
ByLayer
370
18
48
1
60
0
100
AcDbSpline
70
4
71
3
72
8
73
4
40
0
40
0
40
0
40
0
40
1
40
1
40
1
40
1
41
1
10
50.9905454910996
20
3.35502372532122
30
0
41
1
10
50.9865444124433
20
3.35348221069862
30
0
41
1
10
50.982529318261
20
3.34989124974945
30
0
41
1
10
50.9784998323224
20
3.34419283879566
30
0
0
SPLINE
5
190
100
AcDbEntity
8
1
62
256
6
ByLayer
370
18
48
1
60
0
100
AcDbSpline
70
4
71
3
72
33
73
29
40
0
40
0
40
0
40
0
40
0.0515550507674532
40
0.0515550507674532
40
0.085428084668615
40
0.085428084668615
40
0.119301118569777
40
0.119301118569777
40
0.187047186372102
40
0.187047186372102
40
0.322539321976751
40
0.322539321976751
40
0.458031457581401
40
0.458031457581401
40
0.525777525383727
40
0.525777525383727
40
0.559650559284889
40
0.559650559284889
40
0.593523593186051
40
0.593523593186051
40
0.729015728790701
40
0.729015728790701
40
0.864507864395352
40
0.864507864395352
40
0.932253932197677
40
0.966126966098838
40
0.966126966098838
40
1
40
1
40
1
40
1
41
1
10
51.0830645953345
20
3.5077456885991
30
0
41
1
10
51.0870435339267
20
3.5100480387496
30
0
41
1
10
51.091029967341
20
3.51144958310971
30
0
41
1
10
51.0976464765694
20
3.51226499152165
30
0
41
1
10
51.1002728526143
20
3.51219471349879
30
0
41
1
10
51.105531038739
20
3.51125798352635
30
0
41
1
10
51.1081638309592
20
3.51038971965062
30
0
41
1
10
51.1160246438407
20
3.50660456972867
30
0
41
1
10
51.121230012436
20
3.50250742758993
30
0
41
1
10
51.1367441673369
20
3.48558691671681
30
0
41
1
10
51.1469485835571
20
3.46814492668412
30
0
41
1
10
51.1671477884278
20
3.42115302608698
30
0
41
1
10
51.17714145467
20
3.39160212839488
30
0
41
1
10
51.1920913502323
20
3.33811048204373
30
0
41
1
10
51.1970686869614
20
3.31874994003491
30
0
41
1
10
51.2045492174551
20
3.2873816809425
30
0
41
1
10
51.2070474474103
20
3.27652660432202
30
0
41
1
10
51.2120263322988
20
3.25415956897317
30
0
41
1
10
51.2145100173685
20
3.24263559456759
30
0
41
1
10
51.2269129759937
20
3.18333832679195
30
0
41
1
10
51.2368039000748
20
3.13055521962744
30
0
41
1
10
51.2567678312143
20
3.01467313950584
30
0
41
1
10
51.2668086770481
20
2.95155660317332
30
0
41
1
10
51.2819285814721
20
2.84904753198973
30
0
41
1
10
51.2895033808228
20
2.79583088752563
30
0
41
1
10
51.2970980407005
20
2.73962523348044
30
0
41
1
10
51.302165628614
20
2.70148314880765
30
0
41
1
10
51.3047050720376
20
2.68204932681249
30
0
41
1
10
51.3072349065146
20
2.66236948520339
30
0
0
SPLINE
5
191
100
AcDbEntity
8
1
62
256
6
ByLayer
370
18
48
1
60
0
100
AcDbSpline
70
4
71
3
72
27
73
23
40
0
40
0
40
0
40
0
40
0.125000000000001
40
0.250000000000001
40
0.250000000000001
40
0.312500000000002
40
0.343750000000002
40
0.343750000000002
40
0.375000000000002
40
0.375000000000002
40
0.500000000000001
40
0.500000000000001
40
0.625000000000001
40
0.750000000000001
40
0.750000000000001
40
0.781250000000001
40
0.781250000000001
40
0.8125
40
0.8125
40
0.875
40
0.875
40
1
40
1
40
1
40
1
41
1
10
51.7855962404888
20
2.47638401356889
30
0
41
1
10
51.7806588352827
20
2.57541726850846
30
0
41
1
10
51.7708967803656
20
2.76389381919813
30
0
41
1
10
51.7611856657764
20
2.93351037747712
30
0
41
1
10
51.7538443852308
20
3.05355395448126
30
0
41
1
10
51.7501591142957
20
3.11178021155806
30
0
41
1
10
51.7464366742926
20
3.16726382973243
30
0
41
1
10
51.7439450845647
20
3.20363564365817
30
0
41
1
10
51.7426924964644
20
3.22153789905829
30
0
41
1
10
51.7364294831061
20
3.30908350771608
30
0
41
1
10
51.7314040051445
20
3.37293553975678
30
0
41
1
10
51.721308724186
20
3.48867223353105
30
0
41
1
10
51.7111990969688
20
3.59245583794569
30
0
41
1
10
51.7011140780839
20
3.67243485511909
30
0
41
1
10
51.6947889671601
20
3.7147610936911
30
0
41
1
10
51.6935227033613
20
3.72284226714302
30
0
41
1
10
51.6909863558906
20
3.73822665905277
30
0
41
1
10
51.6897186622916
20
3.74551455326429
30
0
41
1
10
51.685930271896
20
3.7660975438333
30
0
41
1
10
51.6834189368076
20
3.77814631982821
30
0
41
1
10
51.6759200430988
20
3.80936207576661
30
0
41
1
10
51.6709691136027
20
3.82361167220418
30
0
41
1
10
51.6660246344661
20
3.83136941564763
30
0
0
SPLINE
5
192
100
AcDbEntity
8
1
62
256
6
ByLayer
370
13
48
1
60
0
100
AcDbSpline
70
4
71
3
72
10
73
6
40
0
40
0
40
0
40
0
40
0.538160181808952
40
0.879076784254204
40
1
40
1
40
1
40
1
41
1.04
10
52.1170335060802
20
2.00993852281157
30
0
41
1.04
10
52.090674419089
20
2.36624295006169
30
0
41
1.04
10
52.0468463016286
20
2.87206700274973
30
0
41
1.04
10
51.9948328476876
20
3.21058134100349
30
0
41
1.04
10
51.9702783822518
20
3.29607524474637
30
0
41
1.04
10
51.9638124658635
20
3.31334521637691
30
0
0
SPLINE
5
193
100
AcDbEntity
8
1
62
256
6
ByLayer
370
18
48
1
60
0
100
AcDbSpline
70
4
71
3
72
32
73
28
40
0
40
0
40
0
40
0
40
0.0625000000000014
40
0.0625000000000014
40
0.093750000000002
40
0.093750000000002
40
0.125000000000003
40
0.125000000000003
40
0.250000000000004
40
0.375000000000005
40
0.375000000000005
40
0.437500000000006
40
0.437500000000006
40
0.468750000000006
40
0.468750000000006
40
0.500000000000006
40
0.500000000000006
40
0.625000000000005
40
0.625000000000005
40
0.750000000000003
40
0.750000000000003
40
0.875000000000002
40
0.875000000000002
40
0.906250000000001
40
0.906250000000001
40
0.937500000000001
40
1
40
1
40
1
40
1
41
1
10
60.8988664390795
20
-4.06415749477358
30
0
41
1
10
60.8954328570672
20
-4.06450755564688
30
0
41
1
10
60.8919734337179
20
-4.0630519986529
30
0
41
1
10
60.8867365974601
20
-4.05810434181655
30
0
41
1
10
60.8849823096567
20
-4.05599078219626
30
0
41
1
10
60.8814810525752
20
-4.0508638386593
30
0
41
1
10
60.8797317953361
20
-4.04784909055334
30
0
41
1
10
60.8709958893111
20
-4.03054379769932
30
0
41
1
10
60.8570910339003
20
-3.98861046509498
30
0
41
1
10
60.8434111611237
20
-3.91885276586555
30
0
41
1
10
60.8332021668854
20
-3.85601533658826
30
0
41
1
10
60.8298069819902
20
-3.833312924827
30
0
41
1
10
60.8247152355081
20
-3.79658186199077
30
0
41
1
10
60.823018110882
20
-3.78389170443449
30
0
41
1
10
60.8196217286153
20
-3.75760849670604
30
0
41
1
10
60.8179203758187
20
-3.74399729886218
30
0
41
1
10
60.8094469727675
20
-3.67404005735267
30
0
41
1
10
60.8027515160429
20
-3.61182237309757
30
0
41
1
10
60.789298403873
20
-3.4752899309027
30
0
41
1
10
60.7825101087124
20
-3.40097495678708
30
0
41
1
10
60.768763973759
20
-3.24025778560676
30
0
41
1
10
60.7618372587582
20
-3.15385577391223
30
0
41
1
10
60.7531414267013
20
-3.0380570662945
30
0
41
1
10
60.7513974848368
20
-3.01447147754038
30
0
41
1
10
60.7479210173051
20
-2.96674100109846
30
0
41
1
10
60.7427211989794
20
-2.89428195309105
30
0
41
1
10
60.7375600350895
20
-2.81926452399588
30
0
41
1
10
60.7341264849277
20
-2.76813500335928
30
0
0
SPLINE
5
194
100
AcDbEntity
8
1
62
256
6
ByLayer
370
18
48
1
60
0
100
AcDbSpline
70
4
71
3
72
28
73
24
40
0
40
0
40
0
40
0
40
0.125
40
0.125
40
0.25
40
0.25
40
0.3125
40
0.34375
40
0.34375
40
0.375
40
0.375
40
0.5
40
0.5
40
0.624999999999999
40
0.624999999999999
40
0.749999999999998
40
0.749999999999998
40
0.781249999999998
40
0.781249999999998
40
0.812499999999998
40
0.874999999999998
40
0.874999999999998
40
1
40
1
40
1
40
1
41
1
10
60.6096557324683
20
-2.67561071420897
30
0
41
1
10
60.6165095846072
20
-2.78124458870056
30
0
41
1
10
60.6234316086061
20
-2.88145438512214
30
0
41
1
10
60.637291479516
20
-3.07125365393671
30
0
41
1
10
60.6442301878499
20
-3.16084276047979
30
0
41
1
10
60.6546359665218
20
-3.28717159512854
30
0
41
1
10
60.6598393285396
20
-3.34831832589208
30
0
41
1
10
60.6650491282208
20
-3.40638411882313
30
0
41
1
10
60.6685249331933
20
-3.44440114848348
30
0
41
1
10
60.6702600723404
20
-3.46301806238011
30
0
41
1
10
60.6788989537235
20
-3.55388006625037
30
0
41
1
10
60.6857173937081
20
-3.61976227598302
30
0
41
1
10
60.6992798218407
20
-3.73830284661912
30
0
41
1
10
60.7060245369947
20
-3.79096023432567
30
0
41
1
10
60.7195656105267
20
-3.8830118378844
30
0
41
1
10
60.7263659180202
20
-3.92240739882979
30
0
41
1
10
60.7349274879168
20
-3.96307007114115
30
0
41
1
10
60.7366407935545
20
-3.97076002308563
30
0
41
1
10
60.7400564830151
20
-3.98519489306543
30
0
41
1
10
60.7451702152196
20
-4.00546043534237
30
0
41
1
10
60.7502648945152
20
-4.02161258131349
30
0
41
1
10
60.7604659007748
20
-4.04851393136096
30
0
41
1
10
60.7672896039369
20
-4.05925813982893
30
0
41
1
10
60.7742366020366
20
-4.06285533570346
30
0
0
SPLINE
5
195
100
AcDbEntity
8
1
62
256
6
ByLayer
370
18
48
1
60
0
100
AcDbSpline
70
4
71
3
72
98
73
94
40
0
40
0
40
0
40
0
40
0.0625000000000127
40
0.0625000000000127
40
0.125000000000025
40
0.125000000000025
40
0.187500000000038
40
0.187500000000038
40
0.20312500000004
40
0.20312500000004
40
0.210937500000041
40
0.210937500000041
40
0.218750000000042
40
0.250000000000046
40
0.250000000000046
40
0.265625000000049
40
0.265625000000049
40
0.281250000000051
40
0.281250000000051
40
0.312500000000055
40
0.312500000000055
40
0.328125000000057
40
0.328125000000057
40
0.343750000000059
40
0.343750000000059
40
0.375000000000063
40
0.375000000000063
40
0.406250000000067
40
0.406250000000067
40
0.421875000000071
40
0.421875000000071
40
0.429687500000071
40
0.429687500000071
40
0.437500000000072
40
0.437500000000072
40
0.468750000000074
40
0.468750000000074
40
0.476562500000073
40
0.476562500000073
40
0.484375000000073
40
0.484375000000073
40
0.500000000000071
40
0.500000000000071
40
0.515625000000069
40
0.515625000000069
40
0.523437500000068
40
0.523437500000068
40
0.531250000000067
40
0.531250000000067
40
0.546875000000063
40
0.546875000000063
40
0.550781250000063
40
0.550781250000063
40
0.554687500000062
40
0.562500000000062
40
0.570312500000061
40
0.57421875000006
40
0.57421875000006
40
0.57812500000006
40
0.57812500000006
40
0.593750000000057
40
0.593750000000057
40
0.609375000000055
40
0.609375000000055
40
0.617187500000054
40
0.617187500000054
40
0.625000000000053
40
0.625000000000053
40
0.640625000000051
40
0.640625000000051
40
0.656250000000049
40
0.656250000000049
40
0.671875000000048
40
0.671875000000048
40
0.687500000000046
40
0.687500000000046
40
0.718750000000041
40
0.718750000000041
40
0.750000000000037
40
0.750000000000037
40
0.765625000000034
40
0.765625000000034
40
0.781250000000031
40
0.781250000000031
40
0.812500000000025
40
0.812500000000025
40
0.875000000000014
40
0.875000000000014
40
0.937500000000007
40
0.937500000000007
40
0.968750000000004
40
0.968750000000004
40
1
40
1
40
1
40
1
41
1
10
40.8516468726226
20
3.03987461772076
30
0
41
1
10
40.7089438362061
20
3.06533372291329
30
0
41
1
10
40.5637667084267
20
3.08316383069388
30
0
41
1
10
40.266030293676
20
3.1065792858459
30
0
41
1
10
40.1134264688699
20
3.11216022524064
30
0
41
1
10
39.798334499778
20
3.11486713235095
30
0
41
1
10
39.6358206294009
20
3.11198837437013
30
0
41
1
10
39.4245101003492
20
3.10592999703411
30
0
41
1
10
39.3818386145833
20
3.10459694814134
30
0
41
1
10
39.3171694960604
20
3.10247387589271
30
0
41
1
10
39.2954973419513
20
3.1017454164122
30
0
41
1
10
39.2521103573469
20
3.10026400616425
30
0
41
1
10
39.1434241562031
20
3.09649488774491
30
0
41
1
10
39.0336212368519
20
3.09253691621248
30
0
41
1
10
38.9006841030733
20
3.08808115836862
30
0
41
1
10
38.8561779168635
20
3.08664314818978
30
0
41
1
10
38.7667533860616
20
3.08393661879947
30
0
41
1
10
38.721830722201
20
3.08267142147301
30
0
41
1
10
38.5865063843101
20
3.07916368482384
30
0
41
1
10
38.4955538920865
20
3.07721068818145
30
0
41
1
10
38.3582871144995
20
3.0748422105344
30
0
41
1
10
38.3123690339859
20
3.07416149209331
30
0
41
1
10
38.2201838847465
20
3.07305529316434
30
0
41
1
10
38.173830578025
20
3.07262951827528
30
0
41
1
10
38.0350010333793
20
3.07178939694438
30
0
41
1
10
37.9427385813086
20
3.07181287882827
30
0
41
1
10
37.7588650249728
20
3.07316145235302
30
0
41
1
10
37.6672498357144
20
3.07448201280931
30
0
41
1
10
37.5304118528806
20
3.07747457938606
30
0
41
1
10
37.4848965498198
20
3.07863866312533
30
0
41
1
10
37.416789262643
20
3.08062880008995
30
0
41
1
10
37.3941144954689
20
3.08133273356884
30
0
41
1
10
37.3488242993246
20
3.08281906565219
30
0
41
1
10
37.326205666941
20
3.0836017353727
30
0
41
1
10
37.213944279478
20
3.08767521285415
30
0
41
1
10
37.1262458578003
20
3.09148797855445
30
0
41
1
10
37.0201212066994
20
3.09651298194532
30
0
41
1
10
36.9990739938941
20
3.09752945314813
30
0
41
1
10
36.9573721412577
20
3.09956725528443
30
0
41
1
10
36.9366701647736
20
3.10059101350137
30
0
41
1
10
36.875728944725
20
3.10360748501409
30
0
41
1
10
36.8365691892059
20
3.10555311935559
30
0
41
1
10
36.7616840398913
20
3.10905577188464
30
0
41
1
10
36.7259411012279
20
3.11061446501657
30
0
41
1
10
36.6754834247026
20
3.11237344456057
30
0
41
1
10
36.659153502894
20
3.11286221195556
30
0
41
1
10
36.6282031483891
20
3.11356549800584
30
0
41
1
10
36.6135183304359
20
3.11378279758898
30
0
41
1
10
36.5719256976527
20
3.11394473806092
30
0
41
1
10
36.5474660015535
20
3.11340470465376
30
0
41
1
10
36.5214584814368
20
3.11156678753642
30
0
41
1
10
36.5164879837102
20
3.11114014568574
30
0
41
1
10
36.5071236110024
20
3.11017216513884
30
0
41
1
10
36.4938959671071
20
3.10854530310857
30
0
41
1
10
36.4758871123675
20
3.1049264035349
30
0
41
1
10
36.463156091034
20
3.10000774614125
30
0
41
1
10
36.4578659696305
20
3.09642986949626
30
0
41
1
10
36.4548600443008
20
3.09390050707205
30
0
41
1
10
36.4536139571188
20
3.09256029390352
30
0
41
1
10
36.4486729848697
20
3.08553265285695
30
0
41
1
10
36.4488342849847
20
3.0789125407164
30
0
41
1
10
36.4557623750642
20
3.06373625471565
30
0
41
1
10
36.4625398581204
20
3.0551798604163
30
0
41
1
10
36.476874722257
20
3.04092072917368
30
0
41
1
10
36.4823344560003
20
3.03594848896455
30
0
41
1
10
36.494372027449
20
3.02566605504765
30
0
41
1
10
36.5009622978593
20
3.02034355739988
30
0
41
1
10
36.5222530217807
20
3.0038546771348
30
0
41
1
10
36.5384649125221
20
2.99216781916132
30
0
41
1
10
36.5741621213072
20
2.96749795534714
30
0
41
1
10
36.5936557920056
20
2.95451520134711
30
0
41
1
10
36.6353713008547
20
2.92731653230644
30
0
41
1
10
36.6576370668245
20
2.91307247736316
30
0
41
1
10
36.7038995046854
20
2.8837754008492
30
0
41
1
10
36.7279600584132
20
2.86868070378603
30
0
41
1
10
36.802442193396
20
2.82212774344833
30
0
41
1
10
36.8551393696138
20
2.78940467022841
30
0
41
1
10
36.9649407975936
20
2.72081606534573
30
0
41
1
10
37.022059867769
20
2.68494857108652
30
0
41
1
10
37.110310254865
20
2.62887810161649
30
0
41
1
10
37.1401719518504
20
2.60980105017711
30
0
41
1
10
37.2006193606366
20
2.57093046747889
30
0
41
1
10
37.2310899821986
20
2.55121106585625
30
0
41
1
10
37.3231402907958
20
2.49121507409728
30
0
41
1
10
37.3853526468036
20
2.45010089092977
30
0
41
1
10
37.5739598158596
20
2.32350101849133
30
0
41
1
10
37.7022790838496
20
2.234760725283
30
0
41
1
10
37.9623372643909
20
2.04873041542612
30
0
41
1
10
38.0940969826762
20
1.95143519100327
30
0
41
1
10
38.2938171277311
20
1.799032913953
30
0
41
1
10
38.3607491704863
20
1.74715017796228
30
0
41
1
10
38.4952769122146
20
1.64123493545759
30
0
41
1
10
38.5626484234628
20
1.58737897574787
30
0
41
1
10
38.6301323061391
20
1.53264005501333
30
0
0
SPLINE
5
196
100
AcDbEntity
8
1
62
256
6
ByLayer
370
18
48
1
60
0
100
AcDbSpline
70
4
71
3
72
17
73
13
40
0
40
0
40
0
40
0
40
0.249999999999998
40
0.499999999999997
40
0.499999999999997
40
0.562499999999997
40
0.562499999999997
40
0.624999999999996
40
0.624999999999996
40
0.749999999999997
40
0.749999999999997
40
1
40
1
40
1
40
1
41
1
10
52.1340045430431
20
-4.05513462461417
30
0
41
1
10
52.1267323604753
20
-4.04517535487946
30
0
41
1
10
52.1123655361282
20
-4.00902350217851
30
0
41
1
10
52.0980574255361
20
-3.94076661702672
30
0
41
1
10
52.089016665584
20
-3.88781947872255
30
0
41
1
10
52.0872035386265
20
-3.87671423714761
30
0
41
1
10
52.0835642154801
20
-3.85345962467073
30
0
41
1
10
52.0817375086071
20
-3.84130493008814
30
0
41
1
10
52.0762676721537
20
-3.80350200406181
30
0
41
1
10
52.0726233202606
20
-3.77644565436842
30
0
41
1
10
52.0616649927781
20
-3.68982744226847
30
0
41
1
10
52.0543121315606
20
-3.62483277990205
30
0
41
1
10
52.0468911086754
20
-3.55268773818594
30
0
0
SPLINE
5
197
100
AcDbEntity
8
1
62
256
6
ByLayer
370
13
48
1
60
0
100
AcDbSpline
70
4
71
3
72
10
73
6
40
0
40
0
40
0
40
0
40
0.191109623656543
40
0.539096473862868
40
1
40
1
40
1
40
1
41
1.04
10
51.2405639839258
20
-3.16835676533133
30
0
41
1.04
10
51.2306820835485
20
-3.1135913705511
30
0
41
1.04
10
51.2029438389989
20
-2.9268981255595
30
0
41
1.04
10
51.1520145401424
20
-2.42375115477132
30
0
41
1.04
10
51.1110150318715
20
-1.86165966258234
30
0
41
1.04
10
51.0875184113859
20
-1.50789632558022
30
0
0
SPLINE
5
198
100
AcDbEntity
8
1
62
256
6
ByLayer
370
18
48
1
60
0
100
AcDbSpline
70
4
71
3
72
25
73
21
40
0
40
0
40
0
40
0
40
0.125000000000001
40
0.125000000000001
40
0.250000000000002
40
0.250000000000002
40
0.375000000000003
40
0.375000000000003
40
0.437500000000003
40
0.437500000000003
40
0.500000000000003
40
0.500000000000003
40
0.625000000000002
40
0.750000000000002
40
0.750000000000002
40
0.875000000000001
40
0.875000000000001
40
0.9375
40
0.9375
40
1
40
1
40
1
40
1
41
1
10
51.1332316456885
20
-3.32488617806729
30
0
41
1
10
51.1284583989274
20
-3.28340447942662
30
0
41
1
10
51.1237283664543
20
-3.23713219881694
30
0
41
1
10
51.1142652843897
20
-3.13529273667785
30
0
41
1
10
51.1095241807158
20
-3.07972096847234
30
0
41
1
10
51.0999808537588
20
-2.9593176847147
30
0
41
1
10
51.0951840243146
20
-2.89448907088206
30
0
41
1
10
51.0879344859688
20
-2.79015158732585
30
0
41
1
10
51.0855087617448
20
-2.75418788129505
30
0
41
1
10
51.0806337861904
20
-2.67983829275161
30
0
41
1
10
51.078202187553
20
-2.6417207129208
30
0
41
1
10
51.0709277790663
20
-2.52478217571826
30
0
41
1
10
51.0612664144603
20
-2.36181531327156
30
0
41
1
10
51.0516517827578
20
-2.18504203722983
30
0
41
1
10
51.0420263826345
20
-2.00130906527724
30
0
41
1
10
51.0372084419299
20
-1.90596352279854
30
0
41
1
10
51.0299282062275
20
-1.75752511901317
30
0
41
1
10
51.0275096068916
20
-1.70749214444564
30
0
41
1
10
51.0226883779899
20
-1.60653234476638
30
0
41
1
10
51.0202841971687
20
-1.55557392132116
30
0
41
1
10
51.0178812158196
20
-1.50414305796491
30
0
0
SPLINE
5
199
100
AcDbEntity
8
1
62
256
6
ByLayer
370
13
48
1
60
0
100
AcDbSpline
70
4
71
3
72
10
73
6
40
0
40
0
40
0
40
0
40
0.302367067190011
40
0.651046626340721
40
1
40
1
40
1
40
1
41
1
10
51.5698873327532
20
-3.24768335839045
30
0
41
1
10
51.5541875533997
20
-3.18118830285238
30
0
41
1
10
51.5206857589652
20
-2.97435730352493
30
0
41
1
10
51.4698577064967
20
-2.46862060704473
30
0
41
1
10
51.4345441055971
20
-2.00143384191509
30
0
41
1
10
51.4168309453775
20
-1.74644867283541
30
0
0
SPLINE
5
19A
100
AcDbEntity
8
1
62
256
6
ByLayer
370
18
48
1
60
0
100
AcDbSpline
70
4
71
3
72
27
73
23
40
0
40
0
40
0
40
0
40
0.124999999999998
40
0.124999999999998
40
0.187499999999998
40
0.218749999999998
40
0.218749999999998
40
0.249999999999998
40
0.249999999999998
40
0.374999999999998
40
0.374999999999998
40
0.499999999999997
40
0.499999999999997
40
0.624999999999997
40
0.624999999999997
40
0.656249999999997
40
0.656249999999997
40
0.687499999999997
40
0.749999999999998
40
0.749999999999998
40
0.874999999999999
40
1
40
1
40
1
40
1
41
1
10
51.738434654531
20
-2.26815533862521
30
0
41
1
10
51.7491097962086
20
-2.3843289859133
30
0
41
1
10
51.7596881889576
20
-2.49616748735184
30
0
41
1
10
51.7755296302175
20
-2.65743127176961
30
0
41
1
10
51.7834446229419
20
-2.73643647630911
30
0
41
1
10
51.7913810219309
20
-2.81297390367411
30
0
41
1
10
51.7966806084891
20
-2.86344526478908
30
0
41
1
10
51.7993377119305
20
-2.88843181460959
30
0
41
1
10
51.8126139739496
20
-3.0116429794283
30
0
41
1
10
51.8231231604295
20
-3.10398778549825
30
0
41
1
10
51.8440560642101
20
-3.27670835712496
30
0
41
1
10
51.8544801054715
20
-3.35708273030201
30
0
41
1
10
51.8754275777655
20
-3.50594973854638
30
0
41
1
10
51.8859701892373
20
-3.57445189322644
30
0
41
1
10
51.8992376968876
20
-3.65242272874153
30
0
41
1
10
51.9018967146572
20
-3.6676389157399
30
0
41
1
10
51.9071922360471
20
-3.69712498215816
30
0
41
1
10
51.9151132069626
20
-3.74000282104822
30
0
41
1
10
51.9229696082475
20
-3.77887512231828
30
0
41
1
10
51.9386091044742
20
-3.85136737151996
30
0
41
1
10
51.9592625038463
20
-3.93404266008216
30
0
41
1
10
51.9797480471973
20
-3.98905196098033
30
0
41
1
10
51.9900268784308
20
-4.00949948684186
30
0
0
SPLINE
5
19B
100
AcDbEntity
8
1
62
256
6
ByLayer
370
18
48
1
60
0
100
AcDbSpline
70
4
71
3
72
17
73
13
40
0
40
0
40
0
40
0
40
0.25
40
0.25
40
0.500000000000001
40
0.750000000000001
40
0.750000000000001
40
0.875000000000001
40
0.875000000000001
40
0.937500000000001
40
0.937500000000001
40
1
40
1
40
1
40
1
41
1
10
52.0468911086754
20
-3.55268773818614
30
0
41
1
10
52.0420537915019
20
-3.48753220074619
30
0
41
1
10
52.0372326314696
20
-3.41759208345096
30
0
41
1
10
52.0276686641453
20
-3.26848903610661
30
0
41
1
10
52.0181820750531
20
-3.1101605341309
30
0
41
1
10
52.0088174531975
20
-2.93350800347386
30
0
41
1
10
52.0017942702694
20
-2.79399513930005
30
0
41
1
10
51.9994529440019
20
-2.74631820207512
30
0
41
1
10
51.9959323700881
20
-2.67300504847586
30
0
41
1
10
51.9947578318655
20
-2.64827572317125
30
0
41
1
10
51.9924171211752
20
-2.59848586446464
30
0
41
1
10
51.9912493658796
20
-2.57339256571379
30
0
41
1
10
51.990083427118
20
-2.54810270830126
30
0
0
SPLINE
5
19C
100
AcDbEntity
8
1
62
256
6
ByLayer
370
18
48
1
60
0
100
AcDbSpline
70
4
71
3
72
30
73
26
40
0
40
0
40
0
40
0
40
0.0312499999999995
40
0.0312499999999995
40
0.0624999999999991
40
0.0624999999999991
40
0.125
40
0.125
40
0.25
40
0.25
40
0.375000000000001
40
0.375000000000001
40
0.437500000000001
40
0.437500000000001
40
0.500000000000002
40
0.500000000000002
40
0.625000000000001
40
0.625000000000001
40
0.750000000000001
40
0.750000000000001
40
0.875
40
0.875
40
0.9375
40
0.9375
40
1
40
1
40
1
40
1
41
1
10
64.9283632555187
20
1.00137563675693
30
0
41
1
10
64.9306948291381
20
0.975968961973877
30
0
41
1
10
64.9329978574805
20
0.950448067277591
30
0
41
1
10
64.9375533629987
20
0.899177633956214
30
0
41
1
10
64.9398075576345
20
0.873407704161082
30
0
41
1
10
64.9464808163644
20
0.796018660920993
30
0
41
1
10
64.9508165225736
20
0.744259089560302
30
0
41
1
10
64.9635569133075
20
0.588493324864771
30
0
41
1
10
64.9716985246367
20
0.484001490092055
30
0
41
1
10
64.9875638534209
20
0.273758118091394
30
0
41
1
10
64.9952959995489
20
0.168006964807944
30
0
41
1
10
65.0066697618503
20
0.0084269951645979
30
0
41
1
10
65.0104205892958
20
-0.0449256522308303
30
0
41
1
10
65.0178512027344
20
-0.151955085219612
30
0
41
1
10
65.0215407466172
20
-0.20577689159731
30
0
41
1
10
65.0324218330687
20
-0.366140127937996
30
0
41
1
10
65.0394443440945
20
-0.471857673694899
30
0
41
1
10
65.0532592639656
20
-0.680949186008434
30
0
41
1
10
65.0600642629075
20
-0.784321978916608
30
0
41
1
10
65.0730816729946
20
-0.988761415620928
30
0
41
1
10
65.0792902305125
20
-1.08982720032205
30
0
41
1
10
65.0879927192678
20
-1.23965031519316
30
0
41
1
10
65.0907944987198
20
-1.28932118609504
30
0
41
1
10
65.0961521457718
20
-1.38732526734105
30
0
41
1
10
65.0987134139344
20
-1.43575038270362
30
0
41
1
10
65.1011643895478
20
-1.48359858989292
30
0
0
SPLINE
5
19D
100
AcDbEntity
8
1
62
256
6
ByLayer
370
18
48
1
60
0
100
AcDbSpline
70
4
71
3
72
30
73
26
40
0
40
0
40
0
40
0
40
0.0312500000000001
40
0.0312500000000001
40
0.0625000000000003
40
0.0625000000000003
40
0.125000000000001
40
0.125000000000001
40
0.250000000000001
40
0.375000000000002
40
0.375000000000002
40
0.437500000000002
40
0.468750000000002
40
0.468750000000002
40
0.500000000000002
40
0.500000000000002
40
0.625000000000001
40
0.625000000000001
40
0.750000000000001
40
0.750000000000001
40
0.875
40
0.875
40
0.9375
40
0.9375
40
1
40
1
40
1
40
1
41
1
10
65.2444456520252
20
0.743486335174254
30
0
41
1
10
65.2433441209484
20
0.719956563728914
30
0
41
1
10
65.2422543187636
20
0.696308246314629
30
0
41
1
10
65.2400975230674
20
0.648772354631745
30
0
41
1
10
65.2390297701427
20
0.624866575426552
30
0
41
1
10
65.2358764846436
20
0.553166432130269
30
0
41
1
10
65.233835520142
20
0.505274836456266
30
0
41
1
10
65.2278866299062
20
0.361331223171987
30
0
41
1
10
65.2204158034334
20
0.168690969231733
30
0
41
1
10
65.2138369747288
20
-0.0253557542496594
30
0
41
1
10
65.2092519787095
20
-0.171425160283405
30
0
41
1
10
65.2070471162174
20
-0.244593698046487
30
0
41
1
10
65.2049789563479
20
-0.317966509394921
30
0
41
1
10
65.2036312641811
20
-0.366927659782902
30
0
41
1
10
65.2029721053433
20
-0.391464273296379
30
0
41
1
10
65.1997697051541
20
-0.513724523931842
30
0
41
1
10
65.1975027969403
20
-0.610299983969185
30
0
41
1
10
65.193550150048
20
-0.801060342563432
30
0
41
1
10
65.191858964859
20
-0.895246390369607
30
0
41
1
10
65.1890811901251
20
-1.08123188110193
30
0
41
1
10
65.1879984754896
20
-1.17303048211255
30
0
41
1
10
65.1868481203094
20
-1.30889482938636
30
0
41
1
10
65.1865430390787
20
-1.35392133606268
30
0
41
1
10
65.1860875935847
20
-1.4431621683845
30
0
41
1
10
65.1859383449007
20
-1.48712627292792
30
0
41
1
10
65.1858598553482
20
-1.53044884088607
30
0
0
SPLINE
5
19E
100
AcDbEntity
8
1
62
256
6
ByLayer
370
13
48
1
60
0
100
AcDbSpline
70
4
71
3
72
10
73
6
40
0
40
0
40
0
40
0
40
0.370108640054766
40
0.801513019942829
40
1
40
1
40
1
40
1
41
1.04
10
64.824936531481
20
-1.3150279402344
30
0
41
1.04
10
64.8104256021151
20
-1.08963036162859
30
0
41
1.04
10
64.779186338504
20
-0.582099040438531
30
0
41
1.04
10
64.7413142557945
20
0.0594310160270339
30
0
41
1.04
10
64.718216196616
20
0.44658665545505
30
0
41
1.04
10
64.7110080940299
20
0.566392929060173
30
0
0
SPLINE
5
19F
100
AcDbEntity
8
1
62
256
6
ByLayer
370
13
48
1
60
0
100
AcDbSpline
70
4
71
3
72
10
73
6
40
0
40
0
40
0
40
0
40
0.649001238914194
40
0.986602249964405
40
1
40
1
40
1
40
1
41
1
10
52.4462986061431
20
1.78537264318914
30
0
41
1
10
52.4144349167238
20
2.24076851643016
30
0
41
1
10
52.3650492717409
20
2.84242109078738
30
0
41
1
10
52.3125250626069
20
3.18005130370767
30
0
41
1
10
52.2937754386671
20
3.25674186164898
30
0
41
1
10
52.2930593012206
20
3.2596078839039
30
0
0
SPLINE
5
1A0
100
AcDbEntity
8
1
62
256
6
ByLayer
370
18
48
1
60
0
100
AcDbSpline
70
4
71
3
72
29
73
25
40
0
40
0
40
0
40
0
40
0.125
40
0.125
40
0.25
40
0.25
40
0.28125
40
0.28125
40
0.3125
40
0.375
40
0.375
40
0.500000000000001
40
0.500000000000001
40
0.625000000000001
40
0.625000000000001
40
0.656250000000001
40
0.656250000000001
40
0.687500000000002
40
0.687500000000002
40
0.750000000000002
40
0.750000000000002
40
0.875000000000001
40
0.875000000000001
40
1
40
1
40
1
40
1
41
1
10
59.5839088708856
20
-3.85793491333081
30
0
41
1
10
59.5770063121744
20
-3.81405192782304
30
0
41
1
10
59.5701127399572
20
-3.76346168884788
30
0
41
1
10
59.5563374483201
20
-3.64882656587343
30
0
41
1
10
59.5494568809847
20
-3.58478302517446
30
0
41
1
10
59.5408408080472
20
-3.49601982986619
30
0
41
1
10
59.5391200528272
20
-3.47786418289246
30
0
41
1
10
59.5356944607966
20
-3.44088222707399
30
0
41
1
10
59.5305743102078
20
-3.38434577716194
30
0
41
1
10
59.525502435778
20
-3.32465460850816
30
0
41
1
10
59.5154003343203
20
-3.20112835446926
30
0
41
1
10
59.5087239628005
20
-3.11326292010705
30
0
41
1
10
59.4953082681221
20
-2.92656882842175
30
0
41
1
10
59.4885702182509
20
-2.82774067247186
30
0
41
1
10
59.4799312065546
20
-2.6971776031244
30
0
41
1
10
59.4781923924407
20
-2.67071270650129
30
0
41
1
10
59.4746948009082
20
-2.61706996783957
30
0
41
1
10
59.4729378978815
20
-2.58992014617675
30
0
41
1
10
59.4676708790349
20
-2.50787099356396
30
0
41
1
10
59.464155247027
20
-2.45222989659888
30
0
41
1
10
59.4536189289319
20
-2.28253444722918
30
0
41
1
10
59.4466112548938
20
-2.16571509089971
30
0
41
1
10
59.432703765976
20
-1.92479758204999
30
0
41
1
10
59.4258049504689
20
-1.80069942418382
30
0
41
1
10
59.418953601079
20
-1.67289619133976
30
0
0
SPLINE
5
1A1
100
AcDbEntity
8
1
62
256
6
ByLayer
370
18
48
1
60
0
100
AcDbSpline
70
4
71
3
72
33
73
29
40
0
40
0
40
0
40
0
40
0.125
40
0.125
40
0.15625
40
0.15625
40
0.187500000000001
40
0.187500000000001
40
0.250000000000001
40
0.250000000000001
40
0.375000000000001
40
0.375000000000001
40
0.500000000000002
40
0.500000000000002
40
0.562500000000002
40
0.562500000000002
40
0.593750000000002
40
0.593750000000002
40
0.625000000000002
40
0.625000000000002
40
0.750000000000001
40
0.750000000000001
40
0.875
40
0.875
40
0.9375
40
0.96875
40
0.96875
40
1
40
1
40
1
40
1
41
1
10
59.2954128781837
20
-1.5596499408332
30
0
41
1
10
59.302287986936
20
-1.68828750586971
30
0
41
1
10
59.3091872078871
20
-1.81437482438918
30
0
41
1
10
59.3178444214593
20
-1.96871541593626
30
0
41
1
10
59.3195776498422
20
-1.99941968197379
30
0
41
1
10
59.323048281081
20
-2.06049673516171
30
0
41
1
10
59.3247867279997
20
-2.09088700690523
30
0
41
1
10
59.3299792356331
20
-2.18103086647491
30
0
41
1
10
59.3334201263613
20
-2.23993076778143
30
0
41
1
10
59.3436942553677
20
-2.41311255056931
30
0
41
1
10
59.3504777923558
20
-2.523885691993
30
0
41
1
10
59.3640155569028
20
-2.73620895262715
30
0
41
1
10
59.3707708767489
20
-2.83775907197611
30
0
41
1
10
59.3809318338855
20
-2.9830514818488
30
0
41
1
10
59.3843243025184
20
-3.03030783391478
30
0
41
1
10
59.389435731214
20
-3.09939405697199
30
0
41
1
10
59.3911452363753
20
-3.12214622853773
30
0
41
1
10
59.3945560688679
20
-3.16679649484953
30
0
41
1
10
59.3962593406886
20
-3.18872162477004
30
0
41
1
10
59.4047736445386
20
-3.29636922642541
30
0
41
1
10
59.4115906864891
20
-3.37617322977803
30
0
41
1
10
59.4254017609439
20
-3.5234521901146
30
0
41
1
10
59.4323621730135
20
-3.59092767042404
30
0
41
1
10
59.4428139520464
20
-3.68282597631921
30
0
41
1
10
59.4480436530575
20
-3.72644180490781
30
0
41
1
10
59.4532752064626
20
-3.76650150360433
30
0
41
1
10
59.4567635741531
20
-3.79240829712765
30
0
41
1
10
59.4585104365671
20
-3.80497788893322
30
0
41
1
10
59.4602489209669
20
-3.81708161769149
30
0
0
SPLINE
5
1A2
100
AcDbEntity
8
1
62
256
6
ByLayer
370
18
48
1
60
0
100
AcDbSpline
70
4
71
3
72
19
73
15
40
0
40
0
40
0
40
0
40
0.25
40
0.25
40
0.375
40
0.375
40
0.5
40
0.5
40
0.5625
40
0.5625
40
0.625
40
0.75
40
0.75
40
1
40
1
40
1
40
1
41
1
10
64.8177660372545
20
-1.31744473214081
30
0
41
1
10
64.8072938666834
20
-1.16958732559055
30
0
41
1
10
64.7976462918892
20
-1.01845341487655
30
0
41
1
10
64.7838137505989
20
-0.787076830208434
30
0
41
1
10
64.7793015059873
20
-0.709170701182444
30
0
41
1
10
64.7703122030579
20
-0.551803001750585
30
0
41
1
10
64.7658300554194
20
-0.472342084900959
30
0
41
1
10
64.7591451185448
20
-0.351953652674496
30
0
41
1
10
64.7569308955516
20
-0.311765023803673
30
0
41
1
10
64.7525454245406
20
-0.231530681676418
30
0
41
1
10
64.7460243569549
20
-0.111270286040082
30
0
41
1
10
64.7396716722783
20
0.0087202888407774
30
0
41
1
10
64.7271422367461
20
0.24834331231213
30
0
41
1
10
64.7189839767518
20
0.40761509936479
30
0
41
1
10
64.71100809403
20
0.566392929058367
30
0
0
SPLINE
5
1A3
100
AcDbEntity
8
1
62
256
6
ByLayer
370
18
48
1
60
0
100
AcDbSpline
70
4
71
3
72
12
73
8
40
0
40
0
40
0
40
0
40
0.500000000000001
40
0.500000000000001
40
0.750000000000001
40
0.750000000000001
40
1
40
1
40
1
40
1
41
1
10
64.7110080940299
20
0.566392929060413
30
0
41
1
10
64.7054784871966
20
0.676472151972575
30
0
41
1
10
64.7001532633357
20
0.785145607622979
30
0
41
1
10
64.6925937224643
20
0.946037290618477
30
0
41
1
10
64.690149803813
20
0.999240957416447
30
0
41
1
10
64.6854534049647
20
1.10456049599242
30
0
41
1
10
64.6831983111487
20
1.15671256632717
30
0
41
1
10
64.6810452439706
20
1.20835652151015
30
0
0
SPLINE
5
1A4
100
AcDbEntity
8
1
62
256
6
ByLayer
370
18
48
1
60
0
100
AcDbSpline
70
4
71
3
72
30
73
26
40
0
40
0
40
0
40
0
40
0.0625000000000004
40
0.0625000000000004
40
0.125000000000001
40
0.125000000000001
40
0.250000000000001
40
0.250000000000001
40
0.375000000000001
40
0.375000000000001
40
0.500000000000001
40
0.500000000000001
40
0.562500000000001
40
0.562500000000001
40
0.625000000000001
40
0.625000000000001
40
0.750000000000001
40
0.750000000000001
40
0.875
40
0.875
40
0.90625
40
0.90625
40
0.9375
40
0.9375
40
1
40
1
40
1
40
1
41
1
10
52.7227057304693
20
3.82910040465947
30
0
41
1
10
52.726073722771
20
3.80572891667805
30
0
41
1
10
52.7294417016484
20
3.78061256329025
30
0
41
1
10
52.7361953122526
20
3.72682591031634
30
0
41
1
10
52.7395879736634
20
3.69808467638467
30
0
41
1
10
52.7497186265038
20
3.60745209590823
30
0
41
1
10
52.7564502421478
20
3.54094005886571
30
0
41
1
10
52.7700822331833
20
3.3960790052065
30
0
41
1
10
52.7769608126783
20
3.31772882163062
30
0
41
1
10
52.7908164367585
20
3.14914584141042
30
0
41
1
10
52.7977924458341
20
3.05891426677732
30
0
41
1
10
52.808313489564
20
2.91433248479063
30
0
41
1
10
52.8118045703042
20
2.86494568095242
30
0
41
1
10
52.8187397445844
20
2.76405713484615
30
0
41
1
10
52.8221864324773
20
2.7125194258837
30
0
41
1
10
52.832469250106
20
2.55467316091071
30
0
41
1
10
52.8392460446124
20
2.44513971690589
30
0
41
1
10
52.8527145107064
20
2.21751337740264
30
0
41
1
10
52.8594052471519
20
2.09942089631951
30
0
41
1
10
52.8678079070491
20
1.94631549771205
30
0
41
1
10
52.8694906332379
20
1.91541923858225
30
0
41
1
10
52.8728638209419
20
1.85306999181017
30
0
41
1
10
52.874552101357
20
1.82165682971677
30
0
41
1
10
52.8796053363954
20
1.72711810538908
30
0
41
1
10
52.8829671182315
20
1.66353526680982
30
0
41
1
10
52.8863384937595
20
1.59940668427825
30
0
0
SPLINE
5
1A5
100
AcDbEntity
8
1
62
256
6
ByLayer
370
18
48
1
60
0
100
AcDbSpline
70
4
71
3
72
28
73
24
40
0
40
0
40
0
40
0
40
0.125
40
0.25
40
0.25
40
0.3125
40
0.3125
40
0.34375
40
0.34375
40
0.375000000000001
40
0.375000000000001
40
0.500000000000001
40
0.500000000000001
40
0.625000000000001
40
0.625000000000001
40
0.687500000000001
40
0.718750000000001
40
0.718750000000001
40
0.750000000000001
40
0.750000000000001
40
0.875000000000001
40
0.875000000000001
40
1
40
1
40
1
40
1
41
1
10
53.011172433749
20
1.48334456844719
30
0
41
1
10
53.0042231230852
20
1.61351214233466
30
0
41
1
10
52.9901237209045
20
1.86719789875284
30
0
41
1
10
52.9764029092088
20
2.1078304269067
30
0
41
1
10
52.9662001466787
20
2.28332880910159
30
0
41
1
10
52.9628103160961
20
2.34099715838045
30
0
41
1
10
52.9576981297532
20
2.42622597890721
30
0
41
1
10
52.9559863676319
20
2.4544601390761
30
0
41
1
10
52.9525683653688
20
2.51021000408463
30
0
41
1
10
52.9508608918678
20
2.53774812516048
30
0
41
1
10
52.9423293049171
20
2.67377356272468
30
0
41
1
10
52.9355215572458
20
2.77727891965103
30
0
41
1
10
52.921916632255
20
2.97391940711574
30
0
41
1
10
52.9151213627994
20
3.06705410682272
30
0
41
1
10
52.9049156172078
20
3.19892230316373
30
0
41
1
10
52.8998091991719
20
3.26289411326061
30
0
41
1
10
52.8946867342638
20
3.32387602789885
30
0
41
1
10
52.8912662750736
20
3.36385839378826
30
0
41
1
10
52.889550804096
20
3.38354166042649
30
0
41
1
10
52.8809922422495
20
3.47983082047924
30
0
41
1
10
52.8742011698837
20
3.55010309617776
30
0
41
1
10
52.8605744246357
20
3.67757444610169
30
0
41
1
10
52.8537413586874
20
3.73477241007373
30
0
41
1
10
52.8468597947243
20
3.7854436101704
30
0
0
SPLINE
5
1A6
100
AcDbEntity
8
1
62
256
6
ByLayer
370
13
48
1
60
0
100
AcDbSpline
70
4
71
3
72
11
73
7
40
0
40
0
40
0
40
0
40
0.0678136113917761
40
0.399596446219322
40
0.93439618213272
40
1
40
1
40
1
40
1
41
1.04
10
53.4316516130271
20
1.04758172783649
30
0
41
1.04
10
53.4280000467202
20
1.10604577796286
30
0
41
1.04
10
53.406461856564
20
1.44769050446248
30
0
41
1.04
10
53.355851750282
20
2.19884057276927
30
0
41
1.04
10
53.3097257730136
20
2.71743561273429
30
0
41
1.04
10
53.2814394424736
20
2.94844531027615
30
0
41
1.04
10
53.2783651782561
20
2.97247830469811
30
0
0
SPLINE
5
1A7
100
AcDbEntity
8
1
62
256
6
ByLayer
370
18
48
1
60
0
100
AcDbSpline
70
4
71
3
72
24
73
20
40
0
40
0
40
0
40
0
40
0.250000000000004
40
0.250000000000004
40
0.281250000000004
40
0.281250000000004
40
0.312500000000004
40
0.312500000000004
40
0.375000000000003
40
0.375000000000003
40
0.500000000000003
40
0.500000000000003
40
0.750000000000002
40
0.750000000000002
40
0.812500000000001
40
0.812500000000001
40
0.875000000000001
40
0.875000000000001
40
1
40
1
40
1
40
1
41
1
10
61.4452314655576
20
3.67991737719635
30
0
41
1
10
61.4612500468406
20
3.58660698259283
30
0
41
1
10
61.4770441116929
20
3.47150348313551
30
0
41
1
10
61.4950827246017
20
3.31753842731638
30
0
41
1
10
61.497091446559
20
3.30008913543105
30
0
41
1
10
61.5011196050033
20
3.26450100586638
30
0
41
1
10
61.5031409081923
20
3.24634508760081
30
0
41
1
10
61.5092104731127
20
3.190949221149
30
0
41
1
10
61.5132491482848
20
3.15292520741244
30
0
41
1
10
61.5253534867118
20
3.0356367458642
30
0
41
1
10
61.5334105359993
20
2.95316629345831
30
0
41
1
10
61.5575251117879
20
2.69303856261581
30
0
41
1
10
61.5734349789582
20
2.50263021752718
30
0
41
1
10
61.5929707446541
20
2.2424830599754
30
0
41
1
10
61.5968408897921
20
2.18967265533573
30
0
41
1
10
61.6045094505207
20
2.0826794824566
30
0
41
1
10
61.6083098872943
20
2.02847004054956
30
0
41
1
10
61.6196352183584
20
1.86372498579229
30
0
41
1
10
61.6270833114053
20
1.75107831999267
30
0
41
1
10
61.6345090910518
20
1.63560427634329
30
0
0
SPLINE
5
1A8
100
AcDbEntity
8
1
62
256
6
ByLayer
370
18
48
1
60
0
100
AcDbSpline
70
4
71
3
72
29
73
25
40
0
40
0
40
0
40
0
40
0.124999999999999
40
0.124999999999999
40
0.249999999999998
40
0.249999999999998
40
0.374999999999997
40
0.374999999999997
40
0.406249999999997
40
0.406249999999997
40
0.437499999999998
40
0.499999999999998
40
0.499999999999998
40
0.624999999999998
40
0.624999999999998
40
0.749999999999999
40
0.749999999999999
40
0.781249999999999
40
0.781249999999999
40
0.812499999999999
40
0.812499999999999
40
0.875
40
0.875
40
1
40
1
40
1
40
1
41
1
10
57.9808170223708
20
-0.28049303247721
30
0
41
1
10
57.9877963517114
20
-0.421224866589967
30
0
41
1
10
57.9946939080078
20
-0.560267381605797
30
0
41
1
10
58.0083686278484
20
-0.835084819425276
30
0
41
1
10
58.0151453252068
20
-0.970859425004079
30
0
41
1
10
58.0287399067069
20
-1.23913883953696
30
0
41
1
10
58.0355837431452
20
-1.37164269054571
30
0
41
1
10
58.0442096791575
20
-1.53516487705386
30
0
41
1
10
58.0459402191339
20
-1.56780539857314
30
0
41
1
10
58.04939671255
20
-1.6326661685641
30
0
41
1
10
58.0545681941499
20
-1.72920641627445
30
0
41
1
10
58.0597019494617
20
-1.82352203120357
30
0
41
1
10
58.0699341957487
20
-2.00923753174757
30
0
41
1
10
58.0767056576408
20
-2.12916788043006
30
0
41
1
10
58.0903117772617
20
-2.36134310928668
30
0
41
1
10
58.0971439820352
20
-2.47358836328084
30
0
41
1
10
58.1057485432352
20
-2.60898776707799
30
0
41
1
10
58.1074726719289
20
-2.63582166793813
30
0
41
1
10
58.1109281080812
20
-2.68899233964135
30
0
41
1
10
58.1126610328271
20
-2.71535338702071
30
0
41
1
10
58.1178608875967
20
-2.7935179354067
30
0
41
1
10
58.121312662651
20
-2.84416221098331
30
0
41
1
10
58.131633741093
20
-2.99179331393066
30
0
41
1
10
58.1384682479335
20
-3.0844896698105
30
0
41
1
10
58.1452879085238
20
-3.1715692799244
30
0
0
SPLINE
5
1A9
100
AcDbEntity
8
1
62
256
6
ByLayer
370
18
48
1
60
0
100
AcDbSpline
70
4
71
3
72
31
73
27
40
0
40
0
40
0
40
0
40
0.0312499999999995
40
0.0312499999999995
40
0.0624999999999991
40
0.124999999999999
40
0.124999999999999
40
0.249999999999997
40
0.249999999999997
40
0.374999999999996
40
0.374999999999996
40
0.406249999999996
40
0.406249999999996
40
0.437499999999996
40
0.437499999999996
40
0.499999999999997
40
0.499999999999997
40
0.624999999999997
40
0.624999999999997
40
0.749999999999997
40
0.749999999999997
40
0.812499999999998
40
0.812499999999998
40
0.874999999999998
40
0.874999999999998
40
1
40
1
40
1
40
1
41
1
10
58.269629705464
20
-3.24813809336013
30
0
41
1
10
58.2678914605727
20
-3.22698579856157
30
0
41
1
10
58.2661452527421
20
-3.20539872245311
30
0
41
1
10
58.2626536961441
20
-3.16154373634981
30
0
41
1
10
58.2574239163666
20
-3.09482285853815
30
0
41
1
10
58.252220345274
20
-3.0253218706867
30
0
41
1
10
58.2418472778843
20
-2.88267690309516
30
0
41
1
10
58.2349804710911
20
-2.78273224678821
30
0
41
1
10
58.2212548733274
20
-2.57325114737694
30
0
41
1
10
58.21439823977
20
-2.46371492920062
30
0
41
1
10
58.2058104591563
20
-2.32067176921166
30
0
41
1
10
58.2040919319393
20
-2.29175622158155
30
0
41
1
10
58.2006518011532
20
-2.23330490991273
30
0
41
1
10
58.1989285761963
20
-2.20374101978135
30
0
41
1
10
58.1937631726925
20
-2.11429707270446
30
0
41
1
10
58.1903412688094
20
-2.05394345104241
30
0
41
1
10
58.1801201197466
20
-1.87075725827105
30
0
41
1
10
58.1733666126244
20
-1.74580483103037
30
0
41
1
10
58.1598435108342
20
-1.49035665995186
30
0
41
1
10
58.1530675425454
20
-1.35986110659835
30
0
41
1
10
58.1427817959096
20
-1.1599126667152
30
0
41
1
10
58.1393394555033
20
-1.09256066820683
30
0
41
1
10
58.1324341461503
20
-0.956425195474708
30
0
41
1
10
58.1289643230328
20
-0.88750176515336
30
0
41
1
10
58.1186154765274
20
-0.680881887775627
30
0
41
1
10
58.1117521314479
20
-0.542684115984201
30
0
41
1
10
58.1049027250827
20
-0.404048610624614
30
0
0
SPLINE
5
1AA
100
AcDbEntity
8
1
62
256
6
ByLayer
370
18
48
1
60
0
100
AcDbSpline
70
4
71
3
72
28
73
24
40
0
40
0
40
0
40
0
40
0.125000000000001
40
0.125000000000001
40
0.156250000000002
40
0.156250000000002
40
0.187500000000002
40
0.250000000000002
40
0.250000000000002
40
0.375000000000001
40
0.375000000000001
40
0.5
40
0.5
40
0.5625
40
0.5625
40
0.625
40
0.625
40
0.75
40
0.875
40
0.875
40
0.9375
40
0.9375
40
1
40
1
40
1
40
1
41
1
10
54.3251744352952
20
0.198525564855004
30
0
41
1
10
54.3183955577803
20
0.337471322407396
30
0
41
1
10
54.3116289294049
20
0.476384937505685
30
0
41
1
10
54.3031193733501
20
0.649982272823905
30
0
41
1
10
54.3014128809164
20
0.684738608829093
30
0
41
1
10
54.2980015798925
20
0.754063043340693
30
0
41
1
10
54.2928962380452
20
0.857582837113654
30
0
41
1
10
54.287816194001
20
0.959719221330033
30
0
41
1
10
54.2776641170547
20
1.16217833196436
30
0
41
1
10
54.2709066792295
20
1.29473752992666
30
0
41
1
10
54.2572753917504
20
1.55507521679323
30
0
41
1
10
54.2504073012735
20
1.68285413057848
30
0
41
1
10
54.2400187765781
20
1.87086238001927
30
0
41
1
10
54.2365365629565
20
1.93295327073182
30
0
41
1
10
54.2295380726977
20
2.05574956836267
30
0
41
1
10
54.2260518231368
20
2.11598030620854
30
0
41
1
10
54.2156496765149
20
2.29324746325378
30
0
41
1
10
54.2019393783016
20
2.52048863918705
30
0
41
1
10
54.1885239527251
20
2.72985217214898
30
0
41
1
10
54.1784640607627
20
2.88008533511948
30
0
41
1
10
54.1751100085646
20
2.92902924498887
30
0
41
1
10
54.1683691006712
20
3.02460714693106
30
0
41
1
10
54.1649740101618
20
3.0713442425764
30
0
41
1
10
54.161579219385
20
3.11641476321026
30
0
0
SPLINE
5
1AB
100
AcDbEntity
8
1
62
256
6
ByLayer
370
18
48
1
60
0
100
AcDbSpline
70
4
71
3
72
29
73
25
40
0
40
0
40
0
40
0
40
0.125
40
0.125
40
0.249999999999999
40
0.249999999999999
40
0.374999999999999
40
0.374999999999999
40
0.406249999999999
40
0.406249999999999
40
0.437499999999999
40
0.499999999999999
40
0.499999999999999
40
0.624999999999999
40
0.624999999999999
40
0.749999999999999
40
0.749999999999999
40
0.781249999999999
40
0.781249999999999
40
0.812499999999999
40
0.812499999999999
40
0.874999999999999
40
0.874999999999999
40
1
40
1
40
1
40
1
41
1
10
55.6403915717421
20
-1.10812396836496
30
0
41
1
10
55.6334193676229
20
-0.972753893404217
30
0
41
1
10
55.6264582595844
20
-0.836429152597788
30
0
41
1
10
55.6125875152279
20
-0.561924167684339
30
0
41
1
10
55.6056792684236
20
-0.423743718774432
30
0
41
1
10
55.591912691802
20
-0.145522191285096
30
0
41
1
10
55.5850560625249
20
-0.0054812070486037
30
0
41
1
10
55.5764665725479
20
0.170771326011419
30
0
41
1
10
55.5747495939257
20
0.206038479607457
30
0
41
1
10
55.5713303314544
20
0.276291450466545
30
0
41
1
10
55.5662169759464
20
0.381385565275252
30
0
41
1
10
55.5611354781899
20
0.485632626316203
30
0
41
1
10
55.5509893766447
20
0.69301299451476
30
0
41
1
10
55.5442467083411
20
0.829784399820085
30
0
41
1
10
55.5307063002019
20
1.10037600475013
30
0
41
1
10
55.5239094498271
20
1.23419640717157
30
0
41
1
10
55.5153351716876
20
1.39957734313614
30
0
41
1
10
55.5136164328501
20
1.43255856102795
30
0
41
1
10
55.5101701255019
20
1.49832879966345
30
0
41
1
10
55.5084430545654
20
1.53110762789626
30
0
41
1
10
55.5032775632275
20
1.62857942302458
30
0
41
1
10
55.4998447525706
20
1.69260166084939
30
0
41
1
10
55.4895671019746
20
1.8818464387943
30
0
41
1
10
55.4827434291408
20
2.00425439122273
30
0
41
1
10
55.4759150395687
20
2.12296034765831
30
0
0
SPLINE
5
1AC
100
AcDbEntity
8
1
62
256
6
ByLayer
370
18
48
1
60
0
100
AcDbSpline
70
4
71
3
72
47
73
43
40
0
40
0
40
0
40
0
40
0.0624999999999998
40
0.0624999999999998
40
0.0781249999999999
40
0.0781249999999999
40
0.09375
40
0.09375
40
0.125000000000001
40
0.125000000000001
40
0.187500000000002
40
0.187500000000002
40
0.203125000000002
40
0.203125000000002
40
0.218750000000002
40
0.218750000000002
40
0.250000000000002
40
0.250000000000002
40
0.375000000000002
40
0.375000000000002
40
0.406250000000002
40
0.406250000000002
40
0.437500000000002
40
0.437500000000002
40
0.500000000000001
40
0.500000000000001
40
0.562500000000001
40
0.562500000000001
40
0.593750000000001
40
0.593750000000001
40
0.625000000000001
40
0.625000000000001
40
0.750000000000001
40
0.750000000000001
40
0.812500000000001
40
0.812500000000001
40
0.843750000000001
40
0.859375000000001
40
0.859375000000001
40
0.875000000000001
40
0.875000000000001
40
1
40
1
40
1
40
1
41
1
10
65.55
20
2.91361345129857
30
0
41
1
10
65.55
20
2.82948195728869
30
0
41
1
10
65.55
20
2.74472429548186
30
0
41
1
10
65.55
20
2.63796110651666
30
0
41
1
10
65.55
20
2.61654065372863
30
0
41
1
10
65.55
20
2.57404358710454
30
0
41
1
10
65.55
20
2.55291662643989
30
0
41
1
10
65.55
20
2.48989601214913
30
0
41
1
10
65.55
20
2.4483638030535
30
0
41
1
10
65.55
20
2.32519749239981
30
0
41
1
10
65.55
20
2.24496445705353
30
0
41
1
10
65.55
20
2.14708851732223
30
0
41
1
10
65.55
20
2.12760468123352
30
0
41
1
10
65.55
20
2.08902295339192
30
0
41
1
10
65.55
20
2.07000271020152
30
0
41
1
10
65.55
20
2.01375751520368
30
0
41
1
10
65.55
20
1.97745298962281
30
0
41
1
10
65.5500000000001
20
1.79768699039619
30
0
41
1
10
65.55
20
1.66200168086388
30
0
41
1
10
65.5499999999999
20
1.50264515542651
30
0
41
1
10
65.55
20
1.47123633161451
30
0
41
1
10
65.55
20
1.40973046811689
30
0
41
1
10
65.55
20
1.37967925616405
30
0
41
1
10
65.55
20
1.29159433481422
30
0
41
1
10
65.55
20
1.23562560610773
30
0
41
1
10
65.55
20
1.12914840764475
30
0
41
1
10
65.55
20
1.07863070495227
30
0
41
1
10
65.55
20
1.00698004448131
30
0
41
1
10
65.55
20
0.9837857789108
30
0
41
1
10
65.55
20
0.938787047390122
30
0
41
1
10
65.55
20
0.916937735358289
30
0
41
1
10
65.55
20
0.811906716124014
30
0
41
1
10
65.55
20
0.74122789354368
30
0
41
1
10
65.55
20
0.654512110837743
30
0
41
1
10
65.55
20
0.628835712912547
30
0
41
1
10
65.55
20
0.595244320458136
30
0
41
1
10
65.55
20
0.579678269503148
30
0
41
1
10
65.55
20
0.565980556780602
30
0
41
1
10
65.55
20
0.557268628493574
30
0
41
1
10
65.55
20
0.553118020947181
30
0
41
1
10
65.55
20
0.517796391991567
30
0
41
1
10
65.55
20
0.500704601810781
30
0
41
1
10
65.55
20
0.497348690091059
30
0
0
SPLINE
5
1AD
100
AcDbEntity
8
1
62
256
6
ByLayer
370
18
48
1
60
0
100
AcDbSpline
70
4
71
3
72
13
73
9
40
0
40
0
40
0
40
0
40
0.125000000000012
40
0.125000000000012
40
0.250000000000025
40
0.250000000000025
40
0.5
40
1
40
1
40
1
40
1
41
1
10
65.1858598553483
20
3.27677072208104
30
0
41
1
10
65.2012761208692
20
3.26167209348668
30
0
41
1
10
65.2167189034864
20
3.24651280835351
30
0
41
1
10
65.247533109206
20
3.2162092617591
30
0
41
1
10
65.2628979130308
20
3.20107172697914
30
0
41
1
10
65.3088700910161
20
3.15568701670537
30
0
41
1
10
65.4003345497529
20
3.06501848726043
30
0
41
1
10
65.4904839789277
20
2.97430452457621
30
0
41
1
10
65.5499999999972
20
2.91361345130198
30
0
0
SPLINE
5
1AE
100
AcDbEntity
8
1
62
256
6
ByLayer
370
18
48
1
60
0
100
AcDbSpline
70
4
71
3
72
10
73
6
40
0
40
0
40
0
40
0
40
0.5
40
0.5
40
1
40
1
40
1
40
1
41
1
10
65.1858598553482
20
3.27677072208101
30
0
41
1
10
65.1100109927981
20
3.29271979694224
30
0
41
1
10
65.0345529883393
20
3.30703035090227
30
0
41
1
10
64.8843018388358
20
3.33232276437011
30
0
41
1
10
64.8094778978929
20
3.3433169208536
30
0
41
1
10
64.7349487313027
20
3.35261831295742
30
0
0
SPLINE
5
1AF
100
AcDbEntity
8
1
62
256
6
ByLayer
370
18
48
1
60
0
100
AcDbSpline
70
4
71
3
72
8
73
4
40
0
40
0
40
0
40
0
40
1
40
1
40
1
40
1
41
1
10
64.7349487313027
20
3.35261831295739
30
0
41
1
10
64.7286510979109
20
3.34150001959711
30
0
41
1
10
64.7223487163729
20
3.33035423199439
30
0
41
1
10
64.7160417952776
20
3.31918151760084
30
0
0
SPLINE
5
1B0
100
AcDbEntity
8
1
62
256
6
ByLayer
370
18
48
1
60
0
100
AcDbSpline
70
4
71
3
72
30
73
26
40
0
40
0
40
0
40
0
40
0.125000000000001
40
0.125000000000001
40
0.250000000000002
40
0.250000000000002
40
0.375000000000002
40
0.375000000000002
40
0.437500000000002
40
0.437500000000002
40
0.500000000000002
40
0.500000000000002
40
0.625000000000001
40
0.625000000000001
40
0.687500000000001
40
0.687500000000001
40
0.750000000000001
40
0.750000000000001
40
0.812500000000001
40
0.812500000000001
40
0.875
40
0.875
40
0.9375
40
0.9375
40
1
40
1
40
1
40
1
41
1
10
64.7160417952777
20
3.31918151760101
30
0
41
1
10
64.7072036747365
20
3.30352478191486
30
0
41
1
10
64.6969455953536
20
3.28964749959863
30
0
41
1
10
64.6742124161461
20
3.2646384129313
30
0
41
1
10
64.6616217723625
20
3.25346974321434
30
0
41
1
10
64.6351771429331
20
3.23431582426207
30
0
41
1
10
64.6212602122914
20
3.22623794480782
30
0
41
1
10
64.5993883776486
20
3.2163327510053
30
0
41
1
10
64.5919262384305
20
3.21340710653155
30
0
41
1
10
64.5769266675426
20
3.20841340249285
30
0
41
1
10
64.5693578171794
20
3.20632972815491
30
0
41
1
10
64.5464524269483
20
3.20134055778382
30
0
41
1
10
64.5309206051768
20
3.19967179707376
30
0
41
1
10
64.5072098283306
20
3.20011102947774
30
0
41
1
10
64.4992259684189
20
3.20076261967196
30
0
41
1
10
64.4834908552617
20
3.20314482307509
30
0
41
1
10
64.4756946130937
20
3.20487316042545
30
0
41
1
10
64.4602692827642
20
3.20953231142258
30
0
41
1
10
64.4526214186201
20
3.21247027396422
30
0
41
1
10
64.4376107363817
20
3.21973973758986
30
0
41
1
10
64.4303793712812
20
3.22400487378806
30
0
41
1
10
64.4165357114915
20
3.23394724482833
30
0
41
1
10
64.4098970046632
20
3.23964813932159
30
0
41
1
10
64.3974768890319
20
3.25264381075775
30
0
41
1
10
64.3918028690798
20
3.25981819804898
30
0
41
1
10
64.3867341031859
20
3.26776039629218
30
0
0
SPLINE
5
1B1
100
AcDbEntity
8
1
62
256
6
ByLayer
370
18
48
1
60
0
100
AcDbSpline
70
4
71
3
72
8
73
4
40
0
40
0
40
0
40
0
40
1
40
1
40
1
40
1
41
1
10
64.3867341031853
20
3.26776039629169
30
0
41
1
10
64.3611133511731
20
3.3079052946519
30
0
41
1
10
64.3355455009739
20
3.34769180592704
30
0
41
1
10
64.3100238901035
20
3.3871268351437
30
0
0
SPLINE
5
1B2
100
AcDbEntity
8
1
62
256
6
ByLayer
370
18
48
1
60
0
100
AcDbSpline
70
4
71
3
72
12
73
8
40
0
40
0
40
0
40
0
40
0.5
40
0.5
40
0.75
40
0.75
40
1
40
1
40
1
40
1
41
1
10
64.3100238901036
20
3.38712683514373
30
0
41
1
10
64.1884211015056
20
3.39155520966733
30
0
41
1
10
64.0673957358439
20
3.39117954055013
30
0
41
1
10
63.8862813298769
20
3.38326188173025
30
0
41
1
10
63.8259802743759
20
3.379396455782
30
0
41
1
10
63.705446754899
20
3.36918632200943
30
0
41
1
10
63.6451261384688
20
3.36282856267454
30
0
41
1
10
63.5851424643015
20
3.35526342324707
30
0
0
SPLINE
5
1B3
100
AcDbEntity
8
1
62
256
6
ByLayer
370
18
48
1
60
0
100
AcDbSpline
70
4
71
3
72
8
73
4
40
0
40
0
40
0
40
0
40
1
40
1
40
1
40
1
41
1
10
52.0468911086754
20
-4.0483547109599
30
0
41
1
10
52.0279406024667
20
-4.03556093642729
30
0
41
1
10
52.0089864854812
20
-4.02260857991766
30
0
41
1
10
51.9900268784308
20
-4.00949948684183
30
0
0
SPLINE
5
1B4
100
AcDbEntity
8
1
62
256
6
ByLayer
370
18
48
1
60
0
100
AcDbSpline
70
4
71
3
72
12
73
8
40
0
40
0
40
0
40
0
40
0.250000000000004
40
0.250000000000004
40
0.500000000000009
40
0.500000000000009
40
1
40
1
40
1
40
1
41
1
10
51.9900268784308
20
-4.00949948684183
30
0
41
1
10
51.9554914326724
20
-3.94908015014235
30
0
41
1
10
51.9208525976082
20
-3.88786153802479
30
0
41
1
10
51.8513205263163
20
-3.76383103893636
30
0
41
1
10
51.8164150310633
20
-3.70099684421444
30
0
41
1
10
51.7113236734153
20
-3.5102506333125
30
0
41
1
10
51.6408981632438
20
-3.3803407773367
30
0
41
1
10
51.5698873327532
20
-3.24768335839045
30
0
0
SPLINE
5
1B5
100
AcDbEntity
8
1
62
256
6
ByLayer
370
18
48
1
60
0
100
AcDbSpline
70
4
71
3
72
28
73
24
40
0
40
0
40
0
40
0
40
0.124999999999974
40
0.124999999999974
40
0.249999999999949
40
0.249999999999949
40
0.374999999999923
40
0.374999999999923
40
0.499999999999898
40
0.499999999999898
40
0.624999999999872
40
0.624999999999872
40
0.687499999999894
40
0.687499999999894
40
0.749999999999915
40
0.749999999999915
40
0.812499999999936
40
0.812499999999936
40
0.874999999999957
40
0.874999999999957
40
0.937499999999979
40
0.937499999999979
40
1
40
1
40
1
40
1
41
1
10
51.5698873327522
20
-3.24768335838948
30
0
41
1
10
51.561020448908
20
-3.23111887214509
30
0
41
1
10
51.5507264364842
20
-3.21625540658186
30
0
41
1
10
51.5279153123052
20
-3.18914840921576
30
0
41
1
10
51.5152712941269
20
-3.17685326426834
30
0
41
1
10
51.4888204337823
20
-3.15546371455616
30
0
41
1
10
51.4749434054079
20
-3.14625850576988
30
0
41
1
10
51.4459649666942
20
-3.13071909349651
30
0
41
1
10
51.4307265350866
20
-3.12436386085719
30
0
41
1
10
51.4000718005342
20
-3.11518547346387
30
0
41
1
10
51.3845689237023
20
-3.11228166018333
30
0
41
1
10
51.3610659336469
20
-3.11080046048033
30
0
41
1
10
51.3531898154453
20
-3.11079046762634
30
0
41
1
10
51.3373505952401
20
-3.11188356859665
30
0
41
1
10
51.3294875924886
20
-3.11298397390399
30
0
41
1
10
51.3140523330222
20
-3.11637895037236
30
0
41
1
10
51.3064560103481
20
-3.11867352074481
30
0
41
1
10
51.2915513335447
20
-3.12464295593298
30
0
41
1
10
51.2842061382591
20
-3.12835071630812
30
0
41
1
10
51.2703260608776
20
-3.137151343993
30
0
41
1
10
51.2637391023009
20
-3.14225460230477
30
0
41
1
10
51.251389026458
20
-3.15410087725061
30
0
41
1
10
51.2456380199912
20
-3.16085757647747
30
0
41
1
10
51.2405639839256
20
-3.16835676533026
30
0
0
SPLINE
5
1B6
100
AcDbEntity
8
1
62
256
6
ByLayer
370
18
48
1
60
0
100
AcDbSpline
70
4
71
3
72
8
73
4
40
0
40
0
40
0
40
0
40
1
40
1
40
1
40
1
41
1
10
51.2405639839256
20
-3.16835676533029
30
0
41
1
10
51.2046867598607
20
-3.22138163060444
30
0
41
1
10
51.1689147526347
20
-3.27355797259315
30
0
41
1
10
51.1332316456884
20
-3.32488617806737
30
0
0
SPLINE
5
1B7
100
AcDbEntity
8
1
62
256
6
ByLayer
370
18
48
1
60
0
100
AcDbSpline
70
4
71
3
72
10
73
6
40
0
40
0
40
0
40
0
40
0.5
40
0.5
40
1
40
1
40
1
40
1
41
1
10
51.1332316456885
20
-3.32488617806729
30
0
41
1
10
51.0551618412428
20
-3.2552491738976
30
0
41
1
10
50.9764746369779
20
-3.18341324154906
30
0
41
1
10
50.817487599016
20
-3.03544239786135
30
0
41
1
10
50.7372131591244
20
-2.95931174103259
30
0
41
1
10
50.6560780818589
20
-2.88106787261566
30
0
0
SPLINE
5
1B8
100
AcDbEntity
8
1
62
256
6
ByLayer
370
18
48
1
60
0
100
AcDbSpline
70
4
71
3
72
12
73
8
40
0
40
0
40
0
40
0
40
0.24999999999999
40
0.24999999999999
40
0.499999999999979
40
0.499999999999979
40
1
40
1
40
1
40
1
41
1
10
50.6560780818729
20
-2.8810678726291
30
0
41
1
10
50.6146355757226
20
-2.8411021499432
30
0
41
1
10
50.5720238979122
20
-2.80330533846259
30
0
41
1
10
50.4844535044798
20
-2.73195175009795
30
0
41
1
10
50.4394646068827
20
-2.69841330725609
30
0
41
1
10
50.301318491336
20
-2.60425096314188
30
0
41
1
10
50.2051122224959
20
-2.54998552325824
30
0
41
1
10
50.1060780818729
20
-2.50462577858622
30
0
0
SPLINE
5
1B9
100
AcDbEntity
8
1
62
256
6
ByLayer
370
18
48
1
60
0
100
AcDbSpline
70
4
71
3
72
61
73
57
40
0
40
0
40
0
40
0
40
0.0624999999999969
40
0.0624999999999969
40
0.0937499999999954
40
0.0937499999999954
40
0.124999999999994
40
0.124999999999994
40
0.187499999999991
40
0.187499999999991
40
0.218749999999988
40
0.218749999999988
40
0.234374999999986
40
0.234374999999986
40
0.249999999999985
40
0.249999999999985
40
0.312499999999982
40
0.312499999999982
40
0.374999999999979
40
0.374999999999979
40
0.406249999999976
40
0.406249999999976
40
0.437499999999973
40
0.437499999999973
40
0.46874999999997
40
0.48437499999997
40
0.48437499999997
40
0.49999999999997
40
0.49999999999997
40
0.562499999999972
40
0.562499999999972
40
0.593749999999975
40
0.593749999999975
40
0.624999999999978
40
0.624999999999978
40
0.687499999999983
40
0.687499999999983
40
0.718749999999987
40
0.718749999999987
40
0.734374999999989
40
0.734374999999989
40
0.749999999999991
40
0.749999999999991
40
0.812499999999993
40
0.812499999999993
40
0.874999999999996
40
0.874999999999996
40
0.906249999999997
40
0.906249999999997
40
0.937499999999998
40
0.937499999999998
40
0.968749999999999
40
0.968749999999999
40
0.984374999999999
40
0.984374999999999
40
1
40
1
40
1
40
1
41
1
10
50.1060780818729
20
-2.50462577858622
30
0
41
1
10
49.9115996363288
20
-2.41555051041507
30
0
41
1
10
49.7185517509929
20
-2.31842854831109
30
0
41
1
10
49.4295770979411
20
-2.16243050497729
30
0
41
1
10
49.333332614491
20
-2.10873507151723
30
0
41
1
10
49.1412152381012
20
-1.99777066163273
30
0
41
1
10
49.045287993815
20
-1.94055107534399
30
0
41
1
10
48.7575153913294
20
-1.76406617245078
30
0
41
1
10
48.565751056477
20
-1.63989991463419
30
0
41
1
10
48.2768957584572
20
-1.44521794326403
30
0
41
1
10
48.1804168181645
20
-1.37890888534923
30
0
41
1
10
48.0351677827713
20
-1.27758168182305
30
0
41
1
10
47.9866576366175
20
-1.24350216955483
30
0
41
1
10
47.8894251238133
20
-1.17476220103788
30
0
41
1
10
47.840672241084
20
-1.14004851009122
30
0
41
1
10
47.5976004003606
20
-0.965665584153641
30
0
41
1
10
47.4046869822598
20
-0.823046957635057
30
0
41
1
10
47.020235635778
20
-0.533830955011041
30
0
41
1
10
46.8287164599335
20
-0.387207874698333
30
0
41
1
10
46.5409135069123
20
-0.166330777519363
30
0
41
1
10
46.4448400566521
20
-0.0926166119836864
30
0
41
1
10
46.2524014001804
20
0.0549697531831157
30
0
41
1
10
46.1561090560455
20
0.128938614852785
30
0
41
1
10
45.9631785050456
20
0.276970848932109
30
0
41
1
10
45.8182180436782
20
0.388061753238077
30
0
41
1
10
45.6726096666411
20
0.498925233519998
30
0
41
1
10
45.5753637219577
20
0.57274533184173
30
0
41
1
10
45.5268226938974
20
0.609482907158366
30
0
41
1
10
45.2845400265232
20
0.792160897583784
30
0
41
1
10
45.0920381703746
20
0.935215529292236
30
0
41
1
10
44.8034416155633
20
1.1430688882389
30
0
41
1
10
44.7073240478388
20
1.21130480543687
30
0
41
1
10
44.5153422781364
20
1.34579628171861
30
0
41
1
10
44.4194375634211
20
1.4120011286245
30
0
41
1
10
44.1316617349868
20
1.60709800869287
30
0
41
1
10
43.939754251113
20
1.73249883994714
30
0
41
1
10
43.6503428063216
20
1.9118286517625
30
0
41
1
10
43.5536210843864
20
1.97015060917957
30
0
41
1
10
43.4078794322209
20
2.05513434246117
30
0
41
1
10
43.3591272411377
20
2.08307282506578
30
0
41
1
10
43.2618512281434
20
2.13792732875712
30
0
41
1
10
43.2133003181297
20
2.16485492293955
30
0
41
1
10
42.970991778654
20
2.29702738259252
30
0
41
1
10
42.7785214827043
20
2.39482164985009
30
0
41
1
10
42.3945127216827
20
2.57324723953349
30
0
41
1
10
42.2030261586924
20
2.65391429090474
30
0
41
1
10
41.9150730921361
20
2.76108417435162
30
0
41
1
10
41.8188908338475
20
2.79445916643345
30
0
41
1
10
41.6262362926532
20
2.85656887680139
30
0
41
1
10
41.5298206697154
20
2.88533059326744
30
0
41
1
10
41.3365602740733
20
2.93804986087002
30
0
41
1
10
41.2397146202654
20
2.96200710008307
30
0
41
1
10
41.0939341247415
20
2.9941816534417
30
0
41
1
10
41.0453326938831
20
3.00426121023165
30
0
41
1
10
40.9483776671595
20
3.02306692623011
30
0
41
1
10
40.8999797366744
20
3.03180303792863
30
0
41
1
10
40.8516464112211
20
3.03987426589418
30
0
0
SPLINE
5
1BA
100
AcDbEntity
8
1
62
256
6
ByLayer
370
18
48
1
60
0
100
AcDbSpline
70
4
71
3
72
26
73
22
40
0
40
0
40
0
40
0
40
0.0858440453414931
40
0.0858440453414931
40
0.269458404816939
40
0.269458404816939
40
0.361265584554663
40
0.361265584554663
40
0.453072764292387
40
0.453072764292387
40
0.544879944030112
40
0.544879944030112
40
0.636687123767836
40
0.636687123767836
40
0.72849430350556
40
0.72849430350556
40
0.820301483243284
40
0.820301483243284
40
0.912108662981009
40
0.912108662981009
40
1
40
1
40
1
40
1
41
1
10
40.8516468726597
20
3.03987461782012
30
0
41
1
10
40.8283545491735
20
2.97741177046578
30
0
41
1
10
40.8017076304315
20
2.91337787232368
30
0
41
1
10
40.7077239561564
20
2.70753706037058
30
0
41
1
10
40.6272402412505
20
2.55834298866893
30
0
41
1
10
40.4878584001319
20
2.33733587669511
30
0
41
1
10
40.4376958038073
20
2.26312412848952
30
0
41
1
10
40.3311075994426
20
2.11682751573972
30
0
41
1
10
40.2756678418947
20
2.04605421421573
30
0
41
1
10
40.1602974388762
20
1.90947853090353
30
0
41
1
10
40.0999375073233
20
1.84345754419155
30
0
41
1
10
39.977810824255
20
1.71614302035934
30
0
41
1
10
39.9164480751177
20
1.65581503248927
30
0
41
1
10
39.7930936961955
20
1.54215191864466
30
0
41
1
10
39.7305385469637
20
1.48838779732344
30
0
41
1
10
39.6080083356921
20
1.3912050457007
30
0
41
1
10
39.5480789746743
20
1.34773082777735
30
0
41
1
10
39.4309445498216
20
1.27121901179979
30
0
41
1
10
39.3734272678449
20
1.23803803064595
30
0
41
1
10
39.2650753358552
20
1.18479189453973
30
0
41
1
10
39.2150503070148
20
1.16466792364645
30
0
41
1
10
39.1678248033431
20
1.15012244874669
30
0
0
SPLINE
5
1BB
100
AcDbEntity
8
1
62
256
6
ByLayer
370
18
48
1
60
0
100
AcDbSpline
70
4
71
3
72
98
73
94
40
0
40
0
40
0
40
0
40
0.0159129250004298
40
0.0159129250004298
40
0.0318258500008596
40
0.0318258500008596
40
0.0636517000017215
40
0.0636517000017215
40
0.0954775500025834
40
0.0954775500025834
40
0.127303400003445
40
0.127303400003445
40
0.143216325003876
40
0.143216325003876
40
0.159129250004307
40
0.159129250004307
40
0.175042175004738
40
0.175042175004738
40
0.190955100005169
40
0.190955100005169
40
0.254606800006891
40
0.254606800006891
40
0.27051972500732
40
0.27051972500732
40
0.286432650007748
40
0.286432650007748
40
0.302345575008177
40
0.302345575008177
40
0.318258500008606
40
0.318258500008606
40
0.350084350009465
40
0.350084350009465
40
0.365997275009894
40
0.373953737510108
40
0.373953737510108
40
0.381910200010322
40
0.381910200010322
40
0.41373605001118
40
0.41373605001118
40
0.429648975011608
40
0.429648975011608
40
0.445561900012037
40
0.445561900012037
40
0.477387750012892
40
0.477387750012892
40
0.509213600013747
40
0.509213600013747
40
0.541039450014602
40
0.541039450014602
40
0.556952375015031
40
0.556952375015031
40
0.57286530001546
40
0.57286530001546
40
0.580821762515674
40
0.580821762515674
40
0.588778225015888
40
0.604691150016315
40
0.604691150016315
40
0.636517000017168
40
0.636517000017168
40
0.668342850018021
40
0.668342850018021
40
0.684255775018447
40
0.684255775018447
40
0.700168700018873
40
0.700168700018873
40
0.731994550019724
40
0.731994550019724
40
0.763820400020575
40
0.763820400020575
40
0.771776862520787
40
0.771776862520787
40
0.779733325021
40
0.779733325021
40
0.795646250021425
40
0.795646250021425
40
0.827472100022273
40
0.827472100022273
40
0.843385025022697
40
0.843385025022697
40
0.859297950023122
40
0.859297950023122
40
0.89112380002397
40
0.89112380002397
40
0.922949650024818
40
0.922949650024818
40
0.954775500025666
40
0.954775500025666
40
0.97068842502609
40
0.97068842502609
40
0.986601350026515
40
0.986601350026515
40
1
40
1
40
1
40
1
41
1
10
38.6302243468034
20
1.5324784016687
30
0
41
1
10
38.6900811252729
20
1.4922612975877
30
0
41
1
10
38.7497808090182
20
1.4515461647234
30
0
41
1
10
38.8689516993112
20
1.36922239739155
30
0
41
1
10
38.9284604267903
20
1.32765773629635
30
0
41
1
10
39.1072587864688
20
1.20237739999269
30
0
41
1
10
39.226492621788
20
1.11768503913342
30
0
41
1
10
39.4649427294746
20
0.945901721468942
30
0
41
1
10
39.5841869985496
20
0.858845401692633
30
0
41
1
10
39.8226430950276
20
0.682308778948993
30
0
41
1
10
39.9418676255324
20
0.592843745247166
30
0
41
1
10
40.1207873742454
20
0.456923062429382
30
0
41
1
10
40.1804393492727
20
0.411326378547642
30
0
41
1
10
40.2997687952671
20
0.31954306503593
30
0
41
1
10
40.3594072922091
20
0.273303000944168
30
0
41
1
10
40.4791420158656
20
0.180803270199391
30
0
41
1
10
40.5392608482292
20
0.134576220860367
30
0
41
1
10
40.6598219968376
20
0.0419250938215612
30
0
41
1
10
40.7200871267009
20
-0.0043164217960054
30
0
41
1
10
41.0208203918134
20
-0.234629552644861
30
0
41
1
10
41.2600845240408
20
-0.416495168990196
30
0
41
1
10
41.5578486566803
20
-0.640537518716258
30
0
41
1
10
41.6173333952716
20
-0.685182969693983
30
0
41
1
10
41.7361424484465
20
-0.774175231337182
30
0
41
1
10
41.7954390389862
20
-0.81855707394854
30
0
41
1
10
41.9140334132448
20
-0.906809820188158
30
0
41
1
10
41.9733732780395
20
-0.950627348035539
30
0
41
1
10
42.0923256911104
20
-1.03741267001206
30
0
41
1
10
42.1519122724864
20
-1.08041362979512
30
0
41
1
10
42.3309356635063
20
-1.20832926049317
30
0
41
1
10
42.4506083990776
20
-1.29219136792864
30
0
41
1
10
42.6307256051953
20
-1.41569547370776
30
0
41
1
10
42.7209362414392
20
-1.47687494480758
30
0
41
1
10
42.8113890049648
20
-1.53717146287965
30
0
41
1
10
42.871745625174
20
-1.57717064316273
30
0
41
1
10
42.901949994277
20
-1.59706957750194
30
0
41
1
10
43.0526542049602
20
-1.6957610730347
30
0
41
1
10
43.1725576647484
20
-1.77240475079577
30
0
41
1
10
43.3514853061268
20
-1.8838516475326
30
0
41
1
10
43.4109825208162
20
-1.92040114487474
30
0
41
1
10
43.5299943872353
20
-1.99198881203546
30
0
41
1
10
43.5895475721105
20
-2.02698993140899
30
0
41
1
10
43.7682266996342
20
-2.12978125014928
30
0
41
1
10
43.887340129642
20
-2.19539121593772
30
0
41
1
10
44.1256879811033
20
-2.32072878859276
30
0
41
1
10
44.2449233119276
20
-2.38045767910251
30
0
41
1
10
44.4834953558951
20
-2.49401353314693
30
0
41
1
10
44.6028133837954
20
-2.54785423472526
30
0
41
1
10
44.7819342300387
20
-2.62400190325499
30
0
41
1
10
44.8416423631598
20
-2.64862999148116
30
0
41
1
10
44.9612911763398
20
-2.69618698478297
30
0
41
1
10
45.0212679046057
20
-2.71909154443551
30
0
41
1
10
45.1115623426741
20
-2.75206903551765
30
0
41
1
10
45.1417314232497
20
-2.76284213946707
30
0
41
1
10
45.2020049475554
20
-2.78388093781038
30
0
41
1
10
45.292354800463
20
-2.81469119544585
30
0
41
1
10
45.3824980138976
20
-2.84329673617248
30
0
41
1
10
45.5625353021684
20
-2.89759898572794
30
0
41
1
10
45.6822252858544
20
-2.92992807664408
30
0
41
1
10
45.9210417350401
20
-2.98691175986591
30
0
41
1
10
46.0401791504802
20
-3.01156262581006
30
0
41
1
10
46.2185132961812
20
-3.04274086474001
30
0
41
1
10
46.2778948617868
20
-3.05216618564668
30
0
41
1
10
46.3965555542009
20
-3.0690568776472
30
0
41
1
10
46.4558253484926
20
-3.07652169431881
30
0
41
1
10
46.6339330996506
20
-3.09586552940573
30
0
41
1
10
46.7531219786961
20
-3.10470263467039
30
0
41
1
10
46.9923715522421
20
-3.11434439183242
30
0
41
1
10
47.1123972772911
20
-3.11515137095717
30
0
41
1
10
47.2629348991919
20
-3.11105743988438
30
0
41
1
10
47.2930694482247
20
-3.10998310517272
30
0
41
1
10
47.3533958995277
20
-3.10731987549269
30
0
41
1
10
47.3836090257361
20
-3.105729616258
30
0
41
1
10
47.4741753610181
20
-3.10019147676294
30
0
41
1
10
47.5344033661621
20
-3.09548280193187
30
0
41
1
10
47.7145822337188
20
-3.0783174095329
30
0
41
1
10
47.8339495281583
20
-3.06279774116822
30
0
41
1
10
48.0124489765147
20
-3.03353962331815
30
0
41
1
10
48.071927483001
20
-3.02281145197682
30
0
41
1
10
48.1909642180012
20
-2.99947549778796
30
0
41
1
10
48.2505028011691
20
-2.98686251122223
30
0
41
1
10
48.4291263752429
20
-2.94620278657885
30
0
41
1
10
48.5482160411752
20
-2.9153355723295
30
0
41
1
10
48.7865517223362
20
-2.84618727102244
30
0
41
1
10
48.9057832211305
20
-2.80789954274721
30
0
41
1
10
49.1444878856972
20
-2.72386230374812
30
0
41
1
10
49.2640061247084
20
-2.67814614246353
30
0
41
1
10
49.4434115277994
20
-2.60374723759273
30
0
41
1
10
49.503291077151
20
-2.57801331778023
30
0
41
1
10
49.6234037812405
20
-2.52480663947301
30
0
41
1
10
49.6836762434627
20
-2.49731259616783
30
0
41
1
10
49.794704064183
20
-2.44529203030692
30
0
41
1
10
49.8454840808147
20
-2.42096939619606
30
0
41
1
10
49.896291930837
20
-2.39610566033909
30
0
0
SPLINE
5
1BC
100
AcDbEntity
8
1
62
256
6
ByLayer
370
18
48
1
60
0
100
AcDbSpline
70
4
71
3
72
14
73
10
40
0
40
0
40
0
40
0
40
0.25
40
0.25
40
0.5
40
0.5
40
0.75
40
0.75
40
1
40
1
40
1
40
1
41
1
10
63.7880248476344
20
1.96029770006109
30
0
41
1
10
63.8617179090467
20
1.89875141167354
30
0
41
1
10
63.935982571351
20
1.8364658320522
30
0
41
1
10
64.0844554000311
20
1.7116298155137
30
0
41
1
10
64.1587600850043
20
1.64902337809005
30
0
41
1
10
64.3075874776915
20
1.52354057898788
30
0
41
1
10
64.3821076927802
20
1.46066161738762
30
0
41
1
10
64.5313839880272
20
1.33466726636991
30
0
41
1
10
64.6061054182724
20
1.27151368241781
30
0
41
1
10
64.6810452439706
20
1.20835652151015
30
0
0
SPLINE
5
1BD
100
AcDbEntity
8
1
62
256
6
ByLayer
370
18
48
1
60
0
100
AcDbSpline
70
4
71
3
72
22
73
18
40
0
40
0
40
0
40
0
40
0.125000000000082
40
0.125000000000082
40
0.187500000000083
40
0.187500000000083
40
0.250000000000084
40
0.250000000000084
40
0.375000000000086
40
0.375000000000086
40
0.500000000000087
40
0.500000000000087
40
0.625000000000089
40
0.625000000000089
40
0.75000000000009
40
0.75000000000009
40
1
40
1
40
1
40
1
41
1
10
64.6810452439706
20
1.20835652151018
30
0
41
1
10
64.68877259225
20
1.19901085762663
30
0
41
1
10
64.6973111136691
20
1.18951201558622
30
0
41
1
10
64.7111385496935
20
1.17505474183363
30
0
41
1
10
64.7159381177249
20
1.1701828845645
30
0
41
1
10
64.7256816576455
20
1.16054579045462
30
0
41
1
10
64.7306429655246
20
1.15576148723531
30
0
41
1
10
64.7457670139115
20
1.14149673625695
30
0
41
1
10
64.7561680034809
20
1.13210374787701
30
0
41
1
10
64.777517582085
20
1.11349818623154
30
0
41
1
10
64.7885033472623
20
1.10425982436703
30
0
41
1
10
64.8104085281491
20
1.08639033533956
30
0
41
1
10
64.8213960538887
20
1.07769833346586
30
0
41
1
10
64.8434156053289
20
1.06075363676473
30
0
41
1
10
64.8545175939776
20
1.05245127298718
30
0
41
1
10
64.8872087851639
20
1.02867152103352
30
0
41
1
10
64.9082429344731
20
1.01423411542623
30
0
41
1
10
64.9283632555187
20
1.00137563675693
30
0
0
SPLINE
5
1BE
100
AcDbEntity
8
1
62
256
6
ByLayer
370
18
48
1
60
0
100
AcDbSpline
70
4
71
3
72
8
73
4
40
0
40
0
40
0
40
0
40
1
40
1
40
1
40
1
41
1
10
64.9283632555185
20
1.00137563675688
30
0
41
1
10
65.0328038841789
20
0.914833804858887
30
0
41
1
10
65.138150832928
20
0.828846634655804
30
0
41
1
10
65.2444456520355
20
0.743486335172747
30
0
0
SPLINE
5
1BF
100
AcDbEntity
8
1
62
256
6
ByLayer
370
18
48
1
60
0
100
AcDbSpline
70
4
71
3
72
8
73
4
40
0
40
0
40
0
40
0
40
1
40
1
40
1
40
1
41
1
10
65.5500000000046
20
0.497348690087648
30
0
41
1
10
65.4447396331482
20
0.56926763645717
30
0
41
1
10
65.3433451116086
20
0.651887175667554
30
0
41
1
10
65.2444456520326
20
0.743486335174254
30
0
0
SPLINE
5
1C0
100
AcDbEntity
8
1
62
256
6
ByLayer
370
18
48
1
60
0
100
AcDbSpline
70
4
71
3
72
8
73
4
40
0
40
0
40
0
40
0
40
1
40
1
40
1
40
1
41
1
10
60.7742366020366
20
-4.06285533570349
30
0
41
1
10
60.8157741167566
20
-4.06393200593749
30
0
41
1
10
60.8573140081575
20
-4.06436626780072
30
0
41
1
10
60.8988664390794
20
-4.06415749477358
30
0
0
SPLINE
5
1C1
100
AcDbEntity
8
1
62
256
6
ByLayer
370
18
48
1
60
0
100
AcDbSpline
70
4
71
3
72
8
73
4
40
0
40
0
40
0
40
0
40
1
40
1
40
1
40
1
41
1
10
59.4602489209599
20
-3.81708161769143
30
0
41
1
10
59.5014619767023
20
-3.83129452235971
30
0
41
1
10
59.5426786211079
20
-3.8449135089289
30
0
41
1
10
59.5839088708856
20
-3.85793491333078
30
0
0
SPLINE
5
1C2
100
AcDbEntity
8
1
62
256
6
ByLayer
370
18
48
1
60
0
100
AcDbSpline
70
4
71
3
72
28
73
24
40
0
40
0
40
0
40
0
40
0.125
40
0.125
40
0.25
40
0.25
40
0.375
40
0.375
40
0.5
40
0.5
40
0.625
40
0.625
40
0.6875
40
0.6875
40
0.75
40
0.75
40
0.8125
40
0.8125
40
0.875
40
0.875
40
0.9375
40
0.9375
40
1
40
1
40
1
40
1
41
1
10
53.7609714190106
20
0.785003824411035
30
0
41
1
10
53.7520979144924
20
0.792635483769857
30
0
41
1
10
53.74179459667
20
0.801246661197581
30
0
41
1
10
53.7189623735921
20
0.819948971750875
30
0
41
1
10
53.7063057602395
20
0.83014057145752
30
0
41
1
10
53.6798317433298
20
0.851197567463743
30
0
41
1
10
53.6659442988153
20
0.862122246268115
30
0
41
1
10
53.6369491571044
20
0.884776025988316
30
0
41
1
10
53.6217052957244
20
0.896609379279823
30
0
41
1
10
53.5910468763942
20
0.920363790051766
30
0
41
1
10
53.5755446820261
20
0.932353396123602
30
0
41
1
10
53.5520470942666
20
0.950594789131827
30
0
41
1
10
53.5441735086226
20
0.956718572365332
30
0
41
1
10
53.5283409711594
20
0.969077540585573
30
0
41
1
10
53.5204868136532
20
0.975231200501952
30
0
41
1
10
53.505065090403
20
0.987381697288015
30
0
41
1
10
53.4974757215389
20
0.99339545774879
30
0
41
1
10
53.4825852303743
20
1.0052900417829
30
0
41
1
10
53.4752480078729
20
1.01120102917969
30
0
41
1
10
53.4613833328069
20
1.02249675575302
30
0
41
1
10
53.4548035965104
20
1.02792267992675
30
0
41
1
10
53.4424666488674
20
1.03825623787077
30
0
41
1
10
53.4367213205102
20
1.04315578634066
30
0
41
1
10
53.4316516130271
20
1.04758172783647
30
0
0
SPLINE
5
1C3
100
AcDbEntity
8
1
62
256
6
ByLayer
370
18
48
1
60
0
100
AcDbSpline
70
4
71
3
72
12
73
8
40
0
40
0
40
0
40
0
40
0.500000000000012
40
0.500000000000012
40
0.750000000000006
40
0.750000000000006
40
1
40
1
40
1
40
1
41
1
10
53.4316516130271
20
1.0475817278365
30
0
41
1
10
53.3607170568336
20
1.10950881076874
30
0
41
1
10
53.2901436470878
20
1.17710023310269
30
0
41
1
10
53.1849634107614
20
1.28631689090662
30
0
41
1
10
53.1500122538981
20
1.32402895898832
30
0
41
1
10
53.0804060221889
20
1.40186609984539
30
0
41
1
10
53.0457345639046
20
1.44200785214454
30
0
41
1
10
53.011172433749
20
1.48334456844725
30
0
0
SPLINE
5
1C4
100
AcDbEntity
8
1
62
256
6
ByLayer
370
18
48
1
60
0
100
AcDbSpline
70
4
71
3
72
8
73
4
40
0
40
0
40
0
40
0
40
1
40
1
40
1
40
1
41
1
10
52.8863384937595
20
1.59940668427822
30
0
41
1
10
52.9279434267484
20
1.56097027623124
30
0
41
1
10
52.9695511859219
20
1.52227967964845
30
0
41
1
10
53.011172433749
20
1.48334456844725
30
0
0
SPLINE
5
1C5
100
AcDbEntity
8
1
62
256
6
ByLayer
370
18
48
1
60
0
100
AcDbSpline
70
4
71
3
72
10
73
6
40
0
40
0
40
0
40
0
40
0.5
40
0.5
40
1
40
1
40
1
40
1
41
1
10
52.8863384937595
20
1.59940668427816
30
0
41
1
10
52.8140343543402
20
1.64439308051328
30
0
41
1
10
52.741320476088
20
1.68258893615291
30
0
41
1
10
52.5945632360456
20
1.74486328908677
30
0
41
1
10
52.5207720768908
20
1.76881871706689
30
0
41
1
10
52.4462986061431
20
1.78537264318914
30
0
0
SPLINE
5
1C6
100
AcDbEntity
8
1
62
256
6
ByLayer
370
18
48
1
60
0
100
AcDbSpline
70
4
71
3
72
30
73
26
40
0
40
0
40
0
40
0
40
0.125
40
0.125
40
0.25
40
0.25
40
0.375
40
0.375
40
0.4375
40
0.4375
40
0.5
40
0.5
40
0.624999999999998
40
0.624999999999998
40
0.687499999999998
40
0.687499999999998
40
0.749999999999998
40
0.749999999999998
40
0.812499999999998
40
0.812499999999998
40
0.874999999999998
40
0.874999999999998
40
0.937499999999999
40
0.937499999999999
40
1
40
1
40
1
40
1
41
1
10
52.4462986061431
20
1.78537264318914
30
0
41
1
10
52.4374483700977
20
1.78733986926562
30
0
41
1
10
52.427173248471
20
1.79077590343951
30
0
41
1
10
52.4043998611044
20
1.79988607811438
30
0
41
1
10
52.3917846327426
20
1.80563304294523
30
0
41
1
10
52.365298497266
20
1.81883835208242
30
0
41
1
10
52.3513659912376
20
1.82631475162012
30
0
41
1
10
52.3294798819588
20
1.83884312458355
30
0
41
1
10
52.3220173428054
20
1.8432427923218
30
0
41
1
10
52.307018264575
20
1.85234691925584
30
0
41
1
10
52.2994502861987
20
1.85706899909334
30
0
41
1
10
52.2765479926526
20
1.87176681174026
30
0
41
1
10
52.2610182786877
20
1.88226256651319
30
0
41
1
10
52.2373128412529
20
1.89930571165729
30
0
41
1
10
52.2293390164434
20
1.9052110447636
30
0
41
1
10
52.2136255439194
20
1.91724019456151
30
0
41
1
10
52.2058407682639
20
1.92339546471069
30
0
41
1
10
52.1904404790163
20
1.9360305503838
30
0
41
1
10
52.1828043134295
20
1.94252797296187
30
0
41
1
10
52.1678267739453
20
1.95584120387557
30
0
41
1
10
52.1606106767055
20
1.96254470726816
30
0
41
1
10
52.1467941304131
20
1.97606198393399
30
0
41
1
10
52.1401676127797
20
1.98290311431026
30
0
41
1
10
52.1277665049869
20
1.99660026684967
30
0
41
1
10
52.1220987559912
20
2.0033354334677
30
0
41
1
10
52.1170335060801
20
2.00993852281155
30
0
0
SPLINE
5
1C7
100
AcDbEntity
8
1
62
256
6
ByLayer
370
18
48
1
60
0
100
AcDbSpline
70
4
71
3
72
10
73
6
40
0
40
0
40
0
40
0
40
0.5
40
0.5
40
1
40
1
40
1
40
1
41
1
10
52.1170335060801
20
2.00993852281155
30
0
41
1
10
52.0612725875673
20
2.08262878159437
30
0
41
1
10
52.0057363136097
20
2.15802553731498
30
0
41
1
10
51.8952187826496
20
2.3137061864746
30
0
41
1
10
51.8402264682601
20
2.39400474934351
30
0
41
1
10
51.785596240499
20
2.47638401355621
30
0
0
SPLINE
5
1C8
100
AcDbEntity
8
1
62
256
6
ByLayer
370
18
48
1
60
0
100
AcDbSpline
70
4
71
3
72
8
73
4
40
0
40
0
40
0
40
0
40
1
40
1
40
1
40
1
41
1
10
51.7855962404903
20
2.47638401357099
30
0
41
1
10
51.6273824830919
20
2.55357557076326
30
0
41
1
10
51.4683491804219
20
2.61569445241207
30
0
41
1
10
51.3072349065146
20
2.66236948520336
30
0
0
SPLINE
5
1C9
100
AcDbEntity
8
1
62
256
6
ByLayer
370
18
48
1
60
0
100
AcDbSpline
70
4
71
3
72
8
73
4
40
0
40
0
40
0
40
0
40
1
40
1
40
1
40
1
41
1
10
51.3072349065146
20
2.66236948520339
30
0
41
1
10
51.2490462784071
20
2.64573531010973
30
0
41
1
10
51.1905831138517
20
2.62469784637111
30
0
41
1
10
51.1317107898441
20
2.59909148882045
30
0
0
SPLINE
5
1CA
100
AcDbEntity
8
1
62
256
6
ByLayer
370
18
48
1
60
0
100
AcDbSpline
70
4
71
3
72
30
73
26
40
0
40
0
40
0
40
0
40
0.125
40
0.125
40
0.25
40
0.25
40
0.375000000000001
40
0.375000000000001
40
0.4375
40
0.4375
40
0.499999999999999
40
0.499999999999999
40
0.624999999999998
40
0.624999999999998
40
0.687499999999998
40
0.687499999999998
40
0.749999999999999
40
0.749999999999999
40
0.812499999999999
40
0.812499999999999
40
0.874999999999999
40
0.874999999999999
40
0.9375
40
0.9375
40
1
40
1
40
1
40
1
41
1
10
51.1317107898441
20
2.59909148882045
30
0
41
1
10
51.123013605326
20
2.59530867201804
30
0
41
1
10
51.1129415126908
20
2.5932770541437
30
0
41
1
10
51.0906479943905
20
2.59189432364104
30
0
41
1
10
51.0782978116984
20
2.59258860910592
30
0
41
1
10
51.0524403751866
20
2.5963778937145
30
0
41
1
10
51.0388799254247
20
2.59945249637295
30
0
41
1
10
51.0176541186731
20
2.60578093656113
30
0
41
1
10
51.0104299164711
20
2.60817957917934
30
0
41
1
10
50.9956773884084
20
2.61358408608541
30
0
41
1
10
50.9881830438403
20
2.61657985717758
30
0
41
1
10
50.9656598183415
20
2.6263441584826
30
0
41
1
10
50.950473817255
20
2.63391833456291
30
0
41
1
10
50.9274565586853
20
2.64711331836696
30
0
41
1
10
50.9197441017736
20
2.65182015973036
30
0
41
1
10
50.9042370804008
20
2.66194290620396
30
0
41
1
10
50.8964517434869
20
2.66735836474965
30
0
41
1
10
50.881205191239
20
2.67871413259618
30
0
41
1
10
50.8736959023797
20
2.68468400642945
30
0
41
1
10
50.8589435967229
20
2.69729387218365
30
0
41
1
10
50.8516453738854
20
2.70398902594283
30
0
41
1
10
50.8376751133663
20
2.71789468429509
30
0
41
1
10
50.8310213417614
20
2.72507727619697
30
0
41
1
10
50.8184684072639
20
2.73996604103257
30
0
41
1
10
50.8125283662724
20
2.7477356551446
30
0
41
1
10
50.8071888681395
20
2.75561107049435
30
0
0
SPLINE
5
1CB
100
AcDbEntity
8
1
62
256
6
ByLayer
370
18
48
1
60
0
100
AcDbSpline
70
4
71
3
72
8
73
4
40
0
40
0
40
0
40
0
40
1
40
1
40
1
40
1
41
1
10
50.8071888681395
20
2.75561107049447
30
0
41
1
10
50.7571415856875
20
2.75983807994049
30
0
41
1
10
50.7067785587028
20
2.76260134112249
30
0
41
1
10
50.656078081873
20
2.76388684014898
30
0
0
SPLINE
5
1CC
100
AcDbEntity
8
1
62
256
6
ByLayer
370
18
48
1
60
0
100
AcDbSpline
70
4
71
3
72
12
73
8
40
0
40
0
40
0
40
0
40
0.25
40
0.25
40
0.5
40
0.5
40
1
40
1
40
1
40
1
41
1
10
50.6560780818729
20
2.76388684014898
30
0
41
1
10
50.6146355757214
20
2.76493760544048
30
0
41
1
10
50.5720238979242
20
2.76753920596627
30
0
41
1
10
50.4844535044898
20
2.77568332921487
30
0
41
1
10
50.4394646068916
20
2.78120893783836
30
0
41
1
10
50.3013184913414
20
2.80284225548283
30
0
41
1
10
50.2051122224986
20
2.82405633529083
30
0
41
1
10
50.1060780818729
20
2.85455620689692
30
0
0
SPLINE
5
1CD
100
AcDbEntity
8
1
62
256
6
ByLayer
370
18
48
1
60
0
100
AcDbSpline
70
4
71
3
72
33
73
29
40
0
40
0
40
0
40
0
40
0.12897816115888
40
0.12897816115888
40
0.19346724173832
40
0.19346724173832
40
0.25795632231776
40
0.25795632231776
40
0.38693448347664
40
0.38693448347664
40
0.451423564056077
40
0.451423564056077
40
0.483668104345799
40
0.483668104345799
40
0.51591264463552
40
0.51591264463552
40
0.644890805794412
40
0.644890805794412
40
0.773868966953304
40
0.773868966953304
40
0.838358047532749
40
0.838358047532749
40
0.902847128112195
40
0.902847128112195
40
0.967336208691641
40
0.999580748981364
40
0.999580748981364
40
1
40
1
40
1
40
1
41
1
10
50.1060780818729
20
2.85455620689692
30
0
41
1
10
49.9115996363288
20
2.91445037654151
30
0
41
1
10
49.7185517509929
20
2.96396500899362
30
0
41
1
10
49.4295770979411
20
3.02262456334847
30
0
41
1
10
49.3333326144911
20
3.03957745542405
30
0
41
1
10
49.1412152381012
20
3.06838174641192
30
0
41
1
10
49.045287993815
20
3.08021184941523
30
0
41
1
10
48.7575153913294
20
3.10789341209772
30
0
41
1
10
48.565751056477
20
3.11594894400665
30
0
41
1
10
48.2768957584573
20
3.11210366373854
30
0
41
1
10
48.1804168181645
20
3.10816573762347
30
0
41
1
10
48.0351677827713
20
3.09824712499756
30
0
41
1
10
47.9866576366175
20
3.0942733624147
30
0
41
1
10
47.8894251238134
20
3.08498795027288
30
0
41
1
10
47.840672241084
20
3.07966709360519
30
0
41
1
10
47.5976004003606
20
3.04980846006131
30
0
41
1
10
47.4046869822598
20
3.01545452017618
30
0
41
1
10
47.020235635778
20
2.92676133255228
30
0
41
1
10
46.8287164599335
20
2.87240185665121
30
0
41
1
10
46.5409135069123
20
2.77674790392902
30
0
41
1
10
46.4448400566521
20
2.74254590936766
30
0
41
1
10
46.2524014001804
20
2.66952538222202
30
0
41
1
10
46.1561090560455
20
2.63065662851955
30
0
41
1
10
45.9631785050456
20
2.54826689888645
30
0
41
1
10
45.8182180436783
20
2.48298737677086
30
0
41
1
10
45.6726096666411
20
2.41256753312891
30
0
41
1
10
45.6233544870947
20
2.38821606805618
30
0
41
1
10
45.6227222937433
20
2.38790342706156
30
0
41
1
10
45.6220901142509
20
2.38759070457496
30
0
0
SPLINE
5
1CE
100
AcDbEntity
8
1
62
256
6
ByLayer
370
18
48
1
60
0
100
AcDbSpline
70
4
71
3
72
67
73
63
40
0
40
0
40
0
40
0
40
2.47523095281E-05
40
2.47523095281E-05
40
0.012370125737803
40
0.012370125737803
40
0.0617516194509103
40
0.0617516194509103
40
0.0864423663074658
40
0.0864423663074658
40
0.111133113164021
40
0.111133113164021
40
0.160514606877136
40
0.160514606877136
40
0.20989610059025
40
0.20989610059025
40
0.259277594303365
40
0.259277594303365
40
0.28396834115992
40
0.28396834115992
40
0.308659088016476
40
0.308659088016476
40
0.321004461444751
40
0.321004461444751
40
0.333349834873028
40
0.358040581729579
40
0.358040581729579
40
0.407422075442683
40
0.407422075442683
40
0.456803569155787
40
0.456803569155787
40
0.481494316012339
40
0.481494316012339
40
0.506185062868891
40
0.506185062868891
40
0.555566556581998
40
0.555566556581998
40
0.604948050295106
40
0.604948050295106
40
0.617293423723383
40
0.617293423723383
40
0.629638797151659
40
0.629638797151659
40
0.654329544008217
40
0.654329544008217
40
0.703711037721331
40
0.703711037721331
40
0.728401784577888
40
0.728401784577888
40
0.753092531434446
40
0.753092531434446
40
0.802474025147556
40
0.802474025147556
40
0.851855518860667
40
0.851855518860667
40
0.901237012573778
40
0.901237012573778
40
0.925927759430334
40
0.925927759430334
40
0.950618506286889
40
0.950618506286889
40
1
40
1
40
1
40
1
41
1
10
42.8413857940699
20
3.11384999661394
30
0
41
1
10
42.84144630096
20
3.11384999445474
30
0
41
1
10
42.8415068079602
20
3.11384999126258
30
0
41
1
10
42.8717456251752
20
3.1138478797433
30
0
41
1
10
42.9019499942782
20
3.11358835100393
30
0
41
1
10
43.0526542049615
20
3.11100736602703
30
0
41
1
10
43.1725576647497
20
3.10484357423704
30
0
41
1
10
43.351485306128
20
3.08947563288359
30
0
41
1
10
43.4109825208175
20
3.083329945157
30
0
41
1
10
43.5299943872365
20
3.06906439537553
30
0
41
1
10
43.5895475721118
20
3.06095620065256
30
0
41
1
10
43.7682266996356
20
3.03373275938142
30
0
41
1
10
43.8873401296434
20
3.01171020531535
30
0
41
1
10
44.1256879811048
20
2.96006499146947
30
0
41
1
10
44.244923311929
20
2.9304454652025
30
0
41
1
10
44.4834953558967
20
2.86354948115024
30
0
41
1
10
44.602813383797
20
2.82626176570741
30
0
41
1
10
44.7819342300402
20
2.76444672490669
30
0
41
1
10
44.8416423631615
20
2.74284433212586
30
0
41
1
10
44.9612911763415
20
2.6977556387566
30
0
41
1
10
45.0212679046074
20
2.67429391559753
30
0
41
1
10
45.1115623426758
20
2.63779360457374
30
0
41
1
10
45.1417314232514
20
2.62539667100029
30
0
41
1
10
45.2020049475572
20
2.60022561957544
30
0
41
1
10
45.2923548004649
20
2.56189079627688
30
0
41
1
10
45.3824980138995
20
2.52181817297327
30
0
41
1
10
45.5625353021703
20
2.43940757679016
30
0
41
1
10
45.6822252858562
20
2.38144766552864
30
0
41
1
10
45.921041735042
20
2.25966064613411
30
0
41
1
10
46.0401791504822
20
2.19584380086195
30
0
41
1
10
46.2185132961832
20
2.09574868642199
30
0
41
1
10
46.2778948617889
20
2.06165325867241
30
0
41
1
10
46.396555554203
20
1.99201246310892
30
0
41
1
10
46.4558253484947
20
1.95645581647904
30
0
41
1
10
46.6339330996528
20
1.84806390864384
30
0
41
1
10
46.7531219786984
20
1.77357398059974
30
0
41
1
10
46.9923715522444
20
1.62016077294126
30
0
41
1
10
47.1123972772934
20
1.54119822054812
30
0
41
1
10
47.2629348991942
20
1.43962222709524
30
0
41
1
10
47.2930694482271
20
1.41916515208263
30
0
41
1
10
47.3533958995301
20
1.37796875855744
30
0
41
1
10
47.3836090257385
20
1.35721474505769
30
0
41
1
10
47.4741753610205
20
1.29464390034747
30
0
41
1
10
47.5344033661645
20
1.25256486012324
30
0
41
1
10
47.7145822337213
20
1.1251654243593
30
0
41
1
10
47.8339495281608
20
1.03858302574727
30
0
41
1
10
48.0124489765172
20
0.906961210270794
30
0
41
1
10
48.0719274830035
20
0.862885609461443
30
0
41
1
10
48.1909642180038
20
0.774492824182715
30
0
41
1
10
48.2505028011716
20
0.73015079330861
30
0
41
1
10
48.4291263752455
20
0.596626069050473
30
0
41
1
10
48.5482160411779
20
0.506940962964933
30
0
41
1
10
48.786551722339
20
0.326425440238751
30
0
41
1
10
48.9057832211334
20
0.235576160268408
30
0
41
1
10
49.1444878857
20
0.0528274931010628
30
0
41
1
10
49.2640061247113
20
-0.0390110308059661
30
0
41
1
10
49.4434115278022
20
-0.177662282374285
30
0
41
1
10
49.503291077154
20
-0.22395305351003
30
0
41
1
10
49.6234037812434
20
-0.316417495394262
30
0
41
1
10
49.6836762434656
20
-0.362625781480915
30
0
41
1
10
49.8645035158647
20
-0.500472889415846
30
0
41
1
10
49.9852127455185
20
-0.591487850477279
30
0
41
1
10
50.1060780818729
20
-0.681628747453345
30
0
0
SPLINE
5
1CF
100
AcDbEntity
8
1
62
256
6
ByLayer
370
18
48
1
60
0
100
AcDbSpline
70
4
71
3
72
14
73
10
40
0
40
0
40
0
40
0
40
0.25
40
0.25
40
0.5
40
0.5
40
0.75
40
0.75
40
1
40
1
40
1
40
1
41
1
10
50.1060780818714
20
-0.681628747448997
30
0
41
1
10
50.1543470631626
20
-0.717627565645728
30
0
41
1
10
50.2021509165605
20
-0.754096579524202
30
0
41
1
10
50.2965904882522
20
-0.828268511335978
30
0
41
1
10
50.3432275467518
20
-0.865969868156839
30
0
41
1
10
50.4351450219745
20
-0.942833905642885
30
0
41
1
10
50.4804277140447
20
-0.981993922992984
30
0
41
1
10
50.5694553240579
20
-1.06198512519174
30
0
41
1
10
50.6132002040796
20
-1.10281656302922
30
0
41
1
10
50.6560780818729
20
-1.14459134667931
30
0
0
SPLINE
5
1D0
100
AcDbEntity
8
1
62
256
6
ByLayer
370
18
48
1
60
0
100
AcDbSpline
70
4
71
3
72
8
73
4
40
0
40
0
40
0
40
0
40
1
40
1
40
1
40
1
41
1
10
50.6560780818729
20
-1.14459134667931
30
0
41
1
10
50.7777675419429
20
-1.26315017301479
30
0
41
1
10
50.8982793353686
20
-1.38308759771709
30
0
41
1
10
51.0178812158195
20
-1.50414305796494
30
0
0
SPLINE
5
1D1
100
AcDbEntity
8
1
62
256
6
ByLayer
370
18
48
1
60
0
100
AcDbSpline
70
4
71
3
72
8
73
4
40
0
40
0
40
0
40
0
40
1
40
1
40
1
40
1
41
1
10
51.0178812158194
20
-1.504143057965
30
0
41
1
10
51.0409373338371
20
-1.50656973743574
30
0
41
1
10
51.0641182053878
20
-1.50796548124725
30
0
41
1
10
51.087518411386
20
-1.50789632558184
30
0
0
SPLINE
5
1D2
100
AcDbEntity
8
1
62
256
6
ByLayer
370
18
48
1
60
0
100
AcDbSpline
70
4
71
3
72
29
73
25
40
0
40
0
40
0
40
0
40
0.124999999999969
40
0.124999999999969
40
0.18749999999998
40
0.18749999999998
40
0.249999999999992
40
0.312500000000003
40
0.312500000000003
40
0.375000000000014
40
0.375000000000014
40
0.500000000000037
40
0.500000000000037
40
0.62500000000006
40
0.62500000000006
40
0.750000000000082
40
0.750000000000082
40
0.812500000000062
40
0.812500000000062
40
0.875000000000041
40
0.875000000000041
40
0.937500000000021
40
0.937500000000021
40
1
40
1
40
1
40
1
41
1
10
51.087518411386
20
-1.50789632558181
30
0
41
1
10
51.0971207005246
20
-1.50786794751133
30
0
41
1
10
51.1084777042896
20
-1.51003759136961
30
0
41
1
10
51.1274651298048
20
-1.51579099489362
30
0
41
1
10
51.1341666610434
20
-1.51815482829568
30
0
41
1
10
51.1478522780821
20
-1.52355962160152
30
0
41
1
10
51.1618794351613
20
-1.52965326807436
30
0
41
1
10
51.1765030128356
20
-1.53700189494793
30
0
41
1
10
51.1913987002736
20
-1.54495178276221
30
0
41
1
10
51.199018255045
20
-1.54924913761522
30
0
41
1
10
51.2219678015966
20
-1.5628656066994
30
0
41
1
10
51.2373518292159
20
-1.57286837088856
30
0
41
1
10
51.2682119721927
20
-1.59467744026793
30
0
41
1
10
51.2837837466229
20
-1.60657583175336
30
0
41
1
10
51.3138865267251
20
-1.63147235963655
30
0
41
1
10
51.3285407577894
20
-1.64454354163305
30
0
41
1
10
51.3498316284957
20
-1.66522484349935
30
0
41
1
10
51.356848213599
20
-1.67233776511037
30
0
41
1
10
51.3704411826855
20
-1.68679425428613
30
0
41
1
10
51.3769772906095
20
-1.69409127927284
30
0
41
1
10
51.3894819527289
20
-1.70883174123097
30
0
41
1
10
51.3954512694645
20
-1.71627504214206
30
0
41
1
10
51.4067329050358
20
-1.73132440679871
30
0
41
1
10
51.4120416669508
20
-1.73893323272483
30
0
41
1
10
51.4168309453731
20
-1.74644867283604
30
0
0
SPLINE
5
1D3
100
AcDbEntity
8
1
62
256
6
ByLayer
370
18
48
1
60
0
100
AcDbSpline
70
4
71
3
72
14
73
10
40
0
40
0
40
0
40
0
40
0.125000000000014
40
0.125000000000014
40
0.250000000000029
40
0.250000000000029
40
0.500000000000029
40
0.500000000000029
40
1
40
1
40
1
40
1
41
1
10
51.4168309453775
20
-1.74644867283541
30
0
41
1
10
51.4303058220527
20
-1.76759374308048
30
0
41
1
10
51.4437984249653
20
-1.78872058919131
30
0
41
1
10
51.4708057096138
20
-1.83097848509212
30
0
41
1
10
51.4843245140875
20
-1.85209451764351
30
0
41
1
10
51.5248161809449
20
-1.91579354886665
30
0
41
1
10
51.5517153745333
20
-1.95876250734702
30
0
41
1
10
51.6321788847718
20
-2.0890926226771
30
0
41
1
10
51.6854984549865
20
-2.17784488794152
30
0
41
1
10
51.738434654531
20
-2.26815533862521
30
0
0
SPLINE
5
1D4
100
AcDbEntity
8
1
62
256
6
ByLayer
370
18
48
1
60
0
100
AcDbSpline
70
4
71
3
72
8
73
4
40
0
40
0
40
0
40
0
40
1
40
1
40
1
40
1
41
1
10
51.7384346545311
20
-2.26815533862524
30
0
41
1
10
51.8227015562719
20
-2.36094909518178
30
0
41
1
10
51.9065446155832
20
-2.45430119198323
30
0
41
1
10
51.990083427118
20
-2.54810270830126
30
0
0
SPLINE
5
1D5
100
AcDbEntity
8
1
62
256
6
ByLayer
370
18
48
1
60
0
100
AcDbSpline
70
4
71
3
72
14
73
10
40
0
40
0
40
0
40
0
40
0.500000000000011
40
0.500000000000011
40
0.750000000000006
40
0.750000000000006
40
0.875000000000003
40
0.875000000000003
40
1
40
1
40
1
40
1
41
1
10
51.990083427118
20
-2.54810270830126
30
0
41
1
10
52.0575233521174
20
-2.53196864852419
30
0
41
1
10
52.1255032036053
20
-2.51029838024235
30
0
41
1
10
52.2284664214773
20
-2.46937743525277
30
0
41
1
10
52.2629121043409
20
-2.45433182765615
30
0
41
1
10
52.3147842745389
20
-2.42975543184315
30
0
41
1
10
52.3320945244525
20
-2.42130051843412
30
0
41
1
10
52.3668942600456
20
-2.40318793696818
30
0
41
1
10
52.3843910690817
20
-2.3934952632429
30
0
41
1
10
52.4020136143716
20
-2.38306262243302
30
0
0
SPLINE
5
1D6
100
AcDbEntity
8
1
62
256
6
ByLayer
370
18
48
1
60
0
100
AcDbSpline
70
4
71
3
72
29
73
25
40
0
40
0
40
0
40
0
40
0.125000000000017
40
0.125000000000017
40
0.187500000000025
40
0.187500000000025
40
0.250000000000033
40
0.31250000000004
40
0.31250000000004
40
0.375000000000048
40
0.375000000000048
40
0.500000000000062
40
0.500000000000062
40
0.625000000000077
40
0.625000000000077
40
0.750000000000091
40
0.750000000000091
40
0.812500000000069
40
0.812500000000069
40
0.875000000000046
40
0.875000000000046
40
0.937500000000023
40
0.937500000000023
40
1
40
1
40
1
40
1
41
1
10
52.4020136143716
20
-2.38306262243302
30
0
41
1
10
52.4116403066525
20
-2.37736356925419
30
0
41
1
10
52.4230308398779
20
-2.3742915783719
30
0
41
1
10
52.4420727318208
20
-2.3726635097118
30
0
41
1
10
52.4487916773339
20
-2.37263831553122
30
0
41
1
10
52.4625051250457
20
-2.37352590932716
30
0
41
1
10
52.4765581032329
20
-2.37533652795383
30
0
41
1
10
52.4912025815891
20
-2.37881744732735
30
0
41
1
10
52.5061164211648
20
-2.38309246409906
30
0
41
1
10
52.5137440651646
20
-2.38564187697645
30
0
41
1
10
52.5366931820125
20
-2.39434797761319
30
0
41
1
10
52.5520721910158
20
-2.40152842903245
30
0
41
1
10
52.5829168590515
20
-2.41851539694687
30
0
41
1
10
52.5984654616199
20
-2.42840316578597
30
0
41
1
10
52.6285194676793
20
-2.45024959342251
30
0
41
1
10
52.6431539847699
20
-2.46226056240101
30
0
41
1
10
52.6644244552406
20
-2.48213846375569
30
0
41
1
10
52.6714386908833
20
-2.48911994980404
30
0
41
1
10
52.6850061993931
20
-2.50359311538873
30
0
41
1
10
52.6915329272575
20
-2.51105035168885
30
0
41
1
10
52.704024704239
20
-2.52644737582358
30
0
41
1
10
52.7099905214679
20
-2.5343864967576
30
0
41
1
10
52.7212702886566
20
-2.55082547957897
30
0
41
1
10
52.7265758883816
20
-2.55932360773841
30
0
41
1
10
52.7313646623101
20
-2.56794898064479
30
0
0
SPLINE
5
1D7
100
AcDbEntity
8
1
62
256
6
ByLayer
370
18
48
1
60
0
100
AcDbSpline
70
4
71
3
72
14
73
10
40
0
40
0
40
0
40
0
40
0.125
40
0.125
40
0.25
40
0.25
40
0.5
40
0.5
40
1
40
1
40
1
40
1
41
1
10
52.7313646623101
20
-2.56794898064479
30
0
41
1
10
52.7494340333301
20
-2.60049490274474
30
0
41
1
10
52.7675378699761
20
-2.63301263557838
30
0
41
1
10
52.8037734509648
20
-2.6980566579353
30
0
41
1
10
52.8218902212732
20
-2.73060827914665
30
0
41
1
10
52.8760725634304
20
-2.82864568174119
30
0
41
1
10
52.9120314099149
20
-2.89440961014722
30
0
41
1
10
53.0195342581436
20
-3.09280898536858
30
0
41
1
10
53.0904706904881
20
-3.2261642867187
30
0
41
1
10
53.1608720623505
20
-3.36047768535951
30
0
0
SPLINE
5
1D8
100
AcDbEntity
8
1
62
256
6
ByLayer
370
18
48
1
60
0
100
AcDbSpline
70
4
71
3
72
8
73
4
40
0
40
0
40
0
40
0
40
1
40
1
40
1
40
1
41
1
10
53.2850359549755
20
-3.4286885913204
30
0
41
1
10
53.2436165020835
20
-3.40646599092062
30
0
41
1
10
53.2022305953906
20
-3.38372727850799
30
0
41
1
10
53.1608720623503
20
-3.36047768535957
30
0
0
SPLINE
5
1D9
100
AcDbEntity
8
1
62
256
6
ByLayer
370
18
48
1
60
0
100
AcDbSpline
70
4
71
3
72
14
73
10
40
0
40
0
40
0
40
0
40
0.5
40
0.5
40
0.75
40
0.75
40
0.875
40
0.875
40
1
40
1
40
1
40
1
41
1
10
53.285035954976
20
-3.42868859131056
30
0
41
1
10
53.3556200167316
20
-3.37009939754847
30
0
41
1
10
53.4267545367231
20
-3.30610352771333
30
0
41
1
10
53.5346046472757
20
-3.20194522205296
30
0
41
1
10
53.5706878995489
20
-3.16590713992514
30
0
41
1
10
53.6250355860795
20
-3.1099646835209
30
0
41
1
10
53.6431718739662
20
-3.09107315465289
30
0
41
1
10
53.6796274450275
20
-3.05223159788764
30
0
41
1
10
53.6979597966806
20
-3.03222798381489
30
0
41
1
10
53.716430012048
20
-3.01154337575105
30
0
0
SPLINE
5
1DA
100
AcDbEntity
8
1
62
256
6
ByLayer
370
18
48
1
60
0
100
AcDbSpline
70
4
71
3
72
8
73
4
40
0
40
0
40
0
40
0
40
1
40
1
40
1
40
1
41
1
10
54.59935299991
20
-3.9457288656823
30
0
41
1
10
54.5580611376739
20
-3.93582333307447
30
0
41
1
10
54.5168146070693
20
-3.92531078039229
30
0
41
1
10
54.475610839391
20
-3.91419286756135
30
0
0
SPLINE
5
1DB
100
AcDbEntity
8
1
62
256
6
ByLayer
370
18
48
1
60
0
100
AcDbSpline
70
4
71
3
72
19
73
15
40
0
40
0
40
0
40
0
40
0.0327024187988973
40
0.0327024187988973
40
0.107109925045136
40
0.107109925045136
40
0.404739950030091
40
0.404739950030091
40
0.702369975015045
40
0.702369975015045
40
0.776777481261284
40
0.776777481261284
40
0.851184987507522
40
1
40
1
40
1
40
1
41
1
10
65.55
20
-1.5886982310339
30
0
41
1
10
65.55
20
-1.59716848628253
30
0
41
1
10
65.55
20
-1.60579692691715
30
0
41
1
10
65.55
20
-1.63457730356285
30
0
41
1
10
65.55
20
-1.65541833660913
30
0
41
1
10
65.5500000000001
20
-1.7635143090624
30
0
41
1
10
65.55
20
-1.86099083756295
30
0
41
1
10
65.55
20
-2.07705825738944
30
0
41
1
10
65.55
20
-2.19564446236183
30
0
41
1
10
65.55
20
-2.35764018248344
30
0
41
1
10
65.55
20
-2.39055571818281
30
0
41
1
10
65.55
20
-2.45724451053994
30
0
41
1
10
65.55
20
-2.55863857197659
30
0
41
1
10
65.5500000000001
20
-2.66406901449085
30
0
41
1
10
65.55
20
-2.73612323102367
30
0
0
SPLINE
5
1DC
100
AcDbEntity
8
1
62
256
6
ByLayer
370
18
48
1
60
0
100
AcDbSpline
70
4
71
3
72
13
73
9
40
0
40
0
40
0
40
0
40
0.125
40
0.125
40
0.25
40
0.25
40
0.5
40
1
40
1
40
1
40
1
41
1
10
65.185859855358
20
-1.53044884087672
30
0
41
1
10
65.2012761208785
20
-1.53038553104227
30
0
41
1
10
65.2167189034953
20
-1.5301820134828
30
0
41
1
10
65.2475331092137
20
-1.52988874196876
30
0
41
1
10
65.2628979130383
20
-1.52981902409223
30
0
41
1
10
65.308870091022
20
-1.52980857930265
30
0
41
1
10
65.4003345497555
20
-1.53055250100579
30
0
41
1
10
65.4904839789272
20
-1.53281977652526
30
0
41
1
10
65.5499999999947
20
-1.5346607063247
30
0
0
SPLINE
5
1DD
100
AcDbEntity
8
1
62
256
6
ByLayer
370
18
48
1
60
0
100
AcDbSpline
70
4
71
3
72
8
73
4
40
0
40
0
40
0
40
0
40
1
40
1
40
1
40
1
41
1
10
65.1858598553619
20
-1.53044884088422
30
0
41
1
10
65.1575757807005
20
-1.51501992445995
30
0
41
1
10
65.1293435383849
20
-1.49940414105191
30
0
41
1
10
65.1011643895478
20
-1.48359858989298
30
0
0
SPLINE
5
1DE
100
AcDbEntity
8
1
62
256
6
ByLayer
370
18
48
1
60
0
100
AcDbSpline
70
4
71
3
72
26
73
22
40
0
40
0
40
0
40
0
40
0.125
40
0.125
40
0.25
40
0.25
40
0.375
40
0.375
40
0.5
40
0.5
40
0.625
40
0.625
40
0.75
40
0.75
40
0.8125
40
0.8125
40
0.875
40
0.875
40
0.9375
40
0.9375
40
1
40
1
40
1
40
1
41
1
10
65.1011643895478
20
-1.48359858989292
30
0
41
1
10
65.091069716441
20
-1.47131232431917
30
0
41
1
10
65.0805083851821
20
-1.45946765877909
30
0
41
1
10
65.0585311692503
20
-1.43658699154491
30
0
41
1
10
65.0470891248756
20
-1.42552829820497
30
0
41
1
10
65.0234563381427
20
-1.40431809712834
30
0
41
1
10
65.0114573291799
20
-1.39433466454673
30
0
41
1
10
64.9871210268864
20
-1.37559410818173
30
0
41
1
10
64.9747840230668
20
-1.36683560899951
30
0
41
1
10
64.9497616341166
20
-1.35066660180524
30
0
41
1
10
64.9369908000209
20
-1.34322151664071
30
0
41
1
10
64.9120016929797
20
-1.33046366496282
30
0
41
1
10
64.8996886622706
20
-1.32507439556449
30
0
41
1
10
64.881589282568
20
-1.31883555213011
30
0
41
1
10
64.8756656318616
20
-1.31708646264968
30
0
41
1
10
64.864244936781
20
-1.31436025076337
30
0
41
1
10
64.8587208896333
20
-1.31337324697324
30
0
41
1
10
64.8480949131296
20
-1.31224555130928
30
0
41
1
10
64.8429595570358
20
-1.31210894889725
30
0
41
1
10
64.8334066954771
20
-1.31281714963384
30
0
41
1
10
64.8289785305602
20
-1.31365333378312
30
0
41
1
10
64.8249365314809
20
-1.31502794023382
30
0
0
SPLINE
5
1DF
100
AcDbEntity
8
1
62
256
6
ByLayer
370
18
48
1
60
0
100
AcDbSpline
70
4
71
3
72
8
73
4
40
0
40
0
40
0
40
0
40
1
40
1
40
1
40
1
41
1
10
64.8249365314809
20
-1.31502794023379
30
0
41
1
10
64.8225458999372
20
-1.31584094822239
30
0
41
1
10
64.8201557399069
20
-1.31664648812779
30
0
41
1
10
64.8177660372544
20
-1.31744473214084
30
0
0
SPLINE
5
1E0
100
AcDbEntity
8
1
62
256
6
ByLayer
370
18
48
1
60
0
100
AcDbSpline
70
4
71
3
72
10
73
6
40
0
40
0
40
0
40
0
40
0.5
40
0.5
40
1
40
1
40
1
40
1
41
1
10
64.8177660372544
20
-1.31744473214084
30
0
41
1
10
64.6743656530333
20
-1.2298225299123
30
0
41
1
10
64.53210839387
20
-1.13739588171498
30
0
41
1
10
64.2494114534629
20
-0.943124237458107
30
0
41
1
10
64.1089248451551
20
-0.841341839335882
30
0
41
1
10
63.9688436532769
20
-0.735313076015302
30
0
0
SPLINE
5
1E1
100
AcDbEntity
8
1
62
256
6
ByLayer
370
18
48
1
60
0
100
AcDbSpline
70
4
71
3
72
8
73
4
40
0
40
0
40
0
40
0
40
1
40
1
40
1
40
1
41
1
10
57.7071120180092
20
3.92407033980999
30
0
41
1
10
57.7483957414767
20
3.91327402713935
30
0
41
1
10
57.7896647000626
20
3.90186918426386
30
0
41
1
10
57.8309286017324
20
3.88985948940501
30
0
0
SPLINE
5
1E2
100
AcDbEntity
8
1
62
256
6
ByLayer
370
18
48
1
60
0
100
AcDbSpline
70
4
71
3
72
28
73
24
40
0
40
0
40
0
40
0
40
0.137038259696776
40
0.137038259696776
40
0.223334433727089
40
0.223334433727089
40
0.266482520742245
40
0.266482520742245
40
0.309630607757401
40
0.309630607757401
40
0.482222955818051
40
0.482222955818051
40
0.6548153038787
40
0.6548153038787
40
0.741111477909025
40
0.741111477909025
40
0.82740765193935
40
0.82740765193935
40
0.913703825969675
40
0.913703825969675
40
0.956851912984837
40
0.956851912984837
40
1
40
1
40
1
40
1
41
1
10
44.2049326456058
20
-3.11384947049359
30
0
41
1
10
44.0525518509428
20
-3.11385350085578
30
0
41
1
10
43.9000083404078
20
-3.10721388804183
30
0
41
1
10
43.6503428063215
20
-3.08543933020295
30
0
41
1
10
43.5536210843864
20
-3.07435830384952
30
0
41
1
10
43.4078794322209
20
-3.05374776054563
30
0
41
1
10
43.3591272411377
20
-3.04620488310422
30
0
41
1
10
43.2618512281434
20
-3.02984102553952
30
0
41
1
10
43.2133003181298
20
-3.02101896063792
30
0
41
1
10
42.970991778654
20
-2.97372805088588
30
0
41
1
10
42.7785214827043
20
-2.92572924266204
30
0
41
1
10
42.3945127216827
20
-2.810520462472
30
0
41
1
10
42.2030261586925
20
-2.74327789364548
30
0
41
1
10
41.9150730921361
20
-2.62892022564429
30
0
41
1
10
41.8188908338475
20
-2.58861115887271
30
0
41
1
10
41.6262362926533
20
-2.50352965346923
30
0
41
1
10
41.5298206697154
20
-2.45870906977794
30
0
41
1
10
41.3365602740733
20
-2.36462064534223
30
0
41
1
10
41.2397146202654
20
-2.31535366618596
30
0
41
1
10
41.0939341247416
20
-2.23820863807435
30
0
41
1
10
41.0453326938831
20
-2.21199301200843
30
0
41
1
10
40.9483776671595
20
-2.15875326414601
30
0
41
1
10
40.8999797366744
20
-2.13170569281704
30
0
41
1
10
40.8516464112211
20
-2.10424843913663
30
0
0
SPLINE
5
1E3
100
AcDbEntity
8
1
62
256
6
ByLayer
370
18
48
1
60
0
100
AcDbSpline
70
4
71
3
72
10
73
6
40
0
40
0
40
0
40
0
40
0.144361213409752
40
0.144361213409752
40
1
40
1
40
1
40
1
41
1
10
51.3161749416872
20
3.64231562626452
30
0
41
1
10
51.3331395661504
20
3.65215086641484
30
0
41
1
10
51.350083319547
20
3.66188156084604
30
0
41
1
10
51.4673210716293
20
3.72855970470192
30
0
41
1
10
51.5669329512755
20
3.7819151987255
30
0
41
1
10
51.6660246344661
20
3.83136941564763
30
0
0
SPLINE
5
1E4
100
AcDbEntity
8
1
62
256
6
ByLayer
370
18
48
1
60
0
100
AcDbSpline
70
4
71
3
72
14
73
10
40
0
40
0
40
0
40
0
40
0.447017654853466
40
0.447017654853466
40
0.723508827426733
40
0.723508827426733
40
0.861754413713367
40
0.861754413713367
40
1
40
1
40
1
40
1
41
1
10
51.6942046436836
20
3.78287437131004
30
0
41
1
10
51.7338805196067
20
3.7145009285172
30
0
41
1
10
51.7737654752057
20
3.64537279146887
30
0
41
1
10
51.8386562896268
20
3.53240171205687
30
0
41
1
10
51.8635173471034
20
3.48900098970248
30
0
41
1
10
51.9009247852365
20
3.42355064787327
30
0
41
1
10
51.913422719677
20
3.40166121190867
30
0
41
1
10
51.938532042913
20
3.35766412184421
30
0
41
1
10
51.9511407461642
20
3.33556063321205
30
0
41
1
10
51.9638124658635
20
3.31334521637692
30
0
0
SPLINE
5
1E5
100
AcDbEntity
8
1
62
256
6
ByLayer
370
18
48
1
60
0
100
AcDbSpline
70
4
71
3
72
29
73
25
40
0
40
0
40
0
40
0
40
0.124999999999984
40
0.124999999999984
40
0.187499999999976
40
0.187499999999976
40
0.249999999999968
40
0.31249999999996
40
0.31249999999996
40
0.374999999999952
40
0.374999999999952
40
0.499999999999937
40
0.499999999999937
40
0.624999999999921
40
0.624999999999921
40
0.749999999999906
40
0.749999999999906
40
0.812499999999929
40
0.812499999999929
40
0.874999999999953
40
0.874999999999953
40
0.937499999999976
40
0.937499999999976
40
1
40
1
40
1
40
1
41
1
10
51.9638124658635
20
3.31334521637692
30
0
41
1
10
51.9734223288902
20
3.29649769150015
30
0
41
1
10
51.9847971646553
20
3.28186412789935
30
0
41
1
10
52.0038258163058
20
3.26240842915465
30
0
41
1
10
52.0105422937778
20
3.25632673465466
30
0
41
1
10
52.0242545505524
20
3.24523633476312
30
0
41
1
10
52.0383096399481
20
3.23514027993429
30
0
41
1
10
52.0529625228813
20
3.22682592306907
30
0
41
1
10
52.0678876936983
20
3.21934922555201
30
0
41
1
10
52.0755228048638
20
3.21601771950915
30
0
41
1
10
52.0984897555322
20
3.20737257300908
30
0
41
1
10
52.1138821062181
20
3.20336603805765
30
0
41
1
10
52.1447521121328
20
3.19862338534048
30
0
41
1
10
52.1603067607038
20
3.19792059009262
30
0
41
1
10
52.1903594169353
20
3.19994000403372
30
0
41
1
10
52.2049900872035
20
3.20261933924951
30
0
41
1
10
52.2262502245312
20
3.20947193534295
30
0
41
1
10
52.2332623019102
20
3.21225485886356
30
0
41
1
10
52.2467992824101
20
3.21881182196179
30
0
41
1
10
52.2533116449077
20
3.22257130409344
30
0
41
1
10
52.2657772967536
20
3.23115161218126
30
0
41
1
10
52.271731357045
20
3.23597079458142
30
0
41
1
10
52.2829910847326
20
3.24686072431697
30
0
41
1
10
52.2882817143668
20
3.25292904907118
30
0
41
1
10
52.2930593012206
20
3.25960788390387
30
0
0
SPLINE
5
1E6
100
AcDbEntity
8
1
62
256
6
ByLayer
370
18
48
1
60
0
100
AcDbSpline
70
4
71
3
72
14
73
10
40
0
40
0
40
0
40
0
40
0.124999999999994
40
0.124999999999994
40
0.249999999999989
40
0.249999999999989
40
0.499999999999999
40
0.499999999999999
40
1
40
1
40
1
40
1
41
1
10
52.2930593012206
20
3.25960788390387
30
0
41
1
10
52.3111499239907
20
3.28489769761109
30
0
41
1
10
52.3292722183282
20
3.31019561598265
30
0
41
1
10
52.365541511015
20
3.3606863954565
30
0
41
1
10
52.3836756373263
20
3.38583484142927
30
0
41
1
10
52.4378985060839
20
3.46031656255934
30
0
41
1
10
52.473870158795
20
3.50890555714318
30
0
41
1
10
52.5813910391512
20
3.65165625596441
30
0
41
1
10
52.6522979475083
20
3.74243972358369
30
0
41
1
10
52.7227057304692
20
3.82910040465944
30
0
0
SPLINE
5
1E7
100
AcDbEntity
8
1
62
256
6
ByLayer
370
18
48
1
60
0
100
AcDbSpline
70
4
71
3
72
8
73
4
40
0
40
0
40
0
40
0
40
1
40
1
40
1
40
1
41
1
10
52.8468597947319
20
3.78544361017094
30
0
41
1
10
52.8054258940919
20
3.80058513006384
30
0
41
1
10
52.7640413975075
20
3.81513824939276
30
0
41
1
10
52.7227057304692
20
3.82910040465947
30
0
0
SPLINE
5
1E8
100
AcDbEntity
8
1
62
256
6
ByLayer
370
18
48
1
60
0
100
AcDbSpline
70
4
71
3
72
14
73
10
40
0
40
0
40
0
40
0
40
0.500000000000009
40
0.500000000000009
40
0.750000000000015
40
0.750000000000015
40
0.875000000000007
40
0.875000000000007
40
1
40
1
40
1
40
1
41
1
10
52.8468597947321
20
3.78544361015801
30
0
41
1
10
52.9174060603264
20
3.65082187130949
30
0
41
1
10
52.9885428639585
20
3.51553939416553
30
0
41
1
10
53.0964376330233
20
3.31184196995912
30
0
41
1
10
53.1325391142561
20
3.24393809277515
30
0
41
1
10
53.1869194826551
20
3.14209254176669
30
0
41
1
10
53.2050679268766
20
3.10814113112718
30
0
41
1
10
53.2415420660272
20
3.04027171359303
30
0
41
1
10
53.2598837274072
20
3.00635824831775
30
0
41
1
10
53.2783651782561
20
2.97247830469814
30
0
0
SPLINE
5
1E9
100
AcDbEntity
8
1
62
256
6
ByLayer
370
18
48
1
60
0
100
AcDbSpline
70
4
71
3
72
29
73
25
40
0
40
0
40
0
40
0
40
0.124999999999949
40
0.124999999999949
40
0.187499999999953
40
0.187499999999953
40
0.249999999999957
40
0.312499999999961
40
0.312499999999961
40
0.374999999999965
40
0.374999999999965
40
0.499999999999972
40
0.499999999999972
40
0.624999999999979
40
0.624999999999979
40
0.749999999999986
40
0.749999999999986
40
0.812499999999989
40
0.812499999999989
40
0.874999999999993
40
0.874999999999993
40
0.937499999999996
40
0.937499999999996
40
1
40
1
40
1
40
1
41
1
10
53.2783651782561
20
2.97247830469814
30
0
41
1
10
53.2879732715598
20
2.95486487910287
30
0
41
1
10
53.2993476564439
20
2.93883422795912
30
0
41
1
10
53.3183786841223
20
2.91656102966218
30
0
41
1
10
53.3250961591219
20
2.90940993785418
30
0
41
1
10
53.3388100016521
20
2.89600522509244
30
0
41
1
10
53.3528674551301
20
2.88341083084399
30
0
41
1
10
53.367523441911
20
2.87225893594629
30
0
41
1
10
53.3824526580586
20
2.86178236491008
30
0
41
1
10
53.390090183081
20
2.85686151866253
30
0
41
1
10
53.4130597521189
20
2.84327650423046
30
0
41
1
10
53.4284547147372
20
2.83574801959111
30
0
41
1
10
53.4593318339531
20
2.82350993348661
30
0
41
1
10
53.4748870012163
20
2.8188104793212
30
0
41
1
10
53.5049384424133
20
2.8126328341655
30
0
41
1
10
53.5195692052253
20
2.81108246308975
30
0
41
1
10
53.5408298254099
20
2.81136330241745
30
0
41
1
10
53.5478425944228
20
2.81190398945895
30
0
41
1
10
53.5613706672087
20
2.81396114834905
30
0
41
1
10
53.5678789411662
20
2.81546895927733
30
0
41
1
10
53.5803370300528
20
2.81954377169194
30
0
41
1
10
53.5862876146435
20
2.82210910716719
30
0
41
1
10
53.5975409995509
20
2.82849187904884
30
0
41
1
10
53.6028258056545
20
2.832309222096
30
0
41
1
10
53.6075989749027
20
2.83679373743519
30
0
0
SPLINE
5
1EA
100
AcDbEntity
8
1
62
256
6
ByLayer
370
18
48
1
60
0
100
AcDbSpline
70
4
71
3
72
8
73
4
40
0
40
0
40
0
40
0
40
1
40
1
40
1
40
1
41
1
10
58.1049027250915
20
-0.404048610624272
30
0
41
1
10
58.0635364193773
20
-0.362899796189822
30
0
41
1
10
58.0221750325563
20
-0.321714063843615
30
0
41
1
10
57.9808170223708
20
-0.280493032477182
30
0
0
SPLINE
5
1EB
100
AcDbEntity
8
1
62
256
6
ByLayer
370
18
48
1
60
0
100
AcDbSpline
70
4
71
3
72
8
73
4
40
0
40
0
40
0
40
0
40
1
40
1
40
1
40
1
41
1
10
59.4189536010867
20
-1.6728961913376
30
0
41
1
10
59.3777586010301
20
-1.6353901992577
30
0
41
1
10
59.3365792091431
20
-1.59764059429659
30
0
41
1
10
59.2954128781836
20
-1.5596499408332
30
0
0
SPLINE
5
1EC
100
AcDbEntity
8
1
62
256
6
ByLayer
370
18
48
1
60
0
100
AcDbSpline
70
4
71
3
72
8
73
4
40
0
40
0
40
0
40
0
40
1
40
1
40
1
40
1
41
1
10
60.7341264849276
20
-2.76813500335928
30
0
41
1
10
60.6926069838007
20
-2.73772560998464
30
0
41
1
10
60.651118506088
20
-2.70688299806463
30
0
41
1
10
60.6096557324682
20
-2.675610714209
30
0
0
SPLINE
5
1ED
100
AcDbEntity
8
1
62
256
6
ByLayer
370
18
48
1
60
0
100
AcDbSpline
70
4
71
3
72
14
73
10
40
0
40
0
40
0
40
0
40
0.25
40
0.25
40
0.5
40
0.5
40
0.75
40
0.75
40
1
40
1
40
1
40
1
41
1
10
64.1771612011103
20
-3.44246727022644
30
0
41
1
10
64.2649895307794
20
-3.42216855652137
30
0
41
1
10
64.3529584087622
20
-3.3994195163211
30
0
41
1
10
64.5292274611683
20
-3.34917740239945
30
0
41
1
10
64.617470174715
20
-3.32168789903099
30
0
41
1
10
64.7946235505088
20
-3.26203142841018
30
0
41
1
10
64.8835995885688
20
-3.22985605045665
30
0
41
1
10
65.0630048379253
20
-3.16098811346561
30
0
41
1
10
65.1533774853385
20
-3.1243065953999
30
0
41
1
10
65.2444456520327
20
-3.08548574624916
30
0
0
SPLINE
5
1EE
100
AcDbEntity
8
1
62
256
6
ByLayer
370
18
48
1
60
0
100
AcDbSpline
70
4
71
3
72
8
73
4
40
0
40
0
40
0
40
0
40
1
40
1
40
1
40
1
41
1
10
65.5500000000027
20
-2.73612323101935
30
0
41
1
10
65.444739633147
20
-2.85381257727084
30
0
41
1
10
65.343345111608
20
-2.97048053426448
30
0
41
1
10
65.2444456520326
20
-3.08548574624393
30
0
0
SPLINE
5
1EF
100
AcDbEntity
8
1
62
256
6
ByLayer
370
18
48
1
60
0
100
AcDbSpline
70
4
71
3
72
98
73
94
40
0
40
0
40
0
40
0
40
0.0624999999999714
40
0.0624999999999714
40
0.124999999999943
40
0.124999999999943
40
0.187499999999914
40
0.187499999999914
40
0.203124999999907
40
0.203124999999907
40
0.210937499999903
40
0.210937499999903
40
0.2187499999999
40
0.24999999999989
40
0.24999999999989
40
0.265624999999887
40
0.265624999999887
40
0.281249999999885
40
0.281249999999885
40
0.312499999999875
40
0.312499999999875
40
0.328124999999872
40
0.328124999999872
40
0.34374999999987
40
0.34374999999987
40
0.374999999999869
40
0.374999999999869
40
0.406249999999866
40
0.406249999999866
40
0.421874999999864
40
0.421874999999864
40
0.429687499999864
40
0.429687499999864
40
0.437499999999863
40
0.437499999999863
40
0.468749999999863
40
0.468749999999863
40
0.476562499999862
40
0.476562499999862
40
0.484374999999861
40
0.484374999999861
40
0.499999999999862
40
0.499999999999862
40
0.515624999999863
40
0.515624999999863
40
0.523437499999863
40
0.523437499999863
40
0.531249999999864
40
0.531249999999864
40
0.546874999999866
40
0.546874999999866
40
0.550781249999867
40
0.550781249999867
40
0.554687499999868
40
0.56249999999987
40
0.570312499999873
40
0.574218749999874
40
0.574218749999874
40
0.578124999999875
40
0.578124999999875
40
0.59374999999988
40
0.59374999999988
40
0.609374999999885
40
0.609374999999885
40
0.617187499999888
40
0.617187499999888
40
0.62499999999989
40
0.62499999999989
40
0.640624999999895
40
0.640624999999895
40
0.656249999999899
40
0.656249999999899
40
0.671874999999904
40
0.671874999999904
40
0.687499999999908
40
0.687499999999908
40
0.718749999999917
40
0.718749999999917
40
0.749999999999926
40
0.749999999999926
40
0.765624999999931
40
0.765624999999931
40
0.781249999999935
40
0.781249999999935
40
0.812499999999944
40
0.812499999999944
40
0.874999999999964
40
0.874999999999964
40
0.937499999999984
40
0.937499999999984
40
0.968749999999992
40
0.968749999999992
40
1
40
1
40
1
40
1
41
1
10
40.8516468726226
20
-2.10424724226681
30
0
41
1
10
40.7089438362059
20
-2.01763847725127
30
0
41
1
10
40.5637667084267
20
-1.93027376392013
30
0
41
1
10
40.2660302936759
20
-1.75915273793115
30
0
41
1
10
40.1134264688699
20
-1.67545692247086
30
0
41
1
10
39.798334499778
20
-1.51732328996803
30
0
41
1
10
39.6358206294009
20
-1.44291920243955
30
0
41
1
10
39.4245101003492
20
-1.36008851128199
30
0
41
1
10
39.3818386145833
20
-1.34403337047922
30
0
41
1
10
39.3171694960604
20
-1.32081739666566
30
0
41
1
10
39.2954973419513
20
-1.31322197085223
30
0
41
1
10
39.2521103573469
20
-1.29840067169448
30
0
41
1
10
39.1434241562031
20
-1.26222968795884
30
0
41
1
10
39.0336212368518
20
-1.23062008120874
30
0
41
1
10
38.9006841030732
20
-1.1976752698458
30
0
41
1
10
38.8561779168634
20
-1.18751665110284
30
0
41
1
10
38.7667533860615
20
-1.16897664079804
30
0
41
1
10
38.7218307222009
20
-1.16061447951108
30
0
41
1
10
38.58650638431
20
-1.13795010456786
30
0
41
1
10
38.4955538920864
20
-1.12604771435042
30
0
41
1
10
38.3582871144994
20
-1.11189253571396
30
0
41
1
10
38.3123690339858
20
-1.1078912286055
30
0
41
1
10
38.2201838847463
20
-1.10143722454399
30
0
41
1
10
38.1738305780249
20
-1.09898253895307
30
0
41
1
10
38.0350010333792
20
-1.09415079306365
30
0
41
1
10
37.9427385813084
20
-1.09428044816212
30
0
41
1
10
37.7588650249726
20
-1.10204844443061
30
0
41
1
10
37.6672498357142
20
-1.10964102835572
30
0
41
1
10
37.5304118528805
20
-1.12771380591528
30
0
41
1
10
37.4848965498197
20
-1.13485011608816
30
0
41
1
10
37.4167892626429
20
-1.14743240483864
30
0
41
1
10
37.3941144954687
20
-1.15193997646372
30
0
41
1
10
37.3488242993245
20
-1.16162443031089
30
0
41
1
10
37.3262056669408
20
-1.16680343211624
30
0
41
1
10
37.2139442794779
20
-1.19431506425212
30
0
41
1
10
37.1262458578001
20
-1.2215453261436
30
0
41
1
10
37.0201212066992
20
-1.26397428642108
30
0
41
1
10
36.9990739938939
20
-1.27288567550417
30
0
41
1
10
36.9573721412576
20
-1.29164043455805
30
0
41
1
10
36.9366701647735
20
-1.30150960259337
30
0
41
1
10
36.8757289447248
20
-1.33237736067559
30
0
41
1
10
36.8365691892058
20
-1.35466302502033
30
0
41
1
10
36.7616840398912
20
-1.40312358959611
30
0
41
1
10
36.7259411012278
20
-1.42927848242269
30
0
41
1
10
36.6754834247025
20
-1.47198646436186
30
0
41
1
10
36.6591535028938
20
-1.4868609868349
30
0
41
1
10
36.628203148389
20
-1.51733935077365
30
0
41
1
10
36.6135183304357
20
-1.53299128802408
30
0
41
1
10
36.5719256976526
20
-1.58119670523061
30
0
41
1
10
36.5474660015534
20
-1.61499412452451
30
0
41
1
10
36.5214584814367
20
-1.65943111306811
30
0
41
1
10
36.5164879837102
20
-1.66842971385631
30
0
41
1
10
36.5071236110023
20
-1.68644011006586
30
0
41
1
10
36.4938959671071
20
-1.71355176011602
30
0
41
1
10
36.4758871123675
20
-1.75918568995039
30
0
41
1
10
36.463156091034
20
-1.80534065779006
30
0
41
1
10
36.4578659696305
20
-1.83323803844328
30
0
41
1
10
36.4548600443008
20
-1.85187870649821
30
0
41
1
10
36.4536139571188
20
-1.86124284651635
30
0
41
1
10
36.4486729848697
20
-1.907861894744
30
0
41
1
10
36.4488342849848
20
-1.94425433911445
30
0
41
1
10
36.4557623750642
20
-2.01537451062492
30
0
41
1
10
36.4625398581205
20
-2.05010142201002
30
0
41
1
10
36.4768747222571
20
-2.10101047029605
30
0
41
1
10
36.4823344560004
20
-2.11771222110062
30
0
41
1
10
36.4943720274492
20
-2.15035303021568
30
0
41
1
10
36.5009622978595
20
-2.16633641031868
30
0
41
1
10
36.5222530217808
20
-2.21336069292195
30
0
41
1
10
36.5384649125222
20
-2.24347940040465
30
0
41
1
10
36.5741621213074
20
-2.30159256111747
30
0
41
1
10
36.5936557920057
20
-2.3295842697371
30
0
41
1
10
36.6353713008548
20
-2.38368231301524
30
0
41
1
10
36.6576370668246
20
-2.40982407789752
30
0
41
1
10
36.7038995046855
20
-2.45979276783896
30
0
41
1
10
36.7279600584133
20
-2.4837093799531
30
0
41
1
10
36.8024421933961
20
-2.55266166348304
30
0
41
1
10
36.8551393696139
20
-2.59492095872304
30
0
41
1
10
36.9649407975937
20
-2.67341165380037
30
0
41
1
10
37.0220598677692
20
-2.7096308679333
30
0
41
1
10
37.1103102548651
20
-2.76003301385251
30
0
41
1
10
37.1401719518505
20
-2.77618232091393
30
0
41
1
10
37.2006193606367
20
-2.80720885945237
30
0
41
1
10
37.2310899821987
20
-2.82202792772054
30
0
41
1
10
37.3231402907959
20
-2.86454826802677
30
0
41
1
10
37.3853526468037
20
-2.89032003958718
30
0
41
1
10
37.5739598158597
20
-2.96073427065508
30
0
41
1
10
37.7022790838497
20
-2.99853548508813
30
0
41
1
10
37.9623372643909
20
-3.05817665001507
30
0
41
1
10
38.0940969826763
20
-3.07998386794617
30
0
41
1
10
38.2938171277311
20
-3.10125394405515
30
0
41
1
10
38.3607491704863
20
-3.10642840451729
30
0
41
1
10
38.4952769122146
20
-3.11295146432292
30
0
41
1
10
38.5626484234628
20
-3.11428921800206
30
0
41
1
10
38.6301323061392
20
-3.11372438406764
30
0
0
SPLINE
5
1F0
100
AcDbEntity
8
SK1
62
256
6
ByLayer
370
18
48
1
60
0
100
AcDbSpline
70
4
71
3
72
25
73
21
40
0
40
0
40
0
40
0
40
0.125067072571278
40
0.125067072571278
40
0.187600608856917
40
0.187600608856917
40
0.250134145142556
40
0.250134145142556
40
0.375201217713834
40
0.375201217713834
40
0.500268290285112
40
0.62533536285639
40
0.62533536285639
40
0.687868899142029
40
0.687868899142029
40
0.750402435427667
40
0.750402435427667
40
0.875469507998945
40
0.875469507998945
40
1
40
1
40
1
40
1
41
1
10
-23.45
20
3.02499999999998
30
0
41
1
10
-23.5074802369517
20
3.02499999999998
30
0
41
1
10
-23.563618367439
20
3.02499999999998
30
0
41
1
10
-23.6453496028415
20
3.02499999999998
30
0
41
1
10
-23.672203368939
20
3.02499999999998
30
0
41
1
10
-23.7248577335834
20
3.02499999999998
30
0
41
1
10
-23.7506505185036
20
3.02499999999998
30
0
41
1
10
-23.8262698112998
20
3.02499999999998
30
0
41
1
10
-23.874343420495
20
3.02499999999998
30
0
41
1
10
-23.9648434087796
20
3.02499999999998
30
0
41
1
10
-24.0496975587445
20
3.02499999999998
30
0
41
1
10
-24.1209081515016
20
3.02499999999998
30
0
41
1
10
-24.1681450988509
20
3.02499999999998
30
0
41
1
10
-24.1828603997798
20
3.02499999999998
30
0
41
1
10
-24.2100328109391
20
3.02499999999998
30
0
41
1
10
-24.222500417408
20
3.02499999999998
30
0
41
1
10
-24.2561328365472
20
3.02499999999998
30
0
41
1
10
-24.2732420010248
20
3.02499999999998
30
0
41
1
10
-24.2961130092097
20
3.02499999999998
30
0
41
1
10
-24.3019209137987
20
3.02499999999998
30
0
41
1
10
-24.301959999989
20
3.02499999999998
30
0
0
SPLINE
5
1F1
100
AcDbEntity
8
SK1
62
256
6
ByLayer
370
18
48
1
60
0
100
AcDbSpline
70
4
71
3
72
25
73
21
40
0
40
0
40
0
40
0
40
0.124530515688715
40
0.124530515688715
40
0.249597584876042
40
0.249597584876042
40
0.312131119469705
40
0.312131119469705
40
0.374664654063368
40
0.374664654063368
40
0.499731723250695
40
0.624798792438021
40
0.624798792438021
40
0.749865861625348
40
0.749865861625348
40
0.812399396219011
40
0.812399396219011
40
0.874932930812674
40
0.874932930812674
40
1
40
1
40
1
40
1
41
1
10
-24.3019600000145
20
-3.02500000000003
30
0
41
1
10
-24.3019209163224
20
-3.02500000000003
30
0
41
1
10
-24.2961130116889
20
-3.02500000000003
30
0
41
1
10
-24.2732420010248
20
-3.02500000000003
30
0
41
1
10
-24.2561328365472
20
-3.02500000000003
30
0
41
1
10
-24.222500417408
20
-3.02500000000003
30
0
41
1
10
-24.2100328109391
20
-3.02500000000003
30
0
41
1
10
-24.1828603997798
20
-3.02500000000003
30
0
41
1
10
-24.1681450988509
20
-3.02500000000003
30
0
41
1
10
-24.1209081515016
20
-3.02500000000003
30
0
41
1
10
-24.0496975587445
20
-3.02500000000003
30
0
41
1
10
-23.9648434087796
20
-3.02500000000003
30
0
41
1
10
-23.874343420495
20
-3.02500000000003
30
0
41
1
10
-23.8262698112998
20
-3.02500000000003
30
0
41
1
10
-23.7506505185036
20
-3.02500000000003
30
0
41
1
10
-23.7248577335834
20
-3.02500000000003
30
0
41
1
10
-23.672203368939
20
-3.02500000000003
30
0
41
1
10
-23.6453496028415
20
-3.02500000000003
30
0
41
1
10
-23.563618367439
20
-3.02500000000003
30
0
41
1
10
-23.5074802369517
20
-3.02500000000003
30
0
41
1
10
-23.45
20
-3.02500000000003
30
0
0
SPLINE
5
1F2
100
AcDbEntity
8
SK1
62
256
6
ByLayer
370
18
48
1
60
0
100
AcDbSpline
70
4
71
3
72
44
73
40
40
0
40
0
40
0
40
0
40
0.0624999999999999
40
0.0624999999999999
40
0.125
40
0.125
40
0.15625
40
0.15625
40
0.1875
40
0.1875
40
0.25
40
0.25
40
0.375
40
0.375
40
0.40625
40
0.40625
40
0.421875
40
0.421875
40
0.437499999999999
40
0.437499999999999
40
0.5
40
0.5625
40
0.5625
40
0.625
40
0.625
40
0.65625
40
0.65625
40
0.6875
40
0.6875
40
0.75
40
0.8125
40
0.8125
40
0.875
40
0.875
40
0.90625
40
0.90625
40
0.9375
40
0.9375
40
1
40
1
40
1
40
1
41
1
10
-23.4500000000001
20
-2.42491109973139
30
0
41
1
10
-23.5071573980625
20
-2.33352756570559
30
0
41
1
10
-23.5629683498709
20
-2.24116665688408
30
0
41
1
10
-23.6712899833967
20
-2.05404919901645
30
0
41
1
10
-23.7238025944584
20
-1.9592940504663
30
0
41
1
10
-23.7995052164022
20
-1.8149355283586
30
0
41
1
10
-23.82422676175
20
-1.76644388368075
30
0
41
1
10
-23.8725229031571
20
-1.66862803281498
30
0
41
1
10
-23.8960537133059
20
-1.61938810198265
30
0
41
1
10
-23.9643638771543
20
-1.47109727497516
30
0
41
1
10
-24.0069637800502
20
-1.37128188593556
30
0
41
1
10
-24.1242300553216
20
-1.06841496591713
30
0
41
1
10
-24.1884377154215
20
-0.861966947873981
30
0
41
1
10
-24.2442506345047
20
-0.595967826430581
30
0
41
1
10
-24.2541852871314
20
-0.542369229110136
30
0
41
1
10
-24.267101216653
20
-0.461326359734926
30
0
41
1
10
-24.271080110494
20
-0.434168843470644
30
0
41
1
10
-24.2783288084576
20
-0.379806302736256
30
0
41
1
10
-24.2815946585719
20
-0.352638580224948
30
0
41
1
10
-24.2961194713312
20
-0.216868158297842
30
0
41
1
10
-24.3077795437009
20
-7.30832911415E-05
30
0
41
1
10
-24.2961621769114
20
0.215842325363468
30
0
41
1
10
-24.2732420010248
20
0.431330595071302
30
0
41
1
10
-24.2561328365472
20
0.538861248428674
30
0
41
1
10
-24.222500417408
20
0.699856088251096
30
0
41
1
10
-24.2100328109391
20
0.753133927007639
30
0
41
1
10
-24.1828603997798
20
0.858683822025057
30
0
41
1
10
-24.1681450988509
20
0.911006780527543
30
0
41
1
10
-24.1209081515016
20
1.06673827766744
30
0
41
1
10
-24.0496975587445
20
1.27108651848636
30
0
41
1
10
-23.9648434087796
20
1.46997309668484
30
0
41
1
10
-23.874343420495
20
1.66659958511042
30
0
41
1
10
-23.8262698112998
20
1.76378250586328
30
0
41
1
10
-23.7506505185036
20
1.9081522450065
30
0
41
1
10
-23.7248577335834
20
1.95604076758281
30
0
41
1
10
-23.672203368939
20
2.05138996268553
30
0
41
1
10
-23.6453496028415
20
2.09883419978092
30
0
41
1
10
-23.563618367439
20
2.24009258071769
30
0
41
1
10
-23.5074802369517
20
2.33301140927378
30
0
41
1
10
-23.45
20
2.42491109973125
30
0
0
SPLINE
5
1F3
100
AcDbEntity
8
1
62
256
6
ByLayer
370
18
48
1
60
0
100
AcDbSpline
70
4
71
1
72
4
73
2
40
0
40
0
40
1
40
1
41
1
10
56.3905780751934
20
4.05421602402319
30
0
41
1
10
56.3131592257578
20
3.92065994307833
30
0
0
SPLINE
5
1F4
100
AcDbEntity
8
1
62
256
6
ByLayer
370
18
48
1
60
0
100
AcDbSpline
70
4
71
2
72
6
73
3
40
0
40
0
40
0
40
1
40
1
40
1
41
1
10
63.7079008575159
20
-3.54423505451797
30
0
41
1
10
63.7679507147232
20
-3.4408710009954
30
0
41
1
10
63.8280221893354
20
-3.33758345052868
30
0
0
SPLINE
5
1F5
100
AcDbEntity
8
1
62
256
6
ByLayer
370
18
48
1
60
0
100
AcDbSpline
70
4
71
1
72
4
73
2
40
0
40
0
40
1
40
1
41
1
10
63.0782291218586
20
-3.7055866448766
30
0
41
1
10
63.6991986578473
20
-3.55681554447889
30
0
0
SPLINE
5
1F6
100
AcDbEntity
8
1
62
256
6
ByLayer
370
18
48
1
60
0
100
AcDbSpline
70
4
71
2
72
6
73
3
40
0
40
0
40
0
40
1
40
1
40
1
41
1
10
62.8502698334627
20
-3.33761527164722
30
0
41
1
10
62.9484397164926
20
-3.50660819559613
30
0
41
1
10
63.0465550911006
20
-3.67574854836036
30
0
0
SPLINE
5
1F7
100
AcDbEntity
8
1
62
256
6
ByLayer
370
18
48
1
60
0
100
AcDbSpline
70
4
71
2
72
6
73
3
40
0
40
0
40
0
40
1
40
1
40
1
41
1
10
62.240221679054
20
-3.91857844122819
30
0
41
1
10
62.4100254934112
20
-3.62578966973868
30
0
41
1
10
62.5801941083215
20
-3.33324077067633
30
0
0
SPLINE
5
1F8
100
AcDbEntity
8
1
62
256
6
ByLayer
370
18
48
1
60
0
100
AcDbSpline
70
4
71
1
72
4
73
2
40
0
40
0
40
1
40
1
41
1
10
51.6944367617871
20
3.78251212000413
30
0
41
1
10
51.6677309982401
20
3.828525373079
30
0
0
SPLINE
5
1F9
100
AcDbEntity
8
1
62
256
6
ByLayer
370
18
48
1
60
0
100
AcDbSpline
70
4
71
1
72
4
73
2
40
0
40
0
40
1
40
1
41
1
10
60.5828620236484
20
-3.73984991139179
30
0
41
1
10
60.7656207144639
20
-4.05518913754923
30
0
0
SPLINE
5
1FA
100
AcDbEntity
8
1
62
256
6
ByLayer
370
18
48
1
60
0
100
AcDbSpline
70
4
71
1
72
4
73
2
40
0
40
0
40
1
40
1
41
1
10
64.1707574944048
20
-3.4441741051904
30
0
41
1
10
64.2195903564845
20
-3.43247362006991
30
0
0
SPLINE
5
1FB
100
AcDbEntity
8
1
62
256
6
ByLayer
370
18
48
1
60
0
100
AcDbSpline
70
4
71
2
72
6
73
3
40
0
40
0
40
0
40
1
40
1
40
1
41
1
10
63.8316095137622
20
-3.33071061250328
30
0
41
1
10
63.8911253101046
20
-3.23570667548404
30
0
41
1
10
63.9923563236153
20
-3.2829887070622
30
0
0
SPLINE
5
1FC
100
AcDbEntity
8
1
62
256
6
ByLayer
370
18
48
1
60
0
100
AcDbSpline
70
4
71
3
72
13
73
9
40
0
40
0
40
0
40
0
40
0.241636509836612
40
0.370069277263332
40
0.501021343287984
40
0.631816419179956
40
0.759807265084365
40
1
40
1
40
1
40
1
41
1
10
55.0764102177428
20
-3.3408619426194
30
0
41
1
10
55.0891381281588
20
-3.31795993056176
30
0
41
1
10
55.1165849487912
20
-3.29057636708896
30
0
41
1
10
55.1728259843235
20
-3.26632823694118
30
0
41
1
10
55.2215532806545
20
-3.26105941214536
30
0
41
1
10
55.2702859015788
20
-3.26976215338857
30
0
41
1
10
55.3265198260445
20
-3.29851723694068
30
0
41
1
10
55.3539902606813
20
-3.32962619204935
30
0
41
1
10
55.3667728906119
20
-3.35507445524308
30
0
0
SPLINE
5
1FD
100
AcDbEntity
8
1
62
256
6
ByLayer
370
18
48
1
60
0
100
AcDbSpline
70
4
71
2
72
6
73
3
40
0
40
0
40
0
40
1
40
1
40
1
41
1
10
54.6610443456075
20
-4.05637418102998
30
0
41
1
10
54.8690576442434
20
-3.69758945143909
30
0
41
1
10
55.077506725388
20
-3.33904319845959
30
0
0
SPLINE
5
1FE
100
AcDbEntity
8
1
62
256
6
ByLayer
370
18
48
1
60
0
100
AcDbSpline
70
4
71
2
72
6
73
3
40
0
40
0
40
0
40
1
40
1
40
1
41
1
10
57.6408568608264
20
4.05511994330755
30
0
41
1
10
57.4332791523249
20
3.69671506972796
30
0
41
1
10
57.2253152173174
20
3.33855730287635
30
0
0
SPLINE
5
1FF
100
AcDbEntity
8
1
62
256
6
ByLayer
370
18
48
1
60
0
100
AcDbSpline
70
4
71
2
72
6
73
3
40
0
40
0
40
0
40
1
40
1
40
1
41
1
10
58.203765123824
20
3.33627368837253
30
0
41
1
10
57.9962283442711
20
3.69307307670161
30
0
41
1
10
57.78896313904
20
4.05051486163742
30
0
0
SPLINE
5
200
100
AcDbEntity
8
1
62
256
6
ByLayer
370
18
48
1
60
0
100
AcDbSpline
70
4
71
2
72
6
73
3
40
0
40
0
40
0
40
1
40
1
40
1
41
1
10
54.0979214723775
20
-3.3341830531769
30
0
41
1
10
54.3055305157084
20
-3.69153173232056
30
0
41
1
10
54.5128284258352
20
-4.04941962962715
30
0
0
SPLINE
5
201
100
AcDbEntity
8
1
62
256
6
ByLayer
370
18
48
1
60
0
100
AcDbSpline
70
4
71
3
72
10
73
6
40
0
40
0
40
0
40
0
40
0.27394953609718
40
0.536491248596274
40
1
40
1
40
1
40
1
41
1
10
62.5778060275416
20
-3.33760185496456
30
0
41
1
10
62.5934151291864
20
-3.31137089649644
30
0
41
1
10
62.6319451902474
20
-3.27398495324744
30
0
41
1
10
62.7725593744168
20
-3.25689772603113
30
0
41
1
10
62.8234321493754
20
-3.29152686121992
30
0
41
1
10
62.8478944535997
20
-3.33330634329394
30
0
0
SPLINE
5
202
100
AcDbEntity
8
1
62
256
6
ByLayer
370
18
48
1
60
0
100
AcDbSpline
70
4
71
3
72
11
73
7
40
0
40
0
40
0
40
0
40
0.244855255099946
40
0.497095526895217
40
0.750796947961018
40
1
40
1
40
1
40
1
41
1
10
58.4749942449093
20
3.33811078549763
30
0
41
1
10
58.4637430717546
20
3.31727174501862
30
0
41
1
10
58.4314090948634
20
3.28542237482182
30
0
41
1
10
58.3382692810566
20
3.25532858520123
30
0
41
1
10
58.2454541172265
20
3.28623854188049
30
0
41
1
10
58.2134101605136
20
3.31783059527507
30
0
41
1
10
58.202437116089
20
3.3386162420567
30
0
0
SPLINE
5
203
100
AcDbEntity
8
1
62
256
6
ByLayer
370
18
48
1
60
0
100
AcDbSpline
70
4
71
3
72
10
73
6
40
0
40
0
40
0
40
0
40
0.463494321914662
40
0.726246196501989
40
1
40
1
40
1
40
1
41
1
10
53.8297511530327
20
-3.33440568947384
30
0
41
1
10
53.8543271869912
20
-3.29251499416114
30
0
41
1
10
53.9053361507581
20
-3.25773233268635
30
0
41
1
10
54.0458912491602
20
-3.27455763358378
30
0
41
1
10
54.0845032825916
20
-3.31199882200693
30
0
41
1
10
54.1001598025704
20
-3.33826466711034
30
0
0
SPLINE
5
204
100
AcDbEntity
8
1
62
256
6
ByLayer
370
18
48
1
60
0
100
AcDbSpline
70
4
71
1
72
4
73
2
40
0
40
0
40
1
40
1
41
1
10
61.9855987381026
20
-3.96750121197783
30
0
41
1
10
62.247585923835
20
-3.90473231969912
30
0
0
SPLINE
5
205
100
AcDbEntity
8
1
62
256
6
ByLayer
370
18
48
1
60
0
100
AcDbSpline
70
4
71
2
72
6
73
3
40
0
40
0
40
0
40
1
40
1
40
1
41
1
10
61.6003294335768
20
-3.3386404193017
30
0
41
1
10
61.7740360482094
20
-3.63777793338923
30
0
41
1
10
61.9474524509926
20
-3.93710881354903
30
0
0
SPLINE
5
206
100
AcDbEntity
8
1
62
256
6
ByLayer
370
18
48
1
60
0
100
AcDbSpline
70
4
71
3
72
11
73
7
40
0
40
0
40
0
40
0
40
0.286823998038862
40
0.593683034258376
40
0.901510997980495
40
1
40
1
40
1
40
1
41
1
10
50.9902938779832
20
3.35492409047782
30
0
41
1
10
50.9773471187218
20
3.32965419150045
30
0
41
1
10
50.9418225829656
20
3.28884946970288
30
0
41
1
10
50.8508044360767
20
3.25498205543002
30
0
41
1
10
50.7716194618466
20
3.27055508690199
30
0
41
1
10
50.7457580324535
20
3.29549007258387
30
0
41
1
10
50.7400644630862
20
3.30247520224782
30
0
0
SPLINE
5
207
100
AcDbEntity
8
1
62
256
6
ByLayer
370
18
48
1
60
0
100
AcDbSpline
70
4
71
2
72
6
73
3
40
0
40
0
40
0
40
1
40
1
40
1
41
1
10
53.4124991210455
20
-4.05326112366694
30
0
41
1
10
53.6196386194077
20
-3.6960145103609
30
0
41
1
10
53.8269904338467
20
-3.33936113798919
30
0
0
SPLINE
5
208
100
AcDbEntity
8
1
62
256
6
ByLayer
370
18
48
1
60
0
100
AcDbSpline
70
4
71
3
72
13
73
9
40
0
40
0
40
0
40
0
40
0.241604997731953
40
0.369984328909231
40
0.500891719640633
40
0.631668630065506
40
0.759674390302489
40
1
40
1
40
1
40
1
41
1
10
61.3116017477206
20
-3.35516932439722
30
0
41
1
10
61.3243227768465
20
-3.32976702788869
30
0
41
1
10
61.3517644642938
20
-3.29873008582726
30
0
41
1
10
61.4080162188846
20
-3.26995161824922
30
0
41
1
10
61.4567467029601
20
-3.26125289597815
30
0
41
1
10
61.5054800190086
20
-3.26653657293068
30
0
41
1
10
61.5617181872577
20
-3.29082346220784
30
0
41
1
10
61.5891814126257
20
-3.31833064438285
30
0
41
1
10
61.6019524381129
20
-3.34132655953564
30
0
0
SPLINE
5
209
100
AcDbEntity
8
1
62
256
6
ByLayer
370
18
48
1
60
0
100
AcDbSpline
70
4
71
2
72
6
73
3
40
0
40
0
40
0
40
1
40
1
40
1
41
1
10
58.88840850587
20
4.05067993522582
30
0
41
1
10
58.6813149089993
20
3.69322149878332
30
0
41
1
10
58.473987866124
20
3.33632315787241
30
0
0
SPLINE
5
20A
100
AcDbEntity
8
1
62
256
6
ByLayer
370
18
48
1
60
0
100
AcDbSpline
70
4
71
2
72
6
73
3
40
0
40
0
40
0
40
1
40
1
40
1
41
1
10
52.8507456888772
20
-3.3387408089504
30
0
41
1
10
53.0598593492848
20
-3.69877074083337
30
0
41
1
10
53.2681945571681
20
-4.05805888587531
30
0
0
SPLINE
5
20B
100
AcDbEntity
8
1
62
256
6
ByLayer
370
18
48
1
60
0
100
AcDbSpline
70
4
71
3
72
13
73
9
40
0
40
0
40
0
40
0
40
0.239317240678176
40
0.367718430783437
40
0.49917178392445
40
0.630743601139118
40
0.759486448393737
40
1
40
1
40
1
40
1
41
1
10
59.7459075735831
20
3.355610005637
30
0
41
1
10
59.7328144722403
20
3.3293805890149
30
0
41
1
10
59.7050093807135
20
3.29719063145478
30
0
41
1
10
59.6485927150616
20
3.26758366885758
30
0
41
1
10
59.5996545181511
20
3.25823563545873
30
0
41
1
10
59.5507183823123
20
3.26296183728528
30
0
41
1
10
59.4942855806343
20
3.28654362607435
30
0
41
1
10
59.4665030344307
20
3.31381616997271
30
0
41
1
10
59.4534586435501
20
3.33670179677168
30
0
0
SPLINE
5
20C
100
AcDbEntity
8
1
62
256
6
ByLayer
370
18
48
1
60
0
100
AcDbSpline
70
4
71
2
72
6
73
3
40
0
40
0
40
0
40
1
40
1
40
1
41
1
10
59.4509286936212
20
3.34094350355525
30
0
41
1
10
59.2421513272359
20
3.69998283538976
30
0
41
1
10
59.033998073393
20
4.05876379872132
30
0
0
SPLINE
5
20D
100
AcDbEntity
8
1
62
256
6
ByLayer
370
18
48
1
60
0
100
AcDbSpline
70
4
71
2
72
6
73
3
40
0
40
0
40
0
40
1
40
1
40
1
41
1
10
52.6952099219811
20
-3.28000004555062
30
0
41
1
10
52.7921568735385
20
-3.23709068615543
30
0
41
1
10
52.8477791652545
20
-3.33344642561204
30
0
0
LINE
5
7F
100
AcDbEntity
8
80
62
256
6
ByLayer
370
18
48
1
60
0
100
AcDbLine
10
0
20
0
30
0
11
-5
21
0
31
0
39
0
210
0
220
0
230
1
0
LINE
5
80
100
AcDbEntity
8
4
62
256
6
ByLayer
370
18
48
0.05
60
0
100
AcDbLine
10
0
20
0
30
0
11
65.55
21
0
31
0
39
0
210
0
220
0
230
1
0
LINE
5
82
100
AcDbEntity
8
81
62
256
6
ByLayer
370
18
48
1
60
0
100
AcDbLine
10
65.55
20
0
30
0
11
70.55
21
0
31
0
39
0
210
0
220
0
230
1
0
LINE
5
83
100
AcDbEntity
8
SK4
62
256
6
ByLayer
370
18
48
0.05
60
0
100
AcDbLine
10
-24.65
20
0
30
0
11
65.55
21
0
31
0
39
0
210
0
220
0
230
1
0
LINE
5
85
100
AcDbEntity
8
1
62
256
6
ByLayer
370
18
48
1
60
0
100
AcDbLine
10
0
20
4.0385
30
0
11
0
21
-4.0385
31
0
39
0
210
0
220
0
230
1
0
LINE
5
86
100
AcDbEntity
8
1
62
256
6
ByLayer
370
18
48
1
60
0
100
AcDbLine
10
56.387956
20
4.049693
30
0
11
56.39253
21
4.056524
31
0
39
0
210
0
220
0
230
1
0
LINE
5
87
100
AcDbEntity
8
1
62
256
6
ByLayer
370
18
48
1
60
0
100
AcDbLine
10
64.177161
20
-3.442467
30
0
11
64.179572
21
-3.442063
31
0
39
0
210
0
220
0
230
1
0
LINE
5
88
100
AcDbEntity
8
1
62
256
6
ByLayer
370
18
48
1
60
0
100
AcDbLine
10
63.830113
20
-3.33371
30
0
11
63.828077
21
-3.337486
31
0
39
0
210
0
220
0
230
1
0
LINE
5
89
100
AcDbEntity
8
1
62
256
6
ByLayer
370
18
48
1
60
0
100
AcDbLine
10
56.937258
20
3.354911
30
0
11
56.933046
21
3.35591
31
0
39
0
210
0
220
0
230
1
0
LINE
5
8A
100
AcDbEntity
8
1
62
256
6
ByLayer
370
18
48
1
60
0
100
AcDbLine
10
55.367282
20
-3.355245
30
0
11
55.360233
21
-3.350954
31
0
39
0
210
0
220
0
230
1
0
LINE
5
8B
100
AcDbEntity
8
1
62
256
6
ByLayer
370
18
48
1
60
0
100
AcDbLine
10
55.077536
20
-3.338994
30
0
11
55.075537
21
-3.342235
31
0
39
0
210
0
220
0
230
1
0
LINE
5
8C
100
AcDbEntity
8
1
62
256
6
ByLayer
370
18
48
1
60
0
100
AcDbLine
10
58.203775
20
3.336256
30
0
11
58.201483
21
3.340208
31
0
39
0
210
0
220
0
230
1
0
LINE
5
8D
100
AcDbEntity
8
1
62
256
6
ByLayer
370
18
48
1
60
0
100
AcDbLine
10
54.10101
20
-3.339705
30
0
11
54.098031
21
-3.334393
31
0
39
0
210
0
220
0
230
1
0
LINE
5
8E
100
AcDbEntity
8
1
62
256
6
ByLayer
370
18
48
1
60
0
100
AcDbLine
10
62.580161
20
-3.333305
30
0
11
62.576643
21
-3.339549
31
0
39
0
210
0
220
0
230
1
0
LINE
5
8F
100
AcDbEntity
8
1
62
256
6
ByLayer
370
18
48
1
60
0
100
AcDbLine
10
62.253802
20
-3.895164
30
0
11
62.24943
21
-3.90215
31
0
39
0
210
0
220
0
230
1
0
LINE
5
90
100
AcDbEntity
8
1
62
256
6
ByLayer
370
18
48
1
60
0
100
AcDbLine
10
53.829456
20
-3.334966
30
0
11
53.827001
21
-3.339343
31
0
39
0
210
0
220
0
230
1
0
LINE
5
91
100
AcDbEntity
8
1
62
256
6
ByLayer
370
18
48
1
60
0
100
AcDbLine
10
58.47595
20
3.33973
30
0
11
58.473988
21
3.336323
31
0
39
0
210
0
220
0
230
1
0
LINE
5
92
100
AcDbEntity
8
1
62
256
6
ByLayer
370
18
48
1
60
0
100
AcDbLine
10
59.746197
20
3.355597
30
0
11
59.741897
21
3.355059
31
0
39
0
210
0
220
0
230
1
0
LINE
5
93
100
AcDbEntity
8
1
62
256
6
ByLayer
370
18
48
1
60
0
100
AcDbLine
10
65.55
20
2.915
30
0
11
65.55
21
2.913613
31
0
39
0
210
0
220
0
230
1
0
LINE
5
94
100
AcDbEntity
8
1
62
256
6
ByLayer
370
13
48
1
60
0
100
AcDbLine
10
50.656078
20
3.261222
30
0
11
50.656078
21
2.763887
31
0
39
0
210
0
220
0
230
1
0
LINE
5
95
100
AcDbEntity
8
1
62
256
6
ByLayer
370
18
48
1
60
0
100
AcDbLine
10
52.850792
20
-3.338818
30
0
11
52.847941
21
-3.333753
31
0
39
0
210
0
220
0
230
1
0
LINE
5
96
100
AcDbEntity
8
1
62
256
6
ByLayer
370
13
48
1
60
0
100
AcDbLine
10
50.106078
20
2.854556
30
0
11
50.106078
21
3.11385
31
0
39
0
210
0
220
0
230
1
0
LINE
5
97
100
AcDbEntity
8
1
62
256
6
ByLayer
370
13
48
1
60
0
100
AcDbLine
10
31.446238
20
-3.11385
30
0
11
31.446238
21
3.11385
31
0
39
0
210
0
220
0
230
1
0
LINE
5
98
100
AcDbEntity
8
1
62
256
6
ByLayer
370
18
48
1
60
0
100
AcDbLine
10
52.046891
20
-3.552688
30
0
11
52.046891
21
-4.048355
31
0
39
0
210
0
220
0
230
1
0
LINE
5
99
100
AcDbEntity
8
1
62
256
6
ByLayer
370
13
48
1
60
0
100
AcDbLine
10
50.106078
20
-2.504626
30
0
11
50.106078
21
-0.681629
31
0
39
0
210
0
220
0
230
1
0
LINE
5
9A
100
AcDbEntity
8
1
62
256
6
ByLayer
370
13
48
1
60
0
100
AcDbLine
10
50.656078
20
-1.144591
30
0
11
50.656078
21
-2.881068
31
0
39
0
210
0
220
0
230
1
0
LINE
5
9B
100
AcDbEntity
8
1
62
256
6
ByLayer
370
18
48
1
60
0
100
AcDbLine
10
65.55
20
0.497349
30
0
11
65.55
21
-1.534661
31
0
39
0
210
0
220
0
230
1
0
LINE
5
9C
100
AcDbEntity
8
1
62
256
6
ByLayer
370
13
48
1
60
0
100
AcDbLine
10
31.255225
20
3.130561
30
0
11
31.255225
21
-3.130561
31
0
39
0
210
0
220
0
230
1
0
LINE
5
9D
100
AcDbEntity
8
1
62
256
6
ByLayer
370
18
48
1
60
0
100
AcDbLine
10
26.106049
20
4.0385
30
0
11
26.106049
21
-4.0385
31
0
39
0
210
0
220
0
230
1
0
LINE
5
9E
100
AcDbEntity
8
SK1
62
256
6
ByLayer
370
18
48
1
60
0
100
AcDbLine
10
-24.65
20
2.67696
30
0
11
-24.65
21
-2.67696
31
0
39
0
210
0
220
0
230
1
0
LINE
5
A0
100
AcDbEntity
8
SK1
62
256
6
ByLayer
370
18
48
1
60
0
100
AcDbLine
10
-14.14804
20
3.87696
30
0
11
-15
21
3.025
31
0
39
0
210
0
220
0
230
1
0
LINE
5
A1
100
AcDbEntity
8
SK1
62
256
6
ByLayer
370
18
48
1
60
0
100
AcDbLine
10
-23.45
20
3.025
30
0
11
-15
21
3.025
31
0
39
0
210
0
220
0
230
1
0
LINE
5
A2
100
AcDbEntity
8
SK1
62
256
6
ByLayer
370
18
48
1
60
0
100
AcDbLine
10
-23.45
20
2.424911
30
0
11
-23.45
21
3.025
31
0
39
0
210
0
220
0
230
1
0
LINE
5
A3
100
AcDbEntity
8
SK1
62
256
6
ByLayer
370
18
48
1
60
0
100
AcDbLine
10
-15
20
2.424911
30
0
11
-23.45
21
2.424911
31
0
39
0
210
0
220
0
230
1
0
LINE
5
A4
100
AcDbEntity
8
SK1
62
256
6
ByLayer
370
18
48
1
60
0
100
AcDbLine
10
-23.45
20
-2.424911
30
0
11
-15
21
-2.424911
31
0
39
0
210
0
220
0
230
1
0
LINE
5
A5
100
AcDbEntity
8
SK1
62
256
6
ByLayer
370
18
48
1
60
0
100
AcDbLine
10
-23.45
20
-3.025
30
0
11
-23.45
21
-2.424911
31
0
39
0
210
0
220
0
230
1
0
LINE
5
A6
100
AcDbEntity
8
SK1
62
256
6
ByLayer
370
18
48
1
60
0
100
AcDbLine
10
-15
20
-3.025
30
0
11
-23.45
21
-3.025
31
0
39
0
210
0
220
0
230
1
0
LINE
5
A7
100
AcDbEntity
8
SK1
62
256
6
ByLayer
370
18
48
1
60
0
100
AcDbLine
10
-15
20
-3.025
30
0
11
-14.14804
21
-3.87696
31
0
39
0
210
0
220
0
230
1
0
LINE
5
A8
100
AcDbEntity
8
SK1
62
256
6
ByLayer
370
18
48
1
60
0
100
AcDbLine
10
-15
20
2.424911
30
0
11
-15
21
-2.424911
31
0
39
0
210
0
220
0
230
1
0
LINE
5
A9
100
AcDbEntity
8
SK1
62
256
6
ByLayer
370
18
48
1
60
0
100
AcDbLine
10
-14.035
20
3.87696
30
0
11
-14.035
21
-3.87696
31
0
39
0
210
0
220
0
230
1
0
LINE
5
AA
100
AcDbEntity
8
SK1
62
256
6
ByLayer
370
18
48
1
60
0
100
AcDbLine
10
0
20
4.0385
30
0
11
0
21
-4.0385
31
0
39
0
210
0
220
0
230
1
0
LINE
5
AB
100
AcDbEntity
8
SK1
62
256
6
ByLayer
370
18
48
1
60
0
100
AcDbLine
10
-13.87346
20
-4.0385
30
0
11
-13.87346
21
4.0385
31
0
39
0
210
0
220
0
230
1
0
LINE
5
AC
100
AcDbEntity
8
1
62
256
6
ByLayer
370
18
48
1
60
0
100
AcDbLine
10
51.309701
20
3.638592
30
0
11
51.079416
21
3.505636
31
0
39
0
210
0
220
0
230
1
0
LINE
5
AD
100
AcDbEntity
8
1
62
256
6
ByLayer
370
18
48
1
60
0
100
AcDbLine
10
26.106049
20
4.0385
30
0
11
0
21
4.0385
31
0
39
0
210
0
220
0
230
1
0
LINE
5
AE
100
AcDbEntity
8
1
62
256
6
ByLayer
370
18
48
1
60
0
100
AcDbLine
10
0
20
-4.0385
30
0
11
26.106049
21
-4.0385
31
0
39
0
210
0
220
0
230
1
0
LINE
5
AF
100
AcDbEntity
8
1
62
256
6
ByLayer
370
18
48
1
60
0
100
AcDbLine
10
65.55
20
2.915
30
0
11
65.398316
21
3.066684
31
0
39
0
210
0
220
0
230
1
0
LINE
5
B0
100
AcDbEntity
8
1
62
256
6
ByLayer
370
18
48
1
60
0
100
AcDbLine
10
54.52951
20
-4.064208
30
0
11
54.64759
21
-4.064208
31
0
39
0
210
0
220
0
230
1
0
LINE
5
B1
100
AcDbEntity
8
1
62
256
6
ByLayer
370
18
48
1
60
0
100
AcDbLine
10
57.772706
20
4.064208
30
0
11
57.654428
21
4.064208
31
0
39
0
210
0
220
0
230
1
0
LINE
5
B2
100
AcDbEntity
8
1
62
256
6
ByLayer
370
18
48
1
60
0
100
AcDbLine
10
50.723398
20
3.300089
30
0
11
50.656078
21
3.261222
31
0
39
0
210
0
220
0
230
1
0
LINE
5
B3
100
AcDbEntity
8
1
62
256
6
ByLayer
370
18
48
1
60
0
100
AcDbLine
10
53.279905
20
-4.064208
30
0
11
53.397715
21
-4.064208
31
0
39
0
210
0
220
0
230
1
0
LINE
5
B4
100
AcDbEntity
8
1
62
256
6
ByLayer
370
18
48
1
60
0
100
AcDbLine
10
59.022557
20
4.064208
30
0
11
58.904522
21
4.064208
31
0
39
0
210
0
220
0
230
1
0
LINE
5
B5
100
AcDbEntity
8
1
62
256
6
ByLayer
370
18
48
1
60
0
100
AcDbLine
10
31.446238
20
-3.11385
30
0
11
38.62838
21
-3.11385
31
0
39
0
210
0
220
0
230
1
0
LINE
5
B6
100
AcDbEntity
8
1
62
256
6
ByLayer
370
18
48
1
60
0
100
AcDbLine
10
44.204941
20
-3.11385
30
0
11
47.087664
21
-3.11385
31
0
39
0
210
0
220
0
230
1
0
LINE
5
B7
100
AcDbEntity
8
1
62
256
6
ByLayer
370
18
48
1
60
0
100
AcDbLine
10
50.106078
20
3.11385
30
0
11
48.442963
21
3.11385
31
0
39
0
210
0
220
0
230
1
0
LINE
5
B8
100
AcDbEntity
8
1
62
256
6
ByLayer
370
18
48
1
60
0
100
AcDbLine
10
42.841206
20
3.11385
30
0
11
39.834435
21
3.11385
31
0
39
0
210
0
220
0
230
1
0
LINE
5
B9
100
AcDbEntity
8
1
62
256
6
ByLayer
370
18
48
1
60
0
100
AcDbLine
10
36.605619
20
3.11385
30
0
11
31.446238
21
3.11385
31
0
39
0
210
0
220
0
230
1
0
LINE
5
BA
100
AcDbEntity
8
1
62
256
6
ByLayer
370
18
48
1
60
0
100
AcDbLine
10
31.255225
20
3.130561
30
0
11
26.106049
21
4.0385
31
0
39
0
210
0
220
0
230
1
0
LINE
5
BB
100
AcDbEntity
8
1
62
256
6
ByLayer
370
18
48
1
60
0
100
AcDbLine
10
26.106049
20
-4.0385
30
0
11
31.255225
21
-3.130561
31
0
39
0
210
0
220
0
230
1
0
LINE
5
BC
100
AcDbEntity
8
SK1
62
256
6
ByLayer
370
18
48
1
60
0
100
AcDbLine
10
-24.65
20
-2.67696
30
0
11
-24.30196
21
-3.025
31
0
39
0
210
0
220
0
230
1
0
LINE
5
BD
100
AcDbEntity
8
SK1
62
256
6
ByLayer
370
18
48
1
60
0
100
AcDbLine
10
-24.30196
20
3.025
30
0
11
-24.65
21
2.67696
31
0
39
0
210
0
220
0
230
1
0
LINE
5
BE
100
AcDbEntity
8
SK1
62
256
6
ByLayer
370
18
48
1
60
0
100
AcDbLine
10
-14.035
20
3.87696
30
0
11
-14.14804
21
3.87696
31
0
39
0
210
0
220
0
230
1
0
LINE
5
BF
100
AcDbEntity
8
SK1
62
256
6
ByLayer
370
18
48
1
60
0
100
AcDbLine
10
-14.14804
20
-3.87696
30
0
11
-14.035
21
-3.87696
31
0
39
0
210
0
220
0
230
1
0
LINE
5
C0
100
AcDbEntity
8
SK1
62
256
6
ByLayer
370
18
48
1
60
0
100
AcDbLine
10
-14.035
20
-3.87696
30
0
11
-13.87346
21
-4.0385
31
0
39
0
210
0
220
0
230
1
0
LINE
5
C1
100
AcDbEntity
8
SK1
62
256
6
ByLayer
370
18
48
1
60
0
100
AcDbLine
10
-13.87346
20
4.0385
30
0
11
-14.035
21
3.87696
31
0
39
0
210
0
220
0
230
1
0
LINE
5
C2
100
AcDbEntity
8
SK1
62
256
6
ByLayer
370
18
48
1
60
0
100
AcDbLine
10
0
20
4.0385
30
0
11
-13.87346
21
4.0385
31
0
39
0
210
0
220
0
230
1
0
LINE
5
C3
100
AcDbEntity
8
SK1
62
256
6
ByLayer
370
18
48
1
60
0
100
AcDbLine
10
-13.87346
20
-4.0385
30
0
11
0
21
-4.0385
31
0
39
0
210
0
220
0
230
1
0
LINE
5
C4
100
AcDbEntity
8
SK2
62
256
6
ByLayer
370
18
48
1
60
0
100
AcDbLine
10
14.116295
20
-4.0385
30
0
11
14.116295
21
24.821241
31
0
39
0
210
0
220
0
230
1
0
LINE
5
C6
100
AcDbEntity
8
1
62
256
6
ByLayer
370
18
48
1
60
1
100
AcDbLine
10
14.116295
20
4.0385
30
0
11
14.577078
21
0.538502
31
0
39
0
210
0
220
0
230
1
0
LINE
5
C7
100
AcDbEntity
8
1
62
256
6
ByLayer
370
18
48
1
60
1
100
AcDbLine
10
14.577078
20
0.538502
30
0
11
13.655511
21
0.538498
31
0
39
0
210
0
220
0
230
1
0
LINE
5
C8
100
AcDbEntity
8
1
62
256
6
ByLayer
370
18
48
1
60
1
100
AcDbLine
10
13.655511
20
0.538498
30
0
11
14.116295
21
4.0385
31
0
39
0
210
0
220
0
230
1
0
LINE
5
C9
100
AcDbEntity
8
1
62
256
6
ByLayer
370
18
48
1
60
1
100
AcDbLine
10
14.116295
20
-4.0385
30
0
11
13.655511
21
-0.538502
31
0
39
0
210
0
220
0
230
1
0
LINE
5
CA
100
AcDbEntity
8
1
62
256
6
ByLayer
370
18
48
1
60
1
100
AcDbLine
10
13.655511
20
-0.538502
30
0
11
14.577078
21
-0.538498
31
0
39
0
210
0
220
0
230
1
0
LINE
5
CB
100
AcDbEntity
8
1
62
256
6
ByLayer
370
18
48
1
60
1
100
AcDbLine
10
14.577078
20
-0.538498
30
0
11
14.116295
21
-4.0385
31
0
39
0
210
0
220
0
230
1
0
LINE
5
CC
100
AcDbEntity
8
2
62
256
6
ByLayer
370
18
48
1
60
0
100
AcDbLine
10
65.35
20
-41.564208
30
0
11
-24.65
21
-41.564208
31
0
39
0
210
0
220
0
230
1
0
LINE
5
CE
100
AcDbEntity
8
2
62
256
6
ByLayer
370
18
48
1
60
0
100
AcDbLine
10
-24.65
20
-4.26446
30
0
11
-24.65
21
-43.564208
31
0
39
0
210
0
220
0
230
1
0
LINE
5
CF
100
AcDbEntity
8
2
62
256
6
ByLayer
370
18
48
1
60
0
100
AcDbLine
10
65.35
20
-5.651708
30
0
11
65.35
21
-43.564208
31
0
39
0
210
0
220
0
230
1
0
LINE
5
D0
100
AcDbEntity
8
1
62
256
6
ByLayer
370
18
48
1
60
1
100
AcDbLine
10
-24.65
20
-41.564208
30
0
11
-21.150002
21
-41.103425
31
0
39
0
210
0
220
0
230
1
0
LINE
5
D1
100
AcDbEntity
8
1
62
256
6
ByLayer
370
18
48
1
60
1
100
AcDbLine
10
-21.150002
20
-41.103425
30
0
11
-21.149998
21
-42.024992
31
0
39
0
210
0
220
0
230
1
0
LINE
5
D2
100
AcDbEntity
8
1
62
256
6
ByLayer
370
18
48
1
60
1
100
AcDbLine
10
-21.149998
20
-42.024992
30
0
11
-24.65
21
-41.564208
31
0
39
0
210
0
220
0
230
1
0
LINE
5
D3
100
AcDbEntity
8
1
62
256
6
ByLayer
370
18
48
1
60
1
100
AcDbLine
10
65.35
20
-41.564208
30
0
11
61.850002
21
-42.024992
31
0
39
0
210
0
220
0
230
1
0
LINE
5
D4
100
AcDbEntity
8
1
62
256
6
ByLayer
370
18
48
1
60
1
100
AcDbLine
10
61.850002
20
-42.024992
30
0
11
61.849998
21
-41.103425
31
0
39
0
210
0
220
0
230
1
0
LINE
5
D5
100
AcDbEntity
8
1
62
256
6
ByLayer
370
18
48
1
60
1
100
AcDbLine
10
61.849998
20
-41.103425
30
0
11
65.35
21
-41.564208
31
0
39
0
210
0
220
0
230
1
0
LINE
5
212
100
AcDbEntity
8
1
62
256
6
ByLayer
370
18
48
1
60
1
100
AcDbLine
10
14.116295
20
4.0385
30
0
11
14.577078
21
0.538502
31
0
39
0
210
0
220
0
230
1
0
LINE
5
213
100
AcDbEntity
8
1
62
256
6
ByLayer
370
18
48
1
60
1
100
AcDbLine
10
14.577078
20
0.538502
30
0
11
13.655511
21
0.538498
31
0
39
0
210
0
220
0
230
1
0
LINE
5
214
100
AcDbEntity
8
1
62
256
6
ByLayer
370
18
48
1
60
1
100
AcDbLine
10
13.655511
20
0.538498
30
0
11
14.116295
21
4.0385
31
0
39
0
210
0
220
0
230
1
0
LINE
5
216
100
AcDbEntity
8
1
62
256
6
ByLayer
370
18
48
1
60
1
100
AcDbLine
10
14.116295
20
-4.0385
30
0
11
13.655511
21
-0.538502
31
0
39
0
210
0
220
0
230
1
0
LINE
5
217
100
AcDbEntity
8
1
62
256
6
ByLayer
370
18
48
1
60
1
100
AcDbLine
10
13.655511
20
-0.538502
30
0
11
14.577078
21
-0.538498
31
0
39
0
210
0
220
0
230
1
0
LINE
5
218
100
AcDbEntity
8
1
62
256
6
ByLayer
370
18
48
1
60
1
100
AcDbLine
10
14.577078
20
-0.538498
30
0
11
14.116295
21
-4.0385
31
0
39
0
210
0
220
0
230
1
0
LINE
5
21B
100
AcDbEntity
8
1
62
256
6
ByLayer
370
18
48
1
60
1
100
AcDbLine
10
-24.65
20
-41.564208
30
0
11
-21.150002
21
-41.103425
31
0
39
0
210
0
220
0
230
1
0
LINE
5
21C
100
AcDbEntity
8
1
62
256
6
ByLayer
370
18
48
1
60
1
100
AcDbLine
10
-21.150002
20
-41.103425
30
0
11
-21.149998
21
-42.024992
31
0
39
0
210
0
220
0
230
1
0
LINE
5
21D
100
AcDbEntity
8
1
62
256
6
ByLayer
370
18
48
1
60
1
100
AcDbLine
10
-21.149998
20
-42.024992
30
0
11
-24.65
21
-41.564208
31
0
39
0
210
0
220
0
230
1
0
LINE
5
21F
100
AcDbEntity
8
1
62
256
6
ByLayer
370
18
48
1
60
1
100
AcDbLine
10
65.35
20
-41.564208
30
0
11
61.850002
21
-42.024992
31
0
39
0
210
0
220
0
230
1
0
LINE
5
220
100
AcDbEntity
8
1
62
256
6
ByLayer
370
18
48
1
60
1
100
AcDbLine
10
61.850002
20
-42.024992
30
0
11
61.849998
21
-41.103425
31
0
39
0
210
0
220
0
230
1
0
LINE
5
221
100
AcDbEntity
8
1
62
256
6
ByLayer
370
18
48
1
60
1
100
AcDbLine
10
61.849998
20
-41.103425
30
0
11
65.35
21
-41.564208
31
0
39
0
210
0
220
0
230
1
0
MTEXT
5
20E
100
AcDbEntity
8
SK2
62
256
6
ByLayer
370
18
48
1
60
0
100
AcDbMText
10
12.77518
20
9.696937
30
0
210
0
220
0
230
1
1
%%c
40
3
41
0
44
1.084337
50
90
71
7
72
5
7
iso_b_vert
0
MTEXT
5
211
100
AcDbEntity
8
SK2
62
256
6
ByLayer
370
18
48
1
60
0
100
AcDbMText
10
12.77518
20
15.6735
30
0
210
0
220
0
230
1
1
\W0.7468;8.077
40
3
41
0
44
1.084337
50
90
71
7
72
5
7
iso_b_vert
0
MTEXT
5
21A
100
AcDbEntity
8
2
62
256
6
ByLayer
370
18
48
1
60
0
100
AcDbMText
10
18.717172
20
-40.679094
30
0
210
0
220
0
230
1
1
\W0.6740;90
40
3
41
0
44
1.084337
50
0
71
7
72
5
7
iso_b_vert
0
MTEXT
5
223
100
AcDbEntity
8
SK6
62
256
6
ByLayer
370
18
48
1
60
0
100
AcDbMText
10
2.287537
20
-82.114886
30
0
210
0
220
0
230
1
1
\W0.7371;T300-XM100AA-M8     C110
40
3
41
0
44
1.084337
50
0
71
7
72
5
7
iso_b_vert
0
HATCH
5
215
100
AcDbEntity
8
SK2
62
256
6
ByLayer
370
13
48
1
60
0
100
AcDbHatch
10
0
20
0
30
0
210
0
220
0
230
1
2
ANSI31
70
0
71
0
91
1
92
5
93
3
72
1
10
14.1162946327452
20
4.03850000000003
11
14.577078374298
21
0.538501692553211
72
1
10
14.577078374298
20
0.538501692553211
11
13.6555108911925
21
0.538498307446844
72
1
10
13.6555108911925
20
0.538498307446844
11
14.1162946327452
21
4.03850000000003
97
0
75
0
76
1
52
0
41
0.0062
77
0
78
1
53
45
43
0
44
0
45
-0.0139193969876572
46
0.0139193969876572
79
0
47
0
98
1
10
0
20
0
0
HATCH
5
219
100
AcDbEntity
8
SK2
62
256
6
ByLayer
370
13
48
1
60
0
100
AcDbHatch
10
0
20
0
30
0
210
0
220
0
230
1
2
ANSI31
70
0
71
0
91
1
92
5
93
3
72
1
10
14.1162946327452
20
-4.03849999999997
11
13.6555108911925
21
-0.538501692553155
72
1
10
13.6555108911925
20
-0.538501692553155
11
14.577078374298
21
-0.538498307446787
72
1
10
14.577078374298
20
-0.538498307446787
11
14.1162946327452
21
-4.03849999999997
97
0
75
0
76
1
52
0
41
0.0062
77
0
78
1
53
45
43
0
44
0
45
-0.0139193969876572
46
0.0139193969876572
79
0
47
0
98
1
10
0
20
0
0
HATCH
5
21E
100
AcDbEntity
8
2
62
256
6
ByLayer
370
13
48
1
60
0
100
AcDbHatch
10
0
20
0
30
0
210
0
220
0
230
1
2
ANSI31
70
0
71
0
91
1
92
5
93
3
72
1
10
-24.65
20
-41.5642083312539
11
-21.1500016925532
21
-41.1034245897011
72
1
10
-21.1500016925532
20
-41.1034245897011
11
-21.1499983074468
21
-42.0249920728067
72
1
10
-21.1499983074468
20
-42.0249920728067
11
-24.65
21
-41.5642083312539
97
0
75
0
76
1
52
0
41
0.0062
77
0
78
1
53
45
43
0
44
0
45
-0.0139193969876572
46
0.0139193969876572
79
0
47
0
98
1
10
0
20
0
0
HATCH
5
222
100
AcDbEntity
8
2
62
256
6
ByLayer
370
13
48
1
60
0
100
AcDbHatch
10
0
20
0
30
0
210
0
220
0
230
1
2
ANSI31
70
0
71
0
91
1
92
5
93
3
72
1
10
65.35
20
-41.5642083312539
11
61.8500016925532
21
-42.0249920728067
72
1
10
61.8500016925532
20
-42.0249920728067
11
61.8499983074468
21
-41.1034245897011
72
1
10
61.8499983074468
20
-41.1034245897011
11
65.35
21
-41.5642083312539
97
0
75
0
76
1
52
0
41
0.0062
77
0
78
1
53
45
43
0
44
0
45
-0.0139193969876572
46
0.0139193969876572
79
0
47
0
98
1
10
0
20
0
0
DIMENSION
5
226
100
AcDbEntity
8
2
62
256
6
ByLayer
370
18
48
1
60
0
100
AcDbDimension
2
_U0
10
83.725792
20
-4.064208
30
0
11
83.725792
21
21.564208
31
0
70
32
71
1
72
1
41
1
210
0
220
0
230
1
3
Standard
100
AcDbAlignedDimension
13
65.35
23
4.064208
33
0
14
65.35
24
-4.064208
34
0
50
90
100
AcDbRotatedDimension
1001
ACAD
1000
DSTYLE
1002
{
1070
   371
1070
    13
1070
   372
1070
    13
1070
     3
1000

1070
   170
1070
     0
1070
   144
1040
1.0
1070
   277
1070
     2
1070
   284
1070
     8
1070
   278
1070
    46
1070
   146
1040
1.166667
1070
   345
1005
16
1070
   347
1005
16
1070
   346
1005
16
1070
   344
1005
0
1070
   343
1005
0
1070
   172
1070
     1
1070
    76
1070
     0
1070
    75
1070
     0
1070
   282
1070
     0
1070
   281
1070
     0
1070
    71
1070
     0
1070
    74
1070
     0
1070
   279
1070
     0
1070
   173
1070
     1
1070
   340
1005
20F
1070
   271
1070
     3
1070
   272
1070
     3
1070
    77
1070
     1
1070
    73
1070
     0
1070
   171
1070
     3
1070
   274
1070
     4
1070
   177
1070
     2
1070
   176
1070
     2
1070
   178
1070
     2
1070
    78
1070
     8
1070
    48
1040
-0.1
1070
    41
1040
3.5
1070
   147
1040
1.5
1070
    42
1040
1.5875
1070
    44
1040
2.0
1070
   140
1040
3.0
1002
}
1001
ACAD_DSTYLE_DIM_LINETYPE
1070
   380
1005
16
1001
ACAD_DSTYLE_DIM_EXT1_LINETYPE
1070
   381
1005
16
1001
ACAD_DSTYLE_DIM_EXT2_LINETYPE
1070
   382
1005
16
0
DIMENSION
5
241
100
AcDbEntity
8
SK2
62
256
6
ByLayer
370
18
48
1
60
0
100
AcDbDimension
2
_U1
10
61.91
20
13.905315
30
0
11
63.63
21
13.905315
31
0
70
32
71
1
72
1
41
1
210
0
220
0
230
1
3
Standard
100
AcDbAlignedDimension
13
65.35
23
4.064208
33
0
14
61.91
24
0
34
0
50
0
100
AcDbRotatedDimension
1001
ACAD
1000
DSTYLE
1002
{
1070
   371
1070
    13
1070
   372
1070
    13
1070
   170
1070
     0
1070
   144
1040
1.0
1070
   277
1070
     2
1070
   284
1070
     8
1070
   278
1070
    46
1070
   146
1040
1.166667
1070
   345
1005
16
1070
   347
1005
16
1070
   346
1005
16
1070
   344
1005
0
1070
   343
1005
0
1070
   172
1070
     1
1070
    76
1070
     0
1070
    75
1070
     0
1070
   282
1070
     0
1070
   281
1070
     0
1070
    71
1070
     0
1070
    74
1070
     0
1070
   279
1070
     0
1070
   173
1070
     1
1070
   340
1005
20F
1070
   271
1070
     3
1070
   272
1070
     3
1070
    77
1070
     1
1070
    73
1070
     1
1070
   171
1070
     3
1070
   274
1070
     4
1070
   177
1070
     2
1070
   176
1070
     2
1070
   178
1070
     2
1070
    78
1070
     8
1070
    48
1040
-0.1
1070
    41
1040
3.5
1070
   147
1040
1.5
1070
    42
1040
1.5875
1070
    44
1040
2.0
1070
   140
1040
3.0
1002
}
1001
ACAD_DSTYLE_DIM_LINETYPE
1070
   380
1005
16
1001
ACAD_DSTYLE_DIM_EXT1_LINETYPE
1070
   381
1005
16
1001
ACAD_DSTYLE_DIM_EXT2_LINETYPE
1070
   382
1005
16
0
DIMENSION
5
25B
100
AcDbEntity
8
SK2
62
256
6
ByLayer
370
18
48
1
60
0
100
AcDbDimension
2
_U2
10
52.35
20
-11.064208
30
0
11
79.064286
21
-11.064208
31
0
70
32
71
1
72
1
41
1
210
0
220
0
230
1
3
Standard
100
AcDbAlignedDimension
13
65.35
23
-4.064208
33
0
14
52.35
24
-4.064208
34
0
50
0
100
AcDbRotatedDimension
1001
ACAD
1000
DSTYLE
1002
{
1070
   371
1070
    13
1070
   372
1070
    13
1070
   170
1070
     0
1070
   144
1040
1.0
1070
   277
1070
     2
1070
   284
1070
     8
1070
   278
1070
    46
1070
   146
1040
0.833333
1070
   345
1005
16
1070
   347
1005
16
1070
   346
1005
16
1070
   344
1005
0
1070
   343
1005
0
1070
   172
1070
     1
1070
    76
1070
     0
1070
    75
1070
     0
1070
   282
1070
     0
1070
   281
1070
     0
1070
    47
1040
0.5
1070
    72
1070
     0
1070
    71
1070
     1
1070
    74
1070
     0
1070
   279
1070
     0
1070
   173
1070
     1
1070
   340
1005
20F
1070
   271
1070
     1
1070
   272
1070
     3
1070
    77
1070
     1
1070
    73
1070
     1
1070
   171
1070
     3
1070
   274
1070
     4
1070
   177
1070
     2
1070
   176
1070
     2
1070
   178
1070
     2
1070
    78
1070
     8
1070
    48
1040
0.5
1070
    41
1040
3.5
1070
   147
1040
1.5
1070
    42
1040
1.5875
1070
    44
1040
2.0
1070
   140
1040
3.0
1002
}
1001
ACAD_DSTYLE_DIM_LINETYPE
1070
   380
1005
16
1001
ACAD_DSTYLE_DIM_EXT1_LINETYPE
1070
   381
1005
16
1001
ACAD_DSTYLE_DIM_EXT2_LINETYPE
1070
   382
1005
16
0
DIMENSION
5
276
100
AcDbEntity
8
SK2
62
256
6
ByLayer
370
18
48
1
60
0
100
AcDbDimension
2
_U3
10
31.35
20
-33.564208
30
0
11
48.35
21
-33.564208
31
0
70
32
71
1
72
1
41
1
210
0
220
0
230
1
3
Standard
100
AcDbAlignedDimension
13
65.35
23
-4.064208
33
0
14
31.35
24
-3.11385
34
0
50
0
100
AcDbRotatedDimension
1001
ACAD
1000
DSTYLE
1002
{
1070
   371
1070
    13
1070
   372
1070
    13
1070
   170
1070
     0
1070
   144
1040
1.0
1070
   277
1070
     2
1070
   284
1070
     8
1070
   278
1070
    46
1070
   146
1040
1.166667
1070
   345
1005
16
1070
   347
1005
16
1070
   346
1005
16
1070
   344
1005
0
1070
   343
1005
0
1070
   172
1070
     1
1070
    76
1070
     0
1070
    75
1070
     0
1070
   282
1070
     0
1070
   281
1070
     0
1070
    71
1070
     0
1070
    74
1070
     0
1070
   279
1070
     0
1070
   173
1070
     1
1070
   340
1005
20F
1070
   271
1070
     1
1070
   272
1070
     3
1070
    77
1070
     1
1070
    73
1070
     1
1070
   171
1070
     3
1070
   274
1070
     4
1070
   177
1070
     2
1070
   176
1070
     2
1070
   178
1070
     2
1070
    78
1070
     8
1070
    48
1040
-0.1
1070
    41
1040
3.5
1070
   147
1040
1.5
1070
    42
1040
1.5875
1070
    44
1040
2.0
1070
   140
1040
3.0
1002
}
1001
ACAD_DSTYLE_DIM_LINETYPE
1070
   380
1005
16
1001
ACAD_DSTYLE_DIM_EXT1_LINETYPE
1070
   381
1005
16
1001
ACAD_DSTYLE_DIM_EXT2_LINETYPE
1070
   382
1005
16
0
DIMENSION
5
28E
100
AcDbEntity
8
2
62
256
6
ByLayer
370
18
48
1
60
0
100
AcDbDimension
2
_U4
10
36.45
20
-22.564208
30
0
11
50.9
21
-22.564208
31
0
70
32
71
1
72
1
41
1
210
0
220
0
230
1
3
Standard
100
AcDbAlignedDimension
13
65.35
23
-4.064208
33
0
14
36.45
24
0
34
0
50
0
100
AcDbRotatedDimension
1001
ACAD
1000
DSTYLE
1002
{
1070
   371
1070
    13
1070
   372
1070
    13
1070
   170
1070
     0
1070
   144
1040
1.0
1070
   277
1070
     2
1070
   284
1070
     8
1070
   278
1070
    46
1070
   146
1040
1.166667
1070
   345
1005
16
1070
   347
1005
16
1070
   346
1005
16
1070
   344
1005
0
1070
   343
1005
0
1070
   172
1070
     1
1070
    76
1070
     0
1070
    75
1070
     0
1070
   282
1070
     0
1070
   281
1070
     0
1070
    71
1070
     0
1070
    74
1070
     0
1070
   279
1070
     0
1070
   173
1070
     1
1070
   340
1005
20F
1070
   271
1070
     1
1070
   272
1070
     3
1070
    77
1070
     1
1070
    73
1070
     1
1070
   171
1070
     3
1070
   274
1070
     4
1070
   177
1070
     2
1070
   176
1070
     2
1070
   178
1070
     2
1070
    78
1070
     8
1070
    48
1040
-0.1
1070
    41
1040
3.5
1070
   147
1040
1.5
1070
    42
1040
1.5875
1070
    44
1040
2.0
1070
   140
1040
3.0
1002
}
1001
ACAD_DSTYLE_DIM_LINETYPE
1070
   380
1005
16
1001
ACAD_DSTYLE_DIM_EXT1_LINETYPE
1070
   381
1005
16
1001
ACAD_DSTYLE_DIM_EXT2_LINETYPE
1070
   382
1005
16
0
ENDSEC
0
SECTION
2
OBJECTS
0
DICTIONARY
5
316
330
0
100
AcDbDictionary
280
0
281
1
3
ACAD_GROUP
350
317
3
ACAD_MLINESTYLE
350
318
0
DICTIONARY
5
317
330
0
100
AcDbDictionary
280
0
281
1
0
DICTIONARY
5
318
330
0
100
AcDbDictionary
280
0
281
1
3
Standard
350
18
0
MLINESTYLE
5
18
330
318
100
AcDbMlineStyle
2
Standard
70
0
3

62
256
51
90
52
90
71
2
49
-0.5
62
256
6
ByLayer
49
0.5
62
256
6
ByLayer
0
RASTERVARIABLES
5
304
330

100
AcDbRasterVariables
90
0
70
1
71
1
72
1
0
ENDSEC
0
EOF
