0
SECTION
2
HEADER
9
$ACADVER
1
AC1015
9
$DWGCODEPAGE
3
ANSI_1252
9
$HANDSEED
5
33b
9
$ANGBASE
50
0
9
$ANGDIR
70
0
9
$ATTMODE
70
1
9
$AUNITS
70
0
9
$AUPREC
70
0
9
$CECOLOR
62
256
9
$CELTSCALE
40
1
9
$CELTYPE
6
ByLayer
9
$CELWEIGHT
370
18
9
$CLAYER
8
0
9
$CMLJUST
70
0
9
$CMLSCALE
40
1
9
$CMLSTYLE
2
Standard
9
$DIMSTYLE
2
Standard
9
$TEXTSIZE
40
0.2
9
$TEXTSTYLE
7
Standard
9
$LUNITS
70
2
9
$LUPREC
70
4
9
$EXTNAMES
290
1
9
$INSUNITS
70
4
9
$LTSCALE
40
1
9
$LWDISPLAY
290
1
9
$PDMODE
70
0
9
$PDSIZE
40
0
9
$PLINEGEN
70
0
0
ENDSEC
0
SECTION
2
CLASSES
0
CLASS
1
RASTERVARIABLES
2
AcDbRasterVariables
3
ISM
90
0
280
0
281
0
0
ENDSEC
0
SECTION
2
TABLES
0
TABLE
2
VPORT
5
331
100
AcDbSymbolTable
0
VPORT
5
1
100
AcDbSymbolTableRecord
100
AcDbViewportTableRecord
2
*Active
70
0
10
0
20
0
11
1
21
1
12
-1
22
1
13
0
23
0
14
0.5
24
0.5
15
10
25
10
16
0
26
0
36
1
17
0
27
0
37
0
0
ENDTAB
0
TABLE
2
LTYPE
5
332
100
AcDbSymbolTable
0
LTYPE
5
14
100
AcDbSymbolTableRecord
100
AcDbLinetypeTableRecord
70
0
2
ByBlock
3

72
65
73
0
40
0
0
LTYPE
5
15
100
AcDbSymbolTableRecord
100
AcDbLinetypeTableRecord
70
0
2
ByLayer
3

72
65
73
0
40
0
0
LTYPE
5
16
100
AcDbSymbolTableRecord
100
AcDbLinetypeTableRecord
70
0
2
Continuous
3
Solid line
72
65
73
0
40
0
0
LTYPE
5
6E
100
AcDbSymbolTableRecord
100
AcDbLinetypeTableRecord
70
0
2
CENTER
3
____ _ ____ _ ____ _ ____
72
65
73
4
40
47.5
49
22
74
0
49
-8.5
74
0
49
8.5
74
0
49
-8.5
74
0
0
LTYPE
5
6F
100
AcDbSymbolTableRecord
100
AcDbLinetypeTableRecord
70
0
2
DASHED
3
__ __ __ __ __ __ __ __ __
72
65
73
2
40
25.72
49
12.86
74
0
49
-12.86
74
0
0
ENDTAB
0
TABLE
2
LAYER
5
333
100
AcDbSymbolTable
0
LAYER
5
10
100
AcDbSymbolTableRecord
100
AcDbLayerTableRecord
2
0
70
0
62
7
6
Continuous
290
1
370
-3
390
0
0
LAYER
5
71
100
AcDbSymbolTableRecord
100
AcDbLayerTableRecord
2
81
70
0
62
-3
6
Continuous
290
1
370
-3
390
0
0
LAYER
5
73
100
AcDbSymbolTableRecord
100
AcDbLayerTableRecord
2
80
70
0
62
-6
6
Continuous
290
1
370
-3
390
0
0
LAYER
5
75
100
AcDbSymbolTableRecord
100
AcDbLayerTableRecord
2
1
70
0
62
4
6
Continuous
290
1
370
-3
390
0
0
LAYER
5
81
100
AcDbSymbolTableRecord
100
AcDbLayerTableRecord
2
4
70
0
62
-2
6
CENTER
290
1
370
-3
390
0
0
LAYER
5
C6
100
AcDbSymbolTableRecord
100
AcDbLayerTableRecord
2
2
70
0
62
7
6
Continuous
290
1
370
-3
390
0
0
LAYER
5
241
100
AcDbSymbolTableRecord
100
AcDbLayerTableRecord
2
Defpoints
70
0
62
7
6
Continuous
290
0
370
-3
390
0
0
LAYER
5
31d
100
AcDbSymbolTableRecord
100
AcDbLayerTableRecord
2
SK4
70
0
62
2
6
CENTER
290
1
370
-3
390
0
0
LAYER
5
31e
100
AcDbSymbolTableRecord
100
AcDbLayerTableRecord
2
SK1
70
0
62
4
6
Continuous
290
1
370
-3
390
0
0
LAYER
5
31f
100
AcDbSymbolTableRecord
100
AcDbLayerTableRecord
2
SK2
70
0
62
7
6
Continuous
290
1
370
-3
390
0
0
LAYER
5
320
100
AcDbSymbolTableRecord
100
AcDbLayerTableRecord
2
SK6
70
0
62
5
6
Continuous
290
1
370
-3
390
0
0
ENDTAB
0
TABLE
2
STYLE
5
334
100
AcDbSymbolTable
0
STYLE
5
11
100
AcDbSymbolTableRecord
100
AcDbTextStyleTableRecord
2
Standard
3
txt
70
0
71
0
40
0
41
1
42
0
50
0
0
STYLE
5
227
100
AcDbSymbolTableRecord
100
AcDbTextStyleTableRecord
2
iso_b_vert
3
simplex.shx
70
0
71
0
40
0
41
1
42
0
50
0
0
STYLE
5
228
100
AcDbSymbolTableRecord
100
AcDbTextStyleTableRecord
2
DWGDirectTextStyle
3
simplex
70
0
71
0
40
0
41
1
42
0
50
0
0
ENDTAB
0
TABLE
2
DIMSTYLE
5
335
100
AcDbSymbolTable
100
AcDbDimStyleTable
0
DIMSTYLE
105
27
100
AcDbSymbolTableRecord
100
AcDbDimStyleTableRecord
2
Standard
70
0
3
<>
41
0.18
42
0.0625
44
0.18
140
0.18
147
0.09
73
0
74
0
77
1
271
2
275
0
278
52
280
0
340
11
0
ENDTAB
0
TABLE
2
VIEW
5
336
100
AcDbSymbolTable
0
ENDTAB
0
TABLE
2
UCS
5
337
100
AcDbSymbolTable
0
ENDTAB
0
TABLE
2
APPID
5
338
100
AcDbSymbolTable
0
APPID
5
12
100
AcDbSymbolTableRecord
100
AcDbRegAppTableRecord
2
ACAD
70
0
0
APPID
5
23D
100
AcDbSymbolTableRecord
100
AcDbRegAppTableRecord
2
ACAD_DSTYLE_DIMBREAK
70
0
0
APPID
5
2DC
100
AcDbSymbolTableRecord
100
AcDbRegAppTableRecord
2
ACAD_DSTYLE_DIM_LINETYPE
70
0
0
APPID
5
2DD
100
AcDbSymbolTableRecord
100
AcDbRegAppTableRecord
2
ACAD_DSTYLE_DIM_EXT1_LINETYPE
70
0
0
APPID
5
2DE
100
AcDbSymbolTableRecord
100
AcDbRegAppTableRecord
2
ACAD_DSTYLE_DIM_EXT2_LINETYPE
70
0
0
APPID
5
319
100
AcDbSymbolTableRecord
100
AcDbRegAppTableRecord
2
ACAD_MLEADERVER
70
0
0
ENDTAB
0
TABLE
2
BLOCK_RECORD
5
339
100
AcDbSymbolTable
0
BLOCK_RECORD
5
1F
100
AcDbSymbolTableRecord
100
AcDbBlockTableRecord
2
*Model_Space
340
0
70
0
0
BLOCK_RECORD
5
1B
100
AcDbSymbolTableRecord
100
AcDbBlockTableRecord
2
*Paper_Space
340
0
70
0
0
BLOCK_RECORD
5
23
100
AcDbSymbolTableRecord
100
AcDbBlockTableRecord
2
*Paper_Space0
340
0
70
0
0
BLOCK_RECORD
5
242
100
AcDbSymbolTableRecord
100
AcDbBlockTableRecord
2
*D1
340
0
70
0
0
BLOCK_RECORD
5
250
100
AcDbSymbolTableRecord
100
AcDbBlockTableRecord
2
_U0
340
0
70
0
0
BLOCK_RECORD
5
25C
100
AcDbSymbolTableRecord
100
AcDbBlockTableRecord
2
*D3
340
0
70
0
0
BLOCK_RECORD
5
269
100
AcDbSymbolTableRecord
100
AcDbBlockTableRecord
2
_U1
340
0
70
0
0
BLOCK_RECORD
5
276
100
AcDbSymbolTableRecord
100
AcDbBlockTableRecord
2
*D5
340
0
70
0
0
BLOCK_RECORD
5
284
100
AcDbSymbolTableRecord
100
AcDbBlockTableRecord
2
_U2
340
0
70
0
0
BLOCK_RECORD
5
291
100
AcDbSymbolTableRecord
100
AcDbBlockTableRecord
2
*D7
340
0
70
0
0
BLOCK_RECORD
5
29D
100
AcDbSymbolTableRecord
100
AcDbBlockTableRecord
2
_U3
340
0
70
0
0
BLOCK_RECORD
5
2A9
100
AcDbSymbolTableRecord
100
AcDbBlockTableRecord
2
*D9
340
0
70
0
0
BLOCK_RECORD
5
2B5
100
AcDbSymbolTableRecord
100
AcDbBlockTableRecord
2
_U4
340
0
70
0
0
ENDTAB
0
ENDSEC
0
SECTION
2
BLOCKS
0
BLOCK
5
20
100
AcDbEntity
8
0
100
AcDbBlockBegin
2
*Model_Space
70
0
10
0
20
0
30
0
3
*Model_Space
0
ENDBLK
5
21
100
AcDbEntity
8
0
100
AcDbBlockEnd
0
BLOCK
5
1C
100
AcDbEntity
8
0
100
AcDbBlockBegin
2
*Paper_Space
70
0
10
0
20
0
30
0
3
*Paper_Space
0
ENDBLK
5
1D
100
AcDbEntity
8
0
100
AcDbBlockEnd
0
BLOCK
5
24
100
AcDbEntity
8
0
100
AcDbBlockBegin
2
*Paper_Space0
70
0
10
0
20
0
30
0
3
*Paper_Space0
0
ENDBLK
5
25
100
AcDbEntity
8
0
100
AcDbBlockEnd
0
BLOCK
5
243
100
AcDbEntity
8
0
100
AcDbBlockBegin
2
*D1
70
1
10
0
20
0
30
0
3
*D1
0
LINE
5
245
100
AcDbEntity
8
0
62
256
6
ByLayer
370
-2
48
1
60
0
100
AcDbLine
10
58.7175
20
3.05706
30
0
11
77.66294
21
3.05706
31
0
39
0
210
0
220
0
230
1
0
LINE
5
246
100
AcDbEntity
8
0
62
256
6
ByLayer
370
-2
48
1
60
0
100
AcDbLine
10
58.7175
20
-3.05706
30
0
11
77.66294
21
-3.05706
31
0
39
0
210
0
220
0
230
1
0
LINE
5
247
100
AcDbEntity
8
0
62
256
6
ByLayer
370
-2
48
1
60
0
100
AcDbLine
10
75.66294
20
3.05706
30
0
11
75.66294
21
31.05706
31
0
39
0
210
0
220
0
230
1
0
LINE
5
248
100
AcDbEntity
8
0
62
256
6
ByLayer
370
-2
48
1
60
0
100
AcDbLine
10
75.66294
20
6.55706
30
0
11
75.66294
21
10.05706
31
0
39
0
210
0
220
0
230
1
0
LINE
5
249
100
AcDbEntity
8
0
62
256
6
ByLayer
370
-2
48
1
60
0
100
AcDbLine
10
75.66294
20
-6.55706
30
0
11
75.66294
21
-10.05706
31
0
39
0
210
0
220
0
230
1
0
SOLID
5
24A
100
AcDbEntity
8
0
62
256
6
ByLayer
370
-1
48
1
60
0
100
AcDbTrace
10
75.079606
20
6.55706
30
0
11
76.246273
21
6.55706
31
0
12
75.66294
22
3.05706
32
0
13
75.66294
23
3.05706
33
0
39
0
210
0
220
0
230
1
0
SOLID
5
24B
100
AcDbEntity
8
0
62
256
6
ByLayer
370
-1
48
1
60
0
100
AcDbTrace
10
76.246273
20
-6.55706
30
0
11
75.079606
21
-6.55706
31
0
12
75.66294
22
-3.05706
32
0
13
75.66294
23
-3.05706
33
0
39
0
210
0
220
0
230
1
0
MTEXT
5
24C
100
AcDbEntity
8
0
62
256
6
ByLayer
370
18
48
1
60
0
100
AcDbMText
10
69.66294
20
20.55706
30
0
210
0
220
0
230
1
1
\A1;6.114
40
3
41
0
44
1
50
90
71
5
72
5
7
iso_b_vert
0
POINT
5
24D
100
AcDbEntity
8
Defpoints
62
0
6
ByLayer
370
-1
48
1
60
0
100
AcDbPoint
10
57.13
20
3.05706
30
0
39
0
210
0
220
0
230
1
50
360
0
POINT
5
24E
100
AcDbEntity
8
Defpoints
62
0
6
ByLayer
370
-1
48
1
60
0
100
AcDbPoint
10
57.13
20
-3.05706
30
0
39
0
210
0
220
0
230
1
50
360
0
POINT
5
24F
100
AcDbEntity
8
Defpoints
62
0
6
ByLayer
370
-1
48
1
60
0
100
AcDbPoint
10
75.66294
20
-3.05706
30
0
39
0
210
0
220
0
230
1
50
360
0
ENDBLK
5
244
100
AcDbEntity
8
0
100
AcDbBlockEnd
0
BLOCK
5
257
100
AcDbEntity
8
0
100
AcDbBlockBegin
2
_U0
70
0
10
0
20
0
30
0
3
_U0
0
MTEXT
5
251
100
AcDbEntity
8
2
62
256
6
ByLayer
370
18
48
1
60
0
100
AcDbMText
10
75.071825
20
13.19206
30
0
210
0
220
0
230
1
1
\W0.7203;M6
40
3
41
0
44
1.084337
50
90
71
7
72
5
7
iso_b_vert
0
LINE
5
252
100
AcDbEntity
8
2
62
256
6
ByLayer
370
13
48
1
60
0
100
AcDbLine
10
58.7175
20
3.05706
30
0
11
77.66294
21
3.05706
31
0
39
0
210
0
220
0
230
1
0
LINE
5
253
100
AcDbEntity
8
2
62
256
6
ByLayer
370
13
48
1
60
0
100
AcDbLine
10
58.7175
20
-3.05706
30
0
11
77.66294
21
-3.05706
31
0
39
0
210
0
220
0
230
1
0
LINE
5
254
100
AcDbEntity
8
2
62
256
6
ByLayer
370
13
48
1
60
0
100
AcDbLine
10
75.66294
20
-10.55706
30
0
11
75.66294
21
17.31186
31
0
39
0
210
0
220
0
230
1
0
SOLID
5
255
100
AcDbEntity
8
2
62
256
6
ByLayer
370
18
48
1
60
0
100
AcDbTrace
10
75.66294
20
3.05706
30
0
11
75.202156
21
6.557059
31
0
12
76.123724
22
6.557062
32
0
13
76.123724
23
6.557062
33
0
39
0
210
0
220
0
230
1
0
SOLID
5
256
100
AcDbEntity
8
2
62
256
6
ByLayer
370
18
48
1
60
0
100
AcDbTrace
10
75.66294
20
-3.05706
30
0
11
76.123724
21
-6.557059
31
0
12
75.202156
22
-6.557062
32
0
13
75.202156
23
-6.557062
33
0
39
0
210
0
220
0
230
1
0
ENDBLK
5
258
100
AcDbEntity
8
0
100
AcDbBlockEnd
0
BLOCK
5
25D
100
AcDbEntity
8
0
100
AcDbBlockBegin
2
*D3
70
1
10
0
20
0
30
0
3
*D3
0
LINE
5
25F
100
AcDbEntity
8
0
62
256
6
ByLayer
370
-2
48
1
60
0
100
AcDbLine
10
57.13
20
4.64456
30
0
11
57.13
21
14.0885
31
0
39
0
210
0
220
0
230
1
0
LINE
5
260
100
AcDbEntity
8
0
62
256
6
ByLayer
370
-2
48
1
60
0
100
AcDbLine
10
54.38
20
1.5875
30
0
11
54.38
21
14.0885
31
0
39
0
210
0
220
0
230
1
0
LINE
5
261
100
AcDbEntity
8
0
62
256
6
ByLayer
370
-2
48
1
60
0
100
AcDbLine
10
60.63
20
12.0885
30
0
11
64.13
21
12.0885
31
0
39
0
210
0
220
0
230
1
0
LINE
5
262
100
AcDbEntity
8
0
62
256
6
ByLayer
370
-2
48
1
60
0
100
AcDbLine
10
50.88
20
12.0885
30
0
11
47.38
21
12.0885
31
0
39
0
210
0
220
0
230
1
0
SOLID
5
263
100
AcDbEntity
8
0
62
256
6
ByLayer
370
-1
48
1
60
0
100
AcDbTrace
10
60.63
20
12.671833
30
0
11
60.63
21
11.505167
31
0
12
57.13
22
12.0885
32
0
13
57.13
23
12.0885
33
0
39
0
210
0
220
0
230
1
0
SOLID
5
264
100
AcDbEntity
8
0
62
256
6
ByLayer
370
-1
48
1
60
0
100
AcDbTrace
10
50.88
20
11.505167
30
0
11
50.88
21
12.671833
31
0
12
54.38
22
12.0885
32
0
13
54.38
23
12.0885
33
0
39
0
210
0
220
0
230
1
0
MTEXT
5
265
100
AcDbEntity
8
0
62
256
6
ByLayer
370
18
48
1
60
0
100
AcDbMText
10
55.755
20
18.0885
30
0
210
0
220
0
230
1
1
\A1;2.75
40
3
41
0
44
1
50
0
71
5
72
5
7
iso_b_vert
0
POINT
5
266
100
AcDbEntity
8
Defpoints
62
0
6
ByLayer
370
-1
48
1
60
0
100
AcDbPoint
10
57.13
20
3.05706
30
0
39
0
210
0
220
0
230
1
50
360
0
POINT
5
267
100
AcDbEntity
8
Defpoints
62
0
6
ByLayer
370
-1
48
1
60
0
100
AcDbPoint
10
54.38
20
0
30
0
39
0
210
0
220
0
230
1
50
360
0
POINT
5
268
100
AcDbEntity
8
Defpoints
62
0
6
ByLayer
370
-1
48
1
60
0
100
AcDbPoint
10
54.38
20
12.0885
30
0
39
0
210
0
220
0
230
1
50
360
0
ENDBLK
5
25E
100
AcDbEntity
8
0
100
AcDbBlockEnd
0
BLOCK
5
271
100
AcDbEntity
8
0
100
AcDbBlockBegin
2
_U1
70
0
10
0
20
0
30
0
3
_U1
0
MTEXT
5
26A
100
AcDbEntity
8
SK2
62
256
6
ByLayer
370
18
48
1
60
0
100
AcDbMText
10
52.420044
20
12.871134
30
0
210
0
220
0
230
1
1
\W0.6474;'C'
40
3.5
41
0
44
1.084337
50
0
71
7
72
5
7
iso_b_vert
0
MTEXT
5
26B
100
AcDbEntity
8
SK2
62
256
6
ByLayer
370
18
48
1
60
0
100
AcDbMText
10
52.393544
20
19.973614
30
0
210
0
220
0
230
1
1
\W0.7346;2.75
40
3
41
0
44
1.084337
50
0
71
7
72
5
7
iso_b_vert
0
LINE
5
26C
100
AcDbEntity
8
SK2
62
256
6
ByLayer
370
13
48
1
60
0
100
AcDbLine
10
57.13
20
4.64456
30
0
11
57.13
21
14.0885
31
0
39
0
210
0
220
0
230
1
0
LINE
5
26D
100
AcDbEntity
8
SK2
62
256
6
ByLayer
370
13
48
1
60
0
100
AcDbLine
10
54.38
20
1.5875
30
0
11
54.38
21
14.0885
31
0
39
0
210
0
220
0
230
1
0
LINE
5
26E
100
AcDbEntity
8
SK2
62
256
6
ByLayer
370
13
48
1
60
0
100
AcDbLine
10
64.63
20
12.0885
30
0
11
46.88
21
12.0885
31
0
39
0
210
0
220
0
230
1
0
SOLID
5
26F
100
AcDbEntity
8
SK2
62
256
6
ByLayer
370
18
48
1
60
0
100
AcDbTrace
10
57.13
20
12.0885
30
0
11
60.629998
21
12.549284
31
0
12
60.630002
22
11.627716
32
0
13
60.630002
23
11.627716
33
0
39
0
210
0
220
0
230
1
0
SOLID
5
270
100
AcDbEntity
8
SK2
62
256
6
ByLayer
370
18
48
1
60
0
100
AcDbTrace
10
54.38
20
12.0885
30
0
11
50.880002
21
11.627716
31
0
12
50.879998
22
12.549284
32
0
13
50.879998
23
12.549284
33
0
39
0
210
0
220
0
230
1
0
ENDBLK
5
272
100
AcDbEntity
8
0
100
AcDbBlockEnd
0
BLOCK
5
277
100
AcDbEntity
8
0
100
AcDbBlockBegin
2
*D5
70
1
10
0
20
0
30
0
3
*D5
0
LINE
5
279
100
AcDbEntity
8
0
62
256
6
ByLayer
370
-2
48
1
60
0
100
AcDbLine
10
57.13
20
-4.64456
30
0
11
57.13
21
-12.05706
31
0
39
0
210
0
220
0
230
1
0
LINE
5
27A
100
AcDbEntity
8
0
62
256
6
ByLayer
370
-2
48
1
60
0
100
AcDbLine
10
45.73
20
-4.64456
30
0
11
45.73
21
-12.05706
31
0
39
0
210
0
220
0
230
1
0
LINE
5
27B
100
AcDbEntity
8
0
62
256
6
ByLayer
370
-2
48
1
60
0
100
AcDbLine
10
57.13
20
-10.05706
30
0
11
81.987143
21
-10.05706
31
0
39
0
210
0
220
0
230
1
0
LINE
5
27C
100
AcDbEntity
8
0
62
256
6
ByLayer
370
-2
48
1
60
0
100
AcDbLine
10
60.63
20
-10.05706
30
0
11
64.13
21
-10.05706
31
0
39
0
210
0
220
0
230
1
0
LINE
5
27D
100
AcDbEntity
8
0
62
256
6
ByLayer
370
-2
48
1
60
0
100
AcDbLine
10
42.23
20
-10.05706
30
0
11
38.73
21
-10.05706
31
0
39
0
210
0
220
0
230
1
0
SOLID
5
27E
100
AcDbEntity
8
0
62
256
6
ByLayer
370
-1
48
1
60
0
100
AcDbTrace
10
60.63
20
-9.473727
30
0
11
60.63
21
-10.640394
31
0
12
57.13
22
-10.05706
32
0
13
57.13
23
-10.05706
33
0
39
0
210
0
220
0
230
1
0
SOLID
5
27F
100
AcDbEntity
8
0
62
256
6
ByLayer
370
-1
48
1
60
0
100
AcDbTrace
10
42.23
20
-10.640394
30
0
11
42.23
21
-9.473727
31
0
12
45.73
22
-10.05706
32
0
13
45.73
23
-10.05706
33
0
39
0
210
0
220
0
230
1
0
MTEXT
5
280
100
AcDbEntity
8
0
62
256
6
ByLayer
370
18
48
1
60
0
100
AcDbMText
10
73.058571
20
-4.05706
30
0
210
0
220
0
230
1
1
\A1;11.4
40
3
41
0
44
1
50
0
71
5
72
5
7
iso_b_vert
0
POINT
5
281
100
AcDbEntity
8
Defpoints
62
0
6
ByLayer
370
-1
48
1
60
0
100
AcDbPoint
10
57.13
20
-3.05706
30
0
39
0
210
0
220
0
230
1
50
360
0
POINT
5
282
100
AcDbEntity
8
Defpoints
62
0
6
ByLayer
370
-1
48
1
60
0
100
AcDbPoint
10
45.73
20
-3.05706
30
0
39
0
210
0
220
0
230
1
50
360
0
POINT
5
283
100
AcDbEntity
8
Defpoints
62
0
6
ByLayer
370
-1
48
1
60
0
100
AcDbPoint
10
45.73
20
-10.05706
30
0
39
0
210
0
220
0
230
1
50
360
0
ENDBLK
5
278
100
AcDbEntity
8
0
100
AcDbBlockEnd
0
BLOCK
5
28C
100
AcDbEntity
8
0
100
AcDbBlockBegin
2
_U2
70
0
10
0
20
0
30
0
3
_U2
0
MTEXT
5
285
100
AcDbEntity
8
SK2
62
256
6
ByLayer
370
18
48
1
60
0
100
AcDbMText
10
63.289
20
-9.171946
30
0
210
0
220
0
230
1
1
\W0.5983;11.4
40
3
41
0
44
1.084337
50
0
71
7
72
5
7
iso_b_vert
0
MTEXT
5
286
100
AcDbEntity
8
SK2
62
256
6
ByLayer
370
18
48
1
60
0
100
AcDbMText
10
71.619527
20
-8.819465
30
0
210
0
220
0
230
1
1
\W0.8315;\W0.4158;%%p\W0.8315;0.5
40
2.5
41
0
44
1.084337
50
0
71
7
72
5
7
iso_b_vert
0
LINE
5
287
100
AcDbEntity
8
SK2
62
256
6
ByLayer
370
13
48
1
60
0
100
AcDbLine
10
57.13
20
-4.64456
30
0
11
57.13
21
-12.05706
31
0
39
0
210
0
220
0
230
1
0
LINE
5
288
100
AcDbEntity
8
SK2
62
256
6
ByLayer
370
13
48
1
60
0
100
AcDbLine
10
45.73
20
-4.64456
30
0
11
45.73
21
-12.05706
31
0
39
0
210
0
220
0
230
1
0
LINE
5
289
100
AcDbEntity
8
SK2
62
256
6
ByLayer
370
13
48
1
60
0
100
AcDbLine
10
45.73
20
-10.05706
30
0
11
78.736264
21
-10.05706
31
0
39
0
210
0
220
0
230
1
0
SOLID
5
28A
100
AcDbEntity
8
SK2
62
256
6
ByLayer
370
18
48
1
60
0
100
AcDbTrace
10
57.13
20
-10.05706
30
0
11
53.630002
21
-10.517844
31
0
12
53.629998
22
-9.596276
32
0
13
53.629998
23
-9.596276
33
0
39
0
210
0
220
0
230
1
0
SOLID
5
28B
100
AcDbEntity
8
SK2
62
256
6
ByLayer
370
18
48
1
60
0
100
AcDbTrace
10
45.73
20
-10.05706
30
0
11
49.229998
21
-9.596276
31
0
12
49.230002
22
-10.517844
32
0
13
49.230002
23
-10.517844
33
0
39
0
210
0
220
0
230
1
0
ENDBLK
5
28D
100
AcDbEntity
8
0
100
AcDbBlockEnd
0
BLOCK
5
292
100
AcDbEntity
8
0
100
AcDbBlockBegin
2
*D7
70
1
10
0
20
0
30
0
3
*D7
0
LINE
5
294
100
AcDbEntity
8
0
62
256
6
ByLayer
370
-2
48
1
60
0
100
AcDbLine
10
57.13
20
-4.64456
30
0
11
57.13
21
-34.55706
31
0
39
0
210
0
220
0
230
1
0
LINE
5
295
100
AcDbEntity
8
0
62
256
6
ByLayer
370
-2
48
1
60
0
100
AcDbLine
10
31.13
20
-3.8625
30
0
11
31.13
21
-34.55706
31
0
39
0
210
0
220
0
230
1
0
LINE
5
296
100
AcDbEntity
8
0
62
256
6
ByLayer
370
-2
48
1
60
0
100
AcDbLine
10
53.63
20
-32.55706
30
0
11
34.63
21
-32.55706
31
0
39
0
210
0
220
0
230
1
0
SOLID
5
297
100
AcDbEntity
8
0
62
256
6
ByLayer
370
-1
48
1
60
0
100
AcDbTrace
10
53.63
20
-33.140394
30
0
11
53.63
21
-31.973727
31
0
12
57.13
22
-32.55706
32
0
13
57.13
23
-32.55706
33
0
39
0
210
0
220
0
230
1
0
SOLID
5
298
100
AcDbEntity
8
0
62
256
6
ByLayer
370
-1
48
1
60
0
100
AcDbTrace
10
34.63
20
-31.973727
30
0
11
34.63
21
-33.140394
31
0
12
31.13
22
-32.55706
32
0
13
31.13
23
-32.55706
33
0
39
0
210
0
220
0
230
1
0
MTEXT
5
299
100
AcDbEntity
8
0
62
256
6
ByLayer
370
18
48
1
60
0
100
AcDbMText
10
44.13
20
-26.55706
30
0
210
0
220
0
230
1
1
\A1;26
40
3
41
0
44
1
50
0
71
5
72
5
7
iso_b_vert
0
POINT
5
29A
100
AcDbEntity
8
Defpoints
62
0
6
ByLayer
370
-1
48
1
60
0
100
AcDbPoint
10
57.13
20
-3.05706
30
0
39
0
210
0
220
0
230
1
50
360
0
POINT
5
29B
100
AcDbEntity
8
Defpoints
62
0
6
ByLayer
370
-1
48
1
60
0
100
AcDbPoint
10
31.13
20
-2.275
30
0
39
0
210
0
220
0
230
1
50
360
0
POINT
5
29C
100
AcDbEntity
8
Defpoints
62
0
6
ByLayer
370
-1
48
1
60
0
100
AcDbPoint
10
31.13
20
-32.55706
30
0
39
0
210
0
220
0
230
1
50
360
0
ENDBLK
5
293
100
AcDbEntity
8
0
100
AcDbBlockEnd
0
BLOCK
5
2A4
100
AcDbEntity
8
0
100
AcDbBlockBegin
2
_U3
70
0
10
0
20
0
30
0
3
_U3
0
MTEXT
5
29E
100
AcDbEntity
8
SK2
62
256
6
ByLayer
370
18
48
1
60
0
100
AcDbMText
10
42.497172
20
-31.671946
30
0
210
0
220
0
230
1
1
\W0.6740;26
40
3
41
0
44
1.084337
50
0
71
7
72
5
7
iso_b_vert
0
LINE
5
29F
100
AcDbEntity
8
SK2
62
256
6
ByLayer
370
13
48
1
60
0
100
AcDbLine
10
57.13
20
-4.64456
30
0
11
57.13
21
-34.55706
31
0
39
0
210
0
220
0
230
1
0
LINE
5
2A0
100
AcDbEntity
8
SK2
62
256
6
ByLayer
370
13
48
1
60
0
100
AcDbLine
10
31.13
20
-3.8625
30
0
11
31.13
21
-34.55706
31
0
39
0
210
0
220
0
230
1
0
LINE
5
2A1
100
AcDbEntity
8
SK2
62
256
6
ByLayer
370
13
48
1
60
0
100
AcDbLine
10
57.13
20
-32.55706
30
0
11
31.13
21
-32.55706
31
0
39
0
210
0
220
0
230
1
0
SOLID
5
2A2
100
AcDbEntity
8
SK2
62
256
6
ByLayer
370
18
48
1
60
0
100
AcDbTrace
10
57.13
20
-32.55706
30
0
11
53.630002
21
-33.017844
31
0
12
53.629998
22
-32.096276
32
0
13
53.629998
23
-32.096276
33
0
39
0
210
0
220
0
230
1
0
SOLID
5
2A3
100
AcDbEntity
8
SK2
62
256
6
ByLayer
370
18
48
1
60
0
100
AcDbTrace
10
31.13
20
-32.55706
30
0
11
34.629998
21
-32.096276
31
0
12
34.630002
22
-33.017844
32
0
13
34.630002
23
-33.017844
33
0
39
0
210
0
220
0
230
1
0
ENDBLK
5
2A5
100
AcDbEntity
8
0
100
AcDbBlockEnd
0
BLOCK
5
2AA
100
AcDbEntity
8
0
100
AcDbBlockBegin
2
*D9
70
1
10
0
20
0
30
0
3
*D9
0
LINE
5
2AC
100
AcDbEntity
8
0
62
256
6
ByLayer
370
-2
48
1
60
0
100
AcDbLine
10
57.13
20
-4.64456
30
0
11
57.13
21
-23.55706
31
0
39
0
210
0
220
0
230
1
0
LINE
5
2AD
100
AcDbEntity
8
0
62
256
6
ByLayer
370
-2
48
1
60
0
100
AcDbLine
10
35.03
20
-1.5875
30
0
11
35.03
21
-23.55706
31
0
39
0
210
0
220
0
230
1
0
LINE
5
2AE
100
AcDbEntity
8
0
62
256
6
ByLayer
370
-2
48
1
60
0
100
AcDbLine
10
53.63
20
-21.55706
30
0
11
38.53
21
-21.55706
31
0
39
0
210
0
220
0
230
1
0
SOLID
5
2AF
100
AcDbEntity
8
0
62
256
6
ByLayer
370
-1
48
1
60
0
100
AcDbTrace
10
53.63
20
-22.140394
30
0
11
53.63
21
-20.973727
31
0
12
57.13
22
-21.55706
32
0
13
57.13
23
-21.55706
33
0
39
0
210
0
220
0
230
1
0
SOLID
5
2B0
100
AcDbEntity
8
0
62
256
6
ByLayer
370
-1
48
1
60
0
100
AcDbTrace
10
38.53
20
-20.973727
30
0
11
38.53
21
-22.140394
31
0
12
35.03
22
-21.55706
32
0
13
35.03
23
-21.55706
33
0
39
0
210
0
220
0
230
1
0
MTEXT
5
2B1
100
AcDbEntity
8
0
62
256
6
ByLayer
370
18
48
1
60
0
100
AcDbMText
10
46.08
20
-15.55706
30
0
210
0
220
0
230
1
1
\A1;22.1
40
3
41
0
44
1
50
0
71
5
72
5
7
iso_b_vert
0
POINT
5
2B2
100
AcDbEntity
8
Defpoints
62
0
6
ByLayer
370
-1
48
1
60
0
100
AcDbPoint
10
57.13
20
-3.05706
30
0
39
0
210
0
220
0
230
1
50
360
0
POINT
5
2B3
100
AcDbEntity
8
Defpoints
62
0
6
ByLayer
370
-1
48
1
60
0
100
AcDbPoint
10
35.03
20
0
30
0
39
0
210
0
220
0
230
1
50
360
0
POINT
5
2B4
100
AcDbEntity
8
Defpoints
62
0
6
ByLayer
370
-1
48
1
60
0
100
AcDbPoint
10
35.03
20
-21.55706
30
0
39
0
210
0
220
0
230
1
50
360
0
ENDBLK
5
2AB
100
AcDbEntity
8
0
100
AcDbBlockEnd
0
BLOCK
5
2BC
100
AcDbEntity
8
0
100
AcDbBlockBegin
2
_U4
70
0
10
0
20
0
30
0
3
_U4
0
MTEXT
5
2B6
100
AcDbEntity
8
2
62
256
6
ByLayer
370
18
48
1
60
0
100
AcDbMText
10
43.093486
20
-20.671946
30
0
210
0
220
0
230
1
1
\W0.7208;22.1
40
3
41
0
44
1.084337
50
0
71
7
72
5
7
iso_b_vert
0
LINE
5
2B7
100
AcDbEntity
8
2
62
256
6
ByLayer
370
13
48
1
60
0
100
AcDbLine
10
57.13
20
-4.64456
30
0
11
57.13
21
-23.55706
31
0
39
0
210
0
220
0
230
1
0
LINE
5
2B8
100
AcDbEntity
8
2
62
256
6
ByLayer
370
13
48
1
60
0
100
AcDbLine
10
35.03
20
-1.5875
30
0
11
35.03
21
-23.55706
31
0
39
0
210
0
220
0
230
1
0
LINE
5
2B9
100
AcDbEntity
8
2
62
256
6
ByLayer
370
13
48
1
60
0
100
AcDbLine
10
57.13
20
-21.55706
30
0
11
35.03
21
-21.55706
31
0
39
0
210
0
220
0
230
1
0
SOLID
5
2BA
100
AcDbEntity
8
2
62
256
6
ByLayer
370
18
48
1
60
0
100
AcDbTrace
10
57.13
20
-21.55706
30
0
11
53.630002
21
-22.017844
31
0
12
53.629998
22
-21.096276
32
0
13
53.629998
23
-21.096276
33
0
39
0
210
0
220
0
230
1
0
SOLID
5
2BB
100
AcDbEntity
8
2
62
256
6
ByLayer
370
18
48
1
60
0
100
AcDbTrace
10
35.03
20
-21.55706
30
0
11
38.529998
21
-21.096276
31
0
12
38.530002
22
-22.017844
32
0
13
38.530002
23
-22.017844
33
0
39
0
210
0
220
0
230
1
0
ENDBLK
5
2BD
100
AcDbEntity
8
0
100
AcDbBlockEnd
0
ENDSEC
0
SECTION
2
ENTITIES
0
ARC
5
CF
100
AcDbEntity
8
SK1
62
256
6
ByLayer
370
18
48
1
60
0
100
AcDbCircle
39
0
10
-17.425
20
0
30
0
40
3.10895999999999
210
0
220
0
230
1
100
AcDbArc
50
321.260905
51
38.739095
0
ARC
5
D0
100
AcDbEntity
8
1
62
256
6
ByLayer
370
18
48
1
60
0
100
AcDbCircle
39
0
10
31.226238
20
-3.375
30
0
40
1.1
210
0
220
0
230
1
100
AcDbArc
50
90
51
100
0
ARC
5
D1
100
AcDbEntity
8
1
62
256
6
ByLayer
370
18
48
1
60
0
100
AcDbCircle
39
0
10
31.226238
20
3.375
30
0
40
1.1
210
0
220
0
230
1
100
AcDbArc
50
260
51
270
0
POINT
5
70
100
AcDbEntity
8
81
62
256
6
ByLayer
370
18
48
1
60
0
100
AcDbPoint
10
57.23
20
0
30
0
39
0
210
0
220
0
230
1
50
360
0
POINT
5
72
100
AcDbEntity
8
80
62
256
6
ByLayer
370
18
48
1
60
0
100
AcDbPoint
10
0
20
0
30
0
39
0
210
0
220
0
230
1
50
360
0
POINT
5
74
100
AcDbEntity
8
1
62
256
6
ByLayer
370
18
48
1
60
1
100
AcDbPoint
10
57.13
20
3.05706
30
0
39
0
210
0
220
0
230
1
50
360
0
POINT
5
76
100
AcDbEntity
8
1
62
256
6
ByLayer
370
18
48
1
60
1
100
AcDbPoint
10
57.13
20
-3.05706
30
0
39
0
210
0
220
0
230
1
50
360
0
POINT
5
77
100
AcDbEntity
8
1
62
256
6
ByLayer
370
18
48
1
60
1
100
AcDbPoint
10
57.13
20
3.05706
30
0
39
0
210
0
220
0
230
1
50
360
0
POINT
5
78
100
AcDbEntity
8
1
62
256
6
ByLayer
370
18
48
1
60
1
100
AcDbPoint
10
54.38
20
0
30
0
39
0
210
0
220
0
230
1
50
360
0
POINT
5
79
100
AcDbEntity
8
1
62
256
6
ByLayer
370
18
48
1
60
1
100
AcDbPoint
10
57.13
20
-3.05706
30
0
39
0
210
0
220
0
230
1
50
360
0
POINT
5
7A
100
AcDbEntity
8
1
62
256
6
ByLayer
370
18
48
1
60
1
100
AcDbPoint
10
45.73
20
-3.05706
30
0
39
0
210
0
220
0
230
1
50
360
0
POINT
5
7B
100
AcDbEntity
8
1
62
256
6
ByLayer
370
18
48
1
60
1
100
AcDbPoint
10
57.13
20
-3.05706
30
0
39
0
210
0
220
0
230
1
50
360
0
POINT
5
7C
100
AcDbEntity
8
1
62
256
6
ByLayer
370
18
48
1
60
1
100
AcDbPoint
10
31.13
20
-2.275
30
0
39
0
210
0
220
0
230
1
50
360
0
POINT
5
7D
100
AcDbEntity
8
1
62
256
6
ByLayer
370
18
48
1
60
1
100
AcDbPoint
10
57.13
20
-3.05706
30
0
39
0
210
0
220
0
230
1
50
360
0
POINT
5
7E
100
AcDbEntity
8
1
62
256
6
ByLayer
370
18
48
1
60
1
100
AcDbPoint
10
35.03
20
0
30
0
39
0
210
0
220
0
230
1
50
360
0
SPLINE
5
D2
100
AcDbEntity
8
1
62
256
6
ByLayer
370
13
48
1
60
0
100
AcDbSpline
70
4
71
3
72
8
73
4
40
0
40
0
40
0
40
0
40
1
40
1
40
1
40
1
41
1
10
44.6460284262886
20
2.47242268355274
30
0
41
1
10
44.6481456878734
20
2.47603841514359
30
0
41
1
10
44.6502629494656
20
2.47900040072884
30
0
41
1
10
44.6523802110493
20
2.48130636056655
30
0
0
SPLINE
5
D3
100
AcDbEntity
8
1
62
256
6
ByLayer
370
18
48
1
60
0
100
AcDbSpline
70
4
71
3
72
8
73
4
40
0
40
0
40
0
40
0
40
1
40
1
40
1
40
1
41
1
10
50.6339853513449
20
2.44479192429404
30
0
41
1
10
50.6367773325431
20
2.4528247920978
30
0
41
1
10
50.6395693137294
20
2.45973363253188
30
0
41
1
10
50.6423612949341
20
2.46550858566505
30
0
0
SPLINE
5
D4
100
AcDbEntity
8
1
62
256
6
ByLayer
370
13
48
1
60
0
100
AcDbSpline
70
4
71
3
72
8
73
4
40
0
40
0
40
0
40
0
40
1
40
1
40
1
40
1
41
1
10
55.9288520427193
20
-2.47472426823387
30
0
41
1
10
55.9183120940149
20
-2.49112594134155
30
0
41
1
10
55.9077721626606
20
-2.49126137045275
30
0
41
1
10
55.8972322354573
20
-2.47515677232863
30
0
0
SPLINE
5
D5
100
AcDbEntity
8
1
62
256
6
ByLayer
370
18
48
1
60
0
100
AcDbSpline
70
4
71
3
72
8
73
4
40
0
40
0
40
0
40
0
40
1
40
1
40
1
40
1
41
1
10
44.6627197884396
20
2.50114275638262
30
0
41
1
10
44.6667817018834
20
2.5080799741211
30
0
41
1
10
44.6708395537567
20
2.51398527347729
30
0
41
1
10
44.6748970098028
20
2.51885456533182
30
0
0
SPLINE
5
D6
100
AcDbEntity
8
1
62
256
6
ByLayer
370
13
48
1
60
0
100
AcDbSpline
70
4
71
3
72
9
73
5
40
0
40
0
40
0
40
0
40
0.382715021411984
40
1
40
1
40
1
40
1
41
1
10
49.9049308633053
20
-2.48419012176714
30
0
41
1
10
49.9078993023665
20
-2.48652088549849
30
0
41
1
10
49.9156555632659
20
-2.4892206816283
30
0
41
1
10
49.9234118091743
20
-2.48298830795582
30
0
41
1
10
49.9281996212717
20
-2.47578725043528
30
0
0
SPLINE
5
D7
100
AcDbEntity
8
1
62
256
6
ByLayer
370
18
48
1
60
0
100
AcDbSpline
70
4
71
3
72
8
73
4
40
0
40
0
40
0
40
0
40
1
40
1
40
1
40
1
41
1
10
49.9281996067709
20
-2.47578727224504
30
0
41
1
10
49.9300652361109
20
-2.47298129505106
30
0
41
1
10
49.9319308651483
20
-2.46966607196251
30
0
41
1
10
49.9337964941033
20
-2.46584453837716
30
0
0
SPLINE
5
D8
100
AcDbEntity
8
1
62
256
6
ByLayer
370
13
48
1
60
0
100
AcDbSpline
70
4
71
3
72
8
73
4
40
0
40
0
40
0
40
0
40
1
40
1
40
1
40
1
41
1
10
51.4304164171909
20
2.47219825628696
30
0
41
1
10
51.4330369366078
20
2.46769455116757
30
0
41
1
10
51.4356574568208
20
2.46218901068627
30
0
41
1
10
51.4382779770057
20
2.45568878567053
30
0
0
SPLINE
5
D9
100
AcDbEntity
8
1
62
256
6
ByLayer
370
13
48
1
60
0
100
AcDbSpline
70
4
71
3
72
8
73
4
40
0
40
0
40
0
40
0
40
1
40
1
40
1
40
1
41
1
10
45.4278163678183
20
2.47638768142727
30
0
41
1
10
45.4335509043295
20
2.46798174853552
30
0
41
1
10
45.4392854379379
20
2.45473446581917
30
0
41
1
10
45.4450199716997
20
2.43676125311001
30
0
0
SPLINE
5
DA
100
AcDbEntity
8
1
62
256
6
ByLayer
370
18
48
1
60
0
100
AcDbSpline
70
4
71
3
72
10
73
6
40
0
40
0
40
0
40
0
40
0.392098087324774
40
0.392098087324774
40
1
40
1
40
1
40
1
41
1
10
55.8283895859674
20
-2.64120048002812
30
0
41
1
10
55.8260576409639
20
-2.6413183250578
30
0
41
1
10
55.823772996053
20
-2.63955925678835
30
0
41
1
10
55.8180384469835
20
-2.63038380053635
30
0
41
1
10
55.8146395981615
20
-2.62038565311582
30
0
41
1
10
55.8112787481156
20
-2.60594421589718
30
0
0
SPLINE
5
DB
100
AcDbEntity
8
1
62
256
6
ByLayer
370
18
48
1
60
0
100
AcDbSpline
70
4
71
3
72
8
73
4
40
0
40
0
40
0
40
0
40
1
40
1
40
1
40
1
41
1
10
55.2577271577674
20
-2.6015044784881
30
0
41
1
10
55.2716795399189
20
-2.6649138009987
30
0
41
1
10
55.2855097699261
20
-2.70981064296177
30
0
41
1
10
55.2992405711975
20
-2.73592399523446
30
0
0
SPLINE
5
DC
100
AcDbEntity
8
1
62
256
6
ByLayer
370
18
48
1
60
0
100
AcDbSpline
70
4
71
3
72
12
73
8
40
0
40
0
40
0
40
0
40
0.0897097419236116
40
0.0897097419236116
40
0.441510912036957
40
0.441510912036957
40
1
40
1
40
1
40
1
41
1
10
55.313989639124
20
-2.75669348501029
30
0
41
1
10
55.3144301039974
20
-2.7570929148867
30
0
41
1
10
55.3148702284702
20
-2.75747192415503
30
0
41
1
10
55.3170339435417
20
-2.75923584603564
30
0
41
1
10
55.318749238227
20
-2.76032450826142
30
0
41
1
10
55.323165982247
20
-2.76233051444353
30
0
41
1
10
55.3258546902992
20
-2.76277393708944
30
0
41
1
10
55.3285241747853
20
-2.76243566025576
30
0
0
SPLINE
5
DD
100
AcDbEntity
8
1
62
256
6
ByLayer
370
13
48
1
60
0
100
AcDbSpline
70
4
71
3
72
9
73
5
40
0
40
0
40
0
40
0
40
0.104413027733598
40
1
40
1
40
1
40
1
41
1
10
49.1122467142326
20
-2.35969346743315
30
0
41
1
10
49.113383585896
20
-2.36531533151518
30
0
41
1
10
49.1242718026503
20
-2.41741969307199
30
0
41
1
10
49.1351600209754
20
-2.45271182794681
30
0
41
1
10
49.1449113671403
20
-2.47045969229549
30
0
0
SPLINE
5
DE
100
AcDbEntity
8
1
62
256
6
ByLayer
370
13
48
1
60
0
100
AcDbSpline
70
4
71
3
72
9
73
5
40
0
40
0
40
0
40
0
40
0.369918219225954
40
1
40
1
40
1
40
1
41
1
10
55.1441836287957
20
-2.46910645518821
30
0
41
1
10
55.1393396797175
20
-2.4599950160592
30
0
41
1
10
55.1262450310949
20
-2.42609831123039
30
0
41
1
10
55.1131503822998
20
-2.3671902875241
30
0
41
1
10
55.1048996825987
20
-2.32076820500774
30
0
0
SPLINE
5
DF
100
AcDbEntity
8
1
62
256
6
ByLayer
370
13
48
1
60
0
100
AcDbSpline
70
4
71
3
72
9
73
5
40
0
40
0
40
0
40
0
40
0.249729604078941
40
1
40
1
40
1
40
1
41
1
10
51.6460576119567
20
2.47250769730772
30
0
41
1
10
51.6508160259682
20
2.48064257736672
30
0
41
1
10
51.6698702902754
20
2.49996485649851
30
0
41
1
10
51.6889245499272
20
2.46537278861908
30
0
41
1
10
51.7032203988268
20
2.41019469031244
30
0
0
SPLINE
5
E0
100
AcDbEntity
8
1
62
256
6
ByLayer
370
13
48
1
60
0
100
AcDbSpline
70
4
71
3
72
9
73
5
40
0
40
0
40
0
40
0
40
0.398536587463155
40
1
40
1
40
1
40
1
41
1
10
45.6483004651509
20
2.47606009620949
30
0
41
1
10
45.6564873214695
20
2.48823384703007
30
0
41
1
10
45.6770296173613
20
2.49422027492784
30
0
41
1
10
45.6975719182516
20
2.43765609539841
30
0
41
1
10
45.7099273595995
20
2.3821301935082
30
0
0
SPLINE
5
E1
100
AcDbEntity
8
1
62
256
6
ByLayer
370
13
48
1
60
0
100
AcDbSpline
70
4
71
3
72
9
73
5
40
0
40
0
40
0
40
0
40
0.432300862810231
40
1
40
1
40
1
40
1
41
1
10
52.4302986754165
20
2.47242266302857
30
0
41
1
10
52.4397030094109
20
2.45636885105947
30
0
41
1
10
52.4614571351687
20
2.38939601302948
30
0
41
1
10
52.4832114019635
20
2.25502955962648
30
0
41
1
10
52.4955612633289
20
2.1592748440527
30
0
0
SPLINE
5
E2
100
AcDbEntity
8
1
62
256
6
ByLayer
370
13
48
1
60
0
100
AcDbSpline
70
4
71
3
72
9
73
5
40
0
40
0
40
0
40
0
40
0.554434807579233
40
1
40
1
40
1
40
1
41
1
10
54.9299578622528
20
-2.47296012186885
30
0
41
1
10
54.9133128981176
20
-2.50068153457821
30
0
41
1
10
54.8832912496862
20
-2.47746875336307
30
0
41
1
10
54.8532697626712
20
-2.32257206142339
30
0
41
1
10
54.8398932481675
20
-2.2300471930981
30
0
0
SPLINE
5
E3
100
AcDbEntity
8
1
62
256
6
ByLayer
370
13
48
1
60
0
100
AcDbSpline
70
4
71
3
72
9
73
5
40
0
40
0
40
0
40
0
40
0.56969455829384
40
1
40
1
40
1
40
1
41
1
10
46.4291708494462
20
2.47431026260932
30
0
41
1
10
46.4431271558967
20
2.45199669113222
30
0
41
1
10
46.4676250350556
20
2.36264562741275
30
0
41
1
10
46.4921228975151
20
2.19004087424284
30
0
41
1
10
46.5026644648504
20
2.1019867803598
30
0
0
SPLINE
5
E4
100
AcDbEntity
8
1
62
256
6
ByLayer
370
18
48
1
60
0
100
AcDbSpline
70
4
71
3
72
25
73
21
40
0
40
0
40
0
40
0
40
0.0411787653033922
40
0.0411787653033922
40
0.0847615486986925
40
0.0847615486986925
40
0.128344332093993
40
0.128344332093993
40
0.302675465675193
40
0.302675465675193
40
0.477006599256394
40
0.477006599256394
40
0.564172166046994
40
0.564172166046994
40
0.607754949442294
40
0.607754949442294
40
0.651337732837594
40
0.651337732837594
40
0.825668866418797
40
1
40
1
40
1
40
1
41
1
10
54.6658068603629
20
-2.92325936758184
30
0
41
1
10
54.6649426251802
20
-2.92352919129144
30
0
41
1
10
54.6640828195782
20
-2.92351405340355
30
0
41
1
10
54.6623209924143
20
-2.92289209569455
30
0
41
1
10
54.6614182386265
20
-2.92224875896349
30
0
41
1
10
54.6596291896256
20
-2.92032344564137
30
0
41
1
10
54.6587421835155
20
-2.91904213152921
30
0
41
1
10
54.6543402609313
20
-2.91106219103227
30
0
41
1
10
54.6509250337153
20
-2.89965862168782
30
0
41
1
10
54.6441880793742
20
-2.86706933334915
30
0
41
1
10
54.6408656638947
20
-2.84587073070208
30
0
41
1
10
54.6358544097962
20
-2.80669929646828
30
0
41
1
10
54.634180286117
20
-2.79241576101373
30
0
41
1
10
54.6316572422093
20
-2.76913764468461
30
0
41
1
10
54.6308142668382
20
-2.76106924393343
30
0
41
1
10
54.6291235155919
20
-2.74430939205851
30
0
41
1
10
54.6282747973861
20
-2.73560751633593
30
0
41
1
10
54.6240366564508
20
-2.69073305607617
30
0
41
1
10
54.617267677134
20
-2.6100504081507
30
0
41
1
10
54.6104694224759
20
-2.51190799335069
30
0
41
1
10
54.6070599112579
20
-2.45834651732378
30
0
0
SPLINE
5
E5
100
AcDbEntity
8
1
62
256
6
ByLayer
370
18
48
1
60
0
100
AcDbSpline
70
4
71
3
72
23
73
19
40
0
40
0
40
0
40
0
40
0.154493422442654
40
0.154493422442654
40
0.308986844885309
40
0.308986844885309
40
0.463480267327963
40
0.463480267327963
40
0.617973689770618
40
0.617973689770618
40
0.772467112213272
40
0.772467112213272
40
0.811090467823935
40
0.811090467823935
40
0.849713823434598
40
0.926960534655926
40
0.926960534655926
40
1
40
1
40
1
40
1
41
1
10
54.3144764227049
20
-2.34506378659901
30
0
41
1
10
54.3217108672272
20
-2.4090352440775
30
0
41
1
10
54.328919040965
20
-2.46856793806165
30
0
41
1
10
54.343263858888
20
-2.57866958108042
30
0
41
1
10
54.3504256032924
20
-2.6292818843921
30
0
41
1
10
54.3648995541438
20
-2.72135098730368
30
0
41
1
10
54.3720965871855
20
-2.76200565104011
30
0
41
1
10
54.3864911647173
20
-2.83294595044447
30
0
41
1
10
54.3936758900494
20
-2.86323400926048
30
0
41
1
10
54.4079671766552
20
-2.91334672498044
30
0
41
1
10
54.4150607535682
20
-2.93315066949205
30
0
41
1
10
54.4239282321183
20
-2.95113895965116
30
0
41
1
10
54.4257046560768
20
-2.9544015888886
30
0
41
1
10
54.4292459306695
20
-2.96021670886887
30
0
41
1
10
54.4345365971678
20
-2.96787177000488
30
0
41
1
10
54.4397766832538
20
-2.9723648812022
30
0
41
1
10
54.4465262769804
20
-2.97550714820579
30
0
41
1
10
54.4497848889754
20
-2.97580346179743
30
0
41
1
10
54.4530207226734
20
-2.97487126648397
30
0
0
SPLINE
5
E6
100
AcDbEntity
8
1
62
256
6
ByLayer
370
13
48
1
60
0
100
AcDbSpline
70
4
71
3
72
10
73
6
40
0
40
0
40
0
40
0
40
0.0837595078933197
40
0.607270664192071
40
1
40
1
40
1
40
1
41
1
10
54.0473384978324
20
-1.85410472068574
30
0
41
1
10
54.0499995242548
20
-1.88183348242785
30
0
41
1
10
54.0692924178858
20
-2.07722578684837
30
0
41
1
10
54.1010622587208
20
-2.32821467368848
30
0
41
1
10
54.1301710732158
20
-2.44064502325719
30
0
41
1
10
54.1426480215667
20
-2.46612327601062
30
0
0
SPLINE
5
E7
100
AcDbEntity
8
1
62
256
6
ByLayer
370
18
48
1
60
0
100
AcDbSpline
70
4
71
3
72
8
73
4
40
0
40
0
40
0
40
0
40
1
40
1
40
1
40
1
41
1
10
54.1426478611088
20
-2.46612294835003
30
0
41
1
10
54.1444523149383
20
-2.4698077181223
30
0
41
1
10
54.1462567687659
20
-2.47301742892702
30
0
41
1
10
54.1480612225913
20
-2.47574869689689
30
0
0
SPLINE
5
E8
100
AcDbEntity
8
1
62
256
6
ByLayer
370
13
48
1
60
0
100
AcDbSpline
70
4
71
3
72
11
73
7
40
0
40
0
40
0
40
0
40
0.0672848381589226
40
0.521787089101607
40
0.976289340044291
40
1
40
1
40
1
40
1
41
1
10
52.6508582397323
20
2.47959117289392
30
0
41
1
10
52.6533204329298
20
2.48264517968388
30
0
41
1
10
52.6724144916171
20
2.49941221456987
30
0
41
1
10
52.7081404246132
20
2.42954955009415
30
0
41
1
10
52.7422718060471
20
2.20074946750984
30
0
41
1
10
52.7597713302033
20
2.04577803827937
30
0
41
1
10
52.7606389882318
20
2.03800292195655
30
0
0
SPLINE
5
E9
100
AcDbEntity
8
1
62
256
6
ByLayer
370
18
48
1
60
0
100
AcDbSpline
70
4
71
3
72
8
73
4
40
0
40
0
40
0
40
0
40
1
40
1
40
1
40
1
41
1
10
53.4363629621333
20
2.46026618700429
30
0
41
1
10
53.4388145853365
20
2.45464200353749
30
0
41
1
10
53.4412662078714
20
2.44814530802924
30
0
41
1
10
53.4437178290864
20
2.44078091334123
30
0
0
SPLINE
5
EA
100
AcDbEntity
8
1
62
256
6
ByLayer
370
13
48
1
60
0
100
AcDbSpline
70
4
71
3
72
10
73
6
40
0
40
0
40
0
40
0
40
0.116099018821931
40
0.572025621309757
40
1
40
1
40
1
40
1
41
1
10
53.4437181449443
20
2.44077996453476
30
0
41
1
10
53.4479533629373
20
2.42805771676621
30
0
41
1
10
53.4688204725393
20
2.35261603623206
30
0
41
1
10
53.5052994896224
20
2.11189033016672
30
0
41
1
10
53.5375437560564
20
1.77059154223747
30
0
41
1
10
53.5531559568871
20
1.58237353252562
30
0
0
SPLINE
5
EB
100
AcDbEntity
8
1
62
256
6
ByLayer
370
18
48
1
60
0
100
AcDbSpline
70
4
71
3
72
8
73
4
40
0
40
0
40
0
40
0
40
1
40
1
40
1
40
1
41
1
10
46.6447399831372
20
2.47013721691405
30
0
41
1
10
46.647971690864
20
2.47606589439991
30
0
41
1
10
46.651203398584
20
2.48047330337897
30
0
41
1
10
46.6544351062809
20
2.48334892491974
30
0
0
SPLINE
5
EC
100
AcDbEntity
8
1
62
256
6
ByLayer
370
13
48
1
60
0
100
AcDbSpline
70
4
71
3
72
10
73
6
40
0
40
0
40
0
40
0
40
0.144485014060755
40
0.585740558753186
40
1
40
1
40
1
40
1
41
1
10
46.6544351584661
20
2.48334897135482
30
0
41
1
10
46.6598811079347
20
2.48819483034518
30
0
41
1
10
46.6819589231816
20
2.49020534825075
30
0
41
1
10
46.7196510593403
20
2.37017440986151
30
0
41
1
10
46.7518972572333
20
2.12291717708771
30
0
41
1
10
46.76751158301
20
1.97454128568538
30
0
0
SPLINE
5
ED
100
AcDbEntity
8
1
62
256
6
ByLayer
370
18
48
1
60
0
100
AcDbSpline
70
4
71
3
72
33
73
29
40
0
40
0
40
0
40
0
40
0.0625000000000003
40
0.0625000000000003
40
0.0937500000000005
40
0.0937500000000005
40
0.125000000000001
40
0.125000000000001
40
0.250000000000001
40
0.250000000000001
40
0.375000000000001
40
0.375000000000001
40
0.500000000000001
40
0.500000000000001
40
0.531250000000001
40
0.531250000000001
40
0.562500000000001
40
0.625000000000001
40
0.625000000000001
40
0.75
40
0.75
40
0.874999999999999
40
0.874999999999999
40
0.906249999999999
40
0.906249999999999
40
0.937499999999999
40
0.937499999999999
40
1
40
1
40
1
40
1
41
1
10
46.9918966689206
20
3.05704276646139
30
0
41
1
10
46.9946416401481
20
3.05722134254194
30
0
41
1
10
46.9973946130339
20
3.0560315986659
30
0
41
1
10
47.0015491065025
20
3.0521590365513
30
0
41
1
10
47.0029378061479
20
3.05052000946429
30
0
41
1
10
47.0057224661536
20
3.0465374008588
30
0
41
1
10
47.0071174686978
20
3.04419398580373
30
0
41
1
10
47.0140691543678
20
3.03078688675919
30
0
41
1
10
47.0195848156427
20
3.01462556523904
30
0
41
1
10
47.0305553547698
20
2.97175801931641
30
0
41
1
10
47.03601023277
20
2.94505091627499
30
0
41
1
10
47.046958399665
20
2.8810717976107
30
0
41
1
10
47.0524655946561
20
2.84380108163396
30
0
41
1
10
47.0594235574617
20
2.7903819193948
30
0
41
1
10
47.0608175761612
20
2.77936008202613
30
0
41
1
10
47.0635956157145
20
2.75676173076414
30
0
41
1
10
47.0677537846464
20
2.72198614240273
30
0
41
1
10
47.0718866255284
20
2.68460665614242
30
0
41
1
10
47.0801277110339
20
2.60642881358007
30
0
41
1
10
47.0855870204514
20
2.5497606282623
30
0
41
1
10
47.0965322726035
20
2.42738473767432
30
0
41
1
10
47.102031653758
20
2.36167795490468
30
0
41
1
10
47.1089695476661
20
2.27374887366241
30
0
41
1
10
47.1103597291669
20
2.25587250616601
30
0
41
1
10
47.1131453060826
20
2.21953184945656
30
0
41
1
10
47.1145401891581
20
2.20107328061994
30
0
41
1
10
47.1187083778173
20
2.14514257989936
30
0
41
1
10
47.1214732674896
20
2.10701003953406
30
0
41
1
10
47.1242272095063
20
2.06804849398526
30
0
0
SPLINE
5
EE
100
AcDbEntity
8
1
62
256
6
ByLayer
370
13
48
1
60
0
100
AcDbSpline
70
4
71
3
72
10
73
6
40
0
40
0
40
0
40
0
40
0.256716054457043
40
0.662632826380962
40
1
40
1
40
1
40
1
41
1
10
47.4373960413118
20
2.45784440935262
30
0
41
1
10
47.4479146180012
20
2.43261480490506
30
0
41
1
10
47.4750650715494
20
2.32606618472744
30
0
41
1
10
47.5160386719005
20
2.01020717856216
30
0
41
1
10
47.5464936630979
20
1.66706432017182
30
0
41
1
10
47.560316808296
20
1.49440775178553
30
0
0
SPLINE
5
EF
100
AcDbEntity
8
1
62
256
6
ByLayer
370
13
48
1
60
0
100
AcDbSpline
70
4
71
3
72
11
73
7
40
0
40
0
40
0
40
0
40
0.188545538094717
40
0.592859648546323
40
0.997173758997928
40
1
40
1
40
1
40
1
41
1
10
53.782424800628
20
-1.69724176959835
30
0
41
1
10
53.7901807946261
20
-1.78585069342512
30
0
41
1
10
53.8145686212765
20
-2.0455378783025
30
0
41
1
10
53.8555884889278
20
-2.36626846682563
30
0
41
1
10
53.8889683885944
20
-2.47288222110308
30
0
41
1
10
53.9057165013581
20
-2.48477705809017
30
0
41
1
10
53.9058327615212
20
-2.48485762433558
30
0
0
SPLINE
5
F0
100
AcDbEntity
8
1
62
256
6
ByLayer
370
13
48
1
60
0
100
AcDbSpline
70
4
71
3
72
11
73
7
40
0
40
0
40
0
40
0
40
0.143807558230533
40
0.548112616706044
40
0.952417675181556
40
1
40
1
40
1
40
1
41
1
10
52.9897666068665
20
-1.14729425219548
30
0
41
1
10
52.9956824076711
20
-1.229331677788
30
0
41
1
10
53.018230075725
20
-1.53297459370896
30
0
41
1
10
53.0574096096906
20
-1.98758781266369
30
0
41
1
10
53.0926307311754
20
-2.25941541329297
30
0
41
1
10
53.1112199874618
20
-2.35474200348278
30
0
41
1
10
53.1131773778748
20
-2.36424173688531
30
0
0
SPLINE
5
F1
100
AcDbEntity
8
1
62
256
6
ByLayer
370
13
48
1
60
0
100
AcDbSpline
70
4
71
3
72
11
73
7
40
0
40
0
40
0
40
0
40
0.0904027792265416
40
0.494880004946281
40
0.89935723066602
40
1
40
1
40
1
40
1
41
1
10
53.6949004594525
20
2.43901511148661
30
0
41
1
10
53.6986177683543
20
2.42762888936451
30
0
41
1
10
53.7189669424692
20
2.35437971453143
30
0
41
1
10
53.7559479921267
20
2.11351031937701
30
0
41
1
10
53.7933500856682
20
1.71539349105868
30
0
41
1
10
53.8141203246431
20
1.45424592291397
30
0
41
1
10
53.8182586966525
20
1.40079383879464
30
0
0
SPLINE
5
F2
100
AcDbEntity
8
1
62
256
6
ByLayer
370
18
48
1
60
0
100
AcDbSpline
70
4
71
3
72
27
73
23
40
0
40
0
40
0
40
0
40
0.124999999999998
40
0.124999999999998
40
0.249999999999996
40
0.249999999999996
40
0.281249999999996
40
0.281249999999996
40
0.312499999999996
40
0.312499999999996
40
0.374999999999996
40
0.374999999999996
40
0.499999999999997
40
0.499999999999997
40
0.624999999999997
40
0.624999999999997
40
0.687499999999997
40
0.687499999999997
40
0.749999999999997
40
0.749999999999997
40
0.874999999999998
40
1
40
1
40
1
40
1
41
1
10
55.8860722134758
20
1.53118017490365
30
0
41
1
10
55.892885985886
20
1.46095012754461
30
0
41
1
10
55.8996379943625
20
1.38833055160799
30
0
41
1
10
55.9130150952188
20
1.23839590905817
30
0
41
1
10
55.9196368748292
20
1.16108114467207
30
0
41
1
10
55.9278242440902
20
1.06144143411515
30
0
41
1
10
55.9294572632239
20
1.04136321815005
30
0
41
1
10
55.9327143921511
20
1.00090279025241
30
0
41
1
10
55.9343405331988
20
0.980493069048435
30
0
41
1
10
55.9391894252721
20
0.919025340661221
30
0
41
1
10
55.9423798232407
20
0.877771835208932
30
0
41
1
10
55.9518509897546
20
0.753207664927544
30
0
41
1
10
55.9580313736811
20
0.669095665525504
30
0
41
1
10
55.9702735357923
20
0.498787471103895
30
0
41
1
10
55.97634262468
20
0.41259132558011
30
0
41
1
10
55.9853678058008
20
0.281717524047195
30
0
41
1
10
55.9883630476769
20
0.237829083792974
30
0
41
1
10
55.994328895055
20
0.149514614067016
30
0
41
1
10
55.9973027281416
20
0.10503713784891
30
0
41
1
10
56.0060963690523
20
-0.0277502038510136
30
0
41
1
10
56.0175419349689
20
-0.204015117788487
30
0
41
1
10
56.0285672212356
20
-0.378728926319866
30
0
41
1
10
56.0340256056248
20
-0.465688154813364
30
0
0
SPLINE
5
F3
100
AcDbEntity
8
1
62
256
6
ByLayer
370
13
48
1
60
0
100
AcDbSpline
70
4
71
3
72
10
73
6
40
0
40
0
40
0
40
0
40
0.432300645704806
40
0.937447826647801
40
1
40
1
40
1
40
1
41
1
10
55.9334856105248
20
-0.312125032965923
30
0
41
1
10
55.9156489254895
20
-0.0355677288255833
30
0
41
1
10
55.8769699138001
20
0.577038917407862
30
0
41
1
10
55.8357100042123
20
1.18080092947832
30
0
41
1
10
55.812286779559
20
1.47711138748338
30
0
41
1
10
55.8097058824662
20
1.50916309868447
30
0
0
SPLINE
5
F4
100
AcDbEntity
8
1
62
256
6
ByLayer
370
18
48
1
60
0
100
AcDbSpline
70
4
71
3
72
29
73
25
40
0
40
0
40
0
40
0
40
0.125000000000002
40
0.125000000000002
40
0.187500000000003
40
0.187500000000003
40
0.218750000000003
40
0.218750000000003
40
0.250000000000003
40
0.250000000000003
40
0.375000000000002
40
0.375000000000002
40
0.500000000000001
40
0.500000000000001
40
0.625
40
0.625
40
0.656249999999999
40
0.656249999999999
40
0.687499999999999
40
0.749999999999999
40
0.749999999999999
40
0.875
40
0.875
40
1
40
1
40
1
40
1
41
1
10
54.0002805590028
20
2.85524632933024
30
0
41
1
10
54.0074869509563
20
2.82649957276917
30
0
41
1
10
54.0147310027458
20
2.79245267321275
30
0
41
1
10
54.0256263414863
20
2.73330964853096
30
0
41
1
10
54.0292624664687
20
2.71224523093653
30
0
41
1
10
54.0347152008711
20
2.67856400165482
30
0
41
1
10
54.0365320887055
20
2.66698843525828
30
0
41
1
10
54.0401675814999
20
2.64313473325376
30
0
41
1
10
54.0419888653261
20
2.63083871319941
30
0
41
1
10
54.051061503077
20
2.56793500293145
30
0
41
1
10
54.0582460159077
20
2.51293584932623
30
0
41
1
10
54.0726458290587
20
2.39402140883661
30
0
41
1
10
54.0798466473507
20
2.33010724813713
30
0
41
1
10
54.0942767633459
20
2.19337786127363
30
0
41
1
10
54.1015060645323
20
2.12056451579406
30
0
41
1
10
54.1105641690793
20
2.02371177988249
30
0
41
1
10
54.1123762544516
20
2.00405137362145
30
0
41
1
10
54.1159806258289
20
1.96438560043143
30
0
41
1
10
54.121366040626
20
1.90428068833648
30
0
41
1
10
54.1267052145483
20
1.84238132336091
30
0
41
1
10
54.1373252624797
20
1.71623386877897
30
0
41
1
10
54.14432653916
20
1.6290120140566
30
0
41
1
10
54.1581907754464
20
1.44835578932327
30
0
41
1
10
54.165053668993
20
1.35492213920514
30
0
41
1
10
54.1718642508561
20
1.25826644638693
30
0
0
SPLINE
5
F5
100
AcDbEntity
8
1
62
256
6
ByLayer
370
18
48
1
60
0
100
AcDbSpline
70
4
71
3
72
25
73
21
40
0
40
0
40
0
40
0
40
0.124999999999999
40
0.249999999999998
40
0.249999999999998
40
0.312499999999998
40
0.312499999999998
40
0.374999999999998
40
0.374999999999998
40
0.499999999999998
40
0.499999999999998
40
0.624999999999998
40
0.624999999999998
40
0.687499999999998
40
0.687499999999998
40
0.749999999999998
40
0.749999999999998
40
0.874999999999999
40
0.874999999999999
40
1
40
1
40
1
40
1
41
1
10
54.2887296615451
20
1.14237403738238
30
0
41
1
10
54.2848684064251
20
1.23530446720986
30
0
41
1
10
54.277503718223
20
1.41598320741454
30
0
41
1
10
54.2704986921719
20
1.58656972110307
30
0
41
1
10
54.2652367686953
20
1.71067998871476
30
0
41
1
10
54.2634797550857
20
1.75141044517628
30
0
41
1
10
54.2599673028707
20
1.83156244025744
30
0
41
1
10
54.258224808674
20
1.87069324595376
30
0
41
1
10
54.2530604671434
20
1.98503303163747
30
0
41
1
10
54.2497121674464
20
2.05729932825906
30
0
41
1
10
54.2430826772679
20
2.19418619946177
30
0
41
1
10
54.2397934660775
20
2.25881650370064
30
0
41
1
10
54.2347895572221
20
2.35003062008133
30
0
41
1
10
54.2331101424064
20
2.37947737307948
30
0
41
1
10
54.2297126923255
20
2.43641915723333
30
0
41
1
10
54.2279905704931
20
2.46396570977373
30
0
41
1
10
54.2227961508909
20
2.54286965017332
30
0
41
1
10
54.2192927935023
20
2.59071475595709
30
0
41
1
10
54.2123961596444
20
2.67679918371613
30
0
41
1
10
54.2090106604391
20
2.71502595486032
30
0
41
1
10
54.2055844260542
20
2.74849397965136
30
0
0
SPLINE
5
F6
100
AcDbEntity
8
1
62
256
6
ByLayer
370
13
48
1
60
0
100
AcDbSpline
70
4
71
3
72
10
73
6
40
0
40
0
40
0
40
0
40
0.351103958180412
40
0.857278903642413
40
1
40
1
40
1
40
1
41
1
10
54.6107588752659
20
0.800229645122414
30
0
41
1
10
54.5963017113799
20
1.01410513390931
30
0
41
1
10
54.5610020753717
20
1.51226303583061
30
0
41
1
10
54.5198259776614
20
1.97094518855295
30
0
41
1
10
54.4931069662096
20
2.17939698671719
30
0
41
1
10
54.4872302667798
20
2.22071851730826
30
0
0
SPLINE
5
F7
100
AcDbEntity
8
1
62
256
6
ByLayer
370
13
48
1
60
0
100
AcDbSpline
70
4
71
3
72
11
73
7
40
0
40
0
40
0
40
0
40
0.132510480025783
40
0.538140289035734
40
0.943770098045685
40
1
40
1
40
1
40
1
41
1
10
47.702280762031
20
2.41374775803547
30
0
41
1
10
47.707714032653
20
2.39325999988495
30
0
41
1
10
47.7297791689193
20
2.29296971451134
30
0
41
1
10
47.76847616833
20
1.99782763106106
30
0
41
1
10
47.8040454779189
20
1.58764994728739
30
0
41
1
10
47.8229829144992
20
1.33932851847607
30
0
41
1
10
47.8252884851253
20
1.30868323557672
30
0
0
SPLINE
5
F8
100
AcDbEntity
8
1
62
256
6
ByLayer
370
13
48
1
60
0
100
AcDbSpline
70
4
71
3
72
11
73
7
40
0
40
0
40
0
40
0
40
0.177538068256891
40
0.583504198834883
40
0.989470329412874
40
1
40
1
40
1
40
1
41
1
10
48.4949388454566
20
2.16403308545006
30
0
41
1
10
48.5022123336418
20
2.10800212853263
30
0
41
1
10
48.5261176921367
20
1.90165979222689
30
0
41
1
10
48.5666548890413
20
1.43746839403673
30
0
41
1
10
48.6003500124997
20
0.956904741095144
30
0
41
1
10
48.6174132724802
20
0.701165992533419
30
0
41
1
10
48.617844658601
20
0.694692821122459
30
0
0
SPLINE
5
F9
100
AcDbEntity
8
1
62
256
6
ByLayer
370
18
48
1
60
0
100
AcDbSpline
70
4
71
3
72
28
73
24
40
0
40
0
40
0
40
0
40
0.125000000000002
40
0.250000000000003
40
0.250000000000003
40
0.375000000000005
40
0.375000000000005
40
0.406250000000005
40
0.406250000000005
40
0.437500000000005
40
0.500000000000005
40
0.500000000000005
40
0.625000000000004
40
0.625000000000004
40
0.750000000000003
40
0.750000000000003
40
0.781250000000002
40
0.781250000000002
40
0.812500000000002
40
0.812500000000002
40
0.875000000000002
40
0.875000000000002
40
1
40
1
40
1
40
1
41
1
10
48.2779806630572
20
1.04351971459977
30
0
41
1
10
48.2724114157276
20
1.14379192727353
30
0
41
1
10
48.2613634532689
20
1.33894670577689
30
0
41
1
10
48.2504286418564
20
1.52364526783734
30
0
41
1
10
48.2394511548742
20
1.70310310201319
30
0
41
1
10
48.2339265718404
20
1.79021154429952
30
0
41
1
10
48.2269535148378
20
1.89570736896107
30
0
41
1
10
48.2255562507067
20
1.91663170640447
30
0
41
1
10
48.2227723283227
20
1.95789333139288
30
0
41
1
10
48.2186060772783
20
2.01899943016542
30
0
41
1
10
48.2144672373058
20
2.07777376479703
30
0
41
1
10
48.2062161766682
20
2.19226074475179
30
0
41
1
10
48.2007530396949
20
2.26451123839436
30
0
41
1
10
48.1897986943153
20
2.40091293105763
30
0
41
1
10
48.184292843244
20
2.46506409874877
30
0
41
1
10
48.1773484089694
20
2.54005804083968
30
0
41
1
10
48.1759569084686
20
2.55479641831349
30
0
41
1
10
48.1731685617903
20
2.58374624496349
30
0
41
1
10
48.1717720614489
20
2.59795299391411
30
0
41
1
10
48.1675987945292
20
2.63953157934768
30
0
41
1
10
48.1648301272769
20
2.66594917690514
30
0
41
1
10
48.1565549870047
20
2.74137292217034
30
0
41
1
10
48.151081295556
20
2.78656011505339
30
0
41
1
10
48.1456015047011
20
2.82672430739711
30
0
0
SPLINE
5
FA
100
AcDbEntity
8
1
62
256
6
ByLayer
370
18
48
1
60
0
100
AcDbSpline
70
4
71
3
72
26
73
22
40
0
40
0
40
0
40
0
40
0.125000000000003
40
0.125000000000003
40
0.187500000000004
40
0.218750000000004
40
0.218750000000004
40
0.250000000000004
40
0.250000000000004
40
0.375000000000003
40
0.375000000000003
40
0.500000000000002
40
0.625000000000001
40
0.625000000000001
40
0.656250000000001
40
0.656250000000001
40
0.6875
40
0.75
40
0.75
40
0.875
40
1
40
1
40
1
40
1
41
1
10
48.0493279543759
20
2.86382804825112
30
0
41
1
10
48.0548337396947
20
2.82689091031864
30
0
41
1
10
48.060345478237
20
2.78489966442581
30
0
41
1
10
48.0686214599116
20
2.71427691655703
30
0
41
1
10
48.0727623808952
20
2.67705280240327
30
0
41
1
10
48.0769155161088
20
2.63691389035398
30
0
41
1
10
48.0796884409219
20
2.60949919915163
30
0
41
1
10
48.0810789476975
20
2.59544332379349
30
0
41
1
10
48.0880112292123
20
2.52386709693738
30
0
41
1
10
48.0935037430795
20
2.46236558352706
30
0
41
1
10
48.1045157555262
20
2.33116352939956
30
0
41
1
10
48.1155325301885
20
2.1917597349107
30
0
41
1
10
48.1265566326395
20
2.03596815408173
30
0
41
1
10
48.1334924244667
20
1.93331379688965
30
0
41
1
10
48.1348840066922
20
1.91248811697395
30
0
41
1
10
48.1376598039347
20
1.87051524495831
30
0
41
1
10
48.141814786512
20
1.80703710373427
30
0
41
1
10
48.145954745144
20
1.74202186133243
30
0
41
1
10
48.1542367337955
20
1.60997668516774
30
0
41
1
10
48.1652656350366
20
1.42855357744747
30
0
41
1
10
48.1762581590582
20
1.23649817285173
30
0
41
1
10
48.1817802848904
20
1.13775050763124
30
0
0
SPLINE
5
FB
100
AcDbEntity
8
1
62
256
6
ByLayer
370
13
48
1
60
0
100
AcDbSpline
70
4
71
3
72
10
73
6
40
0
40
0
40
0
40
0
40
0.309238706558484
40
0.814100214993925
40
1
40
1
40
1
40
1
41
1
10
55.6686454740407
20
-0.0898860209237569
30
0
41
1
10
55.6558790820062
20
0.109506250282408
30
0
41
1
10
55.6222703346294
20
0.636728603664125
30
0
41
1
10
55.5809876361934
20
1.24245008102218
30
0
41
1
10
55.5524708550928
20
1.59257037507288
30
0
41
1
10
55.544796315602
20
1.68096341022417
30
0
0
SPLINE
5
FC
100
AcDbEntity
8
1
62
256
6
ByLayer
370
13
48
1
60
0
100
AcDbSpline
70
4
71
3
72
10
73
6
40
0
40
0
40
0
40
0
40
0.267681424206775
40
0.672333754404033
40
1
40
1
40
1
40
1
41
1
10
52.7248787939474
20
-0.944358446283246
30
0
41
1
10
52.7358809212264
20
-1.10340976281904
30
0
41
1
10
52.7635148810422
20
-1.48595241520431
30
0
41
1
10
52.8046165625752
20
-1.9602271863379
30
0
41
1
10
52.8347160144339
20
-2.20122627295334
30
0
41
1
10
52.8481836189195
20
-2.28450599330654
30
0
0
SPLINE
5
FD
100
AcDbEntity
8
1
62
256
6
ByLayer
370
13
48
1
60
0
100
AcDbSpline
70
4
71
3
72
10
73
6
40
0
40
0
40
0
40
0
40
0.222935918667414
40
0.62774503885626
40
1
40
1
40
1
40
1
41
1
10
51.9322280055206
20
-0.292527656198757
30
0
41
1
10
51.9413874840333
20
-0.434678862366468
30
0
41
1
10
51.9671788297294
20
-0.830875280539573
30
0
41
1
10
52.0082645324867
20
-1.4170563436918
30
0
41
1
10
52.0401907525128
20
-1.78648255312751
30
0
41
1
10
52.0554851078768
20
-1.9365172643399
30
0
0
SPLINE
5
FE
100
AcDbEntity
8
1
62
256
6
ByLayer
370
13
48
1
60
0
100
AcDbSpline
70
4
71
3
72
10
73
6
40
0
40
0
40
0
40
0
40
0.475645917533333
40
0.982321466142005
40
1
40
1
40
1
40
1
41
1
10
54.8757145921297
20
0.58447085672401
30
0
41
1
10
54.8561486826762
20
0.881635964005511
30
0
41
1
10
54.815740446373
20
1.46781357570256
30
0
41
1
10
54.7746049965953
20
1.92329174326272
30
0
41
1
10
54.7530354556537
20
2.10375895964071
30
0
41
1
10
54.752308241215
20
2.10977665303614
30
0
0
SPLINE
5
FF
100
AcDbEntity
8
1
62
256
6
ByLayer
370
18
48
1
60
0
100
AcDbSpline
70
4
71
3
72
29
73
25
40
0
40
0
40
0
40
0
40
0.125
40
0.250000000000001
40
0.250000000000001
40
0.312500000000001
40
0.312500000000001
40
0.343750000000001
40
0.343750000000001
40
0.375000000000001
40
0.375000000000001
40
0.500000000000001
40
0.500000000000001
40
0.625000000000001
40
0.625000000000001
40
0.687500000000001
40
0.687500000000001
40
0.71875
40
0.71875
40
0.75
40
0.75
40
0.875
40
0.875
40
1
40
1
40
1
40
1
41
1
10
54.943342928902
20
2.27463662805371
30
0
41
1
10
54.9504589436681
20
2.21997931042068
30
0
41
1
10
54.9646626694282
20
2.10286350377092
30
0
41
1
10
54.9788335642046
20
1.97039326130238
30
0
41
1
10
54.9894412963269
20
1.86509438958808
30
0
41
1
10
54.9929719924092
20
1.82899840304799
30
0
41
1
10
54.9982687681821
20
1.77332331413393
30
0
41
1
10
55.0000329572795
20
1.75452781154215
30
0
41
1
10
55.0035436392942
20
1.71665077523463
30
0
41
1
10
55.0052925996041
20
1.69754343440033
30
0
41
1
10
55.014012049732
20
1.60117216348957
30
0
41
1
10
55.0209207751569
20
1.52141203127579
30
0
41
1
10
55.0346033069918
20
1.35668309154741
30
0
41
1
10
55.0413718058131
20
1.27171461294282
30
0
41
1
10
55.0513996666226
20
1.14028512242845
30
0
41
1
10
55.054721211358
20
1.0958104624624
30
0
41
1
10
55.0596731099636
20
1.02807836055007
30
0
41
1
10
55.0613189665401
20
1.00533113606534
30
0
41
1
10
55.0646032487502
20
0.959493514444858
30
0
41
1
10
55.0662398987151
20
0.936427282748951
30
0
41
1
10
55.0743646686762
20
0.820888080700257
30
0
41
1
10
55.0807111205344
20
0.72731767838718
30
0
41
1
10
55.093274376331
20
0.537971714050599
30
0
41
1
10
55.0994970393066
20
0.442196092638511
30
0
41
1
10
55.105659245357
20
0.345311701429608
30
0
0
SPLINE
5
100
100
AcDbEntity
8
1
62
256
6
ByLayer
370
18
48
1
60
0
100
AcDbSpline
70
4
71
3
72
25
73
21
40
0
40
0
40
0
40
0
40
0.124999999999998
40
0.249999999999997
40
0.249999999999997
40
0.312499999999996
40
0.343749999999997
40
0.343749999999997
40
0.374999999999997
40
0.374999999999997
40
0.499999999999997
40
0.499999999999997
40
0.624999999999998
40
0.749999999999999
40
0.749999999999999
40
0.812499999999999
40
0.812499999999999
40
0.874999999999999
40
0.874999999999999
40
1
40
1
40
1
40
1
41
1
10
55.5024809448663
20
-0.0213183154922376
30
0
41
1
10
55.497842610754
20
0.0699938811688696
30
0
41
1
10
55.488882038676
20
0.251369849501685
30
0
41
1
10
55.4803566268464
20
0.430305331119911
30
0
41
1
10
55.474030169933
20
0.563580851972915
30
0
41
1
10
55.4708804784049
20
0.629986553813609
30
0
41
1
10
55.4677588924873
20
0.696037825977527
30
0
41
1
10
55.465685700372
20
0.739992196699006
30
0
41
1
10
55.4646514381608
20
0.761961614551751
30
0
41
1
10
55.4595261367045
20
0.871091234592512
30
0
41
1
10
55.455569992698
20
0.956202000525053
30
0
41
1
10
55.4479683625488
20
1.12214058261282
30
0
41
1
10
55.440677792076
20
1.28379459376396
30
0
41
1
10
55.4337109754243
20
1.43699267425308
30
0
41
1
10
55.4284817330424
20
1.54864193816886
30
0
41
1
10
55.4267347177914
20
1.58534318679935
30
0
41
1
10
55.4232776498706
20
1.65689082978244
30
0
41
1
10
55.4215633930361
20
1.69183399490203
30
0
41
1
10
55.4164711779217
20
1.79419405917366
30
0
41
1
10
55.4131579780041
20
1.85913302193671
30
0
41
1
10
55.4098640468913
20
1.9208267595439
30
0
0
SPLINE
5
101
100
AcDbEntity
8
1
62
256
6
ByLayer
370
13
48
1
60
0
100
AcDbSpline
70
4
71
3
72
11
73
7
40
0
40
0
40
0
40
0
40
0.0991699901179389
40
0.505046238890142
40
0.910922487662344
40
1
40
1
40
1
40
1
41
1
10
49.5523756606406
20
1.59170814929158
30
0
41
1
10
49.5564394193042
20
1.54291668384909
30
0
41
1
10
49.5771350533343
20
1.28652223597027
30
0
41
1
10
49.6144625008403
20
0.757665988133283
30
0
41
1
10
49.6513764444566
20
0.179915152082543
30
0
41
1
10
49.6716585067239
20
-0.136914548924807
30
0
41
1
10
49.6753086972279
20
-0.193782084490124
30
0
0
SPLINE
5
102
100
AcDbEntity
8
1
62
256
6
ByLayer
370
13
48
1
60
0
100
AcDbSpline
70
4
71
3
72
10
73
6
40
0
40
0
40
0
40
0
40
0.300851328043486
40
0.706116870873119
40
1
40
1
40
1
40
1
41
1
10
50.8748585737055
20
0.597491634215459
30
0
41
1
10
50.8872053400087
20
0.410176497613833
30
0
41
1
10
50.9161839732155
20
-0.0421144790252299
30
0
41
1
10
50.957223405302
20
-0.684523927784284
30
0
41
1
10
50.9859160651451
20
-1.09701688079792
30
0
41
1
10
50.9979768601809
20
-1.25957057501293
30
0
0
SPLINE
5
103
100
AcDbEntity
8
1
62
256
6
ByLayer
370
13
48
1
60
0
100
AcDbSpline
70
4
71
3
72
11
73
7
40
0
40
0
40
0
40
0
40
0.0530471221158642
40
0.458566306584096
40
0.864085491052328
40
1
40
1
40
1
40
1
41
1
10
48.7598611554149
20
2.04493612446797
30
0
41
1
10
48.7620368172212
20
2.02558476718423
30
0
41
1
10
48.7808443445104
20
1.85333711623716
30
0
41
1
10
48.8162837365788
20
1.44980807224749
30
0
41
1
10
48.8551218398783
20
0.897468433729955
30
0
41
1
10
48.877328069999
20
0.5602656139163
30
0
41
1
10
48.882902434583
20
0.474746613368296
30
0
0
SPLINE
5
104
100
AcDbEntity
8
1
62
256
6
ByLayer
370
18
48
1
60
0
100
AcDbSpline
70
4
71
3
72
29
73
25
40
0
40
0
40
0
40
0
40
0.125000000000001
40
0.125000000000001
40
0.250000000000001
40
0.250000000000001
40
0.375000000000002
40
0.375000000000002
40
0.406250000000002
40
0.406250000000002
40
0.437500000000002
40
0.500000000000002
40
0.500000000000002
40
0.625000000000001
40
0.625000000000001
40
0.750000000000001
40
0.750000000000001
40
0.781250000000001
40
0.781250000000001
40
0.812500000000001
40
0.812500000000001
40
0.875
40
0.875
40
1
40
1
40
1
40
1
41
1
10
51.4510117997376
20
-2.0591701096709
30
0
41
1
10
51.4454540604841
20
-1.98010385296283
30
0
41
1
10
51.4399567821624
20
-1.89791514741873
30
0
41
1
10
51.4289586488899
20
-1.72749797936112
30
0
41
1
10
51.4234457858607
20
-1.63926954988452
30
0
41
1
10
51.4123985098534
20
-1.45677278051446
30
0
41
1
10
51.4068669047702
20
-1.36250482777365
30
0
41
1
10
51.3999123710024
20
-1.24077144003297
30
0
41
1
10
51.3985178474534
20
-1.21620361974618
30
0
41
1
10
51.3957387107096
20
-1.16695327807284
30
0
41
1
10
51.3915797979138
20
-1.09281872037994
30
0
41
1
10
51.3874426931003
20
-1.01791666745618
30
0
41
1
10
51.379172643845
20
-0.867106886045605
30
0
41
1
10
51.3736547955735
20
-0.765229299575338
30
0
41
1
10
51.3626176766679
20
-0.558819122290402
30
0
41
1
10
51.3571013019001
20
-0.454286493010159
30
0
41
1
10
51.3501781910941
20
-0.321921409836136
30
0
41
1
10
51.3487919976795
20
-0.295363217200844
30
0
41
1
10
51.3460149279659
20
-0.242074610406178
30
0
41
1
10
51.3446228574771
20
-0.215321150282847
30
0
41
1
10
51.3404609358687
20
-0.135263641722673
30
0
41
1
10
51.3376981857288
20
-0.0820227003052025
30
0
41
1
10
51.3294189216644
20
0.0773144091216693
30
0
41
1
10
51.3239005362344
20
0.183025319722816
30
0
41
1
10
51.318384916541
20
0.288230479486145
30
0
0
SPLINE
5
105
100
AcDbEntity
8
1
62
256
6
ByLayer
370
13
48
1
60
0
100
AcDbSpline
70
4
71
3
72
10
73
6
40
0
40
0
40
0
40
0
40
0.346828121508857
40
0.75108478440801
40
1
40
1
40
1
40
1
41
1
10
51.6672702441517
20
-0.068334318888077
30
0
41
1
10
51.6815393869325
20
-0.291235520613043
30
0
41
1
10
51.7124403356075
20
-0.77216859326299
30
0
41
1
10
51.7535822589968
20
-1.35745431574981
30
0
41
1
10
51.7804549377025
20
-1.67823955611814
30
0
41
1
10
51.7906957608116
20
-1.78941128689917
30
0
0
SPLINE
5
106
100
AcDbEntity
8
1
62
256
6
ByLayer
370
13
48
1
60
0
100
AcDbSpline
70
4
71
3
72
11
73
7
40
0
40
0
40
0
40
0
40
0.0212716862459981
40
0.426330470799505
40
0.831389255353012
40
1
40
1
40
1
40
1
41
1
10
50.6097541940711
20
0.815157412004737
30
0
41
1
10
50.6106276175482
20
0.802262392170832
30
0
41
1
10
50.6281329067259
20
0.543077711412423
30
0
41
1
10
50.6622700130392
20
0.0099903824997796
30
0
41
1
10
50.7024569997208
20
-0.618492043895174
30
0
41
1
10
50.7260120885608
20
-0.961702559934366
30
0
41
1
10
50.7329353087387
20
-1.05958184065634
30
0
0
SPLINE
5
107
100
AcDbEntity
8
1
62
256
6
ByLayer
370
18
48
1
60
0
100
AcDbSpline
70
4
71
3
72
33
73
29
40
0
40
0
40
0
40
0
40
0.0624999999999981
40
0.0624999999999981
40
0.0937499999999976
40
0.0937499999999976
40
0.124999999999997
40
0.124999999999997
40
0.249999999999998
40
0.249999999999998
40
0.374999999999999
40
0.374999999999999
40
0.5
40
0.5
40
0.53125
40
0.53125
40
0.5625
40
0.625
40
0.625
40
0.75
40
0.75
40
0.875
40
0.875
40
0.90625
40
0.90625
40
0.9375
40
0.9375
40
1
40
1
40
1
40
1
41
1
10
50.3933456715812
20
-1.1240698756682
30
0
41
1
10
50.39060012248
20
-1.07486631460571
30
0
41
1
10
50.3878491564775
20
-1.02506769568464
30
0
41
1
10
50.3837008100945
20
-0.949464258149646
30
0
41
1
10
50.3823140954115
20
-0.924112130228934
30
0
41
1
10
50.3795326221
20
-0.873102672307766
30
0
41
1
10
50.3781360476034
20
-0.847409762969789
30
0
41
1
10
50.3711590874167
20
-0.718629354256848
30
0
41
1
10
50.3656197815458
20
-0.614982668933123
30
0
41
1
10
50.3546042188569
20
-0.406487875542837
30
0
41
1
10
50.3491279372303
20
-0.301639642127356
30
0
41
1
10
50.3381512400118
20
-0.090748409519108
30
0
41
1
10
50.3326407821054
20
0.0152939713358649
30
0
41
1
10
50.3256752064942
20
0.148613371860051
30
0
41
1
10
50.3242769839699
20
0.175353465719098
30
0
41
1
10
50.3214847529809
20
0.228712791972327
30
0
41
1
10
50.3173057838691
20
0.30851093137855
30
0
41
1
10
50.3131544430758
20
0.387595542937163
30
0
41
1
10
50.3048811558626
20
0.544829306721709
30
0
41
1
10
50.2994069211292
20
0.648407103049408
30
0
41
1
10
50.2884502950458
20
0.85309319996577
30
0
41
1
10
50.2829580673954
20
0.954201085557628
30
0
41
1
10
50.2760210542808
20
1.07900441846107
30
0
41
1
10
50.2746308353942
20
1.10388584409426
30
0
41
1
10
50.2718448439221
20
1.15348850522122
30
0
41
1
10
50.2704470564919
20
1.1782451570335
30
0
41
1
10
50.2662613717051
20
1.25198465356573
30
0
41
1
10
50.2634844673004
20
1.30038312148128
30
0
41
1
10
50.2607186374445
20
1.34803634845565
30
0
0
SPLINE
5
108
100
AcDbEntity
8
1
62
256
6
ByLayer
370
13
48
1
60
0
100
AcDbSpline
70
4
71
3
72
10
73
6
40
0
40
0
40
0
40
0
40
0.379370425074685
40
0.784900569197558
40
1
40
1
40
1
40
1
41
1
10
49.8174143460682
20
1.41169388450137
30
0
41
1
10
49.8329733322
20
1.21147874577119
30
0
41
1
10
49.8651641843946
20
0.755174136769085
30
0
41
1
10
49.906176840252
20
0.113827734358836
30
0
41
1
10
49.9316305026972
20
-0.283827529927919
30
0
41
1
10
49.9404522999745
20
-0.419720916294921
30
0
0
SPLINE
5
109
100
AcDbEntity
8
1
62
256
6
ByLayer
370
18
48
1
60
0
100
AcDbSpline
70
4
71
3
72
28
73
24
40
0
40
0
40
0
40
0
40
0.0624999999999999
40
0.0624999999999999
40
0.125
40
0.125
40
0.25
40
0.25
40
0.375
40
0.375
40
0.5
40
0.5
40
0.53125
40
0.53125
40
0.562499999999999
40
0.624999999999999
40
0.624999999999999
40
0.749999999999999
40
0.874999999999999
40
0.874999999999999
40
0.9375
40
0.9375
40
1
40
1
40
1
40
1
41
1
10
50.1645976590817
20
1.43688641066836
30
0
41
1
10
50.1673559162666
20
1.39014029284735
30
0
41
1
10
50.1701166501786
20
1.34264272267728
30
0
41
1
10
50.1756518720857
20
1.24611834800146
30
0
41
1
10
50.1784340626114
20
1.19695203328971
30
0
41
1
10
50.1867364300116
20
1.04864143138334
30
0
41
1
10
50.192233479057
20
0.948439396176212
30
0
41
1
10
50.2032543372648
20
0.745461430363093
30
0
41
1
10
50.2087622666643
20
0.642684531834931
30
0
41
1
10
50.2197842297726
20
0.434548256069945
30
0
41
1
10
50.2252980057285
20
0.32918912074652
30
0
41
1
10
50.2322454210068
20
0.195820929334815
30
0
41
1
10
50.2336348892953
20
0.169120503614465
30
0
41
1
10
50.2364064949743
20
0.115844315190372
30
0
41
1
10
50.2405562930393
20
0.0360351995067276
30
0
41
1
10
50.2446993923786
20
-0.0434611269322431
30
0
41
1
10
50.252980985224
20
-0.202042644526273
30
0
41
1
10
50.2639977710242
20
-0.412391103814883
30
0
41
1
10
50.2749848823404
20
-0.620562847905575
30
0
41
1
10
50.2832778212103
20
-0.77584954604211
30
0
41
1
10
50.2860590590019
20
-0.827608933975228
30
0
41
1
10
50.2916003674147
20
-0.929770994128518
30
0
41
1
10
50.2943665637246
20
-0.980254719149258
30
0
41
1
10
50.2971304126795
20
-1.03015220457391
30
0
0
SPLINE
5
10A
100
AcDbEntity
8
1
62
256
6
ByLayer
370
18
48
1
60
0
100
AcDbSpline
70
4
71
3
72
8
73
4
40
0
40
0
40
0
40
0
40
1
40
1
40
1
40
1
41
1
10
55.7254694075431
20
2.45300114145121
30
0
41
1
10
55.6776620087373
20
2.35676959305289
30
0
41
1
10
55.6295466676376
20
2.25966125518516
30
0
41
1
10
55.5811475410487
20
2.16195401720626
30
0
0
SPLINE
5
10B
100
AcDbEntity
8
1
62
256
6
ByLayer
370
18
48
1
60
0
100
AcDbSpline
70
4
71
3
72
28
73
24
40
0
40
0
40
0
40
0
40
0.124999999999969
40
0.124999999999969
40
0.249999999999937
40
0.249999999999937
40
0.374999999999906
40
0.374999999999906
40
0.499999999999875
40
0.499999999999875
40
0.624999999999843
40
0.624999999999843
40
0.68749999999987
40
0.68749999999987
40
0.749999999999896
40
0.749999999999896
40
0.812499999999922
40
0.812499999999922
40
0.874999999999948
40
0.874999999999948
40
0.937499999999974
40
0.937499999999974
40
1
40
1
40
1
40
1
41
1
10
55.5811475410487
20
2.16195401720628
30
0
41
1
10
55.573968560108
20
2.14746122676451
30
0
41
1
10
55.5656440832883
20
2.13408734188425
30
0
41
1
10
55.5472294847166
20
2.10905243280092
30
0
41
1
10
55.5370446901779
20
2.09733938591245
30
0
41
1
10
55.5157676332404
20
2.07622527236353
30
0
41
1
10
55.5046130206381
20
2.06672158388699
30
0
41
1
10
55.4813459458958
20
2.04972551764152
30
0
41
1
10
55.4691212094446
20
2.04218997521167
30
0
41
1
10
55.4445191481321
20
2.02976588645669
30
0
41
1
10
55.4320848013974
20
2.02480765868603
30
0
41
1
10
55.4132487227968
20
2.01948825086851
30
0
41
1
10
55.4069390218993
20
2.0180715024903
30
0
41
1
10
55.3942559779621
20
2.01605362688798
30
0
41
1
10
55.3879092333875
20
2.01546272384908
30
0
41
1
10
55.3754832282235
20
2.01523735914043
30
0
41
1
10
55.3693675307529
20
2.01559512800051
30
0
41
1
10
55.3573671082384
20
2.01739813089492
30
0
41
1
10
55.3514396654633
20
2.01886293720924
30
0
41
1
10
55.3402073674669
20
2.02300014719512
30
0
41
1
10
55.3348759746853
20
2.02566545038908
30
0
41
1
10
55.3248799316693
20
2.03239408897343
30
0
41
1
10
55.3202093935703
20
2.03648227268422
30
0
41
1
10
55.3160914460893
20
2.04127472419429
30
0
0
SPLINE
5
10C
100
AcDbEntity
8
1
62
256
6
ByLayer
370
18
48
1
60
0
100
AcDbSpline
70
4
71
3
72
10
73
6
40
0
40
0
40
0
40
0
40
0.5
40
0.5
40
1
40
1
40
1
40
1
41
1
10
55.3160914460863
20
2.04127472420043
30
0
41
1
10
55.2792162843318
20
2.08418989625551
30
0
41
1
10
55.2425357029934
20
2.12524716475397
30
0
41
1
10
55.1694783791281
20
2.20378629991458
30
0
41
1
10
55.133067885077
20
2.24129889460718
30
0
41
1
10
55.0968984255251
20
2.27693364862768
30
0
0
SPLINE
5
10D
100
AcDbEntity
8
1
62
256
6
ByLayer
370
18
48
1
60
0
100
AcDbSpline
70
4
71
3
72
8
73
4
40
0
40
0
40
0
40
0
40
1
40
1
40
1
40
1
41
1
10
55.0968984255251
20
2.27693364862768
30
0
41
1
10
55.0637547588728
20
2.26397121940056
30
0
41
1
10
55.0306879035512
20
2.25045535348266
30
0
41
1
10
54.9976685037425
20
2.23640586898955
30
0
0
SPLINE
5
10E
100
AcDbEntity
8
1
62
256
6
ByLayer
370
18
48
1
60
0
100
AcDbSpline
70
4
71
3
72
8
73
4
40
0
40
0
40
0
40
0
40
1
40
1
40
1
40
1
41
1
10
44.7399490495186
20
-1.15765465716714
30
0
41
1
10
44.7290028339913
20
-1.16246650026335
30
0
41
1
10
44.7180734901731
20
-1.16707362282972
30
0
41
1
10
44.7071599210421
20
-1.17147935391677
30
0
0
SPLINE
5
10F
100
AcDbEntity
8
1
62
256
6
ByLayer
370
18
48
1
60
0
100
AcDbSpline
70
4
71
3
72
18
73
14
40
0
40
0
40
0
40
0
40
0.0709427582440183
40
0.0709427582440183
40
0.258963997212836
40
0.258963997212836
40
0.635006475150472
40
0.635006475150472
40
0.729017094634882
40
0.729017094634882
40
0.823027714119291
40
0.823027714119291
40
1
40
1
40
1
40
1
41
1
10
37.5154178123106
20
1.29353599495303
30
0
41
1
10
37.5351415572807
20
1.3085770712083
30
0
41
1
10
37.5547661251858
20
1.32436743886368
30
0
41
1
10
37.6256472367288
20
1.38453099504949
30
0
41
1
10
37.6753802071389
20
1.43265900034339
30
0
41
1
10
37.8202373322586
20
1.588199108823
30
0
41
1
10
37.9110017288335
20
1.70815689404788
30
0
41
1
10
38.0124457238356
20
1.86518108342108
30
0
41
1
10
38.0323044561964
20
1.8969783910224
30
0
41
1
10
38.0697608521317
20
1.96263640981996
30
0
41
1
10
38.0876186142175
20
1.99666430063004
30
0
41
1
10
38.1352324431819
20
2.09526721403216
30
0
41
1
10
38.161435598086
20
2.15961628535735
30
0
41
1
10
38.1832702804358
20
2.22392421759543
30
0
0
SPLINE
5
110
100
AcDbEntity
8
1
62
256
6
ByLayer
370
18
48
1
60
0
100
AcDbSpline
70
4
71
3
72
16
73
12
40
0
40
0
40
0
40
0
40
0.25
40
0.25
40
0.5
40
0.5
40
0.75
40
0.75
40
0.875
40
0.875
40
1
40
1
40
1
40
1
41
1
10
44.0124131703801
20
-2.2739259575913
30
0
41
1
10
44.0529782824374
20
-2.27295341610244
30
0
41
1
10
44.0931564336165
20
-2.27405489382934
30
0
41
1
10
44.1725764834973
20
-2.28020735444557
30
0
41
1
10
44.2117101127963
20
-2.2852245742742
30
0
41
1
10
44.2889447598211
20
-2.29919946278017
30
0
41
1
10
44.3271135290834
20
-2.30819124763414
30
0
41
1
10
44.3835677373321
20
-2.32498425666336
30
0
41
1
10
44.4022486652356
20
-2.33113230454578
30
0
41
1
10
44.4393326246745
20
-2.34462890964818
30
0
41
1
10
44.4577423709708
20
-2.35198513897006
30
0
41
1
10
44.4759474377991
20
-2.35995322627019
30
0
0
SPLINE
5
111
100
AcDbEntity
8
1
62
256
6
ByLayer
370
18
48
1
60
0
100
AcDbSpline
70
4
71
3
72
10
73
6
40
0
40
0
40
0
40
0
40
0.5
40
0.5
40
1
40
1
40
1
40
1
41
1
10
44.4759474377992
20
-2.35995322627019
30
0
41
1
10
44.5440005986807
20
-2.38973908380467
30
0
41
1
10
44.611096169511
20
-2.4167543141383
30
0
41
1
10
44.7437953444165
20
-2.46535779459404
30
0
41
1
10
44.8093828251673
20
-2.48693346626723
30
0
41
1
10
44.8743397638873
20
-2.50576604184275
30
0
0
SPLINE
5
112
100
AcDbEntity
8
1
62
256
6
ByLayer
370
18
48
1
60
0
100
AcDbSpline
70
4
71
3
72
8
73
4
40
0
40
0
40
0
40
0
40
1
40
1
40
1
40
1
41
1
10
44.8743397638871
20
-2.50576604184357
30
0
41
1
10
44.9059839761518
20
-2.44734786224294
30
0
41
1
10
44.937804616227
20
-2.38867986118098
30
0
41
1
10
44.969844636319
20
-2.32977645024707
30
0
0
SPLINE
5
113
100
AcDbEntity
8
1
62
256
6
ByLayer
370
18
48
1
60
0
100
AcDbSpline
70
4
71
3
72
28
73
24
40
0
40
0
40
0
40
0
40
0.125000000000126
40
0.125000000000126
40
0.18750000000019
40
0.18750000000019
40
0.250000000000254
40
0.250000000000254
40
0.375000000000305
40
0.375000000000305
40
0.500000000000357
40
0.500000000000357
40
0.562500000000341
40
0.562500000000341
40
0.625000000000324
40
0.625000000000324
40
0.750000000000292
40
0.750000000000292
40
0.812500000000236
40
0.812500000000236
40
0.87500000000018
40
0.87500000000018
40
1
40
1
40
1
40
1
41
1
10
44.969844636319
20
-2.32977645024707
30
0
41
1
10
44.9775568616867
20
-2.31559804527913
30
0
41
1
10
44.9866255895119
20
-2.30293587692745
30
0
41
1
10
45.0017154937483
20
-2.28559624124156
30
0
41
1
10
45.0070339371667
20
-2.28007155268568
30
0
41
1
10
45.0179121057249
20
-2.26976727015094
30
0
41
1
10
45.0234838899912
20
-2.26496721718325
30
0
41
1
10
45.0405497364463
20
-2.2515072374716
30
0
41
1
10
45.0524020636722
20
-2.24376894404225
30
0
41
1
10
45.0768763997866
20
-2.23059768907922
30
0
41
1
10
45.0891956010196
20
-2.22532638017174
30
0
41
1
10
45.1077529854372
20
-2.21925730142115
30
0
41
1
10
45.1139520557885
20
-2.21754399915761
30
0
41
1
10
45.1263708685689
20
-2.21475468962956
30
0
41
1
10
45.1326019436904
20
-2.21368069007099
30
0
41
1
10
45.1509547463239
20
-2.21150811348158
30
0
41
1
10
45.1628579093779
20
-2.21140848506465
30
0
41
1
10
45.18012048036
20
-2.21350675040574
30
0
41
1
10
45.1857751019342
20
-2.21458457445618
30
0
41
1
10
45.1968526164562
20
-2.21760465313002
30
0
41
1
10
45.2022842228812
20
-2.2195596460007
30
0
41
1
10
45.2176682420215
20
-2.226722034304
30
0
41
1
10
45.2269093141035
20
-2.2332020065262
30
0
41
1
10
45.2347425998614
20
-2.24208538132592
30
0
0
SPLINE
5
114
100
AcDbEntity
8
1
62
256
6
ByLayer
370
18
48
1
60
0
100
AcDbSpline
70
4
71
3
72
12
73
8
40
0
40
0
40
0
40
0
40
0.499999999999987
40
0.499999999999987
40
0.749999999999993
40
0.749999999999993
40
1
40
1
40
1
40
1
41
1
10
45.2347425998631
20
-2.24208538132803
30
0
41
1
10
45.2938472794457
20
-2.30911332303955
30
0
41
1
10
45.3522389538263
20
-2.37157397502466
30
0
41
1
10
45.4390743994379
20
-2.45828334054215
30
0
41
1
10
45.4678421590774
20
-2.48596998955745
30
0
41
1
10
45.5250279261466
20
-2.53885664340527
30
0
41
1
10
45.553455231572
20
-2.56406850003279
30
0
41
1
10
45.5817620858252
20
-2.58813200417396
30
0
0
SPLINE
5
115
100
AcDbEntity
8
1
62
256
6
ByLayer
370
18
48
1
60
0
100
AcDbSpline
70
4
71
3
72
8
73
4
40
0
40
0
40
0
40
0
40
1
40
1
40
1
40
1
41
1
10
45.6780233276484
20
-2.53263019379702
30
0
41
1
10
45.6459435062187
20
-2.55154792512451
30
0
41
1
10
45.6138648996554
20
-2.57005535195887
30
0
41
1
10
45.5817620858254
20
-2.58813200417376
30
0
0
SPLINE
5
116
100
AcDbEntity
8
1
62
256
6
ByLayer
370
18
48
1
60
0
100
AcDbSpline
70
4
71
3
72
10
73
6
40
0
40
0
40
0
40
0
40
0.542786953668866
40
0.542786953668866
40
1
40
1
40
1
40
1
41
1
10
45.6780233276472
20
-2.53263019378662
30
0
41
1
10
45.7349693586214
20
-2.42068541386115
30
0
41
1
10
45.7925001140731
20
-2.30927945528606
30
0
41
1
10
45.899872293437
20
-2.10549424163361
30
0
41
1
10
45.9493277915397
20
-2.01319937528155
30
0
41
1
10
45.9993031581304
20
-1.92187653582317
30
0
0
SPLINE
5
117
100
AcDbEntity
8
1
62
256
6
ByLayer
370
18
48
1
60
0
100
AcDbSpline
70
4
71
3
72
8
73
4
40
0
40
0
40
0
40
0
40
1
40
1
40
1
40
1
41
1
10
52.8335243061217
20
2.7952815896212
30
0
41
1
10
52.8843880200319
20
2.88299531871527
30
0
41
1
10
52.9347407195054
20
2.96907252006815
30
0
41
1
10
52.9846969959561
20
3.05341588384536
30
0
0
SPLINE
5
118
100
AcDbEntity
8
1
62
256
6
ByLayer
370
18
48
1
60
0
100
AcDbSpline
70
4
71
3
72
28
73
24
40
0
40
0
40
0
40
0
40
0.0304197150558096
40
0.0304197150558096
40
0.099675449694711
40
0.099675449694711
40
0.168931184333613
40
0.168931184333613
40
0.307442653611417
40
0.307442653611417
40
0.445954122889221
40
0.445954122889221
40
0.515209857528124
40
0.515209857528124
40
0.584465592167027
40
0.584465592167027
40
0.722977061444741
40
0.722977061444741
40
0.792232796083555
40
0.792232796083555
40
0.86148853072237
40
0.86148853072237
40
1
40
1
40
1
40
1
41
1
10
53.4503218595289
20
2.44525351585966
30
0
41
1
10
53.452444388362
20
2.4429135295203
30
0
41
1
10
53.454618744967
20
2.44064537296882
30
0
41
1
10
53.4619002193006
20
2.43343013450169
30
0
41
1
10
53.4672470916503
20
2.42874938692256
30
0
41
1
10
53.4781681941076
20
2.4202317223095
30
0
41
1
10
53.483759991129
20
2.41637139853896
30
0
41
1
10
53.5008819047191
20
2.40585384190428
30
0
41
1
10
53.5127837780771
20
2.40023592989857
30
0
41
1
10
53.5372738935318
20
2.39162658700755
30
0
41
1
10
53.5495978393764
20
2.38872284825436
30
0
41
1
10
53.5681576885978
20
2.38633726395361
30
0
41
1
10
53.5743567782951
20
2.38587404790769
30
0
41
1
10
53.5867738656677
20
2.3856326530597
30
0
41
1
10
53.5929901383647
20
2.38585886276738
30
0
41
1
10
53.6113001177624
20
2.38758252378133
30
0
41
1
10
53.6231790021743
20
2.39010051453866
30
0
41
1
10
53.6404094228557
20
2.3961716089041
30
0
41
1
10
53.6460540417967
20
2.39858146017039
30
0
41
1
10
53.6571126371944
20
2.40428436365409
30
0
41
1
10
53.6625216083979
20
2.40758506188865
30
0
41
1
10
53.6778518713063
20
2.41868689771354
30
0
41
1
10
53.6870726636761
20
2.42770868138854
30
0
41
1
10
53.6949004594507
20
2.439015111484
30
0
0
SPLINE
5
119
100
AcDbEntity
8
1
62
256
6
ByLayer
370
18
48
1
60
0
100
AcDbSpline
70
4
71
3
72
12
73
8
40
0
40
0
40
0
40
0
40
0.499999999999999
40
0.499999999999999
40
0.75
40
0.75
40
1
40
1
40
1
40
1
41
1
10
53.6949004594525
20
2.43901511148661
30
0
41
1
10
53.7467018014892
20
2.51383671765603
30
0
41
1
10
53.7979778664164
20
2.58597801039545
30
0
41
1
10
53.8743408056344
20
2.69016110251241
30
0
41
1
10
53.899705283452
20
2.72421968502775
30
0
41
1
10
53.9501636064319
20
2.7908294836086
30
0
41
1
10
53.9752731159244
20
2.8234027103027
30
0
41
1
10
54.000280559003
20
2.85524632933047
30
0
0
SPLINE
5
11A
100
AcDbEntity
8
1
62
256
6
ByLayer
370
18
48
1
60
0
100
AcDbSpline
70
4
71
3
72
8
73
4
40
0
40
0
40
0
40
0
40
1
40
1
40
1
40
1
41
1
10
54.000280559003
20
2.85524632933044
30
0
41
1
10
54.068262600738
20
2.82182884923566
30
0
41
1
10
54.136687159796
20
2.7862430180636
30
0
41
1
10
54.2055844260544
20
2.74849397965136
30
0
0
SPLINE
5
11B
100
AcDbEntity
8
1
62
256
6
ByLayer
370
18
48
1
60
0
100
AcDbSpline
70
4
71
3
72
12
73
8
40
0
40
0
40
0
40
0
40
0.249999999999992
40
0.249999999999992
40
0.499999999999984
40
0.499999999999984
40
1
40
1
40
1
40
1
41
1
10
54.2055844260543
20
2.74849397965136
30
0
41
1
10
54.2286644004854
20
2.70480854064988
30
0
41
1
10
54.251838686112
20
2.66101133948015
30
0
41
1
10
54.2984039824063
20
2.57320567599732
30
0
41
1
10
54.3218044441425
20
2.52917957272925
30
0
41
1
10
54.3922244958798
20
2.39708481060063
30
0
41
1
10
54.439500470438
20
2.30892166665112
30
0
41
1
10
54.4872302667798
20
2.22071851730826
30
0
0
SPLINE
5
11C
100
AcDbEntity
8
1
62
256
6
ByLayer
370
18
48
1
60
0
100
AcDbSpline
70
4
71
3
72
28
73
24
40
0
40
0
40
0
40
0
40
0.124999999999977
40
0.124999999999977
40
0.187499999999966
40
0.187499999999966
40
0.249999999999955
40
0.249999999999955
40
0.374999999999932
40
0.374999999999932
40
0.499999999999909
40
0.499999999999909
40
0.56249999999994
40
0.56249999999994
40
0.624999999999971
40
0.624999999999971
40
0.750000000000033
40
0.750000000000033
40
0.812500000000025
40
0.812500000000025
40
0.875000000000016
40
0.875000000000016
40
1
40
1
40
1
40
1
41
1
10
54.4872302667798
20
2.22071851730826
30
0
41
1
10
54.4950062353051
20
2.20634877417729
30
0
41
1
10
54.5041610248296
20
2.19332553259093
30
0
41
1
10
54.5193929765994
20
2.17525121691773
30
0
41
1
10
54.5247589311417
20
2.16945010279858
30
0
41
1
10
54.5357123523676
20
2.15856105487922
30
0
41
1
10
54.541320301971
20
2.15344372088322
30
0
41
1
10
54.5584898274204
20
2.13896238556151
30
0
41
1
10
54.5704356757185
20
2.13043218120427
30
0
41
1
10
54.5949504463843
20
2.11557790819506
30
0
41
1
10
54.6072843365292
20
2.10938850441193
30
0
41
1
10
54.6258568926748
20
2.10182903697819
30
0
41
1
10
54.6320600004975
20
2.09959998194685
30
0
41
1
10
54.6444835198998
20
2.09573813500376
30
0
41
1
10
54.6506858795914
20
2.09411407878355
30
0
41
1
10
54.6689619804397
20
2.0902418342134
30
0
41
1
10
54.6808176570233
20
2.08894016055598
30
0
41
1
10
54.6980105747465
20
2.08911259713199
30
0
41
1
10
54.7036426122215
20
2.08952812496318
30
0
41
1
10
54.7146779469086
20
2.09117951434973
30
0
41
1
10
54.7200517557704
20
2.09241811020513
30
0
41
1
10
54.7353049847086
20
2.09741241990756
30
0
41
1
10
54.7444932117933
20
2.10240569262794
30
0
41
1
10
54.752308241215
20
2.10977665303602
30
0
0
SPLINE
5
11D
100
AcDbEntity
8
1
62
256
6
ByLayer
370
18
48
1
60
0
100
AcDbSpline
70
4
71
3
72
10
73
6
40
0
40
0
40
0
40
0
40
0.5
40
0.5
40
1
40
1
40
1
40
1
41
1
10
54.752308241215
20
2.10977665303614
30
0
41
1
10
54.7844957911558
20
2.1401352279623
30
0
41
1
10
54.8164813972211
20
2.16902982156
30
0
41
1
10
54.8801421407177
20
2.22400054960082
30
0
41
1
10
54.9118264364108
20
2.25005335527771
30
0
41
1
10
54.9433429289021
20
2.27463662805394
30
0
0
SPLINE
5
11E
100
AcDbEntity
8
1
62
256
6
ByLayer
370
18
48
1
60
0
100
AcDbSpline
70
4
71
3
72
8
73
4
40
0
40
0
40
0
40
0
40
1
40
1
40
1
40
1
41
1
10
54.9433429289023
20
2.27463662805374
30
0
41
1
10
55.0969617756978
20
2.16349980724908
30
0
41
1
10
55.2522665065811
20
2.04532052748945
30
0
41
1
10
55.4098640468913
20
1.9208267595439
30
0
0
SPLINE
5
11F
100
AcDbEntity
8
1
62
256
6
ByLayer
370
18
48
1
60
0
100
AcDbSpline
70
4
71
3
72
8
73
4
40
0
40
0
40
0
40
0
40
1
40
1
40
1
40
1
41
1
10
55.4098640468913
20
1.9208267595439
30
0
41
1
10
55.454489304168
20
1.83971948750332
30
0
41
1
10
55.4994291894332
20
1.75973809341741
30
0
41
1
10
55.544796315602
20
1.68096341022414
30
0
0
SPLINE
5
120
100
AcDbEntity
8
1
62
256
6
ByLayer
370
18
48
1
60
0
100
AcDbSpline
70
4
71
3
72
29
73
25
40
0
40
0
40
0
40
0
40
0.125000000000102
40
0.125000000000102
40
0.187500000000119
40
0.187500000000119
40
0.250000000000136
40
0.312500000000153
40
0.312500000000153
40
0.37500000000017
40
0.37500000000017
40
0.500000000000204
40
0.500000000000204
40
0.562500000000179
40
0.562500000000179
40
0.625000000000153
40
0.625000000000153
40
0.750000000000102
40
0.750000000000102
40
0.812500000000076
40
0.812500000000076
40
0.875000000000051
40
0.875000000000051
40
1
40
1
40
1
40
1
41
1
10
55.544796315602
20
1.68096341022417
30
0
41
1
10
55.5525562429725
20
1.66748920826703
30
0
41
1
10
55.5616963322047
20
1.65461255869724
30
0
41
1
10
55.5769152020736
20
1.63595568440166
30
0
41
1
10
55.5822781401366
20
1.62981892131205
30
0
41
1
10
55.5932268927301
20
1.61802640497342
30
0
41
1
10
55.6044402853744
20
1.60665535081566
30
0
41
1
10
55.616119680022
20
1.59603085146165
30
0
41
1
10
55.6280135566237
20
1.58575302492449
30
0
41
1
10
55.634088830078
20
1.58077152588169
30
0
41
1
10
55.6524766557715
20
1.56644466719098
30
0
41
1
10
55.6648128008811
20
1.5578064635049
30
0
41
1
10
55.6833869644568
20
1.54610043114297
30
0
41
1
10
55.6895902072199
20
1.54240931954357
30
0
41
1
10
55.7020146355295
20
1.53545692098203
30
0
41
1
10
55.7082073408947
20
1.53221356079371
30
0
41
1
10
55.7264659124838
20
1.52331123994023
30
0
41
1
10
55.7383154486745
20
1.51841021529376
30
0
41
1
10
55.7555096866341
20
1.51276857010578
30
0
41
1
10
55.7611436018449
20
1.5111759697763
30
0
41
1
10
55.7721839853736
20
1.50864815137785
30
0
41
1
10
55.7775370839583
20
1.50772908414194
30
0
41
1
10
55.7927502777159
20
1.50615215915465
30
0
41
1
10
55.8019126968939
20
1.50659284206674
30
0
41
1
10
55.8097058824667
20
1.50916309867819
30
0
0
SPLINE
5
121
100
AcDbEntity
8
1
62
256
6
ByLayer
370
18
48
1
60
0
100
AcDbSpline
70
4
71
3
72
8
73
4
40
0
40
0
40
0
40
0
40
1
40
1
40
1
40
1
41
1
10
55.8097058824666
20
1.50916309867844
30
0
41
1
10
55.8352918988349
20
1.51760157702827
30
0
41
1
10
55.8607417956155
20
1.52494570233378
30
0
41
1
10
55.8860722134758
20
1.53118017490368
30
0
0
SPLINE
5
122
100
AcDbEntity
8
1
62
256
6
ByLayer
370
18
48
1
60
0
100
AcDbSpline
70
4
71
3
72
20
73
16
40
0
40
0
40
0
40
0
40
0.168742600045396
40
0.168742600045396
40
0.30728550003783
40
0.30728550003783
40
0.445828400030264
40
0.445828400030264
40
0.584371300022698
40
0.584371300022698
40
0.722914200015132
40
0.722914200015132
40
0.861457100007566
40
0.861457100007566
40
1
40
1
40
1
40
1
41
1
10
54.0321470874615
20
-2.41510659730147
30
0
41
1
10
54.0245927090271
20
-2.41527190279476
30
0
41
1
10
54.0169897286618
20
-2.41594849685524
30
0
41
1
10
54.0030605644637
20
-2.41818798439101
30
0
41
1
10
53.9967491233625
20
-2.41957419195686
30
0
41
1
10
53.9840618779761
20
-2.42321383164435
30
0
41
1
10
53.9777089181844
20
-2.42546712566718
30
0
41
1
10
53.9652727387151
20
-2.43084466666073
30
0
41
1
10
53.9591520383394
20
-2.4339775437777
30
0
41
1
10
53.9471420603401
20
-2.44127330451727
30
0
41
1
10
53.9412095754378
20
-2.4454760725626
30
0
41
1
10
53.9299668609986
20
-2.45486642740556
30
0
41
1
10
53.9246309232879
20
-2.46005823836205
30
0
41
1
10
53.9146270956338
20
-2.47160515472089
30
0
41
1
10
53.9099530669616
20
-2.47798915395464
30
0
41
1
10
53.9058327615238
20
-2.48485762433054
30
0
0
SPLINE
5
123
100
AcDbEntity
8
1
62
256
6
ByLayer
370
18
48
1
60
0
100
AcDbSpline
70
4
71
3
72
10
73
6
40
0
40
0
40
0
40
0
40
0.5
40
0.5
40
1
40
1
40
1
40
1
41
1
10
53.9058327615206
20
-2.48485762433541
30
0
41
1
10
53.848352499224
20
-2.58067612244923
30
0
41
1
10
53.7913407475854
20
-2.67483917000757
30
0
41
1
10
53.6779290876661
20
-2.85994668036864
30
0
41
1
10
53.6217719767871
20
-2.95049109943548
30
0
41
1
10
53.5660514401172
20
-3.03891115945427
30
0
0
SPLINE
5
124
100
AcDbEntity
8
1
62
256
6
ByLayer
370
18
48
1
60
0
100
AcDbSpline
70
4
71
3
72
12
73
8
40
0
40
0
40
0
40
0
40
0.25
40
0.25
40
0.499999999999999
40
0.499999999999999
40
1
40
1
40
1
40
1
41
1
10
53.4698397212288
20
-3.0262414291675
30
0
41
1
10
53.4406849367423
20
-2.97407059131098
30
0
41
1
10
53.4114040908244
20
-2.92109878862766
30
0
41
1
10
53.3524903755577
20
-2.81351321067086
30
0
41
1
10
53.3228625049237
20
-2.75890071733195
30
0
41
1
10
53.2336348201216
20
-2.5930721903305
30
0
41
1
10
53.1736401212258
20
-2.47977417501548
30
0
41
1
10
53.1131773778748
20
-2.36424173688556
30
0
0
SPLINE
5
125
100
AcDbEntity
8
1
62
256
6
ByLayer
370
18
48
1
60
0
100
AcDbSpline
70
4
71
3
72
28
73
24
40
0
40
0
40
0
40
0
40
0.125000000000032
40
0.125000000000032
40
0.250000000000063
40
0.250000000000063
40
0.375000000000095
40
0.375000000000095
40
0.500000000000127
40
0.500000000000127
40
0.625000000000159
40
0.625000000000159
40
0.687500000000132
40
0.687500000000132
40
0.750000000000106
40
0.750000000000106
40
0.812500000000079
40
0.812500000000079
40
0.875000000000053
40
0.875000000000053
40
0.937500000000026
40
0.937500000000026
40
1
40
1
40
1
40
1
41
1
10
53.1131773778745
20
-2.36424173688525
30
0
41
1
10
53.1060106284995
20
-2.35054748513815
30
0
41
1
10
53.0977013751091
20
-2.33817281554636
30
0
41
1
10
53.07931677095
20
-2.3154402149575
30
0
41
1
10
53.0691469105295
20
-2.30504340969716
30
0
41
1
10
53.0478951156616
20
-2.28675087550673
30
0
41
1
10
53.0367511196694
20
-2.27876082795203
30
0
41
1
10
53.0134978370704
20
-2.26500148686563
30
0
41
1
10
53.0012751060424
20
-2.25920523146797
30
0
41
1
10
52.9766694021402
20
-2.25038498254165
30
0
41
1
10
52.9642300901081
20
-2.247298851236
30
0
41
1
10
52.9453829293185
20
-2.24491923378818
30
0
41
1
10
52.9390689015614
20
-2.24450457281841
30
0
41
1
10
52.9263757865394
20
-2.24454405194123
30
0
41
1
10
52.9200220529835
20
-2.24500456574856
30
0
41
1
10
52.9075846755818
20
-2.24688903047942
30
0
41
1
10
52.9014638588363
20
-2.24831102980673
30
0
41
1
10
52.8894551282382
20
-2.2522636883547
30
0
41
1
10
52.8835245517901
20
-2.25482215598254
30
0
41
1
10
52.8722897501608
20
-2.26110695197954
30
0
41
1
10
52.8669585234632
20
-2.26483093512567
30
0
41
1
10
52.8569652242446
20
-2.27363935242749
30
0
41
1
10
52.8522977939717
20
-2.27875031511579
30
0
41
1
10
52.848183618922
20
-2.28450599330034
30
0
0
SPLINE
5
126
100
AcDbEntity
8
1
62
256
6
ByLayer
370
18
48
1
60
0
100
AcDbSpline
70
4
71
3
72
10
73
6
40
0
40
0
40
0
40
0
40
0.5
40
0.5
40
1
40
1
40
1
40
1
41
1
10
52.8481836189194
20
-2.28450599330651
30
0
41
1
10
52.790700971403
20
-2.36492348073324
30
0
41
1
10
52.7336872009886
20
-2.44175878932279
30
0
41
1
10
52.6202832641273
20
-2.58856762420095
30
0
41
1
10
52.5641397243603
20
-2.65821958114481
30
0
41
1
10
52.5084238778256
20
-2.72419627320505
30
0
0
SPLINE
5
127
100
AcDbEntity
8
1
62
256
6
ByLayer
370
18
48
1
60
0
100
AcDbSpline
70
4
71
3
72
8
73
4
40
0
40
0
40
0
40
0
40
1
40
1
40
1
40
1
41
1
10
52.4122512828557
20
-2.67694985481836
30
0
41
1
10
52.4443062659433
20
-2.69318393063276
30
0
41
1
10
52.4763612584657
20
-2.70893413214574
30
0
41
1
10
52.5084238778256
20
-2.72419627320505
30
0
0
SPLINE
5
128
100
AcDbEntity
8
1
62
256
6
ByLayer
370
18
48
1
60
0
100
AcDbSpline
70
4
71
3
72
14
73
10
40
0
40
0
40
0
40
0
40
0.25
40
0.25
40
0.5
40
0.5
40
0.75
40
0.75
40
1
40
1
40
1
40
1
41
1
10
52.4122512828569
20
-2.6769498548083
30
0
41
1
10
52.3830361026179
20
-2.61595116653359
30
0
41
1
10
52.3537139844163
20
-2.55471843912036
30
0
41
1
10
52.2947941084785
20
-2.43180268037182
30
0
41
1
10
52.2651803056536
20
-2.37008721541045
30
0
41
1
10
52.2057170942684
20
-2.246457890909
30
0
41
1
10
52.175847690699
20
-2.18450364962843
30
0
41
1
10
52.1158534820045
20
-2.06052019161788
30
0
41
1
10
52.0857580125609
20
-1.99851173134229
30
0
41
1
10
52.0554851078769
20
-1.93651726434146
30
0
0
SPLINE
5
129
100
AcDbEntity
8
1
62
256
6
ByLayer
370
18
48
1
60
0
100
AcDbSpline
70
4
71
3
72
28
73
24
40
0
40
0
40
0
40
0
40
0.124999999999969
40
0.124999999999969
40
0.249999999999937
40
0.249999999999937
40
0.374999999999906
40
0.374999999999906
40
0.43749999999989
40
0.43749999999989
40
0.499999999999874
40
0.499999999999874
40
0.624999999999842
40
0.624999999999842
40
0.687499999999868
40
0.687499999999868
40
0.749999999999894
40
0.749999999999894
40
0.812499999999921
40
0.812499999999921
40
0.874999999999947
40
0.874999999999947
40
1
40
1
40
1
40
1
41
1
10
52.0554851078751
20
-1.93651726433774
30
0
41
1
10
52.0483604283142
20
-1.92192696596618
30
0
41
1
10
52.0401008576515
20
-1.90824236716892
30
0
41
1
10
52.0218024049667
20
-1.88228193153435
30
0
41
1
10
52.0116745261195
20
-1.86994740691995
30
0
41
1
10
51.9904085192367
20
-1.84729452841626
30
0
41
1
10
51.9792188917083
20
-1.83688559545624
30
0
41
1
10
51.9616483489589
20
-1.82260427428591
30
0
41
1
10
51.9556538113299
20
-1.81806789140103
30
0
41
1
10
51.9436047853936
20
-1.80960081591829
30
0
41
1
10
51.9375255887885
20
-1.805648969152
30
0
41
1
10
51.9191308918211
20
-1.79464733906917
30
0
41
1
10
51.9066605942223
20
-1.78843535459313
30
0
41
1
10
51.887635588533
20
-1.78107620419098
30
0
41
1
10
51.8812196226594
20
-1.77895181727402
30
0
41
1
10
51.8685700880305
20
-1.77553746637335
30
0
41
1
10
51.8623039329933
20
-1.77423206206242
30
0
41
1
10
51.8499097872278
20
-1.77251433581188
30
0
41
1
10
51.8437815525601
20
-1.77210056885917
30
0
41
1
10
51.8316960801978
20
-1.77233042752036
30
0
41
1
10
51.825872153813
20
-1.772972367828
30
0
41
1
10
51.8091519275757
20
-1.77666791797711
30
0
41
1
10
51.7988754902547
20
-1.78157864535879
30
0
41
1
10
51.7906957608123
20
-1.78941128690695
30
0
0
SPLINE
5
12A
100
AcDbEntity
8
1
62
256
6
ByLayer
370
18
48
1
60
0
100
AcDbSpline
70
4
71
3
72
10
73
6
40
0
40
0
40
0
40
0
40
0.5
40
0.5
40
1
40
1
40
1
40
1
41
1
10
51.7906957608123
20
-1.78941128690695
30
0
41
1
10
51.7332082882611
20
-1.84445941156412
30
0
41
1
10
51.676194054638
20
-1.89436534070794
30
0
41
1
10
51.5627999830814
20
-1.98436578064968
30
0
41
1
10
51.5066822876962
20
-2.0242434777486
30
0
41
1
10
51.4510117997376
20
-2.05917010967087
30
0
0
SPLINE
5
12B
100
AcDbEntity
8
1
62
256
6
ByLayer
370
18
48
1
60
0
100
AcDbSpline
70
4
71
3
72
8
73
4
40
0
40
0
40
0
40
0
40
1
40
1
40
1
40
1
41
1
10
51.3548256997467
20
-1.98356452016173
30
0
41
1
10
51.3868573663336
20
-2.00914487988427
30
0
41
1
10
51.418914742231
20
-2.03434970430271
30
0
41
1
10
51.4510117997376
20
-2.0591701096709
30
0
0
SPLINE
5
12C
100
AcDbEntity
8
1
62
256
6
ByLayer
370
18
48
1
60
0
100
AcDbSpline
70
4
71
3
72
12
73
8
40
0
40
0
40
0
40
0
40
0.25
40
0.25
40
0.5
40
0.5
40
1
40
1
40
1
40
1
41
1
10
51.3548256997466
20
-1.98356452016216
30
0
41
1
10
51.3255460768189
20
-1.92168329335365
30
0
41
1
10
51.2961692440811
20
-1.86012181004878
30
0
41
1
10
51.2371673468838
20
-1.73767263197016
30
0
41
1
10
51.2075278471224
20
-1.67675567514988
30
0
41
1
10
51.1183089074154
20
-1.49540185899772
30
0
41
1
10
51.0583887388429
20
-1.37626446690538
30
0
41
1
10
50.9979768601808
20
-1.25957057501273
30
0
0
SPLINE
5
12D
100
AcDbEntity
8
1
62
256
6
ByLayer
370
18
48
1
60
0
100
AcDbSpline
70
4
71
3
72
28
73
24
40
0
40
0
40
0
40
0
40
0.125
40
0.125
40
0.250000000000001
40
0.250000000000001
40
0.375000000000001
40
0.375000000000001
40
0.500000000000001
40
0.500000000000001
40
0.625000000000002
40
0.625000000000002
40
0.687500000000001
40
0.687500000000001
40
0.750000000000001
40
0.750000000000001
40
0.812500000000001
40
0.812500000000001
40
0.875000000000001
40
0.875000000000001
40
0.9375
40
0.9375
40
1
40
1
40
1
40
1
41
1
10
50.9979768601808
20
-1.25957057501293
30
0
41
1
10
50.9908207821588
20
-1.24574762142234
30
0
41
1
10
50.9825323572453
20
-1.23231612470172
30
0
41
1
10
50.964208564001
20
-1.20606951785842
30
0
41
1
10
50.9540807658273
20
-1.19317870468865
30
0
41
1
10
50.9329165885865
20
-1.16878788641313
30
0
41
1
10
50.9218181987904
20
-1.15718673651003
30
0
41
1
10
50.8986460516481
20
-1.13511223709477
30
0
41
1
10
50.8864549801531
20
-1.12455635349858
30
0
41
1
10
50.8618705534212
20
-1.10533501542687
30
0
41
1
10
50.8494285529131
20
-1.09660334120343
30
0
41
1
10
50.8305540631577
20
-1.08497105863151
30
0
41
1
10
50.8242273534824
20
-1.08133978682474
30
0
41
1
10
50.8115028616874
20
-1.07463430459745
30
0
41
1
10
50.8051090106935
20
-1.07156742865735
30
0
41
1
10
50.792603698877
20
-1.066231763904
30
0
41
1
10
50.7864506000727
20
-1.06393916225886
30
0
41
1
10
50.7743831979419
20
-1.06020947729527
30
0
41
1
10
50.7684226589008
20
-1.0587669623383
30
0
41
1
10
50.757126456721
20
-1.05697343797601
30
0
41
1
10
50.7517710227233
20
-1.05660804679309
30
0
41
1
10
50.7417424860035
20
-1.05710979902256
30
0
41
1
10
50.7370595487573
20
-1.05799165547592
30
0
41
1
10
50.7329353087436
20
-1.05958184065051
30
0
0
SPLINE
5
12E
100
AcDbEntity
8
1
62
256
6
ByLayer
370
18
48
1
60
0
100
AcDbSpline
70
4
71
3
72
10
73
6
40
0
40
0
40
0
40
0
40
0.5
40
0.5
40
1
40
1
40
1
40
1
41
1
10
50.7329353087387
20
-1.05958184065634
30
0
41
1
10
50.6754810713352
20
-1.08173449818284
30
0
41
1
10
50.6184855143792
20
-1.09806938022189
30
0
41
1
10
50.5051211457046
20
-1.11949433968203
30
0
41
1
10
50.4490121492824
20
-1.1245070307759
30
0
41
1
10
50.3933456715812
20
-1.1240698756682
30
0
0
SPLINE
5
12F
100
AcDbEntity
8
1
62
256
6
ByLayer
370
18
48
1
60
0
100
AcDbSpline
70
4
71
3
72
8
73
4
40
0
40
0
40
0
40
0
40
1
40
1
40
1
40
1
41
1
10
50.2971304126799
20
-1.03015220457385
30
0
41
1
10
50.3291798801698
20
-1.0616597136333
30
0
41
1
10
50.3612487170915
20
-1.09296811801468
30
0
41
1
10
50.3933456715812
20
-1.1240698756682
30
0
0
SPLINE
5
130
100
AcDbEntity
8
1
62
256
6
ByLayer
370
18
48
1
60
0
100
AcDbSpline
70
4
71
3
72
12
73
8
40
0
40
0
40
0
40
0
40
0.249999999999995
40
0.249999999999995
40
0.499999999999989
40
0.499999999999989
40
1
40
1
40
1
40
1
41
1
10
50.2971304126798
20
-1.03015220457419
30
0
41
1
10
50.2678665126366
20
-0.975669839734934
30
0
41
1
10
50.2385028320866
20
-0.92202987760723
30
0
41
1
10
50.1795270144956
20
-0.816470345173855
30
0
41
1
10
50.1498999278739
20
-0.76452627827743
30
0
41
1
10
50.0607152484197
20
-0.61161241255607
30
0
41
1
10
50.0008116763422
20
-0.513477634002669
30
0
41
1
10
49.9404522999747
20
-0.419720916297877
30
0
0
SPLINE
5
131
100
AcDbEntity
8
1
62
256
6
ByLayer
370
18
48
1
60
0
100
AcDbSpline
70
4
71
3
72
28
73
24
40
0
40
0
40
0
40
0
40
0.125
40
0.125
40
0.249999999999999
40
0.249999999999999
40
0.374999999999999
40
0.374999999999999
40
0.499999999999999
40
0.499999999999999
40
0.624999999999998
40
0.624999999999998
40
0.687499999999998
40
0.687499999999998
40
0.749999999999999
40
0.749999999999999
40
0.812499999999999
40
0.812499999999999
40
0.874999999999999
40
0.874999999999999
40
0.9375
40
0.9375
40
1
40
1
40
1
40
1
41
1
10
49.9404522999727
20
-0.419720916294523
30
0
41
1
10
49.9332729236176
20
-0.408569131721663
30
0
41
1
10
49.9249534893181
20
-0.39723393724924
30
0
41
1
10
49.9065590726406
20
-0.37430975160575
30
0
41
1
10
49.8963913661298
20
-0.362640065087021
30
0
41
1
10
49.875154668992
20
-0.339829739194016
30
0
41
1
10
49.8640222492408
20
-0.328602259749175
30
0
41
1
10
49.8407964525118
20
-0.306458838913159
30
0
41
1
10
49.8285888660682
20
-0.295451238455115
30
0
41
1
10
49.804000932639
20
-0.27445267872514
30
0
41
1
10
49.7915683602427
20
-0.264400028864344
30
0
41
1
10
49.7727266481423
20
-0.250032561121259
30
0
41
1
10
49.7664136587631
20
-0.2453630978614
30
0
41
1
10
49.7537210026811
20
-0.236290255078416
30
0
41
1
10
49.7473530735197
20
-0.231897801620221
30
0
41
1
10
49.7348912585605
20
-0.223644171892659
30
0
41
1
10
49.7287577522823
20
-0.21975372342385
30
0
41
1
10
49.7167231314339
20
-0.212511275252695
30
0
41
1
10
49.7107770172498
20
-0.209136699191049
30
0
41
1
10
49.6995026298824
20
-0.203214646846192
30
0
41
1
10
49.6941524621581
20
-0.200649816597064
30
0
41
1
10
49.6841244773136
20
-0.196444663814844
30
0
41
1
10
49.6794383554455
20
-0.194807986570879
30
0
41
1
10
49.6753086972302
20
-0.193782084485463
30
0
0
SPLINE
5
132
100
AcDbEntity
8
1
62
256
6
ByLayer
370
18
48
1
60
0
100
AcDbSpline
70
4
71
3
72
10
73
6
40
0
40
0
40
0
40
0
40
0.5
40
0.5
40
1
40
1
40
1
40
1
41
1
10
49.6753086972279
20
-0.193782084490124
30
0
41
1
10
49.6178564651189
20
-0.179509628599988
30
0
41
1
10
49.5608602327201
20
-0.159525362326889
30
0
41
1
10
49.4474839637309
20
-0.108632021042609
30
0
41
1
10
49.3913315628623
20
-0.0779441111078825
30
0
41
1
10
49.3356268537652
20
-0.0419387887585572
30
0
0
SPLINE
5
133
100
AcDbEntity
8
1
62
256
6
ByLayer
370
18
48
1
60
0
100
AcDbSpline
70
4
71
3
72
12
73
8
40
0
40
0
40
0
40
0
40
0.25
40
0.25
40
0.500000000000001
40
0.500000000000001
40
1
40
1
40
1
40
1
41
1
10
49.2393854626731
20
0.0585291823861951
30
0
41
1
10
49.2101997127585
20
0.0985687470328855
30
0
41
1
10
49.1808941812178
20
0.13729625637589
30
0
41
1
10
49.121991617754
20
0.212116886104127
30
0
41
1
10
49.0923797622805
20
0.248228671481257
30
0
41
1
10
49.0032072695764
20
0.352420063248559
30
0
41
1
10
48.9432724075918
20
0.416442658960307
30
0
41
1
10
48.8829024345831
20
0.474746613366705
30
0
0
SPLINE
5
134
100
AcDbEntity
8
1
62
256
6
ByLayer
370
18
48
1
60
0
100
AcDbSpline
70
4
71
3
72
28
73
24
40
0
40
0
40
0
40
0
40
0.125
40
0.125
40
0.25
40
0.25
40
0.375
40
0.375
40
0.499999999999999
40
0.499999999999999
40
0.624999999999999
40
0.624999999999999
40
0.687499999999999
40
0.687499999999999
40
0.749999999999999
40
0.749999999999999
40
0.8125
40
0.8125
40
0.875
40
0.875
40
0.9375
40
0.9375
40
1
40
1
40
1
40
1
41
1
10
48.8829024345813
20
0.474746613367671
30
0
41
1
10
48.8757212556995
20
0.481682033498601
30
0
41
1
10
48.8673948324197
20
0.489351817292146
30
0
41
1
10
48.8489764870468
20
0.505786071183479
30
0
41
1
10
48.838789682865
20
0.514627572130962
30
0
41
1
10
48.8175122145951
20
0.53272386821584
30
0
41
1
10
48.8063589457907
20
0.542036989240131
30
0
41
1
10
48.7830943634435
20
0.561208213961976
30
0
41
1
10
48.770870687341
20
0.57115558874662
30
0
41
1
10
48.7462693790364
20
0.591022658188905
30
0
41
1
10
48.7338344311052
20
0.600991005888545
30
0
41
1
10
48.7149972386506
20
0.616057452547125
30
0
41
1
10
48.7086871044877
20
0.621098800974266
30
0
41
1
10
48.6960031372148
20
0.631235143018813
30
0
41
1
10
48.6896556966964
20
0.636309136276708
30
0
41
1
10
48.6772291684625
20
0.64626102350536
30
0
41
1
10
48.671113582256
20
0.651168136446699
30
0
41
1
10
48.6591144975393
20
0.660830641132634
30
0
41
1
10
48.6531881305276
20
0.665621020354678
30
0
41
1
10
48.6419573519947
20
0.674749303743994
30
0
41
1
10
48.6366268283945
20
0.679108012152597
30
0
41
1
10
48.6266327521327
20
0.687344603363073
30
0
41
1
10
48.6219625836824
20
0.691228857236126
30
0
41
1
10
48.6178446586056
20
0.694692821123908
30
0
0
SPLINE
5
135
100
AcDbEntity
8
1
62
256
6
ByLayer
370
18
48
1
60
0
100
AcDbSpline
70
4
71
3
72
12
73
8
40
0
40
0
40
0
40
0
40
0.499999999999999
40
0.499999999999999
40
0.749999999999999
40
0.749999999999999
40
1
40
1
40
1
40
1
41
1
10
48.617844658601
20
0.69469282112243
30
0
41
1
10
48.5603354921886
20
0.743069047487268
30
0
41
1
10
48.5033072082944
20
0.796646833727721
30
0
41
1
10
48.4182425101828
20
0.884304731206583
30
0
41
1
10
48.3900193969081
20
0.914677828960095
30
0
41
1
10
48.3338296731282
20
0.977522498832002
30
0
41
1
10
48.3058538625899
20
1.00999304834406
30
0
41
1
10
48.2779806630572
20
1.04351971459977
30
0
0
SPLINE
5
136
100
AcDbEntity
8
1
62
256
6
ByLayer
370
18
48
1
60
0
100
AcDbSpline
70
4
71
3
72
12
73
8
40
0
40
0
40
0
40
0
40
0.25
40
0.25
40
0.500000000000001
40
0.500000000000001
40
1
40
1
40
1
40
1
41
1
10
48.1817802848904
20
1.13775050763124
30
0
41
1
10
48.152644250562
20
1.15844062306871
30
0
41
1
10
48.1233873279569
20
1.17756716334159
30
0
41
1
10
48.0645298140565
20
1.21251493042055
30
0
41
1
10
48.0349129422397
20
1.22834544559492
30
0
41
1
10
47.9456987618412
20
1.27097762958459
30
0
41
1
10
47.8857179283261
20
1.29305556153909
30
0
41
1
10
47.8252884851253
20
1.30868323557669
30
0
0
SPLINE
5
137
100
AcDbEntity
8
1
62
256
6
ByLayer
370
18
48
1
60
0
100
AcDbSpline
70
4
71
3
72
28
73
24
40
0
40
0
40
0
40
0
40
0.124999999999968
40
0.124999999999968
40
0.249999999999937
40
0.249999999999937
40
0.374999999999905
40
0.374999999999905
40
0.499999999999873
40
0.499999999999873
40
0.624999999999841
40
0.624999999999841
40
0.687499999999868
40
0.687499999999868
40
0.749999999999894
40
0.749999999999894
40
0.812499999999921
40
0.812499999999921
40
0.874999999999947
40
0.874999999999947
40
0.937499999999974
40
0.937499999999974
40
1
40
1
40
1
40
1
41
1
10
47.8252884851253
20
1.30868323557669
30
0
41
1
10
47.8181134963286
20
1.31053876129724
30
0
41
1
10
47.809792421383
20
1.31358224798785
30
0
41
1
10
47.7913804751177
20
1.32145918672342
30
0
41
1
10
47.7811934674301
20
1.32635460336931
30
0
41
1
10
47.7599106127949
20
1.33744639226955
30
0
41
1
10
47.7487531879577
20
1.34366509530821
30
0
41
1
10
47.7254781838672
20
1.35743065917745
30
0
41
1
10
47.7132484292458
20
1.36505478844734
30
0
41
1
10
47.6886394447117
20
1.3812653791133
30
0
41
1
10
47.6762010930111
20
1.3898781125269
30
0
41
1
10
47.6573600189969
20
1.40371315924918
30
0
41
1
10
47.651048797825
20
1.40847900107869
30
0
41
1
10
47.6383632166155
20
1.41837381903207
30
0
41
1
10
47.6320222578872
20
1.42347899506308
30
0
41
1
10
47.6196063803026
20
1.43384422744771
30
0
41
1
10
47.6134965990424
20
1.43913075019347
30
0
41
1
10
47.6015099853804
20
1.44995104805108
30
0
41
1
10
47.5955914310295
20
1.4555278841552
30
0
41
1
10
47.5843807434304
20
1.46665355208467
30
0
41
1
10
47.5790603052659
20
1.47222376780633
30
0
41
1
10
47.5690857320524
20
1.48338134545267
30
0
41
1
10
47.5644260280283
20
1.48898356400477
30
0
41
1
10
47.5603168082984
20
1.49440775178633
30
0
0
SPLINE
5
138
100
AcDbEntity
8
1
62
256
6
ByLayer
370
18
48
1
60
0
100
AcDbSpline
70
4
71
3
72
10
73
6
40
0
40
0
40
0
40
0
40
0.5
40
0.5
40
1
40
1
40
1
40
1
41
1
10
47.5603168082959
20
1.4944077517855
30
0
41
1
10
47.5027887202225
20
1.57034507637556
30
0
41
1
10
47.4457459911553
20
1.65012444449295
30
0
41
1
10
47.3323000420008
20
1.81674282931206
30
0
41
1
10
47.2761444536758
20
1.90320519661461
30
0
41
1
10
47.2204166022556
20
1.99247012034039
30
0
0
SPLINE
5
139
100
AcDbEntity
8
1
62
256
6
ByLayer
370
18
48
1
60
0
100
AcDbSpline
70
4
71
3
72
8
73
4
40
0
40
0
40
0
40
0
40
1
40
1
40
1
40
1
41
1
10
47.124227209499
20
2.068048493985
30
0
41
1
10
47.1562884009173
20
2.04323376014383
30
0
41
1
10
47.1883508313129
20
2.01804070012432
30
0
41
1
10
47.2204166022556
20
1.99247012034039
30
0
0
SPLINE
5
13A
100
AcDbEntity
8
1
62
256
6
ByLayer
370
18
48
1
60
0
100
AcDbSpline
70
4
71
3
72
14
73
10
40
0
40
0
40
0
40
0
40
0.25
40
0.25
40
0.5
40
0.5
40
0.75
40
0.75
40
1
40
1
40
1
40
1
41
1
10
47.1242272095002
20
2.06804849397875
30
0
41
1
10
47.0950207135248
20
2.06668727473192
30
0
41
1
10
47.0657069482486
20
2.06376516617775
30
0
41
1
10
47.0068100322607
20
2.0547615147137
30
0
41
1
10
46.9772137439927
20
2.04868272094853
30
0
41
1
10
46.9177963354265
20
2.03330683153871
30
0
41
1
10
46.8879345724901
20
2.02392854441132
30
0
41
1
10
46.8279118421924
20
2.0017153762922
30
0
41
1
10
46.797785596259
20
1.9889625334873
30
0
41
1
10
46.7675115830102
20
1.97454128568367
30
0
0
SPLINE
5
13B
100
AcDbEntity
8
1
62
256
6
ByLayer
370
18
48
1
60
0
100
AcDbSpline
70
4
71
3
72
28
73
24
40
0
40
0
40
0
40
0
40
0.124999999999967
40
0.124999999999967
40
0.249999999999935
40
0.249999999999935
40
0.374999999999903
40
0.374999999999903
40
0.49999999999987
40
0.49999999999987
40
0.624999999999838
40
0.624999999999838
40
0.687499999999865
40
0.687499999999865
40
0.749999999999892
40
0.749999999999892
40
0.812499999999919
40
0.812499999999919
40
0.874999999999946
40
0.874999999999946
40
0.937499999999973
40
0.937499999999973
40
1
40
1
40
1
40
1
41
1
10
46.7675115830082
20
1.97454128568296
30
0
41
1
10
46.7603633755282
20
1.97113618472846
30
0
41
1
10
46.7520762729201
20
1.96920523317081
30
0
41
1
10
46.7337339822723
20
1.96757250952942
30
0
41
1
10
46.7235823778078
20
1.96790800002245
30
0
41
1
10
46.7023530249237
20
1.97057643389573
30
0
41
1
10
46.691215671871
20
1.97289373115225
30
0
41
1
10
46.6679621893276
20
1.97945433781899
30
0
41
1
10
46.6557315131407
20
1.98375401969926
30
0
41
1
10
46.63110561776
20
1.99418026146566
30
0
41
1
10
46.6186523766654
20
2.00030527950679
30
0
41
1
10
46.5997811733088
20
2.01109342415367
30
0
41
1
10
46.5934586202695
20
2.01495884309017
30
0
41
1
10
46.5807482316902
20
2.02331669284965
30
0
41
1
10
46.5743940300303
20
2.02779120286192
30
0
41
1
10
46.5619563280226
20
2.03722172843916
30
0
41
1
10
46.5558371758448
20
2.04219987406634
30
0
41
1
10
46.5438356543677
20
2.05276930913047
30
0
41
1
10
46.537911764551
20
2.05840698717773
30
0
41
1
10
46.5266990796185
20
2.07007927391919
30
0
41
1
10
46.5213808536735
20
2.07613231448383
30
0
41
1
10
46.5114160987948
20
2.08874412243802
30
0
41
1
10
46.5067646862506
20
2.09532421864478
30
0
41
1
10
46.5026644648524
20
2.10198678035914
30
0
0
SPLINE
5
13C
100
AcDbEntity
8
1
62
256
6
ByLayer
370
18
48
1
60
0
100
AcDbSpline
70
4
71
3
72
10
73
6
40
0
40
0
40
0
40
0
40
0.5
40
0.5
40
1
40
1
40
1
40
1
41
1
10
46.5026644648504
20
2.1019867803598
30
0
41
1
10
46.4451501572727
20
2.19544334928585
30
0
41
1
10
46.3881190808243
20
2.29088572875813
30
0
41
1
10
46.2746996020192
20
2.48536090091019
30
0
41
1
10
46.2185712015608
20
2.58394024508766
30
0
41
1
10
46.1628855435626
20
2.68360680945469
30
0
0
SPLINE
5
13D
100
AcDbEntity
8
1
62
256
6
ByLayer
370
18
48
1
60
0
100
AcDbSpline
70
4
71
3
72
12
73
8
40
0
40
0
40
0
40
0
40
0.250000000000005
40
0.250000000000005
40
0.50000000000001
40
0.50000000000001
40
1
40
1
40
1
40
1
41
1
10
46.066727431738
20
2.7304247772108
30
0
41
1
10
46.0374591638555
20
2.70697838181468
30
0
41
1
10
46.0080923822546
20
2.68214920216346
30
0
41
1
10
45.9491111140291
20
2.62969584396416
30
0
41
1
10
45.9194829325574
20
2.60205923234702
30
0
41
1
10
45.8302910895325
20
2.51499945052677
30
0
41
1
10
45.7703832457285
20
2.45138453863939
30
0
41
1
10
45.7099273595995
20
2.3821301935082
30
0
0
SPLINE
5
13E
100
AcDbEntity
8
1
62
256
6
ByLayer
370
18
48
1
60
0
100
AcDbSpline
70
4
71
3
72
28
73
24
40
0
40
0
40
0
40
0
40
0.125
40
0.125
40
0.249999999999999
40
0.249999999999999
40
0.374999999999999
40
0.374999999999999
40
0.499999999999999
40
0.499999999999999
40
0.624999999999998
40
0.624999999999998
40
0.687499999999999
40
0.687499999999999
40
0.749999999999999
40
0.749999999999999
40
0.812499999999999
40
0.812499999999999
40
0.874999999999999
40
0.874999999999999
40
0.9375
40
0.9375
40
1
40
1
40
1
40
1
41
1
10
45.7099273595986
20
2.38213019350715
30
0
41
1
10
45.7027835545801
20
2.37394671345288
30
0
41
1
10
45.6945077554984
20
2.36735021430553
30
0
41
1
10
45.6762014624505
20
2.35655640697556
30
0
41
1
10
45.6660765352106
20
2.35236813600602
30
0
41
1
10
45.6449038600658
20
2.34642824828066
30
0
41
1
10
45.6337961119307
20
2.34462646674965
30
0
41
1
10
45.6105943125177
20
2.34329247863462
30
0
41
1
10
45.5983828309394
20
2.34378722643496
30
0
41
1
10
45.5737628107617
20
2.34722671464289
30
0
41
1
10
45.5613020264631
20
2.3501433843218
30
0
41
1
10
45.5424090591838
20
2.356598239215
30
0
41
1
10
45.5360775518768
20
2.35909981061502
30
0
41
1
10
45.5233470652134
20
2.36491289427346
30
0
41
1
10
45.516964910757
20
2.3682231944899
30
0
41
1
10
45.5044836317298
20
2.37558987346534
30
0
41
1
10
45.4983443889233
20
2.37966243227569
30
0
41
1
10
45.4863075743887
20
2.38870820627662
30
0
41
1
10
45.4803653124826
20
2.39372765648997
30
0
41
1
10
45.469112807294
20
2.40454922388716
30
0
41
1
10
45.4637791369632
20
2.41035805116627
30
0
41
1
10
45.453791891855
20
2.42290028050374
30
0
41
1
10
45.4491288278764
20
2.42966556026948
30
0
41
1
10
45.4450199717016
20
2.43676125310708
30
0
0
SPLINE
5
13F
100
AcDbEntity
8
1
62
256
6
ByLayer
370
18
48
1
60
0
100
AcDbSpline
70
4
71
3
72
10
73
6
40
0
40
0
40
0
40
0
40
0.5
40
0.5
40
1
40
1
40
1
40
1
41
1
10
45.4450199716997
20
2.43676125311003
30
0
41
1
10
45.4082428967794
20
2.50027256039789
30
0
41
1
10
45.3716600148088
20
2.56370894303683
30
0
41
1
10
45.2987964113466
20
2.69040081034845
30
0
41
1
10
45.2624905242506
20
2.7537000118337
30
0
41
1
10
45.2264334045791
20
2.81663981010286
30
0
0
SPLINE
5
140
100
AcDbEntity
8
1
62
256
6
ByLayer
370
18
48
1
60
0
100
AcDbSpline
70
4
71
3
72
8
73
4
40
0
40
0
40
0
40
0
40
1
40
1
40
1
40
1
41
1
10
44.6748970098028
20
2.51885456533191
30
0
41
1
10
44.6673998473345
20
2.50639792814124
30
0
41
1
10
44.6598944073932
20
2.49388187322148
30
0
41
1
10
44.6523802110493
20
2.48130636056663
30
0
0
SPLINE
5
141
100
AcDbEntity
8
1
62
256
6
ByLayer
370
18
48
1
60
0
100
AcDbSpline
70
4
71
3
72
17
73
13
40
0
40
0
40
0
40
0
40
0.25
40
0.25
40
0.375
40
0.375
40
0.5
40
0.625
40
0.625
40
0.75
40
0.75
40
1
40
1
40
1
40
1
41
1
10
44.6523802110484
20
2.48130636056629
30
0
41
1
10
44.6437240430819
20
2.46681968164245
30
0
41
1
10
44.633422251005
20
2.45450430052838
30
0
41
1
10
44.6161162922319
20
2.43843391711511
30
0
41
1
10
44.6100013155851
20
2.43347606173239
30
0
41
1
10
44.5974292669956
20
2.42453371524664
30
0
41
1
10
44.5844669954317
20
2.41651064116044
30
0
41
1
10
44.5707818442003
20
2.41021371941935
30
0
41
1
10
44.5567430295477
20
2.40478052503136
30
0
41
1
10
44.5495254420711
20
2.40249025477939
30
0
41
1
10
44.5274653364584
20
2.39702927005777
30
0
41
1
10
44.5125456447055
20
2.39530595782503
30
0
41
1
10
44.4974427023475
20
2.39570040929706
30
0
0
SPLINE
5
142
100
AcDbEntity
8
1
62
256
6
ByLayer
370
18
48
1
60
0
100
AcDbSpline
70
4
71
3
72
8
73
4
40
0
40
0
40
0
40
0
40
1
40
1
40
1
40
1
41
1
10
44.4974427023472
20
2.39570040929823
30
0
41
1
10
44.4902878202381
20
2.3904978148052
30
0
41
1
10
44.4831229323346
20
2.38526015018306
30
0
41
1
10
44.4759474377991
20
2.37998718070415
30
0
0
SPLINE
5
143
100
AcDbEntity
8
1
62
256
6
ByLayer
370
18
48
1
60
0
100
AcDbSpline
70
4
71
3
72
14
73
10
40
0
40
0
40
0
40
0
40
0.25
40
0.25
40
0.5
40
0.5
40
0.75
40
0.75
40
1
40
1
40
1
40
1
41
1
10
44.4759474377992
20
2.37998718070415
30
0
41
1
10
44.4415362156196
20
2.35469981920076
30
0
41
1
10
44.4061251006658
20
2.33121409735813
30
0
41
1
10
44.3327853458148
20
2.28768497527108
30
0
41
1
10
44.2948614484249
20
2.26767914821974
30
0
41
1
10
44.2170103890058
20
2.23151758146696
30
0
41
1
10
44.1770952213927
20
2.21536093490994
30
0
41
1
10
44.0958148906685
20
2.18712290468201
30
0
41
1
10
44.0544072492349
20
2.17504306802613
30
0
41
1
10
44.0124131703801
20
2.16515176282482
30
0
0
SPLINE
5
144
100
AcDbEntity
8
1
62
256
6
ByLayer
370
18
48
1
60
0
100
AcDbSpline
70
4
71
3
72
19
73
15
40
0
40
0
40
0
40
0
40
0.164082400890022
40
0.164082400890022
40
0.328164801780045
40
0.492247202670067
40
0.492247202670067
40
0.656329603560089
40
0.656329603560089
40
0.820412004450112
40
0.820412004450112
40
0.984494405340134
40
0.984494405340134
40
1
40
1
40
1
40
1
41
1
10
44.0124131703801
20
2.16515176282482
30
0
41
1
10
43.9508199116104
20
2.15064405751375
30
0
41
1
10
43.8894288155964
20
2.13477028275781
30
0
41
1
10
43.7671637538876
20
2.10024726500507
30
0
41
1
10
43.6453544199157
20
2.06297327854492
30
0
41
1
10
43.5242451889961
20
2.02028711466428
30
0
41
1
10
43.4033762772182
20
1.97494312996545
30
0
41
1
10
43.3430658334486
20
1.95093836051677
30
0
41
1
10
43.2224536437258
20
1.90040965534635
30
0
41
1
10
43.16214155078
20
1.87389360131198
30
0
41
1
10
43.0413290875939
20
1.81849284885772
30
0
41
1
10
42.9808612024082
20
1.78958241917235
30
0
41
1
10
42.9144672575059
20
1.75673563621086
30
0
41
1
10
42.9087310081537
20
1.75389164729867
30
0
41
1
10
42.9029912368675
20
1.75103942180866
30
0
0
SPLINE
5
145
100
AcDbEntity
8
1
62
256
6
ByLayer
370
18
48
1
60
0
100
AcDbSpline
70
4
71
3
72
27
73
23
40
0
40
0
40
0
40
0
40
0.125000000000051
40
0.125000000000051
40
0.250000000000101
40
0.250000000000101
40
0.375000000000152
40
0.375000000000152
40
0.437500000000136
40
0.437500000000136
40
0.500000000000121
40
0.500000000000121
40
0.62500000000009
40
0.62500000000009
40
0.687500000000075
40
0.687500000000075
40
0.75000000000006
40
0.812500000000044
40
0.812500000000044
40
0.875000000000029
40
0.875000000000029
40
1
40
1
40
1
40
1
41
1
10
44.6174445710516
20
0.700704310533922
30
0
41
1
10
44.6251642440291
20
0.69051207363654
30
0
41
1
10
44.6342003167932
20
0.679989290069443
30
0
41
1
10
44.6541496382323
20
0.658497680926502
30
0
41
1
10
44.6652127296888
20
0.647406782926424
30
0
41
1
10
44.6879928039611
20
0.625769796306514
30
0
41
1
10
44.6997911101058
20
0.615126171588514
30
0
41
1
10
44.7180109630063
20
0.599364345590459
30
0
41
1
10
44.724199489258
20
0.59412265375957
30
0
41
1
10
44.7365606617478
20
0.583856234149408
30
0
41
1
10
44.7427429880147
20
0.578822113250197
30
0
41
1
10
44.7612854899006
20
0.56399871405921
30
0
41
1
10
44.7736415776259
20
0.554484548289395
30
0
41
1
10
44.7921251694031
20
0.540762531898849
30
0
41
1
10
44.79824736519
20
0.536304414837275
30
0
41
1
10
44.8102423710667
20
0.527739692028547
30
0
41
1
10
44.8220352704491
20
0.519491267420875
30
0
41
1
10
44.8333848876799
20
0.511906881222274
30
0
41
1
10
44.844479590228
20
0.504693345502972
30
0
41
1
10
44.8499057947892
20
0.501269860197965
30
0
41
1
10
44.8652852198233
20
0.491918965321958
30
0
41
1
10
44.8745236952727
20
0.486770275555386
30
0
41
1
10
44.8823539040112
20
0.483161791246545
30
0
0
SPLINE
5
146
100
AcDbEntity
8
1
62
256
6
ByLayer
370
18
48
1
60
0
100
AcDbSpline
70
4
71
3
72
10
73
6
40
0
40
0
40
0
40
0
40
0.5
40
0.5
40
1
40
1
40
1
40
1
41
1
10
44.8823539040112
20
0.483161791246658
30
0
41
1
10
44.9082305398494
20
0.471236766320231
30
0
41
1
10
44.9339866052543
20
0.458249064326139
30
0
41
1
10
44.985290432404
20
0.430143977228795
30
0
41
1
10
45.0108479727608
20
0.415023507320683
30
0
41
1
10
45.0362811648859
20
0.398875453796478
30
0
0
SPLINE
5
147
100
AcDbEntity
8
1
62
256
6
ByLayer
370
18
48
1
60
0
100
AcDbSpline
70
4
71
3
72
27
73
23
40
0
40
0
40
0
40
0
40
0.124999999999941
40
0.124999999999941
40
0.249999999999881
40
0.249999999999881
40
0.374999999999822
40
0.374999999999822
40
0.437499999999833
40
0.437499999999833
40
0.499999999999843
40
0.499999999999843
40
0.624999999999865
40
0.624999999999865
40
0.687499999999876
40
0.687499999999876
40
0.749999999999887
40
0.812499999999898
40
0.812499999999898
40
0.874999999999909
40
0.874999999999909
40
1
40
1
40
1
40
1
41
1
10
45.6749135136645
20
-0.187629126444051
30
0
41
1
10
45.6826449158643
20
-0.19363299119388
30
0
41
1
10
45.6916924254639
20
-0.20074434402045
30
0
41
1
10
45.7116599358328
20
-0.216501799779905
30
0
41
1
10
45.7227283826008
20
-0.225269383279084
30
0
41
1
10
45.7455119245472
20
-0.243396003706721
30
0
41
1
10
45.7573102693365
20
-0.252820866302727
30
0
41
1
10
45.7755280001239
20
-0.26747742865075
30
0
41
1
10
45.7817153641129
20
-0.272472695690368
30
0
41
1
10
45.7940746659095
20
-0.282496354325161
30
0
41
1
10
45.8002560717741
20
-0.287532177576225
30
0
41
1
10
45.8187957976974
20
-0.302721523915295
30
0
41
1
10
45.8311500316998
20
-0.31295527782342
30
0
41
1
10
45.849630311006
20
-0.328531101382424
30
0
41
1
10
45.8557543150531
20
-0.333738313983218
30
0
41
1
10
45.8677517411567
20
-0.344048495531069
30
0
41
1
10
45.8795473874922
20
-0.354295460096694
30
0
41
1
10
45.8909001497257
20
-0.36442051885993
30
0
41
1
10
45.9019980779734
20
-0.374481778128228
30
0
41
1
10
45.9074286916688
20
-0.379490495570963
30
0
41
1
10
45.9228235838756
20
-0.393988171215597
30
0
41
1
10
45.9320734065017
20
-0.40310460653501
30
0
41
1
10
45.9399139942445
20
-0.411433932189596
30
0
0
SPLINE
5
148
100
AcDbEntity
8
1
62
256
6
ByLayer
370
18
48
1
60
0
100
AcDbSpline
70
4
71
3
72
10
73
6
40
0
40
0
40
0
40
0
40
0.5
40
0.5
40
1
40
1
40
1
40
1
41
1
10
45.9399139942445
20
-0.411433932189908
30
0
41
1
10
45.9988993814696
20
-0.47409613497129
30
0
41
1
10
46.0572139398832
20
-0.541395702073004
30
0
41
1
10
46.1729410316116
20
-0.684928013238022
30
0
41
1
10
46.2301422752107
20
-0.760887852772385
30
0
41
1
10
46.2868440185929
20
-0.840824618394322
30
0
0
SPLINE
5
149
100
AcDbEntity
8
1
62
256
6
ByLayer
370
18
48
1
60
0
100
AcDbSpline
70
4
71
3
72
10
73
6
40
0
40
0
40
0
40
0
40
0.5
40
0.5
40
1
40
1
40
1
40
1
41
1
10
46.3829617009836
20
-0.936331529117325
30
0
41
1
10
46.440031990013
20
-0.966486569616109
30
0
41
1
10
46.4976190470819
20
-0.991181510360008
30
0
41
1
10
46.6141299618549
20
-1.02935908846555
30
0
41
1
10
46.6728411562839
20
-1.04279164857351
30
0
41
1
10
46.7322797511782
20
-1.05030419926985
30
0
0
SPLINE
5
14A
100
AcDbEntity
8
1
62
256
6
ByLayer
370
18
48
1
60
0
100
AcDbSpline
70
4
71
3
72
10
73
6
40
0
40
0
40
0
40
0
40
0.5
40
0.5
40
1
40
1
40
1
40
1
41
1
10
49.1122467142326
20
-2.35969346743315
30
0
41
1
10
49.171369524451
20
-2.46690038101889
30
0
41
1
10
49.2297861657746
20
-2.57336108645109
30
0
41
1
10
49.3456412462328
20
-2.78456205803059
30
0
41
1
10
49.4028275918015
20
-2.8888550437199
30
0
41
1
10
49.4594638146687
20
-2.9916831213867
30
0
0
SPLINE
5
14B
100
AcDbEntity
8
1
62
256
6
ByLayer
370
18
48
1
60
0
100
AcDbSpline
70
4
71
3
72
10
73
6
40
0
40
0
40
0
40
0
40
0.5
40
0.5
40
1
40
1
40
1
40
1
41
1
10
49.55572200663
20
-3.01095147876646
30
0
41
1
10
49.6126254119425
20
-2.93016818545669
30
0
41
1
10
49.6701165079281
20
-2.84570844121356
30
0
41
1
10
49.7866153666457
20
-2.66970141994301
30
0
41
1
10
49.845383338973
20
-2.57852082980983
30
0
41
1
10
49.9049308633053
20
-2.48419012176714
30
0
0
SPLINE
5
14C
100
AcDbEntity
8
1
62
256
6
ByLayer
370
18
48
1
60
0
100
AcDbSpline
70
4
71
3
72
28
73
24
40
0
40
0
40
0
40
0
40
0.12499999999998
40
0.12499999999998
40
0.187499999999969
40
0.187499999999969
40
0.249999999999958
40
0.249999999999958
40
0.374999999999935
40
0.374999999999935
40
0.499999999999912
40
0.499999999999912
40
0.5624999999999
40
0.5624999999999
40
0.624999999999889
40
0.624999999999889
40
0.749999999999948
40
0.749999999999948
40
0.812499999999978
40
0.812499999999978
40
0.875000000000007
40
0.875000000000007
40
1
40
1
40
1
40
1
41
1
10
49.9049308633053
20
-2.48419012176709
30
0
41
1
10
49.912659776769
20
-2.47194655853571
30
0
41
1
10
49.9217521694171
20
-2.46175210366241
30
0
41
1
10
49.9368836129683
20
-2.44868287992964
30
0
41
1
10
49.9422163470188
20
-2.44469052820742
30
0
41
1
10
49.9531158383779
20
-2.43757038718752
30
0
41
1
10
49.9586980845153
20
-2.43442287427109
30
0
41
1
10
49.9757948483932
20
-2.42608380992962
30
0
41
1
10
49.9876809575099
20
-2.42197549753652
30
0
41
1
10
50.0121643596349
20
-2.41647703142849
30
0
41
1
10
50.0244873194284
20
-2.41514403847503
30
0
41
1
10
50.0430496634812
20
-2.41514448384874
30
0
41
1
10
50.0492502587544
20
-2.41548165126039
30
0
41
1
10
50.0616718848829
20
-2.41685309005973
30
0
41
1
10
50.0678928653614
20
-2.41789188445262
30
0
41
1
10
50.0862155659497
20
-2.42202764063299
30
0
41
1
10
50.0981024861199
20
-2.42613500799402
30
0
41
1
10
50.1153452825858
20
-2.43456693158078
30
0
41
1
10
50.1209940792273
20
-2.43775981134166
30
0
41
1
10
50.1320612655464
20
-2.44502122848456
30
0
41
1
10
50.1374708149614
20
-2.44909436978202
30
0
41
1
10
50.1527985090538
20
-2.46242309269141
30
0
41
1
10
50.1620129101264
20
-2.47283702167988
30
0
41
1
10
50.1698314007251
20
-2.48539926284622
30
0
0
SPLINE
5
14D
100
AcDbEntity
8
1
62
256
6
ByLayer
370
18
48
1
60
0
100
AcDbSpline
70
4
71
3
72
10
73
6
40
0
40
0
40
0
40
0
40
0.5
40
0.5
40
1
40
1
40
1
40
1
41
1
10
50.1698314007271
20
-2.48539926284945
30
0
41
1
10
50.2288977968352
20
-2.58030329878949
30
0
41
1
10
50.2872799839299
20
-2.6725123860698
30
0
41
1
10
50.4031021153398
20
-2.85139108790355
30
0
41
1
10
50.4603201291421
20
-2.93772010404993
30
0
41
1
10
50.5170041691812
20
-3.02081217622282
30
0
0
SPLINE
5
14E
100
AcDbEntity
8
1
62
256
6
ByLayer
370
18
48
1
60
0
100
AcDbSpline
70
4
71
3
72
8
73
4
40
0
40
0
40
0
40
0
40
1
40
1
40
1
40
1
41
1
10
50.6131527305205
20
-3.00374383637614
30
0
41
1
10
50.5811099622978
20
-3.00998767662958
30
0
41
1
10
50.5490606533212
20
-3.0156751687839
30
0
41
1
10
50.517004169181
20
-3.02081217622319
30
0
0
SPLINE
5
14F
100
AcDbEntity
8
1
62
256
6
ByLayer
370
18
48
1
60
0
100
AcDbSpline
70
4
71
3
72
10
73
6
40
0
40
0
40
0
40
0
40
0.5
40
0.5
40
1
40
1
40
1
40
1
41
1
10
50.6131527305211
20
-3.00374383636378
30
0
41
1
10
50.6702039626393
20
-2.90075692834065
30
0
41
1
10
50.7277450421961
20
-2.79610313348007
30
0
41
1
10
50.8441734762001
20
-2.58373296183504
30
0
41
1
10
50.9028819120722
20
-2.47637363538237
30
0
41
1
10
50.9624150719471
20
-2.36788680231524
30
0
0
SPLINE
5
150
100
AcDbEntity
8
1
62
256
6
ByLayer
370
18
48
1
60
0
100
AcDbSpline
70
4
71
3
72
28
73
24
40
0
40
0
40
0
40
0
40
0.124999999999941
40
0.124999999999941
40
0.187499999999911
40
0.187499999999911
40
0.249999999999882
40
0.249999999999882
40
0.374999999999823
40
0.374999999999823
40
0.499999999999764
40
0.499999999999764
40
0.562499999999734
40
0.562499999999734
40
0.624999999999705
40
0.624999999999705
40
0.749999999999728
40
0.749999999999728
40
0.812499999999779
40
0.812499999999779
40
0.87499999999983
40
0.87499999999983
40
1
40
1
40
1
40
1
41
1
10
50.9624150719475
20
-2.36788680231447
30
0
41
1
10
50.9701549872703
20
-2.35378241237106
30
0
41
1
10
50.9792582144956
20
-2.34128143613052
30
0
41
1
10
50.9944019135605
20
-2.32426926218685
30
0
41
1
10
50.99973796069
20
-2.31887075390173
30
0
41
1
10
51.0106423232654
20
-2.30884684536926
30
0
41
1
10
51.016226384246
20
-2.30419764917158
30
0
41
1
10
51.0333268631696
20
-2.2912179103084
30
0
41
1
10
51.0452115820136
20
-2.283830570189
30
0
41
1
10
51.0696946398921
20
-2.27145162542138
30
0
41
1
10
51.0820166094173
20
-2.26659576059023
30
0
41
1
10
51.1005762424634
20
-2.2611791716823
30
0
41
1
10
51.1067757275392
20
-2.25968830417352
30
0
41
1
10
51.1191946371131
20
-2.25735441996625
30
0
41
1
10
51.1254163936046
20
-2.25651526683845
30
0
41
1
10
51.1437412827876
20
-2.25504644399766
30
0
41
1
10
51.1556291132158
20
-2.25542029195304
30
0
41
1
10
51.1728718988616
20
-2.25823955708068
30
0
41
1
10
51.1785204598794
20
-2.25955950036021
30
0
41
1
10
51.1895865974896
20
-2.26306796106016
30
0
41
1
10
51.1950020196064
20
-2.26526564325397
30
0
41
1
10
51.210345710995
20
-2.27313426668533
30
0
41
1
10
51.2195697965223
20
-2.28006691004171
30
0
41
1
10
51.2273959739134
20
-2.28937620687549
30
0
0
SPLINE
5
151
100
AcDbEntity
8
1
62
256
6
ByLayer
370
18
48
1
60
0
100
AcDbSpline
70
4
71
3
72
10
73
6
40
0
40
0
40
0
40
0
40
0.5
40
0.5
40
1
40
1
40
1
40
1
41
1
10
51.2273959739134
20
-2.28937620687555
30
0
41
1
10
51.2864424879712
20
-2.35961247918223
30
0
41
1
10
51.3448111429178
20
-2.42556404717101
30
0
41
1
10
51.4606304238986
20
-2.54889579292273
30
0
41
1
10
51.5178662878267
20
-2.6060514132256
30
0
41
1
10
51.5745956452607
20
-2.65868582478271
30
0
0
SPLINE
5
152
100
AcDbEntity
8
1
62
256
6
ByLayer
370
18
48
1
60
0
100
AcDbSpline
70
4
71
3
72
8
73
4
40
0
40
0
40
0
40
0
40
1
40
1
40
1
40
1
41
1
10
51.6707741721134
20
-2.60794938634814
30
0
41
1
10
51.6386971229525
20
-2.62534960354702
30
0
41
1
10
51.6066379809639
20
-2.64226083923532
30
0
41
1
10
51.5745956452607
20
-2.65868582478268
30
0
0
SPLINE
5
153
100
AcDbEntity
8
1
62
256
6
ByLayer
370
18
48
1
60
0
100
AcDbSpline
70
4
71
3
72
10
73
6
40
0
40
0
40
0
40
0
40
0.5
40
0.5
40
1
40
1
40
1
40
1
41
1
10
51.6707741721134
20
-2.60794938634814
30
0
41
1
10
51.7278057936096
20
-2.49673392917839
30
0
41
1
10
51.7853493394543
20
-2.38582058755998
30
0
41
1
10
51.9017625909041
20
-2.16504512339583
30
0
41
1
10
51.9604217601848
20
-2.0555730136501
30
0
41
1
10
52.0197815316442
20
-1.94716625842099
30
0
0
SPLINE
5
154
100
AcDbEntity
8
1
62
256
6
ByLayer
370
18
48
1
60
0
100
AcDbSpline
70
4
71
3
72
8
73
4
40
0
40
0
40
0
40
0
40
1
40
1
40
1
40
1
41
1
10
52.0197815316442
20
-1.94716625842102
30
0
41
1
10
52.0240317657556
20
-1.93940419873547
30
0
41
1
10
52.028691743716
20
-1.93192543682397
30
0
41
1
10
52.0336991301504
20
-1.92468689350539
30
0
0
SPLINE
5
155
100
AcDbEntity
8
1
62
256
6
ByLayer
370
18
48
1
60
0
100
AcDbSpline
70
4
71
3
72
12
73
8
40
0
40
0
40
0
40
0
40
0.25
40
0.25
40
0.5
40
0.5
40
1
40
1
40
1
40
1
41
1
10
45.3894513482927
20
0.0819876117450917
30
0
41
1
10
45.4128461274448
20
0.0561811064792437
30
0
41
1
10
45.4363290152997
20
0.0311624936655335
30
0
41
1
10
45.4834992889092
20
-0.0172788884234478
30
0
41
1
10
45.5071980036078
20
-0.0407214772683915
30
0
41
1
10
45.5785445301944
20
-0.108421955101534
30
0
41
1
10
45.6264547765985
20
-0.149998216064034
30
0
41
1
10
45.6749135136641
20
-0.18762912644371
30
0
0
SPLINE
5
156
100
AcDbEntity
8
1
62
256
6
ByLayer
370
18
48
1
60
0
100
AcDbSpline
70
4
71
3
72
8
73
4
40
0
40
0
40
0
40
0
40
1
40
1
40
1
40
1
41
1
10
56.0340256056248
20
-0.465688154813364
30
0
41
1
10
56.0006599120748
20
-0.413051102412169
30
0
41
1
10
55.967155855565
20
-0.361871414428862
30
0
41
1
10
55.9334856105248
20
-0.312125032965923
30
0
0
SPLINE
5
157
100
AcDbEntity
8
1
62
256
6
ByLayer
370
18
48
1
60
0
100
AcDbSpline
70
4
71
3
72
28
73
24
40
0
40
0
40
0
40
0
40
0.125
40
0.125
40
0.25
40
0.25
40
0.375
40
0.375
40
0.5
40
0.5
40
0.625
40
0.625
40
0.6875
40
0.6875
40
0.75
40
0.75
40
0.8125
40
0.8125
40
0.875
40
0.875
40
0.9375
40
0.9375
40
1
40
1
40
1
40
1
41
1
10
55.9334856105248
20
-0.312125032965923
30
0
41
1
10
55.9263374418612
20
-0.301563912169968
30
0
41
1
10
55.9180471979419
20
-0.290765923040993
30
0
41
1
10
55.8996947265678
20
-0.268828540387233
30
0
41
1
10
55.8895358768946
20
-0.257605866666978
30
0
41
1
10
55.868292225776
20
-0.235584748966829
30
0
41
1
10
55.8571479464592
20
-0.224705717158287
30
0
41
1
10
55.8338847340453
20
-0.203162912794369
30
0
41
1
10
55.8216523178718
20
-0.192410568404824
30
0
41
1
10
55.7970310422292
20
-0.171817658301506
30
0
41
1
10
55.7845831559874
20
-0.161910517141337
30
0
41
1
10
55.7657213341724
20
-0.147660669716714
30
0
41
1
10
55.7594020658002
20
-0.143013550117928
30
0
41
1
10
55.7466981347742
20
-0.133945857756942
30
0
41
1
10
55.7403514438485
20
-0.129554185990059
30
0
41
1
10
55.7279235434098
20
-0.121249000158116
30
0
41
1
10
55.721808150518
20
-0.117310531322715
30
0
41
1
10
55.7098111483274
20
-0.10992179447922
30
0
41
1
10
55.7038891935056
20
-0.106450892393525
30
0
41
1
10
55.6926808317962
20
-0.100289749250095
30
0
41
1
10
55.6873631158318
20
-0.0975766159579905
30
0
41
1
10
55.6773965682148
20
-0.0930083156852959
30
0
41
1
10
55.6727454676007
20
-0.0911584937011582
30
0
41
1
10
55.6686454740436
20
-0.0898860209178736
30
0
0
SPLINE
5
158
100
AcDbEntity
8
1
62
256
6
ByLayer
370
18
48
1
60
0
100
AcDbSpline
70
4
71
3
72
8
73
4
40
0
40
0
40
0
40
0
40
1
40
1
40
1
40
1
41
1
10
55.6686454740401
20
-0.0898860209223642
30
0
41
1
10
55.6128601551893
20
-0.0725725059267575
30
0
41
1
10
55.557519602324
20
-0.0496144482515035
30
0
41
1
10
55.5024809448663
20
-0.0213183154922376
30
0
0
SPLINE
5
159
100
AcDbEntity
8
1
62
256
6
ByLayer
370
18
48
1
60
0
100
AcDbSpline
70
4
71
3
72
8
73
4
40
0
40
0
40
0
40
0
40
1
40
1
40
1
40
1
41
1
10
55.502480944866
20
-0.0213183154922945
30
0
41
1
10
55.368334232326
20
0.0980228365390587
30
0
41
1
10
55.2364382755418
20
0.220631814866323
30
0
41
1
10
55.1056592453569
20
0.345311701429608
30
0
0
SPLINE
5
15A
100
AcDbEntity
8
1
62
256
6
ByLayer
370
18
48
1
60
0
100
AcDbSpline
70
4
71
3
72
10
73
6
40
0
40
0
40
0
40
0
40
0.5
40
0.5
40
1
40
1
40
1
40
1
41
1
10
55.105659245357
20
0.34531170142958
30
0
41
1
10
55.0677284267652
20
0.38984126279405
30
0
41
1
10
55.029596200661
20
0.432164311607977
30
0
41
1
10
54.9529530229136
20
0.512059791800965
30
0
41
1
10
54.9144648790255
20
0.549621727962801
30
0
41
1
10
54.8757145921297
20
0.58447085672401
30
0
0
SPLINE
5
15B
100
AcDbEntity
8
1
62
256
6
ByLayer
370
18
48
1
60
0
100
AcDbSpline
70
4
71
3
72
28
73
24
40
0
40
0
40
0
40
0
40
0.125
40
0.125
40
0.25
40
0.25
40
0.375
40
0.375
40
0.499999999999999
40
0.499999999999999
40
0.624999999999999
40
0.624999999999999
40
0.687499999999999
40
0.687499999999999
40
0.749999999999999
40
0.749999999999999
40
0.8125
40
0.8125
40
0.875
40
0.875
40
0.9375
40
0.9375
40
1
40
1
40
1
40
1
41
1
10
54.8757145921297
20
0.584470856724067
30
0
41
1
10
54.8685754622891
20
0.590891259642007
30
0
41
1
10
54.86030407397
20
0.59808562826376
30
0
41
1
10
54.8419986878833
20
0.613617291995155
30
0
41
1
10
54.8318716322965
20
0.622030350351281
30
0
41
1
10
54.810687098499
20
0.63934792237518
30
0
41
1
10
54.7995696121332
20
0.648306449310923
30
0
41
1
10
54.7763528146239
20
0.666844432993514
30
0
41
1
10
54.7641366594895
20
0.67651391720122
30
0
41
1
10
54.7395213525397
20
0.695928647549152
30
0
41
1
10
54.7270696731963
20
0.705716677197643
30
0
41
1
10
54.7081934538726
20
0.720595935233916
30
0
41
1
10
54.7018679830875
20
0.725588920184578
30
0
41
1
10
54.689148628626
20
0.735661871449452
30
0
41
1
10
54.6827713653326
20
0.740729042868736
30
0
41
1
10
54.6702942993795
20
0.750696799957524
30
0
41
1
10
54.6641547339222
20
0.755628688937236
30
0
41
1
10
54.6521109970322
20
0.765380751011264
30
0
41
1
10
54.6461628762166
20
0.77023754634746
30
0
41
1
10
54.6348976681918
20
0.779543747720254
30
0
41
1
10
54.6295548750078
20
0.784013286758494
30
0
41
1
10
54.6195455837359
20
0.792524923584125
30
0
41
1
10
54.6148738266087
20
0.79657328072409
30
0
41
1
10
54.6107588752684
20
0.800229645125427
30
0
0
SPLINE
5
15C
100
AcDbEntity
8
1
62
256
6
ByLayer
370
18
48
1
60
0
100
AcDbSpline
70
4
71
3
72
10
73
6
40
0
40
0
40
0
40
0
40
0.5
40
0.5
40
1
40
1
40
1
40
1
41
1
10
54.6107588752659
20
0.800229645122442
30
0
41
1
10
54.5563368185238
20
0.84858668618088
30
0
41
1
10
54.5023076752532
20
0.901365381931384
30
0
41
1
10
54.3948264445131
20
1.01579744689459
30
0
41
1
10
54.3415727745482
20
1.0771837249645
30
0
41
1
10
54.2887296615451
20
1.14237403738238
30
0
0
SPLINE
5
15D
100
AcDbEntity
8
1
62
256
6
ByLayer
370
18
48
1
60
0
100
AcDbSpline
70
4
71
3
72
8
73
4
40
0
40
0
40
0
40
0
40
1
40
1
40
1
40
1
41
1
10
54.2887296615451
20
1.14237403738235
30
0
41
1
10
54.2495974690535
20
1.18112586639097
30
0
41
1
10
54.2106486289037
20
1.2197620603178
30
0
41
1
10
54.1718642508561
20
1.25826644638693
30
0
0
SPLINE
5
15E
100
AcDbEntity
8
1
62
256
6
ByLayer
370
18
48
1
60
0
100
AcDbSpline
70
4
71
3
72
12
73
8
40
0
40
0
40
0
40
0
40
0.249999999999995
40
0.249999999999995
40
0.49999999999999
40
0.49999999999999
40
1
40
1
40
1
40
1
41
1
10
54.1718642508561
20
1.2582664463869
30
0
41
1
10
54.1428522524853
20
1.27620097478913
30
0
41
1
10
54.1137411530168
20
1.29265446872603
30
0
41
1
10
54.055270003474
20
1.32257184511633
30
0
41
1
10
54.0258964850738
20
1.33604045427094
30
0
41
1
10
53.9374821979683
20
1.37182960316628
30
0
41
1
10
53.8781046004752
20
1.38957173255667
30
0
41
1
10
53.8182586966525
20
1.40079383879464
30
0
0
SPLINE
5
15F
100
AcDbEntity
8
1
62
256
6
ByLayer
370
18
48
1
60
0
100
AcDbSpline
70
4
71
3
72
28
73
24
40
0
40
0
40
0
40
0
40
0.125000000000001
40
0.125000000000001
40
0.250000000000002
40
0.250000000000002
40
0.375000000000002
40
0.375000000000002
40
0.500000000000002
40
0.500000000000002
40
0.625000000000002
40
0.625000000000002
40
0.687500000000002
40
0.687500000000002
40
0.750000000000001
40
0.750000000000001
40
0.812500000000001
40
0.812500000000001
40
0.875000000000001
40
0.875000000000001
40
0.9375
40
0.9375
40
1
40
1
40
1
40
1
41
1
10
53.8182586966525
20
1.40079383879464
30
0
41
1
10
53.8110907302946
20
1.40213795217321
30
0
41
1
10
53.8027853633838
20
1.40471361937182
30
0
41
1
10
53.7844195463358
20
1.41171221161284
30
0
41
1
10
53.7742670611845
20
1.41619469985415
30
0
41
1
10
53.7530524897605
20
1.42653194422883
30
0
41
1
10
53.7419275849708
20
1.43240592187641
30
0
41
1
10
53.7187090841882
20
1.44554351131882
30
0
41
1
10
53.7065002223841
20
1.45288467193853
30
0
41
1
10
53.6819035059071
20
1.46862891919039
30
0
41
1
10
53.6694644626908
20
1.47705091943624
30
0
41
1
10
53.650611729055
20
1.49067465304134
30
0
41
1
10
53.6442948566651
20
1.49538266047745
30
0
41
1
10
53.6315942541954
20
1.50519132526205
30
0
41
1
10
53.6252207690113
20
1.51028701930346
30
0
41
1
10
53.6127500385819
20
1.5206608787413
30
0
41
1
10
53.606612649377
20
1.52596892996192
30
0
41
1
10
53.5945715327734
20
1.53687326599086
30
0
41
1
10
53.5886226564854
20
1.54251635685162
30
0
41
1
10
53.5773450406966
20
1.55383356341761
30
0
41
1
10
53.5719945740597
20
1.55952209073035
30
0
41
1
10
53.5619678505082
20
1.57096946876942
30
0
41
1
10
53.5572833733303
20
1.5767474467001
30
0
41
1
10
53.5531559568893
20
1.58237353252605
30
0
0
SPLINE
5
160
100
AcDbEntity
8
1
62
256
6
ByLayer
370
18
48
1
60
0
100
AcDbSpline
70
4
71
3
72
12
73
8
40
0
40
0
40
0
40
0
40
0.249999999999993
40
0.249999999999993
40
0.499999999999985
40
0.499999999999985
40
1
40
1
40
1
40
1
41
1
10
53.5531559568872
20
1.58237353252537
30
0
41
1
10
53.5244356723729
20
1.62152218348856
30
0
41
1
10
53.4958312136231
20
1.66157264202496
30
0
41
1
10
53.4388148495905
20
1.74339561058875
30
0
41
1
10
53.4103960166467
20
1.78510958764136
30
0
41
1
10
53.3253522384074
20
1.9125693251485
30
0
41
1
10
53.2692115872453
20
2.00050813628263
30
0
41
1
10
53.2135089049027
20
2.09118282137183
30
0
0
SPLINE
5
161
100
AcDbEntity
8
1
62
256
6
ByLayer
370
18
48
1
60
0
100
AcDbSpline
70
4
71
3
72
12
73
8
40
0
40
0
40
0
40
0
40
0.250000000000001
40
0.250000000000001
40
0.5
40
0.5
40
1
40
1
40
1
40
1
41
1
10
53.1173623206045
20
2.16317899851739
30
0
41
1
10
53.0881208955161
20
2.15899036720256
30
0
41
1
10
53.0587717778957
20
2.15324934740877
30
0
41
1
10
52.9998075137398
20
2.13864733895622
30
0
41
1
10
52.9701778749808
20
2.12978111455118
30
0
41
1
10
52.8809711630281
20
2.09850415108988
30
0
41
1
10
52.8210313453817
20
2.07140367923412
30
0
41
1
10
52.760638988232
20
2.03800292195575
30
0
0
SPLINE
5
162
100
AcDbEntity
8
1
62
256
6
ByLayer
370
18
48
1
60
0
100
AcDbSpline
70
4
71
3
72
28
73
24
40
0
40
0
40
0
40
0
40
0.124999999999969
40
0.124999999999969
40
0.249999999999938
40
0.249999999999938
40
0.374999999999907
40
0.374999999999907
40
0.499999999999876
40
0.499999999999876
40
0.624999999999845
40
0.624999999999845
40
0.687499999999871
40
0.687499999999871
40
0.749999999999897
40
0.749999999999897
40
0.812499999999923
40
0.812499999999923
40
0.874999999999948
40
0.874999999999948
40
0.937499999999974
40
0.937499999999974
40
1
40
1
40
1
40
1
41
1
10
52.760638988232
20
2.03800292195498
30
0
41
1
10
52.7534673766347
20
2.03403657141723
30
0
41
1
10
52.7451555525157
20
2.03158377318442
30
0
41
1
10
52.7267730251034
20
2.02896284841467
30
0
41
1
10
52.7166093814715
20
2.02883056388862
30
0
41
1
10
52.6953753009848
20
2.0306365004829
30
0
41
1
10
52.6842418826201
20
2.03255507391273
30
0
41
1
10
52.6610111703372
20
2.03837206696221
30
0
41
1
10
52.6487995151613
20
2.04232424129395
30
0
41
1
10
52.6242054715592
20
2.05213666182334
30
0
41
1
10
52.6117701177298
20
2.0579910105958
30
0
41
1
10
52.592925225829
20
2.06842935055212
30
0
41
1
10
52.5866113461572
20
2.07218763323485
30
0
41
1
10
52.5739172007343
20
2.08035219009352
30
0
41
1
10
52.5675517841184
20
2.08475387748822
30
0
41
1
10
52.5550947012103
20
2.09406774026832
30
0
41
1
10
52.5489637412012
20
2.09900347420879
30
0
41
1
10
52.5369344844118
20
2.1095260642922
30
0
41
1
10
52.5309918813218
20
2.11516173693289
30
0
41
1
10
52.5197280772442
20
2.12689103933349
30
0
41
1
10
52.5143832372398
20
2.13299669717603
30
0
41
1
10
52.5043653439006
20
2.14577204176487
30
0
41
1
10
52.4996853292171
20
2.15246681975211
30
0
41
1
10
52.4955612633312
20
2.15927484405103
30
0
0
SPLINE
5
163
100
AcDbEntity
8
1
62
256
6
ByLayer
370
18
48
1
60
0
100
AcDbSpline
70
4
71
3
72
10
73
6
40
0
40
0
40
0
40
0
40
0.5
40
0.5
40
1
40
1
40
1
40
1
41
1
10
52.4955612633289
20
2.1592748440527
30
0
41
1
10
52.4381000099878
20
2.25413210866677
30
0
41
1
10
52.3810956821881
20
2.35062858887463
30
0
41
1
10
52.2677092576498
20
2.54663115886098
30
0
41
1
10
52.2115704909595
20
2.64570538269072
30
0
41
1
10
52.1558647983157
20
2.74564016574607
30
0
0
SPLINE
5
164
100
AcDbEntity
8
1
62
256
6
ByLayer
370
18
48
1
60
0
100
AcDbSpline
70
4
71
3
72
12
73
8
40
0
40
0
40
0
40
0
40
0.25
40
0.25
40
0.499999999999999
40
0.499999999999999
40
1
40
1
40
1
40
1
41
1
10
52.0596618020747
20
2.78841305424069
30
0
41
1
10
52.0305196685141
20
2.76254686285844
30
0
41
1
10
52.0012130910009
20
2.73512752234558
30
0
41
1
10
51.9423138122378
20
2.67749666872098
30
0
41
1
10
51.9127053937806
20
2.6472643757231
30
0
41
1
10
51.8235430829466
20
2.55252907139567
30
0
41
1
10
51.763610796873
20
2.48393830722796
30
0
41
1
10
51.7032203988268
20
2.41019469031244
30
0
0
SPLINE
5
165
100
AcDbEntity
8
1
62
256
6
ByLayer
370
18
48
1
60
0
100
AcDbSpline
70
4
71
3
72
28
73
24
40
0
40
0
40
0
40
0
40
0.125
40
0.125
40
0.25
40
0.25
40
0.375
40
0.375
40
0.5
40
0.5
40
0.625
40
0.625
40
0.6875
40
0.6875
40
0.75
40
0.75
40
0.8125
40
0.8125
40
0.875
40
0.875
40
0.9375
40
0.9375
40
1
40
1
40
1
40
1
41
1
10
51.703220398825
20
2.41019469031025
30
0
41
1
10
51.6960521263068
20
2.40144140568898
30
0
41
1
10
51.6877386076177
20
2.39428302023941
30
0
41
1
10
51.6693402683224
20
2.3823924291253
30
0
41
1
10
51.6591594904961
20
2.37766617185085
30
0
41
1
10
51.6378852125161
20
2.37072137629519
30
0
41
1
10
51.6267298855449
20
2.36844709890852
30
0
41
1
10
51.6034543797727
20
2.36622102710018
30
0
41
1
10
51.5912221036032
20
2.36629364257988
30
0
41
1
10
51.5666079240596
20
2.36895342315179
30
0
41
1
10
51.5541663497725
20
2.37150992318655
30
0
41
1
10
51.5353199132919
20
2.37745683191261
30
0
41
1
10
51.5290068158214
20
2.37979456436591
30
0
41
1
10
51.5163171608593
20
2.38529050388874
30
0
41
1
10
51.5099760960456
20
2.38843872847224
30
0
41
1
10
51.4975590041345
20
2.39550569415533
30
0
41
1
10
51.4914485855506
20
2.39943762030325
30
0
41
1
10
51.4794609682709
20
2.40822609046268
30
0
41
1
10
51.4735426174549
20
2.41312573719034
30
0
41
1
10
51.4623343288218
20
2.42373658259419
30
0
41
1
10
51.4570151740452
20
2.42945917904908
30
0
41
1
10
51.4470430120409
20
2.4418801376496
30
0
41
1
10
51.4423852860591
20
2.44860452865947
30
0
41
1
10
51.4382779770083
20
2.4556887856663
30
0
0
SPLINE
5
166
100
AcDbEntity
8
1
62
256
6
ByLayer
370
18
48
1
60
0
100
AcDbSpline
70
4
71
3
72
10
73
6
40
0
40
0
40
0
40
0
40
0.5
40
0.5
40
1
40
1
40
1
40
1
41
1
10
51.4382779770057
20
2.45568878567053
30
0
41
1
10
51.3807436564982
20
2.55492356644447
30
0
41
1
10
51.3236980692417
20
2.65367243301947
30
0
41
1
10
51.2102500822863
20
2.85011103803348
30
0
41
1
10
51.1541011030833
20
2.94735859987486
30
0
41
1
10
51.0983889745284
20
3.04351590197689
30
0
0
SPLINE
5
167
100
AcDbEntity
8
1
62
256
6
ByLayer
370
18
48
1
60
0
100
AcDbSpline
70
4
71
3
72
14
73
10
40
0
40
0
40
0
40
0
40
0.25
40
0.25
40
0.5
40
0.5
40
0.75
40
0.75
40
1
40
1
40
1
40
1
41
1
10
51.0021738739767
20
3.05138322291575
30
0
41
1
10
50.973003818489
20
3.00719533225421
30
0
41
1
10
50.9437329754691
20
2.96198550207205
30
0
41
1
10
50.8848958714689
20
2.86942855502551
30
0
41
1
10
50.8553092049955
20
2.82204521886584
30
0
41
1
10
50.7958474045257
20
2.72522576224929
30
0
41
1
10
50.7659553591756
20
2.67576766383337
30
0
41
1
10
50.7059002500784
20
2.57497135840029
30
0
41
1
10
50.6757526805269
20
2.52365990369176
30
0
41
1
10
50.6454591300282
20
2.4714503625392
30
0
0
SPLINE
5
168
100
AcDbEntity
8
1
62
256
6
ByLayer
370
18
48
1
60
0
100
AcDbSpline
70
4
71
3
72
28
73
24
40
0
40
0
40
0
40
0
40
0.125000000000032
40
0.125000000000032
40
0.250000000000064
40
0.250000000000064
40
0.375000000000096
40
0.375000000000096
40
0.500000000000128
40
0.500000000000128
40
0.62500000000016
40
0.62500000000016
40
0.687500000000133
40
0.687500000000133
40
0.750000000000107
40
0.750000000000107
40
0.81250000000008
40
0.81250000000008
40
0.875000000000054
40
0.875000000000054
40
0.937500000000027
40
0.937500000000027
40
1
40
1
40
1
40
1
41
1
10
50.6454591300283
20
2.47145036253929
30
0
41
1
10
50.6383039691117
20
2.4591187717493
30
0
41
1
10
50.6300060022214
20
2.44825285905804
30
0
41
1
10
50.6116367993811
20
2.42876185649598
30
0
41
1
10
50.6014687299631
20
2.42011150884309
30
0
41
1
10
50.5802113452409
20
2.40541007545974
30
0
41
1
10
50.5690615548522
20
2.39927626875553
30
0
41
1
10
50.5457888446358
20
2.38935804122929
30
0
41
1
10
50.5335531390488
20
2.38556585159546
30
0
41
1
10
50.5089288002819
20
2.38077271328464
30
0
41
1
10
50.4964800452207
20
2.37971791701102
30
0
41
1
10
50.4776209004459
20
2.38042529127517
30
0
41
1
10
50.4713032657351
20
2.38104633053848
30
0
41
1
10
50.4586039785866
20
2.38317418393862
30
0
41
1
10
50.4522611062791
20
2.38468029376978
30
0
41
1
10
50.4398404155532
20
2.38861808738346
30
0
41
1
10
50.4337288397573
20
2.39105361678469
30
0
41
1
10
50.4217403601545
20
2.39700345333532
30
0
41
1
10
50.4158229040776
20
2.4005520264252
30
0
41
1
10
50.4046210209202
20
2.4087176395156
30
0
41
1
10
50.3993059774459
20
2.41333920414792
30
0
41
1
10
50.3893435250619
20
2.42384082901549
30
0
41
1
10
50.3846924721982
20
2.42974646467886
30
0
41
1
10
50.3805915818028
20
2.43620790377122
30
0
0
SPLINE
5
169
100
AcDbEntity
8
1
62
256
6
ByLayer
370
18
48
1
60
0
100
AcDbSpline
70
4
71
3
72
10
73
6
40
0
40
0
40
0
40
0
40
0.5
40
0.5
40
1
40
1
40
1
40
1
41
1
10
50.3805915818
20
2.43620790377759
30
0
41
1
10
50.3230860363248
20
2.52681470956355
30
0
41
1
10
50.2660626138948
20
2.61482559152208
30
0
41
1
10
50.1526528806797
20
2.78584357863278
30
0
41
1
10
50.0965224068689
20
2.86845996524022
30
0
41
1
10
50.0408295306706
20
2.94818717010705
30
0
0
SPLINE
5
16A
100
AcDbEntity
8
1
62
256
6
ByLayer
370
18
48
1
60
0
100
AcDbSpline
70
4
71
3
72
8
73
4
40
0
40
0
40
0
40
0
40
1
40
1
40
1
40
1
41
1
10
49.9445454432051
20
2.91980959449449
30
0
41
1
10
49.9766358978096
20
2.9298121726662
30
0
41
1
10
50.0087266020025
20
2.93927157026701
30
0
41
1
10
50.0408295306687
20
2.94818717012549
30
0
0
SPLINE
5
16B
100
AcDbEntity
8
1
62
256
6
ByLayer
370
18
48
1
60
0
100
AcDbSpline
70
4
71
3
72
12
73
8
40
0
40
0
40
0
40
0
40
0.25
40
0.25
40
0.500000000000001
40
0.500000000000001
40
1
40
1
40
1
40
1
41
1
10
49.9445454432051
20
2.91980959449447
30
0
41
1
10
49.9152997990471
20
2.86273844373784
30
0
41
1
10
49.8859577101481
20
2.80512755316079
30
0
41
1
10
49.8270145901727
20
2.68882906535043
30
0
41
1
10
49.7973983783966
20
2.63011150444856
30
0
41
1
10
49.7082137358853
20
2.45267038720743
30
0
41
1
10
49.6482599713692
20
2.33256127202168
30
0
41
1
10
49.5877569077469
20
2.2111783752795
30
0
0
SPLINE
5
16C
100
AcDbEntity
8
1
62
256
6
ByLayer
370
18
48
1
60
0
100
AcDbSpline
70
4
71
3
72
28
73
24
40
0
40
0
40
0
40
0
40
0.125
40
0.125
40
0.25
40
0.25
40
0.375
40
0.375
40
0.5
40
0.5
40
0.625
40
0.625
40
0.6875
40
0.6875
40
0.75
40
0.75
40
0.8125
40
0.8125
40
0.875
40
0.875
40
0.9375
40
0.9375
40
1
40
1
40
1
40
1
41
1
10
49.5877569077451
20
2.21117837527586
30
0
41
1
10
49.5806062261439
20
2.19683248278014
30
0
41
1
10
49.5723198079922
20
2.18364147246041
30
0
41
1
10
49.5539865328373
20
2.15902905165939
30
0
41
1
10
49.5438451439351
20
2.14755745799067
30
0
41
1
10
49.5226423760543
20
2.12696048295118
30
0
41
1
10
49.5115203956316
20
2.11773553720457
30
0
41
1
10
49.4882955214987
20
2.10134989551176
30
0
41
1
10
49.4760764603611
20
2.09414746594791
30
0
41
1
10
49.4514552540377
20
2.08244770900566
30
0
41
1
10
49.4389998429329
20
2.07788337006025
30
0
41
1
10
49.4201216886908
20
2.07321267963155
30
0
41
1
10
49.4137962067269
20
2.072021844402
30
0
41
1
10
49.4010792555306
20
2.07047771965154
30
0
41
1
10
49.3947081161591
20
2.07013356272222
30
0
41
1
10
49.382244238227
20
2.07041342671892
30
0
41
1
10
49.3761126007109
20
2.07103047595919
30
0
41
1
10
49.3640879859913
20
2.07336197568264
30
0
41
1
10
49.3581509715063
20
2.07509824362569
30
0
41
1
10
49.3469058491241
20
2.07977174562345
30
0
41
1
10
49.3415732052941
20
2.08270227589011
30
0
41
1
10
49.3315831757627
20
2.08994743394282
30
0
41
1
10
49.3269177120628
20
2.09428896562574
30
0
41
1
10
49.3228060790722
20
2.09931662198142
30
0
0
SPLINE
5
16D
100
AcDbEntity
8
1
62
256
6
ByLayer
370
18
48
1
60
0
100
AcDbSpline
70
4
71
3
72
8
73
4
40
0
40
0
40
0
40
0
40
1
40
1
40
1
40
1
41
1
10
49.3228060790702
20
2.09931662198673
30
0
41
1
10
49.3007753844232
20
2.12625549572061
30
0
41
1
10
49.2788143552606
20
2.15254801127071
30
0
41
1
10
49.2569120938249
20
2.17822985398868
30
0
0
SPLINE
5
16E
100
AcDbEntity
8
1
62
256
6
ByLayer
370
18
48
1
60
0
100
AcDbSpline
70
4
71
3
72
10
73
6
40
0
40
0
40
0
40
0
40
0.123072503107633
40
0.123072503107633
40
1
40
1
40
1
40
1
41
1
10
49.1755714435421
20
2.27112715636065
30
0
41
1
10
49.167603454729
20
2.27998261661304
30
0
41
1
10
49.1596418353565
20
2.28875827104241
30
0
41
1
10
49.0949998900072
20
2.35941470147196
30
0
41
1
10
49.0388626785226
20
2.41705363830263
30
0
41
1
10
48.9831662608317
20
2.470317274667
30
0
0
SPLINE
5
16F
100
AcDbEntity
8
1
62
256
6
ByLayer
370
18
48
1
60
0
100
AcDbSpline
70
4
71
3
72
8
73
4
40
0
40
0
40
0
40
0
40
1
40
1
40
1
40
1
41
1
10
48.8869835556482
20
2.40995737240919
30
0
41
1
10
48.9190319768595
20
2.43053456626421
30
0
41
1
10
48.9510896641577
20
2.45065547961818
30
0
41
1
10
48.9831662608297
20
2.47031727468408
30
0
0
SPLINE
5
170
100
AcDbEntity
8
1
62
256
6
ByLayer
370
18
48
1
60
0
100
AcDbSpline
70
4
71
3
72
12
73
8
40
0
40
0
40
0
40
0
40
0.490932582062684
40
0.490932582062684
40
0.981865164125367
40
0.981865164125367
40
1
40
1
40
1
40
1
41
1
10
48.8869835556482
20
2.40995737240919
30
0
41
1
10
48.857717259152
20
2.34765465326603
30
0
41
1
10
48.8283525736179
20
2.28536874207342
30
0
41
1
10
48.7693726448616
20
2.16085534216657
30
0
41
1
10
48.7397431160778
20
2.09859799387101
30
0
41
1
10
48.708913811344
20
2.03419783658285
30
0
41
1
10
48.7078154061464
20
2.03190384300166
30
0
41
1
10
48.7067168478528
20
2.02961002780057
30
0
0
SPLINE
5
171
100
AcDbEntity
8
1
62
256
6
ByLayer
370
18
48
1
60
0
100
AcDbSpline
70
4
71
3
72
12
73
8
40
0
40
0
40
0
40
0
40
0.499999999999987
40
0.499999999999987
40
0.749999999999993
40
0.749999999999993
40
1
40
1
40
1
40
1
41
1
10
46.6447399831372
20
2.47013721691405
30
0
41
1
10
46.7038627459867
20
2.57210679603202
30
0
41
1
10
46.7622668006027
20
2.67217580006471
30
0
41
1
10
46.8490764629009
20
2.81915469554855
30
0
41
1
10
46.8778394214092
20
2.86755797601091
30
0
41
1
10
46.9350713893387
20
2.96318317230774
30
0
41
1
10
46.9635422673038
20
3.01040715132336
30
0
41
1
10
46.9918966689206
20
3.05704276646134
30
0
0
SPLINE
5
172
100
AcDbEntity
8
1
62
256
6
ByLayer
370
18
48
1
60
0
100
AcDbSpline
70
4
71
3
72
8
73
4
40
0
40
0
40
0
40
0
40
1
40
1
40
1
40
1
41
1
10
47.2886609460028
20
2.71590135548442
30
0
41
1
10
47.3377997048708
20
2.63132720630759
30
0
41
1
10
47.3873260773005
20
2.54529291580369
30
0
41
1
10
47.4373960413118
20
2.45784440935262
30
0
0
SPLINE
5
173
100
AcDbEntity
8
1
62
256
6
ByLayer
370
18
48
1
60
0
100
AcDbSpline
70
4
71
3
72
28
73
24
40
0
40
0
40
0
40
0
40
0.124999999999936
40
0.124999999999936
40
0.187499999999903
40
0.187499999999903
40
0.24999999999987
40
0.24999999999987
40
0.37499999999988
40
0.37499999999988
40
0.49999999999989
40
0.49999999999989
40
0.562499999999895
40
0.562499999999895
40
0.624999999999901
40
0.624999999999901
40
0.749999999999911
40
0.749999999999911
40
0.812499999999916
40
0.812499999999916
40
0.874999999999921
40
0.874999999999921
40
1
40
1
40
1
40
1
41
1
10
47.4373960413119
20
2.45784440935262
30
0
41
1
10
47.4451143152055
20
2.44436424139761
30
0
41
1
10
47.4541925929177
20
2.43269952896122
30
0
41
1
10
47.469300825009
20
2.41717807591283
30
0
41
1
10
47.4746258091086
20
2.41231982260192
30
0
41
1
10
47.4855136860096
20
2.40342509037367
30
0
41
1
10
47.4910903735072
20
2.39936782052155
30
0
41
1
10
47.508171181285
20
2.38823892929077
30
0
41
1
10
47.5200416264831
20
2.38218898328253
30
0
41
1
10
47.544521203631
20
2.37266003380233
30
0
41
1
10
47.5568429863508
20
2.36928977154042
30
0
41
1
10
47.5754045025934
20
2.36619437746918
30
0
41
1
10
47.5816049869621
20
2.36549287169717
30
0
41
1
10
47.5940267335944
20
2.36477140298007
30
0
41
1
10
47.6002530228882
20
2.36475579119937
30
0
41
1
10
47.6185904349783
20
2.36576512331783
30
0
41
1
10
47.6304855186217
20
2.36781567303365
30
0
41
1
10
47.6477387572412
20
2.37319793794907
30
0
41
1
10
47.6533907332147
20
2.37538028434503
30
0
41
1
10
47.664463787553
20
2.38063321786825
30
0
41
1
10
47.6698826605363
20
2.38371330588387
30
0
41
1
10
47.6852325952091
20
2.39417875363961
30
0
41
1
10
47.6944571134205
20
2.40280351308283
30
0
41
1
10
47.702280762031
20
2.41374775803544
30
0
0
SPLINE
5
174
100
AcDbEntity
8
1
62
256
6
ByLayer
370
18
48
1
60
0
100
AcDbSpline
70
4
71
3
72
10
73
6
40
0
40
0
40
0
40
0
40
0.5
40
0.5
40
1
40
1
40
1
40
1
41
1
10
47.702280762031
20
2.41374775803547
30
0
41
1
10
47.7613479327326
20
2.49637488215677
30
0
41
1
10
47.8197190230721
20
2.5753256444815
30
0
41
1
10
47.935503819128
20
2.72571477193898
30
0
41
1
10
47.9926901570225
20
2.79686371219327
30
0
41
1
10
48.0493279543759
20
2.86382804825101
30
0
0
SPLINE
5
175
100
AcDbEntity
8
1
62
256
6
ByLayer
370
18
48
1
60
0
100
AcDbSpline
70
4
71
3
72
8
73
4
40
0
40
0
40
0
40
0
40
1
40
1
40
1
40
1
41
1
10
48.1456015047078
20
2.82672430739746
30
0
41
1
10
48.1135506449901
20
2.83963825411544
30
0
41
1
10
48.0814674717406
20
2.85200697827994
30
0
41
1
10
48.0493279543758
20
2.86382804825112
30
0
0
SPLINE
5
176
100
AcDbEntity
8
1
62
256
6
ByLayer
370
18
48
1
60
0
100
AcDbSpline
70
4
71
3
72
10
73
6
40
0
40
0
40
0
40
0
40
0.5
40
0.5
40
1
40
1
40
1
40
1
41
1
10
48.145601504708
20
2.82672430738623
30
0
41
1
10
48.2025336884379
20
2.71706687686924
30
0
41
1
10
48.2600302361167
20
2.60675165590021
30
0
41
1
10
48.3765573909802
20
2.38527693084615
30
0
41
1
10
48.4353491420216
20
2.27457076621064
30
0
41
1
10
48.4949388454566
20
2.16403308545006
30
0
0
SPLINE
5
177
100
AcDbEntity
8
1
62
256
6
ByLayer
370
18
48
1
60
0
100
AcDbSpline
70
4
71
3
72
28
73
24
40
0
40
0
40
0
40
0
40
0.124999999999943
40
0.124999999999943
40
0.187499999999914
40
0.187499999999914
40
0.249999999999885
40
0.249999999999885
40
0.374999999999905
40
0.374999999999905
40
0.499999999999924
40
0.499999999999924
40
0.562499999999934
40
0.562499999999934
40
0.624999999999944
40
0.624999999999944
40
0.749999999999963
40
0.749999999999963
40
0.812499999999972
40
0.812499999999972
40
0.874999999999981
40
0.874999999999981
40
1
40
1
40
1
40
1
41
1
10
48.4949388454566
20
2.16403308545006
30
0
41
1
10
48.5026635082291
20
2.14970399404149
30
0
41
1
10
48.5117479728228
20
2.13662031659166
30
0
41
1
10
48.5268633987471
20
2.11835349970426
30
0
41
1
10
48.5321903344673
20
2.11246708287942
30
0
41
1
10
48.5430806612948
20
2.1013664907664
30
0
41
1
10
48.5486582449499
20
2.09612926753815
30
0
41
1
10
48.5657409297175
20
2.08125238528038
30
0
41
1
10
48.577611568468
20
2.07242435804892
30
0
41
1
10
48.6020897048086
20
2.05683505484572
30
0
41
1
10
48.6144106386282
20
2.05025337259761
30
0
41
1
10
48.6329707772977
20
2.04206997301964
30
0
41
1
10
48.6391707844843
20
2.03962683119212
30
0
41
1
10
48.6515914885478
20
2.03532492116997
30
0
41
1
10
48.6578177148042
20
2.03346824922647
30
0
41
1
10
48.6761553816215
20
2.02890704959248
30
0
41
1
10
48.6880508547277
20
2.02714788644576
30
0
41
1
10
48.7053043225641
20
2.0266392054404
30
0
41
1
10
48.7109563131257
20
2.0268282484156
30
0
41
1
10
48.7220291203107
20
2.02802469894237
30
0
41
1
10
48.7274501397833
20
2.02904110382053
30
0
41
1
10
48.7428063829871
20
2.03339064041319
30
0
41
1
10
48.7520347125189
20
2.03797544482958
30
0
41
1
10
48.7598611554133
20
2.04493612446444
30
0
0
SPLINE
5
178
100
AcDbEntity
8
1
62
256
6
ByLayer
370
18
48
1
60
0
100
AcDbSpline
70
4
71
3
72
10
73
6
40
0
40
0
40
0
40
0
40
0.5
40
0.5
40
1
40
1
40
1
40
1
41
1
10
48.7598611554151
20
2.04493612446626
30
0
41
1
10
48.8188841352409
20
2.0974299660806
30
0
41
1
10
48.8772314344594
20
2.14497361694379
30
0
41
1
10
48.9930124411033
20
2.23015214269895
30
0
41
1
10
49.0502251062006
20
2.26763147760184
30
0
41
1
10
49.1069198291362
20
2.30002077821936
30
0
0
SPLINE
5
179
100
AcDbEntity
8
1
62
256
6
ByLayer
370
18
48
1
60
0
100
AcDbSpline
70
4
71
3
72
10
73
6
40
0
40
0
40
0
40
0
40
0.5
40
0.5
40
1
40
1
40
1
40
1
41
1
10
49.2030769833625
20
2.23276143267145
30
0
41
1
10
49.2601476082593
20
2.12265874581575
30
0
41
1
10
49.31772465348
20
2.01392033596335
30
0
41
1
10
49.4342014272074
20
1.79965100041315
30
0
41
1
10
49.4928877952904
20
1.69449368717798
30
0
41
1
10
49.5523756606406
20
1.59170814929155
30
0
0
SPLINE
5
17A
100
AcDbEntity
8
1
62
256
6
ByLayer
370
18
48
1
60
0
100
AcDbSpline
70
4
71
3
72
28
73
24
40
0
40
0
40
0
40
0
40
0.125000000000001
40
0.125000000000001
40
0.187500000000001
40
0.187500000000001
40
0.25
40
0.25
40
0.375
40
0.375
40
0.5
40
0.5
40
0.562499999999999
40
0.562499999999999
40
0.624999999999998
40
0.624999999999998
40
0.749999999999998
40
0.749999999999998
40
0.812499999999999
40
0.812499999999999
40
0.875
40
0.875
40
1
40
1
40
1
40
1
41
1
10
49.5523756606406
20
1.59170814929158
30
0
41
1
10
49.5601162467262
20
1.57833365182606
30
0
41
1
10
49.569216142638
20
1.56546983506357
30
0
41
1
10
49.5843488440614
20
1.54673909944961
30
0
41
1
10
49.5896804578917
20
1.54055848732165
30
0
41
1
10
49.6005778188965
20
1.52863348035169
30
0
41
1
10
49.6061580534237
20
1.52286671751293
30
0
41
1
10
49.6232461615105
20
1.50608564635175
30
0
41
1
10
49.6351142650164
20
1.49557068332749
30
0
41
1
10
49.6595917695346
20
1.47582766512241
30
0
41
1
10
49.6719109294616
20
1.46683182404112
30
0
41
1
10
49.6904659046645
20
1.45453803891809
30
0
41
1
10
49.6966637662033
20
1.45064234688562
30
0
41
1
10
49.7090791860082
20
1.44326242575397
30
0
41
1
10
49.7153057667863
20
1.4397757361578
30
0
41
1
10
49.7336456882915
20
1.43014694391277
30
0
41
1
10
49.7455417398655
20
1.42474853817845
30
0
41
1
10
49.7627942083945
20
1.41832938887188
30
0
41
1
10
49.7684455600987
20
1.41647229401198
30
0
41
1
10
49.7795164034575
20
1.41340067690552
30
0
41
1
10
49.7849460306833
20
1.41218971168459
30
0
41
1
10
49.8003296012483
20
1.40976878298997
30
0
41
1
10
49.8095746675453
20
1.40966441757072
30
0
41
1
10
49.8174143460663
20
1.41169388450066
30
0
0
SPLINE
5
17B
100
AcDbEntity
8
1
62
256
6
ByLayer
370
18
48
1
60
0
100
AcDbSpline
70
4
71
3
72
10
73
6
40
0
40
0
40
0
40
0
40
0.5
40
0.5
40
1
40
1
40
1
40
1
41
1
10
49.8174143460682
20
1.41169388450137
30
0
41
1
10
49.8764422587311
20
1.42697451066445
30
0
41
1
10
49.9347996870869
20
1.43663922835222
30
0
41
1
10
50.0506111684302
20
1.44495764387739
30
0
41
1
10
50.1078534910716
20
1.44360678701577
30
0
41
1
10
50.1645976590816
20
1.43688641066834
30
0
0
SPLINE
5
17C
100
AcDbEntity
8
1
62
256
6
ByLayer
370
18
48
1
60
0
100
AcDbSpline
70
4
71
3
72
8
73
4
40
0
40
0
40
0
40
0
40
1
40
1
40
1
40
1
41
1
10
50.2607186374445
20
1.34803634845565
30
0
41
1
10
50.2286670480725
20
1.37790903210544
30
0
41
1
10
50.1966270756695
20
1.40752586809126
30
0
41
1
10
50.1645976590816
20
1.43688641066834
30
0
0
SPLINE
5
17D
100
AcDbEntity
8
1
62
256
6
ByLayer
370
18
48
1
60
0
100
AcDbSpline
70
4
71
3
72
10
73
6
40
0
40
0
40
0
40
0
40
0.5
40
0.5
40
1
40
1
40
1
40
1
41
1
10
50.2607186374445
20
1.34803634845568
30
0
41
1
10
50.3177249417391
20
1.25229192904772
30
0
41
1
10
50.3752582119638
20
1.15978173511073
30
0
41
1
10
50.4916874532303
20
0.981703635855212
30
0
41
1
10
50.5503668015822
20
0.896436252258894
30
0
41
1
10
50.6097541940711
20
0.815157412004851
30
0
0
SPLINE
5
17E
100
AcDbEntity
8
1
62
256
6
ByLayer
370
18
48
1
60
0
100
AcDbSpline
70
4
71
3
72
28
73
24
40
0
40
0
40
0
40
0
40
0.125000000000068
40
0.125000000000068
40
0.187500000000102
40
0.187500000000102
40
0.250000000000136
40
0.250000000000136
40
0.375000000000128
40
0.375000000000128
40
0.500000000000119
40
0.500000000000119
40
0.562500000000115
40
0.562500000000115
40
0.625000000000111
40
0.625000000000111
40
0.750000000000104
40
0.750000000000104
40
0.812500000000061
40
0.812500000000061
40
0.875000000000019
40
0.875000000000019
40
1
40
1
40
1
40
1
41
1
10
50.6097541940713
20
0.815157412004623
30
0
41
1
10
50.6175181919803
20
0.804531440408113
30
0
41
1
10
50.6266529942012
20
0.793599425766331
30
0
41
1
10
50.6418459725598
20
0.776880333149506
30
0
41
1
10
50.6471984183183
20
0.771220013379491
30
0
41
1
10
50.6581306156982
20
0.760043522691149
30
0
41
1
10
50.6637277465825
20
0.754505949182715
30
0
41
1
10
50.6808637750001
20
0.738022667533386
30
0
41
1
10
50.692772153812
20
0.727180217303697
30
0
41
1
10
50.7172663720007
20
0.705868275784923
30
0
41
1
10
50.7295880691126
20
0.695626502258904
30
0
41
1
10
50.7481372595136
20
0.680802873685565
30
0
41
1
10
50.7543315887108
20
0.675952534919958
30
0
41
1
10
50.7667374501326
20
0.666432557795247
30
0
41
1
10
50.7729473339237
20
0.661765366875187
30
0
41
1
10
50.7912394128002
20
0.648300190736364
30
0
41
1
10
50.8031072749653
20
0.639937812796376
30
0
41
1
10
50.8203276455354
20
0.628394017902025
30
0
41
1
10
50.8259699889083
20
0.624714494875292
30
0
41
1
10
50.8370269559904
20
0.617737781680546
30
0
41
1
10
50.8424396953183
20
0.614444194013316
30
0
41
1
10
50.8577834842393
20
0.605520647078833
30
0
41
1
10
50.8670176181629
20
0.600699973371604
30
0
41
1
10
50.8748585737055
20
0.597491634215316
30
0
0
SPLINE
5
17F
100
AcDbEntity
8
1
62
256
6
ByLayer
370
18
48
1
60
0
100
AcDbSpline
70
4
71
3
72
10
73
6
40
0
40
0
40
0
40
0
40
0.5
40
0.5
40
1
40
1
40
1
40
1
41
1
10
50.8748585737055
20
0.597491634215459
30
0
41
1
10
50.9339185901948
20
0.573325630155352
30
0
41
1
10
50.9923109800201
20
0.543649762358399
30
0
41
1
10
51.1081800617688
20
0.473450065390949
30
0
41
1
10
51.1654517077254
20
0.433093300028673
30
0
41
1
10
51.2222351967197
20
0.387719593534456
30
0
0
SPLINE
5
180
100
AcDbEntity
8
1
62
256
6
ByLayer
370
18
48
1
60
0
100
AcDbSpline
70
4
71
3
72
8
73
4
40
0
40
0
40
0
40
0
40
1
40
1
40
1
40
1
41
1
10
51.3183849165484
20
0.288230479487055
30
0
41
1
10
51.2863059366837
20
0.321446807794303
30
0
41
1
10
51.2542570171004
20
0.354610819084428
30
0
41
1
10
51.2222351967197
20
0.387719593534456
30
0
0
SPLINE
5
181
100
AcDbEntity
8
1
62
256
6
ByLayer
370
18
48
1
60
0
100
AcDbSpline
70
4
71
3
72
10
73
6
40
0
40
0
40
0
40
0
40
0.5
40
0.5
40
1
40
1
40
1
40
1
41
1
10
51.3183849165487
20
0.288230479485293
30
0
41
1
10
51.3753315265955
20
0.218986724808445
30
0
41
1
10
51.4328245285338
20
0.154470276707514
30
0
41
1
10
51.5492098399246
20
0.0352847653453807
30
0
41
1
10
51.6078769892438
20
-0.0191827456132785
30
0
41
1
10
51.6672702441517
20
-0.0683343188881054
30
0
0
SPLINE
5
182
100
AcDbEntity
8
1
62
256
6
ByLayer
370
18
48
1
60
0
100
AcDbSpline
70
4
71
3
72
28
73
24
40
0
40
0
40
0
40
0
40
0.125000000000001
40
0.125000000000001
40
0.187500000000002
40
0.187500000000002
40
0.250000000000002
40
0.250000000000002
40
0.375000000000002
40
0.375000000000002
40
0.500000000000002
40
0.500000000000002
40
0.562500000000002
40
0.562500000000002
40
0.625000000000002
40
0.625000000000002
40
0.750000000000001
40
0.750000000000001
40
0.812500000000001
40
0.812500000000001
40
0.875000000000001
40
0.875000000000001
40
1
40
1
40
1
40
1
41
1
10
51.6672702441517
20
-0.068334318888077
30
0
41
1
10
51.6750184220586
20
-0.0747464128999695
30
0
41
1
10
51.6841386606572
20
-0.0822373926871194
30
0
41
1
10
51.6993182223259
20
-0.094632118696012
30
0
41
1
10
51.704667499645
20
-0.0989894225646708
30
0
41
1
10
51.7155946713961
20
-0.107875531098671
30
0
41
1
10
51.7211904898517
20
-0.112419105232334
30
0
41
1
10
51.7383265694527
20
-0.12632426827264
30
0
41
1
10
51.7502467426143
20
-0.135984907546373
30
0
41
1
10
51.7747496975493
20
-0.155901062800723
30
0
41
1
10
51.7870794016049
20
-0.165950942431266
30
0
41
1
10
51.8056457436548
20
-0.181201826942129
30
0
41
1
10
51.8118466687011
20
-0.186315064897514
30
0
41
1
10
51.8242669641929
20
-0.196610781988028
30
0
41
1
10
51.8304760617831
20
-0.201785088063843
30
0
41
1
10
51.8487678372038
20
-0.217131053316678
30
0
41
1
10
51.8606354309492
20
-0.227224265082839
30
0
41
1
10
51.8778522014363
20
-0.242174103305445
30
0
41
1
10
51.8834928433152
20
-0.247125252544009
30
0
41
1
10
51.8945451830249
20
-0.256958240981533
30
0
41
1
10
51.899934029521
20
-0.261821057530341
30
0
41
1
10
51.9152172104595
20
-0.27584920420037
30
0
41
1
10
51.9244142220143
20
-0.284614513808037
30
0
41
1
10
51.9322280055185
20
-0.292527656197166
30
0
0
SPLINE
5
183
100
AcDbEntity
8
1
62
256
6
ByLayer
370
18
48
1
60
0
100
AcDbSpline
70
4
71
3
72
14
73
10
40
0
40
0
40
0
40
0
40
0.25
40
0.25
40
0.5
40
0.5
40
0.75
40
0.75
40
1
40
1
40
1
40
1
41
1
10
51.9322280055206
20
-0.292527656198729
30
0
41
1
10
51.9618225488579
20
-0.322498519256925
30
0
41
1
10
51.9912312080324
20
-0.353726666706535
30
0
41
1
10
52.0497248997877
20
-0.418723515313502
30
0
41
1
10
52.0788047195264
20
-0.452520401747677
30
0
41
1
10
52.136724267219
20
-0.522503454452277
30
0
41
1
10
52.1655229242929
20
-0.558597190369625
30
0
41
1
10
52.22283301815
20
-0.63278030899545
30
0
41
1
10
52.2513455541222
20
-0.670902795425803
30
0
41
1
10
52.2797328651455
20
-0.710075099421658
30
0
0
SPLINE
5
184
100
AcDbEntity
8
1
62
256
6
ByLayer
370
18
48
1
60
0
100
AcDbSpline
70
4
71
3
72
10
73
6
40
0
40
0
40
0
40
0
40
0.5
40
0.5
40
1
40
1
40
1
40
1
41
1
10
52.3760096418607
20
-0.807982168543532
30
0
41
1
10
52.4329079257315
20
-0.842233828022188
30
0
41
1
10
52.4903678495889
20
-0.870832722756717
30
0
41
1
10
52.6067459725231
20
-0.91645522006047
30
0
41
1
10
52.6654348429518
20
-0.933407381669355
30
0
41
1
10
52.7248787939475
20
-0.944358446283275
30
0
0
SPLINE
5
185
100
AcDbEntity
8
1
62
256
6
ByLayer
370
18
48
1
60
0
100
AcDbSpline
70
4
71
3
72
28
73
24
40
0
40
0
40
0
40
0
40
0.124999999999987
40
0.124999999999987
40
0.187499999999981
40
0.187499999999981
40
0.249999999999976
40
0.249999999999976
40
0.374999999999965
40
0.374999999999965
40
0.499999999999953
40
0.499999999999953
40
0.562499999999947
40
0.562499999999947
40
0.624999999999941
40
0.624999999999941
40
0.750000000000013
40
0.750000000000013
40
0.81250000000001
40
0.81250000000001
40
0.875000000000006
40
0.875000000000006
40
1
40
1
40
1
40
1
41
1
10
52.7248787939474
20
-0.944358446283246
30
0
41
1
10
52.7326185181081
20
-0.94578429732374
30
0
41
1
10
52.741729397517
20
-0.948919533684062
30
0
41
1
10
52.7568968032635
20
-0.955465606946319
30
0
41
1
10
52.762242310097
20
-0.95798242738519
30
0
41
1
10
52.7731625395422
20
-0.963481248179107
30
0
41
1
10
52.7787552844583
20
-0.96646902263376
30
0
41
1
10
52.7958836851482
20
-0.976074661192399
30
0
41
1
10
52.8078026266109
20
-0.983350239242782
30
0
41
1
10
52.8323010363076
20
-0.999407719896425
30
0
41
1
10
52.8446303333547
20
-1.00802304030077
30
0
41
1
10
52.8631998184452
20
-1.02181566783003
30
0
41
1
10
52.8694023995333
20
-1.02655972770506
30
0
41
1
10
52.8818272481718
20
-1.03635825206004
30
0
41
1
10
52.8880365583021
20
-1.04140420903826
30
0
41
1
10
52.9063307142615
20
-1.05674332474354
30
0
41
1
10
52.9182010326356
20
-1.06732293671263
30
0
41
1
10
52.9354228692387
20
-1.08382610936977
30
0
41
1
10
52.9410653493006
20
-1.08943372390596
30
0
41
1
10
52.9521214013727
20
-1.10089755528745
30
0
41
1
10
52.9575044445737
20
-1.10672635257569
30
0
41
1
10
52.9727745743588
20
-1.12410500398548
30
0
41
1
10
52.9819620778161
20
-1.13570117879357
30
0
41
1
10
52.9897666068665
20
-1.14729425219568
30
0
0
SPLINE
5
186
100
AcDbEntity
8
1
62
256
6
ByLayer
370
18
48
1
60
0
100
AcDbSpline
70
4
71
3
72
10
73
6
40
0
40
0
40
0
40
0
40
0.5
40
0.5
40
1
40
1
40
1
40
1
41
1
10
52.9897666068665
20
-1.14729425219548
30
0
41
1
10
53.0489201674469
20
-1.23516266364948
30
0
41
1
10
53.1073624357593
20
-1.32650513239653
30
0
41
1
10
53.22326537828
20
-1.51593926922809
30
0
41
1
10
53.2804950389682
20
-1.61363390017274
30
0
41
1
10
53.3371640598514
20
-1.71413324154588
30
0
0
SPLINE
5
187
100
AcDbEntity
8
1
62
256
6
ByLayer
370
18
48
1
60
0
100
AcDbSpline
70
4
71
3
72
10
73
6
40
0
40
0
40
0
40
0
40
0.5
40
0.5
40
1
40
1
40
1
40
1
41
1
10
53.4334543688217
20
-1.79739090147609
30
0
41
1
10
53.4903269160021
20
-1.79240051037368
30
0
41
1
10
53.5477709489164
20
-1.78162782284483
30
0
41
1
10
53.6641873700865
20
-1.74821770562889
30
0
41
1
10
53.7229156750263
20
-1.72569131097188
30
0
41
1
10
53.782424800628
20
-1.69724176959838
30
0
0
SPLINE
5
188
100
AcDbEntity
8
1
62
256
6
ByLayer
370
18
48
1
60
0
100
AcDbSpline
70
4
71
3
72
28
73
24
40
0
40
0
40
0
40
0
40
0.12499999999999
40
0.12499999999999
40
0.187499999999985
40
0.187499999999985
40
0.249999999999981
40
0.249999999999981
40
0.374999999999972
40
0.374999999999972
40
0.499999999999964
40
0.499999999999964
40
0.56249999999996
40
0.56249999999996
40
0.624999999999956
40
0.624999999999956
40
0.749999999999948
40
0.749999999999948
40
0.812499999999944
40
0.812499999999944
40
0.87499999999994
40
0.87499999999994
40
1
40
1
40
1
40
1
41
1
10
53.782424800628
20
-1.69724176959838
30
0
41
1
10
53.7901701419791
20
-1.69353895247593
30
0
41
1
10
53.7992865873031
20
-1.6919648164783
30
0
41
1
10
53.8144609014116
20
-1.69189879680931
30
0
41
1
10
53.8198083082594
20
-1.69227855838486
30
0
41
1
10
53.8307309204957
20
-1.69373710487429
30
0
41
1
10
53.8363245973726
20
-1.69481198456771
30
0
41
1
10
53.8534552176737
20
-1.69896406428398
30
0
41
1
10
53.8653755343931
20
-1.70297195935305
30
0
41
1
10
53.8898729104096
20
-1.7132148496282
30
0
41
1
10
53.9022017480693
20
-1.7193411747966
30
0
41
1
10
53.9207708125494
20
-1.72998141080564
30
0
41
1
10
53.9269732908995
20
-1.73377260896939
30
0
41
1
10
53.9393979569136
20
-1.74186633318905
30
0
41
1
10
53.9456069159327
20
-1.7461630959734
30
0
41
1
10
53.9639005312296
20
-1.75960516081008
30
0
41
1
10
53.9757708342666
20
-1.76936461602466
30
0
41
1
10
53.9929923760809
20
-1.78537785384378
30
0
41
1
10
53.9986347079393
20
-1.79094679550261
30
0
41
1
10
54.0096901923997
20
-1.80261811552361
30
0
41
1
10
54.0150738228038
20
-1.80869605444988
30
0
41
1
10
54.0303452328827
20
-1.82728080585898
30
0
41
1
10
54.0395335258751
20
-1.84027394139113
30
0
41
1
10
54.0473384978325
20
-1.85410472068654
30
0
0
SPLINE
5
189
100
AcDbEntity
8
1
62
256
6
ByLayer
370
18
48
1
60
0
100
AcDbSpline
70
4
71
3
72
10
73
6
40
0
40
0
40
0
40
0
40
0.5
40
0.5
40
1
40
1
40
1
40
1
41
1
10
54.0473384978325
20
-1.85410472068639
30
0
41
1
10
54.0925651246517
20
-1.93424844153782
30
0
41
1
10
54.1373892225799
20
-2.01530051929842
30
0
41
1
10
54.2264322618217
20
-2.17911041007085
30
0
41
1
10
54.2706567957056
20
-2.26187498896684
30
0
41
1
10
54.3144764227049
20
-2.34506378659907
30
0
0
SPLINE
5
18A
100
AcDbEntity
8
1
62
256
6
ByLayer
370
18
48
1
60
0
100
AcDbSpline
70
4
71
3
72
12
73
8
40
0
40
0
40
0
40
0
40
0.250000000000018
40
0.250000000000018
40
0.500000000000036
40
0.500000000000036
40
1
40
1
40
1
40
1
41
1
10
54.3144764227047
20
-2.34506378659915
30
0
41
1
10
54.3388982299911
20
-2.35572956522461
30
0
41
1
10
54.363356359182
20
-2.36610584183524
30
0
41
1
10
54.4121925755307
20
-2.3862186813756
30
0
41
1
10
54.4365926948841
20
-2.3959649544814
30
0
41
1
10
54.5097370715086
20
-2.42428067532538
30
0
41
1
10
54.5584142810262
20
-2.44193207897328
30
0
41
1
10
54.6070599112579
20
-2.45834651732378
30
0
0
SPLINE
5
18B
100
AcDbEntity
8
1
62
256
6
ByLayer
370
18
48
1
60
0
100
AcDbSpline
70
4
71
3
72
10
73
6
40
0
40
0
40
0
40
0
40
0.5
40
0.5
40
1
40
1
40
1
40
1
41
1
10
54.6070599112579
20
-2.45834651732378
30
0
41
1
10
54.6453391067059
20
-2.42449673585497
30
0
41
1
10
54.6839201649128
20
-2.38848259021512
30
0
41
1
10
54.7614764653011
20
-2.31250541467713
30
0
41
1
10
54.8004983794387
20
-2.27243132951679
30
0
41
1
10
54.8398932481675
20
-2.2300471930981
30
0
0
SPLINE
5
18C
100
AcDbEntity
8
1
62
256
6
ByLayer
370
18
48
1
60
0
100
AcDbSpline
70
4
71
3
72
28
73
24
40
0
40
0
40
0
40
0
40
0.124999999999971
40
0.124999999999971
40
0.187499999999956
40
0.187499999999956
40
0.249999999999941
40
0.249999999999941
40
0.374999999999989
40
0.374999999999989
40
0.500000000000037
40
0.500000000000037
40
0.562500000000062
40
0.562500000000062
40
0.625000000000086
40
0.625000000000086
40
0.750000000000133
40
0.750000000000133
40
0.812500000000117
40
0.812500000000117
40
0.875000000000101
40
0.875000000000101
40
1
40
1
40
1
40
1
41
1
10
54.8398932481675
20
-2.2300471930981
30
0
41
1
10
54.8476517466271
20
-2.22169998271957
30
0
41
1
10
54.8567812229277
20
-2.21562979723075
30
0
41
1
10
54.8719704838198
20
-2.20897671594403
30
0
41
1
10
54.8773219672684
20
-2.20717645371067
30
0
41
1
10
54.8882507551567
20
-2.20441912226306
30
0
41
1
10
54.893846727346
20
-2.20344872292398
30
0
41
1
10
54.9109819282201
20
-2.20162991353143
30
0
41
1
10
54.9229000913774
20
-2.2018639099548
30
0
41
1
10
54.9473963281169
20
-2.20499167611746
30
0
41
1
10
54.9597231587323
20
-2.20784743503418
30
0
41
1
10
54.9782872125968
20
-2.21397236793891
30
0
41
1
10
54.9844876795016
20
-2.21632428980973
30
0
41
1
10
54.9969075275703
20
-2.22167295518898
30
0
41
1
10
55.0031174361039
20
-2.22466938637112
30
0
41
1
10
55.0214118884901
20
-2.23448758783957
30
0
41
1
10
55.0332820374906
20
-2.24217063537986
30
0
41
1
10
55.0505020431624
20
-2.25562672884456
30
0
41
1
10
55.0561436400478
20
-2.26043715562162
30
0
41
1
10
55.0671971365812
20
-2.27080470164486
30
0
41
1
10
55.0725901555076
20
-2.27635309707205
30
0
41
1
10
55.0878826592805
20
-2.29375781282855
30
0
41
1
10
55.0970840733693
20
-2.30647871447832
30
0
41
1
10
55.1048996825987
20
-2.32076820500779
30
0
0
SPLINE
5
18D
100
AcDbEntity
8
1
62
256
6
ByLayer
370
18
48
1
60
0
100
AcDbSpline
70
4
71
3
72
8
73
4
40
0
40
0
40
0
40
0
40
1
40
1
40
1
40
1
41
1
10
55.1048996825987
20
-2.32076820500774
30
0
41
1
10
55.156307675386
20
-2.41475883382594
30
0
41
1
10
55.2072004526191
20
-2.5083605798271
30
0
41
1
10
55.2577271577674
20
-2.60150447848807
30
0
0
SPLINE
5
18E
100
AcDbEntity
8
1
62
256
6
ByLayer
370
18
48
1
60
0
100
AcDbSpline
70
4
71
3
72
14
73
10
40
0
40
0
40
0
40
0
40
0.49999999999998
40
0.49999999999998
40
0.74999999999997
40
0.74999999999997
40
0.874999999999985
40
0.874999999999985
40
1
40
1
40
1
40
1
41
1
10
55.2577271577674
20
-2.6015044784881
30
0
41
1
10
55.3485383885934
20
-2.61075921172485
30
0
41
1
10
55.4400725894973
20
-2.61577103917583
30
0
41
1
10
55.5785269088288
20
-2.61691082351896
30
0
41
1
10
55.6248711008305
20
-2.6162236690831
30
0
41
1
10
55.6946943469091
20
-2.61357251435729
30
0
41
1
10
55.7180418925471
20
-2.61241755000251
30
0
41
1
10
55.7646852240741
20
-2.60957691341744
30
0
41
1
10
55.7879899760316
20
-2.60789146513198
30
0
41
1
10
55.8112787481156
20
-2.60594421589718
30
0
0
SPLINE
5
18F
100
AcDbEntity
8
1
62
256
6
ByLayer
370
18
48
1
60
0
100
AcDbSpline
70
4
71
3
72
8
73
4
40
0
40
0
40
0
40
0
40
1
40
1
40
1
40
1
41
1
10
55.8112787481156
20
-2.60594421589718
30
0
41
1
10
55.8397838298594
20
-2.56309053207164
30
0
41
1
10
55.8684240581875
20
-2.51949797085527
30
0
41
1
10
55.8972322354573
20
-2.47515677232863
30
0
0
SPLINE
5
190
100
AcDbEntity
8
1
62
256
6
ByLayer
370
18
48
1
60
0
100
AcDbSpline
70
4
71
3
72
28
73
24
40
0
40
0
40
0
40
0
40
0.125000000000107
40
0.125000000000107
40
0.187500000000161
40
0.187500000000161
40
0.250000000000214
40
0.250000000000214
40
0.375000000000246
40
0.375000000000246
40
0.500000000000277
40
0.500000000000277
40
0.562500000000252
40
0.562500000000252
40
0.625000000000226
40
0.625000000000226
40
0.750000000000174
40
0.750000000000174
40
0.812500000000148
40
0.812500000000148
40
0.875000000000121
40
0.875000000000121
40
1
40
1
40
1
40
1
41
1
10
55.8972322354573
20
-2.47515677232863
30
0
41
1
10
55.9050188779259
20
-2.46317166628313
30
0
41
1
10
55.9141871075582
20
-2.45332557485173
30
0
41
1
10
55.929439610214
20
-2.44086458166134
30
0
41
1
10
55.9348121058948
20
-2.43709345852784
30
0
41
1
10
55.9457758275195
20
-2.43043839873732
30
0
41
1
10
55.9513884167132
20
-2.42753162630115
30
0
41
1
10
55.9685695714805
20
-2.41993424563614
30
0
41
1
10
55.9805227228096
20
-2.41634409735275
30
0
41
1
10
56.0050287221209
20
-2.41192753786865
30
0
41
1
10
56.0173529719901
20
-2.41113308565119
30
0
41
1
10
56.0359043449768
20
-2.41193266238727
30
0
41
1
10
56.0420991935411
20
-2.41253475933735
30
0
41
1
10
56.0545059680048
20
-2.41443254043981
30
0
41
1
10
56.0606969127657
20
-2.41572849378014
30
0
41
1
10
56.0789470468113
20
-2.42061212000235
30
0
41
1
10
56.0907931232267
20
-2.42519189514837
30
0
41
1
10
56.1079891980011
20
-2.43430040095208
30
0
41
1
10
56.1136248610763
20
-2.43771344814414
30
0
41
1
10
56.1246711931373
20
-2.44540550221285
30
0
41
1
10
56.1300527341881
20
-2.44967294654418
30
0
41
1
10
56.145328215295
20
-2.46355760548249
30
0
41
1
10
56.1545311978599
20
-2.47430377865663
30
0
41
1
10
56.1623561242947
20
-2.48716076574522
30
0
0
SPLINE
5
191
100
AcDbEntity
8
1
62
256
6
ByLayer
370
18
48
1
60
0
100
AcDbSpline
70
4
71
3
72
8
73
4
40
0
40
0
40
0
40
0
40
1
40
1
40
1
40
1
41
1
10
56.1623561242947
20
-2.48716076574522
30
0
41
1
10
56.1750028686694
20
-2.50794038974442
30
0
41
1
10
56.1876193655117
20
-2.52860685537337
30
0
41
1
10
56.2002070137156
20
-2.5491578116264
30
0
0
SPLINE
5
192
100
AcDbEntity
8
1
62
256
6
ByLayer
370
13
48
1
60
0
100
AcDbSpline
70
4
71
3
72
10
73
6
40
0
40
0
40
0
40
0
40
0.22146016959806
40
0.813129409843375
40
1
40
1
40
1
40
1
41
1
10
48.847352771428
20
-2.27930205266486
30
0
41
1
10
48.853578043414
20
-2.31825447491019
30
0
41
1
10
48.8764351990918
20
-2.442131534385
30
0
41
1
10
48.9045451803196
20
-2.50321345752025
30
0
41
1
10
48.9264300294057
20
-2.47964328945577
30
0
41
1
10
48.93168298657
20
-2.46995895288032
30
0
0
SPLINE
5
193
100
AcDbEntity
8
1
62
256
6
ByLayer
370
18
48
1
60
0
100
AcDbSpline
70
4
71
3
72
10
73
6
40
0
40
0
40
0
40
0
40
0.5
40
0.5
40
1
40
1
40
1
40
1
41
1
10
48.4982424543779
20
-2.62964415325925
30
0
41
1
10
48.5551761113462
20
-2.58101852428652
30
0
41
1
10
48.6126727761284
20
-2.52743117471727
30
0
41
1
10
48.7291324235919
20
-2.4104062780313
30
0
41
1
10
48.7878653237925
20
-2.34721085607814
30
0
41
1
10
48.847352771428
20
-2.27930205266486
30
0
0
SPLINE
5
194
100
AcDbEntity
8
1
62
256
6
ByLayer
370
18
48
1
60
0
100
AcDbSpline
70
4
71
3
72
28
73
24
40
0
40
0
40
0
40
0
40
0.124999999999933
40
0.124999999999933
40
0.1874999999999
40
0.1874999999999
40
0.249999999999867
40
0.249999999999867
40
0.374999999999878
40
0.374999999999878
40
0.499999999999889
40
0.499999999999889
40
0.562499999999894
40
0.562499999999894
40
0.624999999999899
40
0.624999999999899
40
0.74999999999991
40
0.74999999999991
40
0.812499999999915
40
0.812499999999915
40
0.87499999999992
40
0.87499999999992
40
1
40
1
40
1
40
1
41
1
10
48.847352771428
20
-2.27930205266483
30
0
41
1
10
48.8550800070485
20
-2.270480908954
30
0
41
1
10
48.8641717502924
20
-2.26389174509097
30
0
41
1
10
48.879304226601
20
-2.25642853376729
30
0
41
1
10
48.8846377058951
20
-2.25435009054675
30
0
41
1
10
48.8955393965476
20
-2.25103847290018
30
0
41
1
10
48.9011229517259
20
-2.24979200112554
30
0
41
1
10
48.9182240233055
20
-2.24714975423487
30
0
41
1
10
48.9301140334978
20
-2.24683874785504
30
0
41
1
10
48.9546030046346
20
-2.24890364591747
30
0
41
1
10
48.9669281928314
20
-2.25125242611375
30
0
41
1
10
48.9854923686822
20
-2.25665006072248
30
0
41
1
10
48.9916933203641
20
-2.25876513103094
30
0
41
1
10
49.0041151501022
20
-2.26365134813366
30
0
41
1
10
49.0103350745325
20
-2.26642632174304
30
0
41
1
10
49.0286543287974
20
-2.27560980466211
30
0
41
1
10
49.0405384327282
20
-2.28290493528618
30
0
41
1
10
49.0577773862173
20
-2.29583477265967
30
0
41
1
10
49.0634249701614
20
-2.30047916252133
30
0
41
1
10
49.0744901329828
20
-2.31053595847106
30
0
41
1
10
49.0798965233037
20
-2.3159479741658
30
0
41
1
10
49.0952170913925
20
-2.33298590419599
30
0
41
1
10
49.1044288008515
20
-2.34551730833107
30
0
41
1
10
49.1122467142307
20
-2.35969346742976
30
0
0
SPLINE
5
195
100
AcDbEntity
8
1
62
256
6
ByLayer
370
18
48
1
60
0
100
AcDbSpline
70
4
71
3
72
11
73
7
40
0
40
0
40
0
40
0
40
0.402870873991103
40
0.759697937219323
40
0.759697937219323
40
1
40
1
40
1
40
1
41
1
10
50.9725916895054
20
3.03321621907494
30
0
41
1
10
50.9741473078001
20
3.0369450136713
30
0
41
1
10
50.9770832739523
20
3.0431645910771
30
0
41
1
10
50.9800275722054
20
3.04783977623274
30
0
41
1
10
50.9823465435465
20
3.05093763980767
30
0
41
1
10
50.9832819730156
20
3.05202865423485
30
0
41
1
10
50.9842174433597
20
3.05296085983534
30
0
0
SPLINE
5
196
100
AcDbEntity
8
1
62
256
6
ByLayer
370
18
48
1
60
0
100
AcDbSpline
70
4
71
3
72
8
73
4
40
0
40
0
40
0
40
0
40
1
40
1
40
1
40
1
41
1
10
50.9924527659293
20
3.05706303567157
30
0
41
1
10
50.9956997469067
20
3.05706489706475
30
0
41
1
10
50.9989395236362
20
3.05515900069264
30
0
41
1
10
51.0021738739767
20
3.05138322291577
30
0
0
SPLINE
5
197
100
AcDbEntity
8
1
62
256
6
ByLayer
370
18
48
1
60
0
100
AcDbSpline
70
4
71
3
72
8
73
4
40
0
40
0
40
0
40
0
40
1
40
1
40
1
40
1
41
1
10
51.0983889745285
20
3.04351590197675
30
0
41
1
10
51.0934153449284
20
3.0525169914358
30
0
41
1
10
51.088441816775
20
3.05706786198113
30
0
41
1
10
51.0834198099267
20
3.05706055482727
30
0
0
SPLINE
5
198
100
AcDbEntity
8
1
62
256
6
ByLayer
370
18
48
1
60
0
100
AcDbSpline
70
4
71
3
72
10
73
6
40
0
40
0
40
0
40
0
40
0.60692512065562
40
0.60692512065562
40
1
40
1
40
1
40
1
41
1
10
45.2264334045712
20
2.81663981011641
30
0
41
1
10
45.2225533413436
20
2.82958822521812
30
0
41
1
10
45.2186812397044
20
2.83792975816064
30
0
41
1
10
45.2122478172094
20
2.84401267095427
30
0
41
1
10
45.2097066792511
20
2.84445460752338
30
0
41
1
10
45.2071531728703
20
2.84290403381934
30
0
0
SPLINE
5
199
100
AcDbEntity
8
1
62
256
6
ByLayer
370
18
48
1
60
0
100
AcDbSpline
70
4
71
3
72
13
73
9
40
0
40
0
40
0
40
0
40
0.400255355619553
40
0.400255355619553
40
0.550191516714666
40
0.550191516714666
40
0.700127677809779
40
1
40
1
40
1
40
1
41
1
10
49.5834277980514
20
-3.05706256750673
30
0
41
1
10
49.5797460582901
20
-3.05706261517056
30
0
41
1
10
49.5760454791391
20
-3.05461150872506
30
0
41
1
10
49.5709324887316
20
-3.04779511021724
30
0
41
1
10
49.5695374290827
20
-3.04558472871187
30
0
41
1
10
49.5667580680942
20
-3.04048528480715
30
0
41
1
10
49.5625991396361
20
-3.03181044901143
30
0
41
1
10
49.5584679738823
20
-3.02009388957666
30
0
41
1
10
49.55572200663
20
-3.01095147876643
30
0
0
SPLINE
5
19A
100
AcDbEntity
8
1
62
256
6
ByLayer
370
18
48
1
60
0
100
AcDbSpline
70
4
71
3
72
13
73
9
40
0
40
0
40
0
40
0
40
0.503021930915854
40
0.503021930915854
40
0.628777413644817
40
0.628777413644817
40
0.754532896373779
40
1
40
1
40
1
40
1
41
1
10
49.4594638146693
20
-2.99168312138761
30
0
41
1
10
49.4649689725398
20
-3.01339834153902
30
0
41
1
10
49.4704780770483
20
-3.02983135959408
30
0
41
1
10
49.477406005885
20
-3.04355978797852
30
0
41
1
10
49.4787959076747
20
-3.04596658604058
30
0
41
1
10
49.4815690023353
20
-3.0500705877825
30
0
41
1
10
49.4856528888874
20
-3.0550855527033
30
0
41
1
10
49.4897178082582
20
-3.05706113262139
30
0
41
1
10
49.4924055523668
20
-3.05706022936963
30
0
0
SPLINE
5
19B
100
AcDbEntity
8
1
62
256
6
ByLayer
370
18
48
1
60
0
100
AcDbSpline
70
4
71
3
72
18
73
14
40
0
40
0
40
0
40
0
40
0.0129871209984991
40
0.0129871209984991
40
0.136363730873687
40
0.136363730873687
40
0.259740340748874
40
0.259740340748874
40
0.506493560499249
40
0.506493560499249
40
0.753246780249625
40
0.753246780249625
40
1
40
1
40
1
40
1
41
1
10
51.9923943411157
20
3.05706033883678
30
0
41
1
10
51.992685485165
20
3.05706021677901
30
0
41
1
10
51.9929767652932
20
3.05704485085258
30
0
41
1
10
51.9960366918572
20
3.05672334972021
30
0
41
1
10
51.9988148612999
20
3.05505315323831
30
0
41
1
10
52.0043892894974
20
3.0489031694265
30
0
41
1
10
52.0071917206528
20
3.04440406966046
30
0
41
1
10
52.015537747496
20
3.0268139274265
30
0
41
1
10
52.0210433942564
20
3.00963806749985
30
0
41
1
10
52.0320197195794
20
2.96469252051628
30
0
41
1
10
52.037495990787
20
2.93692217641001
30
0
41
1
10
52.0485337766726
20
2.87074401203327
30
0
41
1
10
52.0540817994678
20
2.8323260804076
30
0
41
1
10
52.0596618020747
20
2.78841305424066
30
0
0
SPLINE
5
19C
100
AcDbEntity
8
1
62
256
6
ByLayer
370
18
48
1
60
0
100
AcDbSpline
70
4
71
3
72
20
73
16
40
0
40
0
40
0
40
0
40
0.114416573694864
40
0.114416573694864
40
0.228833147389728
40
0.228833147389728
40
0.457666294779456
40
0.457666294779456
40
0.686499442169184
40
0.686499442169184
40
0.800916015864049
40
0.800916015864049
40
0.915332589558913
40
0.915332589558913
40
1
40
1
40
1
40
1
41
1
10
52.1558647983158
20
2.74564016574595
30
0
41
1
10
52.1530873664776
20
2.76909459152179
30
0
41
1
10
52.1502975764234
20
2.79141711633673
30
0
41
1
10
52.1447573133892
20
2.8332147627718
30
0
41
1
10
52.1419996791756
20
2.85275488507662
30
0
41
1
10
52.1337433592943
20
2.90737120987757
30
0
41
1
10
52.1282517733821
20
2.93845374258785
30
0
41
1
10
52.1172263251965
20
2.9900818257542
30
0
41
1
10
52.1117068057206
20
3.01062787523946
30
0
41
1
10
52.1034024951463
20
3.03337733406485
30
0
41
1
10
52.1006273495635
20
3.03961680164369
30
0
41
1
10
52.0950673028315
20
3.04932138081818
30
0
41
1
10
52.0923024018299
20
3.05275385474491
30
0
41
1
10
52.0875051473187
20
3.05630976285266
30
0
41
1
10
52.0854679805164
20
3.05706303170416
30
0
41
1
10
52.0834319175635
20
3.05706268271516
30
0
0
SPLINE
5
19D
100
AcDbEntity
8
1
62
256
6
ByLayer
370
18
48
1
60
0
100
AcDbSpline
70
4
71
3
72
17
73
13
40
0
40
0
40
0
40
0
40
0.109477526828274
40
0.109477526828274
40
0.332108145121205
40
0.554738763414136
40
0.554738763414136
40
0.666054072560603
40
0.666054072560603
40
0.777369381707069
40
0.777369381707069
40
1
40
1
40
1
40
1
41
1
10
45.9924387355784
20
3.05706320309938
30
0
41
1
10
45.9951466035771
20
3.05706736726063
30
0
41
1
10
45.9978475793908
20
3.05573320927994
30
0
41
1
10
46.0060444275414
20
3.04769873659572
30
0
41
1
10
46.0170486604501
20
3.0260531799064
30
0
41
1
10
46.0280606053786
20
2.9827463279041
30
0
41
1
10
46.0363658701432
20
2.94190833135087
30
0
41
1
10
46.0391484172479
20
2.92685912502799
30
0
41
1
10
46.0446817131993
20
2.89428787477024
30
0
41
1
10
46.0474390283479
20
2.87673925265807
30
0
41
1
10
46.055709368572
20
2.82037308675382
30
0
41
1
10
46.0612227447734
20
2.77784512675447
30
0
41
1
10
46.066727431738
20
2.73042477721083
30
0
0
SPLINE
5
19E
100
AcDbEntity
8
1
62
256
6
ByLayer
370
18
48
1
60
0
100
AcDbSpline
70
4
71
3
72
18
73
14
40
0
40
0
40
0
40
0
40
0.207997960429401
40
0.207997960429401
40
0.311996940644102
40
0.311996940644102
40
0.415995920858804
40
0.415995920858804
40
0.623993881288205
40
0.623993881288205
40
0.831991841717606
40
0.831991841717606
40
1
40
1
40
1
40
1
41
1
10
46.1628855435626
20
2.68360680945469
30
0
41
1
10
46.1573957955072
20
2.7341600337657
30
0
41
1
10
46.1519305692551
20
2.77983142781099
30
0
41
1
10
46.1436863403535
20
2.84098023921141
30
0
41
1
10
46.1409282998972
20
2.86013433990462
30
0
41
1
10
46.1353864796136
20
2.89594909534088
30
0
41
1
10
46.1326024274742
20
2.91261932625312
30
0
41
1
10
46.1242277566801
20
2.95874534933392
30
0
41
1
10
46.1187021478253
20
2.98386475611119
30
0
41
1
10
46.1077171218042
20
3.02323851708559
30
0
41
1
10
46.1022576727833
20
3.03749163969923
30
0
41
1
10
46.0923442459408
20
3.0534673508069
30
0
41
1
10
46.087889383686
20
3.05707272612412
30
0
41
1
10
46.0834077494792
20
3.05706134327895
30
0
0
SPLINE
5
19F
100
AcDbEntity
8
1
62
256
6
ByLayer
370
18
48
1
60
0
100
AcDbSpline
70
4
71
3
72
20
73
16
40
0
40
0
40
0
40
0
40
0.0287483768780435
40
0.0287483768780435
40
0.222998701502437
40
0.222998701502437
40
0.320123863814634
40
0.368686444970733
40
0.368686444970733
40
0.417249026126831
40
0.417249026126831
40
0.611499350751221
40
0.611499350751221
40
0.80574967537561
40
1
40
1
40
1
40
1
41
1
10
48.5834131242252
20
-3.05706093243563
30
0
41
1
10
48.5825984435246
20
-3.05705880700094
30
0
41
1
10
48.5817835998947
20
-3.05693699204176
30
0
41
1
10
48.5754606191519
20
-3.05506711163002
30
0
41
1
10
48.5699545842548
20
-3.04799359498094
30
0
41
1
10
48.5616871524846
20
-3.02915514277242
30
0
41
1
10
48.5575505253979
20
-3.01767480191441
30
0
41
1
10
48.5533997118585
20
-3.00305305341232
30
0
41
1
10
48.5506276870336
20
-2.99259878571118
30
0
41
1
10
48.5492373962017
20
-2.9870099067345
30
0
41
1
10
48.542305453394
20
-2.95743626047772
30
0
41
1
10
48.5367988038029
20
-2.92853211915741
30
0
41
1
10
48.5257761901275
20
-2.86057603773494
30
0
41
1
10
48.5147745455581
20
-2.78246909607665
30
0
41
1
10
48.5037817068243
20
-2.68407577688976
30
0
41
1
10
48.4982424543694
20
-2.6296441532736
30
0
0
SPLINE
5
1A0
100
AcDbEntity
8
1
62
256
6
ByLayer
370
18
48
1
60
0
100
AcDbSpline
70
4
71
3
72
25
73
21
40
0
40
0
40
0
40
0
40
0.0457340746115399
40
0.0457340746115399
40
0.0914681492230797
40
0.18293629844616
40
0.18293629844616
40
0.365872596892322
40
0.365872596892322
40
0.548808895338483
40
0.548808895338483
40
0.594542969950024
40
0.594542969950024
40
0.640277044561565
40
0.640277044561565
40
0.731745193784646
40
0.731745193784646
40
0.91468149223081
40
0.91468149223081
40
1
40
1
40
1
40
1
41
1
10
48.4020359706819
20
-2.57684843251468
30
0
41
1
10
48.403427393263
20
-2.59121136222493
30
0
41
1
10
48.4048222233032
20
-2.60530767064694
30
0
41
1
10
48.4076023308893
20
-2.63280504909818
30
0
41
1
10
48.4117644369628
20
-2.673072886326
30
0
41
1
10
48.4159030423886
20
-2.7104400618405
30
0
41
1
10
48.4241562506027
20
-2.7813662385293
30
0
41
1
10
48.4296244457047
20
-2.82358280261516
30
0
41
1
10
48.4405789551675
20
-2.89794577882438
30
0
41
1
10
48.446073256299
20
-2.93009255515685
30
0
41
1
10
48.4530205644588
20
-2.96381851355918
30
0
41
1
10
48.4544131782859
20
-2.9702400058207
30
0
41
1
10
48.4572044305905
20
-2.98242804173799
30
0
41
1
10
48.4586029767252
20
-2.98819284687275
30
0
41
1
10
48.4627827561151
20
-3.00440283334871
30
0
41
1
10
48.4655563031167
20
-3.01380192946931
30
0
41
1
10
48.473843488605
20
-3.03785851806546
30
0
41
1
10
48.4793215313812
20
-3.0483861883101
30
0
41
1
10
48.4873455735748
20
-3.05586117264912
30
0
41
1
10
48.4898978131399
20
-3.05705748030877
30
0
41
1
10
48.4924554529723
20
-3.05706297040112
30
0
0
SPLINE
5
1A1
100
AcDbEntity
8
1
62
256
6
ByLayer
370
13
48
1
60
0
100
AcDbSpline
70
4
71
3
72
10
73
6
40
0
40
0
40
0
40
0
40
0.144505910973891
40
0.695285656138805
40
1
40
1
40
1
40
1
41
1
10
48.0547588511872
20
-1.92936090574989
30
0
41
1
10
48.0591224879296
20
-1.97241490804103
30
0
41
1
10
48.0801179897376
20
-2.16911210789789
30
0
41
1
10
48.1103149422349
20
-2.37437688413769
30
0
41
1
10
48.1361482461551
20
-2.45490516959126
30
0
41
1
10
48.145349687299
20
-2.47124716663714
30
0
0
SPLINE
5
1A2
100
AcDbEntity
8
1
62
256
6
ByLayer
370
18
48
1
60
0
100
AcDbSpline
70
4
71
3
72
29
73
25
40
0
40
0
40
0
40
0
40
0.0710181187147111
40
0.0710181187147111
40
0.203729816041181
40
0.203729816041181
40
0.270085664704417
40
0.270085664704417
40
0.303263589036035
40
0.303263589036035
40
0.336441513367653
40
0.336441513367653
40
0.469153210694121
40
0.469153210694121
40
0.60186490802059
40
0.60186490802059
40
0.668220756683824
40
0.701398681015442
40
0.701398681015442
40
0.734576605347059
40
0.734576605347059
40
0.867288302673529
40
0.867288302673529
40
1
40
1
40
1
40
1
41
1
10
52.9923980413834
20
3.05706270647102
30
0
41
1
10
52.9953514685696
20
3.05708873712425
30
0
41
1
10
52.9983029826027
20
3.05553749845652
30
0
41
1
10
53.0067635031126
20
3.04659843972198
30
0
41
1
10
53.0122656830137
20
3.0353110290109
30
0
41
1
10
53.0205487512437
20
3.01003721893022
30
0
41
1
10
53.0233152885756
20
3.00021939588882
30
0
41
1
10
53.0274840606714
20
2.98335802493054
30
0
41
1
10
53.0288764275702
20
2.97738203582901
30
0
41
1
10
53.031653217632
20
2.96478947784911
30
0
41
1
10
53.0330396966682
20
2.95816486964193
30
0
41
1
10
53.0399685070252
20
2.92341797814274
30
0
41
1
10
53.0455071653244
20
2.89043771683294
30
0
41
1
10
53.0565582727532
20
2.81434315892858
30
0
41
1
10
53.0620693699706
20
2.77122843236398
30
0
41
1
10
53.070349001515
20
2.69888036779003
30
0
41
1
10
53.0744929072921
20
2.66078354763926
30
0
41
1
10
53.0786574824019
20
2.61975264299053
30
0
41
1
10
53.0814406705123
20
2.59173848423646
30
0
41
1
10
53.082834652174
20
2.57741038298775
30
0
41
1
10
53.0897863043633
20
2.50454287086083
30
0
41
1
10
53.0953278554619
20
2.44201771301511
30
0
41
1
10
53.1063665600011
20
2.3087593483811
30
0
41
1
10
53.1118623423117
20
2.23802541699334
30
0
41
1
10
53.1173623206045
20
2.16317899851739
30
0
0
SPLINE
5
1A3
100
AcDbEntity
8
1
62
256
6
ByLayer
370
18
48
1
60
0
100
AcDbSpline
70
4
71
3
72
27
73
23
40
0
40
0
40
0
40
0
40
0.127435633181929
40
0.254871266363858
40
0.254871266363858
40
0.28673017465934
40
0.28673017465934
40
0.318589082954823
40
0.318589082954823
40
0.382306899545786
40
0.382306899545786
40
0.509742532727713
40
0.637178165909639
40
0.637178165909639
40
0.700895982500602
40
0.700895982500602
40
0.732754890796083
40
0.732754890796083
40
0.764613799091564
40
0.764613799091564
40
0.892049432273487
40
1
40
1
40
1
40
1
41
1
10
53.2135089048928
20
2.09118282138405
30
0
41
1
10
53.207973710909
20
2.16857961483325
30
0
41
1
10
53.1969666140697
20
2.31517960685821
30
0
41
1
10
53.185983544631
20
2.44554093723252
30
0
41
1
10
53.1790515528105
20
2.52182096972595
30
0
41
1
10
53.1776614380336
20
2.53681650574256
30
0
41
1
10
53.1748723607524
20
2.56628084940837
30
0
41
1
10
53.1734715759167
20
2.58077016630887
30
0
41
1
10
53.1692775210867
20
2.6232355336951
30
0
41
1
10
53.1664908746055
20
2.65023328697677
30
0
41
1
10
53.1581598274603
20
2.7273707585737
30
0
41
1
10
53.1471330303322
20
2.81995927208422
30
0
41
1
10
53.1361708222254
20
2.89236888071864
30
0
41
1
10
53.1278833839097
20
2.93899049554989
30
0
41
1
10
53.1251074394514
20
2.95324753050318
30
0
41
1
10
53.1209217775858
20
2.9726688926545
30
0
41
1
10
53.1195211480168
20
2.97882278652554
30
0
41
1
10
53.1167273702514
20
2.99040964738731
30
0
41
1
10
53.1153333476673
20
2.99584773431206
30
0
41
1
10
53.1083771198998
20
3.02128167544387
30
0
41
1
10
53.0981848141357
20
3.0485102870725
30
0
41
1
10
53.0880625824041
20
3.0570802723924
30
0
41
1
10
53.083399082238
20
3.05706091776366
30
0
0
SPLINE
5
1A4
100
AcDbEntity
8
1
62
256
6
ByLayer
370
18
48
1
60
0
100
AcDbSpline
70
4
71
3
72
26
73
22
40
0
40
0
40
0
40
0
40
0.193050152938178
40
0.193050152938178
40
0.289575229407271
40
0.289575229407271
40
0.337837767641818
40
0.337837767641818
40
0.386100305876365
40
0.386100305876365
40
0.482625382345449
40
0.482625382345449
40
0.530887920579986
40
0.530887920579986
40
0.579150458814523
40
0.579150458814523
40
0.772200611752662
40
0.772200611752662
40
0.965250764690801
40
0.965250764690801
40
1
40
1
40
1
40
1
41
1
10
38.1832704732033
20
2.22392478533871
30
0
41
1
10
38.0819296979029
20
2.20654994672921
30
0
41
1
10
37.977814009398
20
2.18586416489967
30
0
41
1
10
37.8159457859296
20
2.15302608363535
30
0
41
1
10
37.7610402343303
20
2.14178200646447
30
0
41
1
10
37.6770122793147
20
2.12492937659491
30
0
41
1
10
37.6486977444014
20
2.1193307905591
30
0
41
1
10
37.5915295376611
20
2.10818378237869
30
0
41
1
10
37.5626884676321
20
2.1026280911139
30
0
41
1
10
37.4756726768684
20
2.08589510991348
30
0
41
1
10
37.4170229611354
20
2.07463502108561
30
0
41
1
10
37.3279183768191
20
2.05787875958632
30
0
41
1
10
37.297994373203
20
2.05230758125384
30
0
41
1
10
37.2379684172038
20
2.04129373235577
30
0
41
1
10
37.2078682933075
20
2.03585121558225
30
0
41
1
10
37.0569086344234
20
2.00908208981505
30
0
41
1
10
36.9346758376623
20
1.98908110286007
30
0
41
1
10
36.6865601879954
20
1.95522812523745
30
0
41
1
10
36.56075983047
20
1.94121491700298
30
0
41
1
10
36.4096153773173
20
1.93035334241469
30
0
41
1
10
36.3864863916522
20
1.92884938744774
30
0
41
1
10
36.3632826393903
20
1.92750479304516
30
0
0
SPLINE
5
1A5
100
AcDbEntity
8
1
62
256
6
ByLayer
370
18
48
1
60
0
100
AcDbSpline
70
4
71
3
72
22
73
18
40
0
40
0
40
0
40
0
40
0.0737878723643164
40
0.0737878723643164
40
0.176700330990511
40
0.176700330990511
40
0.279612789616705
40
0.279612789616705
40
0.331069018929803
40
0.331069018929803
40
0.3825252482429
40
0.3825252482429
40
0.588350165495267
40
0.588350165495267
40
0.794175082747633
40
0.794175082747633
40
1
40
1
40
1
40
1
41
1
10
35.2565805836827
20
2.27500010332923
30
0
41
1
10
35.2817272745122
20
2.27495218177745
30
0
41
1
10
35.3078958336066
20
2.27388085017699
30
0
41
1
10
35.3724510977049
20
2.26913772014868
30
0
41
1
10
35.4115955156907
20
2.26460081332397
30
0
41
1
10
35.4922225304525
20
2.25233094192367
30
0
41
1
10
35.5337139465695
20
2.2445956115196
30
0
41
1
10
35.5973735617922
20
2.23074809688774
30
0
41
1
10
35.618850851669
20
2.22575184318012
30
0
41
1
10
35.6620079338492
20
2.21508635558152
30
0
41
1
10
35.6837135457301
20
2.20941206164966
30
0
41
1
10
35.7927941206065
20
2.17939714767891
30
0
41
1
10
35.8817745829183
20
2.15015939377227
30
0
41
1
10
36.0619173783647
20
2.08219154608671
30
0
41
1
10
36.1531728817927
20
2.04348117990605
30
0
41
1
10
36.337211507296
20
1.95679578005087
30
0
41
1
10
36.4300014922296
20
1.90881092971827
30
0
41
1
10
36.5234966713934
20
1.8561236093588
30
0
0
SPLINE
5
1A6
100
AcDbEntity
8
1
62
256
6
ByLayer
370
18
48
1
60
0
100
AcDbSpline
70
4
71
3
72
30
73
26
40
0
40
0
40
0
40
0
40
0.062499999999999
40
0.0937499999999988
40
0.0937499999999988
40
0.124999999999999
40
0.124999999999999
40
0.249999999999997
40
0.249999999999997
40
0.374999999999996
40
0.499999999999994
40
0.499999999999994
40
0.531249999999994
40
0.531249999999994
40
0.562499999999995
40
0.624999999999996
40
0.624999999999996
40
0.749999999999998
40
0.875
40
0.875
40
0.90625
40
0.90625
40
0.9375
40
0.9375
40
1
40
1
40
1
40
1
41
1
10
47.2204166022556
20
1.99247012034036
30
0
41
1
10
47.2176631850899
20
2.03251199122059
30
0
41
1
10
47.2135293827269
20
2.09135522413484
30
0
41
1
10
47.2093822099437
20
2.14833963682054
30
0
41
1
10
47.2066130284579
20
2.18591121540047
30
0
41
1
10
47.2052242623201
20
2.20451415344994
30
0
41
1
10
47.198299627758
20
2.2960222248723
30
0
41
1
10
47.1928099569218
20
2.3645740360966
30
0
41
1
10
47.1818103145367
20
2.49267000256739
30
0
41
1
10
47.170816744831
20
2.61175695611246
30
0
41
1
10
47.1598313097426
20
2.712846009771
30
0
41
1
10
47.1529204571657
20
2.77022166865731
30
0
41
1
10
47.1515338208936
20
2.78142127918136
30
0
41
1
10
47.148767010765
20
2.80312783002347
30
0
41
1
10
47.1446254835922
20
2.83466371140972
30
0
41
1
10
47.1404968887106
20
2.86316505779996
30
0
41
1
10
47.1322372841312
20
2.91618871403702
30
0
41
1
10
47.1212377533338
20
2.97629711923227
30
0
41
1
10
47.1102647772351
20
3.01541907507911
30
0
41
1
10
47.1033716293537
20
3.03315831794387
30
0
41
1
10
47.1019910708241
20
3.03636970455821
30
0
41
1
10
47.0992242807086
20
3.04211214735986
30
0
41
1
10
47.0978359996942
20
3.04464602742308
30
0
41
1
10
47.0936789561523
20
3.05118548664851
30
0
41
1
10
47.0909159978539
20
3.0541373467928
30
0
41
1
10
47.0881546684046
20
3.0557106198585
30
0
0
SPLINE
5
1A7
100
AcDbEntity
8
1
62
256
6
ByLayer
370
13
48
1
60
0
100
AcDbSpline
70
4
71
3
72
10
73
6
40
0
40
0
40
0
40
0
40
0.231241078007646
40
0.636915134485271
40
1
40
1
40
1
40
1
41
1
10
47.7897796918689
20
-1.77944864139951
30
0
41
1
10
47.7992601645411
20
-1.88295286925174
30
0
41
1
10
47.8253725549125
20
-2.14204861912631
30
0
41
1
10
47.8663704167998
20
-2.41727906853657
30
0
41
1
10
47.8978882916809
20
-2.48711007067834
30
0
41
1
10
47.9127741077862
20
-2.48733129014414
30
0
0
SPLINE
5
1A8
100
AcDbEntity
8
1
62
256
6
ByLayer
370
18
48
1
60
0
100
AcDbSpline
70
4
71
3
72
24
73
20
40
0
40
0
40
0
40
0
40
0.125
40
0.25
40
0.25
40
0.3125
40
0.3125
40
0.375
40
0.375
40
0.5
40
0.625
40
0.625
40
0.6875
40
0.6875
40
0.75
40
0.75
40
0.875
40
0.875
40
1
40
1
40
1
40
1
41
1
10
47.5730374199895
20
-3.05057010740441
30
0
41
1
10
47.5674973017057
20
-3.04365265103436
30
0
41
1
10
47.5565053262144
20
-3.01888225612916
30
0
41
1
10
47.5455672547324
20
-2.97265575333807
30
0
41
1
10
47.5372882024023
20
-2.92983517285245
30
0
41
1
10
47.5345149862067
20
-2.91420054141022
30
0
41
1
10
47.5289449431261
20
-2.8801573574263
30
0
41
1
10
47.5261438092161
20
-2.86171074106335
30
0
41
1
10
47.5178009230842
20
-2.80282876621379
30
0
41
1
10
47.5067821516621
20
-2.71456114715406
30
0
41
1
10
47.4958533829287
20
-2.60730072900941
30
0
41
1
10
47.4875958817273
20
-2.51969900424004
30
0
41
1
10
47.4848320300816
20
-2.48930338733095
30
0
41
1
10
47.4792847140521
20
-2.42608657611723
30
0
41
1
10
47.4764981426102
20
-2.39322677840693
30
0
41
1
10
47.4681274645329
20
-2.29116993933448
30
0
41
1
10
47.4626072296501
20
-2.21940212201935
30
0
41
1
10
47.4516239877678
20
-2.0686683422048
30
0
41
1
10
47.4461609574556
20
-1.98970158899371
30
0
41
1
10
47.4406631658465
20
-1.90714766817501
30
0
0
SPLINE
5
1A9
100
AcDbEntity
8
1
62
256
6
ByLayer
370
13
48
1
60
0
100
AcDbSpline
70
4
71
3
72
11
73
7
40
0
40
0
40
0
40
0
40
0.184622241827713
40
0.591322439104573
40
0.998022636381434
40
1
40
1
40
1
40
1
41
1
10
46.9973920052487
20
-1.25168009844629
30
0
41
1
10
47.0049420680791
20
-1.35365294099918
30
0
41
1
10
47.0291239950813
20
-1.66677819301725
30
0
41
1
10
47.069937800413
20
-2.10432677153304
30
0
41
1
10
47.1032823861803
20
-2.32467666758276
30
0
41
1
10
47.1199951161428
20
-2.39519534072659
30
0
41
1
10
47.1200759797561
20
-2.39553560659476
30
0
0
SPLINE
5
1AA
100
AcDbEntity
8
1
62
256
6
ByLayer
370
18
48
1
60
0
100
AcDbSpline
70
4
71
3
72
26
73
22
40
0
40
0
40
0
40
0
40
0.124999999999999
40
0.124999999999999
40
0.249999999999998
40
0.249999999999998
40
0.312499999999997
40
0.312499999999997
40
0.374999999999997
40
0.374999999999997
40
0.499999999999997
40
0.499999999999997
40
0.624999999999997
40
0.624999999999997
40
0.687499999999998
40
0.687499999999998
40
0.749999999999998
40
0.749999999999998
40
0.874999999999999
40
0.874999999999999
40
1
40
1
40
1
40
1
41
1
10
47.3444197068735
20
-1.82788234850273
30
0
41
1
10
47.3499121012338
20
-1.91264186990406
30
0
41
1
10
47.3554109329538
20
-1.99384031084483
30
0
41
1
10
47.3664269788824
20
-2.14914596393632
30
0
41
1
10
47.3719397940118
20
-2.22325377837774
30
0
41
1
10
47.3802509325782
20
-2.32894533406471
30
0
41
1
10
47.3830354808586
20
-2.36333701908899
30
0
41
1
10
47.3885713884906
20
-2.42952989062337
30
0
41
1
10
47.3913285369813
20
-2.46140944821812
30
0
41
1
10
47.3995921712272
20
-2.55346341976352
30
0
41
1
10
47.4051031185127
20
-2.61006225151101
30
0
41
1
10
47.4161268792904
20
-2.71383615104847
30
0
41
1
10
47.4216348221934
20
-2.76101150624166
30
0
41
1
10
47.4299208989343
20
-2.82456378100051
30
0
41
1
10
47.4326875335589
20
-2.84454366942117
30
0
41
1
10
47.4382424991156
20
-2.88204020216872
30
0
41
1
10
47.4410072610535
20
-2.89939680364915
30
0
41
1
10
47.4492837853771
20
-2.94734975851384
30
0
41
1
10
47.4547925519088
20
-2.97385559423941
30
0
41
1
10
47.4658022691673
20
-3.01616184461975
30
0
41
1
10
47.4712980690243
20
-3.03196204011249
30
0
41
1
10
47.4768063631838
20
-3.0423447200254
30
0
0
SPLINE
5
1AB
100
AcDbEntity
8
1
62
256
6
ByLayer
370
18
48
1
60
0
100
AcDbSpline
70
4
71
3
72
12
73
8
40
0
40
0
40
0
40
0
40
0.5
40
0.5
40
0.75
40
0.75
40
1
40
1
40
1
40
1
41
1
10
56.8993755212268
20
-1.05060514541614
30
0
41
1
10
56.8973738703218
20
-0.925051852624932
30
0
41
1
10
56.8948599463583
20
-0.795013715087777
30
0
41
1
10
56.8904720427861
20
-0.593112296365774
30
0
41
1
10
56.888907758451
20
-0.524612521074289
30
0
41
1
10
56.8856310053851
20
-0.385420714331758
30
0
41
1
10
56.8839415258016
20
-0.315689420684493
30
0
41
1
10
56.882173830119
20
-0.24582909754858
30
0
0
SPLINE
5
1AC
100
AcDbEntity
8
1
62
256
6
ByLayer
370
18
48
1
60
0
100
AcDbSpline
70
4
71
3
72
19
73
15
40
0
40
0
40
0
40
0
40
0.125
40
0.125
40
0.250000000000001
40
0.250000000000001
40
0.500000000000001
40
0.750000000000002
40
0.750000000000002
40
0.875000000000003
40
0.875000000000003
40
0.937500000000001
40
0.937500000000001
40
1
40
1
40
1
40
1
41
1
10
56.7947403709041
20
0.751319485733205
30
0
41
1
10
56.799025221053
20
0.711244602180187
30
0
41
1
10
56.8032031117181
20
0.670714998605689
30
0
41
1
10
56.811370346948
20
0.589157888244728
30
0
41
1
10
56.8153494317796
20
0.548237118405609
30
0
41
1
10
56.8270677363805
20
0.42506283371236
30
0
41
1
10
56.8421161053213
20
0.25973486734199
30
0
41
1
10
56.8560444063748
20
0.0922549939121495
30
0
41
1
10
56.8661195154291
20
-0.034174251037058
30
0
41
1
10
56.8694163877822
20
-0.0764541673972019
30
0
41
1
10
56.8742791736773
20
-0.140083447876918
30
0
41
1
10
56.8758873208589
20
-0.161341376106094
30
0
41
1
10
56.8790594489093
20
-0.203675770093639
30
0
41
1
10
56.8806257645903
20
-0.224782469045095
30
0
41
1
10
56.8821738301179
20
-0.24582909754858
30
0
0
SPLINE
5
1AD
100
AcDbEntity
8
1
62
256
6
ByLayer
370
18
48
1
60
0
100
AcDbSpline
70
4
71
3
72
15
73
11
40
0
40
0
40
0
40
0
40
0.25
40
0.5
40
0.5
40
0.625
40
0.625
40
0.75
40
0.75
40
1
40
1
40
1
40
1
41
1
10
56.9196899559349
20
0.645549616466155
30
0
41
1
10
56.9158065907118
20
0.573904424969157
30
0
41
1
10
56.9084603109325
20
0.42910133873977
30
0
41
1
10
56.9018376747339
20
0.281359069186863
30
0
41
1
10
56.8971303595485
20
0.169444547461865
30
0
41
1
10
56.8956048450886
20
0.131954686808285
30
0
41
1
10
56.8926424690039
20
0.0565993126540434
30
0
41
1
10
56.8912039589263
20
0.0186883147599133
30
0
41
1
10
56.8870372382454
20
-0.0953297747863076
30
0
41
1
10
56.8844895224808
20
-0.170828288882916
30
0
41
1
10
56.8821738301203
20
-0.24582909754858
30
0
0
SPLINE
5
1AE
100
AcDbEntity
8
1
62
256
6
ByLayer
370
18
48
1
60
0
100
AcDbSpline
70
4
71
3
72
30
73
26
40
0
40
0
40
0
40
0
40
0.0625
40
0.0625
40
0.125
40
0.125
40
0.25
40
0.25
40
0.374999999999999
40
0.374999999999999
40
0.499999999999999
40
0.499999999999999
40
0.5625
40
0.5625
40
0.625
40
0.625
40
0.750000000000001
40
0.750000000000001
40
0.875000000000002
40
0.875000000000002
40
0.906250000000002
40
0.906250000000002
40
0.937500000000001
40
0.937500000000001
40
1
40
1
40
1
40
1
41
1
10
53.5660514401172
20
-3.0389111594543
30
0
41
1
10
53.5632891150259
20
-3.03315509834113
30
0
41
1
10
53.560522776243
20
-3.02602476789815
30
0
41
1
10
53.5549796217194
20
-3.00897491999569
30
0
41
1
10
53.5521998939625
20
-2.99904345248993
30
0
41
1
10
53.5438524302785
20
-2.96504388417233
30
0
41
1
10
53.5383528867619
20
-2.93709830103421
30
0
41
1
10
53.5273713416378
20
-2.87101892933183
30
0
41
1
10
53.5218741503883
20
-2.83288439139687
30
0
41
1
10
53.5108436713107
20
-2.74645606422086
30
0
41
1
10
53.5053186086533
20
-2.69816282597074
30
0
41
1
10
53.4969891654696
20
-2.61787628698488
30
0
41
1
10
53.4942011634698
20
-2.58975472107045
30
0
41
1
10
53.488663408665
20
-2.53153063779342
30
0
41
1
10
53.4859059740676
20
-2.50135810931545
30
0
41
1
10
53.4776449560333
20
-2.40771546132819
30
0
41
1
10
53.4721396865839
20
-2.34112894050827
30
0
41
1
10
53.461112483574
20
-2.19973028205538
30
0
41
1
10
53.455599000835
20
-2.12491807645301
30
0
41
1
10
53.4486854872459
20
-2.02615072482817
30
0
41
1
10
53.4473015154055
20
-2.00613398062998
30
0
41
1
10
53.4445297215549
20
-1.96556841291198
30
0
41
1
10
53.4431403582776
20
-1.94499645373207
30
0
41
1
10
53.4389748026325
20
-1.88263398078217
30
0
41
1
10
53.4362117020468
20
-1.84035612990121
30
0
41
1
10
53.4334543688217
20
-1.79739090147606
30
0
0
SPLINE
5
1AF
100
AcDbEntity
8
1
62
256
6
ByLayer
370
18
48
1
60
0
100
AcDbSpline
70
4
71
3
72
25
73
21
40
0
40
0
40
0
40
0
40
0.0624999999999998
40
0.0624999999999998
40
0.125
40
0.125
40
0.25
40
0.375
40
0.375
40
0.5
40
0.5
40
0.625
40
0.625
40
0.75
40
0.75
40
0.875
40
0.875
40
0.9375
40
0.9375
40
1
40
1
40
1
40
1
41
1
10
53.3371640598514
20
-1.71413324154588
30
0
41
1
10
53.3399245992289
20
-1.75801591906304
30
0
41
1
10
53.3426971637522
20
-1.8012272261376
30
0
41
1
10
53.34826386398
20
-1.88628288406349
30
0
41
1
10
53.3510650383153
20
-1.92822735609764
30
0
41
1
10
53.3594134343774
20
-2.05064599972951
30
0
41
1
10
53.370435233216
20
-2.20546063589643
30
0
41
1
10
53.3813752694614
20
-2.3439259847527
30
0
41
1
10
53.3924019706378
20
-2.47418338238239
30
0
41
1
10
53.3979516757263
20
-2.53520931413721
30
0
41
1
10
53.409120172453
20
-2.64875335193267
30
0
41
1
10
53.4146448222218
20
-2.7003083516677
30
0
41
1
10
53.4256304057253
20
-2.79320614001742
30
0
41
1
10
53.4310943821816
20
-2.83457419452469
30
0
41
1
10
53.4420974992082
20
-2.90719053595876
30
0
41
1
10
53.4476305567248
20
-2.93843969806665
30
0
41
1
10
53.4559744146496
20
-2.97750919133213
30
0
41
1
10
53.4587702490774
20
-2.98924786765235
30
0
41
1
10
53.4643228606118
20
-3.00984299930658
30
0
41
1
10
53.4670854698694
20
-3.0187331199939
30
0
41
1
10
53.4698397212288
20
-3.0262414291675
30
0
0
SPLINE
5
1B0
100
AcDbEntity
8
1
62
256
6
ByLayer
370
13
48
1
60
0
100
AcDbSpline
70
4
71
3
72
11
73
7
40
0
40
0
40
0
40
0
40
0.0608804027611825
40
0.468176803845753
40
0.875473204930323
40
1
40
1
40
1
40
1
41
1
10
44.6174445710512
20
0.700704310540345
30
0
41
1
10
44.6199306099665
20
0.663428888693034
30
0
41
1
10
44.6390485243652
20
0.374807594052044
30
0
41
1
10
44.6747984986445
20
-0.188832150573035
30
0
41
1
10
44.7131470535775
20
-0.779435423130138
30
0
41
1
10
44.7348640057618
20
-1.08732939632787
30
0
41
1
10
44.7399490495186
20
-1.15765465716709
30
0
0
SPLINE
5
1B1
100
AcDbEntity
8
1
62
256
6
ByLayer
370
18
48
1
60
0
100
AcDbSpline
70
4
71
3
72
24
73
20
40
0
40
0
40
0
40
0
40
0.25
40
0.25
40
0.3125
40
0.3125
40
0.375
40
0.375
40
0.5
40
0.5
40
0.625
40
0.625
40
0.75
40
0.75
40
0.8125
40
0.8125
40
0.875
40
0.875
40
1
40
1
40
1
40
1
41
1
10
44.7071599210421
20
-1.17147935391674
30
0
41
1
10
44.6997585787842
20
-1.02771425124328
30
0
41
1
10
44.692363343422
20
-0.878343117781327
30
0
41
1
10
44.6829756343432
20
-0.684485421373893
30
0
41
1
10
44.681092595377
20
-0.645354014246834
30
0
41
1
10
44.6773123370388
20
-0.56635565639192
30
0
41
1
10
44.6754291448552
20
-0.526781940681758
30
0
41
1
10
44.6697994564507
20
-0.407983831183657
30
0
41
1
10
44.6660706555452
20
-0.328619639501682
30
0
41
1
10
44.6586001134407
20
-0.169568755834973
30
0
41
1
10
44.6548517098519
20
-0.0898822005837872
30
0
41
1
10
44.647320009564
20
0.0698147181686295
30
0
41
1
10
44.6435391538121
20
0.149825104376674
30
0
41
1
10
44.6378265671609
20
0.270091395272487
30
0
41
1
10
44.6359206550447
20
0.310106923690142
30
0
41
1
10
44.6321196217736
20
0.38956854189729
30
0
41
1
10
44.6302214442266
20
0.429079030380222
30
0
41
1
10
44.6245221606817
20
0.546950719592502
30
0
41
1
10
44.620711116369
20
0.62465276632139
30
0
41
1
10
44.6168702805222
20
0.701462713853402
30
0
0
SPLINE
5
1B2
100
AcDbEntity
8
1
62
256
6
ByLayer
370
18
48
1
60
0
100
AcDbSpline
70
4
71
3
72
8
73
4
40
0
40
0
40
0
40
0
40
1
40
1
40
1
40
1
41
1
10
56.7265193332974
20
-0.962850980565719
30
0
41
1
10
56.725107434499
20
-0.944391032314002
30
0
41
1
10
56.7237067014279
20
-0.925822297805922
30
0
41
1
10
56.7223164371736
20
-0.907144456062213
30
0
0
SPLINE
5
1B3
100
AcDbEntity
8
1
62
256
6
ByLayer
370
18
48
1
60
0
100
AcDbSpline
70
4
71
3
72
31
73
27
40
0
40
0
40
0
40
0
40
0.0378642189951758
40
0.0760584064801731
40
0.114582435401155
40
0.153436225977353
40
0.192619744583412
40
0.232133002534737
40
0.271976054778978
40
0.312148998497685
40
0.352651971622198
40
0.39348515126853
40
0.434648752096493
40
0.476143024598675
40
0.517968253325467
40
0.560124755052809
40
0.602612876899844
40
0.645432994404175
40
0.68858550956297
40
0.732070848848661
40
0.775889461208551
40
0.820041816058173
40
0.864528408128064
40
0.909349838257798
40
0.954506795234388
40
1
40
1
40
1
40
1
41
1
10
56.7223164371904
20
-0.907144456307776
30
0
41
1
10
56.7217471363114
20
-0.899471497354199
30
0
41
1
10
56.7206035733694
20
-0.884058713293626
30
0
41
1
10
56.7188953555794
20
-0.860714617359804
30
0
41
1
10
56.7171828634597
20
-0.837079416456987
30
0
41
1
10
56.7154671710951
20
-0.813144318158919
30
0
41
1
10
56.7137479870599
20
-0.788912327906928
30
0
41
1
10
56.7120253905381
20
-0.764383395001119
30
0
41
1
10
56.7102993601378
20
-0.739558448252183
30
0
41
1
10
56.7085699017568
20
-0.714438305110122
30
0
41
1
10
56.7068370138879
20
-0.689023972001678
30
0
41
1
10
56.7051006970318
20
-0.663316567226559
30
0
41
1
10
56.7033609511429
20
-0.637317346303348
30
0
41
1
10
56.7016177763233
20
-0.611027699565426
30
0
41
1
10
56.699871172632
20
-0.584449157341197
30
0
41
1
10
56.6981211401443
20
-0.557583393080535
30
0
41
1
10
56.6963676789051
20
-0.530432227244859
30
0
41
1
10
56.6946107890598
20
-0.502997630428865
30
0
41
1
10
56.6928504703686
20
-0.475281729030399
30
0
41
1
10
56.6910867240387
20
-0.447286801614382
30
0
41
1
10
56.689319545807
20
-0.419015310545007
30
0
41
1
10
56.6875489519599
20
-0.390469799187031
30
0
41
1
10
56.6857748795811
20
-0.361653273261169
30
0
41
1
10
56.6839975592994
20
-0.332567683744202
30
0
41
1
10
56.6822161241999
20
-0.303219537800402
30
0
41
1
10
56.6810323394067
20
-0.283545474621462
30
0
41
1
10
56.6804382515091
20
-0.273671954623609
30
0
0
SPLINE
5
1B4
100
AcDbEntity
8
1
62
256
6
ByLayer
370
18
48
1
60
0
100
AcDbSpline
70
4
71
3
72
20
73
16
40
0
40
0
40
0
40
0
40
0.124999999999999
40
0.124999999999999
40
0.249999999999999
40
0.249999999999999
40
0.5
40
0.5
40
0.75
40
0.75
40
0.875
40
0.875
40
0.9375
40
0.9375
40
1
40
1
40
1
40
1
41
1
10
56.6804382515091
20
-0.273671954622671
30
0
41
1
10
56.6774338887498
20
-0.223643191702564
30
0
41
1
10
56.6744861543257
20
-0.173544961257988
30
0
41
1
10
56.6687043262141
20
-0.0732104386558206
30
0
41
1
10
56.6658672172904
20
-0.0229197581739413
30
0
41
1
10
56.6575435998578
20
0.127810521922498
30
0
41
1
10
56.652300986345
20
0.227097078344627
30
0
41
1
10
56.642353570768
20
0.42335834856317
30
0
41
1
10
56.637623468779
20
0.520332903989612
30
0
41
1
10
56.6309497274086
20
0.664033938391384
30
0
41
1
10
56.6288041307052
20
0.711639881721396
30
0
41
1
10
56.6257559553677
20
0.782594473741028
30
0
41
1
10
56.6247676877417
20
0.806190103717512
30
0
41
1
10
56.6228673863893
20
0.853034615409769
30
0
41
1
10
56.6219544696351
20
0.876302448665996
30
0
41
1
10
56.6210851478883
20
0.899414943577511
30
0
0
SPLINE
5
1B5
100
AcDbEntity
8
1
62
256
6
ByLayer
370
13
48
1
60
0
100
AcDbSpline
70
4
71
3
72
10
73
6
40
0
40
0
40
0
40
0
40
0.310703766632333
40
0.717240919761504
40
1
40
1
40
1
40
1
41
1
10
46.7322797511782
20
-1.05030419926982
30
0
41
1
10
46.7449909995657
20
-1.23034440560289
30
0
41
1
10
46.7743341863967
20
-1.62277130802289
30
0
41
1
10
46.8152450729698
20
-2.05856525726102
30
0
41
1
10
46.8434450259115
20
-2.26021868728347
30
0
41
1
10
46.8550130293592
20
-2.32455916932966
30
0
0
SPLINE
5
1B6
100
AcDbEntity
8
1
62
256
6
ByLayer
370
13
48
1
60
0
100
AcDbSpline
70
4
71
3
72
10
73
6
40
0
40
0
40
0
40
0
40
0.342862364772205
40
0.749471303922238
40
1
40
1
40
1
40
1
41
1
10
44.8823539040114
20
0.483161791242765
30
0
41
1
10
44.896378290059
20
0.268147333856831
30
0
41
1
10
44.9270345362505
20
-0.214208808597021
30
0
41
1
10
44.967938383611
20
-0.844980848012028
30
0
41
1
10
44.9948178296821
20
-1.21945979872993
30
0
41
1
10
45.005065413375
20
-1.35383261949872
30
0
0
SPLINE
5
1B7
100
AcDbEntity
8
1
62
256
6
ByLayer
370
18
48
1
60
0
100
AcDbSpline
70
4
71
3
72
28
73
24
40
0
40
0
40
0
40
0
40
0.0624999999999998
40
0.0624999999999998
40
0.125
40
0.125
40
0.249999999999999
40
0.249999999999999
40
0.374999999999999
40
0.374999999999999
40
0.437499999999999
40
0.437499999999999
40
0.499999999999998
40
0.499999999999998
40
0.624999999999999
40
0.624999999999999
40
0.749999999999999
40
0.749999999999999
40
0.875
40
0.875
40
0.9375
40
0.9375
40
1
40
1
40
1
40
1
41
1
10
46.5153386548278
20
-2.78186364028528
30
0
41
1
10
46.512579819442
20
-2.75987152919455
30
0
41
1
10
46.5098161674009
20
-2.73655944672333
30
0
41
1
10
46.5042680184467
20
-2.68723705263042
30
0
41
1
10
46.5015019869612
20
-2.66138860818072
30
0
41
1
10
46.4932320592293
20
-2.58060356707713
30
0
41
1
10
46.4877316299978
20
-2.52233179924906
30
0
41
1
10
46.4767210498292
20
-2.39714502163878
30
0
41
1
10
46.4712214882621
20
-2.33022944820468
30
0
41
1
10
46.4629598364354
20
-2.22330179876016
30
0
41
1
10
46.4602033495322
20
-2.18656472647811
30
0
41
1
10
46.4546747100896
20
-2.11086277373261
30
0
41
1
10
46.451895027437
20
-2.07178636633813
30
0
41
1
10
46.4435961103567
20
-1.95239692482505
30
0
41
1
10
46.4380877585369
20
-1.86972320626043
30
0
41
1
10
46.4270767110515
20
-1.69839495972891
30
0
41
1
10
46.4215849109879
20
-1.60973954344158
30
0
41
1
10
46.4105982957597
20
-1.42642986038834
30
0
41
1
10
46.4051037441317
20
-1.33177617465373
30
0
41
1
10
46.3967823884401
20
-1.18513857445001
30
0
41
1
10
46.3940127650595
20
-1.13580174949965
30
0
41
1
10
46.3884824978215
20
-1.03656662033865
30
0
41
1
10
46.3857199816064
20
-0.986614130832947
30
0
41
1
10
46.3829617009756
20
-0.936331529121048
30
0
0
SPLINE
5
1B8
100
AcDbEntity
8
1
62
256
6
ByLayer
370
13
48
1
60
0
100
AcDbSpline
70
4
71
3
72
10
73
6
40
0
40
0
40
0
40
0
40
0.263336294550084
40
0.669866722017474
40
1
40
1
40
1
40
1
41
1
10
45.9399139942445
20
-0.411433932189908
30
0
41
1
10
45.9506875385111
20
-0.577487901388082
30
0
41
1
10
45.9780929454398
20
-0.992730977821338
30
0
41
1
10
46.0190046924271
20
-1.55254578677977
30
0
41
1
10
46.0491428769542
20
-1.87982072771885
30
0
41
1
10
46.0626492017537
20
-2.00480882974827
30
0
0
SPLINE
5
1B9
100
AcDbEntity
8
1
62
256
6
ByLayer
370
18
48
1
60
0
100
AcDbSpline
70
4
71
3
72
33
73
29
40
0
40
0
40
0
40
0
40
0.125000000000002
40
0.125000000000002
40
0.156250000000003
40
0.156250000000003
40
0.187500000000003
40
0.250000000000004
40
0.250000000000004
40
0.375000000000005
40
0.375000000000005
40
0.500000000000005
40
0.500000000000005
40
0.531250000000005
40
0.531250000000005
40
0.562500000000005
40
0.562500000000005
40
0.625000000000004
40
0.625000000000004
40
0.750000000000003
40
0.750000000000003
40
0.875000000000002
40
0.875000000000002
40
0.937500000000001
40
0.937500000000001
40
0.968750000000001
40
0.968750000000001
40
1
40
1
40
1
40
1
41
1
10
46.2868440185931
20
-0.840824618394265
30
0
41
1
10
46.2923233203201
20
-0.942278609429621
30
0
41
1
10
46.2978063125495
20
-1.04247136975678
30
0
41
1
10
46.3047449551498
20
-1.16608317736035
30
0
41
1
10
46.3061383234346
20
-1.19075806980621
30
0
41
1
10
46.3089221529363
20
-1.2397644439186
30
0
41
1
10
46.3130901388232
20
-1.31269927134383
30
0
41
1
10
46.3172347375926
20
-1.38393147761579
30
0
41
1
10
46.3254980809878
20
-1.52416438535013
30
0
41
1
10
46.3309705602447
20
-1.61468358702621
30
0
41
1
10
46.3419183350426
20
-1.78983899799408
30
0
41
1
10
46.3473956957302
20
-1.87447528574665
30
0
41
1
10
46.3543253616374
20
-1.9765082504986
30
0
41
1
10
46.355714859438
20
-1.99672626685384
30
0
41
1
10
46.3585004844758
20
-2.03678111482512
30
0
41
1
10
46.3598985597603
20
-2.05664516898773
30
0
41
1
10
46.3640872309467
20
-2.11544566893042
30
0
41
1
10
46.3668674468379
20
-2.15352851196633
30
0
41
1
10
46.3751741149947
20
-2.26449551485973
30
0
41
1
10
46.3806644465126
20
-2.33410687273755
30
0
41
1
10
46.3916173167066
20
-2.4647505451324
30
0
41
1
10
46.3970814051829
20
-2.52578267344779
30
0
41
1
10
46.4053540842639
20
-2.61080237524877
30
0
41
1
10
46.4081224282161
20
-2.63805211641511
30
0
41
1
10
46.4122904447512
20
-2.67725964639314
30
0
41
1
10
46.4136843395991
20
-2.69006804646207
30
0
41
1
10
46.4164676104665
20
-2.71503205923466
30
0
41
1
10
46.4178558060971
20
-2.72717809699435
30
0
41
1
10
46.41924085842
20
-2.73899208924919
30
0
0
SPLINE
5
1BA
100
AcDbEntity
8
1
62
256
6
ByLayer
370
18
48
1
60
0
100
AcDbSpline
70
4
71
3
72
27
73
23
40
0
40
0
40
0
40
0
40
0.125
40
0.125
40
0.249999999999999
40
0.249999999999999
40
0.281249999999999
40
0.281249999999999
40
0.312499999999998
40
0.374999999999998
40
0.374999999999998
40
0.499999999999998
40
0.499999999999998
40
0.624999999999998
40
0.624999999999998
40
0.687499999999999
40
0.687499999999999
40
0.749999999999999
40
0.749999999999999
40
0.875
40
0.875
40
1
40
1
40
1
40
1
41
1
10
52.5084238778256
20
-2.72419627320505
30
0
41
1
10
52.5029168573671
20
-2.67624221123026
30
0
41
1
10
52.4974387254093
20
-2.62352529298369
30
0
41
1
10
52.4864611986405
20
-2.50854269624904
30
0
41
1
10
52.480957315282
20
-2.44627810085424
30
0
41
1
10
52.4739823924359
20
-2.36226924232585
30
0
41
1
10
52.4725859710543
20
-2.34518812376456
30
0
41
1
10
52.4698009476952
20
-2.31059847619099
30
0
41
1
10
52.4656303820214
20
-2.25801629781677
30
0
41
1
10
52.4614811039231
20
-2.20336459855744
30
0
41
1
10
52.4532060843329
20
-2.0913427404337
30
0
41
1
10
52.447722834312
20
-2.01304395398012
30
0
41
1
10
52.4367478760433
20
-1.84925222176525
30
0
41
1
10
52.4312521273721
20
-1.76375984207115
30
0
41
1
10
52.4229094885304
20
-1.62998210259118
30
0
41
1
10
52.42010739596
20
-1.5843346087803
30
0
41
1
10
52.414535235335
20
-1.49210915547582
30
0
41
1
10
52.4117611795224
20
-1.44547155228261
30
0
41
1
10
52.4034700810759
20
-1.3040137842105
30
0
41
1
10
52.3979862200354
20
-1.20765261986782
30
0
41
1
10
52.3870274228588
20
-1.01087584582868
30
0
41
1
10
52.3815487250805
20
-0.910460468995865
30
0
41
1
10
52.3760096418529
20
-0.807982168549074
30
0
0
SPLINE
5
1BB
100
AcDbEntity
8
1
62
256
6
ByLayer
370
18
48
1
60
0
100
AcDbSpline
70
4
71
3
72
27
73
23
40
0
40
0
40
0
40
0
40
0.125
40
0.125
40
0.25
40
0.25
40
0.312499999999999
40
0.34375
40
0.34375
40
0.375
40
0.375
40
0.499999999999999
40
0.499999999999999
40
0.624999999999999
40
0.749999999999999
40
0.749999999999999
40
0.781249999999999
40
0.781249999999999
40
0.812499999999999
40
0.874999999999999
40
0.874999999999999
40
1
40
1
40
1
40
1
41
1
10
52.2797328651457
20
-0.710075099421431
30
0
41
1
10
52.2852633058658
20
-0.813718068237137
30
0
41
1
10
52.2907712211524
20
-0.915328807481558
30
0
41
1
10
52.3018006827303
20
-1.11458910831743
30
0
41
1
10
52.3073089876362
20
-1.21223911492746
30
0
41
1
10
52.3155786465815
20
-1.35572526417431
30
0
41
1
10
52.3197160804545
20
-1.42671960288229
30
0
41
1
10
52.3238681905028
20
-1.49657308632274
30
0
41
1
10
52.3266412834171
20
-1.54288553332094
30
0
41
1
10
52.3280322565016
20
-1.56594535541447
30
0
41
1
10
52.334979228059
20
-1.68018097761416
30
0
41
1
10
52.3405033474564
20
-1.76787803591958
30
0
41
1
10
52.3515444121103
20
-1.93613784729615
30
0
41
1
10
52.3625518775191
20
-2.09726306753083
30
0
41
1
10
52.3735417112969
20
-2.24414497298207
30
0
41
1
10
52.3804664106768
20
-2.33135553872992
30
0
41
1
10
52.3818563437948
20
-2.34859159171722
30
0
41
1
10
52.3846339332146
20
-2.38246841563779
30
0
41
1
10
52.3887940594508
20
-2.43236036459612
30
0
41
1
10
52.3929478529159
20
-2.47951669048527
30
0
41
1
10
52.4012419255491
20
-2.5702443993836
30
0
41
1
10
52.4067511305511
20
-2.62595912384074
30
0
41
1
10
52.4122512828631
20
-2.67694985481754
30
0
0
SPLINE
5
1BC
100
AcDbEntity
8
1
62
256
6
ByLayer
370
18
48
1
60
0
100
AcDbSpline
70
4
71
3
72
24
73
20
40
0
40
0
40
0
40
0
40
0.125000000000001
40
0.250000000000002
40
0.250000000000002
40
0.281250000000002
40
0.281250000000002
40
0.312500000000002
40
0.375000000000002
40
0.375000000000002
40
0.500000000000002
40
0.625000000000003
40
0.625000000000003
40
0.687500000000002
40
0.687500000000002
40
0.750000000000002
40
0.750000000000002
40
0.875000000000001
40
1
40
1
40
1
40
1
41
1
10
45.036281164886
20
0.398875453796478
30
0
41
1
10
45.0449804887802
20
0.303091093841715
30
0
41
1
10
45.0622465579297
20
0.10998330585457
30
0
41
1
10
45.0794383534985
20
-0.0861698343314004
30
0
41
1
10
45.0902867184771
20
-0.209727590836423
30
0
41
1
10
45.0924588330263
20
-0.234453535359705
30
0
41
1
10
45.0967885561565
20
-0.283720926434881
30
0
41
1
10
45.1032696949284
20
-0.357438806448385
30
0
41
1
10
45.109709280146
20
-0.430613225659243
30
0
41
1
10
45.1225384842131
20
-0.576248058003642
30
0
41
1
10
45.139505116064
20
-0.7685274702296
30
0
41
1
10
45.1563941502648
20
-0.957026464907869
30
0
41
1
10
45.1691771092983
20
-1.09694602755079
30
0
41
1
10
45.1734629726186
20
-1.1434009834588
30
0
41
1
10
45.1819713594608
20
-1.23476709602454
30
0
41
1
10
45.1862055394195
20
-1.27980705821389
30
0
41
1
10
45.1988520810883
20
-1.41303109641765
30
0
41
1
10
45.2155591412354
20
-1.58561618423656
30
0
41
1
10
45.2321412917088
20
-1.74824586466346
30
0
41
1
10
45.2404942051142
20
-1.82703861704266
30
0
0
SPLINE
5
1BD
100
AcDbEntity
8
1
62
256
6
ByLayer
370
18
48
1
60
0
100
AcDbSpline
70
4
71
3
72
28
73
24
40
0
40
0
40
0
40
0
40
0.124999999999999
40
0.124999999999999
40
0.187499999999998
40
0.218749999999998
40
0.218749999999998
40
0.249999999999998
40
0.249999999999998
40
0.374999999999998
40
0.374999999999998
40
0.499999999999999
40
0.499999999999999
40
0.624999999999999
40
0.624999999999999
40
0.656249999999999
40
0.656249999999999
40
0.687499999999999
40
0.749999999999999
40
0.749999999999999
40
0.874999999999999
40
0.874999999999999
40
1
40
1
40
1
40
1
41
1
10
51.2222351967197
20
0.387719593534427
30
0
41
1
10
51.2277255464104
20
0.282861707213129
30
0
41
1
10
51.2331954133575
20
0.177443860817959
30
0
41
1
10
51.241464042942
20
0.0184750061481509
30
0
41
1
10
51.2456174350555
20
-0.0612201945790218
30
0
41
1
10
51.2497974291561
20
-0.141236940870698
30
0
41
1
10
51.2525898083462
20
-0.194653784001815
30
0
41
1
10
51.2539900197402
20
-0.221419965157423
30
0
41
1
10
51.2609655096479
20
-0.354659031610481
30
0
41
1
10
51.2664914403847
20
-0.459931923814935
30
0
41
1
10
51.2774911900516
20
-0.667921161203026
30
0
41
1
10
51.2829650109502
20
-0.770637273217204
30
0
41
1
10
51.2939809452596
20
-0.973504854166123
30
0
41
1
10
51.2995305816332
20
-1.07365621048106
30
0
41
1
10
51.3065121785644
20
-1.19718868859076
30
0
41
1
10
51.3079117062723
20
-1.22182657402644
30
0
41
1
10
51.3106995301309
20
-1.27064754297351
30
0
41
1
10
51.3148704120891
20
-1.34330205819839
30
0
41
1
10
51.3190118485931
20
-1.41424604318763
30
0
41
1
10
51.3272695999573
20
-1.55388859077618
30
0
41
1
10
51.3327392405331
20
-1.64399571292762
30
0
41
1
10
51.3437320092436
20
-1.81827162673693
30
0
41
1
10
51.349263423936
20
-1.90244041640716
30
0
41
1
10
51.3548256997463
20
-1.98356452016185
30
0
0
SPLINE
5
1BE
100
AcDbEntity
8
1
62
256
6
ByLayer
370
18
48
1
60
0
100
AcDbSpline
70
4
71
3
72
22
73
18
40
0
40
0
40
0
40
0
40
0.125
40
0.125
40
0.25
40
0.25
40
0.375
40
0.375
40
0.500000000000001
40
0.625000000000001
40
0.625000000000001
40
0.6875
40
0.6875
40
0.75
40
0.75
40
0.875
40
1
40
1
40
1
40
1
41
1
10
49.3356268537652
20
-0.0419387887585856
30
0
41
1
10
49.3301246713155
20
0.0637424308477534
30
0
41
1
10
49.3246100780929
20
0.169280743913248
30
0
41
1
10
49.313565962823
20
0.380071006786949
30
0
41
1
10
49.3080367076375
20
0.485323000432459
30
0
41
1
10
49.2969018655658
20
0.695526866781591
30
0
41
1
10
49.2913926761833
20
0.798644598115487
30
0
41
1
10
49.2803667804725
20
1.00093121226416
30
0
41
1
10
49.2693351413004
20
1.19930821520262
30
0
41
1
10
49.2583142597708
20
1.38990040660292
30
0
41
1
10
49.2500051639311
20
1.5298390399212
30
0
41
1
10
49.2472214150041
20
1.57608142702267
30
0
41
1
10
49.2416848836979
20
1.66653080649789
30
0
41
1
10
49.2389258363069
20
1.7108460352475
30
0
41
1
10
49.2306477365129
20
1.84111159899245
30
0
41
1
10
49.2196127429589
20
2.0076664716419
30
0
41
1
10
49.2086039542951
20
2.160127673501
30
0
41
1
10
49.2030769833625
20
2.23276143267148
30
0
0
SPLINE
5
1BF
100
AcDbEntity
8
1
62
256
6
ByLayer
370
18
48
1
60
0
100
AcDbSpline
70
4
71
3
72
25
73
21
40
0
40
0
40
0
40
0
40
0.125000000000001
40
0.250000000000001
40
0.250000000000001
40
0.312500000000001
40
0.312500000000001
40
0.375
40
0.375
40
0.5
40
0.5
40
0.625
40
0.625
40
0.749999999999999
40
0.749999999999999
40
0.812499999999999
40
0.812499999999999
40
0.874999999999999
40
0.874999999999999
40
1
40
1
40
1
40
1
41
1
10
49.1069198291363
20
2.3000207782197
30
0
41
1
10
49.1124868341234
20
2.22978531733975
30
0
41
1
10
49.1235241074706
20
2.08197722318127
30
0
41
1
10
49.1344552908504
20
1.91989424571926
30
0
41
1
10
49.1426981158282
20
1.79295619344225
30
0
41
1
10
49.1454551128264
20
1.74974585601035
30
0
41
1
10
49.1509976104998
20
1.6615039568371
30
0
41
1
10
49.1537838334108
20
1.61643131421388
30
0
41
1
10
49.162163067484
20
1.47867516890548
30
0
41
1
10
49.167695659525
20
1.38476144702989
30
0
41
1
10
49.1786983404173
20
1.19292900010581
30
0
41
1
10
49.184168456713
20
1.09500982969104
30
0
41
1
10
49.1951542937421
20
0.895183110188867
30
0
41
1
10
49.2006847998882
20
0.793276611534196
30
0
41
1
10
49.2090438979507
20
0.637338377467529
30
0
41
1
10
49.2118442036956
20
0.584760942301727
30
0
41
1
10
49.2174022198965
20
0.479783853911187
30
0
41
1
10
49.2201674886418
20
0.427244467845128
30
0
41
1
10
49.2284335768856
20
0.269477025690264
30
0
41
1
10
49.2339026328155
20
0.164099966285562
30
0
41
1
10
49.2393854626812
20
0.0585291823871046
30
0
0
SPLINE
5
1C0
100
AcDbEntity
8
1
62
256
6
ByLayer
370
18
48
1
60
0
100
AcDbSpline
70
4
71
3
72
29
73
25
40
0
40
0
40
0
40
0
40
0.0156250000000002
40
0.0156250000000002
40
0.0312500000000004
40
0.0312500000000004
40
0.0625000000000004
40
0.0625000000000004
40
0.125
40
0.125
40
0.25
40
0.25
40
0.375
40
0.375
40
0.5
40
0.5
40
0.625
40
0.625
40
0.75
40
0.75
40
0.8125
40
0.8125
40
0.875
40
1
40
1
40
1
40
1
41
1
10
57.23
20
2.08926245911948
30
0
41
1
10
57.23
20
2.0746460872445
30
0
41
1
10
57.23
20
2.0600631606448
30
0
41
1
10
57.23
20
2.03095970803182
30
0
41
1
10
57.2300000000001
20
2.01644222280976
30
0
41
1
10
57.2300000000001
20
1.97296219363267
30
0
41
1
10
57.23
20
1.94402727665374
30
0
41
1
10
57.23
20
1.85814145080346
30
0
41
1
10
57.23
20
1.80183959035358
30
0
41
1
10
57.2300000000001
20
1.63572482893488
30
0
41
1
10
57.23
20
1.52865291864217
30
0
41
1
10
57.23
20
1.32236596808204
30
0
41
1
10
57.23
20
1.2257512559656
30
0
41
1
10
57.23
20
1.04505746108251
30
0
41
1
10
57.23
20
0.9609844819378
30
0
41
1
10
57.2300000000001
20
0.805924411704467
30
0
41
1
10
57.23
20
0.737159380377818
30
0
41
1
10
57.23
20
0.616495172815803
30
0
41
1
10
57.23
20
0.564570896276109
30
0
41
1
10
57.23
20
0.49986400990943
30
0
41
1
10
57.23
20
0.480784900582847
30
0
41
1
10
57.23
20
0.447549655223241
30
0
41
1
10
57.2299999999999
20
0.405017536679423
30
0
41
1
10
57.23
20
0.38415490189675
30
0
41
1
10
57.23
20
0.380242884743552
30
0
0
SPLINE
5
1C1
100
AcDbEntity
8
1
62
256
6
ByLayer
370
18
48
1
60
0
100
AcDbSpline
70
4
71
3
72
18
73
14
40
0
40
0
40
0
40
0
40
0.0625000000000007
40
0.0625000000000007
40
0.125000000000001
40
0.125000000000001
40
0.250000000000001
40
0.250000000000001
40
0.500000000000001
40
0.500000000000001
40
0.75
40
0.75
40
1
40
1
40
1
40
1
41
1
10
56.8668025209287
20
2.44497791867818
30
0
41
1
10
56.8746385481036
20
2.43752027173707
30
0
41
1
10
56.8824876318287
20
2.43003350179526
30
0
41
1
10
56.898212159079
20
2.41500275529725
30
0
41
1
10
56.9060946828474
20
2.40745029246003
30
0
41
1
10
56.9296881576243
20
2.38482199836875
30
0
41
1
10
56.9453164605946
20
2.36980900075738
30
0
41
1
10
56.9919042522259
20
2.32494805420171
30
0
41
1
10
57.0225708674606
20
2.29527283946368
30
0
41
1
10
57.0831682610402
20
2.2361532196347
30
0
41
1
10
57.1130926903834
20
2.20671675419135
30
0
41
1
10
57.1721559288917
20
2.14794411236275
30
0
41
1
10
57.2013025537357
20
2.11860116877188
30
0
41
1
10
57.23
20
2.08926245911948
30
0
0
SPLINE
5
1C2
100
AcDbEntity
8
1
62
256
6
ByLayer
370
18
48
1
60
0
100
AcDbSpline
70
4
71
3
72
8
73
4
40
0
40
0
40
0
40
0
40
1
40
1
40
1
40
1
41
1
10
56.8668025209284
20
2.44497791867829
30
0
41
1
10
56.7937985109269
20
2.45780580180468
30
0
41
1
10
56.7214588099368
20
2.4683612719075
30
0
41
1
10
56.6496341076704
20
2.47658560577062
30
0
0
SPLINE
5
1C3
100
AcDbEntity
8
1
62
256
6
ByLayer
370
18
48
1
60
0
100
AcDbSpline
70
4
71
3
72
8
73
4
40
0
40
0
40
0
40
0
40
1
40
1
40
1
40
1
41
1
10
56.6496341076704
20
2.47658560577062
30
0
41
1
10
56.6459643504127
20
2.47011114575756
30
0
41
1
10
56.6422928691346
20
2.46362458201563
30
0
41
1
10
56.6386196179595
20
2.45712590630453
30
0
0
SPLINE
5
1C4
100
AcDbEntity
8
1
62
256
6
ByLayer
370
18
48
1
60
0
100
AcDbSpline
70
4
71
3
72
28
73
24
40
0
40
0
40
0
40
0
40
0.124999999999968
40
0.124999999999968
40
0.249999999999937
40
0.249999999999937
40
0.374999999999905
40
0.374999999999905
40
0.499999999999873
40
0.499999999999873
40
0.624999999999842
40
0.624999999999842
40
0.687499999999868
40
0.687499999999868
40
0.749999999999895
40
0.749999999999895
40
0.812499999999921
40
0.812499999999921
40
0.874999999999947
40
0.874999999999947
40
0.937499999999974
40
0.937499999999974
40
1
40
1
40
1
40
1
41
1
10
56.6386196179595
20
2.45712590630453
30
0
41
1
10
56.6314402523239
20
2.4444242513255
30
0
41
1
10
56.6231190001525
20
2.43317447332518
30
0
41
1
10
56.6047189605117
20
2.41288352734469
30
0
41
1
10
56.5945470605922
20
2.40381711172998
30
0
41
1
10
56.57329873162
20
2.38826324111543
30
0
41
1
10
56.5621592133427
20
2.38168945599031
30
0
41
1
10
56.538921744246
20
2.37085564620745
30
0
41
1
10
56.526709063595
20
2.36658190365685
30
0
41
1
10
56.5021178508576
20
2.3608080328307
30
0
41
1
10
56.4896874329516
20
2.35925380667055
30
0
41
1
10
56.4708527003069
20
2.35919623345848
30
0
41
1
10
56.4645424341113
20
2.35955981940776
30
0
41
1
10
56.4518562242679
20
2.36116710142858
30
0
41
1
10
56.445493358382
20
2.362416205893
30
0
41
1
10
56.4330398995541
20
2.36585459441685
30
0
41
1
10
56.4269100646322
20
2.36804636017075
30
0
41
1
10
56.4148808020841
20
2.373525174327
30
0
41
1
10
56.4089366840431
20
2.37684645865536
30
0
41
1
10
56.3976657201812
20
2.38460754819286
30
0
41
1
10
56.3923161377244
20
2.38904534932354
30
0
41
1
10
56.3822873462353
20
2.39922569738755
30
0
41
1
10
56.3776010491733
20
2.40499808329227
30
0
41
1
10
56.3734712346496
20
2.41136107038901
30
0
0
SPLINE
5
1C5
100
AcDbEntity
8
1
62
256
6
ByLayer
370
18
48
1
60
0
100
AcDbSpline
70
4
71
3
72
8
73
4
40
0
40
0
40
0
40
0
40
1
40
1
40
1
40
1
41
1
10
56.3734712346472
20
2.41136107039478
30
0
41
1
10
56.3545508451835
20
2.44051254762161
30
0
41
1
10
56.3356792178592
20
2.46936951900548
30
0
41
1
10
56.3168506683407
20
2.49793908248523
30
0
0
SPLINE
5
1C6
100
AcDbEntity
8
1
62
256
6
ByLayer
370
18
48
1
60
0
100
AcDbSpline
70
4
71
3
72
16
73
12
40
0
40
0
40
0
40
0
40
0.25
40
0.25
40
0.5
40
0.5
40
0.75
40
0.75
40
0.875
40
0.875
40
1
40
1
40
1
40
1
41
1
10
56.3168506683408
20
2.49793908248523
30
0
41
1
10
56.2675406110855
20
2.49858403199545
30
0
41
1
10
56.2183108945959
20
2.49810628064671
30
0
41
1
10
56.1197497620457
20
2.49504442326841
30
0
41
1
10
56.0703542004691
20
2.49250937693978
30
0
41
1
10
55.9715844154354
20
2.48524167447724
30
0
41
1
10
55.9222712068897
20
2.48046119478329
30
0
41
1
10
55.8484037943694
20
2.47150656656075
30
0
41
1
10
55.8237965771701
20
2.46822557742536
30
0
41
1
10
55.7746062150242
20
2.46106368533657
30
0
41
1
10
55.7499989356812
20
2.45717850442298
30
0
41
1
10
55.7254694075431
20
2.45300114145121
30
0
0
SPLINE
5
1C7
100
AcDbEntity
8
1
62
256
6
ByLayer
370
18
48
1
60
0
100
AcDbSpline
70
4
71
3
72
20
73
16
40
0
40
0
40
0
40
0
40
0.0475454669506461
40
0.0475454669506461
40
0.206287889125538
40
0.206287889125538
40
0.365030311300431
40
0.365030311300431
40
0.523772733475323
40
0.523772733475323
40
0.682515155650215
40
0.682515155650215
40
0.841257577825108
40
0.841257577825108
40
1
40
1
40
1
40
1
41
1
10
48.0219021571184
20
-2.41572739213711
30
0
41
1
10
48.0200222285226
20
-2.41602598707809
30
0
41
1
10
48.0181393768132
20
-2.41635738837718
30
0
41
1
10
48.0099577010429
20
-2.41794036913382
30
0
41
1
10
48.0036294988063
20
-2.41953489417173
30
0
41
1
10
47.9909084673827
20
-2.42359136939507
30
0
41
1
10
47.9845446073451
20
-2.42605037147598
30
0
41
1
10
47.9720935697323
20
-2.43182308635807
30
0
41
1
10
47.9659692962385
20
-2.43514662041653
30
0
41
1
10
47.9539607433576
20
-2.4428037300151
30
0
41
1
10
47.9480337016093
20
-2.44717828601068
30
0
41
1
10
47.9368138622315
20
-2.45686973909298
30
0
41
1
10
47.9314936729658
20
-2.46219310500717
30
0
41
1
10
47.9215275296258
20
-2.47395178158592
30
0
41
1
10
47.9168749180846
20
-2.48041625079384
30
0
41
1
10
47.9127741077863
20
-2.48733129014414
30
0
0
SPLINE
5
1C8
100
AcDbEntity
8
1
62
256
6
ByLayer
370
18
48
1
60
0
100
AcDbSpline
70
4
71
3
72
10
73
6
40
0
40
0
40
0
40
0
40
0.5
40
0.5
40
1
40
1
40
1
40
1
41
1
10
47.9127741077844
20
-2.48733129014357
30
0
41
1
10
47.8552709583596
20
-2.5842966487219
30
0
41
1
10
47.7982505049829
20
-2.67981692303778
30
0
41
1
10
47.6848449188645
20
-2.86801290660119
30
0
41
1
10
47.6287207215522
20
-2.96025112201608
30
0
41
1
10
47.5730374200012
20
-3.0505701073846
30
0
0
SPLINE
5
1C9
100
AcDbEntity
8
1
62
256
6
ByLayer
370
18
48
1
60
0
100
AcDbSpline
70
4
71
3
72
8
73
4
40
0
40
0
40
0
40
0
40
1
40
1
40
1
40
1
41
1
10
47.4768063631839
20
-3.0423447200254
30
0
41
1
10
47.5088731980211
20
-3.04564149511043
30
0
41
1
10
47.5409472358818
20
-3.04838265561924
30
0
41
1
10
47.573037419999
20
-3.05057010740467
30
0
0
SPLINE
5
1CA
100
AcDbEntity
8
1
62
256
6
ByLayer
370
18
48
1
60
0
100
AcDbSpline
70
4
71
3
72
12
73
8
40
0
40
0
40
0
40
0
40
0.25
40
0.25
40
0.5
40
0.5
40
1
40
1
40
1
40
1
41
1
10
47.4768063631838
20
-3.04234472002543
30
0
41
1
10
47.4475554332682
20
-2.99156332508315
30
0
41
1
10
47.4182057870505
20
-2.93997269393037
30
0
41
1
10
47.3592499498931
20
-2.83516370056552
30
0
41
1
10
47.3296291041721
20
-2.78191833675271
30
0
41
1
10
47.2404442621399
20
-2.62000112084172
30
0
41
1
10
47.1805064479746
20
-2.50905718196108
30
0
41
1
10
47.1200759797561
20
-2.39553560659485
30
0
0
SPLINE
5
1CB
100
AcDbEntity
8
1
62
256
6
ByLayer
370
18
48
1
60
0
100
AcDbSpline
70
4
71
3
72
28
73
24
40
0
40
0
40
0
40
0
40
0.124999999999968
40
0.124999999999968
40
0.249999999999937
40
0.249999999999937
40
0.374999999999905
40
0.374999999999905
40
0.499999999999873
40
0.499999999999873
40
0.624999999999841
40
0.624999999999841
40
0.687499999999868
40
0.687499999999868
40
0.749999999999894
40
0.749999999999894
40
0.812499999999921
40
0.812499999999921
40
0.874999999999947
40
0.874999999999947
40
0.937499999999974
40
0.937499999999974
40
1
40
1
40
1
40
1
41
1
10
47.1200759797542
20
-2.39553560659169
30
0
41
1
10
47.1129062392435
20
-2.38206690013206
30
0
41
1
10
47.104597426749
20
-2.36995800208098
30
0
41
1
10
47.086221778867
20
-2.34781035793489
30
0
41
1
10
47.0760614609272
20
-2.33773721512105
30
0
41
1
10
47.0548328593848
20
-2.3201135610436
30
0
41
1
10
47.0437023241936
20
-2.31247061006567
30
0
41
1
10
47.0204779242791
20
-2.29943078731694
30
0
41
1
10
47.0082694459891
20
-2.29400955854456
30
0
41
1
10
46.9836819994611
20
-2.28594232088614
30
0
41
1
10
46.9712505716708
20
-2.28323731338904
30
0
41
1
10
46.9524134332248
20
-2.28143954070058
30
0
41
1
10
46.9461021410121
20
-2.28122064921166
30
0
41
1
10
46.9334109796721
20
-2.28165840116347
30
0
41
1
10
46.9270457201429
20
-2.28232164363533
30
0
41
1
10
46.9145858529756
20
-2.28461476082069
30
0
41
1
10
46.908451892832
20
-2.28624355448247
30
0
41
1
10
46.8964125520616
20
-2.29061934832691
30
0
41
1
10
46.8904632641535
20
-2.29339643418876
30
0
41
1
10
46.8791903159893
20
-2.30011656480545
30
0
41
1
10
46.873841234294
20
-2.30405698644842
30
0
41
1
10
46.8638171366707
20
-2.31328986976564
30
0
41
1
10
46.8591366159138
20
-2.31860952058386
30
0
41
1
10
46.8550130293617
20
-2.32455916932332
30
0
0
SPLINE
5
1CC
100
AcDbEntity
8
1
62
256
6
ByLayer
370
18
48
1
60
0
100
AcDbSpline
70
4
71
3
72
10
73
6
40
0
40
0
40
0
40
0
40
0.5
40
0.5
40
1
40
1
40
1
40
1
41
1
10
46.8550130293591
20
-2.32455916932966
30
0
41
1
10
46.7975548710624
20
-2.4074617238914
30
0
41
1
10
46.7405620500651
20
-2.4869938980967
30
0
41
1
10
46.6271813011116
20
-2.63973685235862
30
0
41
1
10
46.5710397869295
20
-2.7125939493412
30
0
41
1
10
46.5153386548277
20
-2.78186364028539
30
0
0
SPLINE
5
1CD
100
AcDbEntity
8
1
62
256
6
ByLayer
370
18
48
1
60
0
100
AcDbSpline
70
4
71
3
72
8
73
4
40
0
40
0
40
0
40
0
40
1
40
1
40
1
40
1
41
1
10
46.41924085842
20
-2.73899208924919
30
0
41
1
10
46.4512342447312
20
-2.75377162963966
30
0
41
1
10
46.4832682355383
20
-2.76806169626886
30
0
41
1
10
46.5153386548277
20
-2.78186364028525
30
0
0
SPLINE
5
1CE
100
AcDbEntity
8
1
62
256
6
ByLayer
370
18
48
1
60
0
100
AcDbSpline
70
4
71
3
72
12
73
8
40
0
40
0
40
0
40
0
40
0.25
40
0.25
40
0.5
40
0.5
40
1
40
1
40
1
40
1
41
1
10
46.41924085842
20
-2.73899208924919
30
0
41
1
10
46.3899888597572
20
-2.67875067332426
30
0
41
1
10
46.3606336193178
20
-2.6182216769414
30
0
41
1
10
46.3016680925537
20
-2.49660535397473
30
0
41
1
10
46.2720434136564
20
-2.43548825374023
30
0
41
1
10
46.1828675133323
20
-2.25164212705244
30
0
41
1
10
46.1229774198055
20
-2.12832624127247
30
0
41
1
10
46.0626492017539
20
-2.00480882975037
30
0
0
SPLINE
5
1CF
100
AcDbEntity
8
1
62
256
6
ByLayer
370
18
48
1
60
0
100
AcDbSpline
70
4
71
3
72
28
73
24
40
0
40
0
40
0
40
0
40
0.125000000000001
40
0.125000000000001
40
0.250000000000002
40
0.250000000000002
40
0.375000000000002
40
0.375000000000002
40
0.500000000000002
40
0.500000000000002
40
0.625000000000002
40
0.625000000000002
40
0.687500000000002
40
0.687500000000002
40
0.750000000000001
40
0.750000000000001
40
0.812500000000001
40
0.812500000000001
40
0.875000000000001
40
0.875000000000001
40
0.9375
40
0.9375
40
1
40
1
40
1
40
1
41
1
10
46.0626492017522
20
-2.00480882974972
30
0
41
1
10
46.0554598259266
20
-1.99008913271518
30
0
41
1
10
46.047126322609
20
-1.97634961196309
30
0
41
1
10
46.0286996786373
20
-1.95036930943942
30
0
41
1
10
46.0185131738431
20
-1.93807108409035
30
0
41
1
10
45.9972419243575
20
-1.91562660397938
30
0
41
1
10
45.9860934561027
20
-1.90537423143971
30
0
41
1
10
45.9628430984276
20
-1.88671518330958
30
0
41
1
10
45.9506285361535
20
-1.87825514584517
30
0
41
1
10
45.9260396622828
20
-1.86385755821567
30
0
41
1
10
45.9136104016946
20
-1.85784958471177
30
0
41
1
10
45.8947796709643
20
-1.85084385945618
30
0
41
1
10
45.8884713617207
20
-1.84884620330197
30
0
41
1
10
45.875790302086
20
-1.84562237197329
30
0
41
1
10
45.8694353595802
20
-1.84440684423888
30
0
41
1
10
45.8569961241026
20
-1.84291664208521
30
0
41
1
10
45.8508735590132
20
-1.8426301647153
30
0
41
1
10
45.838859377562
20
-1.84311564579906
30
0
41
1
10
45.8329235830923
20
-1.84390158114135
30
0
41
1
10
45.8216686647164
20
-1.84668837755544
30
0
41
1
10
45.8163263319288
20
-1.84867942433928
30
0
41
1
10
45.8063100619642
20
-1.85406017161728
30
0
41
1
10
45.8016279232913
20
-1.8574740470462
30
0
41
1
10
45.7974999668848
20
-1.86161600133715
30
0
0
SPLINE
5
1D0
100
AcDbEntity
8
1
62
256
6
ByLayer
370
18
48
1
60
0
100
AcDbSpline
70
4
71
3
72
8
73
4
40
0
40
0
40
0
40
0
40
1
40
1
40
1
40
1
41
1
10
45.4857280244034
20
-2.13232990281051
30
0
41
1
10
45.4042983559546
20
-2.03109242838121
30
0
41
1
10
45.3226238317695
20
-1.92926592655587
30
0
41
1
10
45.2404942051142
20
-1.82703861704266
30
0
0
SPLINE
5
1D1
100
AcDbEntity
8
1
62
256
6
ByLayer
370
18
48
1
60
0
100
AcDbSpline
70
4
71
3
72
10
73
6
40
0
40
0
40
0
40
0
40
0.5
40
0.5
40
1
40
1
40
1
40
1
41
1
10
45.2404942051142
20
-1.82703861704266
30
0
41
1
10
45.2016547410362
20
-1.74679154584271
30
0
41
1
10
45.1626091887662
20
-1.66711510817657
30
0
41
1
10
45.0841145785971
20
-1.50923803314009
30
0
41
1
10
45.0446927356574
20
-1.43109146042647
30
0
41
1
10
45.005065413375
20
-1.35383261949951
30
0
0
SPLINE
5
1D2
100
AcDbEntity
8
1
62
256
6
ByLayer
370
18
48
1
60
0
100
AcDbSpline
70
4
71
3
72
28
73
24
40
0
40
0
40
0
40
0
40
0.125
40
0.125
40
0.249999999999999
40
0.249999999999999
40
0.374999999999999
40
0.374999999999999
40
0.499999999999998
40
0.499999999999998
40
0.624999999999998
40
0.624999999999998
40
0.687499999999998
40
0.687499999999998
40
0.749999999999998
40
0.749999999999998
40
0.812499999999999
40
0.812499999999999
40
0.874999999999999
40
0.874999999999999
40
0.9375
40
0.9375
40
1
40
1
40
1
40
1
41
1
10
45.0050654133748
20
-1.3538326194998
30
0
41
1
10
44.9978762114591
20
-1.33981629502546
30
0
41
1
10
44.9895417889645
20
-1.3262621389498
30
0
41
1
10
44.9711112349615
20
-1.2998732879997
30
0
41
1
10
44.9609210508159
20
-1.28696385008968
30
0
41
1
10
44.9396422841646
20
-1.26263606551072
30
0
41
1
10
44.9284901297038
20
-1.25111326613185
30
0
41
1
10
44.9052321272441
20
-1.22927191217613
30
0
41
1
10
44.8930139255621
20
-1.21887787051765
30
0
41
1
10
44.8684214047351
20
-1.20003930383291
30
0
41
1
10
44.855990745963
20
-1.19152128147124
30
0
41
1
10
44.8371591791958
20
-1.1802406667353
30
0
41
1
10
44.830850804066
20
-1.17673223614489
30
0
41
1
10
44.8181701089399
20
-1.17028684315048
30
0
41
1
10
44.8118199709407
20
-1.16736564277773
30
0
41
1
10
44.7993888550254
20
-1.16232168127567
30
0
41
1
10
44.7932704847889
20
-1.1601784526404
30
0
41
1
10
44.7812649829428
20
-1.15676300261643
30
0
41
1
10
44.7753342855323
20
-1.15548758844179
30
0
41
1
10
44.7640916369962
20
-1.15404324456495
30
0
41
1
10
44.758755156045
20
-1.15385936757801
30
0
41
1
10
44.7487496589767
20
-1.15475097372686
30
0
41
1
10
44.7440728667935
20
-1.15584186975349
30
0
41
1
10
44.7399490495209
20
-1.15765465716112
30
0
0
SPLINE
5
1D3
100
AcDbEntity
8
1
62
256
6
ByLayer
370
18
48
1
60
0
100
AcDbSpline
70
4
71
3
72
10
73
6
40
0
40
0
40
0
40
0
40
0.5
40
0.5
40
1
40
1
40
1
40
1
41
1
10
44.7071599210422
20
-1.17147935391677
30
0
41
1
10
44.6691063718171
20
-1.12582536403593
30
0
41
1
10
44.6307332002812
20
-1.08017655042011
30
0
41
1
10
44.5535684235925
20
-0.989282482760672
30
0
41
1
10
44.5148420903728
20
-0.944115233050184
30
0
41
1
10
44.4759474377991
20
-0.899247723098625
30
0
0
SPLINE
5
1D4
100
AcDbEntity
8
1
62
256
6
ByLayer
370
18
48
1
60
0
100
AcDbSpline
70
4
71
3
72
14
73
10
40
0
40
0
40
0
40
0
40
0.25
40
0.25
40
0.5
40
0.5
40
0.75
40
0.75
40
1
40
1
40
1
40
1
41
1
10
44.4759474377992
20
-0.899247723098597
30
0
41
1
10
44.4415362156196
20
-0.859552141536085
30
0
41
1
10
44.4061251006659
20
-0.820939889044439
30
0
41
1
10
44.3327853458148
20
-0.746457227277261
30
0
41
1
10
44.2948614484248
20
-0.710581079249977
30
0
41
1
10
44.2170103890058
20
-0.640996078694741
30
0
41
1
10
44.1770952213927
20
-0.607273961274302
30
0
41
1
10
44.0958148906685
20
-0.541381672564654
30
0
41
1
10
44.0544072492349
20
-0.50925850067577
30
0
41
1
10
44.0124131703801
20
-0.477755963624787
30
0
0
SPLINE
5
1D5
100
AcDbEntity
8
1
62
256
6
ByLayer
370
18
48
1
60
0
100
AcDbSpline
70
4
71
3
72
72
73
68
40
0
40
0
40
0
40
0
40
0.0312500000000023
40
0.0312500000000023
40
0.0625000000000047
40
0.093750000000007
40
0.093750000000007
40
0.125000000000009
40
0.125000000000009
40
0.156250000000012
40
0.156250000000012
40
0.187500000000014
40
0.187500000000014
40
0.218750000000016
40
0.218750000000016
40
0.250000000000019
40
0.250000000000019
40
0.281250000000021
40
0.281250000000021
40
0.312500000000023
40
0.343750000000026
40
0.343750000000026
40
0.375000000000028
40
0.375000000000028
40
0.390625000000029
40
0.390625000000029
40
0.40625000000003
40
0.40625000000003
40
0.421875000000032
40
0.421875000000032
40
0.437500000000033
40
0.437500000000033
40
0.500000000000028
40
0.500000000000028
40
0.515625000000029
40
0.515625000000029
40
0.531250000000029
40
0.531250000000029
40
0.562500000000029
40
0.593750000000029
40
0.609375000000029
40
0.609375000000029
40
0.625000000000029
40
0.625000000000029
40
0.640625000000029
40
0.640625000000029
40
0.656250000000029
40
0.656250000000029
40
0.687500000000029
40
0.687500000000029
40
0.750000000000024
40
0.750000000000024
40
0.781250000000022
40
0.781250000000022
40
0.81250000000002
40
0.81250000000002
40
0.875000000000016
40
0.875000000000016
40
0.890625000000014
40
0.890625000000014
40
0.906250000000013
40
0.906250000000013
40
0.937500000000009
40
0.937500000000009
40
0.968750000000005
40
0.968750000000005
40
1
40
1
40
1
40
1
41
1
10
44.0124131703801
20
-0.477755963624787
30
0
41
1
10
43.9508199116104
20
-0.431550784956727
30
0
41
1
10
43.8894288155964
20
-0.385140655392235
30
0
41
1
10
43.7671637538877
20
-0.291762420316957
30
0
41
1
10
43.6453544199157
20
-0.197906767023085
30
0
41
1
10
43.5242451889961
20
-0.10337330854091
30
0
41
1
10
43.4033762772182
20
-0.0086447016389002
30
0
41
1
10
43.3430658334486
20
0.0388221211643156
30
0
41
1
10
43.2224536437258
20
0.133649205600449
30
0
41
1
10
43.16214155078
20
0.180996068399963
30
0
41
1
10
43.0413290875939
20
0.275328182441228
30
0
41
1
10
42.9808612024082
20
0.32235545394488
30
0
41
1
10
42.8595381947006
20
0.415791509060625
30
0
41
1
10
42.7984502304502
20
0.461900028238432
30
0
41
1
10
42.6761000804715
20
0.553775291255562
30
0
41
1
10
42.6147482498278
20
0.599426203290051
30
0
41
1
10
42.4917621837133
20
0.690244388559591
30
0
41
1
10
42.4304261773124
20
0.73522410999135
30
0
41
1
10
42.3083228121606
20
0.824190220037394
30
0
41
1
10
42.1866808838365
20
0.912174711400041
30
0
41
1
10
42.0657304180716
20
0.997903954826114
30
0
41
1
10
41.9450130851818
20
1.08236480557457
30
0
41
1
10
41.8847876518412
20
1.12397916581702
30
0
41
1
10
41.7944405768336
20
1.18523525230341
30
0
41
1
10
41.7643213203298
20
1.20545757745688
30
0
41
1
10
41.7040304864157
20
1.24546105589883
30
0
41
1
10
41.6738734675799
20
1.26525766034061
30
0
41
1
10
41.6133553360153
20
1.3042502539582
30
0
41
1
10
41.5829723370869
20
1.32342411887618
30
0
41
1
10
41.5221673888822
20
1.36135536562966
30
0
41
1
10
41.4917262612078
20
1.38009196220008
30
0
41
1
10
41.3394121640313
20
1.47271845908284
30
0
41
1
10
41.2173234396635
20
1.54355075427813
30
0
41
1
10
41.0639264128147
20
1.62739615838473
30
0
41
1
10
41.0332354951726
20
1.64392103759477
30
0
41
1
10
40.9720313735105
20
1.67637779385748
30
0
41
1
10
40.9414906451941
20
1.69232600453245
30
0
41
1
10
40.850047670534
20
1.73932800445226
30
0
41
1
10
40.7285909315696
20
1.79973992006182
30
0
41
1
10
40.5776267465
20
1.86936292116027
30
0
41
1
10
40.4872966614515
20
1.9083816632388
30
0
41
1
10
40.4271170717578
20
1.93377126598745
30
0
41
1
10
40.3970551476802
20
1.9461591189787
30
0
41
1
10
40.3368362591406
20
1.97022345196487
30
0
41
1
10
40.3066613671677
20
1.98188871409082
30
0
41
1
10
40.246139651274
20
2.00447614635098
30
0
41
1
10
40.2158111593997
20
2.01541069749291
30
0
41
1
10
40.1247896189035
20
2.04725002148629
30
0
41
1
10
40.0640432173069
20
2.06718002981282
30
0
41
1
10
39.8818001777914
20
2.12316828611111
30
0
41
1
10
39.7604400991371
20
2.15548920876535
30
0
41
1
10
39.5779905379759
20
2.195787783199
30
0
41
1
10
39.5170929390865
20
2.20785413944032
30
0
41
1
10
39.3950341716825
20
2.22912418615783
30
0
41
1
10
39.3342720120306
20
2.23825893115691
30
0
41
1
10
39.1523425954271
20
2.26111842733522
30
0
41
1
10
39.0314400459868
20
2.27027503819804
30
0
41
1
10
38.8798814175884
20
2.27441150264141
30
0
41
1
10
38.849561326485
20
2.27487538356724
30
0
41
1
10
38.7889724233717
20
2.27508085236832
30
0
41
1
10
38.7587064998506
20
2.27482155115703
30
0
41
1
10
38.6678936708416
20
2.27295890169191
30
0
41
1
10
38.607280863407
20
2.27027680846913
30
0
41
1
10
38.4860205671178
20
2.26204252113888
30
0
41
1
10
38.4254058899664
20
2.25648660411073
30
0
41
1
10
38.3043120987263
20
2.2424250127992
30
0
41
1
10
38.2438062270326
20
2.23392123609608
30
0
41
1
10
38.1832678578543
20
2.22392488881474
30
0
0
SPLINE
5
1D6
100
AcDbEntity
8
1
62
256
6
ByLayer
370
18
48
1
60
0
100
AcDbSpline
70
4
71
3
72
74
73
70
40
0
40
0
40
0
40
0
40
0.031250000000002
40
0.031250000000002
40
0.0625000000000039
40
0.0625000000000039
40
0.125000000000008
40
0.125000000000008
40
0.140625000000009
40
0.140625000000009
40
0.15625000000001
40
0.15625000000001
40
0.187500000000012
40
0.187500000000012
40
0.203125000000014
40
0.203125000000014
40
0.218750000000015
40
0.218750000000015
40
0.250000000000021
40
0.250000000000021
40
0.281250000000026
40
0.281250000000026
40
0.312500000000031
40
0.312500000000031
40
0.343750000000037
40
0.343750000000037
40
0.375000000000042
40
0.375000000000042
40
0.406250000000048
40
0.406250000000048
40
0.42187500000005
40
0.42187500000005
40
0.437500000000053
40
0.437500000000053
40
0.468750000000055
40
0.468750000000055
40
0.500000000000056
40
0.500000000000056
40
0.515625000000057
40
0.515625000000057
40
0.531250000000058
40
0.531250000000058
40
0.56250000000006
40
0.56250000000006
40
0.62500000000006
40
0.62500000000006
40
0.640625000000059
40
0.640625000000059
40
0.656250000000057
40
0.656250000000057
40
0.671875000000055
40
0.671875000000055
40
0.687500000000054
40
0.687500000000054
40
0.750000000000047
40
0.750000000000047
40
0.81250000000004
40
0.81250000000004
40
0.843750000000039
40
0.843750000000039
40
0.859375000000036
40
0.859375000000036
40
0.875000000000034
40
0.875000000000034
40
0.906250000000025
40
0.906250000000025
40
0.937500000000017
40
0.937500000000017
40
1
40
1
40
1
40
1
41
1
10
36.5235549806089
20
1.85609101622654
30
0
41
1
10
36.6017175729264
20
1.82081627103707
30
0
41
1
10
36.6797382352768
20
1.78374842362444
30
0
41
1
10
36.8357013868953
20
1.70629827646005
30
0
41
1
10
36.9136333928533
20
1.6659096312726
30
0
41
1
10
37.1472404565167
20
1.53979812038926
30
0
41
1
10
37.3027646873763
20
1.44919606339747
30
0
41
1
10
37.4968249288897
20
1.32751033638078
30
0
41
1
10
37.5356144599109
20
1.30274315464129
30
0
41
1
10
37.6131937903005
20
1.25238322452122
30
0
41
1
10
37.6519765142749
20
1.22678189808133
30
0
41
1
10
37.7685908248374
20
1.14902058891809
30
0
41
1
10
37.8467310435074
20
1.09595741761726
30
0
41
1
10
37.9645519618896
20
1.01454433849713
30
0
41
1
10
38.0039532372035
20
0.987090465455907
30
0
41
1
10
38.0825512348967
20
0.931898160797004
30
0
41
1
10
38.1217996151735
20
0.90412495693738
30
0
41
1
10
38.2394070734408
20
0.820296890991159
30
0
41
1
10
38.3176315483685
20
0.763737996499344
30
0
41
1
10
38.4737143584621
20
0.64928237445713
30
0
41
1
10
38.5515549405153
20
0.591363138282304
30
0
41
1
10
38.70690764369
20
0.47423251333484
30
0
41
1
10
38.7844512162819
20
0.415061493503572
30
0
41
1
10
38.9392171643756
20
0.295422796250676
30
0
41
1
10
39.0164174171883
20
0.234923014392194
30
0
41
1
10
39.1715245864974
20
0.113950647461138
30
0
41
1
10
39.2493652236532
20
0.0533945426385571
30
0
41
1
10
39.4056870128174
20
-0.0677662442519704
30
0
41
1
10
39.4841713423407
20
-0.128366580640005
30
0
41
1
10
39.6024129801308
20
-0.219264571234333
30
0
41
1
10
39.6418647369311
20
-0.249523944915154
30
0
41
1
10
39.7205308740565
20
-0.309715011860874
30
0
41
1
10
39.7597915223078
20
-0.339682355386031
30
0
41
1
10
39.8773560866982
20
-0.429205469790872
30
0
41
1
10
39.955440763855
20
-0.488386030280708
30
0
41
1
10
40.1109913046771
20
-0.6057907485947
30
0
41
1
10
40.188445629599
20
-0.664028035527508
30
0
41
1
10
40.304307692446
20
-0.750464014379162
30
0
41
1
10
40.3429053683015
20
-0.779084666972494
30
0
41
1
10
40.4202577209963
20
-0.835698041039564
30
0
41
1
10
40.458992330026
20
-0.863716045777352
30
0
41
1
10
40.5752972547839
20
-0.947000529551104
30
0
41
1
10
40.6529891514238
20
-1.00147264178258
30
0
41
1
10
40.8866778691255
20
-1.16157706875927
30
0
41
1
10
41.0432760899603
20
-1.263928229074
30
0
41
1
10
41.2401915548423
20
-1.38604317633607
30
0
41
1
10
41.2795222948108
20
-1.41010419502876
30
0
41
1
10
41.3579358404638
20
-1.45739911560327
30
0
41
1
10
41.3970433898757
20
-1.48064810741116
30
0
41
1
10
41.4750679484169
20
-1.52634249833838
30
0
41
1
10
41.5139912369429
20
-1.54878218147019
30
0
41
1
10
41.5915899924766
20
-1.59290898772519
30
0
41
1
10
41.6303160996015
20
-1.6145458144976
30
0
41
1
10
41.8240877040016
20
-1.72015073460656
30
0
41
1
10
41.9793019562197
20
-1.79667551665912
30
0
41
1
10
42.2904021178061
20
-1.93413946815144
30
0
41
1
10
42.4463055575482
20
-1.99507088177873
30
0
41
1
10
42.6807733739337
20
-2.07434553449156
30
0
41
1
10
42.7591000252764
20
-2.09871304718712
30
0
41
1
10
42.8767085711359
20
-2.13208665727333
30
0
41
1
10
42.9157735029982
20
-2.14264699064202
30
0
41
1
10
42.9939985250616
20
-2.16248465719073
30
0
41
1
10
43.0330932054684
20
-2.1717929768445
30
0
41
1
10
43.1503436685957
20
-2.1979028187111
30
0
41
1
10
43.2284900884252
20
-2.21288000034082
30
0
41
1
10
43.3849541057187
20
-2.23801945267425
30
0
41
1
10
43.4632552394089
20
-2.24819017899401
30
0
41
1
10
43.6983147272835
20
-2.27157073103902
30
0
41
1
10
43.855279359223
20
-2.27769321331689
30
0
41
1
10
44.0124131703801
20
-2.2739259575913
30
0
0
SPLINE
5
1D7
100
AcDbEntity
8
1
62
256
6
ByLayer
370
18
48
1
60
0
100
AcDbSpline
70
4
71
3
72
12
73
8
40
0
40
0
40
0
40
0
40
0.25
40
0.25
40
0.5
40
0.5
40
1
40
1
40
1
40
1
41
1
10
55.886072213476
20
1.5311801749036
30
0
41
1
10
55.9469731503834
20
1.47972705810693
30
0
41
1
10
56.0077323494564
20
1.42773722397652
30
0
41
1
10
56.1292416355062
20
1.32296600645591
30
0
41
1
10
56.1901406610513
20
1.27032891406242
30
0
41
1
10
56.3735881767784
20
1.11202828754588
30
0
41
1
10
56.4967439917949
20
1.00583891001006
30
0
41
1
10
56.6210851478883
20
0.899414943577511
30
0
0
SPLINE
5
1D8
100
AcDbEntity
8
1
62
256
6
ByLayer
370
18
48
1
60
0
100
AcDbSpline
70
4
71
3
72
20
73
16
40
0
40
0
40
0
40
0
40
0.12500000000005
40
0.12500000000005
40
0.2500000000001
40
0.2500000000001
40
0.375000000000151
40
0.375000000000151
40
0.500000000000201
40
0.500000000000201
40
0.750000000000168
40
0.750000000000168
40
0.875000000000084
40
0.875000000000084
40
1
40
1
40
1
40
1
41
1
10
56.6210851478883
20
0.899414943577511
30
0
41
1
10
56.626950416168
20
0.892560200638769
30
0
41
1
10
56.6332589609868
20
0.885612366769124
30
0
41
1
10
56.6464947125011
20
0.871733104858436
30
0
41
1
10
56.6533237861395
20
0.864901059837081
30
0
41
1
10
56.6673376397868
20
0.851415200334827
30
0
41
1
10
56.6745230048171
20
0.844761675832643
30
0
41
1
10
56.689216376034
20
0.831611290506629
30
0
41
1
10
56.6967637487851
20
0.825083180795929
30
0
41
1
10
56.7194280029907
20
0.80607961557547
30
0
41
1
10
56.7346472401959
20
0.794092236089341
30
0
41
1
10
56.7575638455497
20
0.777034628609499
30
0
41
1
10
56.7652103001272
20
0.771513233784589
30
0
41
1
10
56.7801667405387
20
0.761037936114946
30
0
41
1
10
56.7875214830866
20
0.756050303946125
30
0
41
1
10
56.7947403708996
20
0.751319485732125
30
0
0
SPLINE
5
1D9
100
AcDbEntity
8
1
62
256
6
ByLayer
370
18
48
1
60
0
100
AcDbSpline
70
4
71
3
72
8
73
4
40
0
40
0
40
0
40
0
40
1
40
1
40
1
40
1
41
1
10
56.7947403708998
20
0.751319485732949
30
0
41
1
10
56.836241446647
20
0.716064279656365
30
0
41
1
10
56.8778773909541
20
0.680792442026274
30
0
41
1
10
56.9196899559552
20
0.645549616464137
30
0
0
SPLINE
5
1DA
100
AcDbEntity
8
1
62
256
6
ByLayer
370
18
48
1
60
0
100
AcDbSpline
70
4
71
3
72
14
73
10
40
0
40
0
40
0
40
0
40
0.25
40
0.25
40
0.5
40
0.5
40
0.75
40
0.75
40
1
40
1
40
1
40
1
41
1
10
57.2300000000006
20
0.380242884743126
30
0
41
1
10
57.203270759153
20
0.398248408884172
30
0
41
1
10
57.1767775251136
20
0.417293879181926
30
0
41
1
10
57.1241838770493
20
0.457351113958509
30
0
41
1
10
57.0980758095387
20
0.478333893154115
30
0
41
1
10
57.0462096848809
20
0.522285043482071
30
0
41
1
10
57.020507825876
20
0.54546707152511
30
0
41
1
10
56.9694775648976
20
0.594160159551109
30
0
41
1
10
56.9443662580513
20
0.61947370761402
30
0
41
1
10
56.91968995595
20
0.645549616465587
30
0
0
SPLINE
5
1DB
100
AcDbEntity
8
1
62
256
6
ByLayer
370
18
48
1
60
0
100
AcDbSpline
70
4
71
3
72
8
73
4
40
0
40
0
40
0
40
0
40
1
40
1
40
1
40
1
41
1
10
53.4698397212288
20
-3.0262414291675
30
0
41
1
10
53.5019015670838
20
-3.03101775985985
30
0
41
1
10
53.5339669272796
20
-3.03524167902839
30
0
41
1
10
53.5660514401172
20
-3.0389111594543
30
0
0
SPLINE
5
1DC
100
AcDbEntity
8
1
62
256
6
ByLayer
370
18
48
1
60
0
100
AcDbSpline
70
4
71
3
72
8
73
4
40
0
40
0
40
0
40
0
40
1
40
1
40
1
40
1
41
1
10
49.2393854626715
20
0.058529182384973
30
0
41
1
10
49.2714762741575
20
0.0250635333966613
30
0
41
1
10
49.3035421336488
20
-0.0084398256450697
30
0
41
1
10
49.3356268537653
20
-0.0419387887585856
30
0
0
SPLINE
5
1DD
100
AcDbEntity
8
1
62
256
6
ByLayer
370
18
48
1
60
0
100
AcDbSpline
70
4
71
3
72
8
73
4
40
0
40
0
40
0
40
0
40
1
40
1
40
1
40
1
41
1
10
48.1817802848904
20
1.13775050763124
30
0
41
1
10
48.213855446168
20
1.10655690291506
30
0
41
1
10
48.2459188767754
20
1.07514385297844
30
0
41
1
10
48.2779806630572
20
1.04351971459977
30
0
0
SPLINE
5
1DE
100
AcDbEntity
8
1
62
256
6
ByLayer
370
18
48
1
60
0
100
AcDbSpline
70
4
71
3
72
8
73
4
40
0
40
0
40
0
40
0
40
1
40
1
40
1
40
1
41
1
10
46.066727431738
20
2.73042477721086
30
0
41
1
10
46.0987547883173
20
2.71530441596192
30
0
41
1
10
46.1308042829847
20
2.69969661512951
30
0
41
1
10
46.1628855435627
20
2.68360680945466
30
0
0
SPLINE
5
1DF
100
AcDbEntity
8
1
62
256
6
ByLayer
370
18
48
1
60
0
100
AcDbSpline
70
4
71
3
72
10
73
6
40
0
40
0
40
0
40
0
40
0.5
40
0.5
40
1
40
1
40
1
40
1
41
1
10
45.2264334045723
20
2.81663981011749
30
0
41
1
10
45.1358839370312
20
2.77936275871804
30
0
41
1
10
45.0449217298605
20
2.73586038815148
30
0
41
1
10
44.8614485947175
20
2.63663670067766
30
0
41
1
10
44.7689519424944
20
2.58090759161729
30
0
41
1
10
44.6748970098029
20
2.51885456533196
30
0
0
SPLINE
5
1E0
100
AcDbEntity
8
1
62
256
6
ByLayer
370
18
48
1
60
0
100
AcDbSpline
70
4
71
3
72
32
73
28
40
0
40
0
40
0
40
0
40
0.109428928510489
40
0.109428928510489
40
0.146536056489214
40
0.146536056489214
40
0.18364318446794
40
0.18364318446794
40
0.220750312446665
40
0.220750312446665
40
0.257857440425391
40
0.257857440425391
40
0.406285952340309
40
0.406285952340309
40
0.554714464255228
40
0.554714464255228
40
0.628928720212691
40
0.628928720212691
40
0.666035848191418
40
0.666035848191418
40
0.703142976170146
40
0.703142976170146
40
0.777357232127609
40
0.777357232127609
40
0.851571488085073
40
0.851571488085073
40
1
40
1
40
1
40
1
41
1
10
40.8538579949818
20
2.27500622383033
30
0
41
1
10
40.9690347085661
20
2.27498862970194
30
0
41
1
10
41.0846677120804
20
2.26975560211781
30
0
41
1
10
41.2401915548423
20
2.25557688271584
30
0
41
1
10
41.2795222948108
20
2.25137648132335
30
0
41
1
10
41.3579358404638
20
2.24177766020401
30
0
41
1
10
41.3970433898757
20
2.23637709844814
30
0
41
1
10
41.4750679484169
20
2.22437717561942
30
0
41
1
10
41.5139912369428
20
2.21778009962571
30
0
41
1
10
41.5915899924765
20
2.20336502152031
30
0
41
1
10
41.6303160996015
20
2.19556059234563
30
0
41
1
10
41.8240877040016
20
2.15375663735344
30
0
41
1
10
41.9793019562198
20
2.11139158094551
30
0
41
1
10
42.2904021178061
20
2.00959558458925
30
0
41
1
10
42.4463055575482
20
1.95018050515236
30
0
41
1
10
42.6807733739338
20
1.84791186624122
30
0
41
1
10
42.7591000252764
20
1.81166165211914
30
0
41
1
10
42.8767085711359
20
1.7538536508608
30
0
41
1
10
42.9157735029982
20
1.73406111273644
30
0
41
1
10
42.9939985250616
20
1.69375218564173
30
0
41
1
10
43.0330932054684
20
1.67318134602482
30
0
41
1
10
43.1503436685957
20
1.61025305057791
30
0
41
1
10
43.2284900884252
20
1.56670143448136
30
0
41
1
10
43.3849541057187
20
1.47666977014128
30
0
41
1
10
43.4632552394089
20
1.43017644229255
30
0
41
1
10
43.6983147272835
20
1.28624792334546
30
0
41
1
10
43.855279359223
20
1.18445013070394
30
0
41
1
10
44.0124131703801
20
1.07642947944129
30
0
0
SPLINE
5
1E1
100
AcDbEntity
8
1
62
256
6
ByLayer
370
18
48
1
60
0
100
AcDbSpline
70
4
71
3
72
16
73
12
40
0
40
0
40
0
40
0
40
0.249999999999987
40
0.249999999999987
40
0.499999999999974
40
0.499999999999974
40
0.749999999999961
40
0.749999999999961
40
0.874999999999981
40
0.874999999999981
40
1
40
1
40
1
40
1
41
1
10
44.0124131703801
20
1.07642947944129
30
0
41
1
10
44.0529782824374
20
1.04854324801406
30
0
41
1
10
44.0931564336166
20
1.02169189953409
30
0
41
1
10
44.1725764834973
20
0.969752460638205
30
0
41
1
10
44.2117101127963
20
0.944528315634642
30
0
41
1
10
44.2889447598211
20
0.895736746018827
30
0
41
1
10
44.3271135290834
20
0.872263462295251
30
0
41
1
10
44.3835677373322
20
0.838513181728786
30
0
41
1
10
44.4022486652356
20
0.827501863388818
30
0
41
1
10
44.4393326246745
20
0.806022156621196
30
0
41
1
10
44.4577423709708
20
0.795566072405109
30
0
41
1
10
44.4759474377992
20
0.785321102690574
30
0
0
SPLINE
5
1E2
100
AcDbEntity
8
1
62
256
6
ByLayer
370
18
48
1
60
0
100
AcDbSpline
70
4
71
3
72
8
73
4
40
0
40
0
40
0
40
0
40
1
40
1
40
1
40
1
41
1
10
44.4759474377991
20
0.785321102690574
30
0
41
1
10
44.52334932174
20
0.758645514516928
30
0
41
1
10
44.5702968861487
20
0.730665056368423
30
0
41
1
10
44.6168702805222
20
0.701462713853374
30
0
0
SPLINE
5
1E3
100
AcDbEntity
8
1
62
256
6
ByLayer
370
18
48
1
60
0
100
AcDbSpline
70
4
71
3
72
8
73
4
40
0
40
0
40
0
40
0
40
1
40
1
40
1
40
1
41
1
10
44.6168702805221
20
0.701462713853374
30
0
41
1
10
44.6170617037264
20
0.701209864944531
30
0
41
1
10
44.6172531338991
20
0.700957063832533
30
0
41
1
10
44.6174445710516
20
0.700704310533894
30
0
0
SPLINE
5
1E4
100
AcDbEntity
8
1
62
256
6
ByLayer
370
18
48
1
60
0
100
AcDbSpline
70
4
71
3
72
8
73
4
40
0
40
0
40
0
40
0
40
1
40
1
40
1
40
1
41
1
10
45.0362811648859
20
0.398875453796478
30
0
41
1
10
45.1556163263884
20
0.30146777839488
30
0
41
1
10
45.2731592681441
20
0.195883109021366
30
0
41
1
10
45.3894513482877
20
0.081987611750975
30
0
0
SPLINE
5
1E5
100
AcDbEntity
8
1
62
256
6
ByLayer
370
18
48
1
60
0
100
AcDbSpline
70
4
71
3
72
8
73
4
40
0
40
0
40
0
40
0
40
1
40
1
40
1
40
1
41
1
10
46.382961700983
20
-0.936331529120594
30
0
41
1
10
46.350901817974
20
-0.904621935468498
30
0
41
1
10
46.318862519128
20
-0.872786150095493
30
0
41
1
10
46.2868440185929
20
-0.840824618394294
30
0
0
SPLINE
5
1E6
100
AcDbEntity
8
1
62
256
6
ByLayer
370
18
48
1
60
0
100
AcDbSpline
70
4
71
3
72
28
73
24
40
0
40
0
40
0
40
0
40
0.124999999999974
40
0.124999999999974
40
0.187499999999993
40
0.187499999999993
40
0.250000000000013
40
0.250000000000013
40
0.375000000000052
40
0.375000000000052
40
0.500000000000092
40
0.500000000000092
40
0.562500000000111
40
0.562500000000111
40
0.62500000000013
40
0.62500000000013
40
0.750000000000087
40
0.750000000000087
40
0.812500000000065
40
0.812500000000065
40
0.875000000000043
40
0.875000000000043
40
1
40
1
40
1
40
1
41
1
10
46.7322797511782
20
-1.05030419926979
30
0
41
1
10
46.7400263020149
20
-1.05128329973451
30
0
41
1
10
46.7491335593402
20
-1.05402188367921
30
0
41
1
10
46.76427383985
20
-1.0600251014983
30
0
41
1
10
46.7696075020504
20
-1.06236950787695
30
0
41
1
10
46.7805078322467
20
-1.06755410734411
30
0
41
1
10
46.7860883544198
20
-1.07039736437221
30
0
41
1
10
46.803171418199
20
-1.079604285485
30
0
41
1
10
46.8150229023503
20
-1.08664587565124
30
0
41
1
10
46.8394691949618
20
-1.10237108227901
30
0
41
1
10
46.8517695819031
20
-1.11086393186522
30
0
41
1
10
46.8703044448575
20
-1.12451859426179
30
0
41
1
10
46.8764968104406
20
-1.12922463364836
30
0
41
1
10
46.8889033822707
20
-1.13896419822535
30
0
41
1
10
46.8951299712241
20
-1.14400970285581
30
0
41
1
10
46.9134747620109
20
-1.15937776184762
30
0
41
1
10
46.9253771743621
20
-1.1700142273418
30
0
41
1
10
46.9426427005013
20
-1.18666628159434
30
0
41
1
10
46.9482990404392
20
-1.19233418404323
30
0
41
1
10
46.9593811862367
20
-1.20394286648789
30
0
41
1
10
46.9648261882977
20
-1.20990978381477
30
0
41
1
10
46.98025829558
20
-1.22773515783894
30
0
41
1
10
46.9895317926535
20
-1.23967507108455
30
0
41
1
10
46.9973920052469
20
-1.25168009844359
30
0
0
SPLINE
5
1E7
100
AcDbEntity
8
1
62
256
6
ByLayer
370
18
48
1
60
0
100
AcDbSpline
70
4
71
3
72
10
73
6
40
0
40
0
40
0
40
0
40
0.5
40
0.5
40
1
40
1
40
1
40
1
41
1
10
46.9973920052487
20
-1.25168009844629
30
0
41
1
10
47.0563915297279
20
-1.34179100793355
30
0
41
1
10
47.1147153875502
20
-1.43507837287365
30
0
41
1
10
47.2304666829148
20
-1.62764525737725
30
0
41
1
10
47.2876847227374
20
-1.72656875697004
30
0
41
1
10
47.3444197068735
20
-1.82788234850278
30
0
0
SPLINE
5
1E8
100
AcDbEntity
8
1
62
256
6
ByLayer
370
18
48
1
60
0
100
AcDbSpline
70
4
71
3
72
8
73
4
40
0
40
0
40
0
40
0
40
1
40
1
40
1
40
1
41
1
10
47.4406631658465
20
-1.90714766817501
30
0
41
1
10
47.4085406839129
20
-1.88104869557185
30
0
41
1
10
47.3764603427471
20
-1.8546260472641
30
0
41
1
10
47.3444197068733
20
-1.82788234850273
30
0
0
SPLINE
5
1E9
100
AcDbEntity
8
1
62
256
6
ByLayer
370
18
48
1
60
0
100
AcDbSpline
70
4
71
3
72
10
73
6
40
0
40
0
40
0
40
0
40
0.5
40
0.5
40
1
40
1
40
1
40
1
41
1
10
47.4406631658465
20
-1.90714766817501
30
0
41
1
10
47.4976497689663
20
-1.89707319728166
30
0
41
1
10
47.5551717433344
20
-1.88141228955044
30
0
41
1
10
47.6716248562556
20
-1.83880615036816
30
0
41
1
10
47.7303344637753
20
-1.81195692234545
30
0
41
1
10
47.7897796918689
20
-1.77944864139951
30
0
0
SPLINE
5
1EA
100
AcDbEntity
8
1
62
256
6
ByLayer
370
18
48
1
60
0
100
AcDbSpline
70
4
71
3
72
28
73
24
40
0
40
0
40
0
40
0
40
0.125000000000013
40
0.125000000000013
40
0.187500000000054
40
0.187500000000054
40
0.250000000000094
40
0.250000000000094
40
0.375000000000175
40
0.375000000000175
40
0.500000000000256
40
0.500000000000256
40
0.562500000000254
40
0.562500000000254
40
0.625000000000253
40
0.625000000000253
40
0.750000000000168
40
0.750000000000168
40
0.812500000000126
40
0.812500000000126
40
0.875000000000083
40
0.875000000000083
40
1
40
1
40
1
40
1
41
1
10
47.7897796918689
20
-1.77944864139951
30
0
41
1
10
47.7975155831807
20
-1.7752181836118
30
0
41
1
10
47.8066159301135
20
-1.77312059019695
30
0
41
1
10
47.8217578989817
20
-1.77228127976397
30
0
41
1
10
47.8270940616202
20
-1.77240360444986
30
0
41
1
10
47.8380010492485
20
-1.77336446591147
30
0
41
1
10
47.8435867717794
20
-1.77419781043588
30
0
41
1
10
47.8606925971622
20
-1.77764557938809
30
0
41
1
10
47.8725797388808
20
-1.78120353555661
30
0
41
1
10
47.8970723245349
20
-1.79062754279894
30
0
41
1
10
47.9093973978178
20
-1.79638341007541
30
0
41
1
10
47.9279580808947
20
-1.80651986834607
30
0
41
1
10
47.9341573230264
20
-1.81015187515354
30
0
41
1
10
47.9465745255016
20
-1.81794459407956
30
0
41
1
10
47.952795600735
20
-1.8221107426574
30
0
41
1
10
47.971117343411
20
-1.83519511203707
30
0
41
1
10
47.9830013061157
20
-1.84476019831126
30
0
41
1
10
48.0002379062703
20
-1.86054991898655
30
0
41
1
10
48.0058843482419
20
-1.86605581273051
30
0
41
1
10
48.0169467010278
20
-1.87762622515135
30
0
41
1
10
48.0223611738367
20
-1.88369771414233
30
0
41
1
10
48.0377035525922
20
-1.90230147055027
30
0
41
1
10
48.0469290310326
20
-1.91536929502911
30
0
41
1
10
48.0547588511872
20
-1.92936090575
30
0
0
SPLINE
5
1EB
100
AcDbEntity
8
1
62
256
6
ByLayer
370
18
48
1
60
0
100
AcDbSpline
70
4
71
3
72
10
73
6
40
0
40
0
40
0
40
0
40
0.5
40
0.5
40
1
40
1
40
1
40
1
41
1
10
48.0547588511872
20
-1.92936090574989
30
0
41
1
10
48.1138724680838
20
-2.03499484108934
30
0
41
1
10
48.1722105946261
20
-2.14206031474049
30
0
41
1
10
48.2880309142261
20
-2.35843986724112
30
0
41
1
10
48.3452700352172
20
-2.46738403558334
30
0
41
1
10
48.4020359706819
20
-2.57684843251471
30
0
0
SPLINE
5
1EC
100
AcDbEntity
8
1
62
256
6
ByLayer
370
18
48
1
60
0
100
AcDbSpline
70
4
71
3
72
8
73
4
40
0
40
0
40
0
40
0
40
1
40
1
40
1
40
1
41
1
10
48.4982424543772
20
-2.62964415327164
30
0
41
1
10
48.4661177179733
20
-2.61251645672635
30
0
41
1
10
48.4340496525136
20
-2.59491746817372
30
0
41
1
10
48.402035970682
20
-2.57684843251471
30
0
0
SPLINE
5
1ED
100
AcDbEntity
8
1
62
256
6
ByLayer
370
18
48
1
60
0
100
AcDbSpline
70
4
71
3
72
8
73
4
40
0
40
0
40
0
40
0
40
1
40
1
40
1
40
1
41
1
10
49.55572200663
20
-3.01095147876643
30
0
41
1
10
49.5235929181116
20
-3.00508049041278
30
0
41
1
10
49.4915288459562
20
-2.99865290836911
30
0
41
1
10
49.4594638146677
20
-2.99168312138764
30
0
0
SPLINE
5
1EE
100
AcDbEntity
8
1
62
256
6
ByLayer
370
18
48
1
60
0
100
AcDbSpline
70
4
71
3
72
30
73
26
40
0
40
0
40
0
40
0
40
0.03125
40
0.03125
40
0.0625
40
0.124999999999999
40
0.124999999999999
40
0.249999999999998
40
0.374999999999997
40
0.374999999999997
40
0.437499999999996
40
0.437499999999996
40
0.468749999999996
40
0.468749999999996
40
0.499999999999996
40
0.499999999999996
40
0.624999999999998
40
0.749999999999999
40
0.749999999999999
40
0.812499999999999
40
0.843749999999999
40
0.843749999999999
40
0.874999999999999
40
0.874999999999999
40
1
40
1
40
1
40
1
41
1
10
45.4857280244022
20
-2.13232990281546
30
0
41
1
10
45.4847310394517
20
-2.11393178651272
30
0
41
1
10
45.4837306936858
20
-2.09524853794045
30
0
41
1
10
45.4817319557529
20
-2.05749308730157
30
0
41
1
10
45.4787392091505
20
-2.00032284538051
30
0
41
1
10
45.4757556775758
20
-1.94155917453142
30
0
41
1
10
45.4697841093613
20
-1.82193872571523
30
0
41
1
10
45.4618214280845
20
-1.65687699434011
30
0
41
1
10
45.4538665301095
20
-1.48080720661594
30
0
41
1
10
45.4478707955458
20
-1.34453631094632
30
0
41
1
10
45.4458669097647
20
-1.29840814546409
30
0
41
1
10
45.4428453534115
20
-1.22813381385228
30
0
41
1
10
45.4418371393838
20
-1.20456602279762
30
0
41
1
10
45.4398250989672
20
-1.15733220822224
30
0
41
1
10
45.4388200884012
20
-1.13363868016626
30
0
41
1
10
45.4337958450688
20
-1.01479151804344
30
0
41
1
10
45.4257655491124
20
-0.822213591183754
30
0
41
1
10
45.4177635651005
20
-0.624898016732175
30
0
41
1
10
45.4117422049866
20
-0.475115681192364
30
0
41
1
10
45.4087260084706
20
-0.399774689820106
30
0
41
1
10
45.4056905418664
20
-0.323746754282752
30
0
41
1
10
45.4036609981919
20
-0.272906808934096
30
0
41
1
10
45.4026420953717
20
-0.247379560842148
30
0
41
1
10
45.3975565879577
20
-0.120053897756861
30
0
41
1
10
45.3934973309775
20
-0.0187594727431133
30
0
41
1
10
45.3894513482856
20
0.0819876117461149
30
0
0
SPLINE
5
1EF
100
AcDbEntity
8
1
62
256
6
ByLayer
370
18
48
1
60
0
100
AcDbSpline
70
4
71
3
72
12
73
8
40
0
40
0
40
0
40
0
40
0.5
40
0.5
40
0.75
40
0.75
40
1
40
1
40
1
40
1
41
1
10
45.7974999668825
20
-1.86161600134332
30
0
41
1
10
45.7448487826202
20
-1.91444572557793
30
0
41
1
10
45.6925848347923
20
-1.96328082781901
30
0
41
1
10
45.6145803727627
20
-2.03097519321631
30
0
41
1
10
45.5886530726017
20
-2.0526108449406
30
0
41
1
10
45.5370374660914
20
-2.0939485631346
30
0
41
1
10
45.5113345511272
20
-2.11364881467736
30
0
41
1
10
45.4857280244124
20
-2.13232990280102
30
0
0
SPLINE
5
1F0
100
AcDbEntity
8
1
62
256
6
ByLayer
370
13
48
1
60
0
100
AcDbSpline
70
4
71
3
72
10
73
6
40
0
40
0
40
0
40
0
40
0.38905106688563
40
0.79607513230211
40
1
40
1
40
1
40
1
41
1
10
45.6749135136641
20
-0.187629126444108
30
0
41
1
10
45.6908109882282
20
-0.435353886682179
30
0
41
1
10
45.723340528114
20
-0.936407323485611
30
0
41
1
10
45.7642023619709
20
-1.49366901818686
30
0
41
1
10
45.7891671308042
20
-1.77525280239365
30
0
41
1
10
45.7974999668826
20
-1.86161600134335
30
0
0
SPLINE
5
1F1
100
AcDbEntity
8
1
62
256
6
ByLayer
370
18
48
1
60
0
100
AcDbSpline
70
4
71
3
72
38
73
34
40
0
40
0
40
0
40
0
40
0.0096200020226445
40
0.0096200020226445
40
0.0253403194508563
40
0.0253403194508563
40
0.0567809543072803
40
0.0567809543072803
40
0.119662224020128
40
0.119662224020128
40
0.245424763445824
40
0.245424763445824
40
0.276865398302248
40
0.276865398302248
40
0.308306033158672
40
0.37118730287152
40
0.37118730287152
40
0.496949842297216
40
0.496949842297216
40
0.52839047715364
40
0.52839047715364
40
0.559831112010064
40
0.559831112010064
40
0.622712381722912
40
0.622712381722912
40
0.748474921148608
40
0.748474921148608
40
0.779915556005032
40
0.779915556005032
40
0.811356190861456
40
0.811356190861456
40
0.874237460574304
40
1
40
1
40
1
40
1
41
1
10
57.23
20
-1.08620698323588
30
0
41
1
10
57.23
20
-1.08288193300223
30
0
41
1
10
57.23
20
-1.07970464698187
30
0
41
1
10
57.23
20
-1.07170935250036
30
0
41
1
10
57.23
20
-1.06716105519766
30
0
41
1
10
57.23
20
-1.05443070432909
30
0
41
1
10
57.23
20
-1.04651764538428
30
0
41
1
10
57.23
20
-1.02469864841837
30
0
41
1
10
57.23
20
-1.01265978028951
30
0
41
1
10
57.23
20
-0.983842220621455
30
0
41
1
10
57.23
20
-0.974355275066927
30
0
41
1
10
57.2300000000001
20
-0.974945920581206
30
0
41
1
10
57.23
20
-0.975690009678999
30
0
41
1
10
57.23
20
-0.978450453815469
30
0
41
1
10
57.23
20
-0.984471381292934
30
0
41
1
10
57.23
20
-0.996050682484508
30
0
41
1
10
57.23
20
-1.02642299872937
30
0
41
1
10
57.23
20
-1.0562775073457
30
0
41
1
10
57.23
20
-1.10585207282296
30
0
41
1
10
57.23
20
-1.11638655016577
30
0
41
1
10
57.23
20
-1.13871613310869
30
0
41
1
10
57.23
20
-1.15043206737121
30
0
41
1
10
57.23
20
-1.18718719190764
30
0
41
1
10
57.23
20
-1.21383660631594
30
0
41
1
10
57.23
20
-1.30012612902695
30
0
41
1
10
57.23
20
-1.36602313680925
30
0
41
1
10
57.23
20
-1.45909918323878
30
0
41
1
10
57.2299999999999
20
-1.47825162240323
30
0
41
1
10
57.2299999999999
20
-1.51765323685279
30
0
41
1
10
57.23
20
-1.53777536105375
30
0
41
1
10
57.23
20
-1.59931912578011
30
0
41
1
10
57.23
20
-1.72717955640181
30
0
41
1
10
57.23
20
-1.86902568035376
30
0
41
1
10
57.23
20
-1.96990696637482
30
0
0
SPLINE
5
1F2
100
AcDbEntity
8
1
62
256
6
ByLayer
370
18
48
1
60
0
100
AcDbSpline
70
4
71
3
72
17
73
13
40
0
40
0
40
0
40
0
40
0.0624999999999764
40
0.0624999999999764
40
0.124999999999953
40
0.24999999999996
40
0.24999999999996
40
0.499999999999974
40
0.499999999999974
40
0.749999999999987
40
0.749999999999987
40
1
40
1
40
1
40
1
41
1
10
56.8993755212268
20
-1.05060514541614
30
0
41
1
10
56.9065673807006
20
-1.0509419300472
30
0
41
1
10
56.91376511968
20
-1.05124306429366
30
0
41
1
10
56.9281083042151
20
-1.05197434667849
30
0
41
1
10
56.9495592193687
20
-1.05321810269754
30
0
41
1
10
56.9708228965144
20
-1.05487236681216
30
0
41
1
10
57.0131074777841
20
-1.05866326193481
30
0
41
1
10
57.0409805069653
20
-1.06181241100643
30
0
41
1
10
57.0961053935416
20
-1.0690872920521
30
0
41
1
10
57.1233520716747
20
-1.07322885407075
30
0
41
1
10
57.1771882737892
20
-1.08235176943859
30
0
41
1
10
57.2037820294654
20
-1.08732282436023
30
0
41
1
10
57.2300000000013
20
-1.09271223085764
30
0
0
SPLINE
5
1F3
100
AcDbEntity
8
1
62
256
6
ByLayer
370
18
48
1
60
0
100
AcDbSpline
70
4
71
3
72
18
73
14
40
0
40
0
40
0
40
0
40
0.250000000000001
40
0.250000000000001
40
0.500000000000001
40
0.500000000000001
40
0.625000000000001
40
0.625000000000001
40
0.750000000000001
40
0.750000000000001
40
0.875
40
0.875
40
1
40
1
40
1
40
1
41
1
10
56.8993755212269
20
-1.05060514541617
30
0
41
1
10
56.8850654932819
20
-1.03730687515107
30
0
41
1
10
56.8702312731746
20
-1.02495414372567
30
0
41
1
10
56.8394932292011
20
-1.00227191437193
30
0
41
1
10
56.8240915552053
20
-0.992306325477983
30
0
41
1
10
56.801011524797
20
-0.979782697587666
30
0
41
1
10
56.7932644968869
20
-0.975995980453462
30
0
41
1
10
56.7782097537372
20
-0.969593106072864
30
0
41
1
10
56.7708782738449
20
-0.96695547191058
30
0
41
1
10
56.7566931765099
20
-0.963021403110275
30
0
41
1
10
56.7498092509888
20
-0.961737357023992
30
0
41
1
10
56.7372903709067
20
-0.960925595271618
30
0
41
1
10
56.7315718309705
20
-0.961362796487833
30
0
41
1
10
56.7265193332976
20
-0.962850980567907
30
0
0
SPLINE
5
1F4
100
AcDbEntity
8
1
62
256
6
ByLayer
370
18
48
1
60
0
100
AcDbSpline
70
4
71
3
72
16
73
12
40
0
40
0
40
0
40
0
40
0.249999999999991
40
0.249999999999991
40
0.499999999999983
40
0.499999999999983
40
0.749999999999974
40
0.749999999999974
40
0.874999999999987
40
0.874999999999987
40
1
40
1
40
1
40
1
41
1
10
56.7265193332976
20
-0.962850980567907
30
0
41
1
10
56.6678686543168
20
-0.925769387330234
30
0
41
1
10
56.6095917691876
20
-0.887458845193095
30
0
41
1
10
56.4936365098465
20
-0.808504129559338
30
0
41
1
10
56.4359735714779
20
-0.767838685902916
30
0
41
1
10
56.3209844126401
20
-0.684460390099986
30
0
41
1
10
56.2636533145839
20
-0.641753557814837
30
0
41
1
10
56.1776361082181
20
-0.576507512280017
30
0
41
1
10
56.1489577994528
20
-0.554564968072754
30
0
41
1
10
56.0915268803636
20
-0.51038029271038
30
0
41
1
10
56.0627728124323
20
-0.488140848644093
30
0
41
1
10
56.0340256056252
20
-0.465688154813137
30
0
0
SPLINE
5
1F5
100
AcDbEntity
8
1
62
256
6
ByLayer
370
18
48
1
60
0
100
AcDbSpline
70
4
71
3
72
8
73
4
40
0
40
0
40
0
40
0
40
1
40
1
40
1
40
1
41
1
10
53.1173623206044
20
2.16317899851739
30
0
41
1
10
53.1494166036543
20
2.13955073921903
30
0
41
1
10
53.1814633967396
20
2.11555022808551
30
0
41
1
10
53.2135089049009
20
2.09118282138192
30
0
0
SPLINE
5
1F6
100
AcDbEntity
8
1
62
256
6
ByLayer
370
18
48
1
60
0
100
AcDbSpline
70
4
71
3
72
8
73
4
40
0
40
0
40
0
40
0
40
1
40
1
40
1
40
1
41
1
10
52.0596618020748
20
2.78841305424066
30
0
41
1
10
52.0917808723007
20
2.77466727064865
30
0
41
1
10
52.123814733025
20
2.76039622606805
30
0
41
1
10
52.1558647983157
20
2.74564016574595
30
0
0
SPLINE
5
1F7
100
AcDbEntity
8
1
62
256
6
ByLayer
370
18
48
1
60
0
100
AcDbSpline
70
4
71
3
72
8
73
4
40
0
40
0
40
0
40
0
40
1
40
1
40
1
40
1
41
1
10
51.0021738739767
20
3.05138322291577
30
0
41
1
10
51.0342536543974
20
3.04932041819859
30
0
41
1
10
51.0663200744749
20
3.04669705771991
30
0
41
1
10
51.0983889745284
20
3.04351590197675
30
0
0
SPLINE
5
1F8
100
AcDbEntity
8
1
62
256
6
ByLayer
370
18
48
1
60
0
100
AcDbSpline
70
4
71
3
72
52
73
48
40
0
40
0
40
0
40
0
40
0.0109537671768611
40
0.0109537671768611
40
0.0356799229974429
40
0.0356799229974429
40
0.0604060788180247
40
0.0604060788180247
40
0.0851322346386065
40
0.0851322346386065
40
0.109858390459188
40
0.109858390459188
40
0.208763013741501
40
0.208763013741501
40
0.233489169562076
40
0.233489169562076
40
0.258215325382651
40
0.258215325382651
40
0.307667637023808
40
0.357119948664964
40
0.381846104485543
40
0.381846104485543
40
0.406572260306121
40
0.406572260306121
40
0.431298416126699
40
0.431298416126699
40
0.456024571947277
40
0.456024571947277
40
0.505476883588434
40
0.505476883588434
40
0.604381506870747
40
0.604381506870747
40
0.653833818511904
40
0.653833818511904
40
0.703286130153061
40
0.703286130153061
40
0.802190753435374
40
0.802190753435374
40
0.826916909255952
40
0.826916909255952
40
0.85164306507653
40
0.85164306507653
40
0.901095376717687
40
0.901095376717687
40
0.950547688358844
40
0.950547688358844
40
1
40
1
40
1
40
1
41
1
10
41.8645809523859
20
-2.27499979191717
30
0
41
1
10
41.851238674631
20
-2.27499953026989
30
0
41
1
10
41.8378976175278
20
-2.27492614942685
30
0
41
1
10
41.794440576831
20
-2.27444864823929
30
0
41
1
10
41.7643213203298
20
-2.2737450886666
30
0
41
1
10
41.7040304864157
20
-2.27159726653829
30
0
41
1
10
41.6738734675799
20
-2.27015122908333
30
0
41
1
10
41.6133553360153
20
-2.26654012118516
30
0
41
1
10
41.582972337087
20
-2.2643798572384
30
0
41
1
10
41.5221673888822
20
-2.25933733431574
30
0
41
1
10
41.4917262612078
20
-2.25645657840451
30
0
41
1
10
41.3394121640313
20
-2.2402423514385
30
0
41
1
10
41.2173234396635
20
-2.22145547636779
30
0
41
1
10
41.0639264128147
20
-2.19058873984929
30
0
41
1
10
41.0332354951727
20
-2.18404861540927
30
0
41
1
10
40.9720313735106
20
-2.17027725192361
30
0
41
1
10
40.9414906451942
20
-2.16304005710177
30
0
41
1
10
40.8500476705341
20
-2.14027800606675
30
0
41
1
10
40.7285909315696
20
-2.10713093114541
30
0
41
1
10
40.5776267465
20
-2.05886081522635
30
0
41
1
10
40.4872966614515
20
-2.02689748033654
30
0
41
1
10
40.4271170717578
20
-2.00493018973131
30
0
41
1
10
40.3970551476802
20
-1.99361191775
30
0
41
1
10
40.3368362591405
20
-1.9704048009306
30
0
41
1
10
40.3066613671677
20
-1.95852805084823
30
0
41
1
10
40.246139651274
20
-1.93427181442416
30
0
41
1
10
40.2158111593997
20
-1.92188084639125
30
0
41
1
10
40.1247896189035
20
-1.88381537503841
30
0
41
1
10
40.0640432173069
20
-1.85726034040181
30
0
41
1
10
39.8818001777914
20
-1.77389876386323
30
0
41
1
10
39.7604400991372
20
-1.71327824475983
30
0
41
1
10
39.577990537976
20
-1.61490636445222
30
0
41
1
10
39.5170929390866
20
-1.5808786254463
30
0
41
1
10
39.3950341716826
20
-1.51041779192261
30
0
41
1
10
39.3342720120307
20
-1.47420464464227
30
0
41
1
10
39.1523425954271
20
-1.36309738909944
30
0
41
1
10
39.031440045987
20
-1.28582875939293
30
0
41
1
10
38.8798814175887
20
-1.1864046216908
30
0
41
1
10
38.849561326485
20
-1.1663640042155
30
0
41
1
10
38.7889724233717
20
-1.12589671494953
30
0
41
1
10
38.7587064998535
20
-1.10546638846344
30
0
41
1
10
38.6678936708445
20
-1.04369923898903
30
0
41
1
10
38.607280863407
20
-1.00194619002545
30
0
41
1
10
38.4860205671178
20
-0.917174397954369
30
0
41
1
10
38.4254058899664
20
-0.874117038197852
30
0
41
1
10
38.3043120987263
20
-0.786508830949231
30
0
41
1
10
38.2438062270326
20
-0.74198895741813
30
0
41
1
10
38.1832678578543
20
-0.696827145158153
30
0
0
SPLINE
5
1F9
100
AcDbEntity
8
1
62
256
6
ByLayer
370
18
48
1
60
0
100
AcDbSpline
70
4
71
3
72
40
73
36
40
0
40
0
40
0
40
0
40
0.0707213490772035
40
0.0707213490772035
40
0.141442698154407
40
0.141442698154407
40
0.282885396308814
40
0.282885396308814
40
0.318246070847414
40
0.318246070847414
40
0.353606745386013
40
0.353606745386013
40
0.424328094463213
40
0.424328094463213
40
0.459688769001814
40
0.459688769001814
40
0.495049443540416
40
0.495049443540416
40
0.565770792617616
40
0.565770792617616
40
0.636492141694815
40
0.636492141694815
40
0.707213490772015
40
0.707213490772015
40
0.777934839849214
40
0.777934839849214
40
0.848656188926414
40
0.848656188926414
40
0.919377538003613
40
0.919377538003613
40
0.954738212542215
40
0.954738212542215
40
0.990098887080817
40
0.990098887080817
40
1
40
1
40
1
40
1
41
1
10
36.5235549802784
20
-2.06730551108316
30
0
41
1
10
36.6017175725999
20
-2.09277054979978
30
0
41
1
10
36.6797382349537
20
-2.11585631480469
30
0
41
1
10
36.8357013865795
20
-2.15731962607597
30
0
41
1
10
36.913633392541
20
-2.1757055664159
30
0
41
1
10
37.1472404562153
20
-2.22395995146559
30
0
41
1
10
37.3027646870819
20
-2.24695766852392
30
0
41
1
10
37.4968249286043
20
-2.26397161286798
30
0
41
1
10
37.5356144596273
20
-2.26678437609962
30
0
41
1
10
37.6131937900203
20
-2.27120392221593
30
0
41
1
10
37.6519765139962
20
-2.27281009809866
30
0
41
1
10
37.7685908245626
20
-2.27578235977765
30
0
41
1
10
37.846731043235
20
-2.27530965552248
30
0
41
1
10
37.964551961621
20
-2.27091681891815
30
0
41
1
10
38.0039532369368
20
-2.26883473006063
30
0
41
1
10
38.0825512346339
20
-2.26347177929045
30
0
41
1
10
38.1217996149126
20
-2.26018992995515
30
0
41
1
10
38.2394070731857
20
-2.24857272848831
30
0
41
1
10
38.3176315481172
20
-2.23846949332119
30
0
41
1
10
38.4737143582185
20
-2.21362543609678
30
0
41
1
10
38.5515549402754
20
-2.19887826980803
30
0
41
1
10
38.7069076434577
20
-2.16474902639394
30
0
41
1
10
38.7844512160532
20
-2.14538072987952
30
0
41
1
10
38.9392171641543
20
-2.10194107200502
30
0
41
1
10
39.0164174169702
20
-2.07784088231941
30
0
41
1
10
39.1715245862851
20
-2.02541133968529
30
0
41
1
10
39.2493652234438
20
-1.99706095169242
30
0
41
1
10
39.4056870126137
20
-1.93614912835747
30
0
41
1
10
39.4841713421399
20
-1.90359046390691
30
0
41
1
10
39.6024129799343
20
-1.85158018544144
30
0
41
1
10
39.6418647367368
20
-1.83373536642665
30
0
41
1
10
39.7205308738661
20
-1.79718397270321
30
0
41
1
10
39.7597915221194
20
-1.77845721750742
30
0
41
1
10
39.8099525404042
20
-1.75391359664494
30
0
41
1
10
39.8209196531111
20
-1.74850952338417
30
0
41
1
10
39.8318809997808
20
-1.74307030546439
30
0
0
SPLINE
5
1FA
100
AcDbEntity
8
1
62
256
6
ByLayer
370
18
48
1
60
0
100
AcDbSpline
70
4
71
3
72
8
73
4
40
0
40
0
40
0
40
0
40
1
40
1
40
1
40
1
41
1
10
47.0881546684046
20
3.0557106198585
30
0
41
1
10
47.0560257245535
20
3.05671213136071
30
0
41
1
10
47.0239416441506
20
3.05715682432316
30
0
41
1
10
46.9918966689206
20
3.05704276646139
30
0
0
SPLINE
5
1FB
100
AcDbEntity
8
1
62
256
6
ByLayer
370
18
48
1
60
0
100
AcDbSpline
70
4
71
3
72
8
73
4
40
0
40
0
40
0
40
0
40
1
40
1
40
1
40
1
41
1
10
49.2030769833625
20
2.23276143267148
30
0
41
1
10
49.1710370969185
20
2.2556095903208
30
0
41
1
10
49.1389852658115
20
2.27802890837268
30
0
41
1
10
49.106919829136
20
2.30002077821967
30
0
0
SPLINE
5
1FC
100
AcDbEntity
8
1
62
256
6
ByLayer
370
18
48
1
60
0
100
AcDbSpline
70
4
71
3
72
8
73
4
40
0
40
0
40
0
40
0
40
1
40
1
40
1
40
1
41
1
10
52.3760096418604
20
-0.807982168546715
30
0
41
1
10
52.3438776678585
20
-0.775500803669132
30
0
41
1
10
52.3117930733254
20
-0.74285812705628
30
0
41
1
10
52.2797328651452
20
-0.710075099421459
30
0
0
SPLINE
5
1FD
100
AcDbEntity
8
1
62
256
6
ByLayer
370
18
48
1
60
0
100
AcDbSpline
70
4
71
3
72
8
73
4
40
0
40
0
40
0
40
0
40
1
40
1
40
1
40
1
41
1
10
53.4334543688217
20
-1.79739090147606
30
0
41
1
10
53.4013690184234
20
-1.7699364693961
30
0
41
1
10
53.3693013744701
20
-1.7421603069981
30
0
41
1
10
53.3371640598514
20
-1.71413324154588
30
0
0
SPLINE
5
1FE
100
AcDbEntity
8
1
62
256
6
ByLayer
370
18
48
1
60
0
100
AcDbSpline
70
4
71
3
72
12
73
8
40
0
40
0
40
0
40
0
40
0.5
40
0.5
40
0.75
40
0.75
40
1
40
1
40
1
40
1
41
1
10
56.2002070137156
20
-2.54915781162637
30
0
41
1
10
56.318212341806
20
-2.52460461714952
30
0
41
1
10
56.4369840523128
20
-2.49341231472761
30
0
41
1
10
56.6167260582655
20
-2.43719854844429
30
0
41
1
10
56.6769037244465
20
-2.41688426053642
30
0
41
1
10
56.7978407049193
20
-2.37318701596851
30
0
41
1
10
56.8585817077247
20
-2.34980394670299
30
0
41
1
10
56.9196899559466
20
-2.32491503814535
30
0
0
SPLINE
5
1FF
100
AcDbEntity
8
1
62
256
6
ByLayer
370
18
48
1
60
0
100
AcDbSpline
70
4
71
3
72
14
73
10
40
0
40
0
40
0
40
0
40
0.25
40
0.25
40
0.5
40
0.5
40
0.75
40
0.75
40
1
40
1
40
1
40
1
41
1
10
57.23
20
-1.96990696637491
30
0
41
1
10
57.2032707591522
20
-1.99956571772202
30
0
41
1
10
57.1767775251124
20
-2.02925696593266
30
0
41
1
10
57.1241838770474
20
-2.08864823819147
30
0
41
1
10
57.0980758095363
20
-2.118346295973
30
0
41
1
10
57.0462096848775
20
-2.17770525980927
30
0
41
1
10
57.0205078258719
20
-2.20738044529367
30
0
41
1
10
56.9694775648921
20
-2.26665066293631
30
0
41
1
10
56.9443662580472
20
-2.29599502328293
30
0
41
1
10
56.9196899559462
20
-2.32491503813762
30
0
0
SPLINE
5
200
100
AcDbEntity
8
1
62
256
6
ByLayer
370
18
48
1
60
0
100
AcDbSpline
70
4
71
3
72
94
73
90
40
0
40
0
40
0
40
0
40
0.062499999999981
40
0.062499999999981
40
0.0937499999999716
40
0.0937499999999716
40
0.109374999999967
40
0.109374999999967
40
0.124999999999962
40
0.124999999999962
40
0.15624999999995
40
0.15624999999995
40
0.171874999999943
40
0.171874999999943
40
0.187499999999937
40
0.187499999999937
40
0.249999999999922
40
0.249999999999922
40
0.312499999999906
40
0.312499999999906
40
0.343749999999898
40
0.343749999999898
40
0.359374999999894
40
0.359374999999894
40
0.37499999999989
40
0.37499999999989
40
0.406249999999883
40
0.406249999999883
40
0.421874999999879
40
0.421874999999879
40
0.437499999999875
40
0.437499999999875
40
0.468749999999867
40
0.468749999999867
40
0.484374999999862
40
0.484374999999862
40
0.49218749999986
40
0.49218749999986
40
0.499999999999859
40
0.499999999999859
40
0.515624999999859
40
0.515624999999859
40
0.523437499999859
40
0.523437499999859
40
0.53124999999986
40
0.53124999999986
40
0.546874999999862
40
0.546874999999862
40
0.550781249999862
40
0.550781249999862
40
0.554687499999863
40
0.554687499999863
40
0.562499999999865
40
0.562499999999865
40
0.578124999999871
40
0.578124999999871
40
0.585937499999874
40
0.585937499999874
40
0.593749999999877
40
0.593749999999877
40
0.609374999999883
40
0.609374999999883
40
0.624999999999888
40
0.624999999999888
40
0.640624999999894
40
0.640624999999894
40
0.6562499999999
40
0.6562499999999
40
0.671874999999906
40
0.671874999999906
40
0.679687499999909
40
0.679687499999909
40
0.687499999999912
40
0.687499999999912
40
0.71874999999992
40
0.71874999999992
40
0.749999999999927
40
0.749999999999927
40
0.781249999999935
40
0.781249999999935
40
0.79687499999994
40
0.79687499999994
40
0.812499999999945
40
0.812499999999945
40
0.874999999999964
40
0.874999999999964
40
0.937499999999982
40
0.937499999999982
40
1
40
1
40
1
40
1
41
1
10
38.1832704732033
20
-0.696826677670799
30
0
41
1
10
38.0819296979029
20
-0.618330158301461
30
0
41
1
10
37.977814009398
20
-0.543394239546899
30
0
41
1
10
37.8159457859296
20
-0.439314926847715
30
0
41
1
10
37.7610402343303
20
-0.406010520833718
30
0
41
1
10
37.6770122793147
20
-0.358605618287953
30
0
41
1
10
37.6486977444015
20
-0.34327381520157
30
0
41
1
10
37.5915295376611
20
-0.313443526138713
30
0
41
1
10
37.5626884676321
20
-0.29892431790293
30
0
41
1
10
37.4756726768684
20
-0.256105245107136
30
0
41
1
10
37.4170229611354
20
-0.228513637625127
30
0
41
1
10
37.3279183768191
20
-0.188878691447599
30
0
41
1
10
37.2979943732031
20
-0.17594010857556
30
0
41
1
10
37.2379684172039
20
-0.150774441689577
30
0
41
1
10
37.2078682933076
20
-0.138546955640493
30
0
41
1
10
37.0569086344235
20
-0.0792834035613339
30
0
41
1
10
36.9346758376624
20
-0.0378532087804899
30
0
41
1
10
36.6865601879955
20
0.0300543504083066
30
0
41
1
10
36.56075983047
20
0.0568701123048356
30
0
41
1
10
36.3686272262867
20
0.083005200010092
30
0
41
1
10
36.3040202592358
20
0.0894068147032101
30
0
41
1
10
36.2062067847061
20
0.0953007486936315
30
0
41
1
10
36.1733881056728
20
0.0966422025607301
30
0
41
1
10
36.1078756027256
20
0.0979881602128785
30
0
41
1
10
36.0751565467341
20
0.097998932773379
30
0
41
1
10
35.9771198097952
20
0.0958871657156521
30
0
41
1
10
35.9119218947329
20
0.0916325985996309
30
0
41
1
10
35.8144096227613
20
0.0801810706177832
30
0
41
1
10
35.7818896663208
20
0.0754859383096118
30
0
41
1
10
35.717267818585
20
0.0642253105359316
30
0
41
1
10
35.6852463816761
20
0.0576838609844117
30
0
41
1
10
35.5901379586908
20
0.0350506299709537
30
0
41
1
10
35.5279991313885
20
0.0159743846671745
30
0
41
1
10
35.4373470560813
20
-0.020688150501627
30
0
41
1
10
35.4075594606005
20
-0.0342621302991688
30
0
41
1
10
35.3636676346804
20
-0.0571095151422298
30
0
41
1
10
35.349225213781
20
-0.0651149888876716
30
0
41
1
10
35.320940534786
20
-0.0818554225865853
30
0
41
1
10
35.3070679866764
20
-0.0906028922101996
30
0
41
1
10
35.2663401464503
20
-0.118088102045647
30
0
41
1
10
35.2403650113217
20
-0.13805528306122
30
0
41
1
10
35.2035257060524
20
-0.170964070960736
30
0
41
1
10
35.1915725808015
20
-0.182467084859951
30
0
41
1
10
35.1688571994424
20
-0.206150709767996
30
0
41
1
10
35.1580465401916
20
-0.218369856560997
30
0
41
1
10
35.127341189434
20
-0.256213245574628
30
0
41
1
10
35.1091832038684
20
-0.283030918725331
30
0
41
1
10
35.089647520007
20
-0.318704188243686
30
0
41
1
10
35.0858987931212
20
-0.325946599909002
30
0
41
1
10
35.0787273581533
20
-0.340652651974096
30
0
41
1
10
35.0752946425273
20
-0.34814062359726
30
0
41
1
10
35.0655918611528
20
-0.370729699568813
30
0
41
1
10
35.0599115293129
20
-0.385950581092203
30
0
41
1
10
35.0451401141199
20
-0.432068243870077
30
0
41
1
10
35.0383331452328
20
-0.463423522003808
30
0
41
1
10
35.0323129646549
20
-0.511256484378777
30
0
41
1
10
35.0310070269396
20
-0.527410603652015
30
0
41
1
10
35.0297635150113
20
-0.559426247986721
30
0
41
1
10
35.0298139241648
20
-0.57532260024928
30
0
41
1
10
35.0317690471688
20
-0.622700264060569
30
0
41
1
10
35.035468889203
20
-0.653871162566816
30
0
41
1
10
35.0467963051084
20
-0.71547761980915
30
0
41
1
10
35.0544934498505
20
-0.746060469446462
30
0
41
1
10
35.0728044117777
20
-0.805322167332633
30
0
41
1
10
35.0834205583368
20
-0.834131775528988
30
0
41
1
10
35.1069691759773
20
-0.890394388507815
30
0
41
1
10
35.1199055358527
20
-0.917845634291353
30
0
41
1
10
35.1476994394355
20
-0.971580162187308
30
0
41
1
10
35.1625615534863
20
-0.997861603831041
30
0
41
1
10
35.1860688492362
20
-1.0365147642334
30
0
41
1
10
35.1941138300824
20
-1.04927826076951
30
0
41
1
10
35.2104847377527
20
-1.07441873459032
30
0
41
1
10
35.2188216461556
20
-1.0868144294661
30
0
41
1
10
35.2611923588345
20
-1.14798536881486
30
0
41
1
10
35.2972555289318
20
-1.19436494444264
30
0
41
1
10
35.3724510977049
20
-1.28316535512013
30
0
41
1
10
35.4115955156908
20
-1.32557536721697
30
0
41
1
10
35.4922225304526
20
-1.40709578117799
30
0
41
1
10
35.5337139465695
20
-1.44619922598261
30
0
41
1
10
35.5973735617922
20
-1.50267698516046
30
0
41
1
10
35.618850851669
20
-1.52115303093257
30
0
41
1
10
35.6620079338492
20
-1.55722414977563
30
0
41
1
10
35.6837135457301
20
-1.57484302966355
30
0
41
1
10
35.7927941206066
20
-1.66098699948881
30
0
41
1
10
35.8817745829183
20
-1.72373803507782
30
0
41
1
10
36.0619173783647
20
-1.83890870708845
30
0
41
1
10
36.1531728817927
20
-1.89125940283765
30
0
41
1
10
36.337211507296
20
-1.98643418491477
30
0
41
1
10
36.4300014922296
20
-2.02924332424405
30
0
41
1
10
36.5234966713934
20
-2.0672819809779
30
0
0
SPLINE
5
201
100
AcDbEntity
8
1
62
256
6
ByLayer
370
18
48
1
60
0
100
AcDbSpline
70
4
71
3
72
32
73
28
40
0
40
0
40
0
40
0
40
0.0209881784432426
40
0.0209881784432426
40
0.108792222207799
40
0.108792222207799
40
0.196596265972355
40
0.196596265972355
40
0.284400309736911
40
0.284400309736911
40
0.372204353501467
40
0.372204353501467
40
0.460008397266023
40
0.460008397266023
40
0.547812441030579
40
0.547812441030579
40
0.635616484795135
40
0.635616484795135
40
0.723420528559691
40
0.723420528559691
40
0.811224572324247
40
0.811224572324247
40
0.899028616088804
40
0.899028616088804
40
0.98683265985336
40
0.98683265985336
40
1
40
1
40
1
40
1
41
1
10
36.5234967436421
20
-2.06728032575487
30
0
41
1
10
36.5242194728287
20
-2.05072272791733
30
0
41
1
10
36.525173277112
20
-2.03408493782374
30
0
41
1
10
36.5313228304047
20
-1.94766781080366
30
0
41
1
10
36.5388533769823
20
-1.87750133709017
30
0
41
1
10
36.5595003860429
20
-1.73625256584853
30
0
41
1
10
36.572653781764
20
-1.66516421302953
30
0
41
1
10
36.605707770573
20
-1.52188128879706
30
0
41
1
10
36.6257912028058
20
-1.449174405945
30
0
41
1
10
36.67300731822
20
-1.30633941442503
30
0
41
1
10
36.7001538049499
20
-1.23595554952456
30
0
41
1
10
36.7627427165845
20
-1.09761119395264
30
0
41
1
10
36.7980827052342
20
-1.03015418157719
30
0
41
1
10
36.8753080319515
20
-0.903207862302537
30
0
41
1
10
36.9178327676242
20
-0.842666707456488
30
0
41
1
10
37.0089251665961
20
-0.731021786451123
30
0
41
1
10
37.0565453163123
20
-0.680927328651507
30
0
41
1
10
37.1557335923133
20
-0.59164225255978
30
0
41
1
10
37.2079674135046
20
-0.552058061366637
30
0
41
1
10
37.3127072532569
20
-0.486314968186406
30
0
41
1
10
37.3650745791782
20
-0.460005683983951
30
0
41
1
10
37.4698045507954
20
-0.419227286749304
30
0
41
1
10
37.5227205399274
20
-0.404622311285351
30
0
41
1
10
37.6256472367288
20
-0.388926725053381
30
0
41
1
10
37.6753802071389
20
-0.387691476551311
30
0
41
1
10
37.7309069754806
20
-0.392631008377265
30
0
41
1
10
37.7381153871607
20
-0.393408026679936
30
0
41
1
10
37.7452895477007
20
-0.39431482263501
30
0
0
SPLINE
5
202
100
AcDbEntity
8
SK1
62
256
6
ByLayer
370
18
48
1
60
0
100
AcDbSpline
70
4
71
3
72
22
73
18
40
0
40
0
40
0
40
0
40
0.125064128831079
40
0.125064128831079
40
0.187596193246618
40
0.187596193246618
40
0.250128257662158
40
0.250128257662158
40
0.500256515324315
40
0.500256515324315
40
0.625320644155393
40
0.625320644155393
40
0.750384772986472
40
0.750384772986472
40
0.87544890181755
40
0.87544890181755
40
1
40
1
40
1
40
1
41
1
10
-21.87
20
2.42499999999998
30
0
41
1
10
-21.9161286994883
20
2.42499999999998
30
0
41
1
10
-21.9611809603311
20
2.42499999999998
30
0
41
1
10
-22.0267735041401
20
2.42499999999998
30
0
41
1
10
-22.0483224129895
20
2.42499999999998
30
0
41
1
10
-22.0905995560873
20
2.42499999999998
30
0
41
1
10
-22.1113088348484
20
2.42499999999998
30
0
41
1
10
-22.2125001674621
20
2.42499999999998
30
0
41
1
10
-22.2860194291454
20
2.42499999999998
30
0
41
1
10
-22.3799881112948
20
2.42499999999998
30
0
41
1
10
-22.4085719462844
20
2.42499999999998
30
0
41
1
10
-22.4591338700697
20
2.42499999999998
30
0
41
1
10
-22.4811148066356
20
2.42499999999998
30
0
41
1
10
-22.5171473245934
20
2.42499999999998
30
0
41
1
10
-22.5308921377331
20
2.42499999999998
30
0
41
1
10
-22.5492656351276
20
2.42499999999998
30
0
41
1
10
-22.553929633785
20
2.42500000000001
30
0
41
1
10
-22.5539599999962
20
2.42500000000001
30
0
0
SPLINE
5
203
100
AcDbEntity
8
SK1
62
256
6
ByLayer
370
18
48
1
60
0
100
AcDbSpline
70
4
71
3
72
22
73
18
40
0
40
0
40
0
40
0
40
0.124551084658957
40
0.124551084658957
40
0.249615215421963
40
0.249615215421963
40
0.374679346184969
40
0.374679346184969
40
0.499743476947975
40
0.499743476947975
40
0.749871738473988
40
0.749871738473988
40
0.812403803855491
40
0.812403803855491
40
0.874935869236994
40
0.874935869236994
40
1
40
1
40
1
40
1
41
1
10
-22.5539599999849
20
-2.42500000000004
30
0
41
1
10
-22.553929632628
20
-2.42500000000004
30
0
41
1
10
-22.5492656339906
20
-2.42500000000004
30
0
41
1
10
-22.5308921377331
20
-2.42500000000004
30
0
41
1
10
-22.5171473245934
20
-2.42500000000004
30
0
41
1
10
-22.4811148066356
20
-2.42500000000004
30
0
41
1
10
-22.4591338700697
20
-2.42500000000004
30
0
41
1
10
-22.4085719462844
20
-2.42500000000004
30
0
41
1
10
-22.3799881112948
20
-2.42500000000004
30
0
41
1
10
-22.2860194291454
20
-2.42500000000004
30
0
41
1
10
-22.2125001674621
20
-2.42500000000004
30
0
41
1
10
-22.1113088348484
20
-2.42500000000004
30
0
41
1
10
-22.0905995560873
20
-2.42500000000004
30
0
41
1
10
-22.0483224129895
20
-2.42500000000004
30
0
41
1
10
-22.0267735041401
20
-2.42500000000004
30
0
41
1
10
-21.9611809603311
20
-2.42500000000004
30
0
41
1
10
-21.9161286994882
20
-2.42500000000004
30
0
41
1
10
-21.87
20
-2.42500000000001
30
0
0
SPLINE
5
204
100
AcDbEntity
8
SK1
62
256
6
ByLayer
370
18
48
1
60
0
100
AcDbSpline
70
4
71
3
72
39
73
35
40
0
40
0
40
0
40
0
40
0.125
40
0.125
40
0.15625
40
0.15625
40
0.1875
40
0.1875
40
0.25
40
0.25
40
0.374999999999999
40
0.374999999999999
40
0.406249999999999
40
0.406249999999999
40
0.421874999999999
40
0.421874999999999
40
0.437499999999999
40
0.437499999999999
40
0.499999999999999
40
0.5625
40
0.5625
40
0.625
40
0.625
40
0.6875
40
0.6875
40
0.75
40
0.75
40
0.875
40
0.875
40
0.90625
40
0.90625
40
0.9375
40
0.9375
40
1
40
1
40
1
40
1
41
1
10
-21.8700000000001
20
-1.94550951722172
30
0
41
1
10
-21.9617651518119
20
-1.79886711642567
30
0
41
1
10
-22.0492873517802
20
-1.64913452522694
30
0
41
1
10
-22.1505892647162
20
-1.45606885388207
30
0
41
1
10
-22.1704385682289
20
-1.41715632601688
30
0
41
1
10
-22.2092172904702
20
-1.33866130766719
30
0
41
1
10
-22.2280943359419
20
-1.2991823626638
30
0
41
1
10
-22.2829175461676
20
-1.18024215816848
30
0
41
1
10
-22.3171107315207
20
-1.100177554439
30
0
41
1
10
-22.4112462683972
20
-0.857219516933043
30
0
41
1
10
-22.4628058776618
20
-0.691581916396188
30
0
41
1
10
-22.5076299776698
20
-0.478110359126191
30
0
41
1
10
-22.5156089333792
20
-0.435093316048409
30
0
41
1
10
-22.5259821127037
20
-0.370045530477853
30
0
41
1
10
-22.5291781080732
20
-0.348242856020761
30
0
41
1
10
-22.534994808535
20
-0.304643440516486
30
0
41
1
10
-22.537615614096
20
-0.282853877047046
30
0
41
1
10
-22.5492720364585
20
-0.173957129743428
30
0
41
1
10
-22.5586325615654
20
-5.00669868018E-05
30
0
41
1
10
-22.5493033979172
20
0.173197642612138
30
0
41
1
10
-22.5308921377331
20
0.346124945108073
30
0
41
1
10
-22.5171473245934
20
0.432428458607632
30
0
41
1
10
-22.4811148066356
20
0.604734101101201
30
0
41
1
10
-22.4591338700697
20
0.689343813069286
30
0
41
1
10
-22.4085719462844
20
0.855900645063912
30
0
41
1
10
-22.3799881112948
20
0.937864176391628
30
0
41
1
10
-22.2860194291454
20
1.18048348504715
30
0
41
1
10
-22.2125001674621
20
1.33790092513371
30
0
41
1
10
-22.1113088348484
20
1.53097344768682
30
0
41
1
10
-22.0905995560873
20
1.56940044067241
30
0
41
1
10
-22.0483224129895
20
1.64591262089519
30
0
41
1
10
-22.0267735041401
20
1.68396212476608
30
0
41
1
10
-21.9611809603311
20
1.79726421471696
30
0
41
1
10
-21.9161286994883
20
1.87179500681108
30
0
41
1
10
-21.87
20
1.94550951722161
30
0
0
SPLINE
5
205
100
AcDbEntity
8
1
62
256
6
ByLayer
370
18
48
1
60
0
100
AcDbSpline
70
4
71
1
72
4
73
2
40
0
40
0
40
1
40
1
41
1
10
56.1958901160622
20
-2.55214042045756
30
0
41
1
10
56.3225167726262
20
-2.52142658839659
30
0
0
SPLINE
5
206
100
AcDbEntity
8
1
62
256
6
ByLayer
370
18
48
1
60
0
100
AcDbSpline
70
4
71
2
72
6
73
3
40
0
40
0
40
0
40
1
40
1
40
1
41
1
10
55.144134226143
20
-2.46901341025412
30
0
41
1
10
55.2172022376201
20
-2.59463095667428
30
0
41
1
10
55.2901958526617
20
-2.72038650147957
30
0
0
SPLINE
5
207
100
AcDbEntity
8
1
62
256
6
ByLayer
370
18
48
1
60
0
100
AcDbSpline
70
4
71
2
72
6
73
3
40
0
40
0
40
0
40
1
40
1
40
1
41
1
10
54.6829873908823
20
-2.89770525124737
30
0
41
1
10
54.8064889156026
20
-2.68500906533168
30
0
41
1
10
54.9301213183133
20
-2.47268658858769
30
0
0
SPLINE
5
208
100
AcDbEntity
8
1
62
256
6
ByLayer
370
18
48
1
60
0
100
AcDbSpline
70
4
71
2
72
6
73
3
40
0
40
0
40
0
40
1
40
1
40
1
41
1
10
52.833289643379
20
2.79489924117999
30
0
41
1
10
52.7397277721606
20
2.63354881052203
30
0
41
1
10
52.6459541396877
20
2.47233120253949
30
0
0
SPLINE
5
209
100
AcDbEntity
8
1
62
256
6
ByLayer
370
18
48
1
60
0
100
AcDbSpline
70
4
71
2
72
6
73
3
40
0
40
0
40
0
40
1
40
1
40
1
41
1
10
47.2892554785971
20
2.71491810800779
30
0
41
1
10
47.1923138477318
20
2.88154653215918
30
0
41
1
10
47.0956353249016
20
3.04832422531911
30
0
0
SPLINE
5
20A
100
AcDbEntity
8
1
62
256
6
ByLayer
370
18
48
1
60
0
100
AcDbSpline
70
4
71
2
72
6
73
3
40
0
40
0
40
0
40
1
40
1
40
1
41
1
10
44.6407314360798
20
2.46201417962098
30
0
41
1
10
44.6363832782184
20
2.45545148203945
30
0
41
1
10
44.6233177380433
20
2.4456555973016
30
0
0
SPLINE
5
20B
100
AcDbEntity
8
1
62
256
6
ByLayer
370
18
48
1
60
0
100
AcDbSpline
70
4
71
2
72
6
73
3
40
0
40
0
40
0
40
1
40
1
40
1
41
1
10
44.66692600824
20
2.50837659773737
30
0
41
1
10
44.6564140392565
20
2.4902890172649
30
0
41
1
10
44.6459000761571
20
2.47220269414729
30
0
0
SPLINE
5
20C
100
AcDbEntity
8
1
62
256
6
ByLayer
370
18
48
1
60
0
100
AcDbSpline
70
4
71
2
72
6
73
3
40
0
40
0
40
0
40
1
40
1
40
1
41
1
10
49.9338410060458
20
-2.46575326453879
30
0
41
1
10
49.973064241383
20
-2.39547764141605
30
0
41
1
10
50.0510284518011
20
-2.42647893930911
30
0
0
SPLINE
5
20D
100
AcDbEntity
8
1
62
256
6
ByLayer
370
18
48
1
60
0
100
AcDbSpline
70
4
71
2
72
6
73
3
40
0
40
0
40
0
40
1
40
1
40
1
41
1
10
50.9746326140069
20
3.03675170753587
30
0
41
1
10
50.8098939020228
20
2.7530492769057
30
0
41
1
10
50.6450476660885
20
2.47006607437024
30
0
0
SPLINE
5
20E
100
AcDbEntity
8
1
62
256
6
ByLayer
370
18
48
1
60
0
100
AcDbSpline
70
4
71
2
72
6
73
3
40
0
40
0
40
0
40
1
40
1
40
1
41
1
10
55.9308616133815
20
-2.47139997739814
30
0
41
1
10
55.9802607588072
20
-2.39132034084508
30
0
41
1
10
56.0592074593059
20
-2.42774070958168
30
0
0
SPLINE
5
20F
100
AcDbEntity
8
1
62
256
6
ByLayer
370
18
48
1
60
0
100
AcDbSpline
70
4
71
2
72
6
73
3
40
0
40
0
40
0
40
1
40
1
40
1
41
1
10
55.8356833193776
20
-2.63485750679439
30
0
41
1
10
55.8822420666244
20
-2.55478307139708
30
0
41
1
10
55.928833167229
20
-2.47475362381667
30
0
0
SPLINE
5
210
100
AcDbEntity
8
1
62
256
6
ByLayer
370
18
48
1
60
0
100
AcDbSpline
70
4
71
2
72
6
73
3
40
0
40
0
40
0
40
1
40
1
40
1
41
1
10
51.4304030068864
20
2.4722212949026
30
0
41
1
10
51.2627983465945
20
2.76011080005378
30
0
41
1
10
51.0956441619043
20
3.04827775584121
30
0
0
SPLINE
5
211
100
AcDbEntity
8
1
62
256
6
ByLayer
370
18
48
1
60
0
100
AcDbSpline
70
4
71
2
72
6
73
3
40
0
40
0
40
0
40
1
40
1
40
1
41
1
10
49.5939684081031
20
-3.0510100454668
30
0
41
1
10
49.7609192452382
20
-2.76324967357641
30
0
41
1
10
49.9282224286155
20
-2.47575292192528
30
0
0
SPLINE
5
212
100
AcDbEntity
8
1
62
256
6
ByLayer
370
18
48
1
60
0
100
AcDbSpline
70
4
71
3
72
11
73
7
40
0
40
0
40
0
40
0
40
0.246270094954999
40
0.496944759399508
40
0.752388177479377
40
1
40
1
40
1
40
1
41
1
10
51.6459357188913
20
2.47229858773278
30
0
41
1
10
51.6415051349768
20
2.46080502446981
30
0
41
1
10
51.6226973695238
20
2.44170246545843
30
0
41
1
10
51.5609543018197
20
2.40869925046584
30
0
41
1
10
51.4746574038774
20
2.42191611008363
30
0
41
1
10
51.4403735302647
20
2.45575729084246
30
0
41
1
10
51.4259213333879
20
2.47893971166749
30
0
0
SPLINE
5
213
100
AcDbEntity
8
1
62
256
6
ByLayer
370
18
48
1
60
0
100
AcDbSpline
70
4
71
3
72
11
73
7
40
0
40
0
40
0
40
0
40
0.227564603664319
40
0.472346800080206
40
0.733262710503856
40
1
40
1
40
1
40
1
41
1
10
45.645915288211
20
2.47223656882625
30
0
41
1
10
45.64070604074
20
2.46048118563692
30
0
41
1
10
45.621449710775
20
2.44042002947683
30
0
41
1
10
45.5592815094992
20
2.40851367129827
30
0
41
1
10
45.474135952922
20
2.42276025470198
30
0
41
1
10
45.4419189353583
20
2.45305252780449
30
0
41
1
10
45.4288847284315
20
2.4747656471751
30
0
0
SPLINE
5
214
100
AcDbEntity
8
1
62
256
6
ByLayer
370
18
48
1
60
0
100
AcDbSpline
70
4
71
2
72
6
73
3
40
0
40
0
40
0
40
1
40
1
40
1
41
1
10
49.1472626823136
20
-2.47447038700454
30
0
41
1
10
49.3137634284125
20
-2.76106894179225
30
0
41
1
10
49.4801045157539
20
-3.04813354760446
30
0
0
SPLINE
5
215
100
AcDbEntity
8
1
62
256
6
ByLayer
370
18
48
1
60
0
100
AcDbSpline
70
4
71
1
72
4
73
2
40
0
40
0
40
1
40
1
41
1
10
55.3305289185625
20
-2.76194584604391
30
0
41
1
10
55.8313571560083
20
-2.64047199351171
30
0
0
SPLINE
5
216
100
AcDbEntity
8
1
62
256
6
ByLayer
370
18
48
1
60
0
100
AcDbSpline
70
4
71
3
72
11
73
7
40
0
40
0
40
0
40
0
40
0.247812768125179
40
0.500591249696476
40
0.753007358422569
40
1
40
1
40
1
40
1
41
1
10
48.9304664184901
20
-2.47212978540452
30
0
41
1
10
48.9389554225976
20
-2.45612530484584
30
0
41
1
10
48.9639489325842
20
-2.43168591111208
30
0
41
1
10
49.0373378568956
20
-2.4071185368351
30
0
41
1
10
49.1108148551903
20
-2.43026546594919
30
0
41
1
10
49.1358226491763
20
-2.45383676804133
30
0
41
1
10
49.1443366194613
20
-2.46939758102408
30
0
0
SPLINE
5
217
100
AcDbEntity
8
1
62
256
6
ByLayer
370
18
48
1
60
0
100
AcDbSpline
70
4
71
3
72
10
73
6
40
0
40
0
40
0
40
0
40
0.462938963360785
40
0.725729141795832
40
1
40
1
40
1
40
1
41
1
10
54.9321266018764
20
-2.46911847654425
30
0
41
1
10
54.9514369722038
20
-2.43619340333109
30
0
41
1
10
54.9916525718393
20
-2.40881318878755
30
0
41
1
10
55.1032403835544
20
-2.42214052646901
30
0
41
1
10
55.1336264095942
20
-2.45152571229724
30
0
41
1
10
55.1458836786468
20
-2.4721634998786
30
0
0
SPLINE
5
218
100
AcDbEntity
8
1
62
256
6
ByLayer
370
18
48
1
60
0
100
AcDbSpline
70
4
71
2
72
6
73
3
40
0
40
0
40
0
40
1
40
1
40
1
41
1
10
51.9801336113376
20
3.04823783944607
30
0
41
1
10
51.8131926230301
20
2.76009169301997
30
0
41
1
10
51.6458693533923
20
2.47218412796798
30
0
0
SPLINE
5
219
100
AcDbEntity
8
1
62
256
6
ByLayer
370
18
48
1
60
0
100
AcDbSpline
70
4
71
2
72
6
73
3
40
0
40
0
40
0
40
1
40
1
40
1
41
1
10
52.4304242881434
20
2.472207466865
30
0
41
1
10
52.2628088879528
20
2.76009654839558
30
0
41
1
10
52.0956466325343
20
3.04826405248821
30
0
0
SPLINE
5
21A
100
AcDbEntity
8
1
62
256
6
ByLayer
370
18
48
1
60
0
100
AcDbSpline
70
4
71
2
72
6
73
3
40
0
40
0
40
0
40
1
40
1
40
1
41
1
10
45.9801686426901
20
3.04814401528458
30
0
41
1
10
45.8132252150817
20
2.76005597819793
30
0
41
1
10
45.6459033984451
20
2.47221612308192
30
0
0
SPLINE
5
21B
100
AcDbEntity
8
1
62
256
6
ByLayer
370
18
48
1
60
0
100
AcDbSpline
70
4
71
3
72
11
73
7
40
0
40
0
40
0
40
0
40
0.247863757160926
40
0.503346945526211
40
0.754128195341655
40
1
40
1
40
1
40
1
41
1
10
52.650076766882
20
2.47859192597195
30
0
41
1
10
52.6356916426192
20
2.4555338209193
30
0
41
1
10
52.6015278130178
20
2.42190482185418
30
0
41
1
10
52.5152813679551
20
2.40874583880716
30
0
41
1
10
52.4536714178051
20
2.44167589291914
30
0
41
1
10
52.4348564376351
20
2.46076955655599
30
0
41
1
10
52.4304032924283
20
2.47224354290432
30
0
0
SPLINE
5
21C
100
AcDbEntity
8
1
62
256
6
ByLayer
370
18
48
1
60
0
100
AcDbSpline
70
4
71
2
72
6
73
3
40
0
40
0
40
0
40
1
40
1
40
1
41
1
10
46.4303796666504
20
2.47230613092651
30
0
41
1
10
46.2627538499381
20
2.76023434550328
30
0
41
1
10
46.0955840569766
20
3.04843141586966
30
0
0
SPLINE
5
21D
100
AcDbEntity
8
1
62
256
6
ByLayer
370
18
48
1
60
0
100
AcDbSpline
70
4
71
3
72
11
73
7
40
0
40
0
40
0
40
0
40
0.244251276043174
40
0.499310916647797
40
0.754788256056562
40
1
40
1
40
1
40
1
41
1
10
46.6536323724188
20
2.48260314305352
30
0
41
1
10
46.6439863055678
20
2.46338284893042
30
0
41
1
10
46.6169214279736
20
2.43334418912264
30
0
41
1
10
46.5416163191779
20
2.40611036204021
30
0
41
1
10
46.4664077138086
20
2.42899275768531
30
0
41
1
10
46.4393645364821
20
2.45577026653444
30
0
41
1
10
46.4297486466534
20
2.47337014113827
30
0
0
SPLINE
5
21E
100
AcDbEntity
8
1
62
256
6
ByLayer
370
18
48
1
60
0
100
AcDbSpline
70
4
71
2
72
6
73
3
40
0
40
0
40
0
40
1
40
1
40
1
41
1
10
48.5976924910955
20
-3.04451261913636
30
0
41
1
10
48.7645349909758
20
-2.75692047525209
30
0
41
1
10
48.9316834842357
20
-2.46995803537308
30
0
0
SPLINE
5
21F
100
AcDbEntity
8
1
62
256
6
ByLayer
370
18
48
1
60
0
100
AcDbSpline
70
4
71
2
72
6
73
3
40
0
40
0
40
0
40
1
40
1
40
1
41
1
10
48.1459273966341
20
-2.47225697507292
30
0
41
1
10
48.3133900615981
20
-2.76033732750278
30
0
41
1
10
48.4804292845418
20
-3.04855837143293
30
0
0
SPLINE
5
220
100
AcDbEntity
8
1
62
256
6
ByLayer
370
18
48
1
60
0
100
AcDbSpline
70
4
71
1
72
4
73
2
40
0
40
0
40
1
40
1
41
1
10
54.4534786715147
20
-2.974757076869
30
0
41
1
10
54.6944012441106
20
-2.91632041965994
30
0
0
SPLINE
5
221
100
AcDbEntity
8
1
62
256
6
ByLayer
370
18
48
1
60
0
100
AcDbSpline
70
4
71
2
72
6
73
3
40
0
40
0
40
0
40
1
40
1
40
1
41
1
10
54.1480312255453
20
-2.47570324851967
30
0
41
1
10
54.2947062945195
20
-2.72811361539118
30
0
41
1
10
54.4410766098343
20
-2.98055826557621
30
0
0
SPLINE
5
222
100
AcDbEntity
8
1
62
256
6
ByLayer
370
18
48
1
60
0
100
AcDbSpline
70
4
71
2
72
6
73
3
40
0
40
0
40
0
40
1
40
1
40
1
41
1
10
48.0226558138069
20
-2.42682859486877
30
0
41
1
10
48.0984945207436
20
-2.39289855126705
30
0
41
1
10
48.1450655081193
20
-2.47073853362997
30
0
0
SPLINE
5
223
100
AcDbEntity
8
1
62
256
6
ByLayer
370
18
48
1
60
0
100
AcDbSpline
70
4
71
2
72
6
73
3
40
0
40
0
40
0
40
1
40
1
40
1
41
1
10
54.0322150942981
20
-2.42478547950628
30
0
41
1
10
54.1060047283434
20
-2.39754825675641
30
0
41
1
10
54.1422443715377
20
-2.46529108955934
30
0
0
SPLINE
5
224
100
AcDbEntity
8
1
62
256
6
ByLayer
370
18
48
1
60
0
100
AcDbSpline
70
4
71
2
72
6
73
3
40
0
40
0
40
0
40
1
40
1
40
1
41
1
10
53.4364586559187
20
2.46004621612289
30
0
41
1
10
53.2701263653324
20
2.74453102207906
30
0
41
1
10
53.103904804922
20
3.02995158705832
30
0
0
SPLINE
5
225
100
AcDbEntity
8
1
62
256
6
ByLayer
370
18
48
1
60
0
100
AcDbSpline
70
4
71
2
72
6
73
3
40
0
40
0
40
0
40
1
40
1
40
1
41
1
10
45.4221765254887
20
2.48308985089284
30
0
41
1
10
45.3149697893167
20
2.6677730313333
30
0
41
1
10
45.2078099929984
20
2.85256782344374
30
0
0
LINE
5
7F
100
AcDbEntity
8
80
62
256
6
ByLayer
370
18
48
1
60
0
100
AcDbLine
10
0
20
0
30
0
11
-5
21
0
31
0
39
0
210
0
220
0
230
1
0
LINE
5
80
100
AcDbEntity
8
4
62
256
6
ByLayer
370
18
48
0.05
60
0
100
AcDbLine
10
0
20
0
30
0
11
57.23
21
0
31
0
39
0
210
0
220
0
230
1
0
LINE
5
82
100
AcDbEntity
8
81
62
256
6
ByLayer
370
18
48
1
60
0
100
AcDbLine
10
57.23
20
0
30
0
11
62.23
21
0
31
0
39
0
210
0
220
0
230
1
0
LINE
5
83
100
AcDbEntity
8
SK4
62
256
6
ByLayer
370
18
48
0.05
60
0
100
AcDbLine
10
-22.87
20
0
30
0
11
57.23
21
0
31
0
39
0
210
0
220
0
230
1
0
LINE
5
85
100
AcDbEntity
8
1
62
256
6
ByLayer
370
18
48
1
60
0
100
AcDbLine
10
0
20
3.2385
30
0
11
0
21
-3.2385
31
0
39
0
210
0
220
0
230
1
0
LINE
5
86
100
AcDbEntity
8
1
62
256
6
ByLayer
370
18
48
1
60
0
100
AcDbLine
10
44.642305
20
2.465391
30
0
11
44.646028
21
2.472423
31
0
39
0
210
0
220
0
230
1
0
LINE
5
87
100
AcDbEntity
8
1
62
256
6
ByLayer
370
13
48
1
60
0
100
AcDbLine
10
50.642361
20
2.465508
30
0
11
50.645459
21
2.47145
31
0
39
0
210
0
220
0
230
1
0
LINE
5
88
100
AcDbEntity
8
1
62
256
6
ByLayer
370
18
48
1
60
0
100
AcDbLine
10
51.425063
20
2.480003
30
0
11
51.430416
21
2.472199
31
0
39
0
210
0
220
0
230
1
0
LINE
5
89
100
AcDbEntity
8
1
62
256
6
ByLayer
370
18
48
1
60
0
100
AcDbLine
10
49.144911
20
-2.47046
30
0
11
49.147436
21
-2.474744
31
0
39
0
210
0
220
0
230
1
0
LINE
5
8A
100
AcDbEntity
8
1
62
256
6
ByLayer
370
18
48
1
60
0
100
AcDbLine
10
55.146926
20
-2.473899
30
0
11
55.144184
21
-2.469107
31
0
39
0
210
0
220
0
230
1
0
LINE
5
8B
100
AcDbEntity
8
1
62
256
6
ByLayer
370
18
48
1
60
0
100
AcDbLine
10
45.645962
20
2.472317
30
0
11
45.648301
21
2.47606
31
0
39
0
210
0
220
0
230
1
0
LINE
5
8C
100
AcDbEntity
8
1
62
256
6
ByLayer
370
18
48
1
60
0
100
AcDbLine
10
52.428271
20
2.475684
30
0
11
52.430299
21
2.472423
31
0
39
0
210
0
220
0
230
1
0
LINE
5
8D
100
AcDbEntity
8
1
62
256
6
ByLayer
370
18
48
1
60
0
100
AcDbLine
10
52.645965
20
2.472349
30
0
11
52.650858
21
2.479591
31
0
39
0
210
0
220
0
230
1
0
LINE
5
8E
100
AcDbEntity
8
1
62
256
6
ByLayer
370
18
48
1
60
0
100
AcDbLine
10
56.200207
20
-2.549158
30
0
11
56.207708
21
-2.549284
31
0
39
0
210
0
220
0
230
1
0
LINE
5
8F
100
AcDbEntity
8
1
62
256
6
ByLayer
370
18
48
1
60
0
100
AcDbLine
10
57.23
20
2.09
30
0
11
57.23
21
2.089262
31
0
39
0
210
0
220
0
230
1
0
LINE
5
90
100
AcDbEntity
8
1
62
256
6
ByLayer
370
13
48
1
60
0
100
AcDbLine
10
31.226238
20
-2.275
30
0
11
31.226238
21
2.275
31
0
39
0
210
0
220
0
230
1
0
LINE
5
91
100
AcDbEntity
8
1
62
256
6
ByLayer
370
13
48
1
60
0
100
AcDbLine
10
44.012413
20
-0.477756
30
0
11
44.012413
21
1.076429
31
0
39
0
210
0
220
0
230
1
0
LINE
5
92
100
AcDbEntity
8
1
62
256
6
ByLayer
370
18
48
1
60
0
100
AcDbLine
10
57.23
20
0.380243
30
0
11
57.23
21
-1.092712
31
0
39
0
210
0
220
0
230
1
0
LINE
5
93
100
AcDbEntity
8
1
62
256
6
ByLayer
370
13
48
1
60
0
100
AcDbLine
10
44.475947
20
0.785321
30
0
11
44.475947
21
-0.899248
31
0
39
0
210
0
220
0
230
1
0
LINE
5
94
100
AcDbEntity
8
1
62
256
6
ByLayer
370
13
48
1
60
0
100
AcDbLine
10
31.035225
20
2.291711
30
0
11
31.035225
21
-2.291711
31
0
39
0
210
0
220
0
230
1
0
LINE
5
95
100
AcDbEntity
8
1
62
256
6
ByLayer
370
18
48
1
60
0
100
AcDbLine
10
25.66572
20
3.2385
30
0
11
25.66572
21
-3.2385
31
0
39
0
210
0
220
0
230
1
0
LINE
5
96
100
AcDbEntity
8
SK1
62
256
6
ByLayer
370
18
48
1
60
0
100
AcDbLine
10
-22.87
20
2.10896
30
0
11
-22.87
21
-2.10896
31
0
39
0
210
0
220
0
230
1
0
LINE
5
98
100
AcDbEntity
8
SK1
62
256
6
ByLayer
370
18
48
1
60
0
100
AcDbLine
10
-15
20
2.425
30
0
11
-14.31604
21
3.10896
31
0
39
0
210
0
220
0
230
1
0
LINE
5
99
100
AcDbEntity
8
SK1
62
256
6
ByLayer
370
18
48
1
60
0
100
AcDbLine
10
-21.87
20
2.425
30
0
11
-15
21
2.425
31
0
39
0
210
0
220
0
230
1
0
LINE
5
9A
100
AcDbEntity
8
SK1
62
256
6
ByLayer
370
18
48
1
60
0
100
AcDbLine
10
-21.87
20
1.94551
30
0
11
-21.87
21
2.425
31
0
39
0
210
0
220
0
230
1
0
LINE
5
9B
100
AcDbEntity
8
SK1
62
256
6
ByLayer
370
18
48
1
60
0
100
AcDbLine
10
-15
20
1.94551
30
0
11
-21.87
21
1.94551
31
0
39
0
210
0
220
0
230
1
0
LINE
5
9C
100
AcDbEntity
8
SK1
62
256
6
ByLayer
370
18
48
1
60
0
100
AcDbLine
10
-21.87
20
-1.94551
30
0
11
-15
21
-1.94551
31
0
39
0
210
0
220
0
230
1
0
LINE
5
9D
100
AcDbEntity
8
SK1
62
256
6
ByLayer
370
18
48
1
60
0
100
AcDbLine
10
-21.87
20
-2.425
30
0
11
-21.87
21
-1.94551
31
0
39
0
210
0
220
0
230
1
0
LINE
5
9E
100
AcDbEntity
8
SK1
62
256
6
ByLayer
370
18
48
1
60
0
100
AcDbLine
10
-15
20
-2.425
30
0
11
-21.87
21
-2.425
31
0
39
0
210
0
220
0
230
1
0
LINE
5
9F
100
AcDbEntity
8
SK1
62
256
6
ByLayer
370
18
48
1
60
0
100
AcDbLine
10
-15
20
-2.425
30
0
11
-14.31604
21
-3.10896
31
0
39
0
210
0
220
0
230
1
0
LINE
5
A0
100
AcDbEntity
8
SK1
62
256
6
ByLayer
370
18
48
1
60
0
100
AcDbLine
10
-15
20
1.94551
30
0
11
-15
21
-1.94551
31
0
39
0
210
0
220
0
230
1
0
LINE
5
A1
100
AcDbEntity
8
SK1
62
256
6
ByLayer
370
18
48
1
60
0
100
AcDbLine
10
0
20
3.2385
30
0
11
0
21
-3.2385
31
0
39
0
210
0
220
0
230
1
0
LINE
5
A2
100
AcDbEntity
8
SK1
62
256
6
ByLayer
370
18
48
1
60
0
100
AcDbLine
10
-14.213
20
3.10896
30
0
11
-14.213
21
-3.10896
31
0
39
0
210
0
220
0
230
1
0
LINE
5
A3
100
AcDbEntity
8
SK1
62
256
6
ByLayer
370
18
48
1
60
0
100
AcDbLine
10
-14.08346
20
-3.2385
30
0
11
-14.08346
21
3.2385
31
0
39
0
210
0
220
0
230
1
0
LINE
5
A4
100
AcDbEntity
8
1
62
256
6
ByLayer
370
18
48
1
60
0
100
AcDbLine
10
45.202733
20
2.840246
30
0
11
44.801288
21
2.599034
31
0
39
0
210
0
220
0
230
1
0
LINE
5
A5
100
AcDbEntity
8
1
62
256
6
ByLayer
370
18
48
1
60
0
100
AcDbLine
10
25.66572
20
3.2385
30
0
11
0
21
3.2385
31
0
39
0
210
0
220
0
230
1
0
LINE
5
A6
100
AcDbEntity
8
1
62
256
6
ByLayer
370
18
48
1
60
0
100
AcDbLine
10
0
20
-3.2385
30
0
11
25.66572
21
-3.2385
31
0
39
0
210
0
220
0
230
1
0
LINE
5
A7
100
AcDbEntity
8
1
62
256
6
ByLayer
370
18
48
1
60
0
100
AcDbLine
10
53.449666
20
2.445502
30
0
11
53.449372
21
2.445461
31
0
39
0
210
0
220
0
230
1
0
LINE
5
A8
100
AcDbEntity
8
1
62
256
6
ByLayer
370
18
48
1
60
0
100
AcDbLine
10
57.23
20
2.09
30
0
11
57.152513
21
2.167487
31
0
39
0
210
0
220
0
230
1
0
LINE
5
A9
100
AcDbEntity
8
1
62
256
6
ByLayer
370
18
48
1
60
0
100
AcDbLine
10
51.08341
20
3.05706
30
0
11
50.992466
21
3.05706
31
0
39
0
210
0
220
0
230
1
0
LINE
5
AA
100
AcDbEntity
8
1
62
256
6
ByLayer
370
18
48
1
60
0
100
AcDbLine
10
49.492432
20
-3.05706
30
0
11
49.583405
21
-3.05706
31
0
39
0
210
0
220
0
230
1
0
LINE
5
AB
100
AcDbEntity
8
1
62
256
6
ByLayer
370
18
48
1
60
0
100
AcDbLine
10
52.083414
20
3.05706
30
0
11
51.992419
21
3.05706
31
0
39
0
210
0
220
0
230
1
0
LINE
5
AC
100
AcDbEntity
8
1
62
256
6
ByLayer
370
18
48
1
60
0
100
AcDbLine
10
46.083402
20
3.05706
30
0
11
45.992463
21
3.05706
31
0
39
0
210
0
220
0
230
1
0
LINE
5
AD
100
AcDbEntity
8
1
62
256
6
ByLayer
370
18
48
1
60
0
100
AcDbLine
10
48.492485
20
-3.05706
30
0
11
48.583404
21
-3.05706
31
0
39
0
210
0
220
0
230
1
0
LINE
5
AE
100
AcDbEntity
8
1
62
256
6
ByLayer
370
18
48
1
60
0
100
AcDbLine
10
53.083421
20
3.05706
30
0
11
52.992439
21
3.05706
31
0
39
0
210
0
220
0
230
1
0
LINE
5
AF
100
AcDbEntity
8
1
62
256
6
ByLayer
370
18
48
1
60
0
100
AcDbLine
10
31.226238
20
-2.275
30
0
11
37.785886
21
-2.275
31
0
39
0
210
0
220
0
230
1
0
LINE
5
B0
100
AcDbEntity
8
1
62
256
6
ByLayer
370
18
48
1
60
0
100
AcDbLine
10
41.86497
20
-2.275
30
0
11
43.922178
21
-2.275
31
0
39
0
210
0
220
0
230
1
0
LINE
5
B1
100
AcDbEntity
8
1
62
256
6
ByLayer
370
18
48
1
60
0
100
AcDbLine
10
40.854144
20
2.275
30
0
11
38.806488
21
2.275
31
0
39
0
210
0
220
0
230
1
0
LINE
5
B2
100
AcDbEntity
8
1
62
256
6
ByLayer
370
18
48
1
60
0
100
AcDbLine
10
35.261276
20
2.275
30
0
11
31.226238
21
2.275
31
0
39
0
210
0
220
0
230
1
0
LINE
5
B3
100
AcDbEntity
8
1
62
256
6
ByLayer
370
18
48
1
60
0
100
AcDbLine
10
31.035225
20
2.291711
30
0
11
25.66572
21
3.2385
31
0
39
0
210
0
220
0
230
1
0
LINE
5
B4
100
AcDbEntity
8
1
62
256
6
ByLayer
370
18
48
1
60
0
100
AcDbLine
10
25.66572
20
-3.2385
30
0
11
31.035225
21
-2.291711
31
0
39
0
210
0
220
0
230
1
0
LINE
5
B5
100
AcDbEntity
8
SK1
62
256
6
ByLayer
370
18
48
1
60
0
100
AcDbLine
10
-22.87
20
-2.10896
30
0
11
-22.55396
21
-2.425
31
0
39
0
210
0
220
0
230
1
0
LINE
5
B6
100
AcDbEntity
8
SK1
62
256
6
ByLayer
370
18
48
1
60
0
100
AcDbLine
10
-22.55396
20
2.425
30
0
11
-22.87
21
2.10896
31
0
39
0
210
0
220
0
230
1
0
LINE
5
B7
100
AcDbEntity
8
SK1
62
256
6
ByLayer
370
18
48
1
60
0
100
AcDbLine
10
-14.213
20
3.10896
30
0
11
-14.31604
21
3.10896
31
0
39
0
210
0
220
0
230
1
0
LINE
5
B8
100
AcDbEntity
8
SK1
62
256
6
ByLayer
370
18
48
1
60
0
100
AcDbLine
10
-14.31604
20
-3.10896
30
0
11
-14.213
21
-3.10896
31
0
39
0
210
0
220
0
230
1
0
LINE
5
B9
100
AcDbEntity
8
SK1
62
256
6
ByLayer
370
18
48
1
60
0
100
AcDbLine
10
0
20
3.2385
30
0
11
-14.08346
21
3.2385
31
0
39
0
210
0
220
0
230
1
0
LINE
5
BA
100
AcDbEntity
8
SK1
62
256
6
ByLayer
370
18
48
1
60
0
100
AcDbLine
10
-14.08346
20
-3.2385
30
0
11
0
21
-3.2385
31
0
39
0
210
0
220
0
230
1
0
LINE
5
BB
100
AcDbEntity
8
SK1
62
256
6
ByLayer
370
18
48
1
60
0
100
AcDbLine
10
-14.213
20
-3.10896
30
0
11
-14.08346
21
-3.2385
31
0
39
0
210
0
220
0
230
1
0
LINE
5
BC
100
AcDbEntity
8
SK1
62
256
6
ByLayer
370
18
48
1
60
0
100
AcDbLine
10
-14.08346
20
3.2385
30
0
11
-14.213
21
3.10896
31
0
39
0
210
0
220
0
230
1
0
LINE
5
BD
100
AcDbEntity
8
SK2
62
256
6
ByLayer
370
18
48
1
60
0
100
AcDbLine
10
13.79113
20
24.337127
30
0
11
13.79113
21
-10.7385
31
0
39
0
210
0
220
0
230
1
0
LINE
5
BF
100
AcDbEntity
8
1
62
256
6
ByLayer
370
18
48
1
60
1
100
AcDbLine
10
13.79113
20
3.2385
30
0
11
13.330346
21
6.738498
31
0
39
0
210
0
220
0
230
1
0
LINE
5
C0
100
AcDbEntity
8
1
62
256
6
ByLayer
370
18
48
1
60
1
100
AcDbLine
10
13.330346
20
6.738498
30
0
11
14.251914
21
6.738502
31
0
39
0
210
0
220
0
230
1
0
LINE
5
C1
100
AcDbEntity
8
1
62
256
6
ByLayer
370
18
48
1
60
1
100
AcDbLine
10
14.251914
20
6.738502
30
0
11
13.79113
21
3.2385
31
0
39
0
210
0
220
0
230
1
0
LINE
5
C2
100
AcDbEntity
8
1
62
256
6
ByLayer
370
18
48
1
60
1
100
AcDbLine
10
13.79113
20
-3.2385
30
0
11
14.251914
21
-6.738498
31
0
39
0
210
0
220
0
230
1
0
LINE
5
C3
100
AcDbEntity
8
1
62
256
6
ByLayer
370
18
48
1
60
1
100
AcDbLine
10
14.251914
20
-6.738498
30
0
11
13.330346
21
-6.738502
31
0
39
0
210
0
220
0
230
1
0
LINE
5
C4
100
AcDbEntity
8
1
62
256
6
ByLayer
370
18
48
1
60
1
100
AcDbLine
10
13.330346
20
-6.738502
30
0
11
13.79113
21
-3.2385
31
0
39
0
210
0
220
0
230
1
0
LINE
5
C5
100
AcDbEntity
8
2
62
256
6
ByLayer
370
18
48
1
60
0
100
AcDbLine
10
57.13
20
-40.55706
30
0
11
-22.87
21
-40.55706
31
0
39
0
210
0
220
0
230
1
0
LINE
5
C7
100
AcDbEntity
8
2
62
256
6
ByLayer
370
18
48
1
60
0
100
AcDbLine
10
-22.87
20
-3.69646
30
0
11
-22.87
21
-42.55706
31
0
39
0
210
0
220
0
230
1
0
LINE
5
C8
100
AcDbEntity
8
2
62
256
6
ByLayer
370
18
48
1
60
0
100
AcDbLine
10
57.13
20
-4.64456
30
0
11
57.13
21
-42.55706
31
0
39
0
210
0
220
0
230
1
0
LINE
5
C9
100
AcDbEntity
8
1
62
256
6
ByLayer
370
18
48
1
60
1
100
AcDbLine
10
-22.87
20
-40.55706
30
0
11
-19.370002
21
-40.096276
31
0
39
0
210
0
220
0
230
1
0
LINE
5
CA
100
AcDbEntity
8
1
62
256
6
ByLayer
370
18
48
1
60
1
100
AcDbLine
10
-19.370002
20
-40.096276
30
0
11
-19.369998
21
-41.017844
31
0
39
0
210
0
220
0
230
1
0
LINE
5
CB
100
AcDbEntity
8
1
62
256
6
ByLayer
370
18
48
1
60
1
100
AcDbLine
10
-19.369998
20
-41.017844
30
0
11
-22.87
21
-40.55706
31
0
39
0
210
0
220
0
230
1
0
LINE
5
CC
100
AcDbEntity
8
1
62
256
6
ByLayer
370
18
48
1
60
1
100
AcDbLine
10
57.13
20
-40.55706
30
0
11
53.630002
21
-41.017844
31
0
39
0
210
0
220
0
230
1
0
LINE
5
CD
100
AcDbEntity
8
1
62
256
6
ByLayer
370
18
48
1
60
1
100
AcDbLine
10
53.630002
20
-41.017844
30
0
11
53.629998
21
-40.096276
31
0
39
0
210
0
220
0
230
1
0
LINE
5
CE
100
AcDbEntity
8
1
62
256
6
ByLayer
370
18
48
1
60
1
100
AcDbLine
10
53.629998
20
-40.096276
30
0
11
57.13
21
-40.55706
31
0
39
0
210
0
220
0
230
1
0
LINE
5
22A
100
AcDbEntity
8
1
62
256
6
ByLayer
370
18
48
1
60
1
100
AcDbLine
10
13.79113
20
3.2385
30
0
11
13.330346
21
6.738498
31
0
39
0
210
0
220
0
230
1
0
LINE
5
22B
100
AcDbEntity
8
1
62
256
6
ByLayer
370
18
48
1
60
1
100
AcDbLine
10
13.330346
20
6.738498
30
0
11
14.251914
21
6.738502
31
0
39
0
210
0
220
0
230
1
0
LINE
5
22C
100
AcDbEntity
8
1
62
256
6
ByLayer
370
18
48
1
60
1
100
AcDbLine
10
14.251914
20
6.738502
30
0
11
13.79113
21
3.2385
31
0
39
0
210
0
220
0
230
1
0
LINE
5
22E
100
AcDbEntity
8
1
62
256
6
ByLayer
370
18
48
1
60
1
100
AcDbLine
10
13.79113
20
-3.2385
30
0
11
14.251914
21
-6.738498
31
0
39
0
210
0
220
0
230
1
0
LINE
5
22F
100
AcDbEntity
8
1
62
256
6
ByLayer
370
18
48
1
60
1
100
AcDbLine
10
14.251914
20
-6.738498
30
0
11
13.330346
21
-6.738502
31
0
39
0
210
0
220
0
230
1
0
LINE
5
230
100
AcDbEntity
8
1
62
256
6
ByLayer
370
18
48
1
60
1
100
AcDbLine
10
13.330346
20
-6.738502
30
0
11
13.79113
21
-3.2385
31
0
39
0
210
0
220
0
230
1
0
LINE
5
233
100
AcDbEntity
8
1
62
256
6
ByLayer
370
18
48
1
60
1
100
AcDbLine
10
-22.87
20
-40.55706
30
0
11
-19.370002
21
-40.096276
31
0
39
0
210
0
220
0
230
1
0
LINE
5
234
100
AcDbEntity
8
1
62
256
6
ByLayer
370
18
48
1
60
1
100
AcDbLine
10
-19.370002
20
-40.096276
30
0
11
-19.369998
21
-41.017844
31
0
39
0
210
0
220
0
230
1
0
LINE
5
235
100
AcDbEntity
8
1
62
256
6
ByLayer
370
18
48
1
60
1
100
AcDbLine
10
-19.369998
20
-41.017844
30
0
11
-22.87
21
-40.55706
31
0
39
0
210
0
220
0
230
1
0
LINE
5
237
100
AcDbEntity
8
1
62
256
6
ByLayer
370
18
48
1
60
1
100
AcDbLine
10
57.13
20
-40.55706
30
0
11
53.630002
21
-41.017844
31
0
39
0
210
0
220
0
230
1
0
LINE
5
238
100
AcDbEntity
8
1
62
256
6
ByLayer
370
18
48
1
60
1
100
AcDbLine
10
53.630002
20
-41.017844
30
0
11
53.629998
21
-40.096276
31
0
39
0
210
0
220
0
230
1
0
LINE
5
239
100
AcDbEntity
8
1
62
256
6
ByLayer
370
18
48
1
60
1
100
AcDbLine
10
53.629998
20
-40.096276
30
0
11
57.13
21
-40.55706
31
0
39
0
210
0
220
0
230
1
0
MTEXT
5
226
100
AcDbEntity
8
SK2
62
256
6
ByLayer
370
18
48
1
60
0
100
AcDbMText
10
12.450016
20
8.896938
30
0
210
0
220
0
230
1
1
%%c
40
3
41
0
44
1.084337
50
90
71
7
72
5
7
iso_b_vert
0
MTEXT
5
229
100
AcDbEntity
8
SK2
62
256
6
ByLayer
370
18
48
1
60
0
100
AcDbMText
10
12.450016
20
14.8735
30
0
210
0
220
0
230
1
1
\W0.7694;6.477
40
3
41
0
44
1.084337
50
90
71
7
72
5
7
iso_b_vert
0
MTEXT
5
232
100
AcDbEntity
8
2
62
256
6
ByLayer
370
18
48
1
60
0
100
AcDbMText
10
15.497172
20
-39.671946
30
0
210
0
220
0
230
1
1
\W0.6740;80
40
3
41
0
44
1.084337
50
0
71
7
72
5
7
iso_b_vert
0
MTEXT
5
23B
100
AcDbEntity
8
SK6
62
256
6
ByLayer
370
18
48
1
60
0
100
AcDbMText
10
-1.576019
20
-82.114886
30
0
210
0
220
0
230
1
1
\W0.7371;T300-XM100AA-M6     C110
40
3
41
0
44
1.084337
50
0
71
7
72
5
7
iso_b_vert
0
HATCH
5
22D
100
AcDbEntity
8
SK2
62
256
6
ByLayer
370
13
48
1
60
0
100
AcDbHatch
10
0
20
0
30
0
210
0
220
0
230
1
2
ANSI31
70
0
71
0
91
1
92
5
93
3
72
1
10
13.7911299833992
20
3.23850000000002
11
13.3303462418464
21
6.73849830744683
72
1
10
13.3303462418464
20
6.73849830744683
11
14.251913724952
21
6.7385016925532
72
1
10
14.251913724952
20
6.7385016925532
11
13.7911299833992
21
3.23850000000002
97
0
75
0
76
1
52
0
41
0.0062
77
0
78
1
53
45
43
0
44
0
45
-0.0139193969876572
46
0.0139193969876572
79
0
47
0
98
1
10
0
20
0
0
HATCH
5
231
100
AcDbEntity
8
SK2
62
256
6
ByLayer
370
13
48
1
60
0
100
AcDbHatch
10
0
20
0
30
0
210
0
220
0
230
1
2
ANSI31
70
0
71
0
91
1
92
5
93
3
72
1
10
13.7911299833992
20
-3.23849999999999
11
14.251913724952
21
-6.7384983074468
72
1
10
14.251913724952
20
-6.7384983074468
11
13.3303462418464
21
-6.73850169255317
72
1
10
13.3303462418464
20
-6.73850169255317
11
13.7911299833992
21
-3.23849999999999
97
0
75
0
76
1
52
0
41
0.0062
77
0
78
1
53
45
43
0
44
0
45
-0.0139193969876572
46
0.0139193969876572
79
0
47
0
98
1
10
0
20
0
0
HATCH
5
236
100
AcDbEntity
8
2
62
256
6
ByLayer
370
13
48
1
60
0
100
AcDbHatch
10
0
20
0
30
0
210
0
220
0
230
1
2
ANSI31
70
0
71
0
91
1
92
5
93
3
72
1
10
-22.87
20
-40.5570602281852
11
-19.3700016925532
21
-40.0962764866324
72
1
10
-19.3700016925532
20
-40.0962764866324
11
-19.3699983074468
21
-41.0178439697379
72
1
10
-19.3699983074468
20
-41.0178439697379
11
-22.87
21
-40.5570602281852
97
0
75
0
76
1
52
0
41
0.0062
77
0
78
1
53
45
43
0
44
0
45
-0.0139193969876572
46
0.0139193969876572
79
0
47
0
98
1
10
0
20
0
0
HATCH
5
23A
100
AcDbEntity
8
2
62
256
6
ByLayer
370
13
48
1
60
0
100
AcDbHatch
10
0
20
0
30
0
210
0
220
0
230
1
2
ANSI31
70
0
71
0
91
1
92
5
93
3
72
1
10
57.13
20
-40.5570602281852
11
53.6300016925532
21
-41.0178439697379
72
1
10
53.6300016925532
20
-41.0178439697379
11
53.6299983074468
21
-40.0962764866324
72
1
10
53.6299983074468
20
-40.0962764866324
11
57.13
21
-40.5570602281852
97
0
75
0
76
1
52
0
41
0.0062
77
0
78
1
53
45
43
0
44
0
45
-0.0139193969876572
46
0.0139193969876572
79
0
47
0
98
1
10
0
20
0
0
DIMENSION
5
23E
100
AcDbEntity
8
2
62
256
6
ByLayer
370
18
48
1
60
0
100
AcDbDimension
2
_U0
10
75.66294
20
-3.05706
30
0
11
75.66294
21
20.55706
31
0
70
32
71
1
72
1
41
1
210
0
220
0
230
1
3
Standard
100
AcDbAlignedDimension
13
57.13
23
3.05706
33
0
14
57.13
24
-3.05706
34
0
50
90
100
AcDbRotatedDimension
1001
ACAD
1000
DSTYLE
1002
{
1070
   371
1070
    13
1070
   372
1070
    13
1070
     3
1000

1070
   170
1070
     0
1070
   144
1040
1.0
1070
   277
1070
     2
1070
   284
1070
     8
1070
   278
1070
    46
1070
   146
1040
1.166667
1070
   345
1005
16
1070
   347
1005
16
1070
   346
1005
16
1070
   344
1005
0
1070
   343
1005
0
1070
   172
1070
     1
1070
    76
1070
     0
1070
    75
1070
     0
1070
   282
1070
     0
1070
   281
1070
     0
1070
    71
1070
     0
1070
    74
1070
     0
1070
   279
1070
     0
1070
   173
1070
     1
1070
   340
1005
227
1070
   271
1070
     3
1070
   272
1070
     3
1070
    77
1070
     1
1070
    73
1070
     0
1070
   171
1070
     3
1070
   274
1070
     4
1070
   177
1070
     2
1070
   176
1070
     2
1070
   178
1070
     2
1070
    78
1070
     8
1070
    48
1040
-0.1
1070
    41
1040
3.5
1070
   147
1040
1.5
1070
    42
1040
1.5875
1070
    44
1040
2.0
1070
   140
1040
3.0
1002
}
1001
ACAD_DSTYLE_DIM_LINETYPE
1070
   380
1005
16
1001
ACAD_DSTYLE_DIM_EXT1_LINETYPE
1070
   381
1005
16
1001
ACAD_DSTYLE_DIM_EXT2_LINETYPE
1070
   382
1005
16
0
DIMENSION
5
259
100
AcDbEntity
8
SK2
62
256
6
ByLayer
370
18
48
1
60
0
100
AcDbDimension
2
_U1
10
54.38
20
12.0885
30
0
11
55.755
21
12.0885
31
0
70
32
71
1
72
1
41
1
210
0
220
0
230
1
3
Standard
100
AcDbAlignedDimension
13
57.13
23
3.05706
33
0
14
54.38
24
0
34
0
50
0
100
AcDbRotatedDimension
1001
ACAD
1000
DSTYLE
1002
{
1070
   371
1070
    13
1070
   372
1070
    13
1070
   170
1070
     0
1070
   144
1040
1.0
1070
   277
1070
     2
1070
   284
1070
     8
1070
   278
1070
    46
1070
   146
1040
1.166667
1070
   345
1005
16
1070
   347
1005
16
1070
   346
1005
16
1070
   344
1005
0
1070
   343
1005
0
1070
   172
1070
     1
1070
    76
1070
     0
1070
    75
1070
     0
1070
   282
1070
     0
1070
   281
1070
     0
1070
    71
1070
     0
1070
    74
1070
     0
1070
   279
1070
     0
1070
   173
1070
     1
1070
   340
1005
227
1070
   271
1070
     3
1070
   272
1070
     3
1070
    77
1070
     1
1070
    73
1070
     1
1070
   171
1070
     3
1070
   274
1070
     4
1070
   177
1070
     2
1070
   176
1070
     2
1070
   178
1070
     2
1070
    78
1070
     8
1070
    48
1040
-0.1
1070
    41
1040
3.5
1070
   147
1040
1.5
1070
    42
1040
1.5875
1070
    44
1040
2.0
1070
   140
1040
3.0
1002
}
1001
ACAD_DSTYLE_DIM_LINETYPE
1070
   380
1005
16
1001
ACAD_DSTYLE_DIM_EXT1_LINETYPE
1070
   381
1005
16
1001
ACAD_DSTYLE_DIM_EXT2_LINETYPE
1070
   382
1005
16
0
DIMENSION
5
273
100
AcDbEntity
8
SK2
62
256
6
ByLayer
370
18
48
1
60
0
100
AcDbDimension
2
_U2
10
45.73
20
-10.05706
30
0
11
73.058571
21
-10.05706
31
0
70
32
71
1
72
1
41
1
210
0
220
0
230
1
3
Standard
100
AcDbAlignedDimension
13
57.13
23
-3.05706
33
0
14
45.73
24
-3.05706
34
0
50
0
100
AcDbRotatedDimension
1001
ACAD
1000
DSTYLE
1002
{
1070
   371
1070
    13
1070
   372
1070
    13
1070
   170
1070
     0
1070
   144
1040
1.0
1070
   277
1070
     2
1070
   284
1070
     8
1070
   278
1070
    46
1070
   146
1040
0.833333
1070
   345
1005
16
1070
   347
1005
16
1070
   346
1005
16
1070
   344
1005
0
1070
   343
1005
0
1070
   172
1070
     1
1070
    76
1070
     0
1070
    75
1070
     0
1070
   282
1070
     0
1070
   281
1070
     0
1070
    47
1040
0.5
1070
    72
1070
     0
1070
    71
1070
     1
1070
    74
1070
     0
1070
   279
1070
     0
1070
   173
1070
     1
1070
   340
1005
227
1070
   271
1070
     1
1070
   272
1070
     3
1070
    77
1070
     1
1070
    73
1070
     1
1070
   171
1070
     3
1070
   274
1070
     4
1070
   177
1070
     2
1070
   176
1070
     2
1070
   178
1070
     2
1070
    78
1070
     8
1070
    48
1040
0.5
1070
    41
1040
3.5
1070
   147
1040
1.5
1070
    42
1040
1.5875
1070
    44
1040
2.0
1070
   140
1040
3.0
1002
}
1001
ACAD_DSTYLE_DIM_LINETYPE
1070
   380
1005
16
1001
ACAD_DSTYLE_DIM_EXT1_LINETYPE
1070
   381
1005
16
1001
ACAD_DSTYLE_DIM_EXT2_LINETYPE
1070
   382
1005
16
0
DIMENSION
5
28E
100
AcDbEntity
8
SK2
62
256
6
ByLayer
370
18
48
1
60
0
100
AcDbDimension
2
_U3
10
31.13
20
-32.55706
30
0
11
44.13
21
-32.55706
31
0
70
32
71
1
72
1
41
1
210
0
220
0
230
1
3
Standard
100
AcDbAlignedDimension
13
57.13
23
-3.05706
33
0
14
31.13
24
-2.275
34
0
50
0
100
AcDbRotatedDimension
1001
ACAD
1000
DSTYLE
1002
{
1070
   371
1070
    13
1070
   372
1070
    13
1070
   170
1070
     0
1070
   144
1040
1.0
1070
   277
1070
     2
1070
   284
1070
     8
1070
   278
1070
    46
1070
   146
1040
1.166667
1070
   345
1005
16
1070
   347
1005
16
1070
   346
1005
16
1070
   344
1005
0
1070
   343
1005
0
1070
   172
1070
     1
1070
    76
1070
     0
1070
    75
1070
     0
1070
   282
1070
     0
1070
   281
1070
     0
1070
    71
1070
     0
1070
    74
1070
     0
1070
   279
1070
     0
1070
   173
1070
     1
1070
   340
1005
227
1070
   271
1070
     1
1070
   272
1070
     3
1070
    77
1070
     1
1070
    73
1070
     1
1070
   171
1070
     3
1070
   274
1070
     4
1070
   177
1070
     2
1070
   176
1070
     2
1070
   178
1070
     2
1070
    78
1070
     8
1070
    48
1040
-0.1
1070
    41
1040
3.5
1070
   147
1040
1.5
1070
    42
1040
1.5875
1070
    44
1040
2.0
1070
   140
1040
3.0
1002
}
1001
ACAD_DSTYLE_DIM_LINETYPE
1070
   380
1005
16
1001
ACAD_DSTYLE_DIM_EXT1_LINETYPE
1070
   381
1005
16
1001
ACAD_DSTYLE_DIM_EXT2_LINETYPE
1070
   382
1005
16
0
DIMENSION
5
2A6
100
AcDbEntity
8
2
62
256
6
ByLayer
370
18
48
1
60
0
100
AcDbDimension
2
_U4
10
35.03
20
-21.55706
30
0
11
46.08
21
-21.55706
31
0
70
32
71
1
72
1
41
1
210
0
220
0
230
1
3
Standard
100
AcDbAlignedDimension
13
57.13
23
-3.05706
33
0
14
35.03
24
0
34
0
50
0
100
AcDbRotatedDimension
1001
ACAD
1000
DSTYLE
1002
{
1070
   371
1070
    13
1070
   372
1070
    13
1070
   170
1070
     0
1070
   144
1040
1.0
1070
   277
1070
     2
1070
   284
1070
     8
1070
   278
1070
    46
1070
   146
1040
1.166667
1070
   345
1005
16
1070
   347
1005
16
1070
   346
1005
16
1070
   344
1005
0
1070
   343
1005
0
1070
   172
1070
     1
1070
    76
1070
     0
1070
    75
1070
     0
1070
   282
1070
     0
1070
   281
1070
     0
1070
    71
1070
     0
1070
    74
1070
     0
1070
   279
1070
     0
1070
   173
1070
     1
1070
   340
1005
227
1070
   271
1070
     1
1070
   272
1070
     3
1070
    77
1070
     1
1070
    73
1070
     1
1070
   171
1070
     3
1070
   274
1070
     4
1070
   177
1070
     2
1070
   176
1070
     2
1070
   178
1070
     2
1070
    78
1070
     8
1070
    48
1040
-0.1
1070
    41
1040
3.5
1070
   147
1040
1.5
1070
    42
1040
1.5875
1070
    44
1040
2.0
1070
   140
1040
3.0
1002
}
1001
ACAD_DSTYLE_DIM_LINETYPE
1070
   380
1005
16
1001
ACAD_DSTYLE_DIM_EXT1_LINETYPE
1070
   381
1005
16
1001
ACAD_DSTYLE_DIM_EXT2_LINETYPE
1070
   382
1005
16
0
ENDSEC
0
SECTION
2
OBJECTS
0
DICTIONARY
5
32e
330
0
100
AcDbDictionary
280
0
281
1
3
ACAD_GROUP
350
32f
3
ACAD_MLINESTYLE
350
330
0
DICTIONARY
5
32f
330
0
100
AcDbDictionary
280
0
281
1
0
DICTIONARY
5
330
330
0
100
AcDbDictionary
280
0
281
1
3
Standard
350
18
0
MLINESTYLE
5
18
330
330
100
AcDbMlineStyle
2
Standard
70
0
3

62
256
51
90
52
90
71
2
49
-0.5
62
256
6
ByLayer
49
0.5
62
256
6
ByLayer
0
RASTERVARIABLES
5
31c
330

100
AcDbRasterVariables
90
0
70
1
71
1
72
1
0
ENDSEC
0
EOF
