0
SECTION
2
HEADER
9
$ACADVER
1
AC1015
9
$DWGCODEPAGE
3
ANSI_1252
9
$HANDSEED
5
13e
9
$ANGBASE
50
0
9
$ANGDIR
70
0
9
$ATTMODE
70
1
9
$AUNITS
70
0
9
$AUPREC
70
0
9
$CECOLOR
62
256
9
$CELTSCALE
40
1
9
$CELTYPE
6
ByLayer
9
$CELWEIGHT
370
-1
9
$CLAYER
8
0
9
$CMLJUST
70
0
9
$CMLSCALE
40
1
9
$CMLSTYLE
2
Standard
9
$DIMSTYLE
2
Standard
9
$TEXTSIZE
40
0.2
9
$TEXTSTYLE
7
Standard
9
$LUNITS
70
2
9
$LUPREC
70
4
9
$EXTNAMES
290
1
9
$INSUNITS
70
4
9
$LTSCALE
40
1
9
$LWDISPLAY
290
0
9
$PDMODE
70
0
9
$PDSIZE
40
0
9
$PLINEGEN
70
0
0
ENDSEC
0
SECTION
2
CLASSES
0
CLASS
1
RASTERVARIABLES
2
AcDbRasterVariables
3
ISM
90
0
280
0
281
0
0
ENDSEC
0
SECTION
2
TABLES
0
TABLE
2
VPORT
5
134
100
AcDbSymbolTable
0
VPORT
5
1
100
AcDbSymbolTableRecord
100
AcDbViewportTableRecord
2
*Active
70
0
10
0
20
0
11
1
21
1
12
-1
22
1
13
0
23
0
14
0.5
24
0.5
15
10
25
10
16
0
26
0
36
1
17
0
27
0
37
0
0
ENDTAB
0
TABLE
2
LTYPE
5
135
100
AcDbSymbolTable
0
LTYPE
5
14
100
AcDbSymbolTableRecord
100
AcDbLinetypeTableRecord
70
0
2
ByBlock
3

72
65
73
0
40
0
0
LTYPE
5
15
100
AcDbSymbolTableRecord
100
AcDbLinetypeTableRecord
70
0
2
ByLayer
3

72
65
73
0
40
0
0
LTYPE
5
16
100
AcDbSymbolTableRecord
100
AcDbLinetypeTableRecord
70
0
2
CONTINUOUS
3
Solid line
72
65
73
0
40
0
0
LTYPE
5
3B
100
AcDbSymbolTableRecord
100
AcDbLinetypeTableRecord
70
0
2
DASHED
3
__ __ __ __ __ __ __ __ __
72
65
73
2
40
25.72
49
12.86
74
0
49
-12.86
74
0
0
LTYPE
5
3C
100
AcDbSymbolTableRecord
100
AcDbLinetypeTableRecord
70
0
2
HIDDEN
3
_ _ _ _ _ _ _ _ _ _ _ _ _ _ _
72
65
73
2
40
0.5
49
0.25
74
0
49
-0.25
74
0
0
LTYPE
5
3D
100
AcDbSymbolTableRecord
100
AcDbLinetypeTableRecord
70
0
2
PHANTOM
3
____ _ _ ____ _ _ _____ _ _ ____
72
65
73
6
40
50.5
49
18
74
0
49
-6.5
74
0
49
6.5
74
0
49
-6.5
74
0
49
6.5
74
0
49
-6.5
74
0
0
LTYPE
5
3E
100
AcDbSymbolTableRecord
100
AcDbLinetypeTableRecord
70
0
2
CENTER
3
____ _ ____ _ ____ _ ____
72
65
73
4
40
47.5
49
22
74
0
49
-8.5
74
0
49
8.5
74
0
49
-8.5
74
0
0
LTYPE
5
3F
100
AcDbSymbolTableRecord
100
AcDbLinetypeTableRecord
70
0
2
DOT
3
.........................
72
65
73
2
40
10
49
0
74
0
49
-10
74
0
0
LTYPE
5
40
100
AcDbSymbolTableRecord
100
AcDbLinetypeTableRecord
70
0
2
DASHDOT
3
_._._._._._._._._._._._._._._._.
72
65
73
4
40
70
49
31
74
0
49
-13
74
0
49
13
74
0
49
-13
74
0
0
ENDTAB
0
TABLE
2
LAYER
5
136
100
AcDbSymbolTable
0
LAYER
5
10
100
AcDbSymbolTableRecord
100
AcDbLayerTableRecord
2
0
70
0
62
7
6
CONTINUOUS
290
1
370
-3
390
0
0
LAYER
5
42
100
AcDbSymbolTableRecord
100
AcDbLayerTableRecord
2
81
70
0
62
-3
6
CONTINUOUS
290
1
370
-3
390
0
0
LAYER
5
44
100
AcDbSymbolTableRecord
100
AcDbLayerTableRecord
2
2
70
0
62
7
6
CONTINUOUS
290
1
370
-3
390
0
0
LAYER
5
48
100
AcDbSymbolTableRecord
100
AcDbLayerTableRecord
2
80
70
0
62
-6
6
CONTINUOUS
290
1
370
-3
390
0
0
LAYER
5
4F
100
AcDbSymbolTableRecord
100
AcDbLayerTableRecord
2
1
70
0
62
4
6
CONTINUOUS
290
1
370
-3
390
0
0
LAYER
5
121
100
AcDbSymbolTableRecord
100
AcDbLayerTableRecord
2
SK2
70
0
62
7
6
CONTINUOUS
290
1
370
-3
390
0
0
LAYER
5
122
100
AcDbSymbolTableRecord
100
AcDbLayerTableRecord
2
SK1
70
0
62
4
6
CONTINUOUS
290
1
370
-3
390
0
0
LAYER
5
123
100
AcDbSymbolTableRecord
100
AcDbLayerTableRecord
2
SK6
70
0
62
5
6
CONTINUOUS
290
1
370
-3
390
0
0
ENDTAB
0
TABLE
2
STYLE
5
137
100
AcDbSymbolTable
0
STYLE
5
11
100
AcDbSymbolTableRecord
100
AcDbTextStyleTableRecord
2
Standard
3
txt
70
0
71
0
40
0
41
1
42
0
50
0
0
STYLE
5
9E
100
AcDbSymbolTableRecord
100
AcDbTextStyleTableRecord
2
DEFAULT
3
simplex.shx
70
0
71
0
40
0
41
1
42
0
50
0
0
STYLE
5
C1
100
AcDbSymbolTableRecord
100
AcDbTextStyleTableRecord
2
DWGDirectTextStyle
3
SIMPLEX
70
0
71
0
40
0
41
1
42
0
50
0
0
ENDTAB
0
TABLE
2
DIMSTYLE
5
138
100
AcDbSymbolTable
100
AcDbDimStyleTable
0
DIMSTYLE
105
27
100
AcDbSymbolTableRecord
100
AcDbDimStyleTableRecord
2
Standard
70
0
3
<>
41
0.18
42
0.0625
44
0.18
140
0.18
147
0.09
73
0
74
0
77
1
271
2
275
0
278
52
280
0
340
11
0
ENDTAB
0
TABLE
2
VIEW
5
139
100
AcDbSymbolTable
0
ENDTAB
0
TABLE
2
UCS
5
13a
100
AcDbSymbolTable
0
ENDTAB
0
TABLE
2
APPID
5
13b
100
AcDbSymbolTable
0
APPID
5
12
100
AcDbSymbolTableRecord
100
AcDbRegAppTableRecord
2
ACAD
70
0
0
ENDTAB
0
TABLE
2
BLOCK_RECORD
5
13c
100
AcDbSymbolTable
0
BLOCK_RECORD
5
1F
100
AcDbSymbolTableRecord
100
AcDbBlockTableRecord
2
*Model_Space
340
0
70
0
0
BLOCK_RECORD
5
1B
100
AcDbSymbolTableRecord
100
AcDbBlockTableRecord
2
*Paper_Space
340
0
70
0
0
BLOCK_RECORD
5
23
100
AcDbSymbolTableRecord
100
AcDbBlockTableRecord
2
*Paper_Space0
340
0
70
0
0
BLOCK_RECORD
5
C3
100
AcDbSymbolTableRecord
100
AcDbBlockTableRecord
2
DimnDraft3D1
340
0
70
0
0
BLOCK_RECORD
5
D1
100
AcDbSymbolTableRecord
100
AcDbBlockTableRecord
2
_CLOSED
340
0
70
0
0
BLOCK_RECORD
5
D8
100
AcDbSymbolTableRecord
100
AcDbBlockTableRecord
2
DimnDraft3D2
340
0
70
0
0
BLOCK_RECORD
5
E6
100
AcDbSymbolTableRecord
100
AcDbBlockTableRecord
2
DimnDraft3D3
340
0
70
0
0
BLOCK_RECORD
5
F4
100
AcDbSymbolTableRecord
100
AcDbBlockTableRecord
2
DimnDraft3D4
340
0
70
0
0
ENDTAB
0
ENDSEC
0
SECTION
2
BLOCKS
0
BLOCK
5
20
100
AcDbEntity
8
0
100
AcDbBlockBegin
2
*Model_Space
70
0
10
0
20
0
30
0
3
*Model_Space
0
ENDBLK
5
21
100
AcDbEntity
8
0
100
AcDbBlockEnd
0
BLOCK
5
1C
100
AcDbEntity
8
0
100
AcDbBlockBegin
2
*Paper_Space
70
0
10
0
20
0
30
0
3
*Paper_Space
0
ENDBLK
5
1D
100
AcDbEntity
8
0
100
AcDbBlockEnd
0
BLOCK
5
24
100
AcDbEntity
8
0
100
AcDbBlockBegin
2
*Paper_Space0
70
0
10
0
20
0
30
0
3
*Paper_Space0
0
ENDBLK
5
25
100
AcDbEntity
8
0
100
AcDbBlockEnd
0
BLOCK
5
CE
100
AcDbEntity
8
0
100
AcDbBlockBegin
2
DimnDraft3D1
70
0
10
0
20
0
30
0
3
DimnDraft3D1
0
MTEXT
5
C4
100
AcDbEntity
8
2
62
256
6
ByLayer
370
-1
48
1
60
0
100
AcDbMText
10
8.353571
20
7.299205
30
0
210
0
220
0
230
1
1
\W01.000;\fsimplex.shx,bigfont.shx;72%%d30' 
40
4.5
41
0
44
1.084337
50
36.2500000000009
71
7
72
5
7
DEFAULT
0
LINE
5
C5
100
AcDbEntity
8
2
62
256
6
ByLayer
370
-1
48
1
60
0
100
AcDbLine
10
22
20
2.459374
30
0
11
22
21
14.899092
31
0
39
0
210
0
220
0
230
1
0
LINE
5
C6
100
AcDbEntity
8
2
62
256
6
ByLayer
370
-1
48
1
60
0
100
AcDbLine
10
18.861317
20
1.343123
30
0
11
8.127623
21
4.727444
31
0
39
0
210
0
220
0
230
1
0
ARC
5
C7
100
AcDbEntity
8
2
62
256
6
ByLayer
370
-1
48
1
60
0
100
AcDbCircle
39
0
10
22
20
0.3535
30
0
40
12.5455915230685
210
0
220
0
230
1
100
AcDbArc
50
48.116489
51
204.383511
0
LINE
5
C8
100
AcDbEntity
8
2
62
256
6
ByLayer
370
-1
48
1
60
0
100
AcDbLine
10
22
20
12.899092
30
0
11
25.195002
21
13.116575
31
0
39
0
210
0
220
0
230
1
0
LINE
5
C9
100
AcDbEntity
8
2
62
256
6
ByLayer
370
-1
48
1
60
0
100
AcDbLine
10
22
20
12.899092
30
0
11
25.142427
21
12.282236
31
0
39
0
210
0
220
0
230
1
0
LINE
5
CA
100
AcDbEntity
8
2
62
256
6
ByLayer
370
-1
48
1
60
0
100
AcDbLine
10
25.195002
20
13.116575
30
0
11
25.142427
21
12.282236
31
0
39
0
210
0
220
0
230
1
0
LINE
5
CB
100
AcDbEntity
8
2
62
256
6
ByLayer
370
-1
48
1
60
0
100
AcDbLine
10
10.035057
20
4.126032
30
0
11
9.678417
21
0.943558
31
0
39
0
210
0
220
0
230
1
0
LINE
5
CC
100
AcDbEntity
8
2
62
256
6
ByLayer
370
-1
48
1
60
0
100
AcDbLine
10
10.035057
20
4.126032
30
0
11
8.866883
21
1.1443
31
0
39
0
210
0
220
0
230
1
0
LINE
5
CD
100
AcDbEntity
8
2
62
256
6
ByLayer
370
-1
48
1
60
0
100
AcDbLine
10
9.678417
20
0.943558
30
0
11
8.866883
21
1.1443
31
0
39
0
210
0
220
0
230
1
0
ENDBLK
5
CF
100
AcDbEntity
8
0
100
AcDbBlockEnd
0
BLOCK
5
D2
100
AcDbEntity
8
0
100
AcDbBlockBegin
2
_CLOSED
70
0
10
0
20
0
30
0
3
_CLOSED
0
LINE
5
D4
100
AcDbEntity
8
0
62
256
6
ByLayer
370
-2
48
1
60
0
100
AcDbLine
10
-1
20
0.166667
30
0
11
0
21
0
31
0
39
0
210
0
220
0
230
1
0
LINE
5
D5
100
AcDbEntity
8
0
62
256
6
ByLayer
370
-2
48
1
60
0
100
AcDbLine
10
0
20
0
30
0
11
-1
21
-0.166667
31
0
39
0
210
0
220
0
230
1
0
LINE
5
D6
100
AcDbEntity
8
0
62
256
6
ByLayer
370
-2
48
1
60
0
100
AcDbLine
10
-1
20
0.166667
30
0
11
-1
21
-0.166667
31
0
39
0
210
0
220
0
230
1
0
LINE
5
D7
100
AcDbEntity
8
0
62
256
6
ByLayer
370
-2
48
1
60
0
100
AcDbLine
10
0
20
0
30
0
11
-1
21
0
31
0
39
0
210
0
220
0
230
1
0
ENDBLK
5
D3
100
AcDbEntity
8
0
100
AcDbBlockEnd
0
BLOCK
5
E3
100
AcDbEntity
8
0
100
AcDbBlockBegin
2
DimnDraft3D2
70
0
10
0
20
0
30
0
3
DimnDraft3D2
0
MTEXT
5
D9
100
AcDbEntity
8
SK2
62
256
6
ByLayer
370
-1
48
1
60
0
100
AcDbMText
10
-115.225
20
-1.503947
30
0
210
0
220
0
230
1
1
\W01.000;\fsimplex.shx,bigfont.shx;20 
40
4.5
41
0
44
1.084337
50
90
71
7
72
5
7
DEFAULT
0
LINE
5
DA
100
AcDbEntity
8
SK2
62
256
6
ByLayer
370
-1
48
1
60
0
100
AcDbLine
10
-106.35
20
-9.9375
30
0
11
-116.1
21
-9.9375
31
0
39
0
210
0
220
0
230
1
0
LINE
5
DB
100
AcDbEntity
8
SK2
62
256
6
ByLayer
370
-1
48
1
60
0
100
AcDbLine
10
-106.35
20
9.9375
30
0
11
-116.1
21
9.9375
31
0
39
0
210
0
220
0
230
1
0
LINE
5
DC
100
AcDbEntity
8
SK2
62
256
6
ByLayer
370
-1
48
1
60
0
100
AcDbLine
10
-114.1
20
-9.9375
30
0
11
-114.1
21
9.9375
31
0
39
0
210
0
220
0
230
1
0
LINE
5
DD
100
AcDbEntity
8
SK2
62
256
6
ByLayer
370
-1
48
1
60
0
100
AcDbLine
10
-114.1
20
-9.9375
30
0
11
-114.517997
21
-6.762502
31
0
39
0
210
0
220
0
230
1
0
LINE
5
DE
100
AcDbEntity
8
SK2
62
256
6
ByLayer
370
-1
48
1
60
0
100
AcDbLine
10
-114.1
20
-9.9375
30
0
11
-113.682003
21
-6.762498
31
0
39
0
210
0
220
0
230
1
0
LINE
5
DF
100
AcDbEntity
8
SK2
62
256
6
ByLayer
370
-1
48
1
60
0
100
AcDbLine
10
-114.517997
20
-6.762502
30
0
11
-113.682003
21
-6.762498
31
0
39
0
210
0
220
0
230
1
0
LINE
5
E0
100
AcDbEntity
8
SK2
62
256
6
ByLayer
370
-1
48
1
60
0
100
AcDbLine
10
-114.1
20
9.9375
30
0
11
-113.682003
21
6.762502
31
0
39
0
210
0
220
0
230
1
0
LINE
5
E1
100
AcDbEntity
8
SK2
62
256
6
ByLayer
370
-1
48
1
60
0
100
AcDbLine
10
-114.1
20
9.9375
30
0
11
-114.517997
21
6.762498
31
0
39
0
210
0
220
0
230
1
0
LINE
5
E2
100
AcDbEntity
8
SK2
62
256
6
ByLayer
370
-1
48
1
60
0
100
AcDbLine
10
-113.682003
20
6.762502
30
0
11
-114.517997
21
6.762498
31
0
39
0
210
0
220
0
230
1
0
ENDBLK
5
E4
100
AcDbEntity
8
0
100
AcDbBlockEnd
0
BLOCK
5
F1
100
AcDbEntity
8
0
100
AcDbBlockBegin
2
DimnDraft3D3
70
0
10
0
20
0
30
0
3
DimnDraft3D3
0
MTEXT
5
E7
100
AcDbEntity
8
2
62
256
6
ByLayer
370
-1
48
1
60
0
100
AcDbMText
10
48.125
20
11.7335
30
0
210
0
220
0
230
1
1
\W01.000;\fsimplex.shx,bigfont.shx;10.23 
40
4.5
41
0
44
1.084337
50
90
71
7
72
5
7
DEFAULT
0
LINE
5
E8
100
AcDbEntity
8
2
62
256
6
ByLayer
370
-1
48
1
60
0
100
AcDbLine
10
2
20
-9.9375
30
0
11
51.25
21
-9.9375
31
0
39
0
210
0
220
0
230
1
0
LINE
5
E9
100
AcDbEntity
8
2
62
256
6
ByLayer
370
-1
48
1
60
0
100
AcDbLine
10
24
20
0.3535
30
0
11
51.25
21
0.3535
31
0
39
0
210
0
220
0
230
1
0
LINE
5
EA
100
AcDbEntity
8
2
62
256
6
ByLayer
370
-1
48
1
60
0
100
AcDbLine
10
49.25
20
-9.9375
30
0
11
49.25
21
23.113763
31
0
39
0
210
0
220
0
230
1
0
LINE
5
EB
100
AcDbEntity
8
2
62
256
6
ByLayer
370
-1
48
1
60
0
100
AcDbLine
10
49.25
20
-9.9375
30
0
11
48.832003
21
-6.762502
31
0
39
0
210
0
220
0
230
1
0
LINE
5
EC
100
AcDbEntity
8
2
62
256
6
ByLayer
370
-1
48
1
60
0
100
AcDbLine
10
49.25
20
-9.9375
30
0
11
49.667997
21
-6.762498
31
0
39
0
210
0
220
0
230
1
0
LINE
5
ED
100
AcDbEntity
8
2
62
256
6
ByLayer
370
-1
48
1
60
0
100
AcDbLine
10
48.832003
20
-6.762502
30
0
11
49.667997
21
-6.762498
31
0
39
0
210
0
220
0
230
1
0
LINE
5
EE
100
AcDbEntity
8
2
62
256
6
ByLayer
370
-1
48
1
60
0
100
AcDbLine
10
49.25
20
0.3535
30
0
11
49.667997
21
-2.821498
31
0
39
0
210
0
220
0
230
1
0
LINE
5
EF
100
AcDbEntity
8
2
62
256
6
ByLayer
370
-1
48
1
60
0
100
AcDbLine
10
49.25
20
0.3535
30
0
11
48.832003
21
-2.821502
31
0
39
0
210
0
220
0
230
1
0
LINE
5
F0
100
AcDbEntity
8
2
62
256
6
ByLayer
370
-1
48
1
60
0
100
AcDbLine
10
49.667997
20
-2.821498
30
0
11
48.832003
21
-2.821502
31
0
39
0
210
0
220
0
230
1
0
ENDBLK
5
F2
100
AcDbEntity
8
0
100
AcDbBlockEnd
0
BLOCK
5
FF
100
AcDbEntity
8
0
100
AcDbBlockBegin
2
DimnDraft3D4
70
0
10
0
20
0
30
0
3
DimnDraft3D4
0
MTEXT
5
F5
100
AcDbEntity
8
SK2
62
256
6
ByLayer
370
-1
48
1
60
0
100
AcDbMText
10
-43.768421
20
21.334374
30
0
210
0
220
0
230
1
1
\W01.000;\fsimplex.shx,bigfont.shx;125 
40
4.5
41
0
44
1.084337
50
0
71
7
72
5
7
DEFAULT
0
LINE
5
F6
100
AcDbEntity
8
SK2
62
256
6
ByLayer
370
-1
48
1
60
0
100
AcDbLine
10
22
20
2.459374
30
0
11
22
21
22.209374
31
0
39
0
210
0
220
0
230
1
0
LINE
5
F7
100
AcDbEntity
8
SK2
62
256
6
ByLayer
370
-1
48
1
60
0
100
AcDbLine
10
-104.35
20
11.9375
30
0
11
-104.35
21
22.209374
31
0
39
0
210
0
220
0
230
1
0
LINE
5
F8
100
AcDbEntity
8
SK2
62
256
6
ByLayer
370
-1
48
1
60
0
100
AcDbLine
10
22
20
20.209374
30
0
11
-104.35
21
20.209374
31
0
39
0
210
0
220
0
230
1
0
LINE
5
F9
100
AcDbEntity
8
SK2
62
256
6
ByLayer
370
-1
48
1
60
0
100
AcDbLine
10
22
20
20.209374
30
0
11
18.825002
21
19.791378
31
0
39
0
210
0
220
0
230
1
0
LINE
5
FA
100
AcDbEntity
8
SK2
62
256
6
ByLayer
370
-1
48
1
60
0
100
AcDbLine
10
22
20
20.209374
30
0
11
18.824998
21
20.627371
31
0
39
0
210
0
220
0
230
1
0
LINE
5
FB
100
AcDbEntity
8
SK2
62
256
6
ByLayer
370
-1
48
1
60
0
100
AcDbLine
10
18.825002
20
19.791378
30
0
11
18.824998
21
20.627371
31
0
39
0
210
0
220
0
230
1
0
LINE
5
FC
100
AcDbEntity
8
SK2
62
256
6
ByLayer
370
-1
48
1
60
0
100
AcDbLine
10
-104.35
20
20.209374
30
0
11
-101.175002
21
20.627371
31
0
39
0
210
0
220
0
230
1
0
LINE
5
FD
100
AcDbEntity
8
SK2
62
256
6
ByLayer
370
-1
48
1
60
0
100
AcDbLine
10
-104.35
20
20.209374
30
0
11
-101.174998
21
19.791378
31
0
39
0
210
0
220
0
230
1
0
LINE
5
FE
100
AcDbEntity
8
SK2
62
256
6
ByLayer
370
-1
48
1
60
0
100
AcDbLine
10
-101.175002
20
20.627371
30
0
11
-101.174998
21
19.791378
31
0
39
0
210
0
220
0
230
1
0
ENDBLK
5
100
100
AcDbEntity
8
0
100
AcDbBlockEnd
0
ENDSEC
0
SECTION
2
ENTITIES
0
ARC
5
6D
100
AcDbEntity
8
1
62
256
6
ByLayer
370
-1
48
1
60
0
100
AcDbCircle
39
0
10
-16.386876
20
-9.977207
30
0
40
8.1
210
0
220
0
230
-1
100
AcDbArc
50
54.997476
51
56.804613
0
ARC
5
6E
100
AcDbEntity
8
1
62
256
6
ByLayer
370
-1
48
1
60
0
100
AcDbCircle
39
0
10
3.081201
20
-0.819452
30
0
40
1.50000000000001
210
0
220
0
230
1
100
AcDbArc
50
320.349766
51
357.890228
0
ARC
5
6F
100
AcDbEntity
8
1
62
256
6
ByLayer
370
-1
48
1
60
0
100
AcDbCircle
39
0
10
-16.386876
20
9.977207
30
0
40
8.10000000000002
210
0
220
0
230
-1
100
AcDbArc
50
303.195387
51
305.002524
0
ARC
5
70
100
AcDbEntity
8
1
62
256
6
ByLayer
370
-1
48
1
60
0
100
AcDbCircle
39
0
10
-3.081201
20
-0.819452
30
0
40
1.50000000000001
210
0
220
0
230
-1
100
AcDbArc
50
229.928876
51
111.542428
0
ARC
5
71
100
AcDbEntity
8
1
62
256
6
ByLayer
370
-1
48
1
60
0
100
AcDbCircle
39
0
10
-21.603125
20
0
30
0
40
0.396875000000002
210
0
220
0
230
-1
100
AcDbArc
50
107.5
51
252.5
0
ARC
5
72
100
AcDbEntity
8
1
62
256
6
ByLayer
370
-1
48
1
60
0
100
AcDbCircle
39
0
10
12.364444
20
0
30
0
40
0.747999999999999
210
0
220
0
230
1
100
AcDbArc
50
330.024579
51
29.975421
0
ARC
5
74
100
AcDbEntity
8
1
62
256
6
ByLayer
370
-1
48
1
60
0
100
AcDbCircle
39
0
10
12.364444
20
0
30
0
40
0.747999999999999
210
0
220
0
230
1
100
AcDbArc
50
29.975421
51
87.838153
0
ARC
5
77
100
AcDbEntity
8
1
62
256
6
ByLayer
370
-1
48
1
60
0
100
AcDbCircle
39
0
10
-12.364444
20
0
30
0
40
1.03499999999999
210
0
220
0
230
-1
100
AcDbArc
50
120.049159
51
180
0
ARC
5
78
100
AcDbEntity
8
1
62
256
6
ByLayer
370
-1
48
1
60
0
100
AcDbCircle
39
0
10
-12.364444
20
0
30
0
40
0.747999999999999
210
0
220
0
230
-1
100
AcDbArc
50
29.975421
51
87.838153
0
ARC
5
79
100
AcDbEntity
8
1
62
256
6
ByLayer
370
-1
48
1
60
0
100
AcDbCircle
39
0
10
12.364444
20
0
30
0
40
0.747999999999999
210
0
220
0
230
1
100
AcDbArc
50
209.975421
51
267.838153
0
ARC
5
7B
100
AcDbEntity
8
1
62
256
6
ByLayer
370
-1
48
1
60
0
100
AcDbCircle
39
0
10
-12.364444
20
0
30
0
40
1.03499999999999
210
0
220
0
230
-1
100
AcDbArc
50
0
51
59.950841
0
ARC
5
7D
100
AcDbEntity
8
1
62
256
6
ByLayer
370
-1
48
1
60
0
100
AcDbCircle
39
0
10
-12.364444
20
0
30
0
40
1.03499999999999
210
0
220
0
230
-1
100
AcDbArc
50
239.950841
51
300.049159
0
ARC
5
7E
100
AcDbEntity
8
1
62
256
6
ByLayer
370
-1
48
1
60
0
100
AcDbCircle
39
0
10
12.364444
20
0
30
0
40
0.747999999999999
210
0
220
0
230
1
100
AcDbArc
50
272.161847
51
330.024579
0
ARC
5
7F
100
AcDbEntity
8
1
62
256
6
ByLayer
370
-1
48
1
60
0
100
AcDbCircle
39
0
10
12.364444
20
0
30
0
40
0.747999999999999
210
0
220
0
230
1
100
AcDbArc
50
150.024579
51
209.975421
0
ARC
5
80
100
AcDbEntity
8
1
62
256
6
ByLayer
370
-1
48
1
60
0
100
AcDbCircle
39
0
10
-12.364444
20
0
30
0
40
1.03499999999999
210
0
220
0
230
-1
100
AcDbArc
50
300.049159
51
0
0
ARC
5
81
100
AcDbEntity
8
1
62
256
6
ByLayer
370
-1
48
1
60
0
100
AcDbCircle
39
0
10
-12.364444
20
0
30
0
40
1.03499999999999
210
0
220
0
230
-1
100
AcDbArc
50
59.950841
51
120.049159
0
ARC
5
82
100
AcDbEntity
8
1
62
256
6
ByLayer
370
-1
48
1
60
0
100
AcDbCircle
39
0
10
-12.364444
20
0
30
0
40
1.03499999999999
210
0
220
0
230
-1
100
AcDbArc
50
180
51
239.950841
0
ARC
5
83
100
AcDbEntity
8
1
62
256
6
ByLayer
370
-1
48
1
60
0
100
AcDbCircle
39
0
10
-3.125763
20
0
30
0
40
0.396875000000002
210
0
220
0
230
-1
100
AcDbArc
50
287.5
51
72.5
0
ARC
5
84
100
AcDbEntity
8
1
62
256
6
ByLayer
370
-1
48
1
60
0
100
AcDbCircle
39
0
10
-12.364444
20
0
30
0
40
0.747999999999999
210
0
220
0
230
-1
100
AcDbArc
50
87.838153
51
92.161847
0
ARC
5
85
100
AcDbEntity
8
1
62
256
6
ByLayer
370
-1
48
1
60
0
100
AcDbCircle
39
0
10
-12.364444
20
0
30
0
40
0.747999999999999
210
0
220
0
230
-1
100
AcDbArc
50
267.838153
51
272.161847
0
ARC
5
86
100
AcDbEntity
8
1
62
256
6
ByLayer
370
-1
48
1
60
0
100
AcDbCircle
39
0
10
-12.364444
20
-2.912945
30
0
40
0.396874999999991
210
0
220
0
230
-1
100
AcDbArc
50
252.5
51
287.5
0
ARC
5
87
100
AcDbEntity
8
1
62
256
6
ByLayer
370
-1
48
1
60
0
100
AcDbCircle
39
0
10
-12.364444
20
2.912945
30
0
40
0.396874999999991
210
0
220
0
230
-1
100
AcDbArc
50
72.5
51
107.5
0
CIRCLE
5
73
100
AcDbEntity
8
1
62
256
6
ByLayer
370
-1
48
1
60
0
100
AcDbCircle
10
12.364444
20
0
30
0
40
1.80141464041842
39
0
210
0
220
0
230
1
0
CIRCLE
5
75
100
AcDbEntity
8
1
62
256
6
ByLayer
370
-1
48
1
60
0
100
AcDbCircle
10
-12.364444
20
0
30
0
40
1.88122167929297
39
0
210
0
220
0
230
-1
0
CIRCLE
5
76
100
AcDbEntity
8
1
62
256
6
ByLayer
370
-1
48
1
60
0
100
AcDbCircle
10
-12.364444
20
0
30
0
40
1.3
39
0
210
0
220
0
230
-1
0
CIRCLE
5
7A
100
AcDbEntity
8
1
62
256
6
ByLayer
370
-1
48
1
60
0
100
AcDbCircle
10
12.364444
20
0
30
0
40
1.90468944117779
39
0
210
0
220
0
230
1
0
CIRCLE
5
7C
100
AcDbEntity
8
1
62
256
6
ByLayer
370
-1
48
1
60
0
100
AcDbCircle
10
-12.364444
20
0
30
0
40
1.72499999999999
39
0
210
0
220
0
230
-1
0
ELLIPSE
5
88
100
AcDbEntity
8
1
62
256
6
ByLayer
370
-1
48
1
60
0
100
AcDbEllipse
10
3.081201
20
-0.819452
30
0
11
-1.06066017140755
21
-1.06066017140755
31
0
210
0
220
0
230
1
40
1
41
1.484771215149
42
1.66415720300012
0
POINT
5
41
100
AcDbEntity
8
81
62
256
6
ByLayer
370
-1
48
1
60
0
100
AcDbPoint
10
22
20
0.291001
30
0
39
0
210
0
220
0
230
1
50
360
0
POINT
5
43
100
AcDbEntity
8
2
62
256
6
ByLayer
370
-1
48
1
60
0
100
AcDbPoint
10
22
20
0.291001
30
0
39
0
210
0
220
0
230
1
50
360
0
POINT
5
45
100
AcDbEntity
8
SK2
62
256
6
ByLayer
370
-1
48
1
60
0
100
AcDbPoint
10
22
20
0.291001
30
0
39
0
210
0
220
0
230
1
50
360
0
POINT
5
47
100
AcDbEntity
8
80
62
256
6
ByLayer
370
-1
48
1
60
0
100
AcDbPoint
10
0
20
0
30
0
39
0
210
0
220
0
230
1
50
360
0
POINT
5
49
100
AcDbEntity
8
SK2
62
256
6
ByLayer
370
-1
48
1
60
0
100
AcDbPoint
10
22
20
0.291001
30
0
39
0
210
0
220
0
230
1
50
360
0
POINT
5
4A
100
AcDbEntity
8
SK2
62
256
6
ByLayer
370
-1
48
1
60
0
100
AcDbPoint
10
22
20
0.291001
30
0
39
0
210
0
220
0
230
1
50
360
0
POINT
5
4B
100
AcDbEntity
8
SK2
62
256
6
ByLayer
370
-1
48
1
60
0
100
AcDbPoint
10
22
20
0.291001
30
0
39
0
210
0
220
0
230
1
50
360
0
SPLINE
5
89
100
AcDbEntity
8
1
62
256
6
ByLayer
370
-1
48
1
60
0
100
AcDbSpline
70
4
71
3
72
14
73
10
40
0
40
0
40
0
40
0
40
0.283738489034195
40
0.283738489034195
40
0.570489531030749
40
0.570489531030749
40
0.830294403552143
40
0.830294403552143
40
1
40
1
40
1
40
1
41
1
10
12.6603523554025
20
-0.867654231542247
30
0
41
1
10
12.6754367201794
20
-0.882489896397288
30
0
41
1
10
12.6936070643012
20
-0.895141439869946
30
0
41
1
10
12.7338633779191
20
-0.913401319862288
30
0
41
1
10
12.7566277595629
20
-0.919179803702605
30
0
41
1
10
12.800783189608
20
-0.921640421787117
30
0
41
1
10
12.8227697571554
20
-0.919125976556586
30
0
41
1
10
12.8570684715631
20
-0.908783110261567
30
0
41
1
10
12.870360570183
20
-0.903037603293626
30
0
41
1
10
12.8827127029803
20
-0.895891958586532
30
0
0
SPLINE
5
8A
100
AcDbEntity
8
1
62
256
6
ByLayer
370
-1
48
1
60
0
100
AcDbSpline
70
4
71
3
72
18
73
14
40
0
40
0
40
0
40
0
40
0.213393079737788
40
0.213393079737788
40
0.389003177496046
40
0.389003177496046
40
0.566251555260811
40
0.566251555260811
40
0.721174645896059
40
0.721174645896059
40
0.927415342089943
40
0.927415342089943
40
1
40
1
40
1
40
1
41
1
10
11.4646125392213
20
0.178162397672054
30
0
41
1
10
11.5063689433706
20
0.189841498302627
30
0
41
1
10
11.5477225959745
20
0.208455494234272
30
0
41
1
10
11.6171038850773
20
0.254921685220779
30
0
41
1
10
11.6469225240542
20
0.281161518782738
30
0
41
1
10
11.6984242138937
20
0.341805115727397
30
0
41
1
10
11.7206999023254
20
0.377245650844316
30
0
41
1
10
11.7512407794752
20
0.446376278930245
30
0
41
1
10
11.7613316580293
20
0.480526023095877
30
0
41
1
10
11.7745593218854
20
0.5586187441493
30
0
41
1
10
11.7746648925018
20
0.603391334972002
30
0
41
1
10
11.7663350034366
20
0.66047998956418
30
0
41
1
10
11.7633571936292
20
0.675235558873709
30
0
41
1
10
11.7596430835403
20
0.689676927107911
30
0
0
SPLINE
5
8B
100
AcDbEntity
8
1
62
256
6
ByLayer
370
-1
48
1
60
0
100
AcDbSpline
70
4
71
3
72
14
73
10
40
0
40
0
40
0
40
0
40
0.284519249123167
40
0.284519249123167
40
0.571733062184372
40
0.571733062184372
40
0.831996244286481
40
0.831996244286481
40
1
40
1
40
1
40
1
41
1
10
13.2642751712594
20
-0.178162397669581
30
0
41
1
10
13.2846549556882
20
-0.172462252793053
30
0
41
1
10
13.3046783714612
20
-0.162995893802929
30
0
41
1
10
13.3405411497289
20
-0.137171676788086
30
0
41
1
10
13.3568702256405
20
-0.120318470078132
30
0
41
1
10
13.3809698225278
20
-0.0832818239081519
30
0
41
1
10
13.3897313610151
20
-0.0629811786949688
30
0
41
1
10
13.3978047405953
20
-0.0282836467902143
30
0
41
1
10
13.3994438552403
20
-0.0140876391108407
30
0
41
1
10
13.3994438552403
20
1.2506E-12
30
0
0
SPLINE
5
8C
100
AcDbEntity
8
1
62
256
6
ByLayer
370
-1
48
1
60
0
100
AcDbSpline
70
4
71
3
72
18
73
14
40
0
40
0
40
0
40
0
40
0.213394464779713
40
0.213394464779713
40
0.389004322610668
40
0.389004322610668
40
0.566252444177978
40
0.566252444177978
40
0.721175490823071
40
0.721175490823071
40
0.927416435499219
40
0.927416435499219
40
1
40
1
40
1
40
1
41
1
10
11.7596430835403
20
-0.689676927105438
30
0
41
1
10
11.7704429906322
20
-0.647684247439088
30
0
41
1
10
11.7750383234472
20
-0.602567541879637
30
0
41
1
10
11.7695593569185
20
-0.519243486166147
30
0
41
1
10
11.7617776576305
20
-0.480293232800648
30
0
41
1
10
11.7350737901977
20
-0.405346859405512
30
0
41
1
10
11.7155509573715
20
-0.368318603066797
30
0
41
1
10
11.6710048363233
20
-0.307265998587411
30
0
41
1
10
11.6464978635702
20
-0.281431183114108
30
0
41
1
10
11.585524681568
20
-0.230877065106341
30
0
41
1
10
11.546822497689
20
-0.20836616701942
30
0
41
1
10
11.4932357939806
20
-0.186989910067581
30
0
41
1
10
11.4789725282316
20
-0.182178829642623
30
0
41
1
10
11.4646125392213
20
-0.178162397669581
30
0
0
SPLINE
5
8D
100
AcDbEntity
8
1
62
256
6
ByLayer
370
-1
48
1
60
0
100
AcDbSpline
70
4
71
3
72
16
73
12
40
0
40
0
40
0
40
0
40
0.0668638488454683
40
0.0668638488454683
40
0.290854271538578
40
0.290854271538578
40
0.517824973971287
40
0.517824973971287
40
0.759328674281275
40
0.759328674281275
40
1
40
1
40
1
40
1
41
1
10
11.8461750075003
20
-0.895891958586532
30
0
41
1
10
11.8510579563156
20
-0.898716719130249
30
0
41
1
10
11.8560767158104
20
-0.901321060150195
30
0
41
1
10
11.8782224070418
20
-0.911557212772863
30
0
41
1
10
11.8966506946006
20
-0.916832360687607
30
0
41
1
10
11.933533580166
20
-0.921627124935696
30
0
41
1
10
11.9524529218824
20
-0.921145119253737
30
0
41
1
10
11.9893957218479
20
-0.914753560881081
30
0
41
1
10
12.0077505339319
20
-0.908438244709572
30
0
41
1
10
12.0407306992463
20
-0.891264246020199
30
0
41
1
10
12.0557242041883
20
-0.880254161590443
30
0
41
1
10
12.0685353550782
20
-0.867654231542247
30
0
0
SPLINE
5
8E
100
AcDbEntity
8
1
62
256
6
ByLayer
370
-1
48
1
60
0
100
AcDbSpline
70
4
71
3
72
16
73
12
40
0
40
0
40
0
40
0
40
0.0670553612811392
40
0.0670553612811392
40
0.291697905104236
40
0.291697905104236
40
0.519329228663714
40
0.519329228663714
40
0.761535715028621
40
0.761535715028621
40
1
40
1
40
1
40
1
41
1
10
13.3994438552403
20
1.2506E-12
30
0
41
1
10
13.3994438552403
20
0.0056408776757735
30
0
41
1
10
13.3991850788824
20
0.0112889380458228
30
0
41
1
10
13.3969562829375
20
0.0355835965038409
30
0
41
1
10
13.3922946735691
20
0.054176571291265
30
0
41
1
10
13.3779763010347
20
0.0885032612875989
30
0
41
1
10
13.3680854220553
20
0.104638448239655
30
0
41
1
10
13.3440541996026
20
0.133415554422129
30
0
41
1
10
13.3293967083388
20
0.146141113963239
30
0
41
1
10
13.2982013292741
20
0.165971481824329
30
0
41
1
10
13.2813816211555
20
0.173377791481983
30
0
41
1
10
13.2642751712594
20
0.178162397672054
30
0
0
SPLINE
5
8F
100
AcDbEntity
8
1
62
256
6
ByLayer
370
-1
48
1
60
0
100
AcDbSpline
70
4
71
3
72
12
73
8
40
0
40
0
40
0
40
0
40
0.377026254658284
40
0.377026254658284
40
0.761056299191789
40
0.761056299191789
40
1
40
1
40
1
40
1
41
1
10
12.3362275001774
20
-0.747467616225009
30
0
41
1
10
12.2967998955087
20
-0.75010979277593
30
0
41
1
10
12.2575866576704
20
-0.758510282425647
30
0
41
1
10
12.1852126883495
20
-0.784502060765419
30
0
41
1
10
12.1511678176726
20
-0.802520562251885
30
0
41
1
10
12.1021616963877
20
-0.837123342907887
30
0
41
1
10
12.0846057949111
20
-0.851848749312154
30
0
41
1
10
12.0685353550782
20
-0.867654231542247
30
0
0
SPLINE
5
90
100
AcDbEntity
8
1
62
256
6
ByLayer
370
-1
48
1
60
0
100
AcDbSpline
70
4
71
3
72
12
73
8
40
0
40
0
40
0
40
0
40
0.464379035262356
40
0.464379035262356
40
0.846391164399492
40
0.846391164399492
40
1
40
1
40
1
40
1
41
1
10
12.6603523554025
20
-0.867654231542247
30
0
41
1
10
12.6294046373878
20
-0.837216756760625
30
0
41
1
10
12.592634825525
20
-0.810593337662482
30
0
41
1
10
12.5177237338416
20
-0.773537772713041
30
0
41
1
10
12.4800928326787
20
-0.760741971115266
30
0
41
1
10
12.4251713753873
20
-0.750603501396284
30
0
41
1
10
12.4089511363308
20
-0.748559326033501
30
0
41
1
10
12.3926602103033
20
-0.747467616225009
30
0
0
SPLINE
5
91
100
AcDbEntity
8
1
62
256
6
ByLayer
370
-1
48
1
60
0
100
AcDbSpline
70
4
71
3
72
14
73
10
40
0
40
0
40
0
40
0
40
0.28373848903411
40
0.28373848903411
40
0.57048953103065
40
0.57048953103065
40
0.830294403552061
40
0.830294403552061
40
1
40
1
40
1
40
1
41
1
10
12.0685353550782
20
0.867654231544719
30
0
41
1
10
12.0534509903013
20
0.882489896399761
30
0
41
1
10
12.0352806461795
20
0.895141439872418
30
0
41
1
10
11.9950243325616
20
0.913401319864761
30
0
41
1
10
11.9722599509178
20
0.919179803705077
30
0
41
1
10
11.9281045208727
20
0.92164042178959
30
0
41
1
10
11.9061179533253
20
0.919125976559087
30
0
41
1
10
11.8718192389175
20
0.908783110264068
30
0
41
1
10
11.8585271402977
20
0.903037603296099
30
0
41
1
10
11.8461750075003
20
0.895891958589004
30
0
0
SPLINE
5
92
100
AcDbEntity
8
1
62
256
6
ByLayer
370
-1
48
1
60
0
100
AcDbSpline
70
4
71
3
72
16
73
12
40
0
40
0
40
0
40
0
40
0.0668638488454081
40
0.0668638488454081
40
0.290854271538581
40
0.290854271538581
40
0.517824973971291
40
0.517824973971291
40
0.759328674281211
40
0.759328674281211
40
1
40
1
40
1
40
1
41
1
10
12.8827127029803
20
0.895891958589033
30
0
41
1
10
12.8778297541651
20
0.898716719132722
30
0
41
1
10
12.8728109946704
20
0.901321060152696
30
0
41
1
10
12.8506653034389
20
0.911557212775364
30
0
41
1
10
12.8322370158801
20
0.91683236069008
30
0
41
1
10
12.7953541303146
20
0.921627124938169
30
0
41
1
10
12.7764347885982
20
0.921145119256238
30
0
41
1
10
12.7394919886328
20
0.914753560883582
30
0
41
1
10
12.7211371765488
20
0.908438244712045
30
0
41
1
10
12.6881570112344
20
0.8912642460227
30
0
41
1
10
12.6731635062924
20
0.880254161592916
30
0
41
1
10
12.6603523554025
20
0.867654231544719
30
0
0
SPLINE
5
93
100
AcDbEntity
8
1
62
256
6
ByLayer
370
-1
48
1
60
0
100
AcDbSpline
70
4
71
3
72
12
73
8
40
0
40
0
40
0
40
0
40
0.46437903526208
40
0.46437903526208
40
0.846391164398941
40
0.846391164398941
40
1
40
1
40
1
40
1
41
1
10
12.0685353550782
20
0.867654231544719
30
0
41
1
10
12.0994830730929
20
0.837216756763098
30
0
41
1
10
12.1362528849557
20
0.810593337664983
30
0
41
1
10
12.211163976639
20
0.773537772715514
30
0
41
1
10
12.248794877802
20
0.760741971117739
30
0
41
1
10
12.3037163350934
20
0.750603501398757
30
0
41
1
10
12.3199365741498
20
0.748559326036002
30
0
41
1
10
12.3362275001773
20
0.747467616227482
30
0
0
SPLINE
5
94
100
AcDbEntity
8
1
62
256
6
ByLayer
370
-1
48
1
60
0
100
AcDbSpline
70
4
71
3
72
14
73
10
40
0
40
0
40
0
40
0
40
0.284523597312309
40
0.284523597312309
40
0.571736866218046
40
0.571736866218046
40
0.831999616286223
40
0.831999616286223
40
1
40
1
40
1
40
1
41
1
10
11.7596430835403
20
-0.689676927105438
30
0
41
1
10
11.7543719950772
20
-0.710172207985181
30
0
41
1
10
11.75253948228
20
-0.732244976962534
30
0
41
1
10
11.7569350687393
20
-0.776219246633218
30
0
41
1
10
11.7633465821596
20
-0.798792689914194
30
0
41
1
10
11.7833378303409
20
-0.838198891235294
30
0
41
1
10
11.7965227804457
20
-0.855948159694293
30
0
41
1
10
11.8225140278824
20
-0.880310656498523
30
0
41
1
10
11.8339810458913
20
-0.888837815090852
30
0
41
1
10
11.8461750075003
20
-0.895891958586532
30
0
0
SPLINE
5
95
100
AcDbEntity
8
1
62
256
6
ByLayer
370
-1
48
1
60
0
100
AcDbSpline
70
4
71
3
72
14
73
10
40
0
40
0
40
0
40
0
40
0.284519249123292
40
0.284519249123292
40
0.571733062184588
40
0.571733062184588
40
0.831996244286612
40
0.831996244286612
40
1
40
1
40
1
40
1
41
1
10
11.4646125392213
20
0.178162397672054
30
0
41
1
10
11.4442327547925
20
0.172462252795526
30
0
41
1
10
11.4242093390195
20
0.162995893805402
30
0
41
1
10
11.3883465607518
20
0.137171676790558
30
0
41
1
10
11.3720174848402
20
0.120318470080576
30
0
41
1
10
11.3479178879529
20
0.0832818239105961
30
0
41
1
10
11.3391563494656
20
0.062981178697413
30
0
41
1
10
11.3310829698854
20
0.028283646792687
30
0
41
1
10
11.3294438552404
20
0.0140876391133133
30
0
41
1
10
11.3294438552404
20
1.2221E-12
30
0
0
SPLINE
5
96
100
AcDbEntity
8
1
62
256
6
ByLayer
370
-1
48
1
60
0
100
AcDbSpline
70
4
71
3
72
16
73
12
40
0
40
0
40
0
40
0
40
0.0650212293342746
40
0.0650212293342746
40
0.289691523269457
40
0.289691523269457
40
0.51723642232606
40
0.51723642232606
40
0.759263521180901
40
0.759263521180901
40
1
40
1
40
1
40
1
41
1
10
12.8827127029803
20
-0.895891958586532
30
0
41
1
10
12.8874483147235
20
-0.893152431774212
30
0
41
1
10
12.8920677325285
20
-0.890198958373958
30
0
41
1
10
12.9118841383871
20
-0.876254773526227
30
0
41
1
10
12.9256845802018
20
-0.862943042221701
30
0
41
1
10
12.9483090567137
20
-0.833417611227929
30
0
41
1
10
12.9573671112259
20
-0.816802028166904
30
0
41
1
10
12.9703349707241
20
-0.781633638624811
30
0
41
1
10
12.9740617863155
20
-0.762591164869548
30
0
41
1
10
12.9757175573046
20
-0.725492105116842
30
0
41
1
10
12.9737104360858
20
-0.707041085083603
30
0
41
1
10
12.9692446269404
20
-0.689676927105438
30
0
0
SPLINE
5
97
100
AcDbEntity
8
1
62
256
6
ByLayer
370
-1
48
1
60
0
100
AcDbSpline
70
4
71
3
72
12
73
8
40
0
40
0
40
0
40
0
40
0.377026254864999
40
0.377026254864999
40
0.761056299432047
40
0.761056299432047
40
1
40
1
40
1
40
1
41
1
10
12.3926602103034
20
0.747467616227482
30
0
41
1
10
12.4320878149937
20
0.750109792779853
30
0
41
1
10
12.4713010528534
20
0.758510282437499
30
0
41
1
10
12.5436750221909
20
0.784502060795546
30
0
41
1
10
12.5777198928668
20
0.802520562288294
30
0
41
1
10
12.6267260141283
20
0.83712334293989
30
0
41
1
10
12.6442819155857
20
0.851848749330429
30
0
41
1
10
12.6603523554025
20
0.867654231544719
30
0
0
SPLINE
5
98
100
AcDbEntity
8
1
62
256
6
ByLayer
370
-1
48
1
60
0
100
AcDbSpline
70
4
71
3
72
14
73
10
40
0
40
0
40
0
40
0
40
0.284523597312239
40
0.284523597312239
40
0.57173686621799
40
0.57173686621799
40
0.831999616286191
40
0.831999616286191
40
1
40
1
40
1
40
1
41
1
10
12.9692446269404
20
0.689676927107939
30
0
41
1
10
12.9745157154035
20
0.710172207987682
30
0
41
1
10
12.9763482282007
20
0.732244976965006
30
0
41
1
10
12.9719526417414
20
0.776219246635691
30
0
41
1
10
12.9655411283211
20
0.798792689916695
30
0
41
1
10
12.9455498801398
20
0.838198891237795
30
0
41
1
10
12.932364930035
20
0.855948159696766
30
0
41
1
10
12.9063736825983
20
0.880310656500995
30
0
41
1
10
12.8949066645894
20
0.888837815093325
30
0
41
1
10
12.8827127029803
20
0.895891958589033
30
0
0
SPLINE
5
99
100
AcDbEntity
8
1
62
256
6
ByLayer
370
-1
48
1
60
0
100
AcDbSpline
70
4
71
3
72
18
73
14
40
0
40
0
40
0
40
0
40
0.213393079737803
40
0.213393079737803
40
0.389003177496047
40
0.389003177496047
40
0.566251555260786
40
0.566251555260786
40
0.721174645896035
40
0.721174645896035
40
0.927415342089909
40
0.927415342089909
40
1
40
1
40
1
40
1
41
1
10
13.2642751712594
20
-0.178162397669581
30
0
41
1
10
13.2225187671101
20
-0.189841498300154
30
0
41
1
10
13.1811651145062
20
-0.208455494231799
30
0
41
1
10
13.1117838254034
20
-0.254921685218306
30
0
41
1
10
13.0819651864265
20
-0.281161518780266
30
0
41
1
10
13.030463496587
20
-0.341805115724895
30
0
41
1
10
13.0081878081553
20
-0.377245650841814
30
0
41
1
10
12.9776469310055
20
-0.446376278927744
30
0
41
1
10
12.9675560524514
20
-0.480526023093375
30
0
41
1
10
12.9543283885953
20
-0.558618744146798
30
0
41
1
10
12.9542228179789
20
-0.603391334969501
30
0
41
1
10
12.9625527070441
20
-0.660479989561708
30
0
41
1
10
12.9655305168515
20
-0.675235558871236
30
0
41
1
10
12.9692446269404
20
-0.689676927105438
30
0
0
SPLINE
5
9A
100
AcDbEntity
8
1
62
256
6
ByLayer
370
-1
48
1
60
0
100
AcDbSpline
70
4
71
3
72
16
73
12
40
0
40
0
40
0
40
0
40
0.0670553612812495
40
0.0670553612812495
40
0.291697905104342
40
0.291697905104342
40
0.519329228663876
40
0.519329228663876
40
0.761535715028761
40
0.761535715028761
40
1
40
1
40
1
40
1
41
1
10
11.3294438552404
20
1.2221E-12
30
0
41
1
10
11.3294438552404
20
-0.0056408776733008
30
0
41
1
10
11.3297026315983
20
-0.0112889380433785
30
0
41
1
10
11.3319314275433
20
-0.0355835965013682
30
0
41
1
10
11.3365930369117
20
-0.0541765712888207
30
0
41
1
10
11.350911409446
20
-0.0885032612851546
30
0
41
1
10
11.3608022884255
20
-0.10463844823721
30
0
41
1
10
11.3848335108781
20
-0.133415554419685
30
0
41
1
10
11.399491002142
20
-0.146141113960766
30
0
41
1
10
11.4306863812066
20
-0.165971481821856
30
0
41
1
10
11.4475060893253
20
-0.17337779147951
30
0
41
1
10
11.4646125392213
20
-0.178162397669581
30
0
0
SPLINE
5
9B
100
AcDbEntity
8
1
62
256
6
ByLayer
370
-1
48
1
60
0
100
AcDbSpline
70
4
71
3
72
16
73
12
40
0
40
0
40
0
40
0
40
0.0650212293341572
40
0.0650212293341572
40
0.289691523269317
40
0.289691523269317
40
0.51723642232593
40
0.51723642232593
40
0.759263521180757
40
0.759263521180757
40
1
40
1
40
1
40
1
41
1
10
11.8461750075003
20
0.895891958589004
30
0
41
1
10
11.8414393957571
20
0.893152431776713
30
0
41
1
10
11.8368199779522
20
0.890198958376459
30
0
41
1
10
11.8170035720936
20
0.876254773528728
30
0
41
1
10
11.8032031302789
20
0.862943042224202
30
0
41
1
10
11.780578653767
20
0.833417611230431
30
0
41
1
10
11.7715205992548
20
0.816802028169406
30
0
41
1
10
11.7585527397566
20
0.781633638627341
30
0
41
1
10
11.7548259241652
20
0.762591164872049
30
0
41
1
10
11.7531701531761
20
0.725492105119343
30
0
41
1
10
11.7551772743949
20
0.707041085086104
30
0
41
1
10
11.7596430835403
20
0.689676927107911
30
0
0
SPLINE
5
9C
100
AcDbEntity
8
1
62
256
6
ByLayer
370
-1
48
1
60
0
100
AcDbSpline
70
4
71
3
72
18
73
14
40
0
40
0
40
0
40
0
40
0.213394464779722
40
0.213394464779722
40
0.389004322610653
40
0.389004322610653
40
0.566252444177954
40
0.566252444177954
40
0.721175490823034
40
0.721175490823034
40
0.927416435499153
40
0.927416435499153
40
1
40
1
40
1
40
1
41
1
10
12.9692446269404
20
0.689676927107939
30
0
41
1
10
12.9584447198485
20
0.647684247441561
30
0
41
1
10
12.9538493870335
20
0.602567541882138
30
0
41
1
10
12.9593283535621
20
0.519243486168619
30
0
41
1
10
12.9671100528502
20
0.48029323280312
30
0
41
1
10
12.993813920283
20
0.405346859407984
30
0
41
1
10
13.0133367531092
20
0.36831860306927
30
0
41
1
10
13.0578828741575
20
0.307265998589884
30
0
41
1
10
13.0823898469105
20
0.281431183116581
30
0
41
1
10
13.1433630289127
20
0.230877065108842
30
0
41
1
10
13.1820652127916
20
0.208366167021893
30
0
41
1
10
13.2356519165001
20
0.186989910070054
30
0
41
1
10
13.2499151822491
20
0.182178829645096
30
0
41
1
10
13.2642751712594
20
0.178162397672054
30
0
0
LINE
5
4C
100
AcDbEntity
8
81
62
256
6
ByLayer
370
-1
48
1
60
0
100
AcDbLine
10
22
20
0.291001
30
0
11
32
21
0.291001
31
0
39
0
210
0
220
0
230
1
0
LINE
5
4D
100
AcDbEntity
8
80
62
256
6
ByLayer
370
-1
48
1
60
0
100
AcDbLine
10
0
20
0
30
0
11
-5
21
0
31
0
39
0
210
0
220
0
230
1
0
LINE
5
4E
100
AcDbEntity
8
1
62
256
6
ByLayer
370
-1
48
1
60
0
100
AcDbLine
10
0
20
7.044082
30
0
11
0
21
-7.044082
31
0
39
0
210
0
220
0
230
1
0
LINE
5
50
100
AcDbEntity
8
1
62
256
6
ByLayer
370
-1
48
1
60
0
100
AcDbLine
10
10.93949
20
2.879794
30
0
11
10.93949
21
3.594874
31
0
39
0
210
0
220
0
230
1
0
LINE
5
51
100
AcDbEntity
8
1
62
256
6
ByLayer
370
-1
48
1
60
0
100
AcDbLine
10
11.740614
20
3.34228
30
0
11
11.064455
21
3.555472
31
0
39
0
210
0
220
0
230
1
0
LINE
5
52
100
AcDbEntity
8
1
62
256
6
ByLayer
370
-1
48
1
60
0
100
AcDbLine
10
11.064444
20
-3.555476
30
0
11
11.064444
21
-2.919201
31
0
39
0
210
0
220
0
230
1
0
LINE
5
53
100
AcDbEntity
8
1
62
256
6
ByLayer
370
-1
48
1
60
0
100
AcDbLine
10
10.93949
20
-3.594874
30
0
11
10.93949
21
-2.879805
31
0
39
0
210
0
220
0
230
1
0
LINE
5
54
100
AcDbEntity
8
1
62
256
6
ByLayer
370
-1
48
1
60
0
100
AcDbLine
10
10.93949
20
3.594874
30
0
11
0
21
7.044082
31
0
39
0
210
0
220
0
230
1
0
LINE
5
55
100
AcDbEntity
8
1
62
256
6
ByLayer
370
-1
48
1
60
0
100
AcDbLine
10
4.236122
20
-1.776612
30
0
11
5.83837
21
-1.271425
31
0
39
0
210
0
220
0
230
1
0
LINE
5
56
100
AcDbEntity
8
1
62
256
6
ByLayer
370
-1
48
1
60
0
100
AcDbLine
10
11.064444
20
3.555476
30
0
11
10.93949
21
3.594874
31
0
39
0
210
0
220
0
230
1
0
LINE
5
57
100
AcDbEntity
8
1
62
256
6
ByLayer
370
-1
48
1
60
0
100
AcDbLine
10
0
20
-7.044082
30
0
11
10.93949
21
-3.594874
31
0
39
0
210
0
220
0
230
1
0
LINE
5
58
100
AcDbEntity
8
1
62
256
6
ByLayer
370
-1
48
1
60
0
100
AcDbLine
10
6.038839
20
-1.339236
30
0
11
7.00151
21
-1.638153
31
0
39
0
210
0
220
0
230
1
0
LINE
5
59
100
AcDbEntity
8
1
62
256
6
ByLayer
370
-1
48
1
60
0
100
AcDbLine
10
11.064444
20
2.919197
30
0
11
11.064444
21
3.555476
31
0
39
0
210
0
220
0
230
1
0
LINE
5
5A
100
AcDbEntity
8
1
62
256
6
ByLayer
370
-1
48
1
60
0
100
AcDbLine
10
4.046808
20
-1.967321
30
0
11
6.038839
21
-1.339236
31
0
39
0
210
0
220
0
230
1
0
LINE
5
5B
100
AcDbEntity
8
1
62
256
6
ByLayer
370
-1
48
1
60
0
100
AcDbLine
10
10.93949
20
-3.594874
30
0
11
11.064444
21
-3.555476
31
0
39
0
210
0
220
0
230
1
0
LINE
5
5C
100
AcDbEntity
8
1
62
256
6
ByLayer
370
-1
48
1
60
0
100
AcDbLine
10
11.064455
20
-3.555472
30
0
11
11.740614
21
-3.34228
31
0
39
0
210
0
220
0
230
1
0
LINE
5
5D
100
AcDbEntity
8
1
62
256
6
ByLayer
370
-1
48
1
60
0
100
AcDbLine
10
6.038839
20
-1.339236
30
0
11
6.038828
21
-1.334621
31
0
39
0
210
0
220
0
230
1
0
LINE
5
5E
100
AcDbEntity
8
1
62
256
6
ByLayer
370
-1
48
1
60
0
100
AcDbLine
10
12.245101
20
-3.291451
30
0
11
3.00642
21
-0.378506
31
0
39
0
210
0
220
0
230
1
0
LINE
5
5F
100
AcDbEntity
8
1
62
256
6
ByLayer
370
-1
48
1
60
0
100
AcDbLine
10
3.00642
20
0.378506
30
0
11
12.245101
21
3.291451
31
0
39
0
210
0
220
0
230
1
0
LINE
5
60
100
AcDbEntity
8
1
62
256
6
ByLayer
370
-1
48
1
60
0
100
AcDbLine
10
21.722468
20
-0.378506
30
0
11
12.483786
21
-3.291451
31
0
39
0
210
0
220
0
230
1
0
LINE
5
61
100
AcDbEntity
8
1
62
256
6
ByLayer
370
-1
48
1
60
0
100
AcDbLine
10
12.483786
20
3.291451
30
0
11
21.722468
21
0.378506
31
0
39
0
210
0
220
0
230
1
0
LINE
5
62
100
AcDbEntity
8
SK1
62
256
6
ByLayer
370
-1
48
1
60
0
100
AcDbLine
10
-9.176751
20
9.9375
30
0
11
-104.35
21
9.9375
31
0
39
0
210
0
220
0
230
1
0
LINE
5
64
100
AcDbEntity
8
SK1
62
256
6
ByLayer
370
-1
48
1
60
0
100
AcDbLine
10
-104.35
20
9.9375
30
0
11
-104.35
21
-9.9375
31
0
39
0
210
0
220
0
230
1
0
LINE
5
65
100
AcDbEntity
8
SK1
62
256
6
ByLayer
370
-1
48
1
60
0
100
AcDbLine
10
-104.35
20
-9.9375
30
0
11
-9.176751
21
-9.9375
31
0
39
0
210
0
220
0
230
1
0
LINE
5
66
100
AcDbEntity
8
SK1
62
256
6
ByLayer
370
-1
48
1
60
0
100
AcDbLine
10
0
20
7.044082
30
0
11
-0.106
21
7.077503
31
0
39
0
210
0
220
0
230
1
0
LINE
5
67
100
AcDbEntity
8
SK1
62
256
6
ByLayer
370
-1
48
1
60
0
100
AcDbLine
10
-9.176751
20
-9.9375
30
0
11
-0.106
21
-7.077503
31
0
39
0
210
0
220
0
230
1
0
LINE
5
68
100
AcDbEntity
8
SK1
62
256
6
ByLayer
370
-1
48
1
60
0
100
AcDbLine
10
0
20
7.044082
30
0
11
0
21
-7.044082
31
0
39
0
210
0
220
0
230
1
0
LINE
5
69
100
AcDbEntity
8
SK1
62
256
6
ByLayer
370
-1
48
1
60
0
100
AcDbLine
10
-0.106
20
7.077503
30
0
11
-0.106
21
-7.077503
31
0
39
0
210
0
220
0
230
1
0
LINE
5
6A
100
AcDbEntity
8
SK1
62
256
6
ByLayer
370
-1
48
1
60
0
100
AcDbLine
10
-0.106
20
7.077503
30
0
11
-9.176751
21
9.9375
31
0
39
0
210
0
220
0
230
1
0
LINE
5
6B
100
AcDbEntity
8
SK1
62
256
6
ByLayer
370
-1
48
1
60
0
100
AcDbLine
10
-0.106
20
-7.077503
30
0
11
0
21
-7.044082
31
0
39
0
210
0
220
0
230
1
0
LINE
5
6C
100
AcDbEntity
8
2
62
256
6
ByLayer
370
-1
48
1
60
1
100
AcDbLine
10
22
20
0.3535
30
0
11
22.000954
21
0.353199
31
0
39
0
210
0
220
0
230
1
0
MTEXT
5
9D
100
AcDbEntity
8
SK6
62
256
6
ByLayer
370
-1
48
1
60
0
100
AcDbMText
10
-60.849061
20
-18.412993
30
0
210
0
220
0
230
1
1
\W00.748;\fsimplex.shx,bigfont.shx;SVVBN 2020K 11-B1 
40
3.5
41
0
44
1.084337
50
0
71
7
72
5
7
DEFAULT
0
DIMENSION
5
D0
100
AcDbEntity
8
2
62
256
6
ByLayer
370
-3
48
1
60
0
100
AcDbDimension
2
DimnDraft3D1
10
8.127623
20
4.727444
30
0
11
6.781098
21
7.541232
31
0
70
34
71
5
72
1
41
1
210
0
220
0
230
1
3
Standard
100
AcDb2LineAngularDimension
13
22
23
2.459374
33
0
14
22
24
14.899092
34
0
15
18.861317
25
1.343123
35
0
16
11.920777
26
14.099825
36
0
40
0
0
DIMENSION
5
E5
100
AcDbEntity
8
SK2
62
256
6
ByLayer
370
-3
48
1
60
0
100
AcDbDimension
2
DimnDraft3D2
10
-114.1
20
9.9375
30
0
11
-114.1
21
-2.628947
31
0
70
32
71
5
72
1
41
1
210
0
220
0
230
1
3
Standard
100
AcDbAlignedDimension
13
-106.35
23
-9.9375
33
0
14
-106.35
24
9.9375
34
0
50
90
100
AcDbRotatedDimension
1001
ACAD
1000
DSTYLE
1002
{
1070
    74
1070
     0
1070
   279
1070
     0
1070
   172
1070
     1
1070
   173
1070
     1
1070
   340
1005
9E
1070
    77
1070
     1
1070
    73
1070
     0
1070
   171
1070
     3
1070
   274
1070
     4
1070
   177
1070
     2
1070
   176
1070
     2
1070
   178
1070
     7
1070
    78
1070
     8
1070
    41
1041
3.175
1070
   147
1041
2.25
1070
    42
1041
2.0
1070
    44
1041
2.0
1070
   140
1041
4.5
1070
   343
1005
D1
1070
   344
1005
D1
1002
}
0
DIMENSION
5
F3
100
AcDbEntity
8
2
62
256
6
ByLayer
370
-3
48
1
60
0
100
AcDbDimension
2
DimnDraft3D3
10
49.25
20
0.3535
30
0
11
49.25
21
10.6085
31
0
70
32
71
5
72
1
41
1
210
0
220
0
230
1
3
Standard
100
AcDbAlignedDimension
13
2
23
-9.9375
33
0
14
24
24
0.3535
34
0
50
90
100
AcDbRotatedDimension
1001
ACAD
1000
DSTYLE
1002
{
1070
    74
1070
     0
1070
   279
1070
     0
1070
   172
1070
     1
1070
   173
1070
     1
1070
   340
1005
9E
1070
    77
1070
     1
1070
    73
1070
     0
1070
   171
1070
     3
1070
   274
1070
     4
1070
   177
1070
     2
1070
   176
1070
     2
1070
   178
1070
     7
1070
    78
1070
     8
1070
    41
1041
3.175
1070
   147
1041
2.25
1070
    42
1041
2.0
1070
    44
1041
2.0
1070
   140
1041
4.5
1070
   343
1005
D1
1070
   344
1005
D1
1002
}
0
DIMENSION
5
101
100
AcDbEntity
8
SK2
62
256
6
ByLayer
370
-3
48
1
60
0
100
AcDbDimension
2
DimnDraft3D4
10
-104.35
20
20.209374
30
0
11
-44.893421
21
20.209374
31
0
70
32
71
5
72
1
41
1
210
0
220
0
230
1
3
Standard
100
AcDbAlignedDimension
13
22
23
2.459374
33
0
14
-104.35
24
11.9375
34
0
50
0
100
AcDbRotatedDimension
1001
ACAD
1000
DSTYLE
1002
{
1070
   279
1070
     0
1070
   172
1070
     1
1070
   173
1070
     1
1070
   340
1005
9E
1070
    77
1070
     1
1070
    73
1070
     0
1070
   171
1070
     3
1070
   274
1070
     4
1070
   177
1070
     2
1070
   176
1070
     2
1070
   178
1070
     7
1070
    78
1070
     8
1070
    41
1041
3.175
1070
   147
1041
2.25
1070
    42
1041
2.0
1070
    44
1041
2.0
1070
   140
1041
4.5
1070
   343
1005
D1
1070
   344
1005
D1
1002
}
0
ENDSEC
0
SECTION
2
OBJECTS
0
DICTIONARY
5
131
330
0
100
AcDbDictionary
280
0
281
1
3
ACAD_GROUP
350
132
3
ACAD_MLINESTYLE
350
133
0
DICTIONARY
5
132
330
0
100
AcDbDictionary
280
0
281
1
0
DICTIONARY
5
133
330
0
100
AcDbDictionary
280
0
281
1
3
Standard
350
18
0
MLINESTYLE
5
18
330
133
100
AcDbMlineStyle
2
Standard
70
0
3

62
256
51
90
52
90
71
2
49
-0.5
62
256
6
ByLayer
49
0.5
62
256
6
ByLayer
0
RASTERVARIABLES
5
120
330

100
AcDbRasterVariables
90
0
70
1
71
1
72
1
0
ENDSEC
0
EOF
