0
SECTION
2
HEADER
9
$ACADVER
1
AC1015
9
$DWGCODEPAGE
3
ANSI_1252
9
$HANDSEED
5
13e
9
$ANGBASE
50
0
9
$ANGDIR
70
0
9
$ATTMODE
70
1
9
$AUNITS
70
0
9
$AUPREC
70
0
9
$CECOLOR
62
256
9
$CELTSCALE
40
1
9
$CELTYPE
6
ByLayer
9
$CELWEIGHT
370
-1
9
$CLAYER
8
0
9
$CMLJUST
70
0
9
$CMLSCALE
40
1
9
$CMLSTYLE
2
Standard
9
$DIMSTYLE
2
Standard
9
$TEXTSIZE
40
0.2
9
$TEXTSTYLE
7
Standard
9
$LUNITS
70
2
9
$LUPREC
70
4
9
$EXTNAMES
290
1
9
$INSUNITS
70
4
9
$LTSCALE
40
1
9
$LWDISPLAY
290
0
9
$PDMODE
70
0
9
$PDSIZE
40
0
9
$PLINEGEN
70
0
0
ENDSEC
0
SECTION
2
CLASSES
0
CLASS
1
RASTERVARIABLES
2
AcDbRasterVariables
3
ISM
90
0
280
0
281
0
0
ENDSEC
0
SECTION
2
TABLES
0
TABLE
2
VPORT
5
134
100
AcDbSymbolTable
0
VPORT
5
1
100
AcDbSymbolTableRecord
100
AcDbViewportTableRecord
2
*Active
70
0
10
0
20
0
11
1
21
1
12
-1
22
1
13
0
23
0
14
0.5
24
0.5
15
10
25
10
16
0
26
0
36
1
17
0
27
0
37
0
0
ENDTAB
0
TABLE
2
LTYPE
5
135
100
AcDbSymbolTable
0
LTYPE
5
14
100
AcDbSymbolTableRecord
100
AcDbLinetypeTableRecord
70
0
2
ByBlock
3

72
65
73
0
40
0
0
LTYPE
5
15
100
AcDbSymbolTableRecord
100
AcDbLinetypeTableRecord
70
0
2
ByLayer
3

72
65
73
0
40
0
0
LTYPE
5
16
100
AcDbSymbolTableRecord
100
AcDbLinetypeTableRecord
70
0
2
CONTINUOUS
3
Solid line
72
65
73
0
40
0
0
LTYPE
5
3B
100
AcDbSymbolTableRecord
100
AcDbLinetypeTableRecord
70
0
2
DASHED
3
__ __ __ __ __ __ __ __ __
72
65
73
2
40
25.72
49
12.86
74
0
49
-12.86
74
0
0
LTYPE
5
3C
100
AcDbSymbolTableRecord
100
AcDbLinetypeTableRecord
70
0
2
HIDDEN
3
_ _ _ _ _ _ _ _ _ _ _ _ _ _ _
72
65
73
2
40
0.5
49
0.25
74
0
49
-0.25
74
0
0
LTYPE
5
3D
100
AcDbSymbolTableRecord
100
AcDbLinetypeTableRecord
70
0
2
PHANTOM
3
____ _ _ ____ _ _ _____ _ _ ____
72
65
73
6
40
50.5
49
18
74
0
49
-6.5
74
0
49
6.5
74
0
49
-6.5
74
0
49
6.5
74
0
49
-6.5
74
0
0
LTYPE
5
3E
100
AcDbSymbolTableRecord
100
AcDbLinetypeTableRecord
70
0
2
CENTER
3
____ _ ____ _ ____ _ ____
72
65
73
4
40
47.5
49
22
74
0
49
-8.5
74
0
49
8.5
74
0
49
-8.5
74
0
0
LTYPE
5
3F
100
AcDbSymbolTableRecord
100
AcDbLinetypeTableRecord
70
0
2
DOT
3
.........................
72
65
73
2
40
10
49
0
74
0
49
-10
74
0
0
LTYPE
5
40
100
AcDbSymbolTableRecord
100
AcDbLinetypeTableRecord
70
0
2
DASHDOT
3
_._._._._._._._._._._._._._._._.
72
65
73
4
40
70
49
31
74
0
49
-13
74
0
49
13
74
0
49
-13
74
0
0
ENDTAB
0
TABLE
2
LAYER
5
136
100
AcDbSymbolTable
0
LAYER
5
10
100
AcDbSymbolTableRecord
100
AcDbLayerTableRecord
2
0
70
0
62
7
6
CONTINUOUS
290
1
370
-3
390
0
0
LAYER
5
46
100
AcDbSymbolTableRecord
100
AcDbLayerTableRecord
2
80
70
0
62
-6
6
CONTINUOUS
290
1
370
-3
390
0
0
LAYER
5
49
100
AcDbSymbolTableRecord
100
AcDbLayerTableRecord
2
81
70
0
62
-3
6
CONTINUOUS
290
1
370
-3
390
0
0
LAYER
5
4B
100
AcDbSymbolTableRecord
100
AcDbLayerTableRecord
2
2
70
0
62
7
6
CONTINUOUS
290
1
370
-3
390
0
0
LAYER
5
4F
100
AcDbSymbolTableRecord
100
AcDbLayerTableRecord
2
1
70
0
62
4
6
CONTINUOUS
290
1
370
-3
390
0
0
LAYER
5
121
100
AcDbSymbolTableRecord
100
AcDbLayerTableRecord
2
SK2
70
0
62
7
6
CONTINUOUS
290
1
370
-3
390
0
0
LAYER
5
122
100
AcDbSymbolTableRecord
100
AcDbLayerTableRecord
2
SK1
70
0
62
4
6
CONTINUOUS
290
1
370
-3
390
0
0
LAYER
5
123
100
AcDbSymbolTableRecord
100
AcDbLayerTableRecord
2
SK6
70
0
62
5
6
CONTINUOUS
290
1
370
-3
390
0
0
ENDTAB
0
TABLE
2
STYLE
5
137
100
AcDbSymbolTable
0
STYLE
5
11
100
AcDbSymbolTableRecord
100
AcDbTextStyleTableRecord
2
Standard
3
txt
70
0
71
0
40
0
41
1
42
0
50
0
0
STYLE
5
9E
100
AcDbSymbolTableRecord
100
AcDbTextStyleTableRecord
2
DEFAULT
3
simplex.shx
70
0
71
0
40
0
41
1
42
0
50
0
0
STYLE
5
C1
100
AcDbSymbolTableRecord
100
AcDbTextStyleTableRecord
2
DWGDirectTextStyle
3
SIMPLEX
70
0
71
0
40
0
41
1
42
0
50
0
0
ENDTAB
0
TABLE
2
DIMSTYLE
5
138
100
AcDbSymbolTable
100
AcDbDimStyleTable
0
DIMSTYLE
105
27
100
AcDbSymbolTableRecord
100
AcDbDimStyleTableRecord
2
Standard
70
0
3
<>
41
0.18
42
0.0625
44
0.18
140
0.18
147
0.09
73
0
74
0
77
1
271
2
275
0
278
52
280
0
340
11
0
ENDTAB
0
TABLE
2
VIEW
5
139
100
AcDbSymbolTable
0
ENDTAB
0
TABLE
2
UCS
5
13a
100
AcDbSymbolTable
0
ENDTAB
0
TABLE
2
APPID
5
13b
100
AcDbSymbolTable
0
APPID
5
12
100
AcDbSymbolTableRecord
100
AcDbRegAppTableRecord
2
ACAD
70
0
0
ENDTAB
0
TABLE
2
BLOCK_RECORD
5
13c
100
AcDbSymbolTable
0
BLOCK_RECORD
5
1F
100
AcDbSymbolTableRecord
100
AcDbBlockTableRecord
2
*Model_Space
340
0
70
0
0
BLOCK_RECORD
5
1B
100
AcDbSymbolTableRecord
100
AcDbBlockTableRecord
2
*Paper_Space
340
0
70
0
0
BLOCK_RECORD
5
23
100
AcDbSymbolTableRecord
100
AcDbBlockTableRecord
2
*Paper_Space0
340
0
70
0
0
BLOCK_RECORD
5
C3
100
AcDbSymbolTableRecord
100
AcDbBlockTableRecord
2
DimnDraft3D1
340
0
70
0
0
BLOCK_RECORD
5
D1
100
AcDbSymbolTableRecord
100
AcDbBlockTableRecord
2
_CLOSED
340
0
70
0
0
BLOCK_RECORD
5
D8
100
AcDbSymbolTableRecord
100
AcDbBlockTableRecord
2
DimnDraft3D2
340
0
70
0
0
BLOCK_RECORD
5
E6
100
AcDbSymbolTableRecord
100
AcDbBlockTableRecord
2
DimnDraft3D3
340
0
70
0
0
BLOCK_RECORD
5
F4
100
AcDbSymbolTableRecord
100
AcDbBlockTableRecord
2
DimnDraft3D4
340
0
70
0
0
ENDTAB
0
ENDSEC
0
SECTION
2
BLOCKS
0
BLOCK
5
20
100
AcDbEntity
8
0
100
AcDbBlockBegin
2
*Model_Space
70
0
10
0
20
0
30
0
3
*Model_Space
0
ENDBLK
5
21
100
AcDbEntity
8
0
100
AcDbBlockEnd
0
BLOCK
5
1C
100
AcDbEntity
8
0
100
AcDbBlockBegin
2
*Paper_Space
70
0
10
0
20
0
30
0
3
*Paper_Space
0
ENDBLK
5
1D
100
AcDbEntity
8
0
100
AcDbBlockEnd
0
BLOCK
5
24
100
AcDbEntity
8
0
100
AcDbBlockBegin
2
*Paper_Space0
70
0
10
0
20
0
30
0
3
*Paper_Space0
0
ENDBLK
5
25
100
AcDbEntity
8
0
100
AcDbBlockEnd
0
BLOCK
5
CE
100
AcDbEntity
8
0
100
AcDbBlockBegin
2
DimnDraft3D1
70
0
10
0
20
0
30
0
3
DimnDraft3D1
0
MTEXT
5
C4
100
AcDbEntity
8
2
62
256
6
ByLayer
370
-1
48
1
60
0
100
AcDbMText
10
12.078869
20
21.678987
30
0
210
0
220
0
230
1
1
\W01.000;\fsimplex.shx,bigfont.shx;107%%d30' 
40
4.5
41
0
44
1.084337
50
53.7499999999999
71
7
72
5
7
DEFAULT
0
LINE
5
C5
100
AcDbEntity
8
2
62
256
6
ByLayer
370
-1
48
1
60
0
100
AcDbLine
10
27.602347
20
21.9125
30
0
11
27.602347
21
34.46889
31
0
39
0
210
0
220
0
230
1
0
LINE
5
C6
100
AcDbEntity
8
2
62
256
6
ByLayer
370
-1
48
1
60
0
100
AcDbLine
10
23.708761
20
18.973645
30
0
11
13.995093
21
15.910938
31
0
39
0
210
0
220
0
230
1
0
ARC
5
C7
100
AcDbEntity
8
2
62
256
6
ByLayer
370
-1
48
1
60
0
100
AcDbCircle
39
0
10
27.602347
20
20.201288
30
0
40
12.2676020038045
210
0
220
0
230
1
100
AcDbArc
50
90
51
197.5
0
LINE
5
C8
100
AcDbEntity
8
2
62
256
6
ByLayer
370
-1
48
1
60
0
100
AcDbLine
10
27.602347
20
32.46889
30
0
11
24.460797
21
31.847603
31
0
39
0
210
0
220
0
230
1
0
LINE
5
C9
100
AcDbEntity
8
2
62
256
6
ByLayer
370
-1
48
1
60
0
100
AcDbLine
10
27.602347
20
32.46889
30
0
11
24.407038
21
32.681866
31
0
39
0
210
0
220
0
230
1
0
LINE
5
CA
100
AcDbEntity
8
2
62
256
6
ByLayer
370
-1
48
1
60
0
100
AcDbLine
10
24.460797
20
31.847603
30
0
11
24.407038
21
32.681866
31
0
39
0
210
0
220
0
230
1
0
LINE
5
CB
100
AcDbEntity
8
2
62
256
6
ByLayer
370
-1
48
1
60
0
100
AcDbLine
10
15.902527
20
16.512349
30
0
11
14.738561
21
19.495723
31
0
39
0
210
0
220
0
230
1
0
LINE
5
CC
100
AcDbEntity
8
2
62
256
6
ByLayer
370
-1
48
1
60
0
100
AcDbLine
10
15.902527
20
16.512349
30
0
11
15.550376
21
19.695327
31
0
39
0
210
0
220
0
230
1
0
LINE
5
CD
100
AcDbEntity
8
2
62
256
6
ByLayer
370
-1
48
1
60
0
100
AcDbLine
10
14.738561
20
19.495723
30
0
11
15.550376
21
19.695327
31
0
39
0
210
0
220
0
230
1
0
ENDBLK
5
CF
100
AcDbEntity
8
0
100
AcDbBlockEnd
0
BLOCK
5
D2
100
AcDbEntity
8
0
100
AcDbBlockBegin
2
_CLOSED
70
0
10
0
20
0
30
0
3
_CLOSED
0
LINE
5
D4
100
AcDbEntity
8
0
62
256
6
ByLayer
370
-2
48
1
60
0
100
AcDbLine
10
-1
20
0.166667
30
0
11
0
21
0
31
0
39
0
210
0
220
0
230
1
0
LINE
5
D5
100
AcDbEntity
8
0
62
256
6
ByLayer
370
-2
48
1
60
0
100
AcDbLine
10
0
20
0
30
0
11
-1
21
-0.166667
31
0
39
0
210
0
220
0
230
1
0
LINE
5
D6
100
AcDbEntity
8
0
62
256
6
ByLayer
370
-2
48
1
60
0
100
AcDbLine
10
-1
20
0.166667
30
0
11
-1
21
-0.166667
31
0
39
0
210
0
220
0
230
1
0
LINE
5
D7
100
AcDbEntity
8
0
62
256
6
ByLayer
370
-2
48
1
60
0
100
AcDbLine
10
0
20
0
30
0
11
-1
21
0
31
0
39
0
210
0
220
0
230
1
0
ENDBLK
5
D3
100
AcDbEntity
8
0
100
AcDbBlockEnd
0
BLOCK
5
E3
100
AcDbEntity
8
0
100
AcDbBlockBegin
2
DimnDraft3D2
70
0
10
0
20
0
30
0
3
DimnDraft3D2
0
MTEXT
5
D9
100
AcDbEntity
8
SK2
62
256
6
ByLayer
370
-1
48
1
60
0
100
AcDbMText
10
-154.622653
20
-1.503947
30
0
210
0
220
0
230
1
1
\W01.000;\fsimplex.shx,bigfont.shx;25 
40
4.5
41
0
44
1.084337
50
90
71
7
72
5
7
DEFAULT
0
LINE
5
DA
100
AcDbEntity
8
SK2
62
256
6
ByLayer
370
-1
48
1
60
0
100
AcDbLine
10
-145.747653
20
-12.4375
30
0
11
-155.497653
21
-12.4375
31
0
39
0
210
0
220
0
230
1
0
LINE
5
DB
100
AcDbEntity
8
SK2
62
256
6
ByLayer
370
-1
48
1
60
0
100
AcDbLine
10
-145.747653
20
12.4375
30
0
11
-155.497653
21
12.4375
31
0
39
0
210
0
220
0
230
1
0
LINE
5
DC
100
AcDbEntity
8
SK2
62
256
6
ByLayer
370
-1
48
1
60
0
100
AcDbLine
10
-153.497653
20
-12.4375
30
0
11
-153.497653
21
12.4375
31
0
39
0
210
0
220
0
230
1
0
LINE
5
DD
100
AcDbEntity
8
SK2
62
256
6
ByLayer
370
-1
48
1
60
0
100
AcDbLine
10
-153.497653
20
-12.4375
30
0
11
-153.91565
21
-9.262502
31
0
39
0
210
0
220
0
230
1
0
LINE
5
DE
100
AcDbEntity
8
SK2
62
256
6
ByLayer
370
-1
48
1
60
0
100
AcDbLine
10
-153.497653
20
-12.4375
30
0
11
-153.079656
21
-9.262498
31
0
39
0
210
0
220
0
230
1
0
LINE
5
DF
100
AcDbEntity
8
SK2
62
256
6
ByLayer
370
-1
48
1
60
0
100
AcDbLine
10
-153.91565
20
-9.262502
30
0
11
-153.079656
21
-9.262498
31
0
39
0
210
0
220
0
230
1
0
LINE
5
E0
100
AcDbEntity
8
SK2
62
256
6
ByLayer
370
-1
48
1
60
0
100
AcDbLine
10
-153.497653
20
12.4375
30
0
11
-153.079656
21
9.262502
31
0
39
0
210
0
220
0
230
1
0
LINE
5
E1
100
AcDbEntity
8
SK2
62
256
6
ByLayer
370
-1
48
1
60
0
100
AcDbLine
10
-153.497653
20
12.4375
30
0
11
-153.91565
21
9.262498
31
0
39
0
210
0
220
0
230
1
0
LINE
5
E2
100
AcDbEntity
8
SK2
62
256
6
ByLayer
370
-1
48
1
60
0
100
AcDbLine
10
-153.079656
20
9.262502
30
0
11
-153.91565
21
9.262498
31
0
39
0
210
0
220
0
230
1
0
ENDBLK
5
E4
100
AcDbEntity
8
0
100
AcDbBlockEnd
0
BLOCK
5
F1
100
AcDbEntity
8
0
100
AcDbBlockBegin
2
DimnDraft3D3
70
0
10
0
20
0
30
0
3
DimnDraft3D3
0
MTEXT
5
E7
100
AcDbEntity
8
2
62
256
6
ByLayer
370
-1
48
1
60
0
100
AcDbMText
10
53.727347
20
2.233553
30
0
210
0
220
0
230
1
1
\W01.000;\fsimplex.shx,bigfont.shx;32 
40
4.5
41
0
44
1.084337
50
90
71
7
72
5
7
DEFAULT
0
LINE
5
E8
100
AcDbEntity
8
2
62
256
6
ByLayer
370
-1
48
1
60
0
100
AcDbLine
10
2
20
-12.4375
30
0
11
56.852347
21
-12.4375
31
0
39
0
210
0
220
0
230
1
0
LINE
5
E9
100
AcDbEntity
8
2
62
256
6
ByLayer
370
-1
48
1
60
0
100
AcDbLine
10
29.602347
20
19.9125
30
0
11
56.852347
21
19.9125
31
0
39
0
210
0
220
0
230
1
0
LINE
5
EA
100
AcDbEntity
8
2
62
256
6
ByLayer
370
-1
48
1
60
0
100
AcDbLine
10
54.852347
20
-12.4375
30
0
11
54.852347
21
19.9125
31
0
39
0
210
0
220
0
230
1
0
LINE
5
EB
100
AcDbEntity
8
2
62
256
6
ByLayer
370
-1
48
1
60
0
100
AcDbLine
10
54.852347
20
-12.4375
30
0
11
54.43435
21
-9.262502
31
0
39
0
210
0
220
0
230
1
0
LINE
5
EC
100
AcDbEntity
8
2
62
256
6
ByLayer
370
-1
48
1
60
0
100
AcDbLine
10
54.852347
20
-12.4375
30
0
11
55.270344
21
-9.262498
31
0
39
0
210
0
220
0
230
1
0
LINE
5
ED
100
AcDbEntity
8
2
62
256
6
ByLayer
370
-1
48
1
60
0
100
AcDbLine
10
54.43435
20
-9.262502
30
0
11
55.270344
21
-9.262498
31
0
39
0
210
0
220
0
230
1
0
LINE
5
EE
100
AcDbEntity
8
2
62
256
6
ByLayer
370
-1
48
1
60
0
100
AcDbLine
10
54.852347
20
19.9125
30
0
11
55.270344
21
16.737502
31
0
39
0
210
0
220
0
230
1
0
LINE
5
EF
100
AcDbEntity
8
2
62
256
6
ByLayer
370
-1
48
1
60
0
100
AcDbLine
10
54.852347
20
19.9125
30
0
11
54.43435
21
16.737498
31
0
39
0
210
0
220
0
230
1
0
LINE
5
F0
100
AcDbEntity
8
2
62
256
6
ByLayer
370
-1
48
1
60
0
100
AcDbLine
10
55.270344
20
16.737502
30
0
11
54.43435
21
16.737498
31
0
39
0
210
0
220
0
230
1
0
ENDBLK
5
F2
100
AcDbEntity
8
0
100
AcDbBlockEnd
0
BLOCK
5
FF
100
AcDbEntity
8
0
100
AcDbBlockBegin
2
DimnDraft3D4
70
0
10
0
20
0
30
0
3
DimnDraft3D4
0
MTEXT
5
F5
100
AcDbEntity
8
SK2
62
256
6
ByLayer
370
-1
48
1
60
0
100
AcDbMText
10
-60.666074
20
40.7875
30
0
210
0
220
0
230
1
1
\W01.000;\fsimplex.shx,bigfont.shx;170 
40
4.5
41
0
44
1.084337
50
0
71
7
72
5
7
DEFAULT
0
LINE
5
F6
100
AcDbEntity
8
SK2
62
256
6
ByLayer
370
-1
48
1
60
0
100
AcDbLine
10
27.602347
20
21.9125
30
0
11
27.602347
21
41.6625
31
0
39
0
210
0
220
0
230
1
0
LINE
5
F7
100
AcDbEntity
8
SK2
62
256
6
ByLayer
370
-1
48
1
60
0
100
AcDbLine
10
-143.747653
20
14.4375
30
0
11
-143.747653
21
41.6625
31
0
39
0
210
0
220
0
230
1
0
LINE
5
F8
100
AcDbEntity
8
SK2
62
256
6
ByLayer
370
-1
48
1
60
0
100
AcDbLine
10
27.602347
20
39.6625
30
0
11
-143.747653
21
39.6625
31
0
39
0
210
0
220
0
230
1
0
LINE
5
F9
100
AcDbEntity
8
SK2
62
256
6
ByLayer
370
-1
48
1
60
0
100
AcDbLine
10
27.602347
20
39.6625
30
0
11
24.427348
21
39.244503
31
0
39
0
210
0
220
0
230
1
0
LINE
5
FA
100
AcDbEntity
8
SK2
62
256
6
ByLayer
370
-1
48
1
60
0
100
AcDbLine
10
27.602347
20
39.6625
30
0
11
24.427345
21
40.080497
31
0
39
0
210
0
220
0
230
1
0
LINE
5
FB
100
AcDbEntity
8
SK2
62
256
6
ByLayer
370
-1
48
1
60
0
100
AcDbLine
10
24.427348
20
39.244503
30
0
11
24.427345
21
40.080497
31
0
39
0
210
0
220
0
230
1
0
LINE
5
FC
100
AcDbEntity
8
SK2
62
256
6
ByLayer
370
-1
48
1
60
0
100
AcDbLine
10
-143.747653
20
39.6625
30
0
11
-140.572655
21
40.080497
31
0
39
0
210
0
220
0
230
1
0
LINE
5
FD
100
AcDbEntity
8
SK2
62
256
6
ByLayer
370
-1
48
1
60
0
100
AcDbLine
10
-143.747653
20
39.6625
30
0
11
-140.572652
21
39.244503
31
0
39
0
210
0
220
0
230
1
0
LINE
5
FE
100
AcDbEntity
8
SK2
62
256
6
ByLayer
370
-1
48
1
60
0
100
AcDbLine
10
-140.572655
20
40.080497
30
0
11
-140.572652
21
39.244503
31
0
39
0
210
0
220
0
230
1
0
ENDBLK
5
100
100
AcDbEntity
8
0
100
AcDbBlockEnd
0
ENDSEC
0
SECTION
2
ENTITIES
0
ARC
5
6C
100
AcDbEntity
8
1
62
256
6
ByLayer
370
-1
48
1
60
0
100
AcDbCircle
39
0
10
-3.8575
20
3.048219
30
0
40
1.50000000000002
210
0
220
0
230
-1
100
AcDbArc
50
246.485292
51
115.724408
0
ARC
5
6D
100
AcDbEntity
8
1
62
256
6
ByLayer
370
-1
48
1
60
0
100
AcDbCircle
39
0
10
3.8575
20
3.048219
30
0
40
1.50000000000002
210
0
220
0
230
1
100
AcDbArc
50
306.819174
51
5.727371
0
ARC
5
6E
100
AcDbEntity
8
1
62
256
6
ByLayer
370
-1
48
1
60
0
100
AcDbCircle
39
0
10
26.707514
20
5.908874
30
0
40
8.09999999999997
210
0
220
0
230
1
100
AcDbArc
50
169.225011
51
176.936676
0
ARC
5
6F
100
AcDbEntity
8
1
62
256
6
ByLayer
370
-1
48
1
60
0
100
AcDbCircle
39
0
10
5.937316
20
2.963734
30
0
40
1.9649227615765
210
0
220
0
230
1
100
AcDbArc
50
221.071372
51
322.5
0
ARC
5
70
100
AcDbEntity
8
1
62
256
6
ByLayer
370
-1
48
1
60
0
100
AcDbCircle
39
0
10
5.937316
20
2.963734
30
0
40
1.625
210
0
220
0
230
1
100
AcDbArc
50
223.390012
51
322.5
0
ARC
5
72
100
AcDbEntity
8
1
62
256
6
ByLayer
370
-1
48
1
60
0
100
AcDbCircle
39
0
10
-15.997333
20
11.548622
30
0
40
1.6765
210
0
220
0
230
-1
100
AcDbArc
50
145
51
204.840113
0
ARC
5
73
100
AcDbEntity
8
1
62
256
6
ByLayer
370
-1
48
1
60
0
100
AcDbCircle
39
0
10
-15.997333
20
11.548622
30
0
40
1.2065
210
0
220
0
230
-1
100
AcDbArc
50
231.044721
51
238.955279
0
ARC
5
75
100
AcDbEntity
8
1
62
256
6
ByLayer
370
-1
48
1
60
0
100
AcDbCircle
39
0
10
15.997333
20
11.548622
30
0
40
1.2065
210
0
220
0
230
1
100
AcDbArc
50
128.955279
51
185.079943
0
ARC
5
76
100
AcDbEntity
8
1
62
256
6
ByLayer
370
-1
48
1
60
0
100
AcDbCircle
39
0
10
15.997333
20
11.548622
30
0
40
1.2065
210
0
220
0
230
1
100
AcDbArc
50
244.920057
51
301.044721
0
ARC
5
77
100
AcDbEntity
8
1
62
256
6
ByLayer
370
-1
48
1
60
0
100
AcDbCircle
39
0
10
-15.997333
20
11.548622
30
0
40
1.6765
210
0
220
0
230
-1
100
AcDbArc
50
325
51
24.840113
0
ARC
5
78
100
AcDbEntity
8
1
62
256
6
ByLayer
370
-1
48
1
60
0
100
AcDbCircle
39
0
10
15.997333
20
11.548622
30
0
40
1.2065
210
0
220
0
230
1
100
AcDbArc
50
5.079943
51
64.920057
0
ARC
5
79
100
AcDbEntity
8
1
62
256
6
ByLayer
370
-1
48
1
60
0
100
AcDbCircle
39
0
10
-15.997333
20
11.548622
30
0
40
1.6765
210
0
220
0
230
-1
100
AcDbArc
50
24.840113
51
85.159887
0
ARC
5
7A
100
AcDbEntity
8
1
62
256
6
ByLayer
370
-1
48
1
60
0
100
AcDbCircle
39
0
10
-15.997333
20
11.548622
30
0
40
1.2065
210
0
220
0
230
-1
100
AcDbArc
50
51.044721
51
58.955279
0
ARC
5
7B
100
AcDbEntity
8
1
62
256
6
ByLayer
370
-1
48
1
60
0
100
AcDbCircle
39
0
10
-15.997333
20
11.548622
30
0
40
1.6765
210
0
220
0
230
-1
100
AcDbArc
50
265.159887
51
325
0
ARC
5
7C
100
AcDbEntity
8
1
62
256
6
ByLayer
370
-1
48
1
60
0
100
AcDbCircle
39
0
10
15.997333
20
11.548622
30
0
40
1.2065
210
0
220
0
230
1
100
AcDbArc
50
308.955279
51
5.079943
0
ARC
5
7D
100
AcDbEntity
8
1
62
256
6
ByLayer
370
-1
48
1
60
0
100
AcDbCircle
39
0
10
-15.997333
20
11.548622
30
0
40
1.6765
210
0
220
0
230
-1
100
AcDbArc
50
85.159887
51
145
0
ARC
5
7E
100
AcDbEntity
8
1
62
256
6
ByLayer
370
-1
48
1
60
0
100
AcDbCircle
39
0
10
-15.997333
20
11.548622
30
0
40
1.6765
210
0
220
0
230
-1
100
AcDbArc
50
204.840113
51
265.159887
0
ARC
5
80
100
AcDbEntity
8
1
62
256
6
ByLayer
370
-1
48
1
60
0
100
AcDbCircle
39
0
10
15.997333
20
11.548622
30
0
40
1.2065
210
0
220
0
230
1
100
AcDbArc
50
185.079943
51
244.920057
0
ARC
5
83
100
AcDbEntity
8
1
62
256
6
ByLayer
370
-1
48
1
60
0
100
AcDbCircle
39
0
10
15.997333
20
11.548622
30
0
40
1.20649999999999
210
0
220
0
230
1
100
AcDbArc
50
64.920057
51
121.044721
0
CIRCLE
5
71
100
AcDbEntity
8
1
62
256
6
ByLayer
370
-1
48
1
60
0
100
AcDbCircle
10
-15.997333
20
11.548622
30
0
40
2.62500000000002
39
0
210
0
220
0
230
-1
0
CIRCLE
5
74
100
AcDbEntity
8
1
62
256
6
ByLayer
370
-1
48
1
60
0
100
AcDbCircle
10
-15.997333
20
11.548622
30
0
40
3.04453416176668
39
0
210
0
220
0
230
-1
0
CIRCLE
5
7F
100
AcDbEntity
8
1
62
256
6
ByLayer
370
-1
48
1
60
0
100
AcDbCircle
10
-15.997333
20
11.548622
30
0
40
3
39
0
210
0
220
0
230
-1
0
CIRCLE
5
81
100
AcDbEntity
8
1
62
256
6
ByLayer
370
-1
48
1
60
0
100
AcDbCircle
10
-15.997333
20
11.548622
30
0
40
2.94445165909343
39
0
210
0
220
0
230
-1
0
CIRCLE
5
82
100
AcDbEntity
8
1
62
256
6
ByLayer
370
-1
48
1
60
0
100
AcDbCircle
10
-15.997333
20
11.548622
30
0
40
1.80000000000001
39
0
210
0
220
0
230
-1
0
ELLIPSE
5
84
100
AcDbEntity
8
1
62
256
6
ByLayer
370
-1
48
1
60
0
100
AcDbEllipse
10
5.171252
20
3.968118
30
0
11
-0.652891171185052
21
-0.457159319694341
31
0
210
0
220
0
230
-1
40
0.996195
41
-1.14164284817941
42
1.14164284817323
0
ELLIPSE
5
85
100
AcDbEntity
8
1
62
256
6
ByLayer
370
-1
48
1
60
0
100
AcDbEllipse
10
26.823415
20
19.129126
30
0
11
0.652891171185052
21
0.457159319694339
31
0
210
0
220
0
230
-1
40
0.996195
41
-1.14164284817898
42
1.14164284817377
0
ELLIPSE
5
86
100
AcDbEntity
8
1
62
256
6
ByLayer
370
-1
48
1
60
0
100
AcDbEllipse
10
13.374594
20
15.294281
30
0
11
-0.23039390448295
21
0.329036595452859
31
0
210
0
220
0
230
1
40
0.995819
41
-0.304233038584709
42
0.304233038584714
0
ELLIPSE
5
87
100
AcDbEntity
8
1
62
256
6
ByLayer
370
-1
48
1
60
0
100
AcDbEllipse
10
18.620072
20
7.802962
30
0
11
0.230393904482951
21
-0.329036595452858
31
0
210
0
220
0
230
1
40
0.995819
41
-0.304233038584706
42
0.304233038584717
0
POINT
5
41
100
AcDbEntity
8
SK2
62
256
6
ByLayer
370
-1
48
1
60
0
100
AcDbPoint
10
27.602347
20
19.9125
30
0
39
0
210
0
220
0
230
1
50
360
0
POINT
5
43
100
AcDbEntity
8
SK2
62
256
6
ByLayer
370
-1
48
1
60
0
100
AcDbPoint
10
27.602347
20
19.9125
30
0
39
0
210
0
220
0
230
1
50
360
0
POINT
5
44
100
AcDbEntity
8
SK2
62
256
6
ByLayer
370
-1
48
1
60
0
100
AcDbPoint
10
27.602347
20
19.9125
30
0
39
0
210
0
220
0
230
1
50
360
0
POINT
5
45
100
AcDbEntity
8
80
62
256
6
ByLayer
370
-1
48
1
60
0
100
AcDbPoint
10
0
20
0
30
0
39
0
210
0
220
0
230
1
50
360
0
POINT
5
47
100
AcDbEntity
8
SK2
62
256
6
ByLayer
370
-1
48
1
60
0
100
AcDbPoint
10
27.602347
20
19.9125
30
0
39
0
210
0
220
0
230
1
50
360
0
POINT
5
48
100
AcDbEntity
8
81
62
256
6
ByLayer
370
-1
48
1
60
0
100
AcDbPoint
10
27.602347
20
19.9125
30
0
39
0
210
0
220
0
230
1
50
360
0
POINT
5
4A
100
AcDbEntity
8
2
62
256
6
ByLayer
370
-1
48
1
60
0
100
AcDbPoint
10
27.602347
20
19.9125
30
0
39
0
210
0
220
0
230
1
50
360
0
SPLINE
5
88
100
AcDbEntity
8
1
62
256
6
ByLayer
370
-1
48
1
60
0
100
AcDbSpline
70
4
71
3
72
10
73
6
40
0
40
0
40
0
40
0
40
0.452027044333867
40
0.452027044333867
40
1
40
1
40
1
40
1
41
1
10
4.45597669226251
20
1.67278238643709
30
0
41
1
10
4.50522841783615
20
1.6942126808641
30
0
41
1
10
4.55268922433964
20
1.7180049499064
30
0
41
1
10
4.65369703519573
20
1.77537866658045
30
0
41
1
10
4.70639865872363
20
1.80996281657716
30
0
41
1
10
4.75643729570635
20
1.84742262325298
30
0
0
SPLINE
5
89
100
AcDbEntity
8
1
62
256
6
ByLayer
370
-1
48
1
60
0
100
AcDbSpline
70
4
71
3
72
14
73
10
40
0
40
0
40
0
40
0
40
0.283829207301474
40
0.283829207301474
40
0.57016929274377
40
0.57016929274377
40
0.829348552935675
40
0.829348552935675
40
1
40
1
40
1
40
1
41
1
10
17.3556594672827
20
12.1556719767704
30
0
41
1
10
17.3771277240952
20
12.1814029680993
30
0
41
1
10
17.3947315076065
20
12.2117335792599
30
0
41
1
10
17.4182483005468
20
12.2776136477171
30
0
41
1
10
17.424361795288
20
12.3142484125196
30
0
41
1
10
17.4224042589101
20
12.384137568152
30
0
41
1
10
17.4155336962964
20
12.4184365351012
30
0
41
1
10
17.3946175415083
20
12.4712585001998
30
0
41
1
10
17.383686688451
20
12.4915924227439
30
0
41
1
10
17.3706416986134
20
12.5102225989785
30
0
0
SPLINE
5
8A
100
AcDbEntity
8
1
62
256
6
ByLayer
370
-1
48
1
60
0
100
AcDbSpline
70
4
71
3
72
12
73
8
40
0
40
0
40
0
40
0
40
0.49591929854861
40
0.49591929854861
40
0.900357394013952
40
0.900357394013952
40
1
40
1
40
1
40
1
41
1
10
17.2013539081259
20
10.6797488967037
30
0
41
1
10
17.1311679959949
20
10.6925493171134
30
0
41
1
10
17.0566090912312
20
10.6946612059014
30
0
41
1
10
16.9211851349147
20
10.6754766642862
30
0
41
1
10
16.8588318929552
20
10.6580524985322
30
0
41
1
10
16.7848978358588
20
10.6251942712518
30
0
41
1
10
16.7702672560415
20
10.6180648923327
30
0
41
1
10
16.7558762650054
20
10.610402744598
30
0
0
SPLINE
5
8B
100
AcDbEntity
8
1
62
256
6
ByLayer
370
-1
48
1
60
0
100
AcDbSpline
70
4
71
3
72
14
73
10
40
0
40
0
40
0
40
0
40
0.28382920730152
40
0.28382920730152
40
0.570169292743807
40
0.570169292743807
40
0.829348552935713
40
0.829348552935713
40
1
40
1
40
1
40
1
41
1
10
14.639007125443
20
10.9415714301014
30
0
41
1
10
14.6175388686305
20
10.9158404387725
30
0
41
1
10
14.5999350851192
20
10.8855098276119
30
0
41
1
10
14.5764182921789
20
10.8196297591548
30
0
41
1
10
14.5703047974376
20
10.7829949943523
30
0
41
1
10
14.5722623338156
20
10.7131058387199
30
0
41
1
10
14.5791328964293
20
10.6788068717707
30
0
41
1
10
14.6000490512174
20
10.6259849066721
30
0
41
1
10
14.6109799042747
20
10.6056509841279
30
0
41
1
10
14.6240248941124
20
10.5870208078934
30
0
0
SPLINE
5
8C
100
AcDbEntity
8
1
62
256
6
ByLayer
370
-1
48
1
60
0
100
AcDbSpline
70
4
71
3
72
12
73
8
40
0
40
0
40
0
40
0
40
0.495919298548511
40
0.495919298548511
40
0.900357394034188
40
0.900357394034188
40
1
40
1
40
1
40
1
41
1
10
14.7933126845998
20
12.4174945101682
30
0
41
1
10
14.8634985967308
20
12.4046940897584
30
0
41
1
10
14.9380575014945
20
12.4025822009704
30
0
41
1
10
15.073481457814
20
12.4217667425861
30
0
41
1
10
15.1358346997766
20
12.4391909083414
30
0
41
1
10
15.2097687568727
20
12.4720491356229
30
0
41
1
10
15.2243993366871
20
12.4791785145407
30
0
41
1
10
15.2387903277203
20
12.4868406622739
30
0
0
SPLINE
5
8D
100
AcDbEntity
8
1
62
256
6
ByLayer
370
-1
48
1
60
0
100
AcDbSpline
70
4
71
3
72
18
73
14
40
0
40
0
40
0
40
0
40
0.21245212215653
40
0.21245212215653
40
0.386585611958124
40
0.386585611958124
40
0.562401069282159
40
0.562401069282159
40
0.715364474961978
40
0.715364474961978
40
0.918218197940749
40
0.918218197940749
40
1
40
1
40
1
40
1
41
1
10
14.639007125443
20
10.9415714301014
30
0
41
1
10
14.6844668212732
20
10.9960575977226
30
0
41
1
10
14.7228758776358
20
11.0595449357554
30
0
41
1
10
14.77293741089
20
11.1864011765295
30
0
41
1
10
14.788581384538
20
11.2492166971014
30
0
41
1
10
14.8013409379247
20
11.3783534403315
30
0
41
1
10
14.7982763173058
20
11.4466352105956
30
0
41
1
10
14.7749190225158
20
11.5675793565831
30
0
41
1
10
14.7567249478859
20
11.622576956654
30
0
41
1
10
14.7020684067584
20
11.7389413051401
30
0
41
1
10
14.6608577402828
20
11.7986585559303
30
0
41
1
10
14.5946489395489
20
11.8696113252731
30
0
41
1
10
14.5743760624065
20
11.8888023655502
30
0
41
1
10
14.5532255404163
20
11.9065502021283
30
0
0
SPLINE
5
8E
100
AcDbEntity
8
1
62
256
6
ByLayer
370
-1
48
1
60
0
100
AcDbSpline
70
4
71
3
72
14
73
10
40
0
40
0
40
0
40
0
40
0.282369857467381
40
0.282369857467381
40
0.567077141418974
40
0.567077141418974
40
0.824678567700263
40
0.824678567700263
40
1
40
1
40
1
40
1
41
1
10
14.7933126845998
20
12.4174945101682
30
0
41
1
10
14.7602424047098
20
12.4235258271777
30
0
41
1
10
14.7250691344798
20
12.4238917837123
30
0
41
1
10
14.6559813794902
20
12.4118101093812
30
0
41
1
10
14.6210191054427
20
12.3990072751525
30
0
41
1
10
14.5610830678915
20
12.3626795272834
30
0
41
1
10
14.5346004438704
20
12.3396893602962
30
0
41
1
10
14.4984806261424
20
12.2946556239899
30
0
41
1
10
14.4858429011417
20
12.2742973005907
30
0
41
1
10
14.4759370524662
20
12.2528984381482
30
0
0
SPLINE
5
8F
100
AcDbEntity
8
1
62
256
6
ByLayer
370
-1
48
1
60
0
100
AcDbSpline
70
4
71
3
72
16
73
12
40
0
40
0
40
0
40
0
40
0.0629464292353827
40
0.0629464292353827
40
0.285820458820261
40
0.285820458820261
40
0.511490282510709
40
0.511490282510709
40
0.751616482465923
40
0.751616482465923
40
1
40
1
40
1
40
1
41
1
10
17.3706416986134
20
12.5102225989785
30
0
41
1
10
17.365811601989
20
12.5171206918449
30
0
41
1
10
17.3606767764069
20
12.5238171519732
30
0
41
1
10
17.3362678181287
20
12.5529504051542
30
0
41
1
10
17.3135198878431
20
12.5728752817663
30
0
41
1
10
17.2641341694707
20
12.6045211441709
30
0
41
1
10
17.2368353694796
20
12.6165588331206
30
0
41
1
10
17.1798676398911
20
12.6323035369054
30
0
41
1
10
17.1494540224718
20
12.6356554836646
30
0
41
1
10
17.0897954775874
20
12.6333429512748
30
0
41
1
10
17.0599536592966
20
12.6273671518168
30
0
41
1
10
17.0323488703223
20
12.6174073613779
30
0
0
SPLINE
5
90
100
AcDbEntity
8
1
62
256
6
ByLayer
370
-1
48
1
60
0
100
AcDbSpline
70
4
71
3
72
16
73
12
40
0
40
0
40
0
40
0
40
0.0617757523324345
40
0.0617757523324345
40
0.282549042166542
40
0.282549042166542
40
0.50605892377882
40
0.50605892377882
40
0.743861769983345
40
0.743861769983345
40
1
40
1
40
1
40
1
41
1
10
16.1387887855705
20
9.87810005000759
30
0
41
1
10
16.1471029119306
20
9.87880406890443
30
0
41
1
10
16.1553961050646
20
9.87986619091345
30
0
41
1
10
16.1927798607227
20
9.88629141400409
30
0
41
1
10
16.2214465225271
20
9.89592765387798
30
0
41
1
10
16.2736426496092
20
9.92268928671501
30
0
41
1
10
16.2977792363527
20
9.94022560938376
30
0
41
1
10
16.3400432000097
20
9.98153561892906
30
0
41
1
10
16.3582392170998
20
10.0061309315216
30
0
41
1
10
16.3868283466249
20
10.059930134842
30
0
41
1
10
16.3968884473843
20
10.0899800434062
30
0
41
1
10
16.4020073590484
20
10.1200404173977
30
0
0
SPLINE
5
91
100
AcDbEntity
8
1
62
256
6
ByLayer
370
-1
48
1
60
0
100
AcDbSpline
70
4
71
3
72
18
73
14
40
0
40
0
40
0
40
0
40
0.212452122156525
40
0.212452122156525
40
0.386585611958125
40
0.386585611958125
40
0.562401069282163
40
0.562401069282163
40
0.715364474961983
40
0.715364474961983
40
0.918218197940739
40
0.918218197940739
40
1
40
1
40
1
40
1
41
1
10
17.3556594672827
20
12.1556719767704
30
0
41
1
10
17.3101997714525
20
12.1011858091492
30
0
41
1
10
17.2717907150898
20
12.0376984711164
30
0
41
1
10
17.2217291818356
20
11.9108422303424
30
0
41
1
10
17.2060852081876
20
11.8480267097704
30
0
41
1
10
17.193325654801
20
11.7188899665404
30
0
41
1
10
17.1963902754198
20
11.6506081962763
30
0
41
1
10
17.2197475702099
20
11.5296640502887
30
0
41
1
10
17.2379416448397
20
11.4746664502178
30
0
41
1
10
17.2925981859672
20
11.3583021017318
30
0
41
1
10
17.3338088524429
20
11.2985848509416
30
0
41
1
10
17.4000176531767
20
11.2276320815988
30
0
41
1
10
17.4202905303191
20
11.2084410413217
30
0
41
1
10
17.4414410523094
20
11.1906932047435
30
0
0
SPLINE
5
92
100
AcDbEntity
8
1
62
256
6
ByLayer
370
-1
48
1
60
0
100
AcDbSpline
70
4
71
3
72
18
73
14
40
0
40
0
40
0
40
0
40
0.21248743016443
40
0.21248743016443
40
0.386614756164411
40
0.386614756164411
40
0.56242363520116
40
0.56242363520116
40
0.715385836585678
40
0.715385836585678
40
0.918245866817292
40
0.918245866817292
40
1
40
1
40
1
40
1
41
1
10
15.8397621236864
20
10.0691855451302
30
0
41
1
10
15.8154875104563
20
10.1358769557191
30
0
41
1
10
15.7798839766237
20
10.2009941981465
30
0
41
1
10
15.6953391197048
20
10.3080177564051
30
0
41
1
10
15.6488857028501
20
10.3530998356775
30
0
41
1
10
15.5436407005993
20
10.4290049815642
30
0
41
1
10
15.4830636127958
20
10.4606571362925
30
0
41
1
10
15.366758570561
20
10.5012204645345
30
0
41
1
10
15.3100656491369
20
10.5131187414321
30
0
41
1
10
15.1819923935095
20
10.5243200909285
30
0
41
1
10
15.1096529984394
20
10.5186881960472
30
0
41
1
10
15.0150497697805
20
10.4970878824561
30
0
41
1
10
14.9882805806268
20
10.4892034283543
30
0
41
1
10
14.9623177224034
20
10.479836045494
30
0
0
SPLINE
5
93
100
AcDbEntity
8
1
62
256
6
ByLayer
370
-1
48
1
60
0
100
AcDbSpline
70
4
71
3
72
16
73
12
40
0
40
0
40
0
40
0
40
0.0617757523322232
40
0.0617757523322232
40
0.28254904216629
40
0.28254904216629
40
0.506058923778592
40
0.506058923778592
40
0.743861769983035
40
0.743861769983035
40
1
40
1
40
1
40
1
41
1
10
15.8558778071551
20
13.2191433568643
30
0
41
1
10
15.847563680795
20
13.2184393379674
30
0
41
1
10
15.8392704876611
20
13.2173772159584
30
0
41
1
10
15.801886732003
20
13.2109519928678
30
0
41
1
10
15.7732200701986
20
13.2013157529939
30
0
41
1
10
15.7210239431165
20
13.1745541201569
30
0
41
1
10
15.696887356373
20
13.1570177974882
30
0
41
1
10
15.654623392716
20
13.1157077879429
30
0
41
1
10
15.6364273756259
20
13.0911124753503
30
0
41
1
10
15.6078382461007
20
13.0373132720299
30
0
41
1
10
15.5977781453413
20
13.0072633634657
30
0
41
1
10
15.5926592336772
20
12.9772029894741
30
0
0
SPLINE
5
94
100
AcDbEntity
8
1
62
256
6
ByLayer
370
-1
48
1
60
0
100
AcDbSpline
70
4
71
3
72
14
73
10
40
0
40
0
40
0
40
0
40
0.283021860096503
40
0.283021860096503
40
0.569463337138611
40
0.569463337138611
40
0.828723997715543
40
0.828723997715543
40
1
40
1
40
1
40
1
41
1
10
15.8397621236864
20
10.0691855451302
30
0
41
1
10
15.8511913504569
20
10.0377851990964
30
0
41
1
10
15.8685041031385
20
10.0074107527964
30
0
41
1
10
15.9135341944852
20
9.95400461160017
30
0
41
1
10
15.9421215630481
20
9.93027871265892
30
0
41
1
10
16.0035164060961
20
9.89679214204506
30
0
41
1
10
16.0366221830776
20
9.88546739835792
30
0
41
1
10
16.0928846617333
20
9.87695196798992
30
0
41
1
10
16.1160440138089
20
9.87617408106857
30
0
41
1
10
16.1387887855705
20
9.87810005000759
30
0
0
SPLINE
5
95
100
AcDbEntity
8
1
62
256
6
ByLayer
370
-1
48
1
60
0
100
AcDbSpline
70
4
71
3
72
16
73
12
40
0
40
0
40
0
40
0
40
0.062946429235338
40
0.062946429235338
40
0.285820458820229
40
0.285820458820229
40
0.511490282510635
40
0.511490282510635
40
0.751616482465804
40
0.751616482465804
40
1
40
1
40
1
40
1
41
1
10
14.6240248941124
20
10.5870208078934
30
0
41
1
10
14.6288549907367
20
10.580122715027
30
0
41
1
10
14.6339898163189
20
10.5734262548986
30
0
41
1
10
14.658398774597
20
10.5442930017176
30
0
41
1
10
14.6811467048826
20
10.5243681251055
30
0
41
1
10
14.730532423255
20
10.4927222627009
30
0
41
1
10
14.7578312232461
20
10.4806845737512
30
0
41
1
10
14.8147989528345
20
10.4649398699664
30
0
41
1
10
14.8452125702539
20
10.4615879232072
30
0
41
1
10
14.9048711151383
20
10.463900455597
30
0
41
1
10
14.9347129334292
20
10.4698762550551
30
0
41
1
10
14.9623177224034
20
10.479836045494
30
0
0
SPLINE
5
96
100
AcDbEntity
8
1
62
256
6
ByLayer
370
-1
48
1
60
0
100
AcDbSpline
70
4
71
3
72
16
73
12
40
0
40
0
40
0
40
0
40
0.0570890854676052
40
0.0570890854676052
40
0.280047480033114
40
0.280047480033114
40
0.505467437587758
40
0.505467437587758
40
0.745071805088795
40
0.745071805088795
40
1
40
1
40
1
40
1
41
1
10
14.4759370524662
20
12.2528984381482
30
0
41
1
10
14.4727265328839
20
12.2459629933256
30
0
41
1
10
14.4697858812427
20
12.2388946929782
30
0
41
1
10
14.4568383297782
20
12.2039696402393
30
0
41
1
10
14.450798611039
20
12.1743101222426
30
0
41
1
10
14.4477942775031
20
12.11571321453
30
0
41
1
10
14.4508689430956
20
12.0860422703134
30
0
41
1
10
14.4654205938056
20
12.0287979189105
30
0
41
1
10
14.4775655309183
20
12.0007491537859
30
0
41
1
10
14.5095406489773
20
11.9494046818847
30
0
41
1
10
14.5301645372334
20
11.9259011626392
30
0
41
1
10
14.5532255404163
20
11.9065502021283
30
0
0
SPLINE
5
97
100
AcDbEntity
8
1
62
256
6
ByLayer
370
-1
48
1
60
0
100
AcDbSpline
70
4
71
3
72
14
73
10
40
0
40
0
40
0
40
0
40
0.282369857467409
40
0.282369857467409
40
0.567077141419039
40
0.567077141419039
40
0.824678567700371
40
0.824678567700371
40
1
40
1
40
1
40
1
41
1
10
17.2013539081259
20
10.6797488967036
30
0
41
1
10
17.234424188016
20
10.6737175796942
30
0
41
1
10
17.2695974582459
20
10.6733516231596
30
0
41
1
10
17.3386852132355
20
10.6854332974907
30
0
41
1
10
17.373647487283
20
10.6982361317194
30
0
41
1
10
17.4335835248343
20
10.7345638795885
30
0
41
1
10
17.4600661488553
20
10.7575540465757
30
0
41
1
10
17.4961859665834
20
10.8025877828819
30
0
41
1
10
17.508823691584
20
10.8229461062811
30
0
41
1
10
17.5187295402595
20
10.8443449687236
30
0
0
SPLINE
5
98
100
AcDbEntity
8
1
62
256
6
ByLayer
370
-1
48
1
60
0
100
AcDbSpline
70
4
71
3
72
16
73
12
40
0
40
0
40
0
40
0
40
0.0570890854677248
40
0.0570890854677248
40
0.280047480033246
40
0.280047480033246
40
0.505467437587889
40
0.505467437587889
40
0.745071805088965
40
0.745071805088965
40
1
40
1
40
1
40
1
41
1
10
17.5187295402595
20
10.8443449687236
30
0
41
1
10
17.5219400598418
20
10.8512804135462
30
0
41
1
10
17.524880711483
20
10.8583487138937
30
0
41
1
10
17.5378282629475
20
10.8932737666326
30
0
41
1
10
17.5438679816866
20
10.9229332846292
30
0
41
1
10
17.5468723152225
20
10.9815301923419
30
0
41
1
10
17.54379764963
20
11.0112011365584
30
0
41
1
10
17.52924599892
20
11.0684454879614
30
0
41
1
10
17.5171010618073
20
11.096494253086
30
0
41
1
10
17.4851259437484
20
11.1478387249872
30
0
41
1
10
17.4645020554923
20
11.1713422442326
30
0
41
1
10
17.4414410523094
20
11.1906932047435
30
0
0
SPLINE
5
99
100
AcDbEntity
8
1
62
256
6
ByLayer
370
-1
48
1
60
0
100
AcDbSpline
70
4
71
3
72
18
73
14
40
0
40
0
40
0
40
0
40
0.212487430164483
40
0.212487430164483
40
0.386614756164429
40
0.386614756164429
40
0.562423635201141
40
0.562423635201141
40
0.715385836585626
40
0.715385836585626
40
0.918245866817193
40
0.918245866817193
40
1
40
1
40
1
40
1
41
1
10
16.1549044690392
20
13.0280578617418
30
0
41
1
10
16.1791790822693
20
12.9613664511528
30
0
41
1
10
16.214782616102
20
12.8962492087254
30
0
41
1
10
16.2993274730209
20
12.7892256504667
30
0
41
1
10
16.3457808898755
20
12.7441435711943
30
0
41
1
10
16.4510258921263
20
12.6682384253076
30
0
41
1
10
16.5116029799298
20
12.6365862705794
30
0
41
1
10
16.6279080221647
20
12.5960229423373
30
0
41
1
10
16.6846009435888
20
12.5841246654397
30
0
41
1
10
16.8126741992161
20
12.5729233159433
30
0
41
1
10
16.8850135942862
20
12.5785552108246
30
0
41
1
10
16.9796168229452
20
12.6001555244157
30
0
41
1
10
17.0063860120989
20
12.6080399785176
30
0
41
1
10
17.0323488703223
20
12.6174073613779
30
0
0
SPLINE
5
9A
100
AcDbEntity
8
1
62
256
6
ByLayer
370
-1
48
1
60
0
100
AcDbSpline
70
4
71
3
72
14
73
10
40
0
40
0
40
0
40
0
40
0.283021860095981
40
0.283021860095981
40
0.569463337138266
40
0.569463337138266
40
0.828723997715294
40
0.828723997715294
40
1
40
1
40
1
40
1
41
1
10
16.1549044690392
20
13.0280578617418
30
0
41
1
10
16.1434752422687
20
13.0594582077755
30
0
41
1
10
16.1261624895871
20
13.0898326540754
30
0
41
1
10
16.0811323982405
20
13.1432387952716
30
0
41
1
10
16.0525450296776
20
13.1669646942129
30
0
41
1
10
15.9911501866296
20
13.2004512648268
30
0
41
1
10
15.9580444096481
20
13.2117760085139
30
0
41
1
10
15.9017819309925
20
13.2202914388819
30
0
41
1
10
15.8786225789168
20
13.2210693258033
30
0
41
1
10
15.8558778071551
20
13.2191433568643
30
0
0
SPLINE
5
9B
100
AcDbEntity
8
1
62
256
6
ByLayer
370
-1
48
1
60
0
100
AcDbSpline
70
4
71
3
72
12
73
8
40
0
40
0
40
0
40
0
40
0.422118807842567
40
0.422118807842567
40
0.843213966568022
40
0.843213966568022
40
1
40
1
40
1
40
1
41
1
10
16.6195337538105
20
10.5149346904809
30
0
41
1
10
16.5690121520298
20
10.469495948575
30
0
41
1
10
16.5256215162839
20
10.416415613176
30
0
41
1
10
16.4583453141219
20
10.3056980519374
30
0
41
1
10
16.4333330228404
20
10.2466287497277
30
0
41
1
10
16.4108130013696
20
10.1649704674841
30
0
41
1
10
16.4058353222185
20
10.1425198059999
30
0
41
1
10
16.4020073590484
20
10.1200404173977
30
0
0
SPLINE
5
9C
100
AcDbEntity
8
1
62
256
6
ByLayer
370
-1
48
1
60
0
100
AcDbSpline
70
4
71
3
72
12
73
8
40
0
40
0
40
0
40
0
40
0.422118808090216
40
0.422118808090216
40
0.843213966860644
40
0.843213966860644
40
1
40
1
40
1
40
1
41
1
10
15.3751328389151
20
12.5823087163909
30
0
41
1
10
15.4256544407254
20
12.6277474583235
30
0
41
1
10
15.4690450764924
20
12.6808277937583
30
0
41
1
10
15.5363212786567
20
12.7915453550428
30
0
41
1
10
15.5613335699296
20
12.8506146572612
30
0
41
1
10
15.5838535913747
20
12.9322729394714
30
0
41
1
10
15.5888312705144
20
12.9547236009138
30
0
41
1
10
15.5926592336772
20
12.9772029894741
30
0
0
LINE
5
4C
100
AcDbEntity
8
80
62
256
6
ByLayer
370
-1
48
1
60
0
100
AcDbLine
10
0
20
0
30
0
11
-5
21
0
31
0
39
0
210
0
220
0
230
1
0
LINE
5
4D
100
AcDbEntity
8
81
62
256
6
ByLayer
370
-1
48
1
60
0
100
AcDbLine
10
27.602347
20
19.9125
30
0
11
37.602347
21
19.9125
31
0
39
0
210
0
220
0
230
1
0
LINE
5
4E
100
AcDbEntity
8
1
62
256
6
ByLayer
370
-1
48
1
60
0
100
AcDbLine
10
7.226515
20
1.974497
30
0
11
9.063773
21
4.368858
31
0
39
0
210
0
220
0
230
1
0
LINE
5
50
100
AcDbEntity
8
1
62
256
6
ByLayer
370
-1
48
1
60
0
100
AcDbLine
10
3.763661
20
15.201161
30
0
11
11.865093
21
15.201161
31
0
39
0
210
0
220
0
230
1
0
LINE
5
51
100
AcDbEntity
8
1
62
256
6
ByLayer
370
-1
48
1
60
0
100
AcDbLine
10
4.207233
20
-12.436012
30
0
11
18.331188
21
5.96662
31
0
39
0
210
0
220
0
230
1
0
LINE
5
52
100
AcDbEntity
8
1
62
256
6
ByLayer
370
-1
48
1
60
0
100
AcDbLine
10
0
20
12.4375
30
0
11
0
21
-12.436012
31
0
39
0
210
0
220
0
230
1
0
LINE
5
53
100
AcDbEntity
8
1
62
256
6
ByLayer
370
-1
48
1
60
0
100
AcDbLine
10
17.571644
20
7.051361
30
0
11
18.331188
21
5.96662
31
0
39
0
210
0
220
0
230
1
0
LINE
5
54
100
AcDbEntity
8
1
62
256
6
ByLayer
370
-1
48
1
60
0
100
AcDbLine
10
12.280062
20
15.201161
30
0
11
11.865093
21
15.201161
31
0
39
0
210
0
220
0
230
1
0
LINE
5
55
100
AcDbEntity
8
1
62
256
6
ByLayer
370
-1
48
1
60
0
100
AcDbLine
10
7.496194
20
1.767565
30
0
11
9.628968
21
4.547051
31
0
39
0
210
0
220
0
230
1
0
LINE
5
56
100
AcDbEntity
8
1
62
256
6
ByLayer
370
-1
48
1
60
0
100
AcDbLine
10
12.797028
20
15.201161
30
0
11
12.280062
21
15.201161
31
0
39
0
210
0
220
0
230
1
0
LINE
5
57
100
AcDbEntity
8
1
62
256
6
ByLayer
370
-1
48
1
60
0
100
AcDbLine
10
0
20
-12.436012
30
0
11
4.207233
21
-12.436012
31
0
39
0
210
0
220
0
230
1
0
LINE
5
58
100
AcDbEntity
8
1
62
256
6
ByLayer
370
-1
48
1
60
0
100
AcDbLine
10
11.865093
20
15.201161
30
0
11
12.309747
21
14.566129
31
0
39
0
210
0
220
0
230
1
0
LINE
5
59
100
AcDbEntity
8
1
62
256
6
ByLayer
370
-1
48
1
60
0
100
AcDbLine
10
18.619088
20
6.341735
30
0
11
18.548185
21
6.249353
31
0
39
0
210
0
220
0
230
1
0
LINE
5
5A
100
AcDbEntity
8
1
62
256
6
ByLayer
370
-1
48
1
60
0
100
AcDbLine
10
1
20
12.4375
30
0
11
0
21
12.4375
31
0
39
0
210
0
220
0
230
1
0
LINE
5
5B
100
AcDbEntity
8
1
62
256
6
ByLayer
370
-1
48
1
60
0
100
AcDbLine
10
7.496194
20
1.767565
30
0
11
7.226515
21
1.974497
31
0
39
0
210
0
220
0
230
1
0
LINE
5
5C
100
AcDbEntity
8
1
62
256
6
ByLayer
370
-1
48
1
60
0
100
AcDbLine
10
3.763661
20
15.201161
30
0
11
1
21
12.4375
31
0
39
0
210
0
220
0
230
1
0
LINE
5
5D
100
AcDbEntity
8
1
62
256
6
ByLayer
370
-1
48
1
60
0
100
AcDbLine
10
12.280062
20
15.201161
30
0
11
12.526717
21
14.848901
31
0
39
0
210
0
220
0
230
1
0
LINE
5
5E
100
AcDbEntity
8
1
62
256
6
ByLayer
370
-1
48
1
60
0
100
AcDbLine
10
18.548185
20
6.249353
30
0
11
18.331188
21
5.96662
31
0
39
0
210
0
220
0
230
1
0
LINE
5
5F
100
AcDbEntity
8
1
62
256
6
ByLayer
370
-1
48
1
60
0
100
AcDbLine
10
17.911559
20
7.15855
30
0
11
18.548185
21
6.249353
31
0
39
0
210
0
220
0
230
1
0
LINE
5
60
100
AcDbEntity
8
1
62
256
6
ByLayer
370
-1
48
1
60
0
100
AcDbLine
10
13.252935
20
15.676936
30
0
11
26.680962
21
19.910777
31
0
39
0
210
0
220
0
230
1
0
LINE
5
61
100
AcDbEntity
8
1
62
256
6
ByLayer
370
-1
48
1
60
0
100
AcDbLine
10
4.485461
20
4.36932
30
0
11
13.056626
21
15.539479
31
0
39
0
210
0
220
0
230
1
0
LINE
5
62
100
AcDbEntity
8
1
62
256
6
ByLayer
370
-1
48
1
60
0
100
AcDbLine
10
18.741731
20
7.420307
30
0
11
5.313704
21
3.186466
31
0
39
0
210
0
220
0
230
1
0
LINE
5
63
100
AcDbEntity
8
SK1
62
256
6
ByLayer
370
-1
48
1
60
0
100
AcDbLine
10
-0.15
20
-12.436667
30
0
11
0
21
-12.436012
31
0
39
0
210
0
220
0
230
1
0
LINE
5
65
100
AcDbEntity
8
SK1
62
256
6
ByLayer
370
-1
48
1
60
0
100
AcDbLine
10
-143.747653
20
12.4375
30
0
11
-143.747653
21
-12.4375
31
0
39
0
210
0
220
0
230
1
0
LINE
5
66
100
AcDbEntity
8
1
62
256
6
ByLayer
370
-1
48
1
60
0
100
AcDbLine
10
27.509205
20
18.727923
30
0
11
18.938041
21
7.557764
31
0
39
0
210
0
220
0
230
1
0
LINE
5
67
100
AcDbEntity
8
SK1
62
256
6
ByLayer
370
-1
48
1
60
0
100
AcDbLine
10
-143.747653
20
-12.4375
30
0
11
-0.15
21
-12.4375
31
0
39
0
210
0
220
0
230
1
0
LINE
5
68
100
AcDbEntity
8
SK1
62
256
6
ByLayer
370
-1
48
1
60
0
100
AcDbLine
10
-0.15
20
12.4375
30
0
11
-0.15
21
-12.4375
31
0
39
0
210
0
220
0
230
1
0
LINE
5
69
100
AcDbEntity
8
SK1
62
256
6
ByLayer
370
-1
48
1
60
0
100
AcDbLine
10
-0.15
20
12.4375
30
0
11
-143.747653
21
12.4375
31
0
39
0
210
0
220
0
230
1
0
LINE
5
6A
100
AcDbEntity
8
SK1
62
256
6
ByLayer
370
-1
48
1
60
0
100
AcDbLine
10
0
20
12.4375
30
0
11
0
21
-12.436012
31
0
39
0
210
0
220
0
230
1
0
LINE
5
6B
100
AcDbEntity
8
SK1
62
256
6
ByLayer
370
-1
48
1
60
0
100
AcDbLine
10
0
20
12.4375
30
0
11
-0.15
21
12.4375
31
0
39
0
210
0
220
0
230
1
0
MTEXT
5
9D
100
AcDbEntity
8
SK6
62
256
6
ByLayer
370
-1
48
1
60
0
100
AcDbMText
10
-85.246714
20
-24.400493
30
0
210
0
220
0
230
1
1
\W00.759;\fsimplex.shx,bigfont.shx;SVHBR 3225P 16 
40
3.5
41
0
44
1.084337
50
0
71
7
72
5
7
DEFAULT
0
DIMENSION
5
D0
100
AcDbEntity
8
2
62
256
6
ByLayer
370
-3
48
1
60
0
100
AcDbDimension
2
DimnDraft3D1
10
13.995093
20
15.910938
30
0
11
10.506396
21
21.43696
31
0
70
34
71
5
72
1
41
1
210
0
220
0
230
1
3
Standard
100
AcDb2LineAngularDimension
13
27.602347
23
21.9125
33
0
14
27.602347
24
34.46889
34
0
15
23.708761
25
18.973645
35
0
16
14.080205
26
30.116133
36
0
40
0
0
DIMENSION
5
E5
100
AcDbEntity
8
SK2
62
256
6
ByLayer
370
-3
48
1
60
0
100
AcDbDimension
2
DimnDraft3D2
10
-153.497653
20
12.4375
30
0
11
-153.497653
21
-2.628947
31
0
70
32
71
5
72
1
41
1
210
0
220
0
230
1
3
Standard
100
AcDbAlignedDimension
13
-145.747653
23
-12.4375
33
0
14
-145.747653
24
12.4375
34
0
50
90
100
AcDbRotatedDimension
1001
ACAD
1000
DSTYLE
1002
{
1070
    74
1070
     0
1070
   279
1070
     0
1070
   172
1070
     1
1070
   173
1070
     1
1070
   340
1005
9E
1070
    77
1070
     1
1070
    73
1070
     0
1070
   171
1070
     3
1070
   274
1070
     4
1070
   177
1070
     2
1070
   176
1070
     2
1070
   178
1070
     7
1070
    78
1070
     8
1070
    41
1041
3.175
1070
   147
1041
2.25
1070
    42
1041
2.0
1070
    44
1041
2.0
1070
   140
1041
4.5
1070
   343
1005
D1
1070
   344
1005
D1
1002
}
0
DIMENSION
5
F3
100
AcDbEntity
8
2
62
256
6
ByLayer
370
-3
48
1
60
0
100
AcDbDimension
2
DimnDraft3D3
10
54.852347
20
19.9125
30
0
11
54.852347
21
1.108553
31
0
70
32
71
5
72
1
41
1
210
0
220
0
230
1
3
Standard
100
AcDbAlignedDimension
13
2
23
-12.4375
33
0
14
29.602347
24
19.9125
34
0
50
90
100
AcDbRotatedDimension
1001
ACAD
1000
DSTYLE
1002
{
1070
    74
1070
     0
1070
   279
1070
     0
1070
   172
1070
     1
1070
   173
1070
     1
1070
   340
1005
9E
1070
    77
1070
     1
1070
    73
1070
     0
1070
   171
1070
     3
1070
   274
1070
     4
1070
   177
1070
     2
1070
   176
1070
     2
1070
   178
1070
     7
1070
    78
1070
     8
1070
    41
1041
3.175
1070
   147
1041
2.25
1070
    42
1041
2.0
1070
    44
1041
2.0
1070
   140
1041
4.5
1070
   343
1005
D1
1070
   344
1005
D1
1002
}
0
DIMENSION
5
101
100
AcDbEntity
8
SK2
62
256
6
ByLayer
370
-3
48
1
60
0
100
AcDbDimension
2
DimnDraft3D4
10
-143.747653
20
39.6625
30
0
11
-61.791074
21
39.6625
31
0
70
32
71
5
72
1
41
1
210
0
220
0
230
1
3
Standard
100
AcDbAlignedDimension
13
27.602347
23
21.9125
33
0
14
-143.747653
24
14.4375
34
0
50
0
100
AcDbRotatedDimension
1001
ACAD
1000
DSTYLE
1002
{
1070
   279
1070
     0
1070
   172
1070
     1
1070
   173
1070
     1
1070
   340
1005
9E
1070
    77
1070
     1
1070
    73
1070
     0
1070
   171
1070
     3
1070
   274
1070
     4
1070
   177
1070
     2
1070
   176
1070
     2
1070
   178
1070
     7
1070
    78
1070
     8
1070
    41
1041
3.175
1070
   147
1041
2.25
1070
    42
1041
2.0
1070
    44
1041
2.0
1070
   140
1041
4.5
1070
   343
1005
D1
1070
   344
1005
D1
1002
}
0
ENDSEC
0
SECTION
2
OBJECTS
0
DICTIONARY
5
131
330
0
100
AcDbDictionary
280
0
281
1
3
ACAD_GROUP
350
132
3
ACAD_MLINESTYLE
350
133
0
DICTIONARY
5
132
330
0
100
AcDbDictionary
280
0
281
1
0
DICTIONARY
5
133
330
0
100
AcDbDictionary
280
0
281
1
3
Standard
350
18
0
MLINESTYLE
5
18
330
133
100
AcDbMlineStyle
2
Standard
70
0
3

62
256
51
90
52
90
71
2
49
-0.5
62
256
6
ByLayer
49
0.5
62
256
6
ByLayer
0
RASTERVARIABLES
5
120
330

100
AcDbRasterVariables
90
0
70
1
71
1
72
1
0
ENDSEC
0
EOF
