0
SECTION
2
HEADER
9
$ACADVER
1
AC1015
9
$DWGCODEPAGE
3
ANSI_1252
9
$HANDSEED
5
139
9
$ANGBASE
50
0
9
$ANGDIR
70
0
9
$ATTMODE
70
1
9
$AUNITS
70
0
9
$AUPREC
70
0
9
$CECOLOR
62
256
9
$CELTSCALE
40
1
9
$CELTYPE
6
ByLayer
9
$CELWEIGHT
370
-1
9
$CLAYER
8
0
9
$CMLJUST
70
0
9
$CMLSCALE
40
1
9
$CMLSTYLE
2
Standard
9
$DIMSTYLE
2
Standard
9
$TEXTSIZE
40
0.2
9
$TEXTSTYLE
7
Standard
9
$LUNITS
70
2
9
$LUPREC
70
4
9
$EXTNAMES
290
1
9
$INSUNITS
70
4
9
$LTSCALE
40
1
9
$LWDISPLAY
290
0
9
$PDMODE
70
0
9
$PDSIZE
40
0
9
$PLINEGEN
70
0
0
ENDSEC
0
SECTION
2
CLASSES
0
CLASS
1
RASTERVARIABLES
2
AcDbRasterVariables
3
ISM
90
0
280
0
281
0
0
ENDSEC
0
SECTION
2
TABLES
0
TABLE
2
VPORT
5
12f
100
AcDbSymbolTable
0
VPORT
5
1
100
AcDbSymbolTableRecord
100
AcDbViewportTableRecord
2
*Active
70
0
10
0
20
0
11
1
21
1
12
-1
22
1
13
0
23
0
14
0.5
24
0.5
15
10
25
10
16
0
26
0
36
1
17
0
27
0
37
0
0
ENDTAB
0
TABLE
2
LTYPE
5
130
100
AcDbSymbolTable
0
LTYPE
5
14
100
AcDbSymbolTableRecord
100
AcDbLinetypeTableRecord
70
0
2
ByBlock
3

72
65
73
0
40
0
0
LTYPE
5
15
100
AcDbSymbolTableRecord
100
AcDbLinetypeTableRecord
70
0
2
ByLayer
3

72
65
73
0
40
0
0
LTYPE
5
16
100
AcDbSymbolTableRecord
100
AcDbLinetypeTableRecord
70
0
2
CONTINUOUS
3
Solid line
72
65
73
0
40
0
0
LTYPE
5
3B
100
AcDbSymbolTableRecord
100
AcDbLinetypeTableRecord
70
0
2
DASHED
3
__ __ __ __ __ __ __ __ __
72
65
73
2
40
25.72
49
12.86
74
0
49
-12.86
74
0
0
LTYPE
5
3C
100
AcDbSymbolTableRecord
100
AcDbLinetypeTableRecord
70
0
2
HIDDEN
3
_ _ _ _ _ _ _ _ _ _ _ _ _ _ _
72
65
73
2
40
0.5
49
0.25
74
0
49
-0.25
74
0
0
LTYPE
5
3D
100
AcDbSymbolTableRecord
100
AcDbLinetypeTableRecord
70
0
2
PHANTOM
3
____ _ _ ____ _ _ _____ _ _ ____
72
65
73
6
40
50.5
49
18
74
0
49
-6.5
74
0
49
6.5
74
0
49
-6.5
74
0
49
6.5
74
0
49
-6.5
74
0
0
LTYPE
5
3E
100
AcDbSymbolTableRecord
100
AcDbLinetypeTableRecord
70
0
2
CENTER
3
____ _ ____ _ ____ _ ____
72
65
73
4
40
47.5
49
22
74
0
49
-8.5
74
0
49
8.5
74
0
49
-8.5
74
0
0
LTYPE
5
3F
100
AcDbSymbolTableRecord
100
AcDbLinetypeTableRecord
70
0
2
DOT
3
.........................
72
65
73
2
40
10
49
0
74
0
49
-10
74
0
0
LTYPE
5
40
100
AcDbSymbolTableRecord
100
AcDbLinetypeTableRecord
70
0
2
DASHDOT
3
_._._._._._._._._._._._._._._._.
72
65
73
4
40
70
49
31
74
0
49
-13
74
0
49
13
74
0
49
-13
74
0
0
ENDTAB
0
TABLE
2
LAYER
5
131
100
AcDbSymbolTable
0
LAYER
5
10
100
AcDbSymbolTableRecord
100
AcDbLayerTableRecord
2
0
70
0
62
7
6
CONTINUOUS
290
1
370
-3
390
0
0
LAYER
5
45
100
AcDbSymbolTableRecord
100
AcDbLayerTableRecord
2
80
70
0
62
-6
6
CONTINUOUS
290
1
370
-3
390
0
0
LAYER
5
49
100
AcDbSymbolTableRecord
100
AcDbLayerTableRecord
2
2
70
0
62
7
6
CONTINUOUS
290
1
370
-3
390
0
0
LAYER
5
4B
100
AcDbSymbolTableRecord
100
AcDbLayerTableRecord
2
81
70
0
62
-3
6
CONTINUOUS
290
1
370
-3
390
0
0
LAYER
5
4F
100
AcDbSymbolTableRecord
100
AcDbLayerTableRecord
2
1
70
0
62
4
6
CONTINUOUS
290
1
370
-3
390
0
0
LAYER
5
11c
100
AcDbSymbolTableRecord
100
AcDbLayerTableRecord
2
SK2
70
0
62
7
6
CONTINUOUS
290
1
370
-3
390
0
0
LAYER
5
11d
100
AcDbSymbolTableRecord
100
AcDbLayerTableRecord
2
SK1
70
0
62
4
6
CONTINUOUS
290
1
370
-3
390
0
0
LAYER
5
11e
100
AcDbSymbolTableRecord
100
AcDbLayerTableRecord
2
SK6
70
0
62
5
6
CONTINUOUS
290
1
370
-3
390
0
0
ENDTAB
0
TABLE
2
STYLE
5
132
100
AcDbSymbolTable
0
STYLE
5
11
100
AcDbSymbolTableRecord
100
AcDbTextStyleTableRecord
2
Standard
3
txt
70
0
71
0
40
0
41
1
42
0
50
0
0
STYLE
5
99
100
AcDbSymbolTableRecord
100
AcDbTextStyleTableRecord
2
DEFAULT
3
simplex.shx
70
0
71
0
40
0
41
1
42
0
50
0
0
STYLE
5
BC
100
AcDbSymbolTableRecord
100
AcDbTextStyleTableRecord
2
DWGDirectTextStyle
3
SIMPLEX
70
0
71
0
40
0
41
1
42
0
50
0
0
ENDTAB
0
TABLE
2
DIMSTYLE
5
133
100
AcDbSymbolTable
100
AcDbDimStyleTable
0
DIMSTYLE
105
27
100
AcDbSymbolTableRecord
100
AcDbDimStyleTableRecord
2
Standard
70
0
3
<>
41
0.18
42
0.0625
44
0.18
140
0.18
147
0.09
73
0
74
0
77
1
271
2
275
0
278
52
280
0
340
11
0
ENDTAB
0
TABLE
2
VIEW
5
134
100
AcDbSymbolTable
0
ENDTAB
0
TABLE
2
UCS
5
135
100
AcDbSymbolTable
0
ENDTAB
0
TABLE
2
APPID
5
136
100
AcDbSymbolTable
0
APPID
5
12
100
AcDbSymbolTableRecord
100
AcDbRegAppTableRecord
2
ACAD
70
0
0
ENDTAB
0
TABLE
2
BLOCK_RECORD
5
137
100
AcDbSymbolTable
0
BLOCK_RECORD
5
1F
100
AcDbSymbolTableRecord
100
AcDbBlockTableRecord
2
*Model_Space
340
0
70
0
0
BLOCK_RECORD
5
1B
100
AcDbSymbolTableRecord
100
AcDbBlockTableRecord
2
*Paper_Space
340
0
70
0
0
BLOCK_RECORD
5
23
100
AcDbSymbolTableRecord
100
AcDbBlockTableRecord
2
*Paper_Space0
340
0
70
0
0
BLOCK_RECORD
5
BE
100
AcDbSymbolTableRecord
100
AcDbBlockTableRecord
2
DimnDraft3D11
340
0
70
0
0
BLOCK_RECORD
5
CC
100
AcDbSymbolTableRecord
100
AcDbBlockTableRecord
2
DimnDraft3D2
340
0
70
0
0
BLOCK_RECORD
5
DA
100
AcDbSymbolTableRecord
100
AcDbBlockTableRecord
2
_CLOSED
340
0
70
0
0
BLOCK_RECORD
5
E1
100
AcDbSymbolTableRecord
100
AcDbBlockTableRecord
2
DimnDraft3D3
340
0
70
0
0
BLOCK_RECORD
5
EF
100
AcDbSymbolTableRecord
100
AcDbBlockTableRecord
2
DimnDraft3D4
340
0
70
0
0
ENDTAB
0
ENDSEC
0
SECTION
2
BLOCKS
0
BLOCK
5
20
100
AcDbEntity
8
0
100
AcDbBlockBegin
2
*Model_Space
70
0
10
0
20
0
30
0
3
*Model_Space
0
ENDBLK
5
21
100
AcDbEntity
8
0
100
AcDbBlockEnd
0
BLOCK
5
1C
100
AcDbEntity
8
0
100
AcDbBlockBegin
2
*Paper_Space
70
0
10
0
20
0
30
0
3
*Paper_Space
0
ENDBLK
5
1D
100
AcDbEntity
8
0
100
AcDbBlockEnd
0
BLOCK
5
24
100
AcDbEntity
8
0
100
AcDbBlockBegin
2
*Paper_Space0
70
0
10
0
20
0
30
0
3
*Paper_Space0
0
ENDBLK
5
25
100
AcDbEntity
8
0
100
AcDbBlockEnd
0
BLOCK
5
BF
100
AcDbEntity
8
0
100
AcDbBlockBegin
2
DimnDraft3D11
70
0
10
0
20
0
30
0
3
DimnDraft3D11
0
LINE
5
C1
100
AcDbEntity
8
SK2
62
256
6
ByLayer
370
-1
48
1
60
0
100
AcDbLine
10
21.25625
20
-9.747978
30
0
11
21.25625
21
-33.997978
31
0
39
0
210
0
220
0
230
1
0
LINE
5
C2
100
AcDbEntity
8
SK2
62
256
6
ByLayer
370
-1
48
1
60
0
100
AcDbLine
10
-105.09375
20
-11.9375
30
0
11
-105.09375
21
-33.997978
31
0
39
0
210
0
220
0
230
1
0
LINE
5
C3
100
AcDbEntity
8
SK2
62
256
6
ByLayer
370
-1
48
1
60
0
100
AcDbLine
10
21.25625
20
-31.997978
30
0
11
-105.09375
21
-31.997978
31
0
39
0
210
0
220
0
230
1
0
LINE
5
C4
100
AcDbEntity
8
SK2
62
256
6
ByLayer
370
-1
48
1
60
0
100
AcDbLine
10
21.25625
20
-31.997978
30
0
11
18.081252
21
-32.415975
31
0
39
0
210
0
220
0
230
1
0
LINE
5
C5
100
AcDbEntity
8
SK2
62
256
6
ByLayer
370
-1
48
1
60
0
100
AcDbLine
10
21.25625
20
-31.997978
30
0
11
18.081248
21
-31.579982
31
0
39
0
210
0
220
0
230
1
0
LINE
5
C6
100
AcDbEntity
8
SK2
62
256
6
ByLayer
370
-1
48
1
60
0
100
AcDbLine
10
18.081252
20
-32.415975
30
0
11
18.081248
21
-31.579982
31
0
39
0
210
0
220
0
230
1
0
LINE
5
C7
100
AcDbEntity
8
SK2
62
256
6
ByLayer
370
-1
48
1
60
0
100
AcDbLine
10
-105.09375
20
-31.997978
30
0
11
-101.918752
21
-31.579982
31
0
39
0
210
0
220
0
230
1
0
LINE
5
C8
100
AcDbEntity
8
SK2
62
256
6
ByLayer
370
-1
48
1
60
0
100
AcDbLine
10
-105.09375
20
-31.997978
30
0
11
-101.918748
21
-32.415975
31
0
39
0
210
0
220
0
230
1
0
LINE
5
C9
100
AcDbEntity
8
SK2
62
256
6
ByLayer
370
-1
48
1
60
0
100
AcDbLine
10
-101.918752
20
-31.579982
30
0
11
-101.918748
21
-32.415975
31
0
39
0
210
0
220
0
230
1
0
MTEXT
5
CA
100
AcDbEntity
8
SK2
62
256
6
ByLayer
370
-1
48
1
60
0
100
AcDbMText
10
-44.512171
20
-30.872978
30
0
210
0
220
0
230
1
1
\W00.604;\fsimplex.shx,bigfont.shx;125 
40
4.5
41
0
44
1.084337
50
0
71
7
72
5
7
DEFAULT
0
ENDBLK
5
C0
100
AcDbEntity
8
0
100
AcDbBlockEnd
0
BLOCK
5
D7
100
AcDbEntity
8
0
100
AcDbBlockBegin
2
DimnDraft3D2
70
0
10
0
20
0
30
0
3
DimnDraft3D2
0
MTEXT
5
CD
100
AcDbEntity
8
2
62
256
6
ByLayer
370
-1
48
1
60
0
100
AcDbMText
10
6.420827
20
-22.616101
30
0
210
0
220
0
230
1
1
\W01.000;\fsimplex.shx,bigfont.shx;60%%d0' 
40
4.5
41
0
44
1.084337
50
330
71
7
72
5
7
DEFAULT
0
LINE
5
CE
100
AcDbEntity
8
2
62
256
6
ByLayer
370
-1
48
1
60
0
100
AcDbLine
10
21.25625
20
-9.747978
30
0
11
21.25625
21
-31.121917
31
0
39
0
210
0
220
0
230
1
0
LINE
5
CF
100
AcDbEntity
8
2
62
256
6
ByLayer
370
-1
48
1
60
0
100
AcDbLine
10
18.261299
20
-9.141636
30
0
11
0.723293
21
-19.267208
31
0
39
0
210
0
220
0
230
1
0
ARC
5
D0
100
AcDbEntity
8
2
62
256
6
ByLayer
370
-1
48
1
60
0
100
AcDbCircle
39
0
10
21.25625
20
-7.4125
30
0
40
21.7094166965368
210
0
220
0
230
1
100
AcDbArc
50
182.606434
51
297.393566
0
LINE
5
D1
100
AcDbEntity
8
2
62
256
6
ByLayer
370
-1
48
1
60
0
100
AcDbLine
10
21.25625
20
-29.121917
30
0
11
24.413882
21
-28.588345
31
0
39
0
210
0
220
0
230
1
0
LINE
5
D2
100
AcDbEntity
8
2
62
256
6
ByLayer
370
-1
48
1
60
0
100
AcDbLine
10
21.25625
20
-29.121917
30
0
11
24.44439
21
-29.423781
31
0
39
0
210
0
220
0
230
1
0
LINE
5
D3
100
AcDbEntity
8
2
62
256
6
ByLayer
370
-1
48
1
60
0
100
AcDbLine
10
24.413882
20
-28.588345
30
0
11
24.44439
21
-29.423781
31
0
39
0
210
0
220
0
230
1
0
LINE
5
D4
100
AcDbEntity
8
2
62
256
6
ByLayer
370
-1
48
1
60
0
100
AcDbLine
10
2.455344
20
-18.267208
30
0
11
0.599853
21
-15.657133
31
0
39
0
210
0
220
0
230
1
0
LINE
5
D5
100
AcDbEntity
8
2
62
256
6
ByLayer
370
-1
48
1
60
0
100
AcDbLine
10
2.455344
20
-18.267208
30
0
11
1.338613
21
-15.26583
31
0
39
0
210
0
220
0
230
1
0
LINE
5
D6
100
AcDbEntity
8
2
62
256
6
ByLayer
370
-1
48
1
60
0
100
AcDbLine
10
0.599853
20
-15.657133
30
0
11
1.338613
21
-15.26583
31
0
39
0
210
0
220
0
230
1
0
ENDBLK
5
D8
100
AcDbEntity
8
0
100
AcDbBlockEnd
0
BLOCK
5
DB
100
AcDbEntity
8
0
100
AcDbBlockBegin
2
_CLOSED
70
0
10
0
20
0
30
0
3
_CLOSED
0
LINE
5
DD
100
AcDbEntity
8
0
62
256
6
ByLayer
370
-2
48
1
60
0
100
AcDbLine
10
-1
20
0.166667
30
0
11
0
21
0
31
0
39
0
210
0
220
0
230
1
0
LINE
5
DE
100
AcDbEntity
8
0
62
256
6
ByLayer
370
-2
48
1
60
0
100
AcDbLine
10
0
20
0
30
0
11
-1
21
-0.166667
31
0
39
0
210
0
220
0
230
1
0
LINE
5
DF
100
AcDbEntity
8
0
62
256
6
ByLayer
370
-2
48
1
60
0
100
AcDbLine
10
-1
20
0.166667
30
0
11
-1
21
-0.166667
31
0
39
0
210
0
220
0
230
1
0
LINE
5
E0
100
AcDbEntity
8
0
62
256
6
ByLayer
370
-2
48
1
60
0
100
AcDbLine
10
0
20
0
30
0
11
-1
21
0
31
0
39
0
210
0
220
0
230
1
0
ENDBLK
5
DC
100
AcDbEntity
8
0
100
AcDbBlockEnd
0
BLOCK
5
EC
100
AcDbEntity
8
0
100
AcDbBlockBegin
2
DimnDraft3D3
70
0
10
0
20
0
30
0
3
DimnDraft3D3
0
MTEXT
5
E2
100
AcDbEntity
8
2
62
256
6
ByLayer
370
-1
48
1
60
0
100
AcDbMText
10
47.38125
20
0.321053
30
0
210
0
220
0
230
1
1
\W01.000;\fsimplex.shx,bigfont.shx;17 
40
4.5
41
0
44
1.084337
50
90
71
7
72
5
7
DEFAULT
0
LINE
5
E3
100
AcDbEntity
8
2
62
256
6
ByLayer
370
-1
48
1
60
0
100
AcDbLine
10
2
20
9.9375
30
0
11
50.50625
21
9.9375
31
0
39
0
210
0
220
0
230
1
0
LINE
5
E4
100
AcDbEntity
8
2
62
256
6
ByLayer
370
-1
48
1
60
0
100
AcDbLine
10
23.25625
20
-7.4125
30
0
11
50.50625
21
-7.4125
31
0
39
0
210
0
220
0
230
1
0
LINE
5
E5
100
AcDbEntity
8
2
62
256
6
ByLayer
370
-1
48
1
60
0
100
AcDbLine
10
48.50625
20
9.9375
30
0
11
48.50625
21
-7.4125
31
0
39
0
210
0
220
0
230
1
0
LINE
5
E6
100
AcDbEntity
8
2
62
256
6
ByLayer
370
-1
48
1
60
0
100
AcDbLine
10
48.50625
20
9.9375
30
0
11
48.924247
21
6.762502
31
0
39
0
210
0
220
0
230
1
0
LINE
5
E7
100
AcDbEntity
8
2
62
256
6
ByLayer
370
-1
48
1
60
0
100
AcDbLine
10
48.50625
20
9.9375
30
0
11
48.088253
21
6.762498
31
0
39
0
210
0
220
0
230
1
0
LINE
5
E8
100
AcDbEntity
8
2
62
256
6
ByLayer
370
-1
48
1
60
0
100
AcDbLine
10
48.924247
20
6.762502
30
0
11
48.088253
21
6.762498
31
0
39
0
210
0
220
0
230
1
0
LINE
5
E9
100
AcDbEntity
8
2
62
256
6
ByLayer
370
-1
48
1
60
0
100
AcDbLine
10
48.50625
20
-7.4125
30
0
11
48.088253
21
-4.237502
31
0
39
0
210
0
220
0
230
1
0
LINE
5
EA
100
AcDbEntity
8
2
62
256
6
ByLayer
370
-1
48
1
60
0
100
AcDbLine
10
48.50625
20
-7.4125
30
0
11
48.924247
21
-4.237498
31
0
39
0
210
0
220
0
230
1
0
LINE
5
EB
100
AcDbEntity
8
2
62
256
6
ByLayer
370
-1
48
1
60
0
100
AcDbLine
10
48.088253
20
-4.237502
30
0
11
48.924247
21
-4.237498
31
0
39
0
210
0
220
0
230
1
0
ENDBLK
5
ED
100
AcDbEntity
8
0
100
AcDbBlockEnd
0
BLOCK
5
FA
100
AcDbEntity
8
0
100
AcDbBlockBegin
2
DimnDraft3D4
70
0
10
0
20
0
30
0
3
DimnDraft3D4
0
MTEXT
5
F0
100
AcDbEntity
8
SK2
62
256
6
ByLayer
370
-1
48
1
60
0
100
AcDbMText
10
-115.96875
20
-1.503947
30
0
210
0
220
0
230
1
1
\W01.000;\fsimplex.shx,bigfont.shx;20 
40
4.5
41
0
44
1.084337
50
90
71
7
72
5
7
DEFAULT
0
LINE
5
F1
100
AcDbEntity
8
SK2
62
256
6
ByLayer
370
-1
48
1
60
0
100
AcDbLine
10
-107.09375
20
9.9375
30
0
11
-116.84375
21
9.9375
31
0
39
0
210
0
220
0
230
1
0
LINE
5
F2
100
AcDbEntity
8
SK2
62
256
6
ByLayer
370
-1
48
1
60
0
100
AcDbLine
10
-107.09375
20
-9.9375
30
0
11
-116.84375
21
-9.9375
31
0
39
0
210
0
220
0
230
1
0
LINE
5
F3
100
AcDbEntity
8
SK2
62
256
6
ByLayer
370
-1
48
1
60
0
100
AcDbLine
10
-114.84375
20
9.9375
30
0
11
-114.84375
21
-9.9375
31
0
39
0
210
0
220
0
230
1
0
LINE
5
F4
100
AcDbEntity
8
SK2
62
256
6
ByLayer
370
-1
48
1
60
0
100
AcDbLine
10
-114.84375
20
9.9375
30
0
11
-114.425753
21
6.762502
31
0
39
0
210
0
220
0
230
1
0
LINE
5
F5
100
AcDbEntity
8
SK2
62
256
6
ByLayer
370
-1
48
1
60
0
100
AcDbLine
10
-114.84375
20
9.9375
30
0
11
-115.261747
21
6.762498
31
0
39
0
210
0
220
0
230
1
0
LINE
5
F6
100
AcDbEntity
8
SK2
62
256
6
ByLayer
370
-1
48
1
60
0
100
AcDbLine
10
-114.425753
20
6.762502
30
0
11
-115.261747
21
6.762498
31
0
39
0
210
0
220
0
230
1
0
LINE
5
F7
100
AcDbEntity
8
SK2
62
256
6
ByLayer
370
-1
48
1
60
0
100
AcDbLine
10
-114.84375
20
-9.9375
30
0
11
-115.261747
21
-6.762502
31
0
39
0
210
0
220
0
230
1
0
LINE
5
F8
100
AcDbEntity
8
SK2
62
256
6
ByLayer
370
-1
48
1
60
0
100
AcDbLine
10
-114.84375
20
-9.9375
30
0
11
-114.425753
21
-6.762498
31
0
39
0
210
0
220
0
230
1
0
LINE
5
F9
100
AcDbEntity
8
SK2
62
256
6
ByLayer
370
-1
48
1
60
0
100
AcDbLine
10
-115.261747
20
-6.762502
30
0
11
-114.425753
21
-6.762498
31
0
39
0
210
0
220
0
230
1
0
ENDBLK
5
FB
100
AcDbEntity
8
0
100
AcDbBlockEnd
0
ENDSEC
0
SECTION
2
ENTITIES
0
ARC
5
69
100
AcDbEntity
8
1
62
256
6
ByLayer
370
-1
48
1
60
0
100
AcDbCircle
39
0
10
7.9
20
1.056507
30
0
40
1.50000000000001
210
0
220
0
230
1
100
AcDbArc
50
22.880957
51
264.736794
0
ARC
5
6A
100
AcDbEntity
8
1
62
256
6
ByLayer
370
-1
48
1
60
0
100
AcDbCircle
39
0
10
-9.67
20
-0.179228
30
0
40
1.859889010067
210
0
220
0
230
-1
100
AcDbArc
50
77.957942
51
180
0
ARC
5
6B
100
AcDbEntity
8
1
62
256
6
ByLayer
370
-1
48
1
60
0
100
AcDbCircle
39
0
10
-7.9
20
1.056507
30
0
40
1.50000000000001
210
0
220
0
230
-1
100
AcDbArc
50
166.163342
51
204.741927
0
ARC
5
6C
100
AcDbEntity
8
1
62
256
6
ByLayer
370
-1
48
1
60
0
100
AcDbCircle
39
0
10
-9.67
20
-0.179228
30
0
40
1.625
210
0
220
0
230
-1
100
AcDbArc
50
78.87558
51
180
0
ARC
5
6E
100
AcDbEntity
8
1
62
256
6
ByLayer
370
-1
48
1
60
0
100
AcDbCircle
39
0
10
8.5565
20
-0.080585
30
0
40
0.794000000000002
210
0
220
0
230
1
100
AcDbArc
50
60
51
180
0
ARC
5
6F
100
AcDbEntity
8
1
62
256
6
ByLayer
370
-1
48
1
60
0
100
AcDbCircle
39
0
10
12.525
20
-6.954228
30
0
40
1.6765
210
0
220
0
230
1
100
AcDbArc
50
120.159887
51
180
0
ARC
5
70
100
AcDbEntity
8
1
62
256
6
ByLayer
370
-1
48
1
60
0
100
AcDbCircle
39
0
10
8.5565
20
-13.827872
30
0
40
0.793999999999975
210
0
220
0
230
1
100
AcDbArc
50
180
51
300
0
ARC
5
71
100
AcDbEntity
8
1
62
256
6
ByLayer
370
-1
48
1
60
0
100
AcDbCircle
39
0
10
-12.525
20
-6.954228
30
0
40
1.2065
210
0
220
0
230
-1
100
AcDbArc
50
209.920057
51
266.044721
0
ARC
5
74
100
AcDbEntity
8
1
62
256
6
ByLayer
370
-1
48
1
60
0
100
AcDbCircle
39
0
10
12.525
20
-6.954228
30
0
40
1.2065
210
0
220
0
230
1
100
AcDbArc
50
266.044721
51
273.955279
0
ARC
5
75
100
AcDbEntity
8
1
62
256
6
ByLayer
370
-1
48
1
60
0
100
AcDbCircle
39
0
10
12.525
20
-6.954228
30
0
40
1.6765
210
0
220
0
230
1
100
AcDbArc
50
300.159887
51
0
0
ARC
5
76
100
AcDbEntity
8
1
62
256
6
ByLayer
370
-1
48
1
60
0
100
AcDbCircle
39
0
10
20.462
20
-6.954228
30
0
40
0.793999999999963
210
0
220
0
230
1
100
AcDbArc
50
300
51
60
0
ARC
5
77
100
AcDbEntity
8
1
62
256
6
ByLayer
370
-1
48
1
60
0
100
AcDbCircle
39
0
10
12.525
20
-6.954228
30
0
40
1.6765
210
0
220
0
230
1
100
AcDbArc
50
239.840113
51
300.159887
0
ARC
5
78
100
AcDbEntity
8
1
62
256
6
ByLayer
370
-1
48
1
60
0
100
AcDbCircle
39
0
10
-12.525
20
-6.954228
30
0
40
1.2065
210
0
220
0
230
-1
100
AcDbArc
50
93.955279
51
150.079943
0
ARC
5
7A
100
AcDbEntity
8
1
62
256
6
ByLayer
370
-1
48
1
60
0
100
AcDbCircle
39
0
10
12.525
20
-6.954228
30
0
40
1.6765
210
0
220
0
230
1
100
AcDbArc
50
0
51
59.840113
0
ARC
5
7B
100
AcDbEntity
8
1
62
256
6
ByLayer
370
-1
48
1
60
0
100
AcDbCircle
39
0
10
-12.525
20
-6.954228
30
0
40
1.2065
210
0
220
0
230
-1
100
AcDbArc
50
330.079943
51
29.920057
0
ARC
5
7C
100
AcDbEntity
8
1
62
256
6
ByLayer
370
-1
48
1
60
0
100
AcDbCircle
39
0
10
12.525
20
-6.954228
30
0
40
1.6765
210
0
220
0
230
1
100
AcDbArc
50
59.840113
51
120.159887
0
ARC
5
7D
100
AcDbEntity
8
1
62
256
6
ByLayer
370
-1
48
1
60
0
100
AcDbCircle
39
0
10
-12.525
20
-6.954228
30
0
40
1.2065
210
0
220
0
230
-1
100
AcDbArc
50
150.079943
51
209.920057
0
ARC
5
7E
100
AcDbEntity
8
1
62
256
6
ByLayer
370
-1
48
1
60
0
100
AcDbCircle
39
0
10
12.525
20
-6.954228
30
0
40
1.2065
210
0
220
0
230
1
100
AcDbArc
50
209.920057
51
266.044721
0
ARC
5
80
100
AcDbEntity
8
1
62
256
6
ByLayer
370
-1
48
1
60
0
100
AcDbCircle
39
0
10
12.525
20
-6.954228
30
0
40
1.2065
210
0
220
0
230
1
100
AcDbArc
50
86.044721
51
93.955279
0
ARC
5
81
100
AcDbEntity
8
1
62
256
6
ByLayer
370
-1
48
1
60
0
100
AcDbCircle
39
0
10
-12.525
20
-6.954228
30
0
40
1.2065
210
0
220
0
230
-1
100
AcDbArc
50
29.920057
51
86.044721
0
ARC
5
82
100
AcDbEntity
8
1
62
256
6
ByLayer
370
-1
48
1
60
0
100
AcDbCircle
39
0
10
12.525
20
-6.954228
30
0
40
1.6765
210
0
220
0
230
1
100
AcDbArc
50
180
51
239.840113
0
CIRCLE
5
6D
100
AcDbEntity
8
1
62
256
6
ByLayer
370
-1
48
1
60
0
100
AcDbCircle
10
-12.525
20
-6.954228
30
0
40
2.95049568210608
39
0
210
0
220
0
230
-1
0
CIRCLE
5
72
100
AcDbEntity
8
1
62
256
6
ByLayer
370
-1
48
1
60
0
100
AcDbCircle
10
12.525
20
-6.954228
30
0
40
3.00605207334198
39
0
210
0
220
0
230
1
0
CIRCLE
5
73
100
AcDbEntity
8
1
62
256
6
ByLayer
370
-1
48
1
60
0
100
AcDbCircle
10
12.525
20
-6.954228
30
0
40
3.07132534818238
39
0
210
0
220
0
230
1
0
CIRCLE
5
79
100
AcDbEntity
8
1
62
256
6
ByLayer
370
-1
48
1
60
0
100
AcDbCircle
10
12.525
20
-6.954228
30
0
40
2.625
39
0
210
0
220
0
230
1
0
CIRCLE
5
7F
100
AcDbEntity
8
1
62
256
6
ByLayer
370
-1
48
1
60
0
100
AcDbCircle
10
12.525
20
-6.954228
30
0
40
1.8
39
0
210
0
220
0
230
1
0
POINT
5
41
100
AcDbEntity
8
SK2
62
256
6
ByLayer
370
-1
48
1
60
0
100
AcDbPoint
10
21.25625
20
27.2875
30
0
39
0
210
0
220
0
230
1
50
360
0
POINT
5
43
100
AcDbEntity
8
SK2
62
256
6
ByLayer
370
-1
48
1
60
0
100
AcDbPoint
10
21.25625
20
27.2875
30
0
39
0
210
0
220
0
230
1
50
360
0
POINT
5
44
100
AcDbEntity
8
80
62
256
6
ByLayer
370
-1
48
1
60
0
100
AcDbPoint
10
0
20
0
30
0
39
0
210
0
220
0
230
1
50
360
0
POINT
5
46
100
AcDbEntity
8
SK2
62
256
6
ByLayer
370
-1
48
1
60
0
100
AcDbPoint
10
21.25625
20
27.2875
30
0
39
0
210
0
220
0
230
1
50
360
0
POINT
5
47
100
AcDbEntity
8
SK2
62
256
6
ByLayer
370
-1
48
1
60
0
100
AcDbPoint
10
21.25625
20
27.2875
30
0
39
0
210
0
220
0
230
1
50
360
0
POINT
5
48
100
AcDbEntity
8
2
62
256
6
ByLayer
370
-1
48
1
60
0
100
AcDbPoint
10
21.25625
20
27.2875
30
0
39
0
210
0
220
0
230
1
50
360
0
POINT
5
4A
100
AcDbEntity
8
81
62
256
6
ByLayer
370
-1
48
1
60
0
100
AcDbPoint
10
21.25625
20
-7.4125
30
0
39
0
210
0
220
0
230
1
50
360
0
SPLINE
5
83
100
AcDbEntity
8
1
62
256
6
ByLayer
370
-1
48
1
60
0
100
AcDbSpline
70
4
71
3
72
8
73
4
40
0
40
0
40
0
40
0
40
1
40
1
40
1
40
1
41
1
10
9.28197202493675
20
1.63973340862233
30
0
41
1
10
9.31296374385076
20
1.56629765473255
30
0
41
1
10
9.33772491513133
20
1.49135388955071
30
0
41
1
10
9.35647220115499
20
1.41523887189692
30
0
0
SPLINE
5
84
100
AcDbEntity
8
1
62
256
6
ByLayer
370
-1
48
1
60
0
100
AcDbSpline
70
4
71
3
72
12
73
8
40
0
40
0
40
0
40
0
40
0.495785575728913
40
0.495785575728913
40
0.900238279923853
40
0.900238279923853
40
1
40
1
40
1
40
1
41
1
10
12.037089022636
20
-8.3565650114808
30
0
41
1
10
12.0872263950313
20
-8.30583623678731
30
0
41
1
10
12.1470709882721
20
-8.26135157528381
30
0
41
1
10
12.2689837112423
20
-8.19938895500584
30
0
41
1
10
12.3300537658155
20
-8.17789187446607
30
0
41
1
10
12.4094827433796
20
-8.16239024979564
30
0
41
1
10
12.4255757195484
20
-8.15983480372435
30
0
41
1
10
12.4417782634827
20
-8.15785457472666
30
0
0
SPLINE
5
85
100
AcDbEntity
8
1
62
256
6
ByLayer
370
-1
48
1
60
0
100
AcDbSpline
70
4
71
3
72
18
73
14
40
0
40
0
40
0
40
0
40
0.2124916957553
40
0.2124916957553
40
0.386618276853796
40
0.386618276853796
40
0.562426360907918
40
0.562426360907918
40
0.71538841664592
40
0.71538841664592
40
0.918249208689837
40
0.918249208689837
40
1
40
1
40
1
40
1
41
1
10
13.5026444677087
20
-8.07573226560658
30
0
41
1
10
13.48427607619
20
-8.00717713712956
30
0
41
1
10
13.4760911091531
20
-7.93341324934229
30
0
41
1
10
13.4839610008539
20
-7.79725037720354
30
0
41
1
10
13.4961557594436
20
-7.73367698391181
30
0
41
1
10
13.5388305716229
20
-7.61113376336189
30
0
41
1
10
13.5702976683392
20
-7.55046068815278
30
0
41
1
10
13.642303236339
20
-7.45052397023443
30
0
41
1
10
13.6819188988894
20
-7.40826000157591
30
0
41
1
10
13.7804059624804
20
-7.32562492952232
30
0
41
1
10
13.842893587529
20
-7.28874632188928
30
0
41
1
10
13.932776731918
20
-7.25217889463158
30
0
41
1
10
13.9592260360796
20
-7.24328371556666
30
0
41
1
10
13.9858653921853
20
-7.23606563596115
30
0
0
SPLINE
5
86
100
AcDbEntity
8
1
62
256
6
ByLayer
370
-1
48
1
60
0
100
AcDbSpline
70
4
71
3
72
16
73
12
40
0
40
0
40
0
40
0
40
0.0624450082614456
40
0.0624450082614456
40
0.28320799598578
40
0.28320799598578
40
0.506745688833513
40
0.506745688833513
40
0.744607284736916
40
0.744607284736916
40
1
40
1
40
1
40
1
41
1
10
13.3672983036603
20
-8.40377498666763
30
0
41
1
10
13.3600063168154
20
-8.40801219260482
30
0
41
1
10
13.3525219054686
20
-8.41193747577637
30
0
41
1
10
13.3181193722799
20
-8.42812231036669
30
0
41
1
10
13.2891051359831
20
-8.43664381245932
30
0
41
1
10
13.2309936615192
20
-8.44460822541217
30
0
41
1
10
13.2011635434263
20
-8.44406054500982
30
0
41
1
10
13.1428527076445
20
-8.43440965054884
30
0
41
1
10
13.1138454989234
20
-8.4246711564345
30
0
41
1
10
13.059675357999
20
-8.39698959346518
30
0
41
1
10
13.0342846144056
20
-8.37819076420911
30
0
41
1
10
13.0129109773639
20
-8.3565650114808
30
0
0
SPLINE
5
87
100
AcDbEntity
8
1
62
256
6
ByLayer
370
-1
48
1
60
0
100
AcDbSpline
70
4
71
3
72
16
73
12
40
0
40
0
40
0
40
0
40
0.062445008261403
40
0.062445008261403
40
0.283207995985741
40
0.283207995985741
40
0.506745688833472
40
0.506745688833472
40
0.74460728473687
40
0.74460728473687
40
1
40
1
40
1
40
1
41
1
10
11.6827016963397
20
-5.50468146099382
30
0
41
1
10
11.6899936831845
20
-5.50044425505661
30
0
41
1
10
11.6974780945313
20
-5.49651897188508
30
0
41
1
10
11.73188062772
20
-5.48033413729473
30
0
41
1
10
11.7608948640168
20
-5.4718126352021
30
0
41
1
10
11.8190063384807
20
-5.46384822224925
30
0
41
1
10
11.8488364565736
20
-5.4643959026516
30
0
41
1
10
11.9071472923554
20
-5.47404679711258
30
0
41
1
10
11.9361545010765
20
-5.48378529122692
30
0
41
1
10
11.990324642001
20
-5.51146685419624
30
0
41
1
10
12.0157153855943
20
-5.53026568345231
30
0
41
1
10
12.037089022636
20
-5.55189143618063
30
0
0
SPLINE
5
88
100
AcDbEntity
8
1
62
256
6
ByLayer
370
-1
48
1
60
0
100
AcDbSpline
70
4
71
3
72
16
73
12
40
0
40
0
40
0
40
0
40
0.0630415689509849
40
0.0630415689509849
40
0.28591433202502
40
0.28591433202502
40
0.511588305408971
40
0.511588305408971
40
0.751723061839442
40
0.751723061839442
40
1
40
1
40
1
40
1
41
1
10
14.2014999999999
20
-6.95422822383071
30
0
41
1
10
14.2014999999999
20
-6.96266187766363
30
0
41
1
10
14.2011336287486
20
-6.97110519218117
30
0
41
1
10
14.1978431434151
20
-7.00898201626225
30
0
41
1
10
14.1906338904109
20
-7.03834983260128
30
0
41
1
10
14.1683240886929
20
-7.09259601367407
30
0
41
1
10
14.1528634659199
20
-7.11811277347456
30
0
41
1
10
14.1152228348198
20
-7.16368114033253
30
0
41
1
10
14.0922290297801
20
-7.1838687920839
30
0
41
1
10
14.0420396182034
20
-7.21617967247838
30
0
41
1
10
14.0141787135168
20
-7.22839398629901
30
0
41
1
10
13.9858653921853
20
-7.23606563596115
30
0
0
SPLINE
5
89
100
AcDbEntity
8
1
62
256
6
ByLayer
370
-1
48
1
60
0
100
AcDbSpline
70
4
71
3
72
16
73
12
40
0
40
0
40
0
40
0
40
0.063041568951001
40
0.063041568951001
40
0.28591433202504
40
0.28591433202504
40
0.511588305408975
40
0.511588305408975
40
0.751723061839444
40
0.751723061839444
40
1
40
1
40
1
40
1
41
1
10
10.8485
20
-6.95422822383071
30
0
41
1
10
10.8485
20
-6.94579456999779
30
0
41
1
10
10.8488663712514
20
-6.93735125548025
30
0
41
1
10
10.8521568565848
20
-6.89947443139917
30
0
41
1
10
10.859366109589
20
-6.87010661506014
30
0
41
1
10
10.881675911307
20
-6.81586043398735
30
0
41
1
10
10.89713653408
20
-6.79034367418686
30
0
41
1
10
10.9347771651801
20
-6.74477530732889
30
0
41
1
10
10.9577709702198
20
-6.72458765557752
30
0
41
1
10
11.0079603817966
20
-6.69227677518305
30
0
41
1
10
11.0358212864831
20
-6.68006246136241
30
0
41
1
10
11.0641346078146
20
-6.67239081170027
30
0
0
SPLINE
5
8A
100
AcDbEntity
8
1
62
256
6
ByLayer
370
-1
48
1
60
0
100
AcDbSpline
70
4
71
3
72
14
73
10
40
0
40
0
40
0
40
0
40
0.28216992257605
40
0.28216992257605
40
0.566902245317916
40
0.566902245317916
40
0.824523972080252
40
0.824523972080252
40
1
40
1
40
1
40
1
41
1
10
12.037089022636
20
-8.3565650114808
30
0
41
1
10
12.0134755428677
20
-8.38045702730986
30
0
41
1
10
11.9848973715972
20
-8.40091917781564
30
0
41
1
10
11.9214034073027
20
-8.43065582335191
30
0
41
1
10
11.8854207832102
20
-8.44023138390349
30
0
41
1
10
11.8154842322965
20
-8.44486804149105
30
0
41
1
10
11.7806012951719
20
-8.44123309200421
30
0
41
1
10
11.7251581578494
20
-8.42506656745957
30
0
41
1
10
11.7031078911149
20
-8.41563255738149
30
0
41
1
10
11.6827016963397
20
-8.40377498666763
30
0
0
SPLINE
5
8B
100
AcDbEntity
8
1
62
256
6
ByLayer
370
-1
48
1
60
0
100
AcDbSpline
70
4
71
3
72
14
73
10
40
0
40
0
40
0
40
0
40
0.283961457856645
40
0.283961457856645
40
0.570284934646679
40
0.570284934646679
40
0.829450869060517
40
0.829450869060517
40
1
40
1
40
1
40
1
41
1
10
11.0641346078146
20
-7.23606563596115
30
0
41
1
10
11.031775123635
20
-7.22729765628941
30
0
41
1
10
10.9999432487876
20
-7.21253953203987
30
0
41
1
10
10.9428862914262
20
-7.17204376778434
30
0
41
1
10
10.9168709220879
20
-7.14553771714046
30
0
41
1
10
10.8783981754779
20
-7.08716145004678
30
0
41
1
10
10.8643584772186
20
-7.05512382644105
30
0
41
1
10
10.851205731979
20
-6.99987023470899
30
0
41
1
10
10.8485
20
-6.97695788462627
30
0
41
1
10
10.8485
20
-6.95422822383071
30
0
0
SPLINE
5
8C
100
AcDbEntity
8
1
62
256
6
ByLayer
370
-1
48
1
60
0
100
AcDbSpline
70
4
71
3
72
16
73
12
40
0
40
0
40
0
40
0
40
0.0569446172824835
40
0.0569446172824835
40
0.279906644834044
40
0.279906644834044
40
0.505321967306645
40
0.505321967306645
40
0.74491504712874
40
0.74491504712874
40
1
40
1
40
1
40
1
41
1
10
13.3672983036603
20
-5.50468146099379
30
0
41
1
10
13.3738895614923
20
-5.50851148940905
30
0
41
1
10
13.3803366747187
20
-5.51260379760959
30
0
41
1
10
13.410963616839
20
-5.5337695730816
30
0
41
1
10
13.4329276670061
20
-5.55459716006914
30
0
41
1
10
13.4690076363933
20
-5.60086720002715
30
0
41
1
10
13.4835125540832
20
-5.62693286211513
30
0
41
1
10
13.5044368822212
20
-5.68216626048792
30
0
41
1
10
13.5105822003864
20
-5.71210651913754
30
0
41
1
10
13.5138529009894
20
-5.77252430687693
30
0
41
1
10
13.5104405212243
20
-5.80362748897605
30
0
41
1
10
13.5026444677087
20
-5.83272418205488
30
0
0
SPLINE
5
8D
100
AcDbEntity
8
1
62
256
6
ByLayer
370
-1
48
1
60
0
100
AcDbSpline
70
4
71
3
72
16
73
12
40
0
40
0
40
0
40
0
40
0.056944617282446
40
0.056944617282446
40
0.279906644834015
40
0.279906644834015
40
0.505321967306628
40
0.505321967306628
40
0.74491504712874
40
0.74491504712874
40
1
40
1
40
1
40
1
41
1
10
11.6827016963397
20
-8.40377498666763
30
0
41
1
10
11.6761104385076
20
-8.39994495825238
30
0
41
1
10
11.6696633252813
20
-8.39585265005184
30
0
41
1
10
11.6390363831609
20
-8.37468687457982
30
0
41
1
10
11.6170723329938
20
-8.35385928759229
30
0
41
1
10
11.5809923636066
20
-8.30758924763427
30
0
41
1
10
11.5664874459167
20
-8.2815235855463
30
0
41
1
10
11.5455631177788
20
-8.2262901871735
30
0
41
1
10
11.5394177996136
20
-8.19634992852389
30
0
41
1
10
11.5361470990106
20
-8.13593214078449
30
0
41
1
10
11.5395594787756
20
-8.10482895868537
30
0
41
1
10
11.5473555322912
20
-8.07573226560658
30
0
0
SPLINE
5
8E
100
AcDbEntity
8
1
62
256
6
ByLayer
370
-1
48
1
60
0
100
AcDbSpline
70
4
71
3
72
18
73
14
40
0
40
0
40
0
40
0
40
0.212491592102413
40
0.212491592102413
40
0.386618191488464
40
0.386618191488464
40
0.562426295050798
40
0.562426295050798
40
0.715388354469445
40
0.715388354469445
40
0.918249128147146
40
0.918249128147146
40
1
40
1
40
1
40
1
41
1
10
11.0641346078146
20
-7.23606563596115
30
0
41
1
10
11.1326377234845
20
-7.25462693076761
30
0
41
1
10
11.2005281692805
20
-7.28461003274131
30
0
41
1
10
11.3143042659933
20
-7.35982474748235
30
0
41
1
10
11.3631447067792
20
-7.40230886724882
30
0
41
1
10
11.44765842133
20
-7.5007741682432
30
0
41
1
10
11.4843084642177
20
-7.55846451072409
30
0
41
1
10
11.5345397827942
20
-7.67093213454331
30
0
41
1
10
11.5511788551475
20
-7.72641893786815
30
0
41
1
10
11.5731460100678
20
-7.85309056158962
30
0
41
1
10
11.5736375455764
20
-7.92564738539107
30
0
41
1
10
11.5600961139311
20
-8.02173479657526
30
0
41
1
10
11.5544985996202
20
-8.04907266953015
30
0
41
1
10
11.5473555322912
20
-8.07573226560655
30
0
0
SPLINE
5
8F
100
AcDbEntity
8
1
62
256
6
ByLayer
370
-1
48
1
60
0
100
AcDbSpline
70
4
71
3
72
14
73
10
40
0
40
0
40
0
40
0
40
0.283961749036715
40
0.283961749036715
40
0.570285189259037
40
0.570285189259037
40
0.829451094335673
40
0.829451094335673
40
1
40
1
40
1
40
1
41
1
10
13.5026444677087
20
-8.07573226560658
30
0
41
1
10
13.511321328404
20
-8.10811633685924
30
0
41
1
10
13.5145538598036
20
-8.14305376578963
30
0
41
1
10
13.5082063654841
20
-8.21273243844473
30
0
41
1
10
13.4983590177569
20
-8.24854304667267
30
0
41
1
10
13.4672145913697
20
-8.311136693701
30
0
41
1
10
13.4465677486004
20
-8.33937195736399
30
0
41
1
10
13.4054021593366
20
-8.37850435626245
30
0
41
1
10
13.3869509507641
20
-8.39235528518412
30
0
41
1
10
13.3672983036603
20
-8.40377498666763
30
0
0
SPLINE
5
90
100
AcDbEntity
8
1
62
256
6
ByLayer
370
-1
48
1
60
0
100
AcDbSpline
70
4
71
3
72
14
73
10
40
0
40
0
40
0
40
0
40
0.282169922576096
40
0.282169922576096
40
0.566902245317958
40
0.566902245317958
40
0.824523972080294
40
0.824523972080294
40
1
40
1
40
1
40
1
41
1
10
13.0129109773639
20
-5.55189143618063
30
0
41
1
10
13.0365244571323
20
-5.52799942035156
30
0
41
1
10
13.0651026284027
20
-5.50753726984578
30
0
41
1
10
13.1285965926972
20
-5.47780062430951
30
0
41
1
10
13.1645792167897
20
-5.46822506375796
30
0
41
1
10
13.2345157677034
20
-5.4635884061704
30
0
41
1
10
13.269398704828
20
-5.46722335565721
30
0
41
1
10
13.3248418421505
20
-5.48338988020186
30
0
41
1
10
13.346892108885
20
-5.49282389027994
30
0
41
1
10
13.3672983036603
20
-5.50468146099379
30
0
0
SPLINE
5
91
100
AcDbEntity
8
1
62
256
6
ByLayer
370
-1
48
1
60
0
100
AcDbSpline
70
4
71
3
72
18
73
14
40
0
40
0
40
0
40
0
40
0.212491592102403
40
0.212491592102403
40
0.386618191488462
40
0.386618191488462
40
0.562426295050806
40
0.562426295050806
40
0.715388354469445
40
0.715388354469445
40
0.918249128147136
40
0.918249128147136
40
1
40
1
40
1
40
1
41
1
10
13.9858653921853
20
-6.6723908117003
30
0
41
1
10
13.9173622765154
20
-6.65382951689381
30
0
41
1
10
13.8494718307194
20
-6.62384641492011
30
0
41
1
10
13.7356957340066
20
-6.54863170017907
30
0
41
1
10
13.6868552932207
20
-6.5061475804126
30
0
41
1
10
13.6023415786699
20
-6.40768227941822
30
0
41
1
10
13.5656915357823
20
-6.34999193693733
30
0
41
1
10
13.5154602172057
20
-6.23752431311814
30
0
41
1
10
13.4988211448524
20
-6.18203750979328
30
0
41
1
10
13.4768539899321
20
-6.05536588607183
30
0
41
1
10
13.4763624544235
20
-5.98280906227035
30
0
41
1
10
13.4899038860688
20
-5.88672165108619
30
0
41
1
10
13.4955014003797
20
-5.85938377813127
30
0
41
1
10
13.5026444677087
20
-5.83272418205485
30
0
0
SPLINE
5
92
100
AcDbEntity
8
1
62
256
6
ByLayer
370
-1
48
1
60
0
100
AcDbSpline
70
4
71
3
72
12
73
8
40
0
40
0
40
0
40
0
40
0.422118641229842
40
0.422118641229842
40
0.843213633747352
40
0.843213633747352
40
1
40
1
40
1
40
1
41
1
10
12.4417782634827
20
-5.75060187293479
30
0
41
1
10
12.3743307984488
20
-5.74235863492081
30
0
41
1
10
12.3083416408563
20
-5.72376561588942
30
0
41
1
10
12.1897272181066
20
-5.6716591435495
30
0
41
1
10
12.1353575887118
20
-5.63761886478804
30
0
41
1
10
12.0700730005586
20
-5.58364526961682
30
0
41
1
10
12.0531183540982
20
-5.56810984383509
30
0
41
1
10
12.037089022636
20
-5.55189143618065
30
0
0
SPLINE
5
93
100
AcDbEntity
8
1
62
256
6
ByLayer
370
-1
48
1
60
0
100
AcDbSpline
70
4
71
3
72
14
73
10
40
0
40
0
40
0
40
0
40
0.283961749036702
40
0.283961749036702
40
0.570285189259004
40
0.570285189259004
40
0.829451094335669
40
0.829451094335669
40
1
40
1
40
1
40
1
41
1
10
11.5473555322912
20
-5.83272418205488
30
0
41
1
10
11.538678671596
20
-5.80034011080218
30
0
41
1
10
11.5354461401964
20
-5.76540268187179
30
0
41
1
10
11.5417936345158
20
-5.69572400921672
30
0
41
1
10
11.551640982243
20
-5.65991340098878
30
0
41
1
10
11.5827854086302
20
-5.59731975396042
30
0
41
1
10
11.6034322513995
20
-5.56908449029746
30
0
41
1
10
11.6445978406633
20
-5.52995209139897
30
0
41
1
10
11.6630490492358
20
-5.5161011624773
30
0
41
1
10
11.6827016963397
20
-5.50468146099382
30
0
0
SPLINE
5
94
100
AcDbEntity
8
1
62
256
6
ByLayer
370
-1
48
1
60
0
100
AcDbSpline
70
4
71
3
72
12
73
8
40
0
40
0
40
0
40
0
40
0.495785575728924
40
0.495785575728924
40
0.900238279923883
40
0.900238279923883
40
1
40
1
40
1
40
1
41
1
10
13.0129109773639
20
-5.55189143618063
30
0
41
1
10
12.9627736049686
20
-5.60262021087411
30
0
41
1
10
12.9029290117278
20
-5.64710487237764
30
0
41
1
10
12.7810162887576
20
-5.70906749265558
30
0
41
1
10
12.7199462341844
20
-5.73056457319535
30
0
41
1
10
12.6405172566203
20
-5.74606619786579
30
0
41
1
10
12.6244242804515
20
-5.7486216439371
30
0
41
1
10
12.6082217365172
20
-5.75060187293479
30
0
0
SPLINE
5
95
100
AcDbEntity
8
1
62
256
6
ByLayer
370
-1
48
1
60
0
100
AcDbSpline
70
4
71
3
72
12
73
8
40
0
40
0
40
0
40
0
40
0.422118641229864
40
0.422118641229864
40
0.843213633747332
40
0.843213633747332
40
1
40
1
40
1
40
1
41
1
10
12.6082217365172
20
-8.15785457472666
30
0
41
1
10
12.6756692015511
20
-8.16609781274065
30
0
41
1
10
12.7416583591437
20
-8.18469083177203
30
0
41
1
10
12.8602727818933
20
-8.23679730411195
30
0
41
1
10
12.9146424112881
20
-8.27083758287344
30
0
41
1
10
12.9799269994413
20
-8.3248111780446
30
0
41
1
10
12.9968816459018
20
-8.34034660382636
30
0
41
1
10
13.0129109773639
20
-8.35656501148083
30
0
0
SPLINE
5
96
100
AcDbEntity
8
1
62
256
6
ByLayer
370
-1
48
1
60
0
100
AcDbSpline
70
4
71
3
72
14
73
10
40
0
40
0
40
0
40
0
40
0.28396145785664
40
0.28396145785664
40
0.570284934646671
40
0.570284934646671
40
0.829450869060503
40
0.829450869060503
40
1
40
1
40
1
40
1
41
1
10
13.9858653921853
20
-6.67239081170027
30
0
41
1
10
14.018224876365
20
-6.68115879137201
30
0
41
1
10
14.0500567512123
20
-6.69591691562158
30
0
41
1
10
14.1071137085737
20
-6.73641267987708
30
0
41
1
10
14.1331290779121
20
-6.76291873052096
30
0
41
1
10
14.171601824522
20
-6.82129499761464
30
0
41
1
10
14.1856415227813
20
-6.85333262122037
30
0
41
1
10
14.198794268021
20
-6.90858621295243
30
0
41
1
10
14.2014999999999
20
-6.93149856303515
30
0
41
1
10
14.2014999999999
20
-6.95422822383071
30
0
0
SPLINE
5
97
100
AcDbEntity
8
1
62
256
6
ByLayer
370
-1
48
1
60
0
100
AcDbSpline
70
4
71
3
72
18
73
14
40
0
40
0
40
0
40
0
40
0.212491695755299
40
0.212491695755299
40
0.386618276853799
40
0.386618276853799
40
0.562426360907925
40
0.562426360907925
40
0.715388416645935
40
0.715388416645935
40
0.918249208689862
40
0.918249208689862
40
1
40
1
40
1
40
1
41
1
10
11.5473555322912
20
-5.83272418205488
30
0
41
1
10
11.5657239238099
20
-5.90127931053189
30
0
41
1
10
11.5739088908468
20
-5.97504319831916
30
0
41
1
10
11.566038999146
20
-6.11120607045791
30
0
41
1
10
11.5538442405563
20
-6.17477946374964
30
0
41
1
10
11.511169428377
20
-6.29732268429956
30
0
41
1
10
11.4797023316607
20
-6.35799575950864
30
0
41
1
10
11.4076967636609
20
-6.45793247742699
30
0
41
1
10
11.3680811011104
20
-6.50019644608551
30
0
41
1
10
11.2695940375195
20
-6.5828315181391
30
0
41
1
10
11.2071064124709
20
-6.61971012577214
30
0
41
1
10
11.1172232680819
20
-6.65627755302984
30
0
41
1
10
11.0907739639203
20
-6.66517273209473
30
0
41
1
10
11.0641346078146
20
-6.67239081170027
30
0
0
INSERT
5
CB
100
AcDbEntity
8
SK2
62
256
6
ByLayer
370
-1
48
1
60
0
100
AcDbBlockReference
2
DimnDraft3D11
10
0
20
0
30
0
41
1
42
1
43
1
50
0
210
0
220
0
230
1
0
LINE
5
4C
100
AcDbEntity
8
81
62
256
6
ByLayer
370
-1
48
1
60
0
100
AcDbLine
10
21.25625
20
-7.4125
30
0
11
31.25625
21
-7.4125
31
0
39
0
210
0
220
0
230
1
0
LINE
5
4D
100
AcDbEntity
8
80
62
256
6
ByLayer
370
-1
48
1
60
0
100
AcDbLine
10
0
20
0
30
0
11
-5
21
0
31
0
39
0
210
0
220
0
230
1
0
LINE
5
4E
100
AcDbEntity
8
1
62
256
6
ByLayer
370
-1
48
1
60
0
100
AcDbLine
10
0
20
9.936296
30
0
11
0
21
-9.9375
31
0
39
0
210
0
220
0
230
1
0
LINE
5
50
100
AcDbEntity
8
1
62
256
6
ByLayer
370
-1
48
1
60
0
100
AcDbLine
10
18.843666
20
-5.103056
30
0
11
18.426303
21
-4.528605
31
0
39
0
210
0
220
0
230
1
0
LINE
5
51
100
AcDbEntity
8
1
62
256
6
ByLayer
370
-1
48
1
60
0
100
AcDbLine
10
5.00232
20
9.936296
30
0
11
9.681887
21
7.507052
31
0
39
0
210
0
220
0
230
1
0
LINE
5
52
100
AcDbEntity
8
1
62
256
6
ByLayer
370
-1
48
1
60
0
100
AcDbLine
10
18.426303
20
-4.528605
30
0
11
18.137492
21
-4.69535
31
0
39
0
210
0
220
0
230
1
0
LINE
5
53
100
AcDbEntity
8
1
62
256
6
ByLayer
370
-1
48
1
60
0
100
AcDbLine
10
11.295
20
-0.179228
30
0
11
11.295
21
-0.744813
31
0
39
0
210
0
220
0
230
1
0
LINE
5
54
100
AcDbEntity
8
1
62
256
6
ByLayer
370
-1
48
1
60
0
100
AcDbLine
10
1
20
-9.9375
30
0
11
0
21
-9.9375
31
0
39
0
210
0
220
0
230
1
0
LINE
5
55
100
AcDbEntity
8
1
62
256
6
ByLayer
370
-1
48
1
60
0
100
AcDbLine
10
4.597018
20
-13.534518
30
0
11
1
21
-9.9375
31
0
39
0
210
0
220
0
230
1
0
LINE
5
56
100
AcDbEntity
8
1
62
256
6
ByLayer
370
-1
48
1
60
0
100
AcDbLine
10
0
20
9.936296
30
0
11
5.00232
21
9.936296
31
0
39
0
210
0
220
0
230
1
0
LINE
5
57
100
AcDbEntity
8
1
62
256
6
ByLayer
370
-1
48
1
60
0
100
AcDbLine
10
9.681887
20
7.507052
30
0
11
18.287478
21
-4.337529
31
0
39
0
210
0
220
0
230
1
0
LINE
5
58
100
AcDbEntity
8
1
62
256
6
ByLayer
370
-1
48
1
60
0
100
AcDbLine
10
4.597018
20
-13.534518
30
0
11
7.762467
21
-13.534518
31
0
39
0
210
0
220
0
230
1
0
LINE
5
59
100
AcDbEntity
8
1
62
256
6
ByLayer
370
-1
48
1
60
0
100
AcDbLine
10
18.287478
20
-4.337529
30
0
11
18.426303
21
-4.528605
31
0
39
0
210
0
220
0
230
1
0
LINE
5
5A
100
AcDbEntity
8
1
62
256
6
ByLayer
370
-1
48
1
60
0
100
AcDbLine
10
11.529889
20
-0.179228
30
0
11
11.295
21
-0.179228
31
0
39
0
210
0
220
0
230
1
0
LINE
5
5B
100
AcDbEntity
8
1
62
256
6
ByLayer
370
-1
48
1
60
0
100
AcDbLine
10
11.529889
20
-0.179228
30
0
11
11.529889
21
-0.880431
31
0
39
0
210
0
220
0
230
1
0
LINE
5
5C
100
AcDbEntity
8
1
62
256
6
ByLayer
370
-1
48
1
60
0
100
AcDbLine
10
18.287478
20
-4.337529
30
0
11
17.902612
21
-4.559732
31
0
39
0
210
0
220
0
230
1
0
LINE
5
5D
100
AcDbEntity
8
SK1
62
256
6
ByLayer
370
-1
48
1
60
0
100
AcDbLine
10
-0.15
20
9.93695
30
0
11
0
21
9.936296
31
0
39
0
210
0
220
0
230
1
0
LINE
5
5F
100
AcDbEntity
8
SK1
62
256
6
ByLayer
370
-1
48
1
60
0
100
AcDbLine
10
0
20
-9.9375
30
0
11
0
21
9.936296
31
0
39
0
210
0
220
0
230
1
0
LINE
5
60
100
AcDbEntity
8
1
62
256
6
ByLayer
370
-1
48
1
60
0
100
AcDbLine
10
20.859
20
-7.641852
30
0
11
8.9535
21
-14.515496
31
0
39
0
210
0
220
0
230
1
0
LINE
5
61
100
AcDbEntity
8
SK1
62
256
6
ByLayer
370
-1
48
1
60
0
100
AcDbLine
10
-0.15
20
-9.9375
30
0
11
-105.09375
21
-9.9375
31
0
39
0
210
0
220
0
230
1
0
LINE
5
62
100
AcDbEntity
8
1
62
256
6
ByLayer
370
-1
48
1
60
0
100
AcDbLine
10
8.9535
20
0.60704
30
0
11
20.859
21
-6.266604
31
0
39
0
210
0
220
0
230
1
0
LINE
5
63
100
AcDbEntity
8
SK1
62
256
6
ByLayer
370
-1
48
1
60
0
100
AcDbLine
10
0
20
-9.9375
30
0
11
-0.15
21
-9.9375
31
0
39
0
210
0
220
0
230
1
0
LINE
5
64
100
AcDbEntity
8
1
62
256
6
ByLayer
370
-1
48
1
60
0
100
AcDbLine
10
7.7625
20
-13.827872
30
0
11
7.7625
21
-0.080585
31
0
39
0
210
0
220
0
230
1
0
LINE
5
65
100
AcDbEntity
8
SK1
62
256
6
ByLayer
370
-1
48
1
60
0
100
AcDbLine
10
-105.09375
20
9.9375
30
0
11
-0.15
21
9.9375
31
0
39
0
210
0
220
0
230
1
0
LINE
5
66
100
AcDbEntity
8
SK1
62
256
6
ByLayer
370
-1
48
1
60
0
100
AcDbLine
10
-0.15
20
-9.9375
30
0
11
-0.15
21
9.9375
31
0
39
0
210
0
220
0
230
1
0
LINE
5
67
100
AcDbEntity
8
SK1
62
256
6
ByLayer
370
-1
48
1
60
0
100
AcDbLine
10
-105.09375
20
-9.9375
30
0
11
-105.09375
21
9.9375
31
0
39
0
210
0
220
0
230
1
0
LINE
5
68
100
AcDbEntity
8
2
62
256
6
ByLayer
370
-1
48
1
60
1
100
AcDbLine
10
21.25625
20
-7.4125
30
0
11
21.257116
21
-7.412
31
0
39
0
210
0
220
0
230
1
0
MTEXT
5
98
100
AcDbEntity
8
SK6
62
256
6
ByLayer
370
-1
48
1
60
0
100
AcDbMText
10
-60.934997
20
20.395841
30
0
210
0
220
0
230
1
1
\W00.767;\fsimplex.shx,bigfont.shx;STTCL 2020K 16 
40
3.5
41
0
44
1.084337
50
0
71
7
72
5
7
DEFAULT
0
DIMENSION
5
D9
100
AcDbEntity
8
2
62
256
6
ByLayer
370
-3
48
1
60
0
100
AcDbDimension
2
DimnDraft3D2
10
0.723293
20
-19.267208
30
0
11
6.009048
21
-21.079323
31
0
70
34
71
5
72
1
41
1
210
0
220
0
230
1
3
Standard
100
AcDb2LineAngularDimension
13
21.25625
23
-9.747978
33
0
14
21.25625
24
-31.121917
34
0
15
18.261299
25
-9.141636
35
0
16
12.651542
26
-22.316292
36
0
40
0
0
DIMENSION
5
EE
100
AcDbEntity
8
2
62
256
6
ByLayer
370
-3
48
1
60
0
100
AcDbDimension
2
DimnDraft3D3
10
48.50625
20
-7.4125
30
0
11
48.50625
21
-0.803947
31
0
70
32
71
5
72
1
41
1
210
0
220
0
230
1
3
Standard
100
AcDbAlignedDimension
13
2
23
9.9375
33
0
14
23.25625
24
-7.4125
34
0
50
90
100
AcDbRotatedDimension
1001
ACAD
1000
DSTYLE
1002
{
1070
    74
1070
     0
1070
   279
1070
     0
1070
   172
1070
     1
1070
   173
1070
     1
1070
   340
1005
99
1070
    77
1070
     1
1070
    73
1070
     0
1070
   171
1070
     3
1070
   274
1070
     4
1070
   177
1070
     2
1070
   176
1070
     2
1070
   178
1070
     7
1070
    78
1070
     8
1070
    41
1041
3.175
1070
   147
1041
2.25
1070
    42
1041
2.0
1070
    44
1041
2.0
1070
   140
1041
4.5
1070
   343
1005
DA
1070
   344
1005
DA
1002
}
0
DIMENSION
5
FC
100
AcDbEntity
8
SK2
62
256
6
ByLayer
370
-3
48
1
60
0
100
AcDbDimension
2
DimnDraft3D4
10
-114.84375
20
-9.9375
30
0
11
-114.84375
21
-2.628947
31
0
70
32
71
5
72
1
41
1
210
0
220
0
230
1
3
Standard
100
AcDbAlignedDimension
13
-107.09375
23
9.9375
33
0
14
-107.09375
24
-9.9375
34
0
50
90
100
AcDbRotatedDimension
1001
ACAD
1000
DSTYLE
1002
{
1070
    74
1070
     0
1070
   279
1070
     0
1070
   172
1070
     1
1070
   173
1070
     1
1070
   340
1005
99
1070
    77
1070
     1
1070
    73
1070
     0
1070
   171
1070
     3
1070
   274
1070
     4
1070
   177
1070
     2
1070
   176
1070
     2
1070
   178
1070
     7
1070
    78
1070
     8
1070
    41
1041
3.175
1070
   147
1041
2.25
1070
    42
1041
2.0
1070
    44
1041
2.0
1070
   140
1041
4.5
1070
   343
1005
DA
1070
   344
1005
DA
1002
}
0
ENDSEC
0
SECTION
2
OBJECTS
0
DICTIONARY
5
12c
330
0
100
AcDbDictionary
280
0
281
1
3
ACAD_GROUP
350
12d
3
ACAD_MLINESTYLE
350
12e
0
DICTIONARY
5
12d
330
0
100
AcDbDictionary
280
0
281
1
0
DICTIONARY
5
12e
330
0
100
AcDbDictionary
280
0
281
1
3
Standard
350
18
0
MLINESTYLE
5
18
330
12e
100
AcDbMlineStyle
2
Standard
70
0
3

62
256
51
90
52
90
71
2
49
-0.5
62
256
6
ByLayer
49
0.5
62
256
6
ByLayer
0
RASTERVARIABLES
5
11b
330

100
AcDbRasterVariables
90
0
70
1
71
1
72
1
0
ENDSEC
0
EOF
