0
SECTION
2
HEADER
9
$ACADVER
1
AC1015
9
$DWGCODEPAGE
3
ANSI_1252
9
$HANDSEED
5
13e
9
$ANGBASE
50
0
9
$ANGDIR
70
0
9
$ATTMODE
70
1
9
$AUNITS
70
0
9
$AUPREC
70
0
9
$CECOLOR
62
256
9
$CELTSCALE
40
1
9
$CELTYPE
6
ByLayer
9
$CELWEIGHT
370
-1
9
$CLAYER
8
0
9
$CMLJUST
70
0
9
$CMLSCALE
40
1
9
$CMLSTYLE
2
Standard
9
$DIMSTYLE
2
Standard
9
$TEXTSIZE
40
0.2
9
$TEXTSTYLE
7
Standard
9
$LUNITS
70
2
9
$LUPREC
70
4
9
$EXTNAMES
290
1
9
$INSUNITS
70
4
9
$LTSCALE
40
1
9
$LWDISPLAY
290
0
9
$PDMODE
70
0
9
$PDSIZE
40
0
9
$PLINEGEN
70
0
0
ENDSEC
0
SECTION
2
CLASSES
0
CLASS
1
RASTERVARIABLES
2
AcDbRasterVariables
3
ISM
90
0
280
0
281
0
0
ENDSEC
0
SECTION
2
TABLES
0
TABLE
2
VPORT
5
134
100
AcDbSymbolTable
0
VPORT
5
1
100
AcDbSymbolTableRecord
100
AcDbViewportTableRecord
2
*Active
70
0
10
0
20
0
11
1
21
1
12
-1
22
1
13
0
23
0
14
0.5
24
0.5
15
10
25
10
16
0
26
0
36
1
17
0
27
0
37
0
0
ENDTAB
0
TABLE
2
LTYPE
5
135
100
AcDbSymbolTable
0
LTYPE
5
14
100
AcDbSymbolTableRecord
100
AcDbLinetypeTableRecord
70
0
2
ByBlock
3

72
65
73
0
40
0
0
LTYPE
5
15
100
AcDbSymbolTableRecord
100
AcDbLinetypeTableRecord
70
0
2
ByLayer
3

72
65
73
0
40
0
0
LTYPE
5
16
100
AcDbSymbolTableRecord
100
AcDbLinetypeTableRecord
70
0
2
CONTINUOUS
3
Solid line
72
65
73
0
40
0
0
LTYPE
5
3B
100
AcDbSymbolTableRecord
100
AcDbLinetypeTableRecord
70
0
2
DASHED
3
__ __ __ __ __ __ __ __ __
72
65
73
2
40
25.72
49
12.86
74
0
49
-12.86
74
0
0
LTYPE
5
3C
100
AcDbSymbolTableRecord
100
AcDbLinetypeTableRecord
70
0
2
HIDDEN
3
_ _ _ _ _ _ _ _ _ _ _ _ _ _ _
72
65
73
2
40
0.5
49
0.25
74
0
49
-0.25
74
0
0
LTYPE
5
3D
100
AcDbSymbolTableRecord
100
AcDbLinetypeTableRecord
70
0
2
PHANTOM
3
____ _ _ ____ _ _ _____ _ _ ____
72
65
73
6
40
50.5
49
18
74
0
49
-6.5
74
0
49
6.5
74
0
49
-6.5
74
0
49
6.5
74
0
49
-6.5
74
0
0
LTYPE
5
3E
100
AcDbSymbolTableRecord
100
AcDbLinetypeTableRecord
70
0
2
CENTER
3
____ _ ____ _ ____ _ ____
72
65
73
4
40
47.5
49
22
74
0
49
-8.5
74
0
49
8.5
74
0
49
-8.5
74
0
0
LTYPE
5
3F
100
AcDbSymbolTableRecord
100
AcDbLinetypeTableRecord
70
0
2
DOT
3
.........................
72
65
73
2
40
10
49
0
74
0
49
-10
74
0
0
LTYPE
5
40
100
AcDbSymbolTableRecord
100
AcDbLinetypeTableRecord
70
0
2
DASHDOT
3
_._._._._._._._._._._._._._._._.
72
65
73
4
40
70
49
31
74
0
49
-13
74
0
49
13
74
0
49
-13
74
0
0
ENDTAB
0
TABLE
2
LAYER
5
136
100
AcDbSymbolTable
0
LAYER
5
10
100
AcDbSymbolTableRecord
100
AcDbLayerTableRecord
2
0
70
0
62
7
6
CONTINUOUS
290
1
370
-3
390
0
0
LAYER
5
42
100
AcDbSymbolTableRecord
100
AcDbLayerTableRecord
2
81
70
0
62
-3
6
CONTINUOUS
290
1
370
-3
390
0
0
LAYER
5
47
100
AcDbSymbolTableRecord
100
AcDbLayerTableRecord
2
2
70
0
62
7
6
CONTINUOUS
290
1
370
-3
390
0
0
LAYER
5
4A
100
AcDbSymbolTableRecord
100
AcDbLayerTableRecord
2
80
70
0
62
-6
6
CONTINUOUS
290
1
370
-3
390
0
0
LAYER
5
4F
100
AcDbSymbolTableRecord
100
AcDbLayerTableRecord
2
1
70
0
62
4
6
CONTINUOUS
290
1
370
-3
390
0
0
LAYER
5
121
100
AcDbSymbolTableRecord
100
AcDbLayerTableRecord
2
SK2
70
0
62
7
6
CONTINUOUS
290
1
370
-3
390
0
0
LAYER
5
122
100
AcDbSymbolTableRecord
100
AcDbLayerTableRecord
2
SK1
70
0
62
4
6
CONTINUOUS
290
1
370
-3
390
0
0
LAYER
5
123
100
AcDbSymbolTableRecord
100
AcDbLayerTableRecord
2
SK6
70
0
62
5
6
CONTINUOUS
290
1
370
-3
390
0
0
ENDTAB
0
TABLE
2
STYLE
5
137
100
AcDbSymbolTable
0
STYLE
5
11
100
AcDbSymbolTableRecord
100
AcDbTextStyleTableRecord
2
Standard
3
txt
70
0
71
0
40
0
41
1
42
0
50
0
0
STYLE
5
9E
100
AcDbSymbolTableRecord
100
AcDbTextStyleTableRecord
2
DEFAULT
3
simplex.shx
70
0
71
0
40
0
41
1
42
0
50
0
0
STYLE
5
C1
100
AcDbSymbolTableRecord
100
AcDbTextStyleTableRecord
2
DWGDirectTextStyle
3
SIMPLEX
70
0
71
0
40
0
41
1
42
0
50
0
0
ENDTAB
0
TABLE
2
DIMSTYLE
5
138
100
AcDbSymbolTable
100
AcDbDimStyleTable
0
DIMSTYLE
105
27
100
AcDbSymbolTableRecord
100
AcDbDimStyleTableRecord
2
Standard
70
0
3
<>
41
0.18
42
0.0625
44
0.18
140
0.18
147
0.09
73
0
74
0
77
1
271
2
275
0
278
52
280
0
340
11
0
ENDTAB
0
TABLE
2
VIEW
5
139
100
AcDbSymbolTable
0
ENDTAB
0
TABLE
2
UCS
5
13a
100
AcDbSymbolTable
0
ENDTAB
0
TABLE
2
APPID
5
13b
100
AcDbSymbolTable
0
APPID
5
12
100
AcDbSymbolTableRecord
100
AcDbRegAppTableRecord
2
ACAD
70
0
0
ENDTAB
0
TABLE
2
BLOCK_RECORD
5
13c
100
AcDbSymbolTable
0
BLOCK_RECORD
5
1F
100
AcDbSymbolTableRecord
100
AcDbBlockTableRecord
2
*Model_Space
340
0
70
0
0
BLOCK_RECORD
5
1B
100
AcDbSymbolTableRecord
100
AcDbBlockTableRecord
2
*Paper_Space
340
0
70
0
0
BLOCK_RECORD
5
23
100
AcDbSymbolTableRecord
100
AcDbBlockTableRecord
2
*Paper_Space0
340
0
70
0
0
BLOCK_RECORD
5
C3
100
AcDbSymbolTableRecord
100
AcDbBlockTableRecord
2
DimnDraft3D11
340
0
70
0
0
BLOCK_RECORD
5
D1
100
AcDbSymbolTableRecord
100
AcDbBlockTableRecord
2
DimnDraft3D2
340
0
70
0
0
BLOCK_RECORD
5
DF
100
AcDbSymbolTableRecord
100
AcDbBlockTableRecord
2
_CLOSED
340
0
70
0
0
BLOCK_RECORD
5
E6
100
AcDbSymbolTableRecord
100
AcDbBlockTableRecord
2
DimnDraft3D3
340
0
70
0
0
BLOCK_RECORD
5
F4
100
AcDbSymbolTableRecord
100
AcDbBlockTableRecord
2
DimnDraft3D4
340
0
70
0
0
ENDTAB
0
ENDSEC
0
SECTION
2
BLOCKS
0
BLOCK
5
20
100
AcDbEntity
8
0
100
AcDbBlockBegin
2
*Model_Space
70
0
10
0
20
0
30
0
3
*Model_Space
0
ENDBLK
5
21
100
AcDbEntity
8
0
100
AcDbBlockEnd
0
BLOCK
5
1C
100
AcDbEntity
8
0
100
AcDbBlockBegin
2
*Paper_Space
70
0
10
0
20
0
30
0
3
*Paper_Space
0
ENDBLK
5
1D
100
AcDbEntity
8
0
100
AcDbBlockEnd
0
BLOCK
5
24
100
AcDbEntity
8
0
100
AcDbBlockBegin
2
*Paper_Space0
70
0
10
0
20
0
30
0
3
*Paper_Space0
0
ENDBLK
5
25
100
AcDbEntity
8
0
100
AcDbBlockEnd
0
BLOCK
5
C4
100
AcDbEntity
8
0
100
AcDbBlockBegin
2
DimnDraft3D11
70
0
10
0
20
0
30
0
3
DimnDraft3D11
0
LINE
5
C6
100
AcDbEntity
8
SK2
62
256
6
ByLayer
370
-1
48
1
60
0
100
AcDbLine
10
13.303125
20
-7.580239
30
0
11
13.303125
21
-31.830239
31
0
39
0
210
0
220
0
230
1
0
LINE
5
C7
100
AcDbEntity
8
SK2
62
256
6
ByLayer
370
-1
48
1
60
0
100
AcDbLine
10
-88.046875
20
-9.9375
30
0
11
-88.046875
21
-31.830239
31
0
39
0
210
0
220
0
230
1
0
LINE
5
C8
100
AcDbEntity
8
SK2
62
256
6
ByLayer
370
-1
48
1
60
0
100
AcDbLine
10
13.303125
20
-29.830239
30
0
11
-88.046875
21
-29.830239
31
0
39
0
210
0
220
0
230
1
0
LINE
5
C9
100
AcDbEntity
8
SK2
62
256
6
ByLayer
370
-1
48
1
60
0
100
AcDbLine
10
13.303125
20
-29.830239
30
0
11
10.128127
21
-30.248236
31
0
39
0
210
0
220
0
230
1
0
LINE
5
CA
100
AcDbEntity
8
SK2
62
256
6
ByLayer
370
-1
48
1
60
0
100
AcDbLine
10
13.303125
20
-29.830239
30
0
11
10.128123
21
-29.412242
31
0
39
0
210
0
220
0
230
1
0
LINE
5
CB
100
AcDbEntity
8
SK2
62
256
6
ByLayer
370
-1
48
1
60
0
100
AcDbLine
10
10.128127
20
-30.248236
30
0
11
10.128123
21
-29.412242
31
0
39
0
210
0
220
0
230
1
0
LINE
5
CC
100
AcDbEntity
8
SK2
62
256
6
ByLayer
370
-1
48
1
60
0
100
AcDbLine
10
-88.046875
20
-29.830239
30
0
11
-84.871877
21
-29.412242
31
0
39
0
210
0
220
0
230
1
0
LINE
5
CD
100
AcDbEntity
8
SK2
62
256
6
ByLayer
370
-1
48
1
60
0
100
AcDbLine
10
-88.046875
20
-29.830239
30
0
11
-84.871873
21
-30.248236
31
0
39
0
210
0
220
0
230
1
0
LINE
5
CE
100
AcDbEntity
8
SK2
62
256
6
ByLayer
370
-1
48
1
60
0
100
AcDbLine
10
-84.871877
20
-29.412242
30
0
11
-84.871873
21
-30.248236
31
0
39
0
210
0
220
0
230
1
0
MTEXT
5
CF
100
AcDbEntity
8
SK2
62
256
6
ByLayer
370
-1
48
1
60
0
100
AcDbMText
10
-39.965296
20
-28.705239
30
0
210
0
220
0
230
1
1
\W00.604;\fsimplex.shx,bigfont.shx;100 
40
4.5
41
0
44
1.084337
50
0
71
7
72
5
7
DEFAULT
0
ENDBLK
5
C5
100
AcDbEntity
8
0
100
AcDbBlockEnd
0
BLOCK
5
DC
100
AcDbEntity
8
0
100
AcDbBlockBegin
2
DimnDraft3D2
70
0
10
0
20
0
30
0
3
DimnDraft3D2
0
MTEXT
5
D2
100
AcDbEntity
8
2
62
256
6
ByLayer
370
-1
48
1
60
0
100
AcDbMText
10
-1.472382
20
-20.512323
30
0
210
0
220
0
230
1
1
\W01.000;\fsimplex.shx,bigfont.shx;60%%d0' 
40
4.5
41
0
44
1.084337
50
330
71
7
72
5
7
DEFAULT
0
LINE
5
D3
100
AcDbEntity
8
2
62
256
6
ByLayer
370
-1
48
1
60
0
100
AcDbLine
10
13.303125
20
-7.580239
30
0
11
13.303125
21
-29.002084
31
0
39
0
210
0
220
0
230
1
0
LINE
5
D4
100
AcDbEntity
8
2
62
256
6
ByLayer
370
-1
48
1
60
0
100
AcDbLine
10
10.506611
20
-7.027068
30
0
11
-7.126054
21
-17.207292
31
0
39
0
210
0
220
0
230
1
0
ARC
5
D5
100
AcDbEntity
8
2
62
256
6
ByLayer
370
-1
48
1
60
0
100
AcDbCircle
39
0
10
13.303125
20
-5.4125
30
0
40
21.5895838193884
210
0
220
0
230
1
100
AcDbArc
50
182.476673
51
297.523327
0
LINE
5
D6
100
AcDbEntity
8
2
62
256
6
ByLayer
370
-1
48
1
60
0
100
AcDbLine
10
13.303125
20
-27.002084
30
0
11
16.460649
21
-26.467874
31
0
39
0
210
0
220
0
230
1
0
LINE
5
D7
100
AcDbEntity
8
2
62
256
6
ByLayer
370
-1
48
1
60
0
100
AcDbLine
10
13.303125
20
-27.002084
30
0
11
16.491325
21
-27.303305
31
0
39
0
210
0
220
0
230
1
0
LINE
5
D8
100
AcDbEntity
8
2
62
256
6
ByLayer
370
-1
48
1
60
0
100
AcDbLine
10
16.460649
20
-26.467874
30
0
11
16.491325
21
-27.303305
31
0
39
0
210
0
220
0
230
1
0
LINE
5
D9
100
AcDbEntity
8
2
62
256
6
ByLayer
370
-1
48
1
60
0
100
AcDbLine
10
-5.394003
20
-16.207292
30
0
11
-7.248967
21
-13.596842
31
0
39
0
210
0
220
0
230
1
0
LINE
5
DA
100
AcDbEntity
8
2
62
256
6
ByLayer
370
-1
48
1
60
0
100
AcDbLine
10
-5.394003
20
-16.207292
30
0
11
-6.510127
21
-13.205689
31
0
39
0
210
0
220
0
230
1
0
LINE
5
DB
100
AcDbEntity
8
2
62
256
6
ByLayer
370
-1
48
1
60
0
100
AcDbLine
10
-7.248967
20
-13.596842
30
0
11
-6.510127
21
-13.205689
31
0
39
0
210
0
220
0
230
1
0
ENDBLK
5
DD
100
AcDbEntity
8
0
100
AcDbBlockEnd
0
BLOCK
5
E0
100
AcDbEntity
8
0
100
AcDbBlockBegin
2
_CLOSED
70
0
10
0
20
0
30
0
3
_CLOSED
0
LINE
5
E2
100
AcDbEntity
8
0
62
256
6
ByLayer
370
-2
48
1
60
0
100
AcDbLine
10
-1
20
0.166667
30
0
11
0
21
0
31
0
39
0
210
0
220
0
230
1
0
LINE
5
E3
100
AcDbEntity
8
0
62
256
6
ByLayer
370
-2
48
1
60
0
100
AcDbLine
10
0
20
0
30
0
11
-1
21
-0.166667
31
0
39
0
210
0
220
0
230
1
0
LINE
5
E4
100
AcDbEntity
8
0
62
256
6
ByLayer
370
-2
48
1
60
0
100
AcDbLine
10
-1
20
0.166667
30
0
11
-1
21
-0.166667
31
0
39
0
210
0
220
0
230
1
0
LINE
5
E5
100
AcDbEntity
8
0
62
256
6
ByLayer
370
-2
48
1
60
0
100
AcDbLine
10
0
20
0
30
0
11
-1
21
0
31
0
39
0
210
0
220
0
230
1
0
ENDBLK
5
E1
100
AcDbEntity
8
0
100
AcDbBlockEnd
0
BLOCK
5
F1
100
AcDbEntity
8
0
100
AcDbBlockBegin
2
DimnDraft3D3
70
0
10
0
20
0
30
0
3
DimnDraft3D3
0
MTEXT
5
E7
100
AcDbEntity
8
2
62
256
6
ByLayer
370
-1
48
1
60
0
100
AcDbMText
10
39.428125
20
0.321053
30
0
210
0
220
0
230
1
1
\W01.000;\fsimplex.shx,bigfont.shx;13 
40
4.5
41
0
44
1.084337
50
90
71
7
72
5
7
DEFAULT
0
LINE
5
E8
100
AcDbEntity
8
2
62
256
6
ByLayer
370
-1
48
1
60
0
100
AcDbLine
10
2
20
7.9375
30
0
11
42.553125
21
7.9375
31
0
39
0
210
0
220
0
230
1
0
LINE
5
E9
100
AcDbEntity
8
2
62
256
6
ByLayer
370
-1
48
1
60
0
100
AcDbLine
10
15.303125
20
-5.4125
30
0
11
42.553125
21
-5.4125
31
0
39
0
210
0
220
0
230
1
0
LINE
5
EA
100
AcDbEntity
8
2
62
256
6
ByLayer
370
-1
48
1
60
0
100
AcDbLine
10
40.553125
20
19.1875
30
0
11
40.553125
21
-16.6625
31
0
39
0
210
0
220
0
230
1
0
LINE
5
EB
100
AcDbEntity
8
2
62
256
6
ByLayer
370
-1
48
1
60
0
100
AcDbLine
10
40.553125
20
7.9375
30
0
11
40.135128
21
11.112498
31
0
39
0
210
0
220
0
230
1
0
LINE
5
EC
100
AcDbEntity
8
2
62
256
6
ByLayer
370
-1
48
1
60
0
100
AcDbLine
10
40.553125
20
7.9375
30
0
11
40.971122
21
11.112502
31
0
39
0
210
0
220
0
230
1
0
LINE
5
ED
100
AcDbEntity
8
2
62
256
6
ByLayer
370
-1
48
1
60
0
100
AcDbLine
10
40.135128
20
11.112498
30
0
11
40.971122
21
11.112502
31
0
39
0
210
0
220
0
230
1
0
LINE
5
EE
100
AcDbEntity
8
2
62
256
6
ByLayer
370
-1
48
1
60
0
100
AcDbLine
10
40.553125
20
-5.4125
30
0
11
40.971122
21
-8.587498
31
0
39
0
210
0
220
0
230
1
0
LINE
5
EF
100
AcDbEntity
8
2
62
256
6
ByLayer
370
-1
48
1
60
0
100
AcDbLine
10
40.553125
20
-5.4125
30
0
11
40.135128
21
-8.587502
31
0
39
0
210
0
220
0
230
1
0
LINE
5
F0
100
AcDbEntity
8
2
62
256
6
ByLayer
370
-1
48
1
60
0
100
AcDbLine
10
40.971122
20
-8.587498
30
0
11
40.135128
21
-8.587502
31
0
39
0
210
0
220
0
230
1
0
ENDBLK
5
F2
100
AcDbEntity
8
0
100
AcDbBlockEnd
0
BLOCK
5
FF
100
AcDbEntity
8
0
100
AcDbBlockBegin
2
DimnDraft3D4
70
0
10
0
20
0
30
0
3
DimnDraft3D4
0
MTEXT
5
F5
100
AcDbEntity
8
SK2
62
256
6
ByLayer
370
-1
48
1
60
0
100
AcDbMText
10
-98.921875
20
-0.941447
30
0
210
0
220
0
230
1
1
\W01.000;\fsimplex.shx,bigfont.shx;16 
40
4.5
41
0
44
1.084337
50
90
71
7
72
5
7
DEFAULT
0
LINE
5
F6
100
AcDbEntity
8
SK2
62
256
6
ByLayer
370
-1
48
1
60
0
100
AcDbLine
10
-90.046875
20
7.9375
30
0
11
-99.796875
21
7.9375
31
0
39
0
210
0
220
0
230
1
0
LINE
5
F7
100
AcDbEntity
8
SK2
62
256
6
ByLayer
370
-1
48
1
60
0
100
AcDbLine
10
-90.046875
20
-7.9375
30
0
11
-99.796875
21
-7.9375
31
0
39
0
210
0
220
0
230
1
0
LINE
5
F8
100
AcDbEntity
8
SK2
62
256
6
ByLayer
370
-1
48
1
60
0
100
AcDbLine
10
-97.796875
20
7.9375
30
0
11
-97.796875
21
-7.9375
31
0
39
0
210
0
220
0
230
1
0
LINE
5
F9
100
AcDbEntity
8
SK2
62
256
6
ByLayer
370
-1
48
1
60
0
100
AcDbLine
10
-97.796875
20
7.9375
30
0
11
-97.378878
21
4.762502
31
0
39
0
210
0
220
0
230
1
0
LINE
5
FA
100
AcDbEntity
8
SK2
62
256
6
ByLayer
370
-1
48
1
60
0
100
AcDbLine
10
-97.796875
20
7.9375
30
0
11
-98.214872
21
4.762498
31
0
39
0
210
0
220
0
230
1
0
LINE
5
FB
100
AcDbEntity
8
SK2
62
256
6
ByLayer
370
-1
48
1
60
0
100
AcDbLine
10
-97.378878
20
4.762502
30
0
11
-98.214872
21
4.762498
31
0
39
0
210
0
220
0
230
1
0
LINE
5
FC
100
AcDbEntity
8
SK2
62
256
6
ByLayer
370
-1
48
1
60
0
100
AcDbLine
10
-97.796875
20
-7.9375
30
0
11
-98.214872
21
-4.762502
31
0
39
0
210
0
220
0
230
1
0
LINE
5
FD
100
AcDbEntity
8
SK2
62
256
6
ByLayer
370
-1
48
1
60
0
100
AcDbLine
10
-97.796875
20
-7.9375
30
0
11
-97.378878
21
-4.762498
31
0
39
0
210
0
220
0
230
1
0
LINE
5
FE
100
AcDbEntity
8
SK2
62
256
6
ByLayer
370
-1
48
1
60
0
100
AcDbLine
10
-98.214872
20
-4.762502
30
0
11
-97.378878
21
-4.762498
31
0
39
0
210
0
220
0
230
1
0
ENDBLK
5
100
100
AcDbEntity
8
0
100
AcDbBlockEnd
0
ENDSEC
0
SECTION
2
ENTITIES
0
ARC
5
6C
100
AcDbEntity
8
1
62
256
6
ByLayer
370
-1
48
1
60
0
100
AcDbCircle
39
0
10
4.55
20
-0.333622
30
0
40
1.04999999999999
210
0
220
0
230
1
100
AcDbArc
50
350.923008
51
37.513153
0
ARC
5
6D
100
AcDbEntity
8
1
62
256
6
ByLayer
370
-1
48
1
60
0
100
AcDbCircle
39
0
10
-4.55
20
-0.333622
30
0
40
1.04999999999999
210
0
220
0
230
-1
100
AcDbArc
50
290.925819
51
136.44267
0
ARC
5
6E
100
AcDbEntity
8
1
62
256
6
ByLayer
370
-1
48
1
60
0
100
AcDbCircle
39
0
10
-5.547341
20
-0.933364
30
0
40
1.25
210
0
220
0
230
-1
100
AcDbArc
50
82.439457
51
90
0
ARC
5
6F
100
AcDbEntity
8
1
62
256
6
ByLayer
370
-1
48
1
60
0
100
AcDbCircle
39
0
10
-5.547341
20
-0.933364
30
0
40
1.34423045315122
210
0
220
0
230
-1
100
AcDbArc
50
79.870184
51
90
0
ARC
5
70
100
AcDbEntity
8
1
62
256
6
ByLayer
370
-1
48
1
60
0
100
AcDbCircle
39
0
10
-5.797341
20
-0.933364
30
0
40
1.25
210
0
220
0
230
-1
100
AcDbArc
50
90
51
180
0
ARC
5
71
100
AcDbEntity
8
1
62
256
6
ByLayer
370
-1
48
1
60
0
100
AcDbCircle
39
0
10
-5.797341
20
-0.933364
30
0
40
1.34423045315122
210
0
220
0
230
-1
100
AcDbArc
50
90
51
180
0
ARC
5
74
100
AcDbEntity
8
1
62
256
6
ByLayer
370
-1
48
1
60
0
100
AcDbCircle
39
0
10
4.572
20
-0.371727
30
0
40
0.397000000000025
210
0
220
0
230
1
100
AcDbArc
50
60
51
180
0
ARC
5
75
100
AcDbEntity
8
1
62
256
6
ByLayer
370
-1
48
1
60
0
100
AcDbCircle
39
0
10
-7.35
20
-5.183364
30
0
40
0.748000000000013
210
0
220
0
230
-1
100
AcDbArc
50
150.024579
51
209.975421
0
ARC
5
76
100
AcDbEntity
8
1
62
256
6
ByLayer
370
-1
48
1
60
0
100
AcDbCircle
39
0
10
7.35
20
-5.183364
30
0
40
1.03499999999999
210
0
220
0
230
1
100
AcDbArc
50
239.950841
51
300.049159
0
ARC
5
77
100
AcDbEntity
8
1
62
256
6
ByLayer
370
-1
48
1
60
0
100
AcDbCircle
39
0
10
7.35
20
-5.183364
30
0
40
1.03499999999999
210
0
220
0
230
1
100
AcDbArc
50
300.049159
51
0
0
ARC
5
78
100
AcDbEntity
8
1
62
256
6
ByLayer
370
-1
48
1
60
0
100
AcDbCircle
39
0
10
7.35
20
-5.183364
30
0
40
0.748000000000013
210
0
220
0
230
1
100
AcDbArc
50
267.838153
51
272.161847
0
ARC
5
79
100
AcDbEntity
8
1
62
256
6
ByLayer
370
-1
48
1
60
0
100
AcDbCircle
39
0
10
7.35
20
-5.183364
30
0
40
0.748000000000013
210
0
220
0
230
1
100
AcDbArc
50
87.838153
51
92.161847
0
ARC
5
7A
100
AcDbEntity
8
1
62
256
6
ByLayer
370
-1
48
1
60
0
100
AcDbCircle
39
0
10
7.35
20
-5.183364
30
0
40
1.03499999999999
210
0
220
0
230
1
100
AcDbArc
50
59.950841
51
120.049159
0
ARC
5
7B
100
AcDbEntity
8
1
62
256
6
ByLayer
370
-1
48
1
60
0
100
AcDbCircle
39
0
10
12.906
20
-5.183364
30
0
40
0.397000000000019
210
0
220
0
230
1
100
AcDbArc
50
300
51
60
0
ARC
5
7E
100
AcDbEntity
8
1
62
256
6
ByLayer
370
-1
48
1
60
0
100
AcDbCircle
39
0
10
-7.35
20
-5.183364
30
0
40
0.748000000000013
210
0
220
0
230
-1
100
AcDbArc
50
330.024579
51
29.975421
0
ARC
5
80
100
AcDbEntity
8
1
62
256
6
ByLayer
370
-1
48
1
60
0
100
AcDbCircle
39
0
10
7.35
20
-5.183364
30
0
40
1.03499999999999
210
0
220
0
230
1
100
AcDbArc
50
120.049159
51
180
0
ARC
5
81
100
AcDbEntity
8
1
62
256
6
ByLayer
370
-1
48
1
60
0
100
AcDbCircle
39
0
10
7.35
20
-5.183364
30
0
40
0.748000000000013
210
0
220
0
230
1
100
AcDbArc
50
209.975421
51
267.838153
0
ARC
5
82
100
AcDbEntity
8
1
62
256
6
ByLayer
370
-1
48
1
60
0
100
AcDbCircle
39
0
10
-7.35
20
-5.183364
30
0
40
0.748000000000013
210
0
220
0
230
-1
100
AcDbArc
50
29.975421
51
87.838153
0
ARC
5
83
100
AcDbEntity
8
1
62
256
6
ByLayer
370
-1
48
1
60
0
100
AcDbCircle
39
0
10
-7.35
20
-5.183364
30
0
40
0.748000000000013
210
0
220
0
230
-1
100
AcDbArc
50
92.161847
51
150.024579
0
ARC
5
84
100
AcDbEntity
8
1
62
256
6
ByLayer
370
-1
48
1
60
0
100
AcDbCircle
39
0
10
7.35
20
-5.183364
30
0
40
1.03499999999999
210
0
220
0
230
1
100
AcDbArc
50
0
51
59.950841
0
ARC
5
85
100
AcDbEntity
8
1
62
256
6
ByLayer
370
-1
48
1
60
0
100
AcDbCircle
39
0
10
4.572
20
-9.995001
30
0
40
0.397000000000022
210
0
220
0
230
1
100
AcDbArc
50
180
51
300
0
ARC
5
86
100
AcDbEntity
8
1
62
256
6
ByLayer
370
-1
48
1
60
0
100
AcDbCircle
39
0
10
-7.35
20
-5.183364
30
0
40
0.748000000000013
210
0
220
0
230
-1
100
AcDbArc
50
209.975421
51
267.838153
0
ARC
5
87
100
AcDbEntity
8
1
62
256
6
ByLayer
370
-1
48
1
60
0
100
AcDbCircle
39
0
10
7.35
20
-5.183364
30
0
40
1.03499999999999
210
0
220
0
230
1
100
AcDbArc
50
180
51
239.950841
0
CIRCLE
5
72
100
AcDbEntity
8
1
62
256
6
ByLayer
370
-1
48
1
60
0
100
AcDbCircle
10
7.35
20
-5.183364
30
0
40
1.92255023212159
39
0
210
0
220
0
230
1
0
CIRCLE
5
73
100
AcDbEntity
8
1
62
256
6
ByLayer
370
-1
48
1
60
0
100
AcDbCircle
10
7.35
20
-5.183364
30
0
40
1.3
39
0
210
0
220
0
230
1
0
CIRCLE
5
7C
100
AcDbEntity
8
1
62
256
6
ByLayer
370
-1
48
1
60
0
100
AcDbCircle
10
7.35
20
-5.183364
30
0
40
1.725
39
0
210
0
220
0
230
1
0
CIRCLE
5
7D
100
AcDbEntity
8
1
62
256
6
ByLayer
370
-1
48
1
60
0
100
AcDbCircle
10
7.35
20
-5.183364
30
0
40
1.8807992955115
39
0
210
0
220
0
230
1
0
CIRCLE
5
7F
100
AcDbEntity
8
1
62
256
6
ByLayer
370
-1
48
1
60
0
100
AcDbCircle
10
-7.35
20
-5.183364
30
0
40
1.82993757181567
39
0
210
0
220
0
230
-1
0
POINT
5
41
100
AcDbEntity
8
81
62
256
6
ByLayer
370
-1
48
1
60
0
100
AcDbPoint
10
13.303125
20
-5.4125
30
0
39
0
210
0
220
0
230
1
50
360
0
POINT
5
43
100
AcDbEntity
8
SK2
62
256
6
ByLayer
370
-1
48
1
60
0
100
AcDbPoint
10
13.303125
20
21.2875
30
0
39
0
210
0
220
0
230
1
50
360
0
POINT
5
45
100
AcDbEntity
8
SK2
62
256
6
ByLayer
370
-1
48
1
60
0
100
AcDbPoint
10
13.303125
20
21.2875
30
0
39
0
210
0
220
0
230
1
50
360
0
POINT
5
46
100
AcDbEntity
8
2
62
256
6
ByLayer
370
-1
48
1
60
0
100
AcDbPoint
10
13.303125
20
21.2875
30
0
39
0
210
0
220
0
230
1
50
360
0
POINT
5
48
100
AcDbEntity
8
SK2
62
256
6
ByLayer
370
-1
48
1
60
0
100
AcDbPoint
10
13.303125
20
21.2875
30
0
39
0
210
0
220
0
230
1
50
360
0
POINT
5
49
100
AcDbEntity
8
80
62
256
6
ByLayer
370
-1
48
1
60
0
100
AcDbPoint
10
0
20
0
30
0
39
0
210
0
220
0
230
1
50
360
0
POINT
5
4B
100
AcDbEntity
8
SK2
62
256
6
ByLayer
370
-1
48
1
60
0
100
AcDbPoint
10
13.303125
20
21.2875
30
0
39
0
210
0
220
0
230
1
50
360
0
SPLINE
5
88
100
AcDbEntity
8
1
62
256
6
ByLayer
370
-1
48
1
60
0
100
AcDbSpline
70
4
71
3
72
8
73
4
40
0
40
0
40
0
40
0
40
1
40
1
40
1
40
1
41
1
10
5.38287424577433
20
0.30576886763879
30
0
41
1
10
5.36079233988875
20
0.334532892798336
30
0
41
1
10
5.3368448571598
20
0.362647257771556
30
0
41
1
10
5.31091950214159
20
0.389912192195027
30
0
0
SPLINE
5
89
100
AcDbEntity
8
1
62
256
6
ByLayer
370
-1
48
1
60
0
100
AcDbSpline
70
4
71
3
72
16
73
12
40
0
40
0
40
0
40
0
40
0.067055361281171
40
0.067055361281171
40
0.291697905104259
40
0.291697905104259
40
0.519329228663726
40
0.519329228663726
40
0.761535715028623
40
0.761535715028623
40
1
40
1
40
1
40
1
41
1
10
6.315
20
-5.18336411191535
30
0
41
1
10
6.315
20
-5.17772323424083
30
0
41
1
10
6.31525877635789
20
-5.17207517387078
30
0
41
1
10
6.31748757230289
20
-5.14778051541276
30
0
41
1
10
6.32214918167128
20
-5.12918754062534
30
0
41
1
10
6.33646755420566
20
-5.094860850629
30
0
41
1
10
6.34635843318506
20
-5.07872566367692
30
0
41
1
10
6.37038965563772
20
-5.04994855749445
30
0
41
1
10
6.38504714690154
20
-5.03722299795336
30
0
41
1
10
6.4162425259662
20
-5.01739263009227
30
0
41
1
10
6.43306223408487
20
-5.00998632043462
30
0
41
1
10
6.45016868398099
20
-5.00520171424455
30
0
0
SPLINE
5
8A
100
AcDbEntity
8
1
62
256
6
ByLayer
370
-1
48
1
60
0
100
AcDbSpline
70
4
71
3
72
18
73
14
40
0
40
0
40
0
40
0
40
0.213393079737781
40
0.213393079737781
40
0.389003177496017
40
0.389003177496017
40
0.566251555260761
40
0.566251555260761
40
0.721174645896003
40
0.721174645896003
40
0.927415342089867
40
0.927415342089867
40
1
40
1
40
1
40
1
41
1
10
6.45016868398099
20
-5.36152650958616
30
0
41
1
10
6.49192508813027
20
-5.37320561021673
30
0
41
1
10
6.53327874073415
20
-5.3918196061484
30
0
41
1
10
6.60266002983695
20
-5.43828579713488
30
0
41
1
10
6.63247866881383
20
-5.46452563069684
30
0
41
1
10
6.68398035865329
20
-5.52516922764147
30
0
41
1
10
6.70625604708499
20
-5.56060976275839
30
0
41
1
10
6.7367969242348
20
-5.62974039084432
30
0
41
1
10
6.7468878027889
20
-5.66389013500995
30
0
41
1
10
6.76011546664503
20
-5.74198285606337
30
0
41
1
10
6.76022103726143
20
-5.78675544688608
30
0
41
1
10
6.75189114819628
20
-5.84384410147828
30
0
41
1
10
6.74891333838883
20
-5.85859967078781
30
0
41
1
10
6.74519922829992
20
-5.87304103902204
30
0
0
SPLINE
5
8B
100
AcDbEntity
8
1
62
256
6
ByLayer
370
-1
48
1
60
0
100
AcDbSpline
70
4
71
3
72
14
73
10
40
0
40
0
40
0
40
0
40
0.284519249123176
40
0.284519249123176
40
0.571733062184368
40
0.571733062184368
40
0.831996244286504
40
0.831996244286504
40
1
40
1
40
1
40
1
41
1
10
6.45016868398096
20
-5.36152650958618
30
0
41
1
10
6.42978889955216
20
-5.35582636470966
30
0
41
1
10
6.40976548377913
20
-5.34636000571953
30
0
41
1
10
6.37390270551143
20
-5.32053578870469
30
0
41
1
10
6.35757362959987
20
-5.30368258199474
30
0
41
1
10
6.3334740327125
20
-5.26664593582476
30
0
41
1
10
6.32471249422525
20
-5.24634529061157
30
0
41
1
10
6.31663911464511
20
-5.21164775870682
30
0
41
1
10
6.315
20
-5.19745175102747
30
0
41
1
10
6.315
20
-5.18336411191535
30
0
0
SPLINE
5
8C
100
AcDbEntity
8
1
62
256
6
ByLayer
370
-1
48
1
60
0
100
AcDbSpline
70
4
71
3
72
14
73
10
40
0
40
0
40
0
40
0
40
0.283738489034196
40
0.283738489034196
40
0.570489531030819
40
0.570489531030819
40
0.830294403552204
40
0.830294403552204
40
1
40
1
40
1
40
1
41
1
10
7.64590850016208
20
-4.31570988037188
30
0
41
1
10
7.660992864939
20
-4.30087421551681
30
0
41
1
10
7.67916320906082
20
-4.28822267204418
30
0
41
1
10
7.71941952267878
20
-4.26996279205184
30
0
41
1
10
7.74218390432259
20
-4.26418430821153
30
0
41
1
10
7.78633933436763
20
-4.26172369012701
30
0
41
1
10
7.80832590191511
20
-4.26423813535752
30
0
41
1
10
7.84262461632278
20
-4.27458100165254
30
0
41
1
10
7.85591671494265
20
-4.28032650862048
30
0
41
1
10
7.86826884773998
20
-4.28747215332757
30
0
0
SPLINE
5
8D
100
AcDbEntity
8
1
62
256
6
ByLayer
370
-1
48
1
60
0
100
AcDbSpline
70
4
71
3
72
12
73
8
40
0
40
0
40
0
40
0
40
0.464379035262701
40
0.464379035262701
40
0.846391164400078
40
0.846391164400078
40
1
40
1
40
1
40
1
41
1
10
7.64590850016208
20
-4.31570988037188
30
0
41
1
10
7.61496078214742
20
-4.34614735515351
30
0
41
1
10
7.5781909702846
20
-4.37277077425162
30
0
41
1
10
7.50327987860129
20
-4.40982633920109
30
0
41
1
10
7.46564897743835
20
-4.42262214079886
30
0
41
1
10
7.41072752014702
20
-4.43276061051782
30
0
41
1
10
7.3945072810906
20
-4.4348047858806
30
0
41
1
10
7.37821635506313
20
-4.43589649568909
30
0
0
SPLINE
5
8E
100
AcDbEntity
8
1
62
256
6
ByLayer
370
-1
48
1
60
0
100
AcDbSpline
70
4
71
3
72
18
73
14
40
0
40
0
40
0
40
0
40
0.213394464779721
40
0.213394464779721
40
0.38900432261065
40
0.38900432261065
40
0.566252444177934
40
0.566252444177934
40
0.721175490823022
40
0.721175490823022
40
0.927416435499154
40
0.927416435499154
40
1
40
1
40
1
40
1
41
1
10
6.74519922829995
20
-4.49368718480866
30
0
41
1
10
6.75599913539187
20
-4.53567986447501
30
0
41
1
10
6.76059446820685
20
-4.58079657003447
30
0
41
1
10
6.75511550167818
20
-4.66412062574796
30
0
41
1
10
6.74733380239013
20
-4.70307087911348
30
0
41
1
10
6.72062993495734
20
-4.77801725250859
30
0
41
1
10
6.70110710213112
20
-4.81504550884733
30
0
41
1
10
6.65656098108292
20
-4.87609811332672
30
0
41
1
10
6.63205400832982
20
-4.90193292880002
30
0
41
1
10
6.5710808263276
20
-4.95248704680776
30
0
41
1
10
6.53237864244869
20
-4.97499794489471
30
0
41
1
10
6.47879193874024
20
-4.99637420184655
30
0
41
1
10
6.46452867299121
20
-5.00118528227151
30
0
41
1
10
6.45016868398099
20
-5.00520171424455
30
0
0
SPLINE
5
8F
100
AcDbEntity
8
1
62
256
6
ByLayer
370
-1
48
1
60
0
100
AcDbSpline
70
4
71
3
72
18
73
14
40
0
40
0
40
0
40
0
40
0.213394464779724
40
0.213394464779724
40
0.389004322610656
40
0.389004322610656
40
0.566252444177947
40
0.566252444177947
40
0.721175490823038
40
0.721175490823038
40
0.927416435499174
40
0.927416435499174
40
1
40
1
40
1
40
1
41
1
10
7.95480077170004
20
-5.87304103902204
30
0
41
1
10
7.94400086460809
20
-5.83104835935569
30
0
41
1
10
7.93940553179311
20
-5.78593165379624
30
0
41
1
10
7.94488449832181
20
-5.70260759808275
30
0
41
1
10
7.95266619760986
20
-5.66365734471722
30
0
41
1
10
7.97937006504262
20
-5.58871097132212
30
0
41
1
10
7.99889289786887
20
-5.5516827149834
30
0
41
1
10
8.04343901891707
20
-5.49063011050401
30
0
41
1
10
8.06794599167014
20
-5.46479529503068
30
0
41
1
10
8.12891917367233
20
-5.41424117702294
30
0
41
1
10
8.16762135755127
20
-5.39173027893602
30
0
41
1
10
8.22120806125972
20
-5.37035402198416
30
0
41
1
10
8.23547132700872
20
-5.3655429415592
30
0
41
1
10
8.24983131601897
20
-5.36152650958618
30
0
0
SPLINE
5
90
100
AcDbEntity
8
1
62
256
6
ByLayer
370
-1
48
1
60
0
100
AcDbSpline
70
4
71
3
72
14
73
10
40
0
40
0
40
0
40
0
40
0.284519249123139
40
0.284519249123139
40
0.571733062184371
40
0.571733062184371
40
0.831996244286453
40
0.831996244286453
40
1
40
1
40
1
40
1
41
1
10
8.24983131601897
20
-5.00520171424452
30
0
41
1
10
8.2702111004478
20
-5.01090185912105
30
0
41
1
10
8.29023451622083
20
-5.02036821811117
30
0
41
1
10
8.32609729448853
20
-5.04619243512599
30
0
41
1
10
8.34242637040009
20
-5.06304564183597
30
0
41
1
10
8.36652596728749
20
-5.10008228800595
30
0
41
1
10
8.37528750577474
20
-5.12038293321913
30
0
41
1
10
8.38336088535488
20
-5.15508046512389
30
0
41
1
10
8.38499999999999
20
-5.16927647280326
30
0
41
1
10
8.38499999999999
20
-5.18336411191535
30
0
0
SPLINE
5
91
100
AcDbEntity
8
1
62
256
6
ByLayer
370
-1
48
1
60
0
100
AcDbSpline
70
4
71
3
72
14
73
10
40
0
40
0
40
0
40
0
40
0.284523597312276
40
0.284523597312276
40
0.571736866218015
40
0.571736866218015
40
0.831999616286199
40
0.831999616286199
40
1
40
1
40
1
40
1
41
1
10
6.74519922829992
20
-4.49368718480866
30
0
41
1
10
6.73992813983682
20
-4.47319190392892
30
0
41
1
10
6.7380956270396
20
-4.4511191349516
30
0
41
1
10
6.74249121349888
20
-4.40714486528091
30
0
41
1
10
6.74890272691923
20
-4.38457142199991
30
0
41
1
10
6.76889397510053
20
-4.34516522067881
30
0
41
1
10
6.7820789252053
20
-4.32741595221981
30
0
41
1
10
6.80807017264203
20
-4.30305345541561
30
0
41
1
10
6.81953719065089
20
-4.29452629682328
30
0
41
1
10
6.83173115225995
20
-4.28747215332757
30
0
0
SPLINE
5
92
100
AcDbEntity
8
1
62
256
6
ByLayer
370
-1
48
1
60
0
100
AcDbSpline
70
4
71
3
72
14
73
10
40
0
40
0
40
0
40
0
40
0.284523597312268
40
0.284523597312268
40
0.571736866217996
40
0.571736866217996
40
0.831999616286171
40
0.831999616286171
40
1
40
1
40
1
40
1
41
1
10
7.95480077170004
20
-5.87304103902204
30
0
41
1
10
7.96007186016314
20
-5.89353631990178
30
0
41
1
10
7.96190437296036
20
-5.91560908887911
30
0
41
1
10
7.95750878650108
20
-5.95958335854982
30
0
41
1
10
7.95109727308073
20
-5.9821568018308
30
0
41
1
10
7.93110602489941
20
-6.0215630031519
30
0
41
1
10
7.91792107479466
20
-6.0393122716109
30
0
41
1
10
7.8919298273579
20
-6.06367476841513
30
0
41
1
10
7.88046280934904
20
-6.07220192700746
30
0
41
1
10
7.86826884773998
20
-6.07925607050313
30
0
0
SPLINE
5
93
100
AcDbEntity
8
1
62
256
6
ByLayer
370
-1
48
1
60
0
100
AcDbSpline
70
4
71
3
72
16
73
12
40
0
40
0
40
0
40
0
40
0.0650212293342604
40
0.0650212293342604
40
0.289691523269397
40
0.289691523269397
40
0.517236422325962
40
0.517236422325962
40
0.759263521180769
40
0.759263521180769
40
1
40
1
40
1
40
1
41
1
10
6.83173115225998
20
-6.07925607050313
30
0
41
1
10
6.82699554051678
20
-6.07651654369084
30
0
41
1
10
6.82237612271183
20
-6.07356307029056
30
0
41
1
10
6.80255971685318
20
-6.05961888544283
30
0
41
1
10
6.7887592750385
20
-6.0463071541383
30
0
41
1
10
6.76613479852659
20
-6.01678172314453
30
0
41
1
10
6.75707674401446
20
-6.00016614008351
30
0
41
1
10
6.74410888451621
20
-5.96499775054144
30
0
41
1
10
6.74038206892482
20
-5.94595527678615
30
0
41
1
10
6.73872629793567
20
-5.90885621703347
30
0
41
1
10
6.74073341915454
20
-5.89040519700021
30
0
41
1
10
6.74519922829992
20
-5.87304103902204
30
0
0
SPLINE
5
94
100
AcDbEntity
8
1
62
256
6
ByLayer
370
-1
48
1
60
0
100
AcDbSpline
70
4
71
3
72
12
73
8
40
0
40
0
40
0
40
0
40
0.377026254658862
40
0.377026254658862
40
0.761056299192791
40
0.761056299192791
40
1
40
1
40
1
40
1
41
1
10
7.32178364493677
20
-4.43589649568909
30
0
41
1
10
7.28235604026801
20
-4.43325431913814
30
0
41
1
10
7.24314280242967
20
-4.4248538294884
30
0
41
1
10
7.17076883310887
20
-4.39886205114857
30
0
41
1
10
7.13672396243192
20
-4.38084354966207
30
0
41
1
10
7.08771784114714
20
-4.34624076900607
30
0
41
1
10
7.07016193967067
20
-4.33151536260189
30
0
41
1
10
7.05409149983785
20
-4.31570988037188
30
0
0
SPLINE
5
95
100
AcDbEntity
8
1
62
256
6
ByLayer
370
-1
48
1
60
0
100
AcDbSpline
70
4
71
3
72
16
73
12
40
0
40
0
40
0
40
0
40
0.0650212293343384
40
0.0650212293343384
40
0.289691523269446
40
0.289691523269446
40
0.517236422326051
40
0.517236422326051
40
0.759263521180906
40
0.759263521180906
40
1
40
1
40
1
40
1
41
1
10
7.86826884773998
20
-4.28747215332757
30
0
41
1
10
7.87300445948318
20
-4.29021168013989
30
0
41
1
10
7.87762387728816
20
-4.29316515354014
30
0
41
1
10
7.89744028314681
20
-4.3071093383879
30
0
41
1
10
7.91124072496146
20
-4.32042106969243
30
0
41
1
10
7.9338652014734
20
-4.3499465006862
30
0
41
1
10
7.94292325598551
20
-4.3665620837472
30
0
41
1
10
7.95589111548375
20
-4.40173047328929
30
0
41
1
10
7.95961793107512
20
-4.42077294704458
30
0
41
1
10
7.96127370206426
20
-4.45787200679726
30
0
41
1
10
7.95926658084542
20
-4.4763230268305
30
0
41
1
10
7.95480077170004
20
-4.49368718480866
30
0
0
SPLINE
5
96
100
AcDbEntity
8
1
62
256
6
ByLayer
370
-1
48
1
60
0
100
AcDbSpline
70
4
71
3
72
12
73
8
40
0
40
0
40
0
40
0
40
0.377026254865301
40
0.377026254865301
40
0.761056299432579
40
0.761056299432579
40
1
40
1
40
1
40
1
41
1
10
7.37821635506316
20
-5.93083172814161
30
0
41
1
10
7.41764395975346
20
-5.93347390469401
30
0
41
1
10
7.45685719761318
20
-5.94187439435166
30
0
41
1
10
7.52923116695064
20
-5.96786617270973
30
0
41
1
10
7.56327603762654
20
-5.98588467420251
30
0
41
1
10
7.61228215888792
20
-6.02048745485408
30
0
41
1
10
7.62983806034532
20
-6.03521286124459
30
0
41
1
10
7.64590850016208
20
-6.05101834345885
30
0
0
SPLINE
5
97
100
AcDbEntity
8
1
62
256
6
ByLayer
370
-1
48
1
60
0
100
AcDbSpline
70
4
71
3
72
14
73
10
40
0
40
0
40
0
40
0
40
0.283738489034094
40
0.283738489034094
40
0.570489531030662
40
0.570489531030662
40
0.830294403552096
40
0.830294403552096
40
1
40
1
40
1
40
1
41
1
10
7.05409149983785
20
-6.05101834345882
30
0
41
1
10
7.03900713506096
20
-6.06585400831386
30
0
41
1
10
7.02083679093914
20
-6.07850555178652
30
0
41
1
10
6.98058047732121
20
-6.09676543177886
30
0
41
1
10
6.9578160956774
20
-6.10254391561918
30
0
41
1
10
6.91366066563236
20
-6.10500453370369
30
0
41
1
10
6.89167409808488
20
-6.10249008847319
30
0
41
1
10
6.85737538367718
20
-6.09214722217817
30
0
41
1
10
6.84408328505731
20
-6.08640171521023
30
0
41
1
10
6.83173115225998
20
-6.07925607050313
30
0
0
SPLINE
5
98
100
AcDbEntity
8
1
62
256
6
ByLayer
370
-1
48
1
60
0
100
AcDbSpline
70
4
71
3
72
12
73
8
40
0
40
0
40
0
40
0
40
0.464379035262257
40
0.464379035262257
40
0.846391164399304
40
0.846391164399304
40
1
40
1
40
1
40
1
41
1
10
7.05409149983785
20
-6.05101834345882
30
0
41
1
10
7.08503921785251
20
-6.0205808686772
30
0
41
1
10
7.12180902971534
20
-5.99395744957909
30
0
41
1
10
7.19672012139864
20
-5.95690188462964
30
0
41
1
10
7.23435102256158
20
-5.94410608303187
30
0
41
1
10
7.28927247985291
20
-5.93396761331289
30
0
41
1
10
7.30549271890931
20
-5.93192343795013
30
0
41
1
10
7.32178364493677
20
-5.93083172814161
30
0
0
SPLINE
5
99
100
AcDbEntity
8
1
62
256
6
ByLayer
370
-1
48
1
60
0
100
AcDbSpline
70
4
71
3
72
18
73
14
40
0
40
0
40
0
40
0
40
0.213393079737787
40
0.213393079737787
40
0.389003177496028
40
0.389003177496028
40
0.566251555260775
40
0.566251555260775
40
0.721174645896022
40
0.721174645896022
40
0.927415342089893
40
0.927415342089893
40
1
40
1
40
1
40
1
41
1
10
8.24983131601897
20
-5.00520171424452
30
0
41
1
10
8.20807491186969
20
-4.99352261361398
30
0
41
1
10
8.16672125926584
20
-4.9749086176823
30
0
41
1
10
8.09733997016298
20
-4.92844242669582
30
0
41
1
10
8.06752133118613
20
-4.90220259313386
30
0
41
1
10
8.01601964134667
20
-4.84155899618924
30
0
41
1
10
7.99374395291497
20
-4.80611846107232
30
0
41
1
10
7.96320307576514
20
-4.73698783298639
30
0
41
1
10
7.95311219721105
20
-4.70283808882073
30
0
41
1
10
7.93988453335493
20
-4.6247453677673
30
0
41
1
10
7.93977896273856
20
-4.57997277694463
30
0
41
1
10
7.94810885180368
20
-4.52288412235242
30
0
41
1
10
7.9510866616111
20
-4.50812855304289
30
0
41
1
10
7.95480077170004
20
-4.49368718480866
30
0
0
SPLINE
5
9A
100
AcDbEntity
8
1
62
256
6
ByLayer
370
-1
48
1
60
0
100
AcDbSpline
70
4
71
3
72
16
73
12
40
0
40
0
40
0
40
0
40
0.0668638488454084
40
0.0668638488454084
40
0.290854271538511
40
0.290854271538511
40
0.517824973971213
40
0.517824973971213
40
0.759328674281124
40
0.759328674281124
40
1
40
1
40
1
40
1
41
1
10
7.86826884773998
20
-6.07925607050313
30
0
41
1
10
7.86338589892478
20
-6.08208083104685
30
0
41
1
10
7.85836713942996
20
-6.0846851720668
30
0
41
1
10
7.83622144819853
20
-6.09492132468947
30
0
41
1
10
7.81779316063978
20
-6.10019647260421
30
0
41
1
10
7.78091027507429
20
-6.10499123685227
30
0
41
1
10
7.76199093335788
20
-6.10450923117034
30
0
41
1
10
7.72504813339242
20
-6.09811767279768
30
0
41
1
10
7.70669332130845
20
-6.09180235662618
30
0
41
1
10
7.67371315599405
20
-6.0746283579368
30
0
41
1
10
7.65871965105205
20
-6.06361827350702
30
0
41
1
10
7.64590850016208
20
-6.05101834345882
30
0
0
SPLINE
5
9B
100
AcDbEntity
8
1
62
256
6
ByLayer
370
-1
48
1
60
0
100
AcDbSpline
70
4
71
3
72
16
73
12
40
0
40
0
40
0
40
0
40
0.0670553612810794
40
0.0670553612810794
40
0.291697905104145
40
0.291697905104145
40
0.519329228663649
40
0.519329228663649
40
0.761535715028552
40
0.761535715028552
40
1
40
1
40
1
40
1
41
1
10
8.38499999999999
20
-5.18336411191535
30
0
41
1
10
8.38499999999999
20
-5.1890049895899
30
0
41
1
10
8.3847412236421
20
-5.19465304995992
30
0
41
1
10
8.38251242769707
20
-5.21894770841794
30
0
41
1
10
8.37785081832868
20
-5.23754068320537
30
0
41
1
10
8.36353244579433
20
-5.2718673732017
30
0
41
1
10
8.35364156681487
20
-5.28800256015376
30
0
41
1
10
8.32961034436227
20
-5.31677966633623
30
0
41
1
10
8.31495285309842
20
-5.32950522587734
30
0
41
1
10
8.28375747403376
20
-5.34933559373843
30
0
41
1
10
8.26693776591509
20
-5.35674190339608
30
0
41
1
10
8.24983131601897
20
-5.36152650958618
30
0
0
SPLINE
5
9C
100
AcDbEntity
8
1
62
256
6
ByLayer
370
-1
48
1
60
0
100
AcDbSpline
70
4
71
3
72
16
73
12
40
0
40
0
40
0
40
0
40
0.0668638488454022
40
0.0668638488454022
40
0.290854271538556
40
0.290854271538556
40
0.517824973971245
40
0.517824973971245
40
0.759328674281143
40
0.759328674281143
40
1
40
1
40
1
40
1
41
1
10
6.83173115225995
20
-4.28747215332757
30
0
41
1
10
6.83661410107516
20
-4.28464739278388
30
0
41
1
10
6.84163286056997
20
-4.28204305176391
30
0
41
1
10
6.86377855180143
20
-4.27180689914124
30
0
41
1
10
6.88220683936021
20
-4.26653175122652
30
0
41
1
10
6.91908972492564
20
-4.26173698697843
30
0
41
1
10
6.93800906664205
20
-4.26221899266037
30
0
41
1
10
6.97495186660754
20
-4.26861055103302
30
0
41
1
10
6.99330667869151
20
-4.27492586720453
30
0
41
1
10
7.02628684400588
20
-4.2920998658939
30
0
41
1
10
7.04128034894791
20
-4.30310995032369
30
0
41
1
10
7.05409149983785
20
-4.31570988037188
30
0
0
INSERT
5
D0
100
AcDbEntity
8
SK2
62
256
6
ByLayer
370
-1
48
1
60
0
100
AcDbBlockReference
2
DimnDraft3D11
10
0
20
0
30
0
41
1
42
1
43
1
50
0
210
0
220
0
230
1
0
LINE
5
4C
100
AcDbEntity
8
80
62
256
6
ByLayer
370
-1
48
1
60
0
100
AcDbLine
10
0
20
0
30
0
11
-5
21
0
31
0
39
0
210
0
220
0
230
1
0
LINE
5
4D
100
AcDbEntity
8
81
62
256
6
ByLayer
370
-1
48
1
60
0
100
AcDbLine
10
13.303125
20
-5.4125
30
0
11
23.303125
21
-5.4125
31
0
39
0
210
0
220
0
230
1
0
LINE
5
4E
100
AcDbEntity
8
1
62
256
6
ByLayer
370
-1
48
1
60
0
100
AcDbLine
10
2.614145
20
-9.551645
30
0
11
1
21
-7.9375
31
0
39
0
210
0
220
0
230
1
0
LINE
5
50
100
AcDbEntity
8
1
62
256
6
ByLayer
370
-1
48
1
60
0
100
AcDbLine
10
11.139649
20
-3.002071
30
0
11
11.194981
21
-3.078933
31
0
39
0
210
0
220
0
230
1
0
LINE
5
51
100
AcDbEntity
8
1
62
256
6
ByLayer
370
-1
48
1
60
0
100
AcDbLine
10
5.547341
20
0.410866
30
0
11
5.547341
21
0.316636
31
0
39
0
210
0
220
0
230
1
0
LINE
5
52
100
AcDbEntity
8
1
62
256
6
ByLayer
370
-1
48
1
60
0
100
AcDbLine
10
7.047341
20
-0.933364
30
0
11
7.047341
21
-1.342446
31
0
39
0
210
0
220
0
230
1
0
LINE
5
53
100
AcDbEntity
8
1
62
256
6
ByLayer
370
-1
48
1
60
0
100
AcDbLine
10
3.264617
20
7.937037
30
0
11
11.139649
21
-3.002071
31
0
39
0
210
0
220
0
230
1
0
LINE
5
54
100
AcDbEntity
8
1
62
256
6
ByLayer
370
-1
48
1
60
0
100
AcDbLine
10
7.141572
20
-0.933364
30
0
11
7.141572
21
-1.396848
31
0
39
0
210
0
220
0
230
1
0
LINE
5
55
100
AcDbEntity
8
1
62
256
6
ByLayer
370
-1
48
1
60
0
100
AcDbLine
10
5.797341
20
0.410866
30
0
11
5.797341
21
0.316636
31
0
39
0
210
0
220
0
230
1
0
LINE
5
56
100
AcDbEntity
8
1
62
256
6
ByLayer
370
-1
48
1
60
0
100
AcDbLine
10
11.194981
20
-3.078933
30
0
11
10.625009
21
-3.408007
31
0
39
0
210
0
220
0
230
1
0
LINE
5
57
100
AcDbEntity
8
1
62
256
6
ByLayer
370
-1
48
1
60
0
100
AcDbLine
10
11.139649
20
-3.002071
30
0
11
10.530775
21
-3.353605
31
0
39
0
210
0
220
0
230
1
0
LINE
5
58
100
AcDbEntity
8
1
62
256
6
ByLayer
370
-1
48
1
60
0
100
AcDbLine
10
5.547341
20
0.316636
30
0
11
5.797341
21
0.316636
31
0
39
0
210
0
220
0
230
1
0
LINE
5
59
100
AcDbEntity
8
1
62
256
6
ByLayer
370
-1
48
1
60
0
100
AcDbLine
10
5.547341
20
0.410866
30
0
11
5.797341
21
0.410866
31
0
39
0
210
0
220
0
230
1
0
LINE
5
5A
100
AcDbEntity
8
1
62
256
6
ByLayer
370
-1
48
1
60
0
100
AcDbLine
10
0
20
7.937037
30
0
11
3.264617
21
7.937037
31
0
39
0
210
0
220
0
230
1
0
LINE
5
5B
100
AcDbEntity
8
1
62
256
6
ByLayer
370
-1
48
1
60
0
100
AcDbLine
10
2.614145
20
-9.551645
30
0
11
4.174981
21
-9.551645
31
0
39
0
210
0
220
0
230
1
0
LINE
5
5C
100
AcDbEntity
8
1
62
256
6
ByLayer
370
-1
48
1
60
0
100
AcDbLine
10
7.141572
20
-0.933364
30
0
11
7.047341
21
-0.933364
31
0
39
0
210
0
220
0
230
1
0
LINE
5
5D
100
AcDbEntity
8
1
62
256
6
ByLayer
370
-1
48
1
60
0
100
AcDbLine
10
0
20
7.937037
30
0
11
0
21
-7.9375
31
0
39
0
210
0
220
0
230
1
0
LINE
5
5E
100
AcDbEntity
8
1
62
256
6
ByLayer
370
-1
48
1
60
0
100
AcDbLine
10
1
20
-7.9375
30
0
11
0
21
-7.9375
31
0
39
0
210
0
220
0
230
1
0
LINE
5
5F
100
AcDbEntity
8
1
62
256
6
ByLayer
370
-1
48
1
60
0
100
AcDbLine
10
12.005767
20
-4.205185
30
0
11
11.194981
21
-3.078933
31
0
39
0
210
0
220
0
230
1
0
LINE
5
60
100
AcDbEntity
8
SK1
62
256
6
ByLayer
370
-1
48
1
60
0
100
AcDbLine
10
-88.046875
20
-7.9375
30
0
11
-88.046875
21
7.9375
31
0
39
0
210
0
220
0
230
1
0
LINE
5
62
100
AcDbEntity
8
1
62
256
6
ByLayer
370
-1
48
1
60
0
100
AcDbLine
10
13.1045
20
-5.527176
30
0
11
4.7705
21
-10.338813
31
0
39
0
210
0
220
0
230
1
0
LINE
5
63
100
AcDbEntity
8
SK1
62
256
6
ByLayer
370
-1
48
1
60
0
100
AcDbLine
10
-0.106
20
-7.9375
30
0
11
-88.046875
21
-7.9375
31
0
39
0
210
0
220
0
230
1
0
LINE
5
64
100
AcDbEntity
8
SK1
62
256
6
ByLayer
370
-1
48
1
60
0
100
AcDbLine
10
0
20
-7.9375
30
0
11
-0.106
21
-7.9375
31
0
39
0
210
0
220
0
230
1
0
LINE
5
65
100
AcDbEntity
8
1
62
256
6
ByLayer
370
-1
48
1
60
0
100
AcDbLine
10
4.7705
20
-0.027915
30
0
11
13.1045
21
-4.839552
31
0
39
0
210
0
220
0
230
1
0
LINE
5
66
100
AcDbEntity
8
1
62
256
6
ByLayer
370
-1
48
1
60
0
100
AcDbLine
10
4.175
20
-9.995001
30
0
11
4.175
21
-0.371727
31
0
39
0
210
0
220
0
230
1
0
LINE
5
67
100
AcDbEntity
8
SK1
62
256
6
ByLayer
370
-1
48
1
60
0
100
AcDbLine
10
0
20
-7.9375
30
0
11
0
21
7.937037
31
0
39
0
210
0
220
0
230
1
0
LINE
5
68
100
AcDbEntity
8
SK1
62
256
6
ByLayer
370
-1
48
1
60
0
100
AcDbLine
10
-0.106
20
-7.9375
30
0
11
-0.106
21
7.9375
31
0
39
0
210
0
220
0
230
1
0
LINE
5
69
100
AcDbEntity
8
SK1
62
256
6
ByLayer
370
-1
48
1
60
0
100
AcDbLine
10
-88.046875
20
7.9375
30
0
11
-0.106
21
7.9375
31
0
39
0
210
0
220
0
230
1
0
LINE
5
6A
100
AcDbEntity
8
SK1
62
256
6
ByLayer
370
-1
48
1
60
0
100
AcDbLine
10
-0.106
20
7.9375
30
0
11
0
21
7.937037
31
0
39
0
210
0
220
0
230
1
0
LINE
5
6B
100
AcDbEntity
8
2
62
256
6
ByLayer
370
-1
48
1
60
1
100
AcDbLine
10
13.303125
20
-5.4125
30
0
11
13.303991
21
-5.412
31
0
39
0
210
0
220
0
230
1
0
MTEXT
5
9D
100
AcDbEntity
8
SK6
62
256
6
ByLayer
370
-1
48
1
60
0
100
AcDbMText
10
-52.221455
20
18.395841
30
0
210
0
220
0
230
1
1
\W00.722;\fsimplex.shx,bigfont.shx;STTCL 1616H 11 
40
3.5
41
0
44
1.084337
50
0
71
7
72
5
7
DEFAULT
0
DIMENSION
5
DE
100
AcDbEntity
8
2
62
256
6
ByLayer
370
-3
48
1
60
0
100
AcDbDimension
2
DimnDraft3D2
10
-7.126054
20
-17.207292
30
0
11
-1.88416
21
-18.975545
31
0
70
34
71
5
72
1
41
1
210
0
220
0
230
1
3
Standard
100
AcDb2LineAngularDimension
13
13.303125
23
-7.580239
33
0
14
13.303125
24
-29.002084
34
0
15
10.506611
25
-7.027068
35
0
16
4.758333
26
-20.212514
36
0
40
0
0
DIMENSION
5
F3
100
AcDbEntity
8
2
62
256
6
ByLayer
370
-3
48
1
60
0
100
AcDbDimension
2
DimnDraft3D3
10
40.553125
20
-5.4125
30
0
11
40.553125
21
-0.803947
31
0
70
32
71
5
72
1
41
1
210
0
220
0
230
1
3
Standard
100
AcDbAlignedDimension
13
2
23
7.9375
33
0
14
15.303125
24
-5.4125
34
0
50
90
100
AcDbRotatedDimension
1001
ACAD
1000
DSTYLE
1002
{
1070
    74
1070
     0
1070
   279
1070
     0
1070
   172
1070
     1
1070
   173
1070
     1
1070
   340
1005
9E
1070
    77
1070
     1
1070
    73
1070
     0
1070
   171
1070
     3
1070
   274
1070
     4
1070
   177
1070
     2
1070
   176
1070
     2
1070
   178
1070
     7
1070
    78
1070
     8
1070
    41
1041
3.175
1070
   147
1041
2.25
1070
    42
1041
2.0
1070
    44
1041
2.0
1070
   140
1041
4.5
1070
   343
1005
DF
1070
   344
1005
DF
1002
}
0
DIMENSION
5
101
100
AcDbEntity
8
SK2
62
256
6
ByLayer
370
-3
48
1
60
0
100
AcDbDimension
2
DimnDraft3D4
10
-97.796875
20
-7.9375
30
0
11
-97.796875
21
-2.066447
31
0
70
32
71
5
72
1
41
1
210
0
220
0
230
1
3
Standard
100
AcDbAlignedDimension
13
-90.046875
23
7.9375
33
0
14
-90.046875
24
-7.9375
34
0
50
90
100
AcDbRotatedDimension
1001
ACAD
1000
DSTYLE
1002
{
1070
    74
1070
     0
1070
   279
1070
     0
1070
   172
1070
     1
1070
   173
1070
     1
1070
   340
1005
9E
1070
    77
1070
     1
1070
    73
1070
     0
1070
   171
1070
     3
1070
   274
1070
     4
1070
   177
1070
     2
1070
   176
1070
     2
1070
   178
1070
     7
1070
    78
1070
     8
1070
    41
1041
3.175
1070
   147
1041
2.25
1070
    42
1041
2.0
1070
    44
1041
2.0
1070
   140
1041
4.5
1070
   343
1005
DF
1070
   344
1005
DF
1002
}
0
ENDSEC
0
SECTION
2
OBJECTS
0
DICTIONARY
5
131
330
0
100
AcDbDictionary
280
0
281
1
3
ACAD_GROUP
350
132
3
ACAD_MLINESTYLE
350
133
0
DICTIONARY
5
132
330
0
100
AcDbDictionary
280
0
281
1
0
DICTIONARY
5
133
330
0
100
AcDbDictionary
280
0
281
1
3
Standard
350
18
0
MLINESTYLE
5
18
330
133
100
AcDbMlineStyle
2
Standard
70
0
3

62
256
51
90
52
90
71
2
49
-0.5
62
256
6
ByLayer
49
0.5
62
256
6
ByLayer
0
RASTERVARIABLES
5
120
330

100
AcDbRasterVariables
90
0
70
1
71
1
72
1
0
ENDSEC
0
EOF
