0
SECTION
2
HEADER
9
$ACADVER
1
AC1015
9
$DWGCODEPAGE
3
ANSI_1252
9
$HANDSEED
5
139
9
$ANGBASE
50
0
9
$ANGDIR
70
0
9
$ATTMODE
70
1
9
$AUNITS
70
0
9
$AUPREC
70
0
9
$CECOLOR
62
256
9
$CELTSCALE
40
1
9
$CELTYPE
6
ByLayer
9
$CELWEIGHT
370
-1
9
$CLAYER
8
0
9
$CMLJUST
70
0
9
$CMLSCALE
40
1
9
$CMLSTYLE
2
Standard
9
$DIMSTYLE
2
Standard
9
$TEXTSIZE
40
0.2
9
$TEXTSTYLE
7
Standard
9
$LUNITS
70
2
9
$LUPREC
70
4
9
$EXTNAMES
290
1
9
$INSUNITS
70
4
9
$LTSCALE
40
1
9
$LWDISPLAY
290
0
9
$PDMODE
70
0
9
$PDSIZE
40
0
9
$PLINEGEN
70
0
0
ENDSEC
0
SECTION
2
CLASSES
0
CLASS
1
RASTERVARIABLES
2
AcDbRasterVariables
3
ISM
90
0
280
0
281
0
0
ENDSEC
0
SECTION
2
TABLES
0
TABLE
2
VPORT
5
12f
100
AcDbSymbolTable
0
VPORT
5
1
100
AcDbSymbolTableRecord
100
AcDbViewportTableRecord
2
*Active
70
0
10
0
20
0
11
1
21
1
12
-1
22
1
13
0
23
0
14
0.5
24
0.5
15
10
25
10
16
0
26
0
36
1
17
0
27
0
37
0
0
ENDTAB
0
TABLE
2
LTYPE
5
130
100
AcDbSymbolTable
0
LTYPE
5
14
100
AcDbSymbolTableRecord
100
AcDbLinetypeTableRecord
70
0
2
ByBlock
3

72
65
73
0
40
0
0
LTYPE
5
15
100
AcDbSymbolTableRecord
100
AcDbLinetypeTableRecord
70
0
2
ByLayer
3

72
65
73
0
40
0
0
LTYPE
5
16
100
AcDbSymbolTableRecord
100
AcDbLinetypeTableRecord
70
0
2
CONTINUOUS
3
Solid line
72
65
73
0
40
0
0
LTYPE
5
3B
100
AcDbSymbolTableRecord
100
AcDbLinetypeTableRecord
70
0
2
DASHED
3
__ __ __ __ __ __ __ __ __
72
65
73
2
40
25.72
49
12.86
74
0
49
-12.86
74
0
0
LTYPE
5
3C
100
AcDbSymbolTableRecord
100
AcDbLinetypeTableRecord
70
0
2
HIDDEN
3
_ _ _ _ _ _ _ _ _ _ _ _ _ _ _
72
65
73
2
40
0.5
49
0.25
74
0
49
-0.25
74
0
0
LTYPE
5
3D
100
AcDbSymbolTableRecord
100
AcDbLinetypeTableRecord
70
0
2
PHANTOM
3
____ _ _ ____ _ _ _____ _ _ ____
72
65
73
6
40
50.5
49
18
74
0
49
-6.5
74
0
49
6.5
74
0
49
-6.5
74
0
49
6.5
74
0
49
-6.5
74
0
0
LTYPE
5
3E
100
AcDbSymbolTableRecord
100
AcDbLinetypeTableRecord
70
0
2
CENTER
3
____ _ ____ _ ____ _ ____
72
65
73
4
40
47.5
49
22
74
0
49
-8.5
74
0
49
8.5
74
0
49
-8.5
74
0
0
LTYPE
5
3F
100
AcDbSymbolTableRecord
100
AcDbLinetypeTableRecord
70
0
2
DOT
3
.........................
72
65
73
2
40
10
49
0
74
0
49
-10
74
0
0
LTYPE
5
40
100
AcDbSymbolTableRecord
100
AcDbLinetypeTableRecord
70
0
2
DASHDOT
3
_._._._._._._._._._._._._._._._.
72
65
73
4
40
70
49
31
74
0
49
-13
74
0
49
13
74
0
49
-13
74
0
0
ENDTAB
0
TABLE
2
LAYER
5
131
100
AcDbSymbolTable
0
LAYER
5
10
100
AcDbSymbolTableRecord
100
AcDbLayerTableRecord
2
0
70
0
62
7
6
CONTINUOUS
290
1
370
-3
390
0
0
LAYER
5
45
100
AcDbSymbolTableRecord
100
AcDbLayerTableRecord
2
81
70
0
62
-3
6
CONTINUOUS
290
1
370
-3
390
0
0
LAYER
5
49
100
AcDbSymbolTableRecord
100
AcDbLayerTableRecord
2
2
70
0
62
7
6
CONTINUOUS
290
1
370
-3
390
0
0
LAYER
5
4B
100
AcDbSymbolTableRecord
100
AcDbLayerTableRecord
2
80
70
0
62
-6
6
CONTINUOUS
290
1
370
-3
390
0
0
LAYER
5
4F
100
AcDbSymbolTableRecord
100
AcDbLayerTableRecord
2
1
70
0
62
4
6
CONTINUOUS
290
1
370
-3
390
0
0
LAYER
5
11c
100
AcDbSymbolTableRecord
100
AcDbLayerTableRecord
2
SK2
70
0
62
7
6
CONTINUOUS
290
1
370
-3
390
0
0
LAYER
5
11d
100
AcDbSymbolTableRecord
100
AcDbLayerTableRecord
2
SK1
70
0
62
4
6
CONTINUOUS
290
1
370
-3
390
0
0
LAYER
5
11e
100
AcDbSymbolTableRecord
100
AcDbLayerTableRecord
2
SK6
70
0
62
5
6
CONTINUOUS
290
1
370
-3
390
0
0
ENDTAB
0
TABLE
2
STYLE
5
132
100
AcDbSymbolTable
0
STYLE
5
11
100
AcDbSymbolTableRecord
100
AcDbTextStyleTableRecord
2
Standard
3
txt
70
0
71
0
40
0
41
1
42
0
50
0
0
STYLE
5
99
100
AcDbSymbolTableRecord
100
AcDbTextStyleTableRecord
2
DEFAULT
3
simplex.shx
70
0
71
0
40
0
41
1
42
0
50
0
0
STYLE
5
BC
100
AcDbSymbolTableRecord
100
AcDbTextStyleTableRecord
2
DWGDirectTextStyle
3
SIMPLEX
70
0
71
0
40
0
41
1
42
0
50
0
0
ENDTAB
0
TABLE
2
DIMSTYLE
5
133
100
AcDbSymbolTable
100
AcDbDimStyleTable
0
DIMSTYLE
105
27
100
AcDbSymbolTableRecord
100
AcDbDimStyleTableRecord
2
Standard
70
0
3
<>
41
0.18
42
0.0625
44
0.18
140
0.18
147
0.09
73
0
74
0
77
1
271
2
275
0
278
52
280
0
340
11
0
ENDTAB
0
TABLE
2
VIEW
5
134
100
AcDbSymbolTable
0
ENDTAB
0
TABLE
2
UCS
5
135
100
AcDbSymbolTable
0
ENDTAB
0
TABLE
2
APPID
5
136
100
AcDbSymbolTable
0
APPID
5
12
100
AcDbSymbolTableRecord
100
AcDbRegAppTableRecord
2
ACAD
70
0
0
ENDTAB
0
TABLE
2
BLOCK_RECORD
5
137
100
AcDbSymbolTable
0
BLOCK_RECORD
5
1F
100
AcDbSymbolTableRecord
100
AcDbBlockTableRecord
2
*Model_Space
340
0
70
0
0
BLOCK_RECORD
5
1B
100
AcDbSymbolTableRecord
100
AcDbBlockTableRecord
2
*Paper_Space
340
0
70
0
0
BLOCK_RECORD
5
23
100
AcDbSymbolTableRecord
100
AcDbBlockTableRecord
2
*Paper_Space0
340
0
70
0
0
BLOCK_RECORD
5
BE
100
AcDbSymbolTableRecord
100
AcDbBlockTableRecord
2
DimnDraft3D11
340
0
70
0
0
BLOCK_RECORD
5
CC
100
AcDbSymbolTableRecord
100
AcDbBlockTableRecord
2
DimnDraft3D2
340
0
70
0
0
BLOCK_RECORD
5
DA
100
AcDbSymbolTableRecord
100
AcDbBlockTableRecord
2
_CLOSED
340
0
70
0
0
BLOCK_RECORD
5
E1
100
AcDbSymbolTableRecord
100
AcDbBlockTableRecord
2
DimnDraft3D3
340
0
70
0
0
BLOCK_RECORD
5
EF
100
AcDbSymbolTableRecord
100
AcDbBlockTableRecord
2
DimnDraft3D4
340
0
70
0
0
ENDTAB
0
ENDSEC
0
SECTION
2
BLOCKS
0
BLOCK
5
20
100
AcDbEntity
8
0
100
AcDbBlockBegin
2
*Model_Space
70
0
10
0
20
0
30
0
3
*Model_Space
0
ENDBLK
5
21
100
AcDbEntity
8
0
100
AcDbBlockEnd
0
BLOCK
5
1C
100
AcDbEntity
8
0
100
AcDbBlockBegin
2
*Paper_Space
70
0
10
0
20
0
30
0
3
*Paper_Space
0
ENDBLK
5
1D
100
AcDbEntity
8
0
100
AcDbBlockEnd
0
BLOCK
5
24
100
AcDbEntity
8
0
100
AcDbBlockBegin
2
*Paper_Space0
70
0
10
0
20
0
30
0
3
*Paper_Space0
0
ENDBLK
5
25
100
AcDbEntity
8
0
100
AcDbBlockEnd
0
BLOCK
5
BF
100
AcDbEntity
8
0
100
AcDbBlockBegin
2
DimnDraft3D11
70
0
10
0
20
0
30
0
3
DimnDraft3D11
0
LINE
5
C1
100
AcDbEntity
8
SK2
62
256
6
ByLayer
370
-1
48
1
60
0
100
AcDbLine
10
20.14825
20
-14.4125
30
0
11
20.14825
21
-38.6625
31
0
39
0
210
0
220
0
230
1
0
LINE
5
C2
100
AcDbEntity
8
SK2
62
256
6
ByLayer
370
-1
48
1
60
0
100
AcDbLine
10
-81.20175
20
-9.9375
30
0
11
-81.20175
21
-38.6625
31
0
39
0
210
0
220
0
230
1
0
LINE
5
C3
100
AcDbEntity
8
SK2
62
256
6
ByLayer
370
-1
48
1
60
0
100
AcDbLine
10
20.14825
20
-36.6625
30
0
11
-81.20175
21
-36.6625
31
0
39
0
210
0
220
0
230
1
0
LINE
5
C4
100
AcDbEntity
8
SK2
62
256
6
ByLayer
370
-1
48
1
60
0
100
AcDbLine
10
20.14825
20
-36.6625
30
0
11
16.973251
21
-37.080497
31
0
39
0
210
0
220
0
230
1
0
LINE
5
C5
100
AcDbEntity
8
SK2
62
256
6
ByLayer
370
-1
48
1
60
0
100
AcDbLine
10
20.14825
20
-36.6625
30
0
11
16.973248
21
-36.244503
31
0
39
0
210
0
220
0
230
1
0
LINE
5
C6
100
AcDbEntity
8
SK2
62
256
6
ByLayer
370
-1
48
1
60
0
100
AcDbLine
10
16.973251
20
-37.080497
30
0
11
16.973248
21
-36.244503
31
0
39
0
210
0
220
0
230
1
0
LINE
5
C7
100
AcDbEntity
8
SK2
62
256
6
ByLayer
370
-1
48
1
60
0
100
AcDbLine
10
-81.20175
20
-36.6625
30
0
11
-78.026752
21
-36.244503
31
0
39
0
210
0
220
0
230
1
0
LINE
5
C8
100
AcDbEntity
8
SK2
62
256
6
ByLayer
370
-1
48
1
60
0
100
AcDbLine
10
-81.20175
20
-36.6625
30
0
11
-78.026749
21
-37.080497
31
0
39
0
210
0
220
0
230
1
0
LINE
5
C9
100
AcDbEntity
8
SK2
62
256
6
ByLayer
370
-1
48
1
60
0
100
AcDbLine
10
-78.026752
20
-36.244503
30
0
11
-78.026749
21
-37.080497
31
0
39
0
210
0
220
0
230
1
0
MTEXT
5
CA
100
AcDbEntity
8
SK2
62
256
6
ByLayer
370
-1
48
1
60
0
100
AcDbMText
10
-33.120171
20
-35.5375
30
0
210
0
220
0
230
1
1
\W00.604;\fsimplex.shx,bigfont.shx;100 
40
4.5
41
0
44
1.084337
50
0
71
7
72
5
7
DEFAULT
0
ENDBLK
5
C0
100
AcDbEntity
8
0
100
AcDbBlockEnd
0
BLOCK
5
D7
100
AcDbEntity
8
0
100
AcDbBlockBegin
2
DimnDraft3D2
70
0
10
0
20
0
30
0
3
DimnDraft3D2
0
MTEXT
5
CD
100
AcDbEntity
8
2
62
256
6
ByLayer
370
-1
48
1
60
0
100
AcDbMText
10
2.361069
20
-23.339399
30
0
210
0
220
0
230
1
1
\W01.000;\fsimplex.shx,bigfont.shx;91%%d0' 
40
4.5
41
0
44
1.084337
50
314.5
71
7
72
5
7
DEFAULT
0
LINE
5
CE
100
AcDbEntity
8
2
62
256
6
ByLayer
370
-1
48
1
60
0
100
AcDbLine
10
20.14825
20
-14.4125
30
0
11
20.14825
21
-35.887159
31
0
39
0
210
0
220
0
230
1
0
LINE
5
CF
100
AcDbEntity
8
2
62
256
6
ByLayer
370
-1
48
1
60
0
100
AcDbLine
10
16.341104
20
-12.360022
30
0
11
-3.30886
21
-12.01703
31
0
39
0
210
0
220
0
230
1
0
ARC
5
D0
100
AcDbEntity
8
2
62
256
6
ByLayer
370
-1
48
1
60
0
100
AcDbCircle
39
0
10
20.14825
20
-12.426476
30
0
40
21.4606831971137
210
0
220
0
230
1
100
AcDbArc
50
179
51
270
0
LINE
5
D1
100
AcDbEntity
8
2
62
256
6
ByLayer
370
-1
48
1
60
0
100
AcDbLine
10
20.14825
20
-33.887159
30
0
11
16.959986
21
-34.18768
31
0
39
0
210
0
220
0
230
1
0
LINE
5
D2
100
AcDbEntity
8
2
62
256
6
ByLayer
370
-1
48
1
60
0
100
AcDbLine
10
20.14825
20
-33.887159
30
0
11
16.99084
21
-33.352256
31
0
39
0
210
0
220
0
230
1
0
LINE
5
D3
100
AcDbEntity
8
2
62
256
6
ByLayer
370
-1
48
1
60
0
100
AcDbLine
10
16.959986
20
-34.18768
30
0
11
16.99084
21
-33.352256
31
0
39
0
210
0
220
0
230
1
0
LINE
5
D4
100
AcDbEntity
8
2
62
256
6
ByLayer
370
-1
48
1
60
0
100
AcDbLine
10
-1.309165
20
-12.051935
30
0
11
-0.829448
21
-15.218196
31
0
39
0
210
0
220
0
230
1
0
LINE
5
D5
100
AcDbEntity
8
2
62
256
6
ByLayer
370
-1
48
1
60
0
100
AcDbLine
10
-1.309165
20
-12.051935
30
0
11
-1.665282
21
-15.234471
31
0
39
0
210
0
220
0
230
1
0
LINE
5
D6
100
AcDbEntity
8
2
62
256
6
ByLayer
370
-1
48
1
60
0
100
AcDbLine
10
-0.829448
20
-15.218196
30
0
11
-1.665282
21
-15.234471
31
0
39
0
210
0
220
0
230
1
0
ENDBLK
5
D8
100
AcDbEntity
8
0
100
AcDbBlockEnd
0
BLOCK
5
DB
100
AcDbEntity
8
0
100
AcDbBlockBegin
2
_CLOSED
70
0
10
0
20
0
30
0
3
_CLOSED
0
LINE
5
DD
100
AcDbEntity
8
0
62
256
6
ByLayer
370
-2
48
1
60
0
100
AcDbLine
10
-1
20
0.166667
30
0
11
0
21
0
31
0
39
0
210
0
220
0
230
1
0
LINE
5
DE
100
AcDbEntity
8
0
62
256
6
ByLayer
370
-2
48
1
60
0
100
AcDbLine
10
0
20
0
30
0
11
-1
21
-0.166667
31
0
39
0
210
0
220
0
230
1
0
LINE
5
DF
100
AcDbEntity
8
0
62
256
6
ByLayer
370
-2
48
1
60
0
100
AcDbLine
10
-1
20
0.166667
30
0
11
-1
21
-0.166667
31
0
39
0
210
0
220
0
230
1
0
LINE
5
E0
100
AcDbEntity
8
0
62
256
6
ByLayer
370
-2
48
1
60
0
100
AcDbLine
10
0
20
0
30
0
11
-1
21
0
31
0
39
0
210
0
220
0
230
1
0
ENDBLK
5
DC
100
AcDbEntity
8
0
100
AcDbBlockEnd
0
BLOCK
5
EC
100
AcDbEntity
8
0
100
AcDbBlockBegin
2
DimnDraft3D3
70
0
10
0
20
0
30
0
3
DimnDraft3D3
0
MTEXT
5
E2
100
AcDbEntity
8
2
62
256
6
ByLayer
370
-1
48
1
60
0
100
AcDbMText
10
46.27325
20
-3.741447
30
0
210
0
220
0
230
1
1
\W01.000;\fsimplex.shx,bigfont.shx;20 
40
4.5
41
0
44
1.084337
50
90
71
7
72
5
7
DEFAULT
0
LINE
5
E3
100
AcDbEntity
8
2
62
256
6
ByLayer
370
-1
48
1
60
0
100
AcDbLine
10
2
20
7.9375
30
0
11
49.39825
21
7.9375
31
0
39
0
210
0
220
0
230
1
0
LINE
5
E4
100
AcDbEntity
8
2
62
256
6
ByLayer
370
-1
48
1
60
0
100
AcDbLine
10
22.14825
20
-12.4125
30
0
11
49.39825
21
-12.4125
31
0
39
0
210
0
220
0
230
1
0
LINE
5
E5
100
AcDbEntity
8
2
62
256
6
ByLayer
370
-1
48
1
60
0
100
AcDbLine
10
47.39825
20
7.9375
30
0
11
47.39825
21
-12.4125
31
0
39
0
210
0
220
0
230
1
0
LINE
5
E6
100
AcDbEntity
8
2
62
256
6
ByLayer
370
-1
48
1
60
0
100
AcDbLine
10
47.39825
20
7.9375
30
0
11
47.816247
21
4.762502
31
0
39
0
210
0
220
0
230
1
0
LINE
5
E7
100
AcDbEntity
8
2
62
256
6
ByLayer
370
-1
48
1
60
0
100
AcDbLine
10
47.39825
20
7.9375
30
0
11
46.980253
21
4.762498
31
0
39
0
210
0
220
0
230
1
0
LINE
5
E8
100
AcDbEntity
8
2
62
256
6
ByLayer
370
-1
48
1
60
0
100
AcDbLine
10
47.816247
20
4.762502
30
0
11
46.980253
21
4.762498
31
0
39
0
210
0
220
0
230
1
0
LINE
5
E9
100
AcDbEntity
8
2
62
256
6
ByLayer
370
-1
48
1
60
0
100
AcDbLine
10
47.39825
20
-12.4125
30
0
11
46.980253
21
-9.237502
31
0
39
0
210
0
220
0
230
1
0
LINE
5
EA
100
AcDbEntity
8
2
62
256
6
ByLayer
370
-1
48
1
60
0
100
AcDbLine
10
47.39825
20
-12.4125
30
0
11
47.816247
21
-9.237498
31
0
39
0
210
0
220
0
230
1
0
LINE
5
EB
100
AcDbEntity
8
2
62
256
6
ByLayer
370
-1
48
1
60
0
100
AcDbLine
10
46.980253
20
-9.237502
30
0
11
47.816247
21
-9.237498
31
0
39
0
210
0
220
0
230
1
0
ENDBLK
5
ED
100
AcDbEntity
8
0
100
AcDbBlockEnd
0
BLOCK
5
FA
100
AcDbEntity
8
0
100
AcDbBlockBegin
2
DimnDraft3D4
70
0
10
0
20
0
30
0
3
DimnDraft3D4
0
MTEXT
5
F0
100
AcDbEntity
8
SK2
62
256
6
ByLayer
370
-1
48
1
60
0
100
AcDbMText
10
-92.07675
20
-0.941447
30
0
210
0
220
0
230
1
1
\W01.000;\fsimplex.shx,bigfont.shx;16 
40
4.5
41
0
44
1.084337
50
90
71
7
72
5
7
DEFAULT
0
LINE
5
F1
100
AcDbEntity
8
SK2
62
256
6
ByLayer
370
-1
48
1
60
0
100
AcDbLine
10
-83.20175
20
7.9375
30
0
11
-92.95175
21
7.9375
31
0
39
0
210
0
220
0
230
1
0
LINE
5
F2
100
AcDbEntity
8
SK2
62
256
6
ByLayer
370
-1
48
1
60
0
100
AcDbLine
10
-83.20175
20
-7.9375
30
0
11
-92.95175
21
-7.9375
31
0
39
0
210
0
220
0
230
1
0
LINE
5
F3
100
AcDbEntity
8
SK2
62
256
6
ByLayer
370
-1
48
1
60
0
100
AcDbLine
10
-90.95175
20
7.9375
30
0
11
-90.95175
21
-7.9375
31
0
39
0
210
0
220
0
230
1
0
LINE
5
F4
100
AcDbEntity
8
SK2
62
256
6
ByLayer
370
-1
48
1
60
0
100
AcDbLine
10
-90.95175
20
7.9375
30
0
11
-90.533753
21
4.762502
31
0
39
0
210
0
220
0
230
1
0
LINE
5
F5
100
AcDbEntity
8
SK2
62
256
6
ByLayer
370
-1
48
1
60
0
100
AcDbLine
10
-90.95175
20
7.9375
30
0
11
-91.369747
21
4.762498
31
0
39
0
210
0
220
0
230
1
0
LINE
5
F6
100
AcDbEntity
8
SK2
62
256
6
ByLayer
370
-1
48
1
60
0
100
AcDbLine
10
-90.533753
20
4.762502
30
0
11
-91.369747
21
4.762498
31
0
39
0
210
0
220
0
230
1
0
LINE
5
F7
100
AcDbEntity
8
SK2
62
256
6
ByLayer
370
-1
48
1
60
0
100
AcDbLine
10
-90.95175
20
-7.9375
30
0
11
-91.369747
21
-4.762502
31
0
39
0
210
0
220
0
230
1
0
LINE
5
F8
100
AcDbEntity
8
SK2
62
256
6
ByLayer
370
-1
48
1
60
0
100
AcDbLine
10
-90.95175
20
-7.9375
30
0
11
-90.533753
21
-4.762498
31
0
39
0
210
0
220
0
230
1
0
LINE
5
F9
100
AcDbEntity
8
SK2
62
256
6
ByLayer
370
-1
48
1
60
0
100
AcDbLine
10
-91.369747
20
-4.762502
30
0
11
-90.533753
21
-4.762498
31
0
39
0
210
0
220
0
230
1
0
ENDBLK
5
FB
100
AcDbEntity
8
0
100
AcDbBlockEnd
0
ENDSEC
0
SECTION
2
ENTITIES
0
ARC
5
69
100
AcDbEntity
8
1
62
256
6
ByLayer
370
-1
48
1
60
0
100
AcDbCircle
39
0
10
-12.712169
20
1.717956
30
0
40
1.5
210
0
220
0
230
-1
100
AcDbArc
50
197.163342
51
235.741927
0
ARC
5
6A
100
AcDbEntity
8
1
62
256
6
ByLayer
370
-1
48
1
60
0
100
AcDbCircle
39
0
10
-13.592905
20
-0.252893
30
0
40
1.625
210
0
220
0
230
-1
100
AcDbArc
50
109.87558
51
211
0
ARC
5
6B
100
AcDbEntity
8
1
62
256
6
ByLayer
370
-1
48
1
60
0
100
AcDbCircle
39
0
10
-13.592905
20
-0.252893
30
0
40
1.859889010067
210
0
220
0
230
-1
100
AcDbArc
50
108.957942
51
211
0
ARC
5
6C
100
AcDbEntity
8
1
62
256
6
ByLayer
370
-1
48
1
60
0
100
AcDbCircle
39
0
10
12.712169
20
1.717956
30
0
40
1.5
210
0
220
0
230
1
100
AcDbArc
50
351.880957
51
233.736794
0
ARC
5
6D
100
AcDbEntity
8
1
62
256
6
ByLayer
370
-1
48
1
60
0
100
AcDbCircle
39
0
10
12.550734
20
-7.530635
30
0
40
1.67649999999999
210
0
220
0
230
1
100
AcDbArc
50
149
51
208.840113
0
ARC
5
6F
100
AcDbEntity
8
1
62
256
6
ByLayer
370
-1
48
1
60
0
100
AcDbCircle
39
0
10
12.689254
20
0.405156
30
0
40
0.793999999999997
210
0
220
0
230
1
100
AcDbArc
50
29
51
149
0
ARC
5
70
100
AcDbEntity
8
1
62
256
6
ByLayer
370
-1
48
1
60
0
100
AcDbCircle
39
0
10
-12.550734
20
-7.530635
30
0
40
1.2065
210
0
220
0
230
-1
100
AcDbArc
50
304.955279
51
1.079943
0
ARC
5
71
100
AcDbEntity
8
1
62
256
6
ByLayer
370
-1
48
1
60
0
100
AcDbCircle
39
0
10
5.608878
20
-11.378569
30
0
40
0.793999999999968
210
0
220
0
230
1
100
AcDbArc
50
149
51
269
0
ARC
5
73
100
AcDbEntity
8
1
62
256
6
ByLayer
370
-1
48
1
60
0
100
AcDbCircle
39
0
10
-12.550734
20
-7.530635
30
0
40
1.2065
210
0
220
0
230
-1
100
AcDbArc
50
124.955279
51
181.079943
0
ARC
5
74
100
AcDbEntity
8
1
62
256
6
ByLayer
370
-1
48
1
60
0
100
AcDbCircle
39
0
10
12.550734
20
-7.530635
30
0
40
1.67649999999999
210
0
220
0
230
1
100
AcDbArc
50
89.159887
51
149
0
ARC
5
75
100
AcDbEntity
8
1
62
256
6
ByLayer
370
-1
48
1
60
0
100
AcDbCircle
39
0
10
12.550734
20
-7.530635
30
0
40
1.67649999999999
210
0
220
0
230
1
100
AcDbArc
50
28.840113
51
89.159887
0
ARC
5
76
100
AcDbEntity
8
1
62
256
6
ByLayer
370
-1
48
1
60
0
100
AcDbCircle
39
0
10
12.550734
20
-7.530635
30
0
40
1.2065
210
0
220
0
230
1
100
AcDbArc
50
235.044721
51
242.955279
0
ARC
5
78
100
AcDbEntity
8
1
62
256
6
ByLayer
370
-1
48
1
60
0
100
AcDbCircle
39
0
10
-12.550734
20
-7.530635
30
0
40
1.2065
210
0
220
0
230
-1
100
AcDbArc
50
181.079943
51
240.920057
0
ARC
5
79
100
AcDbEntity
8
1
62
256
6
ByLayer
370
-1
48
1
60
0
100
AcDbCircle
39
0
10
12.550734
20
-7.530635
30
0
40
1.67649999999999
210
0
220
0
230
1
100
AcDbArc
50
329
51
28.840113
0
ARC
5
7A
100
AcDbEntity
8
1
62
256
6
ByLayer
370
-1
48
1
60
0
100
AcDbCircle
39
0
10
19.354071
20
-11.618492
30
0
40
0.793999999999969
210
0
220
0
230
1
100
AcDbArc
50
269
51
29
0
ARC
5
7B
100
AcDbEntity
8
1
62
256
6
ByLayer
370
-1
48
1
60
0
100
AcDbCircle
39
0
10
-12.550734
20
-7.530635
30
0
40
1.2065
210
0
220
0
230
-1
100
AcDbArc
50
1.079943
51
60.920057
0
ARC
5
7C
100
AcDbEntity
8
1
62
256
6
ByLayer
370
-1
48
1
60
0
100
AcDbCircle
39
0
10
-12.550734
20
-7.530635
30
0
40
1.2065
210
0
220
0
230
-1
100
AcDbArc
50
240.920057
51
297.044721
0
ARC
5
7D
100
AcDbEntity
8
1
62
256
6
ByLayer
370
-1
48
1
60
0
100
AcDbCircle
39
0
10
12.550734
20
-7.530635
30
0
40
1.67649999999999
210
0
220
0
230
1
100
AcDbArc
50
208.840113
51
269.159887
0
ARC
5
7F
100
AcDbEntity
8
1
62
256
6
ByLayer
370
-1
48
1
60
0
100
AcDbCircle
39
0
10
12.550734
20
-7.530635
30
0
40
1.67649999999999
210
0
220
0
230
1
100
AcDbArc
50
269.159887
51
329
0
ARC
5
80
100
AcDbEntity
8
1
62
256
6
ByLayer
370
-1
48
1
60
0
100
AcDbCircle
39
0
10
12.550734
20
-7.530635
30
0
40
1.2065
210
0
220
0
230
1
100
AcDbArc
50
55.044721
51
62.955279
0
ARC
5
82
100
AcDbEntity
8
1
62
256
6
ByLayer
370
-1
48
1
60
0
100
AcDbCircle
39
0
10
-12.550734
20
-7.530635
30
0
40
1.2065
210
0
220
0
230
-1
100
AcDbArc
50
60.920057
51
117.044721
0
CIRCLE
5
6E
100
AcDbEntity
8
1
62
256
6
ByLayer
370
-1
48
1
60
0
100
AcDbCircle
10
-12.550734
20
-7.530635
30
0
40
2.95049568210608
39
0
210
0
220
0
230
-1
0
CIRCLE
5
72
100
AcDbEntity
8
1
62
256
6
ByLayer
370
-1
48
1
60
0
100
AcDbCircle
10
12.550734
20
-7.530635
30
0
40
3.00605207334198
39
0
210
0
220
0
230
1
0
CIRCLE
5
77
100
AcDbEntity
8
1
62
256
6
ByLayer
370
-1
48
1
60
0
100
AcDbCircle
10
12.550734
20
-7.530635
30
0
40
2.62499999999999
39
0
210
0
220
0
230
1
0
CIRCLE
5
7E
100
AcDbEntity
8
1
62
256
6
ByLayer
370
-1
48
1
60
0
100
AcDbCircle
10
12.550734
20
-7.530635
30
0
40
3.07132534818238
39
0
210
0
220
0
230
1
0
CIRCLE
5
81
100
AcDbEntity
8
1
62
256
6
ByLayer
370
-1
48
1
60
0
100
AcDbCircle
10
12.550734
20
-7.530635
30
0
40
1.8
39
0
210
0
220
0
230
1
0
POINT
5
41
100
AcDbEntity
8
SK2
62
256
6
ByLayer
370
-1
48
1
60
0
100
AcDbPoint
10
20.14825
20
28.2875
30
0
39
0
210
0
220
0
230
1
50
360
0
POINT
5
43
100
AcDbEntity
8
SK2
62
256
6
ByLayer
370
-1
48
1
60
0
100
AcDbPoint
10
20.14825
20
28.2875
30
0
39
0
210
0
220
0
230
1
50
360
0
POINT
5
44
100
AcDbEntity
8
81
62
256
6
ByLayer
370
-1
48
1
60
0
100
AcDbPoint
10
20.14825
20
-12.4125
30
0
39
0
210
0
220
0
230
1
50
360
0
POINT
5
46
100
AcDbEntity
8
SK2
62
256
6
ByLayer
370
-1
48
1
60
0
100
AcDbPoint
10
20.14825
20
28.2875
30
0
39
0
210
0
220
0
230
1
50
360
0
POINT
5
47
100
AcDbEntity
8
SK2
62
256
6
ByLayer
370
-1
48
1
60
0
100
AcDbPoint
10
20.14825
20
28.2875
30
0
39
0
210
0
220
0
230
1
50
360
0
POINT
5
48
100
AcDbEntity
8
2
62
256
6
ByLayer
370
-1
48
1
60
0
100
AcDbPoint
10
20.14825
20
28.2875
30
0
39
0
210
0
220
0
230
1
50
360
0
POINT
5
4A
100
AcDbEntity
8
80
62
256
6
ByLayer
370
-1
48
1
60
0
100
AcDbPoint
10
0
20
0
30
0
39
0
210
0
220
0
230
1
50
360
0
SPLINE
5
83
100
AcDbEntity
8
1
62
256
6
ByLayer
370
-1
48
1
60
0
100
AcDbSpline
70
4
71
3
72
8
73
4
40
0
40
0
40
0
40
0
40
1
40
1
40
1
40
1
41
1
10
14.19713436655
20
1.50611049958192
30
0
41
1
10
14.1858772452827
20
1.42720185739756
30
0
41
1
10
14.1685028190857
20
1.35020956650331
30
0
41
1
10
14.1453702474779
20
1.27531069617473
30
0
0
SPLINE
5
84
100
AcDbEntity
8
1
62
256
6
ByLayer
370
-1
48
1
60
0
100
AcDbSpline
70
4
71
3
72
12
73
8
40
0
40
0
40
0
40
0
40
0.495913918840292
40
0.495913918840292
40
0.900352601990841
40
0.900352601990841
40
1
40
1
40
1
40
1
41
1
10
13.6912126219438
20
-6.57989077196515
30
0
41
1
10
13.6220913422156
20
-6.59755574103795
30
0
41
1
10
13.5478622558578
20
-6.60486348557851
30
0
41
1
10
13.4114307283478
20
-6.59517292740861
30
0
41
1
10
13.3480138361444
20
-6.58214096437646
30
0
41
1
10
13.2719669268847
20
-6.55452013078755
30
0
41
1
10
13.2568739313231
20
-6.54842843012969
30
0
41
1
10
13.2419827969336
20
-6.54178849311654
30
0
0
SPLINE
5
85
100
AcDbEntity
8
1
62
256
6
ByLayer
370
-1
48
1
60
0
100
AcDbSpline
70
4
71
3
72
16
73
12
40
0
40
0
40
0
40
0
40
0.0615244204145607
40
0.0615244204145607
40
0.282301138871727
40
0.282301138871727
40
0.505800132545003
40
0.505800132545003
40
0.743580442868439
40
0.743580442868439
40
1
40
1
40
1
40
1
41
1
10
12.5261532361178
20
-9.20695506316102
30
0
41
1
10
12.5178439579825
20
-9.2068332176037
30
0
41
1
10
12.5095306520919
20
-9.20635558152068
30
0
41
1
10
12.4718211679881
20
-9.20257012837359
30
0
41
1
10
12.4425483701952
20
-9.19496680956095
30
0
41
1
10
12.3886041365569
20
-9.1719291648227
30
0
41
1
10
12.3632979204085
20
-9.15612794402992
30
0
41
1
10
12.3182436089948
20
-9.11788309176072
30
0
41
1
10
12.2983690931893
20
-9.09462495057883
30
0
41
1
10
12.2660605097229
20
-9.04293367306514
30
0
41
1
10
12.2539100400314
20
-9.0136271960952
30
0
41
1
10
12.24669894297
20
-8.98396524985571
30
0
0
SPLINE
5
86
100
AcDbEntity
8
1
62
256
6
ByLayer
370
-1
48
1
60
0
100
AcDbSpline
70
4
71
3
72
16
73
12
40
0
40
0
40
0
40
0
40
0.0615244204147315
40
0.0615244204147315
40
0.282301138871872
40
0.282301138871872
40
0.505800132545131
40
0.505800132545131
40
0.743580442868565
40
0.743580442868565
40
1
40
1
40
1
40
1
41
1
10
12.5753156578961
20
-5.85431549764181
30
0
41
1
10
12.5836249360313
20
-5.85443734319912
30
0
41
1
10
12.591938241922
20
-5.85491497928214
30
0
41
1
10
12.6296477260258
20
-5.85870043242926
30
0
41
1
10
12.6589205238187
20
-5.8663037512419
30
0
41
1
10
12.7128647574569
20
-5.88934139598015
30
0
41
1
10
12.7381709736053
20
-5.90514261677293
30
0
41
1
10
12.783225285019
20
-5.94338746904214
30
0
41
1
10
12.8030998008245
20
-5.96664561022405
30
0
41
1
10
12.8354083842909
20
-6.01833688773772
30
0
41
1
10
12.8475588539824
20
-6.04764336470765
30
0
41
1
10
12.8547699510437
20
-6.07730531094711
30
0
0
SPLINE
5
87
100
AcDbEntity
8
1
62
256
6
ByLayer
370
-1
48
1
60
0
100
AcDbSpline
70
4
71
3
72
16
73
12
40
0
40
0
40
0
40
0
40
0.057083585645617
40
0.057083585645617
40
0.280042384238993
40
0.280042384238993
40
0.505462430123636
40
0.505462430123636
40
0.745066646399998
40
0.745066646399998
40
1
40
1
40
1
40
1
41
1
10
14.019296784565
20
-6.72194689127625
30
0
41
1
10
14.0229829176131
20
-6.72864083697701
30
0
41
1
10
14.0264091579083
20
-6.73548610954066
30
0
41
1
10
14.0417613788559
20
-6.76942213452568
30
0
41
1
10
14.0498555565031
20
-6.79858805885843
30
0
41
1
10
14.0569405172524
20
-6.85683262208869
30
0
41
1
10
14.0559433041249
20
-6.88664577003041
30
0
41
1
10
14.0454207034073
20
-6.94476579170745
30
0
41
1
10
14.0352621634773
20
-6.97359346784938
30
0
41
1
10
14.0069466097034
20
-7.02704421796011
30
0
41
1
10
13.9880120905954
20
-7.05192983524597
30
0
41
1
10
13.9663565991192
20
-7.07284281278112
30
0
0
SPLINE
5
88
100
AcDbEntity
8
1
62
256
6
ByLayer
370
-1
48
1
60
0
100
AcDbSpline
70
4
71
3
72
14
73
10
40
0
40
0
40
0
40
0
40
0.282668983475418
40
0.282668983475418
40
0.569154777430785
40
0.569154777430785
40
0.828451043984098
40
0.828451043984098
40
1
40
1
40
1
40
1
41
1
10
12.811122033759
20
-8.99547599721231
30
0
41
1
10
12.8019224764347
20
-9.02755718356482
30
0
41
1
10
12.786797522226
20
-9.05902628510168
30
0
41
1
10
12.7456524526511
20
-9.11542843632924
30
0
41
1
10
12.7187980138304
20
-9.14110507792853
30
0
41
1
10
12.6598979343531
20
-9.17882092511073
30
0
41
1
10
12.6276646171716
20
-9.19244171537369
30
0
41
1
10
12.5720990858022
20
-9.20489047701375
30
0
41
1
10
12.5490131875472
20
-9.20729027681941
30
0
41
1
10
12.5261532361178
20
-9.20695506316102
30
0
0
SPLINE
5
89
100
AcDbEntity
8
1
62
256
6
ByLayer
370
-1
48
1
60
0
100
AcDbSpline
70
4
71
3
72
16
73
12
40
0
40
0
40
0
40
0
40
0.0570835856456298
40
0.0570835856456298
40
0.280042384239023
40
0.280042384239023
40
0.505462430123688
40
0.505462430123688
40
0.745066646400077
40
0.745066646400077
40
1
40
1
40
1
40
1
41
1
10
11.0821721094488
20
-8.33932366952658
30
0
41
1
10
11.0784859764007
20
-8.33262972382582
30
0
41
1
10
11.0750597361055
20
-8.32578445126217
30
0
41
1
10
11.0597075151578
20
-8.29184842627714
30
0
41
1
10
11.0516133375107
20
-8.2626825019444
30
0
41
1
10
11.0445283767614
20
-8.20443793871414
30
0
41
1
10
11.0455255898889
20
-8.17462479077241
30
0
41
1
10
11.0560481906065
20
-8.11650476909537
30
0
41
1
10
11.0662067305365
20
-8.08767709295344
30
0
41
1
10
11.0945222843104
20
-8.03422634284274
30
0
41
1
10
11.1134568034184
20
-8.00934072555688
30
0
41
1
10
11.1351122948945
20
-7.98842774802173
30
0
0
SPLINE
5
8A
100
AcDbEntity
8
1
62
256
6
ByLayer
370
-1
48
1
60
0
100
AcDbSpline
70
4
71
3
72
16
73
12
40
0
40
0
40
0
40
0
40
0.0629164310893839
40
0.0629164310893839
40
0.285790944451738
40
0.285790944451738
40
0.511459543778184
40
0.511459543778184
40
0.751583134132971
40
0.751583134132971
40
1
40
1
40
1
40
1
41
1
10
13.987775426634
20
-8.39409661298814
30
0
41
1
10
13.9834403363934
20
-8.40131141472963
30
0
41
1
10
13.9787874985878
20
-8.40834649867176
30
0
41
1
10
13.9564737776766
20
-8.4391092326473
30
0
41
1
10
13.9351719228818
20
-8.46057335548804
30
0
41
1
10
13.8881153246376
20
-8.49558902633927
30
0
41
1
10
13.8617233131946
20
-8.50950270488389
30
0
41
1
10
13.8059936268496
20
-8.52918508871048
30
0
41
1
10
13.7758883054538
20
-8.53465162185844
30
0
41
1
10
13.7162098345504
20
-8.53650891161865
30
0
41
1
10
13.6860195410473
20
-8.5326293714019
30
0
41
1
10
13.6577834937343
20
-8.524618393488
30
0
0
SPLINE
5
8B
100
AcDbEntity
8
1
62
256
6
ByLayer
370
-1
48
1
60
0
100
AcDbSpline
70
4
71
3
72
12
73
8
40
0
40
0
40
0
40
0
40
0.422118801720439
40
0.422118801720439
40
0.843213954220552
40
0.843213954220552
40
1
40
1
40
1
40
1
41
1
10
12.0021559995808
20
-8.60520679361937
30
0
41
1
10
12.0557241797038
20
-8.64701064025991
30
0
41
1
10
12.1027118150782
20
-8.69693489690656
30
0
41
1
10
12.1775474024498
20
-8.80268980512761
30
0
41
1
10
12.2066192312708
20
-8.85987044825129
30
0
41
1
10
12.2347805889061
20
-8.93975889771858
30
0
41
1
10
12.241312221651
20
-8.96180764515083
30
0
41
1
10
12.2466989429701
20
-8.98396524985571
30
0
0
SPLINE
5
8C
100
AcDbEntity
8
1
62
256
6
ByLayer
370
-1
48
1
60
0
100
AcDbSpline
70
4
71
3
72
12
73
8
40
0
40
0
40
0
40
0
40
0.422118801588462
40
0.422118801588462
40
0.843213954064458
40
0.843213954064458
40
1
40
1
40
1
40
1
41
1
10
13.0993128944331
20
-6.45606376718351
30
0
41
1
10
13.0457447143268
20
-6.41425992055602
30
0
41
1
10
12.998757078965
20
-6.36433566392768
30
0
41
1
10
12.9239214915963
20
-6.25858075573089
30
0
41
1
10
12.894849662771
20
-6.20140011261216
30
0
41
1
10
12.8666883051207
20
-6.1215116631281
30
0
41
1
10
12.8601566723682
20
-6.09946291567403
30
0
41
1
10
12.8547699510437
20
-6.07730531094711
30
0
0
SPLINE
5
8D
100
AcDbEntity
8
1
62
256
6
ByLayer
370
-1
48
1
60
0
100
AcDbSpline
70
4
71
3
72
14
73
10
40
0
40
0
40
0
40
0
40
0.283787473498612
40
0.283787473498612
40
0.570132800081398
40
0.570132800081398
40
0.829316265924806
40
0.829316265924806
40
1
40
1
40
1
40
1
41
1
10
11.153371403917
20
-7.01981579490027
30
0
41
1
10
11.1301639425067
20
-6.99564857662838
30
0
41
1
10
11.1104896793365
20
-6.96662489446052
30
0
41
1
10
11.0824331696619
20
-6.90255175412281
30
0
41
1
10
11.0737770935332
20
-6.86643267233268
30
0
41
1
10
11.0708512091459
20
-6.79657648588534
30
0
41
1
10
11.0753108905773
20
-6.76188114071115
30
0
41
1
10
11.0924904508569
20
-6.70772357366786
30
0
41
1
10
11.1019776219813
20
-6.68667238892985
30
0
41
1
10
11.1136934673798
20
-6.66717394781469
30
0
0
SPLINE
5
8E
100
AcDbEntity
8
1
62
256
6
ByLayer
370
-1
48
1
60
0
100
AcDbSpline
70
4
71
3
72
14
73
10
40
0
40
0
40
0
40
0
40
0.282668983476017
40
0.282668983476017
40
0.569154777431209
40
0.569154777431209
40
0.828451043984344
40
0.828451043984344
40
1
40
1
40
1
40
1
41
1
10
12.2903468602547
20
-6.06579456359071
30
0
41
1
10
12.299546417579
20
-6.03371337723812
30
0
41
1
10
12.3146713717878
20
-6.00224427570117
30
0
41
1
10
12.3558164413627
20
-5.94584212447356
30
0
41
1
10
12.3826708801834
20
-5.92016548287427
30
0
41
1
10
12.4415709596608
20
-5.88244963569207
30
0
41
1
10
12.4738042768423
20
-5.86882884542911
30
0
41
1
10
12.5293698082116
20
-5.85638008378908
30
0
41
1
10
12.5524557064666
20
-5.85398028398342
30
0
41
1
10
12.5753156578961
20
-5.85431549764181
30
0
0
SPLINE
5
8F
100
AcDbEntity
8
1
62
256
6
ByLayer
370
-1
48
1
60
0
100
AcDbSpline
70
4
71
3
72
16
73
12
40
0
40
0
40
0
40
0
40
0.0629164310893778
40
0.0629164310893778
40
0.28579094445173
40
0.28579094445173
40
0.511459543778126
40
0.511459543778126
40
0.751583134132944
40
0.751583134132944
40
1
40
1
40
1
40
1
41
1
10
11.1136934673798
20
-6.66717394781469
30
0
41
1
10
11.1180285576203
20
-6.65995914607322
30
0
41
1
10
11.122681395426
20
-6.65292406213109
30
0
41
1
10
11.1449951163372
20
-6.62216132815553
30
0
41
1
10
11.1662969711321
20
-6.60069720531482
30
0
41
1
10
11.2133535693761
20
-6.56568153446358
30
0
41
1
10
11.2397455808192
20
-6.55176785591897
30
0
41
1
10
11.2954752671641
20
-6.53208547209238
30
0
41
1
10
11.32558058856
20
-6.52661893894438
30
0
41
1
10
11.3852590594633
20
-6.5247616491842
30
0
41
1
10
11.4154493529665
20
-6.52864118940096
30
0
41
1
10
11.4436854002796
20
-6.53665216731486
30
0
0
SPLINE
5
90
100
AcDbEntity
8
1
62
256
6
ByLayer
370
-1
48
1
60
0
100
AcDbSpline
70
4
71
3
72
18
73
14
40
0
40
0
40
0
40
0
40
0.212490963972198
40
0.212490963972198
40
0.386617673020651
40
0.386617673020651
40
0.562425893619563
40
0.562425893619563
40
0.715387974463608
40
0.715387974463608
40
0.918248635938261
40
0.918248635938261
40
1
40
1
40
1
40
1
41
1
10
12.2903468602547
20
-6.06579456359071
30
0
41
1
10
12.2707832108638
20
-6.13401796388223
30
0
41
1
10
12.2398080352234
20
-6.20146129187739
30
0
41
1
10
12.1629334244274
20
-6.31412224591887
30
0
41
1
10
12.11973778799
20
-6.36233458678839
30
0
41
1
10
12.020043931053
20
-6.44539562566152
30
0
41
1
10
11.961822408464
20
-6.48119592992853
30
0
41
1
10
11.8486303510871
20
-6.5297729225133
30
0
41
1
10
11.7929055415112
20
-6.54559668692352
30
0
41
1
10
11.6659254752161
20
-6.56570426815517
30
0
41
1
10
11.5933692726894
20
-6.56513195605191
30
0
41
1
10
11.4974905860005
20
-6.55018317395047
30
0
41
1
10
11.4702375561868
20
-6.54418540070904
30
0
41
1
10
11.4436854002796
20
-6.53665216731486
30
0
0
SPLINE
5
91
100
AcDbEntity
8
1
62
256
6
ByLayer
370
-1
48
1
60
0
100
AcDbSpline
70
4
71
3
72
14
73
10
40
0
40
0
40
0
40
0
40
0.283787473498616
40
0.283787473498616
40
0.570132800081409
40
0.570132800081409
40
0.829316265924806
40
0.829316265924806
40
1
40
1
40
1
40
1
41
1
10
13.9480974900968
20
-8.04145476590256
30
0
41
1
10
13.9713049515071
20
-8.06562198417444
30
0
41
1
10
13.9909792146773
20
-8.09464566634233
30
0
41
1
10
14.0190357243519
20
-8.15871880668001
30
0
41
1
10
14.0276918004806
20
-8.19483788847018
30
0
41
1
10
14.0306176848679
20
-8.26469407491749
30
0
41
1
10
14.0261580034365
20
-8.29938942009167
30
0
41
1
10
14.0089784431569
20
-8.35354698713499
30
0
41
1
10
13.9994912720325
20
-8.374598171873
30
0
41
1
10
13.987775426634
20
-8.39409661298814
30
0
0
SPLINE
5
92
100
AcDbEntity
8
1
62
256
6
ByLayer
370
-1
48
1
60
0
100
AcDbSpline
70
4
71
3
72
14
73
10
40
0
40
0
40
0
40
0
40
0.282362152741955
40
0.282362152741955
40
0.567070401594687
40
0.567070401594687
40
0.824672610079742
40
0.824672610079742
40
1
40
1
40
1
40
1
41
1
10
11.4102562720701
20
-8.48137978883767
30
0
41
1
10
11.3776881593976
20
-8.48970305347316
30
0
41
1
10
11.3426271379356
20
-8.49252175948891
30
0
41
1
10
11.2728657415182
20
-8.48528961993108
30
0
41
1
10
11.2370953713507
20
-8.47495713515553
30
0
41
1
10
11.1747708058729
20
-8.44289929711834
30
0
41
1
10
11.1467487268195
20
-8.42181266125684
30
0
41
1
10
11.1075745586654
20
-8.37940789605307
30
0
41
1
10
11.0935469223293
20
-8.35998010780079
30
0
41
1
10
11.0821721094488
20
-8.33932366952658
30
0
0
SPLINE
5
93
100
AcDbEntity
8
1
62
256
6
ByLayer
370
-1
48
1
60
0
100
AcDbSpline
70
4
71
3
72
14
73
10
40
0
40
0
40
0
40
0
40
0.282362152741954
40
0.282362152741954
40
0.567070401594688
40
0.567070401594688
40
0.824672610079739
40
0.824672610079739
40
1
40
1
40
1
40
1
41
1
10
13.6912126219438
20
-6.57989077196513
30
0
41
1
10
13.7237807346162
20
-6.57156750732966
30
0
41
1
10
13.7588417560782
20
-6.56874880131392
30
0
41
1
10
13.8286031524956
20
-6.57598094087174
30
0
41
1
10
13.8643735226631
20
-6.58631342564729
30
0
41
1
10
13.9266980881409
20
-6.61837126368448
30
0
41
1
10
13.9547201671943
20
-6.63945789954596
30
0
41
1
10
13.9938943353484
20
-6.68186266474976
30
0
41
1
10
14.0079219716845
20
-6.70129045300203
30
0
41
1
10
14.019296784565
20
-6.72194689127625
30
0
0
SPLINE
5
94
100
AcDbEntity
8
1
62
256
6
ByLayer
370
-1
48
1
60
0
100
AcDbSpline
70
4
71
3
72
18
73
14
40
0
40
0
40
0
40
0
40
0.212439663782731
40
0.212439663782731
40
0.386575328714767
40
0.386575328714767
40
0.562393107418092
40
0.562393107418092
40
0.715356938332213
40
0.715356938332213
40
0.918208436069591
40
0.918208436069591
40
1
40
1
40
1
40
1
41
1
10
13.9480974900968
20
-8.04145476590259
30
0
41
1
10
13.898950652584
20
-7.9902754348872
30
0
41
1
10
13.8562086789975
20
-7.92962622490944
30
0
41
1
10
13.7974194427242
20
-7.80657600992154
30
0
41
1
10
13.7774304730058
20
-7.74500459906804
30
0
41
1
10
13.7556914841437
20
-7.61707151131071
30
0
41
1
10
13.7539844566488
20
-7.54874141936907
30
0
41
1
10
13.7688467322504
20
-7.42646122522606
30
0
41
1
10
13.7831594071953
20
-7.37032795151308
30
0
41
1
10
13.8295640793355
20
-7.25043414691814
30
0
41
1
10
13.8665075626485
20
-7.18798765454576
30
0
41
1
10
13.9276063476427
20
-7.11258613997205
30
0
41
1
10
13.9464932697534
20
-7.09202507706996
30
0
41
1
10
13.9663565991192
20
-7.07284281278109
30
0
0
SPLINE
5
95
100
AcDbEntity
8
1
62
256
6
ByLayer
370
-1
48
1
60
0
100
AcDbSpline
70
4
71
3
72
12
73
8
40
0
40
0
40
0
40
0
40
0.495913918840392
40
0.495913918840392
40
0.90035260200189
40
0.90035260200189
40
1
40
1
40
1
40
1
41
1
10
11.4102562720701
20
-8.48137978883767
30
0
41
1
10
11.4793775517982
20
-8.46371481976487
30
0
41
1
10
11.553606638156
20
-8.45640707522432
30
0
41
1
10
11.6900381656676
20
-8.46609763339433
30
0
41
1
10
11.7534550578728
20
-8.47912959642707
30
0
41
1
10
11.8295019671322
20
-8.50675043001658
30
0
41
1
10
11.8445949626922
20
-8.51284213067379
30
0
41
1
10
11.8594860970801
20
-8.51948206768623
30
0
0
SPLINE
5
96
100
AcDbEntity
8
1
62
256
6
ByLayer
370
-1
48
1
60
0
100
AcDbSpline
70
4
71
3
72
18
73
14
40
0
40
0
40
0
40
0
40
0.212490963972349
40
0.212490963972349
40
0.386617673020767
40
0.386617673020767
40
0.562425893619641
40
0.562425893619641
40
0.715387974463649
40
0.715387974463649
40
0.918248635938268
40
0.918248635938268
40
1
40
1
40
1
40
1
41
1
10
12.811122033759
20
-8.99547599721234
30
0
41
1
10
12.8306856831499
20
-8.92725259692074
30
0
41
1
10
12.8616608587903
20
-8.85980926892549
30
0
41
1
10
12.9385354695864
20
-8.74714831488396
30
0
41
1
10
12.9817311060238
20
-8.69893597401443
30
0
41
1
10
13.0814249629608
20
-8.61587493514131
30
0
41
1
10
13.1396464855498
20
-8.58007463087429
30
0
41
1
10
13.2528385429267
20
-8.53149763828949
30
0
41
1
10
13.3085633525026
20
-8.51567387387931
30
0
41
1
10
13.4355434187977
20
-8.49556629264765
30
0
41
1
10
13.5080996213244
20
-8.49613860475091
30
0
41
1
10
13.6039783080133
20
-8.51108738685235
30
0
41
1
10
13.631231337827
20
-8.51708516009379
30
0
41
1
10
13.6577834937343
20
-8.52461839348797
30
0
0
SPLINE
5
97
100
AcDbEntity
8
1
62
256
6
ByLayer
370
-1
48
1
60
0
100
AcDbSpline
70
4
71
3
72
18
73
14
40
0
40
0
40
0
40
0
40
0.212439663782694
40
0.212439663782694
40
0.386575328714745
40
0.386575328714745
40
0.562393107418082
40
0.562393107418082
40
0.715356938332214
40
0.715356938332214
40
0.918208436069591
40
0.918208436069591
40
1
40
1
40
1
40
1
41
1
10
11.153371403917
20
-7.01981579490027
30
0
41
1
10
11.2025182414297
20
-7.07099512591563
30
0
41
1
10
11.2452602150162
20
-7.13164433589338
30
0
41
1
10
11.3040494512896
20
-7.25469455088128
30
0
41
1
10
11.324038421008
20
-7.31626596173479
30
0
41
1
10
11.34577740987
20
-7.44419904949211
30
0
41
1
10
11.3474844373649
20
-7.51252914143376
30
0
41
1
10
11.3326221617634
20
-7.63480933557676
30
0
41
1
10
11.3183094868184
20
-7.69094260928975
30
0
41
1
10
11.2719048146782
20
-7.81083641388469
30
0
41
1
10
11.2349613313653
20
-7.87328290625706
30
0
41
1
10
11.1738625463711
20
-7.9486844208308
30
0
41
1
10
11.1549756242604
20
-7.96924548373286
30
0
41
1
10
11.1351122948945
20
-7.98842774802173
30
0
0
INSERT
5
CB
100
AcDbEntity
8
SK2
62
256
6
ByLayer
370
-1
48
1
60
0
100
AcDbBlockReference
2
DimnDraft3D11
10
0
20
0
30
0
41
1
42
1
43
1
50
0
210
0
220
0
230
1
0
LINE
5
4C
100
AcDbEntity
8
80
62
256
6
ByLayer
370
-1
48
1
60
0
100
AcDbLine
10
0
20
0
30
0
11
-5
21
0
31
0
39
0
210
0
220
0
230
1
0
LINE
5
4D
100
AcDbEntity
8
81
62
256
6
ByLayer
370
-1
48
1
60
0
100
AcDbLine
10
20.14825
20
-12.4125
30
0
11
30.14825
21
-12.4125
31
0
39
0
210
0
220
0
230
1
0
LINE
5
4E
100
AcDbEntity
8
1
62
256
6
ByLayer
370
-1
48
1
60
0
100
AcDbLine
10
1
20
-7.9375
30
0
11
1.5
21
-8.4375
31
0
39
0
210
0
220
0
230
1
0
LINE
5
50
100
AcDbEntity
8
1
62
256
6
ByLayer
370
-1
48
1
60
0
100
AcDbLine
10
14.985802
20
-1.08983
30
0
11
14.694504
21
-1.57463
31
0
39
0
210
0
220
0
230
1
0
LINE
5
51
100
AcDbEntity
8
1
62
256
6
ByLayer
370
-1
48
1
60
0
100
AcDbLine
10
18.837842
20
-8.255582
30
0
11
18.393505
21
-8.247826
31
0
39
0
210
0
220
0
230
1
0
LINE
5
52
100
AcDbEntity
8
1
62
256
6
ByLayer
370
-1
48
1
60
0
100
AcDbLine
10
15.187141
20
-1.210807
30
0
11
14.985802
21
-1.08983
31
0
39
0
210
0
220
0
230
1
0
LINE
5
53
100
AcDbEntity
8
1
62
256
6
ByLayer
370
-1
48
1
60
0
100
AcDbLine
10
4.838399
20
-11.186593
30
0
11
2.224391
21
-11.140966
31
0
39
0
210
0
220
0
230
1
0
LINE
5
54
100
AcDbEntity
8
1
62
256
6
ByLayer
370
-1
48
1
60
0
100
AcDbLine
10
17.773933
20
3.904949
30
0
11
18.837842
21
-8.255582
31
0
39
0
210
0
220
0
230
1
0
LINE
5
55
100
AcDbEntity
8
1
62
256
6
ByLayer
370
-1
48
1
60
0
100
AcDbLine
10
0
20
7.936296
30
0
11
5.003815
21
7.936296
31
0
39
0
210
0
220
0
230
1
0
LINE
5
56
100
AcDbEntity
8
1
62
256
6
ByLayer
370
-1
48
1
60
0
100
AcDbLine
10
18.920313
20
-9.198225
30
0
11
18.858427
21
-8.490866
31
0
39
0
210
0
220
0
230
1
0
LINE
5
57
100
AcDbEntity
8
1
62
256
6
ByLayer
370
-1
48
1
60
0
100
AcDbLine
10
18.837842
20
-8.255582
30
0
11
18.858427
21
-8.490866
31
0
39
0
210
0
220
0
230
1
0
LINE
5
58
100
AcDbEntity
8
1
62
256
6
ByLayer
370
-1
48
1
60
0
100
AcDbLine
10
2.224391
20
-11.140966
30
0
11
1.5
21
-8.4375
31
0
39
0
210
0
220
0
230
1
0
LINE
5
59
100
AcDbEntity
8
1
62
256
6
ByLayer
370
-1
48
1
60
0
100
AcDbLine
10
1
20
-7.9375
30
0
11
0
21
-7.9375
31
0
39
0
210
0
220
0
230
1
0
LINE
5
5A
100
AcDbEntity
8
1
62
256
6
ByLayer
370
-1
48
1
60
0
100
AcDbLine
10
0
20
7.936296
30
0
11
0
21
-7.9375
31
0
39
0
210
0
220
0
230
1
0
LINE
5
5B
100
AcDbEntity
8
1
62
256
6
ByLayer
370
-1
48
1
60
0
100
AcDbLine
10
5.003815
20
7.936296
30
0
11
17.773933
21
3.904949
31
0
39
0
210
0
220
0
230
1
0
LINE
5
5C
100
AcDbEntity
8
1
62
256
6
ByLayer
370
-1
48
1
60
0
100
AcDbLine
10
18.858427
20
-8.490866
30
0
11
18.524988
21
-8.485046
31
0
39
0
210
0
220
0
230
1
0
LINE
5
5D
100
AcDbEntity
8
1
62
256
6
ByLayer
370
-1
48
1
60
0
100
AcDbLine
10
15.187141
20
-1.210807
30
0
11
14.825995
21
-1.811855
31
0
39
0
210
0
220
0
230
1
0
LINE
5
5E
100
AcDbEntity
8
SK1
62
256
6
ByLayer
370
-1
48
1
60
0
100
AcDbLine
10
-0.15
20
-7.9375
30
0
11
-0.15
21
7.9375
31
0
39
0
210
0
220
0
230
1
0
LINE
5
60
100
AcDbEntity
8
SK1
62
256
6
ByLayer
370
-1
48
1
60
0
100
AcDbLine
10
-81.20175
20
-7.9375
30
0
11
-81.20175
21
7.9375
31
0
39
0
210
0
220
0
230
1
0
LINE
5
61
100
AcDbEntity
8
SK1
62
256
6
ByLayer
370
-1
48
1
60
0
100
AcDbLine
10
0
20
-7.9375
30
0
11
0
21
7.936296
31
0
39
0
210
0
220
0
230
1
0
LINE
5
62
100
AcDbEntity
8
1
62
256
6
ByLayer
370
-1
48
1
60
0
100
AcDbLine
10
4.928287
20
-10.969629
30
0
11
12.008663
21
0.814096
31
0
39
0
210
0
220
0
230
1
0
LINE
5
63
100
AcDbEntity
8
SK1
62
256
6
ByLayer
370
-1
48
1
60
0
100
AcDbLine
10
-0.15
20
7.93695
30
0
11
0
21
7.936296
31
0
39
0
210
0
220
0
230
1
0
LINE
5
64
100
AcDbEntity
8
1
62
256
6
ByLayer
370
-1
48
1
60
0
100
AcDbLine
10
19.340214
20
-12.412372
30
0
11
5.595021
21
-12.172448
31
0
39
0
210
0
220
0
230
1
0
LINE
5
65
100
AcDbEntity
8
SK1
62
256
6
ByLayer
370
-1
48
1
60
0
100
AcDbLine
10
-81.20175
20
7.9375
30
0
11
-0.15
21
7.9375
31
0
39
0
210
0
220
0
230
1
0
LINE
5
66
100
AcDbEntity
8
1
62
256
6
ByLayer
370
-1
48
1
60
0
100
AcDbLine
10
13.383702
20
0.790095
30
0
11
20.048519
21
-11.233554
31
0
39
0
210
0
220
0
230
1
0
LINE
5
67
100
AcDbEntity
8
SK1
62
256
6
ByLayer
370
-1
48
1
60
0
100
AcDbLine
10
-0.15
20
-7.9375
30
0
11
-81.20175
21
-7.9375
31
0
39
0
210
0
220
0
230
1
0
LINE
5
68
100
AcDbEntity
8
SK1
62
256
6
ByLayer
370
-1
48
1
60
0
100
AcDbLine
10
0
20
-7.9375
30
0
11
-0.15
21
-7.9375
31
0
39
0
210
0
220
0
230
1
0
MTEXT
5
98
100
AcDbEntity
8
SK6
62
256
6
ByLayer
370
-1
48
1
60
0
100
AcDbMText
10
-45.37633
20
18.395841
30
0
210
0
220
0
230
1
1
\W00.712;\fsimplex.shx,bigfont.shx;STGCL 1616H 16 
40
3.5
41
0
44
1.084337
50
0
71
7
72
5
7
DEFAULT
0
DIMENSION
5
D9
100
AcDbEntity
8
2
62
256
6
ByLayer
370
-3
48
1
60
0
100
AcDbDimension
2
DimnDraft3D2
10
-3.30886
20
-12.01703
30
0
11
2.374953
21
-21.748469
31
0
70
34
71
5
72
1
41
1
210
0
220
0
230
1
3
Standard
100
AcDb2LineAngularDimension
13
20.14825
23
-14.4125
33
0
14
20.14825
24
-35.887159
34
0
15
16.341104
25
-12.360022
35
0
16
8.051035
26
-24.314376
36
0
40
0
0
DIMENSION
5
EE
100
AcDbEntity
8
2
62
256
6
ByLayer
370
-3
48
1
60
0
100
AcDbDimension
2
DimnDraft3D3
10
47.39825
20
-12.4125
30
0
11
47.39825
21
-4.866447
31
0
70
32
71
5
72
1
41
1
210
0
220
0
230
1
3
Standard
100
AcDbAlignedDimension
13
2
23
7.9375
33
0
14
22.14825
24
-12.4125
34
0
50
90
100
AcDbRotatedDimension
1001
ACAD
1000
DSTYLE
1002
{
1070
    74
1070
     0
1070
   279
1070
     0
1070
   172
1070
     1
1070
   173
1070
     1
1070
   340
1005
99
1070
    77
1070
     1
1070
    73
1070
     0
1070
   171
1070
     3
1070
   274
1070
     4
1070
   177
1070
     2
1070
   176
1070
     2
1070
   178
1070
     7
1070
    78
1070
     8
1070
    41
1041
3.175
1070
   147
1041
2.25
1070
    42
1041
2.0
1070
    44
1041
2.0
1070
   140
1041
4.5
1070
   343
1005
DA
1070
   344
1005
DA
1002
}
0
DIMENSION
5
FC
100
AcDbEntity
8
SK2
62
256
6
ByLayer
370
-3
48
1
60
0
100
AcDbDimension
2
DimnDraft3D4
10
-90.95175
20
-7.9375
30
0
11
-90.95175
21
-2.066447
31
0
70
32
71
5
72
1
41
1
210
0
220
0
230
1
3
Standard
100
AcDbAlignedDimension
13
-83.20175
23
7.9375
33
0
14
-83.20175
24
-7.9375
34
0
50
90
100
AcDbRotatedDimension
1001
ACAD
1000
DSTYLE
1002
{
1070
    74
1070
     0
1070
   279
1070
     0
1070
   172
1070
     1
1070
   173
1070
     1
1070
   340
1005
99
1070
    77
1070
     1
1070
    73
1070
     0
1070
   171
1070
     3
1070
   274
1070
     4
1070
   177
1070
     2
1070
   176
1070
     2
1070
   178
1070
     7
1070
    78
1070
     8
1070
    41
1041
3.175
1070
   147
1041
2.25
1070
    42
1041
2.0
1070
    44
1041
2.0
1070
   140
1041
4.5
1070
   343
1005
DA
1070
   344
1005
DA
1002
}
0
ENDSEC
0
SECTION
2
OBJECTS
0
DICTIONARY
5
12c
330
0
100
AcDbDictionary
280
0
281
1
3
ACAD_GROUP
350
12d
3
ACAD_MLINESTYLE
350
12e
0
DICTIONARY
5
12d
330
0
100
AcDbDictionary
280
0
281
1
0
DICTIONARY
5
12e
330
0
100
AcDbDictionary
280
0
281
1
3
Standard
350
18
0
MLINESTYLE
5
18
330
12e
100
AcDbMlineStyle
2
Standard
70
0
3

62
256
51
90
52
90
71
2
49
-0.5
62
256
6
ByLayer
49
0.5
62
256
6
ByLayer
0
RASTERVARIABLES
5
11b
330

100
AcDbRasterVariables
90
0
70
1
71
1
72
1
0
ENDSEC
0
EOF
