0
SECTION
2
HEADER
9
$ACADVER
1
AC1015
9
$DWGCODEPAGE
3
ANSI_1252
9
$HANDSEED
5
135
9
$ANGBASE
50
0
9
$ANGDIR
70
0
9
$ATTMODE
70
1
9
$AUNITS
70
0
9
$AUPREC
70
0
9
$CECOLOR
62
256
9
$CELTSCALE
40
1
9
$CELTYPE
6
ByLayer
9
$CELWEIGHT
370
-1
9
$CLAYER
8
0
9
$CMLJUST
70
0
9
$CMLSCALE
40
1
9
$CMLSTYLE
2
Standard
9
$DIMSTYLE
2
Standard
9
$TEXTSIZE
40
0.2
9
$TEXTSTYLE
7
Standard
9
$LUNITS
70
2
9
$LUPREC
70
4
9
$EXTNAMES
290
1
9
$INSUNITS
70
4
9
$LTSCALE
40
1
9
$LWDISPLAY
290
0
9
$PDMODE
70
0
9
$PDSIZE
40
0
9
$PLINEGEN
70
0
0
ENDSEC
0
SECTION
2
CLASSES
0
CLASS
1
RASTERVARIABLES
2
AcDbRasterVariables
3
ISM
90
0
280
0
281
0
0
ENDSEC
0
SECTION
2
TABLES
0
TABLE
2
VPORT
5
12b
100
AcDbSymbolTable
0
VPORT
5
1
100
AcDbSymbolTableRecord
100
AcDbViewportTableRecord
2
*Active
70
0
10
0
20
0
11
1
21
1
12
-1
22
1
13
0
23
0
14
0.5
24
0.5
15
10
25
10
16
0
26
0
36
1
17
0
27
0
37
0
0
ENDTAB
0
TABLE
2
LTYPE
5
12c
100
AcDbSymbolTable
0
LTYPE
5
14
100
AcDbSymbolTableRecord
100
AcDbLinetypeTableRecord
70
0
2
ByBlock
3

72
65
73
0
40
0
0
LTYPE
5
15
100
AcDbSymbolTableRecord
100
AcDbLinetypeTableRecord
70
0
2
ByLayer
3

72
65
73
0
40
0
0
LTYPE
5
16
100
AcDbSymbolTableRecord
100
AcDbLinetypeTableRecord
70
0
2
CONTINUOUS
3
Solid line
72
65
73
0
40
0
0
LTYPE
5
3B
100
AcDbSymbolTableRecord
100
AcDbLinetypeTableRecord
70
0
2
DASHED
3
__ __ __ __ __ __ __ __ __
72
65
73
2
40
25.72
49
12.86
74
0
49
-12.86
74
0
0
LTYPE
5
3C
100
AcDbSymbolTableRecord
100
AcDbLinetypeTableRecord
70
0
2
HIDDEN
3
_ _ _ _ _ _ _ _ _ _ _ _ _ _ _
72
65
73
2
40
0.5
49
0.25
74
0
49
-0.25
74
0
0
LTYPE
5
3D
100
AcDbSymbolTableRecord
100
AcDbLinetypeTableRecord
70
0
2
PHANTOM
3
____ _ _ ____ _ _ _____ _ _ ____
72
65
73
6
40
50.5
49
18
74
0
49
-6.5
74
0
49
6.5
74
0
49
-6.5
74
0
49
6.5
74
0
49
-6.5
74
0
0
LTYPE
5
3E
100
AcDbSymbolTableRecord
100
AcDbLinetypeTableRecord
70
0
2
CENTER
3
____ _ ____ _ ____ _ ____
72
65
73
4
40
47.5
49
22
74
0
49
-8.5
74
0
49
8.5
74
0
49
-8.5
74
0
0
LTYPE
5
3F
100
AcDbSymbolTableRecord
100
AcDbLinetypeTableRecord
70
0
2
DOT
3
.........................
72
65
73
2
40
10
49
0
74
0
49
-10
74
0
0
LTYPE
5
40
100
AcDbSymbolTableRecord
100
AcDbLinetypeTableRecord
70
0
2
DASHDOT
3
_._._._._._._._._._._._._._._._.
72
65
73
4
40
70
49
31
74
0
49
-13
74
0
49
13
74
0
49
-13
74
0
0
ENDTAB
0
TABLE
2
LAYER
5
12d
100
AcDbSymbolTable
0
LAYER
5
10
100
AcDbSymbolTableRecord
100
AcDbLayerTableRecord
2
0
70
0
62
7
6
CONTINUOUS
290
1
370
-3
390
0
0
LAYER
5
42
100
AcDbSymbolTableRecord
100
AcDbLayerTableRecord
2
2
70
0
62
7
6
CONTINUOUS
290
1
370
-3
390
0
0
LAYER
5
44
100
AcDbSymbolTableRecord
100
AcDbLayerTableRecord
2
80
70
0
62
-6
6
CONTINUOUS
290
1
370
-3
390
0
0
LAYER
5
49
100
AcDbSymbolTableRecord
100
AcDbLayerTableRecord
2
81
70
0
62
-3
6
CONTINUOUS
290
1
370
-3
390
0
0
LAYER
5
4F
100
AcDbSymbolTableRecord
100
AcDbLayerTableRecord
2
1
70
0
62
4
6
CONTINUOUS
290
1
370
-3
390
0
0
LAYER
5
118
100
AcDbSymbolTableRecord
100
AcDbLayerTableRecord
2
SK2
70
0
62
7
6
CONTINUOUS
290
1
370
-3
390
0
0
LAYER
5
119
100
AcDbSymbolTableRecord
100
AcDbLayerTableRecord
2
SK1
70
0
62
4
6
CONTINUOUS
290
1
370
-3
390
0
0
LAYER
5
11a
100
AcDbSymbolTableRecord
100
AcDbLayerTableRecord
2
SK6
70
0
62
5
6
CONTINUOUS
290
1
370
-3
390
0
0
ENDTAB
0
TABLE
2
STYLE
5
12e
100
AcDbSymbolTable
0
STYLE
5
11
100
AcDbSymbolTableRecord
100
AcDbTextStyleTableRecord
2
Standard
3
txt
70
0
71
0
40
0
41
1
42
0
50
0
0
STYLE
5
95
100
AcDbSymbolTableRecord
100
AcDbTextStyleTableRecord
2
DEFAULT
3
simplex.shx
70
0
71
0
40
0
41
1
42
0
50
0
0
STYLE
5
B8
100
AcDbSymbolTableRecord
100
AcDbTextStyleTableRecord
2
DWGDirectTextStyle
3
SIMPLEX
70
0
71
0
40
0
41
1
42
0
50
0
0
ENDTAB
0
TABLE
2
DIMSTYLE
5
12f
100
AcDbSymbolTable
100
AcDbDimStyleTable
0
DIMSTYLE
105
27
100
AcDbSymbolTableRecord
100
AcDbDimStyleTableRecord
2
Standard
70
0
3
<>
41
0.18
42
0.0625
44
0.18
140
0.18
147
0.09
73
0
74
0
77
1
271
2
275
0
278
52
280
0
340
11
0
ENDTAB
0
TABLE
2
VIEW
5
130
100
AcDbSymbolTable
0
ENDTAB
0
TABLE
2
UCS
5
131
100
AcDbSymbolTable
0
ENDTAB
0
TABLE
2
APPID
5
132
100
AcDbSymbolTable
0
APPID
5
12
100
AcDbSymbolTableRecord
100
AcDbRegAppTableRecord
2
ACAD
70
0
0
ENDTAB
0
TABLE
2
BLOCK_RECORD
5
133
100
AcDbSymbolTable
0
BLOCK_RECORD
5
1F
100
AcDbSymbolTableRecord
100
AcDbBlockTableRecord
2
*Model_Space
340
0
70
0
0
BLOCK_RECORD
5
1B
100
AcDbSymbolTableRecord
100
AcDbBlockTableRecord
2
*Paper_Space
340
0
70
0
0
BLOCK_RECORD
5
23
100
AcDbSymbolTableRecord
100
AcDbBlockTableRecord
2
*Paper_Space0
340
0
70
0
0
BLOCK_RECORD
5
BA
100
AcDbSymbolTableRecord
100
AcDbBlockTableRecord
2
DimnDraft3D11
340
0
70
0
0
BLOCK_RECORD
5
C8
100
AcDbSymbolTableRecord
100
AcDbBlockTableRecord
2
DimnDraft3D2
340
0
70
0
0
BLOCK_RECORD
5
D6
100
AcDbSymbolTableRecord
100
AcDbBlockTableRecord
2
_CLOSED
340
0
70
0
0
BLOCK_RECORD
5
DD
100
AcDbSymbolTableRecord
100
AcDbBlockTableRecord
2
DimnDraft3D3
340
0
70
0
0
BLOCK_RECORD
5
EB
100
AcDbSymbolTableRecord
100
AcDbBlockTableRecord
2
DimnDraft3D4
340
0
70
0
0
ENDTAB
0
ENDSEC
0
SECTION
2
BLOCKS
0
BLOCK
5
20
100
AcDbEntity
8
0
100
AcDbBlockBegin
2
*Model_Space
70
0
10
0
20
0
30
0
3
*Model_Space
0
ENDBLK
5
21
100
AcDbEntity
8
0
100
AcDbBlockEnd
0
BLOCK
5
1C
100
AcDbEntity
8
0
100
AcDbBlockBegin
2
*Paper_Space
70
0
10
0
20
0
30
0
3
*Paper_Space
0
ENDBLK
5
1D
100
AcDbEntity
8
0
100
AcDbBlockEnd
0
BLOCK
5
24
100
AcDbEntity
8
0
100
AcDbBlockBegin
2
*Paper_Space0
70
0
10
0
20
0
30
0
3
*Paper_Space0
0
ENDBLK
5
25
100
AcDbEntity
8
0
100
AcDbBlockEnd
0
BLOCK
5
BB
100
AcDbEntity
8
0
100
AcDbBlockBegin
2
DimnDraft3D11
70
0
10
0
20
0
30
0
3
DimnDraft3D11
0
LINE
5
BD
100
AcDbEntity
8
SK2
62
256
6
ByLayer
370
-1
48
1
60
0
100
AcDbLine
10
14.375878
20
-14.4125
30
0
11
14.375878
21
-38.6625
31
0
39
0
210
0
220
0
230
1
0
LINE
5
BE
100
AcDbEntity
8
SK2
62
256
6
ByLayer
370
-1
48
1
60
0
100
AcDbLine
10
-86.974122
20
-9.9375
30
0
11
-86.974122
21
-38.6625
31
0
39
0
210
0
220
0
230
1
0
LINE
5
BF
100
AcDbEntity
8
SK2
62
256
6
ByLayer
370
-1
48
1
60
0
100
AcDbLine
10
14.375878
20
-36.6625
30
0
11
-86.974122
21
-36.6625
31
0
39
0
210
0
220
0
230
1
0
LINE
5
C0
100
AcDbEntity
8
SK2
62
256
6
ByLayer
370
-1
48
1
60
0
100
AcDbLine
10
14.375878
20
-36.6625
30
0
11
11.200879
21
-37.080497
31
0
39
0
210
0
220
0
230
1
0
LINE
5
C1
100
AcDbEntity
8
SK2
62
256
6
ByLayer
370
-1
48
1
60
0
100
AcDbLine
10
14.375878
20
-36.6625
30
0
11
11.200876
21
-36.244503
31
0
39
0
210
0
220
0
230
1
0
LINE
5
C2
100
AcDbEntity
8
SK2
62
256
6
ByLayer
370
-1
48
1
60
0
100
AcDbLine
10
11.200879
20
-37.080497
30
0
11
11.200876
21
-36.244503
31
0
39
0
210
0
220
0
230
1
0
LINE
5
C3
100
AcDbEntity
8
SK2
62
256
6
ByLayer
370
-1
48
1
60
0
100
AcDbLine
10
-86.974122
20
-36.6625
30
0
11
-83.799124
21
-36.244503
31
0
39
0
210
0
220
0
230
1
0
LINE
5
C4
100
AcDbEntity
8
SK2
62
256
6
ByLayer
370
-1
48
1
60
0
100
AcDbLine
10
-86.974122
20
-36.6625
30
0
11
-83.799121
21
-37.080497
31
0
39
0
210
0
220
0
230
1
0
LINE
5
C5
100
AcDbEntity
8
SK2
62
256
6
ByLayer
370
-1
48
1
60
0
100
AcDbLine
10
-83.799124
20
-36.244503
30
0
11
-83.799121
21
-37.080497
31
0
39
0
210
0
220
0
230
1
0
MTEXT
5
C6
100
AcDbEntity
8
SK2
62
256
6
ByLayer
370
-1
48
1
60
0
100
AcDbMText
10
-38.892543
20
-35.5375
30
0
210
0
220
0
230
1
1
\W00.604;\fsimplex.shx,bigfont.shx;100 
40
4.5
41
0
44
1.084337
50
0
71
7
72
5
7
DEFAULT
0
ENDBLK
5
BC
100
AcDbEntity
8
0
100
AcDbBlockEnd
0
BLOCK
5
D3
100
AcDbEntity
8
0
100
AcDbBlockBegin
2
DimnDraft3D2
70
0
10
0
20
0
30
0
3
DimnDraft3D2
0
MTEXT
5
C9
100
AcDbEntity
8
2
62
256
6
ByLayer
370
-1
48
1
60
0
100
AcDbMText
10
-3.414826
20
-23.335872
30
0
210
0
220
0
230
1
1
\W01.000;\fsimplex.shx,bigfont.shx;91%%d0' 
40
4.5
41
0
44
1.084337
50
314.5
71
7
72
5
7
DEFAULT
0
LINE
5
CA
100
AcDbEntity
8
2
62
256
6
ByLayer
370
-1
48
1
60
0
100
AcDbLine
10
14.375878
20
-14.4125
30
0
11
14.375878
21
-35.88511
31
0
39
0
210
0
220
0
230
1
0
LINE
5
CB
100
AcDbEntity
8
2
62
256
6
ByLayer
370
-1
48
1
60
0
100
AcDbLine
10
10.972533
20
-12.360082
30
0
11
-9.086171
21
-12.009956
31
0
39
0
210
0
220
0
230
1
0
ARC
5
CC
100
AcDbEntity
8
2
62
256
6
ByLayer
370
-1
48
1
60
0
100
AcDbCircle
39
0
10
14.375878
20
-12.419488
30
0
40
21.4656222531699
210
0
220
0
230
1
100
AcDbArc
50
179
51
270
0
LINE
5
CD
100
AcDbEntity
8
2
62
256
6
ByLayer
370
-1
48
1
60
0
100
AcDbLine
10
14.375878
20
-33.88511
30
0
11
11.187617
21
-34.185658
31
0
39
0
210
0
220
0
230
1
0
LINE
5
CE
100
AcDbEntity
8
2
62
256
6
ByLayer
370
-1
48
1
60
0
100
AcDbLine
10
14.375878
20
-33.88511
30
0
11
11.218464
21
-33.350234
31
0
39
0
210
0
220
0
230
1
0
LINE
5
CF
100
AcDbEntity
8
2
62
256
6
ByLayer
370
-1
48
1
60
0
100
AcDbLine
10
11.187617
20
-34.185658
30
0
11
11.218464
21
-33.350234
31
0
39
0
210
0
220
0
230
1
0
LINE
5
D0
100
AcDbEntity
8
2
62
256
6
ByLayer
370
-1
48
1
60
0
100
AcDbLine
10
-7.086475
20
-12.044861
30
0
11
-6.606785
21
-15.211126
31
0
39
0
210
0
220
0
230
1
0
LINE
5
D1
100
AcDbEntity
8
2
62
256
6
ByLayer
370
-1
48
1
60
0
100
AcDbLine
10
-7.086475
20
-12.044861
30
0
11
-7.44262
21
-15.227394
31
0
39
0
210
0
220
0
230
1
0
LINE
5
D2
100
AcDbEntity
8
2
62
256
6
ByLayer
370
-1
48
1
60
0
100
AcDbLine
10
-6.606785
20
-15.211126
30
0
11
-7.44262
21
-15.227394
31
0
39
0
210
0
220
0
230
1
0
ENDBLK
5
D4
100
AcDbEntity
8
0
100
AcDbBlockEnd
0
BLOCK
5
D7
100
AcDbEntity
8
0
100
AcDbBlockBegin
2
_CLOSED
70
0
10
0
20
0
30
0
3
_CLOSED
0
LINE
5
D9
100
AcDbEntity
8
0
62
256
6
ByLayer
370
-2
48
1
60
0
100
AcDbLine
10
-1
20
0.166667
30
0
11
0
21
0
31
0
39
0
210
0
220
0
230
1
0
LINE
5
DA
100
AcDbEntity
8
0
62
256
6
ByLayer
370
-2
48
1
60
0
100
AcDbLine
10
0
20
0
30
0
11
-1
21
-0.166667
31
0
39
0
210
0
220
0
230
1
0
LINE
5
DB
100
AcDbEntity
8
0
62
256
6
ByLayer
370
-2
48
1
60
0
100
AcDbLine
10
-1
20
0.166667
30
0
11
-1
21
-0.166667
31
0
39
0
210
0
220
0
230
1
0
LINE
5
DC
100
AcDbEntity
8
0
62
256
6
ByLayer
370
-2
48
1
60
0
100
AcDbLine
10
0
20
0
30
0
11
-1
21
0
31
0
39
0
210
0
220
0
230
1
0
ENDBLK
5
D8
100
AcDbEntity
8
0
100
AcDbBlockEnd
0
BLOCK
5
E8
100
AcDbEntity
8
0
100
AcDbBlockBegin
2
DimnDraft3D3
70
0
10
0
20
0
30
0
3
DimnDraft3D3
0
MTEXT
5
DE
100
AcDbEntity
8
2
62
256
6
ByLayer
370
-1
48
1
60
0
100
AcDbMText
10
40.500878
20
-3.741447
30
0
210
0
220
0
230
1
1
\W01.000;\fsimplex.shx,bigfont.shx;20 
40
4.5
41
0
44
1.084337
50
90
71
7
72
5
7
DEFAULT
0
LINE
5
DF
100
AcDbEntity
8
2
62
256
6
ByLayer
370
-1
48
1
60
0
100
AcDbLine
10
2
20
7.9375
30
0
11
43.625878
21
7.9375
31
0
39
0
210
0
220
0
230
1
0
LINE
5
E0
100
AcDbEntity
8
2
62
256
6
ByLayer
370
-1
48
1
60
0
100
AcDbLine
10
16.375878
20
-12.4125
30
0
11
43.625878
21
-12.4125
31
0
39
0
210
0
220
0
230
1
0
LINE
5
E1
100
AcDbEntity
8
2
62
256
6
ByLayer
370
-1
48
1
60
0
100
AcDbLine
10
41.625878
20
7.9375
30
0
11
41.625878
21
-12.4125
31
0
39
0
210
0
220
0
230
1
0
LINE
5
E2
100
AcDbEntity
8
2
62
256
6
ByLayer
370
-1
48
1
60
0
100
AcDbLine
10
41.625878
20
7.9375
30
0
11
42.043874
21
4.762502
31
0
39
0
210
0
220
0
230
1
0
LINE
5
E3
100
AcDbEntity
8
2
62
256
6
ByLayer
370
-1
48
1
60
0
100
AcDbLine
10
41.625878
20
7.9375
30
0
11
41.207881
21
4.762498
31
0
39
0
210
0
220
0
230
1
0
LINE
5
E4
100
AcDbEntity
8
2
62
256
6
ByLayer
370
-1
48
1
60
0
100
AcDbLine
10
42.043874
20
4.762502
30
0
11
41.207881
21
4.762498
31
0
39
0
210
0
220
0
230
1
0
LINE
5
E5
100
AcDbEntity
8
2
62
256
6
ByLayer
370
-1
48
1
60
0
100
AcDbLine
10
41.625878
20
-12.4125
30
0
11
41.207881
21
-9.237502
31
0
39
0
210
0
220
0
230
1
0
LINE
5
E6
100
AcDbEntity
8
2
62
256
6
ByLayer
370
-1
48
1
60
0
100
AcDbLine
10
41.625878
20
-12.4125
30
0
11
42.043874
21
-9.237498
31
0
39
0
210
0
220
0
230
1
0
LINE
5
E7
100
AcDbEntity
8
2
62
256
6
ByLayer
370
-1
48
1
60
0
100
AcDbLine
10
41.207881
20
-9.237502
30
0
11
42.043874
21
-9.237498
31
0
39
0
210
0
220
0
230
1
0
ENDBLK
5
E9
100
AcDbEntity
8
0
100
AcDbBlockEnd
0
BLOCK
5
F6
100
AcDbEntity
8
0
100
AcDbBlockBegin
2
DimnDraft3D4
70
0
10
0
20
0
30
0
3
DimnDraft3D4
0
MTEXT
5
EC
100
AcDbEntity
8
SK2
62
256
6
ByLayer
370
-1
48
1
60
0
100
AcDbMText
10
-97.849122
20
-0.941447
30
0
210
0
220
0
230
1
1
\W01.000;\fsimplex.shx,bigfont.shx;16 
40
4.5
41
0
44
1.084337
50
90
71
7
72
5
7
DEFAULT
0
LINE
5
ED
100
AcDbEntity
8
SK2
62
256
6
ByLayer
370
-1
48
1
60
0
100
AcDbLine
10
-88.974122
20
7.9375
30
0
11
-98.724122
21
7.9375
31
0
39
0
210
0
220
0
230
1
0
LINE
5
EE
100
AcDbEntity
8
SK2
62
256
6
ByLayer
370
-1
48
1
60
0
100
AcDbLine
10
-88.974122
20
-7.9375
30
0
11
-98.724122
21
-7.9375
31
0
39
0
210
0
220
0
230
1
0
LINE
5
EF
100
AcDbEntity
8
SK2
62
256
6
ByLayer
370
-1
48
1
60
0
100
AcDbLine
10
-96.724122
20
7.9375
30
0
11
-96.724122
21
-7.9375
31
0
39
0
210
0
220
0
230
1
0
LINE
5
F0
100
AcDbEntity
8
SK2
62
256
6
ByLayer
370
-1
48
1
60
0
100
AcDbLine
10
-96.724122
20
7.9375
30
0
11
-96.306126
21
4.762502
31
0
39
0
210
0
220
0
230
1
0
LINE
5
F1
100
AcDbEntity
8
SK2
62
256
6
ByLayer
370
-1
48
1
60
0
100
AcDbLine
10
-96.724122
20
7.9375
30
0
11
-97.142119
21
4.762498
31
0
39
0
210
0
220
0
230
1
0
LINE
5
F2
100
AcDbEntity
8
SK2
62
256
6
ByLayer
370
-1
48
1
60
0
100
AcDbLine
10
-96.306126
20
4.762502
30
0
11
-97.142119
21
4.762498
31
0
39
0
210
0
220
0
230
1
0
LINE
5
F3
100
AcDbEntity
8
SK2
62
256
6
ByLayer
370
-1
48
1
60
0
100
AcDbLine
10
-96.724122
20
-7.9375
30
0
11
-97.142119
21
-4.762502
31
0
39
0
210
0
220
0
230
1
0
LINE
5
F4
100
AcDbEntity
8
SK2
62
256
6
ByLayer
370
-1
48
1
60
0
100
AcDbLine
10
-96.724122
20
-7.9375
30
0
11
-96.306126
21
-4.762498
31
0
39
0
210
0
220
0
230
1
0
LINE
5
F5
100
AcDbEntity
8
SK2
62
256
6
ByLayer
370
-1
48
1
60
0
100
AcDbLine
10
-97.142119
20
-4.762502
30
0
11
-96.306126
21
-4.762498
31
0
39
0
210
0
220
0
230
1
0
ENDBLK
5
F7
100
AcDbEntity
8
0
100
AcDbBlockEnd
0
ENDSEC
0
SECTION
2
ENTITIES
0
ARC
5
66
100
AcDbEntity
8
1
62
256
6
ByLayer
370
-1
48
1
60
0
100
AcDbCircle
39
0
10
-9.936414
20
-4.628401
30
0
40
1.25
210
0
220
0
230
-1
100
AcDbArc
50
109.769869
51
121
0
ARC
5
67
100
AcDbEntity
8
1
62
256
6
ByLayer
370
-1
48
1
60
0
100
AcDbCircle
39
0
10
9.314233
20
-3.554577
30
0
40
1.04999999999999
210
0
220
0
230
1
100
AcDbArc
50
5.602037
51
218.073232
0
ARC
5
68
100
AcDbEntity
8
1
62
256
6
ByLayer
370
-1
48
1
60
0
100
AcDbCircle
39
0
10
-10.107848
20
-4.731409
30
0
40
1.25
210
0
220
0
230
-1
100
AcDbArc
50
121
51
211
0
ARC
5
69
100
AcDbEntity
8
1
62
256
6
ByLayer
370
-1
48
1
60
0
100
AcDbCircle
39
0
10
9.314233
20
-3.554577
30
0
40
1.04999999999999
210
0
220
0
230
1
100
AcDbArc
50
319.911654
51
5.602037
0
ARC
5
6A
100
AcDbEntity
8
1
62
256
6
ByLayer
370
-1
48
1
60
0
100
AcDbCircle
39
0
10
-9.216367
20
-9.153945
30
0
40
0.748000000000009
210
0
220
0
230
-1
100
AcDbArc
50
303.161847
51
1.024579
0
ARC
5
6B
100
AcDbEntity
8
1
62
256
6
ByLayer
370
-1
48
1
60
0
100
AcDbCircle
39
0
10
9.216367
20
-9.153945
30
0
40
0.748000000000009
210
0
220
0
230
1
100
AcDbArc
50
236.838153
51
241.161847
0
ARC
5
6C
100
AcDbEntity
8
1
62
256
6
ByLayer
370
-1
48
1
60
0
100
AcDbCircle
39
0
10
9.216367
20
-9.153945
30
0
40
1.03499999999999
210
0
220
0
230
1
100
AcDbArc
50
89.049159
51
149
0
ARC
5
6D
100
AcDbEntity
8
1
62
256
6
ByLayer
370
-1
48
1
60
0
100
AcDbCircle
39
0
10
9.216367
20
-9.153945
30
0
40
1.03499999999999
210
0
220
0
230
1
100
AcDbArc
50
208.950841
51
269.049159
0
ARC
5
6F
100
AcDbEntity
8
1
62
256
6
ByLayer
370
-1
48
1
60
0
100
AcDbCircle
39
0
10
-9.216367
20
-9.153945
30
0
40
0.748000000000009
210
0
220
0
230
-1
100
AcDbArc
50
123.161847
51
181.024579
0
ARC
5
71
100
AcDbEntity
8
1
62
256
6
ByLayer
370
-1
48
1
60
0
100
AcDbCircle
39
0
10
9.216367
20
-9.153945
30
0
40
1.03499999999999
210
0
220
0
230
1
100
AcDbArc
50
269.049159
51
329
0
ARC
5
72
100
AcDbEntity
8
1
62
256
6
ByLayer
370
-1
48
1
60
0
100
AcDbCircle
39
0
10
-9.216367
20
-9.153945
30
0
40
0.748000000000009
210
0
220
0
230
-1
100
AcDbArc
50
1.024579
51
60.975421
0
ARC
5
74
100
AcDbEntity
8
1
62
256
6
ByLayer
370
-1
48
1
60
0
100
AcDbCircle
39
0
10
9.216367
20
-9.153945
30
0
40
1.03499999999999
210
0
220
0
230
1
100
AcDbArc
50
28.950841
51
89.049159
0
ARC
5
75
100
AcDbEntity
8
1
62
256
6
ByLayer
370
-1
48
1
60
0
100
AcDbCircle
39
0
10
-9.216367
20
-9.153945
30
0
40
0.748000000000001
210
0
220
0
230
-1
100
AcDbArc
50
240.975421
51
298.838153
0
ARC
5
76
100
AcDbEntity
8
1
62
256
6
ByLayer
370
-1
48
1
60
0
100
AcDbCircle
39
0
10
9.216367
20
-9.153945
30
0
40
0.748000000000009
210
0
220
0
230
1
100
AcDbArc
50
56.838153
51
61.161847
0
ARC
5
78
100
AcDbEntity
8
1
62
256
6
ByLayer
370
-1
48
1
60
0
100
AcDbCircle
39
0
10
-9.216367
20
-9.153945
30
0
40
0.748000000000009
210
0
220
0
230
-1
100
AcDbArc
50
181.024579
51
240.975421
0
ARC
5
7A
100
AcDbEntity
8
1
62
256
6
ByLayer
370
-1
48
1
60
0
100
AcDbCircle
39
0
10
9.216367
20
-9.153945
30
0
40
1.03499999999999
210
0
220
0
230
1
100
AcDbArc
50
149
51
208.950841
0
ARC
5
7B
100
AcDbEntity
8
1
62
256
6
ByLayer
370
-1
48
1
60
0
100
AcDbCircle
39
0
10
9.216367
20
-9.153945
30
0
40
1.03499999999999
210
0
220
0
230
1
100
AcDbArc
50
329
51
28.950841
0
ARC
5
7C
100
AcDbEntity
8
1
62
256
6
ByLayer
370
-1
48
1
60
0
100
AcDbCircle
39
0
10
-9.216367
20
-9.153945
30
0
40
0.748000000000009
210
0
220
0
230
-1
100
AcDbArc
50
60.975421
51
118.838153
0
ARC
5
7D
100
AcDbEntity
8
1
62
256
6
ByLayer
370
-1
48
1
60
0
100
AcDbCircle
39
0
10
9.313337
20
-3.598541
30
0
40
0.396875000000004
210
0
220
0
230
1
100
AcDbArc
50
29
51
149
0
ARC
5
7E
100
AcDbEntity
8
1
62
256
6
ByLayer
370
-1
48
1
60
0
100
AcDbCircle
39
0
10
13.979003
20
-12.015625
30
0
40
0.396875000000004
210
0
220
0
230
1
100
AcDbArc
50
269
51
29
0
ARC
5
7F
100
AcDbEntity
8
1
62
256
6
ByLayer
370
-1
48
1
60
0
100
AcDbCircle
39
0
10
4.356761
20
-11.847668
30
0
40
0.396875000000004
210
0
220
0
230
1
100
AcDbArc
50
149
51
269
0
CIRCLE
5
6E
100
AcDbEntity
8
1
62
256
6
ByLayer
370
-1
48
1
60
0
100
AcDbCircle
10
-9.216367
20
-9.153945
30
0
40
1.80141464041831
39
0
210
0
220
0
230
-1
0
CIRCLE
5
70
100
AcDbEntity
8
1
62
256
6
ByLayer
370
-1
48
1
60
0
100
AcDbCircle
10
9.216367
20
-9.153945
30
0
40
1.30000000000001
39
0
210
0
220
0
230
1
0
CIRCLE
5
73
100
AcDbEntity
8
1
62
256
6
ByLayer
370
-1
48
1
60
0
100
AcDbCircle
10
9.216367
20
-9.153945
30
0
40
1.72500000000001
39
0
210
0
220
0
230
1
0
CIRCLE
5
77
100
AcDbEntity
8
1
62
256
6
ByLayer
370
-1
48
1
60
0
100
AcDbCircle
10
9.216367
20
-9.153945
30
0
40
1.90468944117779
39
0
210
0
220
0
230
1
0
CIRCLE
5
79
100
AcDbEntity
8
1
62
256
6
ByLayer
370
-1
48
1
60
0
100
AcDbCircle
10
9.216367
20
-9.153945
30
0
40
1.88122167929285
39
0
210
0
220
0
230
1
0
POINT
5
41
100
AcDbEntity
8
2
62
256
6
ByLayer
370
-1
48
1
60
0
100
AcDbPoint
10
14.375878
20
28.2875
30
0
39
0
210
0
220
0
230
1
50
360
0
POINT
5
43
100
AcDbEntity
8
80
62
256
6
ByLayer
370
-1
48
1
60
0
100
AcDbPoint
10
0
20
0
30
0
39
0
210
0
220
0
230
1
50
360
0
POINT
5
45
100
AcDbEntity
8
SK2
62
256
6
ByLayer
370
-1
48
1
60
0
100
AcDbPoint
10
14.375878
20
28.2875
30
0
39
0
210
0
220
0
230
1
50
360
0
POINT
5
47
100
AcDbEntity
8
SK2
62
256
6
ByLayer
370
-1
48
1
60
0
100
AcDbPoint
10
14.375878
20
28.2875
30
0
39
0
210
0
220
0
230
1
50
360
0
POINT
5
48
100
AcDbEntity
8
81
62
256
6
ByLayer
370
-1
48
1
60
0
100
AcDbPoint
10
14.375878
20
-12.4125
30
0
39
0
210
0
220
0
230
1
50
360
0
POINT
5
4A
100
AcDbEntity
8
SK2
62
256
6
ByLayer
370
-1
48
1
60
0
100
AcDbPoint
10
14.375878
20
28.2875
30
0
39
0
210
0
220
0
230
1
50
360
0
POINT
5
4B
100
AcDbEntity
8
SK2
62
256
6
ByLayer
370
-1
48
1
60
0
100
AcDbPoint
10
14.375878
20
28.2875
30
0
39
0
210
0
220
0
230
1
50
360
0
SPLINE
5
80
100
AcDbEntity
8
1
62
256
6
ByLayer
370
-1
48
1
60
0
100
AcDbSpline
70
4
71
3
72
12
73
8
40
0
40
0
40
0
40
0
40
0.464589426689522
40
0.464589426689522
40
0.846565595641844
40
0.846565595641844
40
1
40
1
40
1
40
1
41
1
10
9.91688489759412
20
-8.56262400495913
30
0
41
1
10
9.87466196275736
20
-8.57277935491476
30
0
41
1
10
9.82940973268893
20
-8.5766611175207
30
0
41
1
10
9.74609480087892
20
-8.56982781232213
30
0
41
1
10
9.70725229031461
20
-8.5614096533327
30
0
41
1
10
9.65497601096527
20
-8.54181397220509
30
0
41
1
10
9.64003716156941
20
-8.53521863684841
30
0
41
1
10
9.62552726117747
20
-8.52777239451075
30
0
0
SPLINE
5
81
100
AcDbEntity
8
1
62
256
6
ByLayer
370
-1
48
1
60
0
100
AcDbSpline
70
4
71
3
72
16
73
12
40
0
40
0
40
0
40
0
40
0.0652339252908821
40
0.0652339252908821
40
0.28989976063314
40
0.28989976063314
40
0.517452153050939
40
0.517452153050939
40
0.759496397026938
40
0.759496397026938
40
1
40
1
40
1
40
1
41
1
10
10.1220284210874
20
-8.65294359404345
30
0
41
1
10
10.1246852930261
20
-8.65774643145099
30
0
41
1
10
10.1271310149046
20
-8.66267363901233
30
0
41
1
10
10.1369358313659
20
-8.68485107342545
30
0
41
1
10
10.141903598553
20
-8.70337003575108
30
0
41
1
10
10.1460794474038
20
-8.74033150865893
30
0
41
1
10
10.1452807045908
20
-8.75923899042448
30
0
41
1
10
10.1382726987903
20
-8.79606202139493
30
0
41
1
10
10.1316540726302
20
-8.81430284578937
30
0
41
1
10
10.1139648424146
20
-8.8469347478372
30
0
41
1
10
10.1027509096452
20
-8.86169990534805
30
0
41
1
10
10.0899921639413
20
-8.87427161147693
30
0
0
SPLINE
5
82
100
AcDbEntity
8
1
62
256
6
ByLayer
370
-1
48
1
60
0
100
AcDbSpline
70
4
71
3
72
18
73
14
40
0
40
0
40
0
40
0
40
0.213391867581865
40
0.213391867581865
40
0.389002173648925
40
0.389002173648925
40
0.566250773929122
40
0.566250773929122
40
0.721173901793911
40
0.721173901793911
40
0.927414379202963
40
0.927414379202963
40
1
40
1
40
1
40
1
41
1
10
9.0531612740599
20
-8.25128076115593
30
0
41
1
10
9.0407909231767
20
-8.29283736979056
30
0
41
1
10
9.02149339718301
20
-8.33387620225113
30
0
41
1
10
8.97388252256275
20
-8.40247673862584
30
0
41
1
10
8.94715150532994
20
-8.43185590553514
30
0
41
1
10
8.88566163253165
20
-8.48234430133104
30
0
41
1
10
8.84985631002729
20
-8.50402888394464
30
0
41
1
10
8.78022836559535
20
-8.53341847944438
30
0
41
1
10
8.74591586491283
20
-8.54294131636144
30
0
41
1
10
8.66761442369483
20
-8.5548713344246
30
0
41
1
10
8.62284627978778
20
-8.55423396850264
30
0
41
1
10
8.56590353666056
20
-8.54495791969677
30
0
41
1
10
8.55119921580177
20
-8.5417356249306
30
0
41
1
10
8.53682128023218
20
-8.53778232603668
30
0
0
SPLINE
5
83
100
AcDbEntity
8
1
62
256
6
ByLayer
370
-1
48
1
60
0
100
AcDbSpline
70
4
71
3
72
18
73
14
40
0
40
0
40
0
40
0
40
0.213310846837453
40
0.213310846837453
40
0.388935063538423
40
0.388935063538423
40
0.566198523709677
40
0.566198523709677
40
0.721124131607328
40
0.721124131607328
40
0.927349976078778
40
0.927349976078778
40
1
40
1
40
1
40
1
41
1
10
10.0794332407106
20
-9.46467710352911
30
0
41
1
10
10.0496676807454
20
-9.43317217612147
30
0
41
1
10
10.0238162227009
20
-9.39593506880465
30
0
41
1
10
9.98827421953706
20
-9.32039142932334
30
0
41
1
10
9.97622391119643
20
-9.28254108053602
30
0
41
1
10
9.96330253134846
20
-9.20403014723254
30
0
41
1
10
9.96245741484131
20
-9.16217535880833
30
0
41
1
10
9.97187769110576
20
-9.08718383061779
30
0
41
1
10
9.98081392753551
20
-9.05271267344756
30
0
41
1
10
10.0096899454064
20
-8.97896034076675
30
0
41
1
10
10.0326544330607
20
-8.94052833861281
30
0
41
1
10
10.0692003358481
20
-8.89587160378801
30
0
41
1
10
10.0793611821298
20
-8.8847467461255
30
0
41
1
10
10.0899921639413
20
-8.87427161147696
30
0
0
SPLINE
5
84
100
AcDbEntity
8
1
62
256
6
ByLayer
370
-1
48
1
60
0
100
AcDbSpline
70
4
71
3
72
14
73
10
40
0
40
0
40
0
40
0
40
0.284252833288257
40
0.284252833288257
40
0.571499987480332
40
0.571499987480332
40
0.83178964538559
40
0.83178964538559
40
1
40
1
40
1
40
1
41
1
10
8.35330044359668
20
-8.84321228903289
30
0
41
1
10
8.33878091795395
20
-8.8278443066431
30
0
41
1
10
8.32650252228251
20
-8.80943767263437
30
0
41
1
10
8.30905665649735
20
-8.76885536602998
30
0
41
1
10
8.30373208093707
20
-8.74599914016576
30
0
41
1
10
8.3021362318143
20
-8.70183733819056
30
0
41
1
10
8.30507544532364
20
-8.67992108382748
30
0
41
1
10
8.31602205710414
20
-8.6460003356556
30
0
41
1
10
8.32193412764363
20
-8.63297054404845
30
0
41
1
10
8.329198685927
20
-8.62088028874911
30
0
0
SPLINE
5
85
100
AcDbEntity
8
1
62
256
6
ByLayer
370
-1
48
1
60
0
100
AcDbSpline
70
4
71
3
72
18
73
14
40
0
40
0
40
0
40
0
40
0.213310846837432
40
0.213310846837432
40
0.388935063538401
40
0.388935063538401
40
0.566198523709659
40
0.566198523709659
40
0.721124131607304
40
0.721124131607304
40
0.927349976078755
40
0.927349976078755
40
1
40
1
40
1
40
1
41
1
10
8.35330044359668
20
-8.84321228903289
30
0
41
1
10
8.38306600356188
20
-8.87471721644053
30
0
41
1
10
8.40891746160645
20
-8.91195432375739
30
0
41
1
10
8.44445946477026
20
-8.98749796323867
30
0
41
1
10
8.45650977311089
20
-9.02534831202601
30
0
41
1
10
8.46943115295889
20
-9.10385924532949
30
0
41
1
10
8.47027626946601
20
-9.14571403375371
30
0
41
1
10
8.46085599320156
20
-9.22070556194424
30
0
41
1
10
8.45191975677182
20
-9.25517671911445
30
0
41
1
10
8.42304373890096
20
-9.32892905179529
30
0
41
1
10
8.40007925124664
20
-9.36736105394922
30
0
41
1
10
8.36353334845921
20
-9.41201778877402
30
0
41
1
10
8.35337250217754
20
-9.42314264643653
30
0
41
1
10
8.34274152036608
20
-9.43361778108508
30
0
0
SPLINE
5
86
100
AcDbEntity
8
1
62
256
6
ByLayer
370
-1
48
1
60
0
100
AcDbSpline
70
4
71
3
72
12
73
8
40
0
40
0
40
0
40
0
40
0.377026881446796
40
0.377026881446796
40
0.761057564197024
40
0.761057564197024
40
1
40
1
40
1
40
1
41
1
10
8.85557869694009
20
-9.80918199243663
30
0
41
1
10
8.88801392890429
20
-9.83175349740068
30
0
41
1
10
8.91729966213379
20
-9.85915043298724
30
0
41
1
10
8.96594950658391
20
-9.91870508532924
30
0
41
1
10
8.98585144216142
20
-9.95168436027103
30
0
41
1
10
9.01003613730379
20
-10.0065847507088
30
0
41
1
10
9.01750033700574
20
-10.0282488452415
30
0
41
1
10
9.02313496739072
20
-10.0500736761489
30
0
0
SPLINE
5
87
100
AcDbEntity
8
1
62
256
6
ByLayer
370
-1
48
1
60
0
100
AcDbSpline
70
4
71
3
72
14
73
10
40
0
40
0
40
0
40
0
40
0.282559344047195
40
0.282559344047195
40
0.570018452367458
40
0.570018452367458
40
0.830476628482041
40
0.830476628482041
40
1
40
1
40
1
40
1
41
1
10
9.05316127405985
20
-8.25128076115593
30
0
41
1
10
9.05915736322839
20
-8.23113766794319
30
0
41
1
10
9.06885966576155
20
-8.21140979382159
30
0
41
1
10
9.09510063289844
20
-8.17603171186587
30
0
41
1
10
9.11219415658545
20
-8.15993407359258
30
0
41
1
10
9.14959391371957
20
-8.13635388958622
30
0
41
1
10
9.17003100675757
20
-8.12788053313133
30
0
41
1
10
9.20497805632323
20
-8.12028269715552
30
0
41
1
10
9.21932959628452
20
-8.11885133048884
30
0
41
1
10
9.23354220257676
20
-8.11908721479173
30
0
0
SPLINE
5
88
100
AcDbEntity
8
1
62
256
6
ByLayer
370
-1
48
1
60
0
100
AcDbSpline
70
4
71
3
72
14
73
10
40
0
40
0
40
0
40
0
40
0.284032913699727
40
0.284032913699727
40
0.570747132587482
40
0.570747132587482
40
0.830522675675709
40
0.830522675675709
40
1
40
1
40
1
40
1
41
1
10
8.51584878671321
20
-9.74526538760287
30
0
41
1
10
8.495256747795
20
-9.75021813099514
30
0
41
1
10
8.47314082294542
20
-9.75170203858227
30
0
41
1
10
8.42921003737627
20
-9.74660130032774
30
0
41
1
10
8.40672546130392
20
-9.73982239852216
30
0
41
1
10
8.36762002075969
20
-9.71917826269916
30
0
41
1
10
8.3500749387955
20
-9.70569447742204
30
0
41
1
10
8.32602448523795
20
-9.67917180019597
30
0
41
1
10
8.31760357249189
20
-9.66741589816374
30
0
41
1
10
8.31070526321992
20
-9.65494579851855
30
0
0
SPLINE
5
89
100
AcDbEntity
8
1
62
256
6
ByLayer
370
-1
48
1
60
0
100
AcDbSpline
70
4
71
3
72
16
73
12
40
0
40
0
40
0
40
0
40
0.0652339252908885
40
0.0652339252908885
40
0.289899760633128
40
0.289899760633128
40
0.517452153050913
40
0.517452153050913
40
0.759496397026899
40
0.759496397026899
40
1
40
1
40
1
40
1
41
1
10
8.31070526321992
20
-9.65494579851855
30
0
41
1
10
8.3080483912812
20
-9.65014296111104
30
0
41
1
10
8.30560266940267
20
-9.64521575354971
30
0
41
1
10
8.2957978529414
20
-9.62303831913658
30
0
41
1
10
8.29083008575435
20
-9.60451935681095
30
0
41
1
10
8.28665423690353
20
-9.56755788390311
30
0
41
1
10
8.28745297971645
20
-9.54865040213755
30
0
41
1
10
8.29446098551699
20
-9.5118273711671
30
0
41
1
10
8.3010796116771
20
-9.49358654677266
30
0
41
1
10
8.31876884189273
20
-9.46095464472484
30
0
41
1
10
8.32998277466214
20
-9.44618948721396
30
0
41
1
10
8.34274152036608
20
-9.43361778108508
30
0
0
SPLINE
5
8A
100
AcDbEntity
8
1
62
256
6
ByLayer
370
-1
48
1
60
0
100
AcDbSpline
70
4
71
3
72
16
73
12
40
0
40
0
40
0
40
0
40
0.065449989824682
40
0.065449989824682
40
0.289460871157611
40
0.289460871157611
40
0.516372687516067
40
0.516372687516067
40
0.757752970114777
40
0.757752970114777
40
1
40
1
40
1
40
1
41
1
10
9.23354220257676
20
-8.11908721479173
30
0
41
1
10
9.23906408473846
20
-8.11917886056716
30
0
41
1
10
9.24458859247781
20
-8.11951859505581
30
0
41
1
10
9.26873314685923
20
-8.12209148854262
30
0
41
1
10
9.28725957356892
20
-8.12702678307537
30
0
41
1
10
9.32137393636543
20
-8.1418504783658
30
0
41
1
10
9.33736106913724
20
-8.15197726697647
30
0
41
1
10
9.36577685102787
20
-8.17642554745336
30
0
41
1
10
9.37828276642313
20
-8.19126438501101
30
0
41
1
10
9.39783177472444
20
-8.22303493943798
30
0
41
1
10
9.40507789147898
20
-8.24030502911052
30
0
41
1
10
9.40959871691658
20
-8.25781571641309
30
0
0
SPLINE
5
8B
100
AcDbEntity
8
1
62
256
6
ByLayer
370
-1
48
1
60
0
100
AcDbSpline
70
4
71
3
72
18
73
14
40
0
40
0
40
0
40
0
40
0.213391867582796
40
0.213391867582796
40
0.389002173649649
40
0.389002173649649
40
0.566250773929638
40
0.566250773929638
40
0.721173901794244
40
0.721173901794244
40
0.927414379203034
40
0.927414379203034
40
1
40
1
40
1
40
1
41
1
10
9.37957241024722
20
-10.0566086314068
30
0
41
1
10
9.39194276113045
20
-10.0150520227719
30
0
41
1
10
9.41124028712417
20
-9.9740131903111
30
0
41
1
10
9.45885116174455
20
-9.90541265393617
30
0
41
1
10
9.48558217897738
20
-9.87603348702686
30
0
41
1
10
9.54707205177564
20
-9.82554509123096
30
0
41
1
10
9.58287737428003
20
-9.80386050861739
30
0
41
1
10
9.65250531871197
20
-9.77447091311763
30
0
41
1
10
9.68681781939449
20
-9.76494807620057
30
0
41
1
10
9.76511926061249
20
-9.7530180581374
30
0
41
1
10
9.80988740451949
20
-9.75365542405936
30
0
41
1
10
9.86683014764674
20
-9.76293147286523
30
0
41
1
10
9.88153446850549
20
-9.76615376763141
30
0
41
1
10
9.89591240407515
20
-9.7701070665253
30
0
0
SPLINE
5
8C
100
AcDbEntity
8
1
62
256
6
ByLayer
370
-1
48
1
60
0
100
AcDbSpline
70
4
71
3
72
12
73
8
40
0
40
0
40
0
40
0
40
0.46458942668936
40
0.46458942668936
40
0.846565595641552
40
0.846565595641552
40
1
40
1
40
1
40
1
41
1
10
8.51584878671318
20
-9.74526538760287
30
0
41
1
10
8.55807172154994
20
-9.73511003764725
30
0
41
1
10
8.60332395161834
20
-9.7312282750413
30
0
41
1
10
8.6866388834284
20
-9.73806158023987
30
0
41
1
10
8.72548139399271
20
-9.7464797392293
30
0
41
1
10
8.77775767334202
20
-9.76607542035691
30
0
41
1
10
8.7926965227378
20
-9.77267075571356
30
0
41
1
10
8.80720642312968
20
-9.78011699805117
30
0
0
SPLINE
5
8D
100
AcDbEntity
8
1
62
256
6
ByLayer
370
-1
48
1
60
0
100
AcDbSpline
70
4
71
3
72
14
73
10
40
0
40
0
40
0
40
0
40
0.284032913699637
40
0.284032913699637
40
0.570747132587426
40
0.570747132587426
40
0.83052267567568
40
0.83052267567568
40
1
40
1
40
1
40
1
41
1
10
9.91688489759412
20
-8.56262400495913
30
0
41
1
10
9.9374769365123
20
-8.5576712615669
30
0
41
1
10
9.95959286136187
20
-8.55618735397977
30
0
41
1
10
10.0035236469311
20
-8.56128809223429
30
0
41
1
10
10.0260082230034
20
-8.56806699403987
30
0
41
1
10
10.0651136635476
20
-8.58871112986287
30
0
41
1
10
10.0826587455118
20
-8.60219491513996
30
0
41
1
10
10.1067091990694
20
-8.62871759236606
30
0
41
1
10
10.1151301118154
20
-8.64047349439829
30
0
41
1
10
10.1220284210874
20
-8.65294359404345
30
0
0
SPLINE
5
8E
100
AcDbEntity
8
1
62
256
6
ByLayer
370
-1
48
1
60
0
100
AcDbSpline
70
4
71
3
72
12
73
8
40
0
40
0
40
0
40
0
40
0.377026881206483
40
0.377026881206483
40
0.761057563917739
40
0.761057563917739
40
1
40
1
40
1
40
1
41
1
10
9.57715498736735
20
-8.49870740012543
30
0
41
1
10
9.5447197554237
20
-8.47613589517573
30
0
41
1
10
9.5154340222108
20
-8.4487389596099
30
0
41
1
10
9.46678417776633
20
-8.38918430729603
30
0
41
1
10
9.44688224218399
20
-8.3562050323599
30
0
41
1
10
9.42269754702096
20
-8.3013046419037
30
0
41
1
10
9.41523334730812
20
-8.27964054734585
30
0
41
1
10
9.40959871691661
20
-8.25781571641309
30
0
0
SPLINE
5
8F
100
AcDbEntity
8
1
62
256
6
ByLayer
370
-1
48
1
60
0
100
AcDbSpline
70
4
71
3
72
14
73
10
40
0
40
0
40
0
40
0
40
0.284252833288297
40
0.284252833288297
40
0.571499987480349
40
0.571499987480349
40
0.83178964538562
40
0.83178964538562
40
1
40
1
40
1
40
1
41
1
10
10.0794332407107
20
-9.46467710352911
30
0
41
1
10
10.0939527663534
20
-9.4800450859189
30
0
41
1
10
10.1062311620248
20
-9.49845171992766
30
0
41
1
10
10.12367702781
20
-9.53903402653205
30
0
41
1
10
10.1290016033703
20
-9.56189025239624
30
0
41
1
10
10.130597452493
20
-9.60605205437145
30
0
41
1
10
10.1276582389837
20
-9.62796830873452
30
0
41
1
10
10.1167116272032
20
-9.6618890569064
30
0
41
1
10
10.1107995566637
20
-9.67491884851356
30
0
41
1
10
10.1035349983804
20
-9.6870091038129
30
0
0
SPLINE
5
90
100
AcDbEntity
8
1
62
256
6
ByLayer
370
-1
48
1
60
0
100
AcDbSpline
70
4
71
3
72
16
73
12
40
0
40
0
40
0
40
0
40
0.0654499898242375
40
0.0654499898242375
40
0.289460871157231
40
0.289460871157231
40
0.51637268751566
40
0.51637268751566
40
0.757752970114275
40
0.757752970114275
40
1
40
1
40
1
40
1
41
1
10
9.19919148173051
20
-10.1888021777703
30
0
41
1
10
9.19366959956886
20
-10.1887105319949
30
0
41
1
10
9.18814509182954
20
-10.1883707975062
30
0
41
1
10
9.16400053744815
20
-10.1857979040194
30
0
41
1
10
9.14547411073843
20
-10.1808626094867
30
0
41
1
10
9.11135974794189
20
-10.1660389141963
30
0
41
1
10
9.09537261517011
20
-10.1559121255856
30
0
41
1
10
9.06695683327948
20
-10.1314638451087
30
0
41
1
10
9.0544509178842
20
-10.1166250075511
30
0
41
1
10
9.03490190958286
20
-10.0848544531241
30
0
41
1
10
9.02765579282828
20
-10.0675843634515
30
0
41
1
10
9.02313496739072
20
-10.0500736761489
30
0
0
SPLINE
5
91
100
AcDbEntity
8
1
62
256
6
ByLayer
370
-1
48
1
60
0
100
AcDbSpline
70
4
71
3
72
14
73
10
40
0
40
0
40
0
40
0
40
0.282559344044364
40
0.282559344044364
40
0.570018452365638
40
0.570018452365638
40
0.830476628481114
40
0.830476628481114
40
1
40
1
40
1
40
1
41
1
10
9.37957241024719
20
-10.0566086314068
30
0
41
1
10
9.37357632107864
20
-10.0767517246192
30
0
41
1
10
9.36387401854563
20
-10.0964795987406
30
0
41
1
10
9.33763305140894
20
-10.131857680696
30
0
41
1
10
9.32053952772191
20
-10.1479553189693
30
0
41
1
10
9.28313977058778
20
-10.1715355029758
30
0
41
1
10
9.26270267754981
20
-10.1800088594306
30
0
41
1
10
9.2277556279841
20
-10.1876066954065
30
0
41
1
10
9.2134040880228
20
-10.1890380620732
30
0
41
1
10
9.19919148173051
20
-10.1888021777703
30
0
0
SPLINE
5
92
100
AcDbEntity
8
1
62
256
6
ByLayer
370
-1
48
1
60
0
100
AcDbSpline
70
4
71
3
72
16
73
12
40
0
40
0
40
0
40
0
40
0.0668629219468781
40
0.0668629219468781
40
0.29150805845459
40
0.29150805845459
40
0.519131180701752
40
0.519131180701752
40
0.76132067905835
40
0.76132067905835
40
1
40
1
40
1
40
1
41
1
10
8.329198685927
20
-8.62088028874911
30
0
41
1
10
8.3320956728106
20
-8.61605889291806
30
0
41
1
10
8.33521687597528
20
-8.61136391140133
30
0
41
1
10
8.34962559368691
20
-8.59169613972907
30
0
41
1
10
8.3631943481173
20
-8.57815585187549
30
0
41
1
10
8.3931418499576
20
-8.55609886361574
30
0
41
1
10
8.40992788343672
20
-8.54735825668271
30
0
41
1
10
8.44534406153616
20
-8.53505968355785
30
0
41
1
10
8.46446058610712
20
-8.53169603712942
30
0
41
1
10
8.50142958384646
20
-8.53075465015255
30
0
41
1
10
8.51967876123575
20
-8.53306888848795
30
0
41
1
10
8.53682128023218
20
-8.53778232603671
30
0
0
SPLINE
5
93
100
AcDbEntity
8
1
62
256
6
ByLayer
370
-1
48
1
60
0
100
AcDbSpline
70
4
71
3
72
16
73
12
40
0
40
0
40
0
40
0
40
0.0668629219468525
40
0.0668629219468525
40
0.291508058454582
40
0.291508058454582
40
0.519131180701709
40
0.519131180701709
40
0.761320679058262
40
0.761320679058262
40
1
40
1
40
1
40
1
41
1
10
10.1035349983804
20
-9.6870091038129
30
0
41
1
10
10.1006380114968
20
-9.69183049964394
30
0
41
1
10
10.0975168083321
20
-9.69652548116068
30
0
41
1
10
10.0831080906204
20
-9.71619325283297
30
0
41
1
10
10.06953933619
20
-9.72973354068651
30
0
41
1
10
10.0395918343497
20
-9.75179052894626
30
0
41
1
10
10.0228058008706
20
-9.76053113587932
30
0
41
1
10
9.98738962277119
20
-9.77282970900416
30
0
41
1
10
9.96827309820023
20
-9.77619335543261
30
0
41
1
10
9.93130410046086
20
-9.77713474240946
30
0
41
1
10
9.91305492307157
20
-9.77482050407406
30
0
41
1
10
9.89591240407515
20
-9.7701070665253
30
0
0
INSERT
5
C7
100
AcDbEntity
8
SK2
62
256
6
ByLayer
370
-1
48
1
60
0
100
AcDbBlockReference
2
DimnDraft3D11
10
0
20
0
30
0
41
1
42
1
43
1
50
0
210
0
220
0
230
1
0
LINE
5
4C
100
AcDbEntity
8
81
62
256
6
ByLayer
370
-1
48
1
60
0
100
AcDbLine
10
14.375878
20
-12.4125
30
0
11
24.375878
21
-12.4125
31
0
39
0
210
0
220
0
230
1
0
LINE
5
4D
100
AcDbEntity
8
80
62
256
6
ByLayer
370
-1
48
1
60
0
100
AcDbLine
10
0
20
0
30
0
11
-5
21
0
31
0
39
0
210
0
220
0
230
1
0
LINE
5
4E
100
AcDbEntity
8
1
62
256
6
ByLayer
370
-1
48
1
60
0
100
AcDbLine
10
10.751645
20
-3.659949
30
0
11
10.580212
21
-3.556942
31
0
39
0
210
0
220
0
230
1
0
LINE
5
50
100
AcDbEntity
8
1
62
256
6
ByLayer
370
-1
48
1
60
0
100
AcDbLine
10
5.000389
20
7.937037
30
0
11
12.941592
21
-1.500903
31
0
39
0
210
0
220
0
230
1
0
LINE
5
51
100
AcDbEntity
8
1
62
256
6
ByLayer
370
-1
48
1
60
0
100
AcDbLine
10
4.058001
20
-11.574287
30
0
11
2.332429
21
-11.544167
31
0
39
0
210
0
220
0
230
1
0
LINE
5
52
100
AcDbEntity
8
1
62
256
6
ByLayer
370
-1
48
1
60
0
100
AcDbLine
10
1
20
-7.9375
30
0
11
0
21
-7.9375
31
0
39
0
210
0
220
0
230
1
0
LINE
5
53
100
AcDbEntity
8
1
62
256
6
ByLayer
370
-1
48
1
60
0
100
AcDbLine
10
13.105907
20
-9.621898
30
0
11
13.509961
21
-9.628951
31
0
39
0
210
0
220
0
230
1
0
LINE
5
54
100
AcDbEntity
8
1
62
256
6
ByLayer
370
-1
48
1
60
0
100
AcDbLine
10
1
20
-7.9375
30
0
11
1.5
21
-8.4375
31
0
39
0
210
0
220
0
230
1
0
LINE
5
55
100
AcDbEntity
8
1
62
256
6
ByLayer
370
-1
48
1
60
0
100
AcDbLine
10
11.179307
20
-5.375206
30
0
11
10.957008
21
-5.745174
31
0
39
0
210
0
220
0
230
1
0
LINE
5
56
100
AcDbEntity
8
1
62
256
6
ByLayer
370
-1
48
1
60
0
100
AcDbLine
10
2.332429
20
-11.544167
30
0
11
1.5
21
-8.4375
31
0
39
0
210
0
220
0
230
1
0
LINE
5
57
100
AcDbEntity
8
1
62
256
6
ByLayer
370
-1
48
1
60
0
100
AcDbLine
10
0
20
7.937037
30
0
11
5.000389
21
7.937037
31
0
39
0
210
0
220
0
230
1
0
LINE
5
58
100
AcDbEntity
8
1
62
256
6
ByLayer
370
-1
48
1
60
0
100
AcDbLine
10
0
20
7.937037
30
0
11
0
21
-7.9375
31
0
39
0
210
0
220
0
230
1
0
LINE
5
59
100
AcDbEntity
8
1
62
256
6
ByLayer
370
-1
48
1
60
0
100
AcDbLine
10
13.509961
20
-9.628951
30
0
11
13.567727
21
-10.45505
31
0
39
0
210
0
220
0
230
1
0
LINE
5
5A
100
AcDbEntity
8
1
62
256
6
ByLayer
370
-1
48
1
60
0
100
AcDbLine
10
12.941592
20
-1.500903
30
0
11
13.509961
21
-9.628951
31
0
39
0
210
0
220
0
230
1
0
LINE
5
5B
100
AcDbEntity
8
SK1
62
256
6
ByLayer
370
-1
48
1
60
0
100
AcDbLine
10
-0.106
20
-7.9375
30
0
11
-86.974122
21
-7.9375
31
0
39
0
210
0
220
0
230
1
0
LINE
5
5D
100
AcDbEntity
8
SK1
62
256
6
ByLayer
370
-1
48
1
60
0
100
AcDbLine
10
-86.974122
20
-7.9375
30
0
11
-86.974122
21
7.9375
31
0
39
0
210
0
220
0
230
1
0
LINE
5
5E
100
AcDbEntity
8
SK1
62
256
6
ByLayer
370
-1
48
1
60
0
100
AcDbLine
10
-0.106
20
7.9375
30
0
11
0
21
7.937037
31
0
39
0
210
0
220
0
230
1
0
LINE
5
5F
100
AcDbEntity
8
SK1
62
256
6
ByLayer
370
-1
48
1
60
0
100
AcDbLine
10
0
20
-7.9375
30
0
11
0
21
7.937037
31
0
39
0
210
0
220
0
230
1
0
LINE
5
60
100
AcDbEntity
8
SK1
62
256
6
ByLayer
370
-1
48
1
60
0
100
AcDbLine
10
-0.106
20
-7.9375
30
0
11
-0.106
21
7.9375
31
0
39
0
210
0
220
0
230
1
0
LINE
5
61
100
AcDbEntity
8
1
62
256
6
ByLayer
370
-1
48
1
60
0
100
AcDbLine
10
4.016573
20
-11.643262
30
0
11
8.973149
21
-3.394135
31
0
39
0
210
0
220
0
230
1
0
LINE
5
62
100
AcDbEntity
8
1
62
256
6
ByLayer
370
-1
48
1
60
0
100
AcDbLine
10
13.972076
20
-12.41244
30
0
11
4.349835
21
-12.244483
31
0
39
0
210
0
220
0
230
1
0
LINE
5
63
100
AcDbEntity
8
SK1
62
256
6
ByLayer
370
-1
48
1
60
0
100
AcDbLine
10
-86.974122
20
7.9375
30
0
11
-0.106
21
7.9375
31
0
39
0
210
0
220
0
230
1
0
LINE
5
64
100
AcDbEntity
8
SK1
62
256
6
ByLayer
370
-1
48
1
60
0
100
AcDbLine
10
0
20
-7.9375
30
0
11
-0.106
21
-7.9375
31
0
39
0
210
0
220
0
230
1
0
LINE
5
65
100
AcDbEntity
8
1
62
256
6
ByLayer
370
-1
48
1
60
0
100
AcDbLine
10
9.660451
20
-3.406132
30
0
11
14.326117
21
-11.823216
31
0
39
0
210
0
220
0
230
1
0
MTEXT
5
94
100
AcDbEntity
8
SK6
62
256
6
ByLayer
370
-1
48
1
60
0
100
AcDbMText
10
-51.148702
20
18.395841
30
0
210
0
220
0
230
1
1
\W00.695;\fsimplex.shx,bigfont.shx;STGCL 1616H 11-B1 
40
3.5
41
0
44
1.084337
50
0
71
7
72
5
7
DEFAULT
0
DIMENSION
5
D5
100
AcDbEntity
8
2
62
256
6
ByLayer
370
-3
48
1
60
0
100
AcDbDimension
2
DimnDraft3D2
10
-9.086171
20
-12.009956
30
0
11
-3.400942
21
-21.744943
31
0
70
34
71
5
72
1
41
1
210
0
220
0
230
1
3
Standard
100
AcDb2LineAngularDimension
13
14.375878
23
-14.4125
33
0
14
14.375878
24
-35.88511
34
0
15
10.972533
25
-12.360082
35
0
16
2.27514
26
-24.31085
36
0
40
0
0
DIMENSION
5
EA
100
AcDbEntity
8
2
62
256
6
ByLayer
370
-3
48
1
60
0
100
AcDbDimension
2
DimnDraft3D3
10
41.625878
20
-12.4125
30
0
11
41.625878
21
-4.866447
31
0
70
32
71
5
72
1
41
1
210
0
220
0
230
1
3
Standard
100
AcDbAlignedDimension
13
2
23
7.9375
33
0
14
16.375878
24
-12.4125
34
0
50
90
100
AcDbRotatedDimension
1001
ACAD
1000
DSTYLE
1002
{
1070
    74
1070
     0
1070
   279
1070
     0
1070
   172
1070
     1
1070
   173
1070
     1
1070
   340
1005
95
1070
    77
1070
     1
1070
    73
1070
     0
1070
   171
1070
     3
1070
   274
1070
     4
1070
   177
1070
     2
1070
   176
1070
     2
1070
   178
1070
     7
1070
    78
1070
     8
1070
    41
1041
3.175
1070
   147
1041
2.25
1070
    42
1041
2.0
1070
    44
1041
2.0
1070
   140
1041
4.5
1070
   343
1005
D6
1070
   344
1005
D6
1002
}
0
DIMENSION
5
F8
100
AcDbEntity
8
SK2
62
256
6
ByLayer
370
-3
48
1
60
0
100
AcDbDimension
2
DimnDraft3D4
10
-96.724122
20
-7.9375
30
0
11
-96.724122
21
-2.066447
31
0
70
32
71
5
72
1
41
1
210
0
220
0
230
1
3
Standard
100
AcDbAlignedDimension
13
-88.974122
23
7.9375
33
0
14
-88.974122
24
-7.9375
34
0
50
90
100
AcDbRotatedDimension
1001
ACAD
1000
DSTYLE
1002
{
1070
    74
1070
     0
1070
   279
1070
     0
1070
   172
1070
     1
1070
   173
1070
     1
1070
   340
1005
95
1070
    77
1070
     1
1070
    73
1070
     0
1070
   171
1070
     3
1070
   274
1070
     4
1070
   177
1070
     2
1070
   176
1070
     2
1070
   178
1070
     7
1070
    78
1070
     8
1070
    41
1041
3.175
1070
   147
1041
2.25
1070
    42
1041
2.0
1070
    44
1041
2.0
1070
   140
1041
4.5
1070
   343
1005
D6
1070
   344
1005
D6
1002
}
0
ENDSEC
0
SECTION
2
OBJECTS
0
DICTIONARY
5
128
330
0
100
AcDbDictionary
280
0
281
1
3
ACAD_GROUP
350
129
3
ACAD_MLINESTYLE
350
12a
0
DICTIONARY
5
129
330
0
100
AcDbDictionary
280
0
281
1
0
DICTIONARY
5
12a
330
0
100
AcDbDictionary
280
0
281
1
3
Standard
350
18
0
MLINESTYLE
5
18
330
12a
100
AcDbMlineStyle
2
Standard
70
0
3

62
256
51
90
52
90
71
2
49
-0.5
62
256
6
ByLayer
49
0.5
62
256
6
ByLayer
0
RASTERVARIABLES
5
117
330

100
AcDbRasterVariables
90
0
70
1
71
1
72
1
0
ENDSEC
0
EOF
