0
SECTION
2
HEADER
9
$ACADVER
1
AC1015
9
$DWGCODEPAGE
3
ANSI_1252
9
$HANDSEED
5
13e
9
$ANGBASE
50
0
9
$ANGDIR
70
0
9
$ATTMODE
70
1
9
$AUNITS
70
0
9
$AUPREC
70
0
9
$CECOLOR
62
256
9
$CELTSCALE
40
1
9
$CELTYPE
6
ByLayer
9
$CELWEIGHT
370
-1
9
$CLAYER
8
0
9
$CMLJUST
70
0
9
$CMLSCALE
40
1
9
$CMLSTYLE
2
Standard
9
$DIMSTYLE
2
Standard
9
$TEXTSIZE
40
0.2
9
$TEXTSTYLE
7
Standard
9
$LUNITS
70
2
9
$LUPREC
70
4
9
$EXTNAMES
290
1
9
$INSUNITS
70
4
9
$LTSCALE
40
1
9
$LWDISPLAY
290
0
9
$PDMODE
70
0
9
$PDSIZE
40
0
9
$PLINEGEN
70
0
0
ENDSEC
0
SECTION
2
CLASSES
0
CLASS
1
RASTERVARIABLES
2
AcDbRasterVariables
3
ISM
90
0
280
0
281
0
0
ENDSEC
0
SECTION
2
TABLES
0
TABLE
2
VPORT
5
134
100
AcDbSymbolTable
0
VPORT
5
1
100
AcDbSymbolTableRecord
100
AcDbViewportTableRecord
2
*Active
70
0
10
0
20
0
11
1
21
1
12
-1
22
1
13
0
23
0
14
0.5
24
0.5
15
10
25
10
16
0
26
0
36
1
17
0
27
0
37
0
0
ENDTAB
0
TABLE
2
LTYPE
5
135
100
AcDbSymbolTable
0
LTYPE
5
14
100
AcDbSymbolTableRecord
100
AcDbLinetypeTableRecord
70
0
2
ByBlock
3

72
65
73
0
40
0
0
LTYPE
5
15
100
AcDbSymbolTableRecord
100
AcDbLinetypeTableRecord
70
0
2
ByLayer
3

72
65
73
0
40
0
0
LTYPE
5
16
100
AcDbSymbolTableRecord
100
AcDbLinetypeTableRecord
70
0
2
CONTINUOUS
3
Solid line
72
65
73
0
40
0
0
LTYPE
5
3B
100
AcDbSymbolTableRecord
100
AcDbLinetypeTableRecord
70
0
2
DASHED
3
__ __ __ __ __ __ __ __ __
72
65
73
2
40
25.72
49
12.86
74
0
49
-12.86
74
0
0
LTYPE
5
3C
100
AcDbSymbolTableRecord
100
AcDbLinetypeTableRecord
70
0
2
HIDDEN
3
_ _ _ _ _ _ _ _ _ _ _ _ _ _ _
72
65
73
2
40
0.5
49
0.25
74
0
49
-0.25
74
0
0
LTYPE
5
3D
100
AcDbSymbolTableRecord
100
AcDbLinetypeTableRecord
70
0
2
PHANTOM
3
____ _ _ ____ _ _ _____ _ _ ____
72
65
73
6
40
50.5
49
18
74
0
49
-6.5
74
0
49
6.5
74
0
49
-6.5
74
0
49
6.5
74
0
49
-6.5
74
0
0
LTYPE
5
3E
100
AcDbSymbolTableRecord
100
AcDbLinetypeTableRecord
70
0
2
CENTER
3
____ _ ____ _ ____ _ ____
72
65
73
4
40
47.5
49
22
74
0
49
-8.5
74
0
49
8.5
74
0
49
-8.5
74
0
0
LTYPE
5
3F
100
AcDbSymbolTableRecord
100
AcDbLinetypeTableRecord
70
0
2
DOT
3
.........................
72
65
73
2
40
10
49
0
74
0
49
-10
74
0
0
LTYPE
5
40
100
AcDbSymbolTableRecord
100
AcDbLinetypeTableRecord
70
0
2
DASHDOT
3
_._._._._._._._._._._._._._._._.
72
65
73
4
40
70
49
31
74
0
49
-13
74
0
49
13
74
0
49
-13
74
0
0
ENDTAB
0
TABLE
2
LAYER
5
136
100
AcDbSymbolTable
0
LAYER
5
10
100
AcDbSymbolTableRecord
100
AcDbLayerTableRecord
2
0
70
0
62
7
6
CONTINUOUS
290
1
370
-3
390
0
0
LAYER
5
42
100
AcDbSymbolTableRecord
100
AcDbLayerTableRecord
2
2
70
0
62
7
6
CONTINUOUS
290
1
370
-3
390
0
0
LAYER
5
46
100
AcDbSymbolTableRecord
100
AcDbLayerTableRecord
2
80
70
0
62
-6
6
CONTINUOUS
290
1
370
-3
390
0
0
LAYER
5
4B
100
AcDbSymbolTableRecord
100
AcDbLayerTableRecord
2
81
70
0
62
-3
6
CONTINUOUS
290
1
370
-3
390
0
0
LAYER
5
4F
100
AcDbSymbolTableRecord
100
AcDbLayerTableRecord
2
1
70
0
62
4
6
CONTINUOUS
290
1
370
-3
390
0
0
LAYER
5
121
100
AcDbSymbolTableRecord
100
AcDbLayerTableRecord
2
SK2
70
0
62
7
6
CONTINUOUS
290
1
370
-3
390
0
0
LAYER
5
122
100
AcDbSymbolTableRecord
100
AcDbLayerTableRecord
2
SK1
70
0
62
4
6
CONTINUOUS
290
1
370
-3
390
0
0
LAYER
5
123
100
AcDbSymbolTableRecord
100
AcDbLayerTableRecord
2
SK6
70
0
62
5
6
CONTINUOUS
290
1
370
-3
390
0
0
ENDTAB
0
TABLE
2
STYLE
5
137
100
AcDbSymbolTable
0
STYLE
5
11
100
AcDbSymbolTableRecord
100
AcDbTextStyleTableRecord
2
Standard
3
txt
70
0
71
0
40
0
41
1
42
0
50
0
0
STYLE
5
9F
100
AcDbSymbolTableRecord
100
AcDbTextStyleTableRecord
2
DEFAULT
3
simplex.shx
70
0
71
0
40
0
41
1
42
0
50
0
0
STYLE
5
C2
100
AcDbSymbolTableRecord
100
AcDbTextStyleTableRecord
2
DWGDirectTextStyle
3
SIMPLEX
70
0
71
0
40
0
41
1
42
0
50
0
0
ENDTAB
0
TABLE
2
DIMSTYLE
5
138
100
AcDbSymbolTable
100
AcDbDimStyleTable
0
DIMSTYLE
105
27
100
AcDbSymbolTableRecord
100
AcDbDimStyleTableRecord
2
Standard
70
0
3
<>
41
0.18
42
0.0625
44
0.18
140
0.18
147
0.09
73
0
74
0
77
1
271
2
275
0
278
52
280
0
340
11
0
ENDTAB
0
TABLE
2
VIEW
5
139
100
AcDbSymbolTable
0
ENDTAB
0
TABLE
2
UCS
5
13a
100
AcDbSymbolTable
0
ENDTAB
0
TABLE
2
APPID
5
13b
100
AcDbSymbolTable
0
APPID
5
12
100
AcDbSymbolTableRecord
100
AcDbRegAppTableRecord
2
ACAD
70
0
0
ENDTAB
0
TABLE
2
BLOCK_RECORD
5
13c
100
AcDbSymbolTable
0
BLOCK_RECORD
5
1F
100
AcDbSymbolTableRecord
100
AcDbBlockTableRecord
2
*Model_Space
340
0
70
0
0
BLOCK_RECORD
5
1B
100
AcDbSymbolTableRecord
100
AcDbBlockTableRecord
2
*Paper_Space
340
0
70
0
0
BLOCK_RECORD
5
23
100
AcDbSymbolTableRecord
100
AcDbBlockTableRecord
2
*Paper_Space0
340
0
70
0
0
BLOCK_RECORD
5
C4
100
AcDbSymbolTableRecord
100
AcDbBlockTableRecord
2
DimnDraft3D11
340
0
70
0
0
BLOCK_RECORD
5
D2
100
AcDbSymbolTableRecord
100
AcDbBlockTableRecord
2
DimnDraft3D2
340
0
70
0
0
BLOCK_RECORD
5
DF
100
AcDbSymbolTableRecord
100
AcDbBlockTableRecord
2
_CLOSED
340
0
70
0
0
BLOCK_RECORD
5
E6
100
AcDbSymbolTableRecord
100
AcDbBlockTableRecord
2
DimnDraft3D3
340
0
70
0
0
BLOCK_RECORD
5
F4
100
AcDbSymbolTableRecord
100
AcDbBlockTableRecord
2
DimnDraft3D4
340
0
70
0
0
ENDTAB
0
ENDSEC
0
SECTION
2
BLOCKS
0
BLOCK
5
20
100
AcDbEntity
8
0
100
AcDbBlockBegin
2
*Model_Space
70
0
10
0
20
0
30
0
3
*Model_Space
0
ENDBLK
5
21
100
AcDbEntity
8
0
100
AcDbBlockEnd
0
BLOCK
5
1C
100
AcDbEntity
8
0
100
AcDbBlockBegin
2
*Paper_Space
70
0
10
0
20
0
30
0
3
*Paper_Space
0
ENDBLK
5
1D
100
AcDbEntity
8
0
100
AcDbBlockEnd
0
BLOCK
5
24
100
AcDbEntity
8
0
100
AcDbBlockBegin
2
*Paper_Space0
70
0
10
0
20
0
30
0
3
*Paper_Space0
0
ENDBLK
5
25
100
AcDbEntity
8
0
100
AcDbBlockEnd
0
BLOCK
5
C5
100
AcDbEntity
8
0
100
AcDbBlockBegin
2
DimnDraft3D11
70
0
10
0
20
0
30
0
3
DimnDraft3D11
0
LINE
5
C7
100
AcDbEntity
8
SK2
62
256
6
ByLayer
370
-1
48
1
60
0
100
AcDbLine
10
13.832429
20
-12.4125
30
0
11
13.832429
21
-36.6625
31
0
39
0
210
0
220
0
230
1
0
LINE
5
C8
100
AcDbEntity
8
SK2
62
256
6
ByLayer
370
-1
48
1
60
0
100
AcDbLine
10
-67.517571
20
-7.9375
30
0
11
-67.517571
21
-36.6625
31
0
39
0
210
0
220
0
230
1
0
LINE
5
C9
100
AcDbEntity
8
SK2
62
256
6
ByLayer
370
-1
48
1
60
0
100
AcDbLine
10
13.832429
20
-34.6625
30
0
11
-67.517571
21
-34.6625
31
0
39
0
210
0
220
0
230
1
0
LINE
5
CA
100
AcDbEntity
8
SK2
62
256
6
ByLayer
370
-1
48
1
60
0
100
AcDbLine
10
13.832429
20
-34.6625
30
0
11
10.657431
21
-35.080497
31
0
39
0
210
0
220
0
230
1
0
LINE
5
CB
100
AcDbEntity
8
SK2
62
256
6
ByLayer
370
-1
48
1
60
0
100
AcDbLine
10
13.832429
20
-34.6625
30
0
11
10.657428
21
-34.244503
31
0
39
0
210
0
220
0
230
1
0
LINE
5
CC
100
AcDbEntity
8
SK2
62
256
6
ByLayer
370
-1
48
1
60
0
100
AcDbLine
10
10.657431
20
-35.080497
30
0
11
10.657428
21
-34.244503
31
0
39
0
210
0
220
0
230
1
0
LINE
5
CD
100
AcDbEntity
8
SK2
62
256
6
ByLayer
370
-1
48
1
60
0
100
AcDbLine
10
-67.517571
20
-34.6625
30
0
11
-64.342572
21
-34.244503
31
0
39
0
210
0
220
0
230
1
0
LINE
5
CE
100
AcDbEntity
8
SK2
62
256
6
ByLayer
370
-1
48
1
60
0
100
AcDbLine
10
-67.517571
20
-34.6625
30
0
11
-64.342569
21
-35.080497
31
0
39
0
210
0
220
0
230
1
0
LINE
5
CF
100
AcDbEntity
8
SK2
62
256
6
ByLayer
370
-1
48
1
60
0
100
AcDbLine
10
-64.342572
20
-34.244503
30
0
11
-64.342569
21
-35.080497
31
0
39
0
210
0
220
0
230
1
0
MTEXT
5
D0
100
AcDbEntity
8
SK2
62
256
6
ByLayer
370
-1
48
1
60
0
100
AcDbMText
10
-28.346518
20
-33.5375
30
0
210
0
220
0
230
1
1
\W00.656;\fsimplex.shx,bigfont.shx;80 
40
4.5
41
0
44
1.084337
50
0
71
7
72
5
7
DEFAULT
0
ENDBLK
5
C6
100
AcDbEntity
8
0
100
AcDbBlockEnd
0
BLOCK
5
DC
100
AcDbEntity
8
0
100
AcDbBlockBegin
2
DimnDraft3D2
70
0
10
0
20
0
30
0
3
DimnDraft3D2
0
MTEXT
5
D3
100
AcDbEntity
8
2
62
256
6
ByLayer
370
-1
48
1
60
0
100
AcDbMText
10
18.042194
20
0.546386
30
0
210
0
220
0
230
1
1
\W01.000;\fsimplex.shx,bigfont.shx;91%%d0' 
40
4.5
41
0
44
1.084337
50
315.5
71
7
72
5
7
DEFAULT
0
LINE
5
D4
100
AcDbEntity
8
2
62
256
6
ByLayer
370
-1
48
1
60
0
100
AcDbLine
10
15.832429
20
-10.4125
30
0
11
25.476613
21
-10.4125
31
0
39
0
210
0
220
0
230
1
0
ARC
5
D5
100
AcDbEntity
8
2
62
256
6
ByLayer
370
-1
48
1
60
0
100
AcDbCircle
39
0
10
13.839417
20
-10.4125
30
0
40
9.63719526457628
210
0
220
0
230
1
100
AcDbArc
50
310.584668
51
140.415332
0
LINE
5
D6
100
AcDbEntity
8
2
62
256
6
ByLayer
370
-1
48
1
60
0
100
AcDbLine
10
23.476613
20
-10.4125
30
0
11
23.63433
21
-13.611009
31
0
39
0
210
0
220
0
230
1
0
LINE
5
D7
100
AcDbEntity
8
2
62
256
6
ByLayer
370
-1
48
1
60
0
100
AcDbLine
10
23.476613
20
-10.4125
30
0
11
22.80112
21
-13.542846
31
0
39
0
210
0
220
0
230
1
0
LINE
5
D8
100
AcDbEntity
8
2
62
256
6
ByLayer
370
-1
48
1
60
0
100
AcDbLine
10
23.63433
20
-13.611009
30
0
11
22.80112
21
-13.542846
31
0
39
0
210
0
220
0
230
1
0
LINE
5
D9
100
AcDbEntity
8
2
62
256
6
ByLayer
370
-1
48
1
60
0
100
AcDbLine
10
13.671225
20
-0.776773
30
0
11
10.553148
21
-1.506794
31
0
39
0
210
0
220
0
230
1
0
LINE
5
DA
100
AcDbEntity
8
2
62
256
6
ByLayer
370
-1
48
1
60
0
100
AcDbLine
10
13.671225
20
-0.776773
30
0
11
10.470447
21
-0.674901
31
0
39
0
210
0
220
0
230
1
0
LINE
5
DB
100
AcDbEntity
8
2
62
256
6
ByLayer
370
-1
48
1
60
0
100
AcDbLine
10
10.553148
20
-1.506794
30
0
11
10.470447
21
-0.674901
31
0
39
0
210
0
220
0
230
1
0
ENDBLK
5
DD
100
AcDbEntity
8
0
100
AcDbBlockEnd
0
BLOCK
5
E0
100
AcDbEntity
8
0
100
AcDbBlockBegin
2
_CLOSED
70
0
10
0
20
0
30
0
3
_CLOSED
0
LINE
5
E2
100
AcDbEntity
8
0
62
256
6
ByLayer
370
-2
48
1
60
0
100
AcDbLine
10
-1
20
0.166667
30
0
11
0
21
0
31
0
39
0
210
0
220
0
230
1
0
LINE
5
E3
100
AcDbEntity
8
0
62
256
6
ByLayer
370
-2
48
1
60
0
100
AcDbLine
10
0
20
0
30
0
11
-1
21
-0.166667
31
0
39
0
210
0
220
0
230
1
0
LINE
5
E4
100
AcDbEntity
8
0
62
256
6
ByLayer
370
-2
48
1
60
0
100
AcDbLine
10
-1
20
0.166667
30
0
11
-1
21
-0.166667
31
0
39
0
210
0
220
0
230
1
0
LINE
5
E5
100
AcDbEntity
8
0
62
256
6
ByLayer
370
-2
48
1
60
0
100
AcDbLine
10
0
20
0
30
0
11
-1
21
0
31
0
39
0
210
0
220
0
230
1
0
ENDBLK
5
E1
100
AcDbEntity
8
0
100
AcDbBlockEnd
0
BLOCK
5
F1
100
AcDbEntity
8
0
100
AcDbBlockBegin
2
DimnDraft3D3
70
0
10
0
20
0
30
0
3
DimnDraft3D3
0
MTEXT
5
E7
100
AcDbEntity
8
2
62
256
6
ByLayer
370
-1
48
1
60
0
100
AcDbMText
10
39.957429
20
-3.178947
30
0
210
0
220
0
230
1
1
\W01.000;\fsimplex.shx,bigfont.shx;16 
40
4.5
41
0
44
1.084337
50
90
71
7
72
5
7
DEFAULT
0
LINE
5
E8
100
AcDbEntity
8
2
62
256
6
ByLayer
370
-1
48
1
60
0
100
AcDbLine
10
2
20
5.9375
30
0
11
43.082429
21
5.9375
31
0
39
0
210
0
220
0
230
1
0
LINE
5
E9
100
AcDbEntity
8
2
62
256
6
ByLayer
370
-1
48
1
60
0
100
AcDbLine
10
15.832429
20
-10.4125
30
0
11
43.082429
21
-10.4125
31
0
39
0
210
0
220
0
230
1
0
LINE
5
EA
100
AcDbEntity
8
2
62
256
6
ByLayer
370
-1
48
1
60
0
100
AcDbLine
10
41.082429
20
5.9375
30
0
11
41.082429
21
-10.4125
31
0
39
0
210
0
220
0
230
1
0
LINE
5
EB
100
AcDbEntity
8
2
62
256
6
ByLayer
370
-1
48
1
60
0
100
AcDbLine
10
41.082429
20
5.9375
30
0
11
41.500426
21
2.762502
31
0
39
0
210
0
220
0
230
1
0
LINE
5
EC
100
AcDbEntity
8
2
62
256
6
ByLayer
370
-1
48
1
60
0
100
AcDbLine
10
41.082429
20
5.9375
30
0
11
40.664433
21
2.762498
31
0
39
0
210
0
220
0
230
1
0
LINE
5
ED
100
AcDbEntity
8
2
62
256
6
ByLayer
370
-1
48
1
60
0
100
AcDbLine
10
41.500426
20
2.762502
30
0
11
40.664433
21
2.762498
31
0
39
0
210
0
220
0
230
1
0
LINE
5
EE
100
AcDbEntity
8
2
62
256
6
ByLayer
370
-1
48
1
60
0
100
AcDbLine
10
41.082429
20
-10.4125
30
0
11
40.664433
21
-7.237502
31
0
39
0
210
0
220
0
230
1
0
LINE
5
EF
100
AcDbEntity
8
2
62
256
6
ByLayer
370
-1
48
1
60
0
100
AcDbLine
10
41.082429
20
-10.4125
30
0
11
41.500426
21
-7.237498
31
0
39
0
210
0
220
0
230
1
0
LINE
5
F0
100
AcDbEntity
8
2
62
256
6
ByLayer
370
-1
48
1
60
0
100
AcDbLine
10
40.664433
20
-7.237502
30
0
11
41.500426
21
-7.237498
31
0
39
0
210
0
220
0
230
1
0
ENDBLK
5
F2
100
AcDbEntity
8
0
100
AcDbBlockEnd
0
BLOCK
5
FF
100
AcDbEntity
8
0
100
AcDbBlockBegin
2
DimnDraft3D4
70
0
10
0
20
0
30
0
3
DimnDraft3D4
0
MTEXT
5
F5
100
AcDbEntity
8
SK2
62
256
6
ByLayer
370
-1
48
1
60
0
100
AcDbMText
10
-78.392571
20
-0.941447
30
0
210
0
220
0
230
1
1
\W01.000;\fsimplex.shx,bigfont.shx;12 
40
4.5
41
0
44
1.084337
50
90
71
7
72
5
7
DEFAULT
0
LINE
5
F6
100
AcDbEntity
8
SK2
62
256
6
ByLayer
370
-1
48
1
60
0
100
AcDbLine
10
-69.517571
20
5.9375
30
0
11
-79.267571
21
5.9375
31
0
39
0
210
0
220
0
230
1
0
LINE
5
F7
100
AcDbEntity
8
SK2
62
256
6
ByLayer
370
-1
48
1
60
0
100
AcDbLine
10
-69.517571
20
-5.9375
30
0
11
-79.267571
21
-5.9375
31
0
39
0
210
0
220
0
230
1
0
LINE
5
F8
100
AcDbEntity
8
SK2
62
256
6
ByLayer
370
-1
48
1
60
0
100
AcDbLine
10
-77.267571
20
17.1875
30
0
11
-77.267571
21
-17.1875
31
0
39
0
210
0
220
0
230
1
0
LINE
5
F9
100
AcDbEntity
8
SK2
62
256
6
ByLayer
370
-1
48
1
60
0
100
AcDbLine
10
-77.267571
20
5.9375
30
0
11
-77.685567
21
9.112498
31
0
39
0
210
0
220
0
230
1
0
LINE
5
FA
100
AcDbEntity
8
SK2
62
256
6
ByLayer
370
-1
48
1
60
0
100
AcDbLine
10
-77.267571
20
5.9375
30
0
11
-76.849574
21
9.112502
31
0
39
0
210
0
220
0
230
1
0
LINE
5
FB
100
AcDbEntity
8
SK2
62
256
6
ByLayer
370
-1
48
1
60
0
100
AcDbLine
10
-77.685567
20
9.112498
30
0
11
-76.849574
21
9.112502
31
0
39
0
210
0
220
0
230
1
0
LINE
5
FC
100
AcDbEntity
8
SK2
62
256
6
ByLayer
370
-1
48
1
60
0
100
AcDbLine
10
-77.267571
20
-5.9375
30
0
11
-76.849574
21
-9.112498
31
0
39
0
210
0
220
0
230
1
0
LINE
5
FD
100
AcDbEntity
8
SK2
62
256
6
ByLayer
370
-1
48
1
60
0
100
AcDbLine
10
-77.267571
20
-5.9375
30
0
11
-77.685567
21
-9.112502
31
0
39
0
210
0
220
0
230
1
0
LINE
5
FE
100
AcDbEntity
8
SK2
62
256
6
ByLayer
370
-1
48
1
60
0
100
AcDbLine
10
-76.849574
20
-9.112498
30
0
11
-77.685567
21
-9.112502
31
0
39
0
210
0
220
0
230
1
0
ENDBLK
5
100
100
AcDbEntity
8
0
100
AcDbBlockEnd
0
ENDSEC
0
SECTION
2
ENTITIES
0
ARC
5
6D
100
AcDbEntity
8
1
62
256
6
ByLayer
370
-1
48
1
60
0
100
AcDbCircle
39
0
10
-4.974727
20
-5.350723
30
0
40
1.05
210
0
220
0
230
-1
100
AcDbArc
50
229.923008
51
276.513153
0
ARC
5
6E
100
AcDbEntity
8
1
62
256
6
ByLayer
370
-1
48
1
60
0
100
AcDbCircle
39
0
10
-6.131235
20
-6.111013
30
0
40
1.25
210
0
220
0
230
-1
100
AcDbArc
50
239
51
329
0
ARC
5
6F
100
AcDbEntity
8
1
62
256
6
ByLayer
370
-1
48
1
60
0
100
AcDbCircle
39
0
10
4.974727
20
-5.350723
30
0
40
1.05
210
0
220
0
230
1
100
AcDbArc
50
51.925819
51
257.44267
0
ARC
5
70
100
AcDbEntity
8
1
62
256
6
ByLayer
370
-1
48
1
60
0
100
AcDbCircle
39
0
10
-6.002475
20
-5.896721
30
0
40
1.34423045315122
210
0
220
0
230
-1
100
AcDbArc
50
329
51
339.129816
0
ARC
5
71
100
AcDbEntity
8
1
62
256
6
ByLayer
370
-1
48
1
60
0
100
AcDbCircle
39
0
10
-6.131235
20
-6.111013
30
0
40
1.34423045315122
210
0
220
0
230
-1
100
AcDbArc
50
239
51
329
0
ARC
5
72
100
AcDbEntity
8
1
62
256
6
ByLayer
370
-1
48
1
60
0
100
AcDbCircle
39
0
10
-6.002475
20
-5.896721
30
0
40
1.25
210
0
220
0
230
-1
100
AcDbArc
50
329
51
336.560543
0
ARC
5
73
100
AcDbEntity
8
1
62
256
6
ByLayer
370
-1
48
1
60
0
100
AcDbCircle
39
0
10
-10.573874
20
-5.252989
30
0
40
0.747999999999997
210
0
220
0
230
-1
100
AcDbArc
50
331.161847
51
29.024579
0
ARC
5
74
100
AcDbEntity
8
1
62
256
6
ByLayer
370
-1
48
1
60
0
100
AcDbCircle
39
0
10
10.573874
20
-5.252989
30
0
40
1.035
210
0
220
0
230
1
100
AcDbArc
50
241.049159
51
301
0
ARC
5
75
100
AcDbEntity
8
1
62
256
6
ByLayer
370
-1
48
1
60
0
100
AcDbCircle
39
0
10
10.573874
20
-5.252989
30
0
40
1.035
210
0
220
0
230
1
100
AcDbArc
50
301
51
0.950841
0
ARC
5
76
100
AcDbEntity
8
1
62
256
6
ByLayer
370
-1
48
1
60
0
100
AcDbCircle
39
0
10
10.573874
20
-5.252989
30
0
40
0.747999999999997
210
0
220
0
230
1
100
AcDbArc
50
28.838153
51
33.161847
0
ARC
5
77
100
AcDbEntity
8
1
62
256
6
ByLayer
370
-1
48
1
60
0
100
AcDbCircle
39
0
10
-10.573874
20
-5.252989
30
0
40
0.747999999999997
210
0
220
0
230
-1
100
AcDbArc
50
88.975421
51
146.838153
0
ARC
5
78
100
AcDbEntity
8
1
62
256
6
ByLayer
370
-1
48
1
60
0
100
AcDbCircle
39
0
10
13.267476
20
-0.393602
30
0
40
0.397000000000057
210
0
220
0
230
1
100
AcDbArc
50
1
51
121
0
ARC
5
79
100
AcDbEntity
8
1
62
256
6
ByLayer
370
-1
48
1
60
0
100
AcDbCircle
39
0
10
10.573874
20
-5.252989
30
0
40
1.035
210
0
220
0
230
1
100
AcDbArc
50
121
51
180.950841
0
ARC
5
7A
100
AcDbEntity
8
1
62
256
6
ByLayer
370
-1
48
1
60
0
100
AcDbCircle
39
0
10
10.573874
20
-5.252989
30
0
40
1.035
210
0
220
0
230
1
100
AcDbArc
50
61.049159
51
121
0
ARC
5
7B
100
AcDbEntity
8
1
62
256
6
ByLayer
370
-1
48
1
60
0
100
AcDbCircle
39
0
10
13.435426
20
-10.015411
30
0
40
0.397000000000061
210
0
220
0
230
1
100
AcDbArc
50
241
51
1
0
ARC
5
7D
100
AcDbEntity
8
1
62
256
6
ByLayer
370
-1
48
1
60
0
100
AcDbCircle
39
0
10
10.573874
20
-5.252989
30
0
40
0.747999999999997
210
0
220
0
230
1
100
AcDbArc
50
208.838153
51
213.161847
0
ARC
5
7E
100
AcDbEntity
8
1
62
256
6
ByLayer
370
-1
48
1
60
0
100
AcDbCircle
39
0
10
-10.573874
20
-5.252989
30
0
40
0.747999999999997
210
0
220
0
230
-1
100
AcDbArc
50
29.024579
51
88.975421
0
ARC
5
80
100
AcDbEntity
8
1
62
256
6
ByLayer
370
-1
48
1
60
0
100
AcDbCircle
39
0
10
-10.573874
20
-5.252989
30
0
40
0.747999999999997
210
0
220
0
230
-1
100
AcDbArc
50
209.024579
51
268.975421
0
ARC
5
81
100
AcDbEntity
8
1
62
256
6
ByLayer
370
-1
48
1
60
0
100
AcDbCircle
39
0
10
-10.573874
20
-5.252989
30
0
40
0.747999999999997
210
0
220
0
230
-1
100
AcDbArc
50
151.161847
51
209.024579
0
ARC
5
82
100
AcDbEntity
8
1
62
256
6
ByLayer
370
-1
48
1
60
0
100
AcDbCircle
39
0
10
5.01872
20
-5.349955
30
0
40
0.397000000000056
210
0
220
0
230
1
100
AcDbArc
50
121
51
241
0
ARC
5
83
100
AcDbEntity
8
1
62
256
6
ByLayer
370
-1
48
1
60
0
100
AcDbCircle
39
0
10
10.573874
20
-5.252989
30
0
40
1.035
210
0
220
0
230
1
100
AcDbArc
50
180.950841
51
241.049159
0
ARC
5
87
100
AcDbEntity
8
1
62
256
6
ByLayer
370
-1
48
1
60
0
100
AcDbCircle
39
0
10
10.573874
20
-5.252989
30
0
40
1.035
210
0
220
0
230
1
100
AcDbArc
50
0.950841
51
61.049159
0
ARC
5
88
100
AcDbEntity
8
1
62
256
6
ByLayer
370
-1
48
1
60
0
100
AcDbCircle
39
0
10
-10.573874
20
-5.252989
30
0
40
0.747999999999997
210
0
220
0
230
-1
100
AcDbArc
50
268.975421
51
326.838153
0
CIRCLE
5
7C
100
AcDbEntity
8
1
62
256
6
ByLayer
370
-1
48
1
60
0
100
AcDbCircle
10
10.573874
20
-5.252989
30
0
40
1.92255023212159
39
0
210
0
220
0
230
1
0
CIRCLE
5
7F
100
AcDbEntity
8
1
62
256
6
ByLayer
370
-1
48
1
60
0
100
AcDbCircle
10
10.573874
20
-5.252989
30
0
40
1.88079929551149
39
0
210
0
220
0
230
1
0
CIRCLE
5
84
100
AcDbEntity
8
1
62
256
6
ByLayer
370
-1
48
1
60
0
100
AcDbCircle
10
10.573874
20
-5.252989
30
0
40
1.725
39
0
210
0
220
0
230
1
0
CIRCLE
5
85
100
AcDbEntity
8
1
62
256
6
ByLayer
370
-1
48
1
60
0
100
AcDbCircle
10
-10.573874
20
-5.252989
30
0
40
1.82993757181566
39
0
210
0
220
0
230
-1
0
CIRCLE
5
86
100
AcDbEntity
8
1
62
256
6
ByLayer
370
-1
48
1
60
0
100
AcDbCircle
10
10.573874
20
-5.252989
30
0
40
1.29999999999999
39
0
210
0
220
0
230
1
0
POINT
5
41
100
AcDbEntity
8
2
62
256
6
ByLayer
370
-1
48
1
60
0
100
AcDbPoint
10
13.832429
20
22.2875
30
0
39
0
210
0
220
0
230
1
50
360
0
POINT
5
43
100
AcDbEntity
8
SK2
62
256
6
ByLayer
370
-1
48
1
60
0
100
AcDbPoint
10
13.832429
20
22.2875
30
0
39
0
210
0
220
0
230
1
50
360
0
POINT
5
45
100
AcDbEntity
8
80
62
256
6
ByLayer
370
-1
48
1
60
0
100
AcDbPoint
10
0
20
0
30
0
39
0
210
0
220
0
230
1
50
360
0
POINT
5
47
100
AcDbEntity
8
SK2
62
256
6
ByLayer
370
-1
48
1
60
0
100
AcDbPoint
10
13.832429
20
22.2875
30
0
39
0
210
0
220
0
230
1
50
360
0
POINT
5
48
100
AcDbEntity
8
SK2
62
256
6
ByLayer
370
-1
48
1
60
0
100
AcDbPoint
10
13.832429
20
22.2875
30
0
39
0
210
0
220
0
230
1
50
360
0
POINT
5
49
100
AcDbEntity
8
SK2
62
256
6
ByLayer
370
-1
48
1
60
0
100
AcDbPoint
10
13.832429
20
22.2875
30
0
39
0
210
0
220
0
230
1
50
360
0
POINT
5
4A
100
AcDbEntity
8
81
62
256
6
ByLayer
370
-1
48
1
60
0
100
AcDbPoint
10
13.832429
20
-10.4125
30
0
39
0
210
0
220
0
230
1
50
360
0
SPLINE
5
89
100
AcDbEntity
8
1
62
256
6
ByLayer
370
-1
48
1
60
0
100
AcDbSpline
70
4
71
3
72
8
73
4
40
0
40
0
40
0
40
0
40
1
40
1
40
1
40
1
41
1
10
4.85562414188763
20
-6.3939457952975
30
0
41
1
10
4.81959553778663
20
-6.38983247578003
30
0
41
1
10
4.78316295804791
20
-6.38378544506378
30
0
41
1
10
4.74643980286441
20
-6.3756055578211
30
0
0
SPLINE
5
8A
100
AcDbEntity
8
1
62
256
6
ByLayer
370
-1
48
1
60
0
100
AcDbSpline
70
4
71
3
72
12
73
8
40
0
40
0
40
0
40
0
40
0.377026887851545
40
0.377026887851545
40
0.761057577302728
40
0.761057577302728
40
1
40
1
40
1
40
1
41
1
10
11.2000464044997
20
-4.84382876645023
30
0
41
1
10
11.1820044742328
20
-4.80867189145471
30
0
41
1
10
11.1690087887423
20
-4.77073301420273
30
0
41
1
10
11.1540127413912
20
-4.69530965879426
30
0
41
1
10
11.1519232070203
20
-4.65684729457448
30
0
41
1
10
11.1563435607484
20
-4.59701910034397
30
0
41
1
10
11.1599237399074
20
-4.57438661070219
30
0
41
1
10
11.1651947940513
20
-4.55247113003338
30
0
0
SPLINE
5
8B
100
AcDbEntity
8
1
62
256
6
ByLayer
370
-1
48
1
60
0
100
AcDbSpline
70
4
71
3
72
16
73
12
40
0
40
0
40
0
40
0
40
0.06522930740522
40
0.06522930740522
40
0.289887071400735
40
0.289887071400735
40
0.517431161145191
40
0.517431161145191
40
0.759466476191096
40
0.759466476191096
40
1
40
1
40
1
40
1
41
1
10
11.6087315842187
20
-5.23581382505074
30
0
41
1
10
11.6088226641768
20
-5.24130161533651
30
0
41
1
10
11.6086689383775
20
-5.24680008803819
30
0
41
1
10
11.606914490307
20
-5.27098450397517
30
0
41
1
10
11.6026066976834
20
-5.28966802213913
30
0
41
1
10
11.5889414942924
20
-5.32426355257076
30
0
41
1
10
11.5793597709919
20
-5.34058290865894
30
0
41
1
10
11.5558847969381
20
-5.3698057189003
30
0
41
1
10
11.5414773944218
20
-5.38280419311917
30
0
41
1
10
11.5105388864674
20
-5.40331206418122
30
0
41
1
10
11.4937055775631
20
-5.41108441138681
30
0
41
1
10
11.4765380378545
20
-5.41619475356765
30
0
0
SPLINE
5
8C
100
AcDbEntity
8
1
62
256
6
ByLayer
370
-1
48
1
60
0
100
AcDbSpline
70
4
71
3
72
14
73
10
40
0
40
0
40
0
40
0
40
0.284519992000836
40
0.284519992000836
40
0.571733712094411
40
0.571733712094411
40
0.831996820384351
40
0.831996820384351
40
1
40
1
40
1
40
1
41
1
10
9.95771173248505
20
-4.57344362355235
30
0
41
1
10
9.95210133073846
20
-4.55303889398411
30
0
41
1
10
9.94990276602107
20
-4.5309998786737
30
0
41
1
10
9.95356779022919
20
-4.48695897132291
30
0
41
1
10
9.95960373133437
20
-4.4642821888423
30
0
41
1
10
9.97893815329519
20
-4.42454954484666
30
0
41
1
10
9.99182668860936
20
-4.40658385015013
30
0
41
1
10
10.0174101620245
20
-4.38179311982265
30
0
41
1
10
10.0287342728531
20
-4.37307667499201
30
0
41
1
10
10.0408096951975
20
-4.36582102924717
30
0
0
SPLINE
5
8D
100
AcDbEntity
8
1
62
256
6
ByLayer
370
-1
48
1
60
0
100
AcDbSpline
70
4
71
3
72
12
73
8
40
0
40
0
40
0
40
0
40
0.464587229624984
40
0.464587229624984
40
0.846563774040328
40
0.846563774040328
40
1
40
1
40
1
40
1
41
1
10
11.4700030825973
20
-5.05975731071092
30
0
41
1
10
11.4279549945844
20
-5.04890153659963
30
0
41
1
10
11.3861774697724
20
-5.03108441382389
30
0
41
1
10
11.315822896002
20
-4.9859371928946
30
0
41
1
10
11.2854790217969
20
-4.96026897263269
30
0
41
1
10
11.2485212191777
20
-4.91842467176033
30
0
41
1
10
11.2384271915792
20
-4.90558782583108
30
0
41
1
10
11.2291113988848
20
-4.89220104025992
30
0
0
SPLINE
5
8E
100
AcDbEntity
8
1
62
256
6
ByLayer
370
-1
48
1
60
0
100
AcDbSpline
70
4
71
3
72
18
73
14
40
0
40
0
40
0
40
0
40
0.21339335150092
40
0.21339335150092
40
0.389003400511537
40
0.389003400511537
40
0.566251726303668
40
0.566251726303668
40
0.7211748070365
40
0.7211748070365
40
0.927415550665654
40
0.927415550665654
40
1
40
1
40
1
40
1
41
1
10
11.1900364729737
20
-5.93253474739538
30
0
41
1
10
11.1785412633645
20
-5.89072728796552
30
0
41
1
10
11.1731978674628
20
-5.8456933093548
30
0
41
1
10
11.1772931994633
20
-5.76229002556357
30
0
41
1
10
11.1844274067445
20
-5.7232159601611
30
0
41
1
10
11.2098838059252
20
-5.64783666069752
30
0
41
1
10
11.2287894533886
20
-5.61048946106484
30
0
41
1
10
11.2723162620108
20
-5.54870593917639
30
0
41
1
10
11.296391124039
20
-5.52246795929736
30
0
41
1
10
11.3565169175523
20
-5.47090892674808
30
0
41
1
10
11.3948401589982
20
-5.44775885337441
30
0
41
1
10
11.4480648688504
20
-5.42549616301889
30
0
41
1
10
11.4622465037541
20
-5.42044898165048
30
0
41
1
10
11.4765380378545
20
-5.41619475356762
30
0
0
SPLINE
5
8F
100
AcDbEntity
8
1
62
256
6
ByLayer
370
-1
48
1
60
0
100
AcDbSpline
70
4
71
3
72
14
73
10
40
0
40
0
40
0
40
0
40
0.284519992000788
40
0.284519992000788
40
0.571733712094345
40
0.571733712094345
40
0.831996820384291
40
0.831996820384291
40
1
40
1
40
1
40
1
41
1
10
11.1900364729737
20
-5.93253474739538
30
0
41
1
10
11.1956468747203
20
-5.95293947696362
30
0
41
1
10
11.1978454394377
20
-5.97497849227403
30
0
41
1
10
11.1941804152296
20
-6.01901939962482
30
0
41
1
10
11.1881444741244
20
-6.04169618210543
30
0
41
1
10
11.1688100521636
20
-6.08142882610107
30
0
41
1
10
11.1559215168494
20
-6.09939452079757
30
0
41
1
10
11.1303380434342
20
-6.12418525112508
30
0
41
1
10
11.1190139326056
20
-6.13290169595572
30
0
41
1
10
11.1069385102613
20
-6.14015734170056
30
0
0
SPLINE
5
90
100
AcDbEntity
8
1
62
256
6
ByLayer
370
-1
48
1
60
0
100
AcDbSpline
70
4
71
3
72
18
73
14
40
0
40
0
40
0
40
0
40
0.213304222387448
40
0.213304222387448
40
0.388929590748907
40
0.388929590748907
40
0.566194280466888
40
0.566194280466888
40
0.721120102126015
40
0.721120102126015
40
0.927344761534563
40
0.927344761534563
40
1
40
1
40
1
40
1
41
1
10
10.2942010179253
20
-6.12661450726145
30
0
41
1
10
10.3246205256848
20
-6.09574242355512
30
0
41
1
10
10.3609081124031
20
-6.06857675667302
30
0
41
1
10
10.4351309759912
20
-6.0303561287879
30
0
41
1
10
10.4725262781733
20
-6.01695968743516
30
0
41
1
10
10.5505252624752
20
-6.00123847591496
30
0
41
1
10
10.5923233358976
20
-5.99889693963064
30
0
41
1
10
10.6676041587982
20
-6.00562922575145
30
0
41
1
10
10.7023729526118
20
-6.01332694829341
30
0
41
1
10
10.777110706642
20
-6.03954682446175
30
0
41
1
10
10.8163392609453
20
-6.06112204394969
30
0
41
1
10
10.8622752184336
20
-6.0960479911374
30
0
41
1
10
10.8737571589828
20
-6.10580521895506
30
0
41
1
10
10.8846065099775
20
-6.11605558403085
30
0
0
SPLINE
5
91
100
AcDbEntity
8
1
62
256
6
ByLayer
370
-1
48
1
60
0
100
AcDbSpline
70
4
71
3
72
16
73
12
40
0
40
0
40
0
40
0
40
0.067055515334821
40
0.067055515334821
40
0.29169677027648
40
0.29169677027648
40
0.519326817999941
40
0.519326817999941
40
0.761531969872449
40
0.761531969872449
40
1
40
1
40
1
40
1
41
1
10
10.0408096951975
20
-4.36582102924717
30
0
41
1
10
10.0456449095135
20
-4.36291573938013
30
0
41
1
10
10.0506195625493
20
-4.36022856823203
30
0
41
1
10
10.0725921112621
20
-4.34962634207182
30
0
41
1
10
10.0909303101442
20
-4.34404604493966
30
0
41
1
10
10.1277285362184
20
-4.33863975942219
30
0
41
1
10
10.1466532703543
20
-4.33880767531514
30
0
41
1
10
10.1836970574603
20
-4.34458517474238
30
0
41
1
10
10.2021541544817
20
-4.35059496331223
30
0
41
1
10
10.2352188526747
20
-4.36712123204825
30
0
41
1
10
10.2502300463885
20
-4.37772398193795
30
0
41
1
10
10.2631416954813
20
-4.38992278691691
30
0
0
SPLINE
5
92
100
AcDbEntity
8
1
62
256
6
ByLayer
370
-1
48
1
60
0
100
AcDbSpline
70
4
71
3
72
14
73
10
40
0
40
0
40
0
40
0
40
0.284029784591409
40
0.284029784591409
40
0.570744394825781
40
0.570744394825781
40
0.830520249562066
40
0.830520249562066
40
1
40
1
40
1
40
1
41
1
10
9.6777451228615
20
-5.44622106023681
30
0
41
1
10
9.65723848473792
20
-5.44092675455559
30
0
41
1
10
9.63701485233702
20
-5.43185431383768
30
0
41
1
10
9.60062101410364
20
-5.40672665192423
30
0
41
1
10
9.58395073421974
20
-5.3901854160556
30
0
41
1
10
9.55911435841878
20
-5.35359889007205
30
0
41
1
10
9.54995314472706
20
-5.33345650991427
30
0
41
1
10
9.54116932813466
20
-5.29874718512514
30
0
41
1
10
9.5392531130106
20
-5.284413753596
30
0
41
1
10
9.53901662124014
20
-5.27016454589699
30
0
0
SPLINE
5
93
100
AcDbEntity
8
1
62
256
6
ByLayer
370
-1
48
1
60
0
100
AcDbSpline
70
4
71
3
72
16
73
12
40
0
40
0
40
0
40
0
40
0.0670555153347839
40
0.0670555153347839
40
0.291696770276438
40
0.291696770276438
40
0.519326818000009
40
0.519326818000009
40
0.761531969872574
40
0.761531969872574
40
1
40
1
40
1
40
1
41
1
10
11.1069385102613
20
-6.14015734170056
30
0
41
1
10
11.1021032959453
20
-6.1430626315676
30
0
41
1
10
11.0971286429094
20
-6.1457498027157
30
0
41
1
10
11.0751560941967
20
-6.15635202887592
30
0
41
1
10
11.0568178953145
20
-6.16193232600804
30
0
41
1
10
11.0200196692404
20
-6.16733861152554
30
0
41
1
10
11.0010949351044
20
-6.16717069563259
30
0
41
1
10
10.9640511479985
20
-6.16139319620535
30
0
41
1
10
10.9455940509771
20
-6.1553834076355
30
0
41
1
10
10.9125293527841
20
-6.13885713889948
30
0
41
1
10
10.8975181590703
20
-6.12825438900981
30
0
41
1
10
10.8846065099775
20
-6.11605558403085
30
0
0
SPLINE
5
94
100
AcDbEntity
8
1
62
256
6
ByLayer
370
-1
48
1
60
0
100
AcDbSpline
70
4
71
3
72
14
73
10
40
0
40
0
40
0
40
0
40
0.284214113375455
40
0.284214113375455
40
0.571466113317927
40
0.571466113317927
40
0.831759619916339
40
0.831759619916339
40
1
40
1
40
1
40
1
41
1
10
10.8535471875335
20
-4.37936386368628
30
0
41
1
10
10.868384153294
20
-4.36430615622672
30
0
41
1
10
10.8863370596887
20
-4.35137893178992
30
0
41
1
10
10.9262660781111
20
-4.33249238965729
30
0
41
1
10
10.9489172724107
20
-4.32635280690337
30
0
41
1
10
10.9929941333676
20
-4.32317687526688
30
0
41
1
10
11.0150018262226
20
-4.3253296237805
30
0
41
1
10
11.0492953395054
20
-4.33505568525518
30
0
41
1
10
11.0625307282997
20
-4.34049879038991
30
0
41
1
10
11.0748752049669
20
-4.34732760654012
30
0
0
SPLINE
5
95
100
AcDbEntity
8
1
62
256
6
ByLayer
370
-1
48
1
60
0
100
AcDbSpline
70
4
71
3
72
18
73
14
40
0
40
0
40
0
40
0
40
0.213393351500922
40
0.213393351500922
40
0.389003400511544
40
0.389003400511544
40
0.566251726303681
40
0.566251726303681
40
0.721174807036517
40
0.721174807036517
40
0.927415550665675
40
0.927415550665675
40
1
40
1
40
1
40
1
41
1
10
9.95771173248508
20
-4.57344362355235
30
0
41
1
10
9.96920694209433
20
-4.61525108298221
30
0
41
1
10
9.97455033799594
20
-4.66028506159293
30
0
41
1
10
9.97045500599546
20
-4.74368834538416
30
0
41
1
10
9.96332079871428
20
-4.78276241078663
30
0
41
1
10
9.93786439953357
20
-4.85814171025021
30
0
41
1
10
9.91895875207013
20
-4.89548890988289
30
0
41
1
10
9.87543194344804
20
-4.95727243177134
30
0
41
1
10
9.85135708141976
20
-4.98351041165037
30
0
41
1
10
9.79123128790647
20
-5.03506944419965
30
0
41
1
10
9.75290804646053
20
-5.05821951757332
30
0
41
1
10
9.69968333660836
20
-5.08048220792884
30
0
41
1
10
9.68550170170471
20
-5.08552938929725
30
0
41
1
10
9.67121016760433
20
-5.08978361738008
30
0
0
SPLINE
5
96
100
AcDbEntity
8
1
62
256
6
ByLayer
370
-1
48
1
60
0
100
AcDbSpline
70
4
71
3
72
14
73
10
40
0
40
0
40
0
40
0
40
0.284214113375236
40
0.284214113375236
40
0.571466113317721
40
0.571466113317721
40
0.831759619916126
40
0.831759619916126
40
1
40
1
40
1
40
1
41
1
10
10.2942010179253
20
-6.12661450726148
30
0
41
1
10
10.2793640521648
20
-6.14167221472101
30
0
41
1
10
10.2614111457701
20
-6.15459943915781
30
0
41
1
10
10.2214821273477
20
-6.17348598129044
30
0
41
1
10
10.1988309330481
20
-6.17962556404436
30
0
41
1
10
10.1547540720912
20
-6.18280149568085
30
0
41
1
10
10.1327463792362
20
-6.18064874716725
30
0
41
1
10
10.0984528659534
20
-6.17092268569255
30
0
41
1
10
10.0852174771591
20
-6.16547958055781
30
0
41
1
10
10.0728730004918
20
-6.15865076440761
30
0
0
SPLINE
5
97
100
AcDbEntity
8
1
62
256
6
ByLayer
370
-1
48
1
60
0
100
AcDbSpline
70
4
71
3
72
12
73
8
40
0
40
0
40
0
40
0
40
0.377026888024743
40
0.377026888024743
40
0.761057577504049
40
0.761057577504049
40
1
40
1
40
1
40
1
41
1
10
9.9477018009591
20
-5.66214960449761
30
0
41
1
10
9.96574373123423
20
-5.69730647950922
30
0
41
1
10
9.9787394167283
20
-5.73524535677996
30
0
41
1
10
9.99373546407352
20
-5.8106687122083
30
0
41
1
10
9.99582499843945
20
-5.84913107643001
30
0
41
1
10
9.99140464470446
20
-5.90895927064179
30
0
41
1
10
9.98782446554696
20
-5.9315917602639
30
0
41
1
10
9.98255341140754
20
-5.95350724091435
30
0
0
SPLINE
5
98
100
AcDbEntity
8
1
62
256
6
ByLayer
370
-1
48
1
60
0
100
AcDbSpline
70
4
71
3
72
16
73
12
40
0
40
0
40
0
40
0
40
0.0666413718052217
40
0.0666413718052217
40
0.29063621333287
40
0.29063621333287
40
0.517598850793361
40
0.517598850793361
40
0.759084400335694
40
0.759084400335694
40
1
40
1
40
1
40
1
41
1
10
11.0748752049669
20
-4.34732760654012
30
0
41
1
10
11.0797950605868
20
-4.35004921154769
30
0
41
1
10
11.0845966960434
20
-4.35299921780981
30
0
41
1
10
11.1047657341528
20
-4.36669341630028
30
0
41
1
10
11.118783091169
20
-4.37976886176281
30
0
41
1
10
11.1418979076202
20
-4.40890771325624
30
0
41
1
10
11.1512337446443
20
-4.42537011306496
30
0
41
1
10
11.1647920809835
20
-4.4603232708628
30
0
41
1
10
11.1688378253516
20
-4.47930704716711
30
0
41
1
10
11.1711155086121
20
-4.51643991330417
30
0
41
1
10
11.1694010844679
20
-4.53498262132192
30
0
41
1
10
11.1651947940513
20
-4.55247113003338
30
0
0
SPLINE
5
99
100
AcDbEntity
8
1
62
256
6
ByLayer
370
-1
48
1
60
0
100
AcDbSpline
70
4
71
3
72
16
73
12
40
0
40
0
40
0
40
0
40
0.0652293074050093
40
0.0652293074050093
40
0.289887071400525
40
0.289887071400525
40
0.517431161144966
40
0.517431161144966
40
0.759466476190821
40
0.759466476190821
40
1
40
1
40
1
40
1
41
1
10
9.53901662124014
20
-5.27016454589699
30
0
41
1
10
9.538925541282
20
-5.26467675561125
30
0
41
1
10
9.53907926708126
20
-5.25917828290957
30
0
41
1
10
9.54083371515179
20
-5.23499386697262
30
0
41
1
10
9.54514150777538
20
-5.21631034880866
30
0
41
1
10
9.5588067111664
20
-5.18171481837703
30
0
41
1
10
9.56838843446681
20
-5.16539546228884
30
0
41
1
10
9.59186340852068
20
-5.13617265204749
30
0
41
1
10
9.60627081103695
20
-5.12317417782859
30
0
41
1
10
9.63720931899132
20
-5.10266630676651
30
0
41
1
10
9.65404262789565
20
-5.09489395956092
30
0
41
1
10
9.67121016760433
20
-5.08978361738008
30
0
0
SPLINE
5
9A
100
AcDbEntity
8
1
62
256
6
ByLayer
370
-1
48
1
60
0
100
AcDbSpline
70
4
71
3
72
18
73
14
40
0
40
0
40
0
40
0
40
0.213304222387449
40
0.213304222387449
40
0.388929590748922
40
0.388929590748922
40
0.566194280466936
40
0.566194280466936
40
0.721120102126054
40
0.721120102126054
40
0.927344761534622
40
0.927344761534622
40
1
40
1
40
1
40
1
41
1
10
10.8535471875335
20
-4.37936386368628
30
0
41
1
10
10.823127679774
20
-4.41023594739261
30
0
41
1
10
10.7868400930557
20
-4.43740161427471
30
0
41
1
10
10.7126172294675
20
-4.47562224215983
30
0
41
1
10
10.6752219272854
20
-4.48901868351257
30
0
41
1
10
10.5972229429836
20
-4.50473989503274
30
0
41
1
10
10.5554248695612
20
-4.50708143131709
30
0
41
1
10
10.4801440466605
20
-4.50034914519625
30
0
41
1
10
10.4453752528469
20
-4.49265142265432
30
0
41
1
10
10.3706374988167
20
-4.46643154648598
30
0
41
1
10
10.3314089445136
20
-4.44485632699803
30
0
41
1
10
10.2854729870251
20
-4.40993037981033
30
0
41
1
10
10.2739910464759
20
-4.40017315199268
30
0
41
1
10
10.2631416954813
20
-4.38992278691688
30
0
0
SPLINE
5
9B
100
AcDbEntity
8
1
62
256
6
ByLayer
370
-1
48
1
60
0
100
AcDbSpline
70
4
71
3
72
16
73
12
40
0
40
0
40
0
40
0
40
0.0666413718050396
40
0.0666413718050396
40
0.290636213332665
40
0.290636213332665
40
0.517598850793134
40
0.517598850793134
40
0.759084400335477
40
0.759084400335477
40
1
40
1
40
1
40
1
41
1
10
10.0728730004918
20
-6.15865076440761
30
0
41
1
10
10.067953144872
20
-6.15592915940005
30
0
41
1
10
10.0631515094154
20
-6.15297915313795
30
0
41
1
10
10.042982471306
20
-6.13928495464748
30
0
41
1
10
10.0289651142898
20
-6.12620950918495
30
0
41
1
10
10.0058502978386
20
-6.09707065769155
30
0
41
1
10
9.99651446081447
20
-6.0806082578828
30
0
41
1
10
9.98295612447532
20
-6.04565510008499
30
0
41
1
10
9.97891038010721
20
-6.02667132378065
30
0
41
1
10
9.97663269684671
20
-5.98953845764359
30
0
41
1
10
9.97834712099086
20
-5.97099574962581
30
0
41
1
10
9.98255341140751
20
-5.95350724091432
30
0
0
SPLINE
5
9C
100
AcDbEntity
8
1
62
256
6
ByLayer
370
-1
48
1
60
0
100
AcDbSpline
70
4
71
3
72
12
73
8
40
0
40
0
40
0
40
0
40
0.464587229624713
40
0.464587229624713
40
0.84656377403978
40
0.84656377403978
40
1
40
1
40
1
40
1
41
1
10
9.6777451228615
20
-5.44622106023681
30
0
41
1
10
9.7197932108744
20
-5.4570768343481
30
0
41
1
10
9.76157073568646
20
-5.47489395712384
30
0
41
1
10
9.83192530945681
20
-5.52004117805316
30
0
41
1
10
9.86226918366191
20
-5.54570939831507
30
0
41
1
10
9.89922698628101
20
-5.58755369918737
30
0
41
1
10
9.90932101387961
20
-5.6003905451166
30
0
41
1
10
9.91863680657389
20
-5.61377733068767
30
0
0
SPLINE
5
9D
100
AcDbEntity
8
1
62
256
6
ByLayer
370
-1
48
1
60
0
100
AcDbSpline
70
4
71
3
72
14
73
10
40
0
40
0
40
0
40
0
40
0.284029784591536
40
0.284029784591536
40
0.570744394825899
40
0.570744394825899
40
0.830520249562224
40
0.830520249562224
40
1
40
1
40
1
40
1
41
1
10
11.4700030825973
20
-5.05975731071092
30
0
41
1
10
11.4905097207209
20
-5.06505161639217
30
0
41
1
10
11.5107333531218
20
-5.07412405711008
30
0
41
1
10
11.5471271913552
20
-5.09925171902356
30
0
41
1
10
11.5637974712391
20
-5.11579295489216
30
0
41
1
10
11.58863384704
20
-5.15237948087571
30
0
41
1
10
11.5977950607317
20
-5.17252186103352
30
0
41
1
10
11.6065788773241
20
-5.20723118582265
30
0
41
1
10
11.6084950924482
20
-5.22156461735173
30
0
41
1
10
11.6087315842187
20
-5.23581382505074
30
0
0
INSERT
5
D1
100
AcDbEntity
8
SK2
62
256
6
ByLayer
370
-1
48
1
60
0
100
AcDbBlockReference
2
DimnDraft3D11
10
0
20
0
30
0
41
1
42
1
43
1
50
0
210
0
220
0
230
1
0
LINE
5
4C
100
AcDbEntity
8
81
62
256
6
ByLayer
370
-1
48
1
60
0
100
AcDbLine
10
13.832429
20
-10.4125
30
0
11
23.832429
21
-10.4125
31
0
39
0
210
0
220
0
230
1
0
LINE
5
4D
100
AcDbEntity
8
80
62
256
6
ByLayer
370
-1
48
1
60
0
100
AcDbLine
10
0
20
0
30
0
11
-5
21
0
31
0
39
0
210
0
220
0
230
1
0
LINE
5
4E
100
AcDbEntity
8
1
62
256
6
ByLayer
370
-1
48
1
60
0
100
AcDbLine
10
1
20
-5.9375
30
0
11
1.5
21
-6.4375
31
0
39
0
210
0
220
0
230
1
0
LINE
5
50
100
AcDbEntity
8
1
62
256
6
ByLayer
370
-1
48
1
60
0
100
AcDbLine
10
5.000866
20
5.937037
30
0
11
13.064082
21
1.632694
31
0
39
0
210
0
220
0
230
1
0
LINE
5
51
100
AcDbEntity
8
1
62
256
6
ByLayer
370
-1
48
1
60
0
100
AcDbLine
10
4.979004
20
-6.803343
30
0
11
5.059776
21
-6.75481
31
0
39
0
210
0
220
0
230
1
0
LINE
5
52
100
AcDbEntity
8
1
62
256
6
ByLayer
370
-1
48
1
60
0
100
AcDbLine
10
7.220848
20
-7.024531
30
0
11
6.823565
21
-7.263243
31
0
39
0
210
0
220
0
230
1
0
LINE
5
53
100
AcDbEntity
8
1
62
256
6
ByLayer
370
-1
48
1
60
0
100
AcDbLine
10
7.125684
20
-6.971779
30
0
11
6.775032
21
-7.182472
31
0
39
0
210
0
220
0
230
1
0
LINE
5
54
100
AcDbEntity
8
1
62
256
6
ByLayer
370
-1
48
1
60
0
100
AcDbLine
10
6.823565
20
-7.263243
30
0
11
6.775032
21
-7.182472
31
0
39
0
210
0
220
0
230
1
0
LINE
5
55
100
AcDbEntity
8
1
62
256
6
ByLayer
370
-1
48
1
60
0
100
AcDbLine
10
0
20
5.937037
30
0
11
5.000866
21
5.937037
31
0
39
0
210
0
220
0
230
1
0
LINE
5
56
100
AcDbEntity
8
1
62
256
6
ByLayer
370
-1
48
1
60
0
100
AcDbLine
10
10.550015
20
-9.615998
30
0
11
10.536865
21
-8.86263
31
0
39
0
210
0
220
0
230
1
0
LINE
5
57
100
AcDbEntity
8
1
62
256
6
ByLayer
370
-1
48
1
60
0
100
AcDbLine
10
2.164984
20
-8.919256
30
0
11
1.5
21
-6.4375
31
0
39
0
210
0
220
0
230
1
0
LINE
5
58
100
AcDbEntity
8
1
62
256
6
ByLayer
370
-1
48
1
60
0
100
AcDbLine
10
10.455634
20
-9.608156
30
0
11
10.550015
21
-9.615998
31
0
39
0
210
0
220
0
230
1
0
LINE
5
59
100
AcDbEntity
8
1
62
256
6
ByLayer
370
-1
48
1
60
0
100
AcDbLine
10
10.455634
20
-9.608156
30
0
11
10.4417
21
-8.809878
31
0
39
0
210
0
220
0
230
1
0
LINE
5
5A
100
AcDbEntity
8
1
62
256
6
ByLayer
370
-1
48
1
60
0
100
AcDbLine
10
0
20
5.937037
30
0
11
0
21
-5.9375
31
0
39
0
210
0
220
0
230
1
0
LINE
5
5B
100
AcDbEntity
8
1
62
256
6
ByLayer
370
-1
48
1
60
0
100
AcDbLine
10
4.850245
20
-6.589051
30
0
11
4.931016
21
-6.540519
31
0
39
0
210
0
220
0
230
1
0
LINE
5
5C
100
AcDbEntity
8
1
62
256
6
ByLayer
370
-1
48
1
60
0
100
AcDbLine
10
4.931016
20
-6.540519
30
0
11
5.059776
21
-6.75481
31
0
39
0
210
0
220
0
230
1
0
LINE
5
5D
100
AcDbEntity
8
1
62
256
6
ByLayer
370
-1
48
1
60
0
100
AcDbLine
10
4.850245
20
-6.589051
30
0
11
4.979004
21
-6.803343
31
0
39
0
210
0
220
0
230
1
0
LINE
5
5E
100
AcDbEntity
8
1
62
256
6
ByLayer
370
-1
48
1
60
0
100
AcDbLine
10
13.064082
20
1.632694
30
0
11
13.093224
21
-0.036884
31
0
39
0
210
0
220
0
230
1
0
LINE
5
5F
100
AcDbEntity
8
1
62
256
6
ByLayer
370
-1
48
1
60
0
100
AcDbLine
10
10.550015
20
-9.615998
30
0
11
12.133321
21
-9.747561
31
0
39
0
210
0
220
0
230
1
0
LINE
5
60
100
AcDbEntity
8
1
62
256
6
ByLayer
370
-1
48
1
60
0
100
AcDbLine
10
1
20
-5.9375
30
0
11
0
21
-5.9375
31
0
39
0
210
0
220
0
230
1
0
LINE
5
61
100
AcDbEntity
8
1
62
256
6
ByLayer
370
-1
48
1
60
0
100
AcDbLine
10
10.455634
20
-9.608156
30
0
11
2.164984
21
-8.919256
31
0
39
0
210
0
220
0
230
1
0
LINE
5
62
100
AcDbEntity
8
SK1
62
256
6
ByLayer
370
-1
48
1
60
0
100
AcDbLine
10
-0.106
20
-5.9375
30
0
11
-0.106
21
5.9375
31
0
39
0
210
0
220
0
230
1
0
LINE
5
64
100
AcDbEntity
8
SK1
62
256
6
ByLayer
370
-1
48
1
60
0
100
AcDbLine
10
0
20
-5.9375
30
0
11
0
21
5.937037
31
0
39
0
210
0
220
0
230
1
0
LINE
5
65
100
AcDbEntity
8
SK1
62
256
6
ByLayer
370
-1
48
1
60
0
100
AcDbLine
10
-0.106
20
-5.9375
30
0
11
-67.517571
21
-5.9375
31
0
39
0
210
0
220
0
230
1
0
LINE
5
66
100
AcDbEntity
8
SK1
62
256
6
ByLayer
370
-1
48
1
60
0
100
AcDbLine
10
-0.106
20
5.9375
30
0
11
0
21
5.937037
31
0
39
0
210
0
220
0
230
1
0
LINE
5
67
100
AcDbEntity
8
1
62
256
6
ByLayer
370
-1
48
1
60
0
100
AcDbLine
10
4.81425
20
-5.009659
30
0
11
13.063006
21
-0.053307
31
0
39
0
210
0
220
0
230
1
0
LINE
5
68
100
AcDbEntity
8
SK1
62
256
6
ByLayer
370
-1
48
1
60
0
100
AcDbLine
10
0
20
-5.9375
30
0
11
-0.106
21
-5.9375
31
0
39
0
210
0
220
0
230
1
0
LINE
5
69
100
AcDbEntity
8
SK1
62
256
6
ByLayer
370
-1
48
1
60
0
100
AcDbLine
10
-67.517571
20
-5.9375
30
0
11
-67.517571
21
5.9375
31
0
39
0
210
0
220
0
230
1
0
LINE
5
6A
100
AcDbEntity
8
SK1
62
256
6
ByLayer
370
-1
48
1
60
0
100
AcDbLine
10
-67.517571
20
5.9375
30
0
11
-0.106
21
5.9375
31
0
39
0
210
0
220
0
230
1
0
LINE
5
6B
100
AcDbEntity
8
1
62
256
6
ByLayer
370
-1
48
1
60
0
100
AcDbLine
10
13.664416
20
-0.386673
30
0
11
13.832365
21
-10.008482
31
0
39
0
210
0
220
0
230
1
0
LINE
5
6C
100
AcDbEntity
8
1
62
256
6
ByLayer
370
-1
48
1
60
0
100
AcDbLine
10
13.242956
20
-10.362635
30
0
11
4.826251
21
-5.697179
31
0
39
0
210
0
220
0
230
1
0
MTEXT
5
9E
100
AcDbEntity
8
SK6
62
256
6
ByLayer
370
-1
48
1
60
0
100
AcDbMText
10
-38.358817
20
16.395841
30
0
210
0
220
0
230
1
1
\W00.710;\fsimplex.shx,bigfont.shx;STFCL 1212F 11 
40
3.5
41
0
44
1.084337
50
0
71
7
72
5
7
DEFAULT
0
DIMENSION
5
DE
100
AcDbEntity
8
2
62
256
6
ByLayer
370
-3
48
1
60
0
100
AcDbDimension
2
DimnDraft3D2
10
13.832369
20
-10.008699
30
0
11
18.02831
21
2.137316
31
0
70
34
71
5
72
1
41
1
210
0
220
0
230
1
3
Standard
100
AcDb2LineAngularDimension
13
13.038679
23
-10.4125
33
0
14
13.832429
24
-10.4125
34
0
15
13.640418
25
0.988149
35
0
16
23.748308
26
-0.329139
36
0
40
0
0
DIMENSION
5
F3
100
AcDbEntity
8
2
62
256
6
ByLayer
370
-3
48
1
60
0
100
AcDbDimension
2
DimnDraft3D3
10
41.082429
20
-10.4125
30
0
11
41.082429
21
-4.303947
31
0
70
32
71
5
72
1
41
1
210
0
220
0
230
1
3
Standard
100
AcDbAlignedDimension
13
2
23
5.9375
33
0
14
15.832429
24
-10.4125
34
0
50
90
100
AcDbRotatedDimension
1001
ACAD
1000
DSTYLE
1002
{
1070
    74
1070
     0
1070
   279
1070
     0
1070
   172
1070
     1
1070
   173
1070
     1
1070
   340
1005
9F
1070
    77
1070
     1
1070
    73
1070
     0
1070
   171
1070
     3
1070
   274
1070
     4
1070
   177
1070
     2
1070
   176
1070
     2
1070
   178
1070
     7
1070
    78
1070
     8
1070
    41
1041
3.175
1070
   147
1041
2.25
1070
    42
1041
2.0
1070
    44
1041
2.0
1070
   140
1041
4.5
1070
   343
1005
DF
1070
   344
1005
DF
1002
}
0
DIMENSION
5
101
100
AcDbEntity
8
SK2
62
256
6
ByLayer
370
-3
48
1
60
0
100
AcDbDimension
2
DimnDraft3D4
10
-77.267571
20
-5.9375
30
0
11
-77.267571
21
-2.066447
31
0
70
32
71
5
72
1
41
1
210
0
220
0
230
1
3
Standard
100
AcDbAlignedDimension
13
-69.517571
23
5.9375
33
0
14
-69.517571
24
-5.9375
34
0
50
90
100
AcDbRotatedDimension
1001
ACAD
1000
DSTYLE
1002
{
1070
    74
1070
     0
1070
   279
1070
     0
1070
   172
1070
     1
1070
   173
1070
     1
1070
   340
1005
9F
1070
    77
1070
     1
1070
    73
1070
     0
1070
   171
1070
     3
1070
   274
1070
     4
1070
   177
1070
     2
1070
   176
1070
     2
1070
   178
1070
     7
1070
    78
1070
     8
1070
    41
1041
3.175
1070
   147
1041
2.25
1070
    42
1041
2.0
1070
    44
1041
2.0
1070
   140
1041
4.5
1070
   343
1005
DF
1070
   344
1005
DF
1002
}
0
ENDSEC
0
SECTION
2
OBJECTS
0
DICTIONARY
5
131
330
0
100
AcDbDictionary
280
0
281
1
3
ACAD_GROUP
350
132
3
ACAD_MLINESTYLE
350
133
0
DICTIONARY
5
132
330
0
100
AcDbDictionary
280
0
281
1
0
DICTIONARY
5
133
330
0
100
AcDbDictionary
280
0
281
1
3
Standard
350
18
0
MLINESTYLE
5
18
330
133
100
AcDbMlineStyle
2
Standard
70
0
3

62
256
51
90
52
90
71
2
49
-0.5
62
256
6
ByLayer
49
0.5
62
256
6
ByLayer
0
RASTERVARIABLES
5
120
330

100
AcDbRasterVariables
90
0
70
1
71
1
72
1
0
ENDSEC
0
EOF
