0
SECTION
2
HEADER
9
$ACADVER
1
AC1015
9
$DWGCODEPAGE
3
ANSI_1252
9
$HANDSEED
5
12f
9
$ANGBASE
50
0
9
$ANGDIR
70
0
9
$ATTMODE
70
1
9
$AUNITS
70
0
9
$AUPREC
70
0
9
$CECOLOR
62
256
9
$CELTSCALE
40
1
9
$CELTYPE
6
ByLayer
9
$CELWEIGHT
370
-1
9
$CLAYER
8
0
9
$CMLJUST
70
0
9
$CMLSCALE
40
1
9
$CMLSTYLE
2
Standard
9
$DIMSTYLE
2
Standard
9
$TEXTSIZE
40
0.2
9
$TEXTSTYLE
7
Standard
9
$LUNITS
70
2
9
$LUPREC
70
4
9
$EXTNAMES
290
1
9
$INSUNITS
70
4
9
$LTSCALE
40
1
9
$LWDISPLAY
290
0
9
$PDMODE
70
0
9
$PDSIZE
40
0
9
$PLINEGEN
70
0
0
ENDSEC
0
SECTION
2
CLASSES
0
CLASS
1
RASTERVARIABLES
2
AcDbRasterVariables
3
ISM
90
0
280
0
281
0
0
ENDSEC
0
SECTION
2
TABLES
0
TABLE
2
VPORT
5
125
100
AcDbSymbolTable
0
VPORT
5
1
100
AcDbSymbolTableRecord
100
AcDbViewportTableRecord
2
*Active
70
0
10
0
20
0
11
1
21
1
12
-1
22
1
13
0
23
0
14
0.5
24
0.5
15
10
25
10
16
0
26
0
36
1
17
0
27
0
37
0
0
ENDTAB
0
TABLE
2
LTYPE
5
126
100
AcDbSymbolTable
0
LTYPE
5
14
100
AcDbSymbolTableRecord
100
AcDbLinetypeTableRecord
70
0
2
ByBlock
3

72
65
73
0
40
0
0
LTYPE
5
15
100
AcDbSymbolTableRecord
100
AcDbLinetypeTableRecord
70
0
2
ByLayer
3

72
65
73
0
40
0
0
LTYPE
5
16
100
AcDbSymbolTableRecord
100
AcDbLinetypeTableRecord
70
0
2
CONTINUOUS
3
Solid line
72
65
73
0
40
0
0
LTYPE
5
3B
100
AcDbSymbolTableRecord
100
AcDbLinetypeTableRecord
70
0
2
DASHED
3
__ __ __ __ __ __ __ __ __
72
65
73
2
40
25.72
49
12.86
74
0
49
-12.86
74
0
0
LTYPE
5
3C
100
AcDbSymbolTableRecord
100
AcDbLinetypeTableRecord
70
0
2
HIDDEN
3
_ _ _ _ _ _ _ _ _ _ _ _ _ _ _
72
65
73
2
40
0.5
49
0.25
74
0
49
-0.25
74
0
0
LTYPE
5
3D
100
AcDbSymbolTableRecord
100
AcDbLinetypeTableRecord
70
0
2
PHANTOM
3
____ _ _ ____ _ _ _____ _ _ ____
72
65
73
6
40
50.5
49
18
74
0
49
-6.5
74
0
49
6.5
74
0
49
-6.5
74
0
49
6.5
74
0
49
-6.5
74
0
0
LTYPE
5
3E
100
AcDbSymbolTableRecord
100
AcDbLinetypeTableRecord
70
0
2
CENTER
3
____ _ ____ _ ____ _ ____
72
65
73
4
40
47.5
49
22
74
0
49
-8.5
74
0
49
8.5
74
0
49
-8.5
74
0
0
LTYPE
5
3F
100
AcDbSymbolTableRecord
100
AcDbLinetypeTableRecord
70
0
2
DOT
3
.........................
72
65
73
2
40
10
49
0
74
0
49
-10
74
0
0
LTYPE
5
40
100
AcDbSymbolTableRecord
100
AcDbLinetypeTableRecord
70
0
2
DASHDOT
3
_._._._._._._._._._._._._._._._.
72
65
73
4
40
70
49
31
74
0
49
-13
74
0
49
13
74
0
49
-13
74
0
0
ENDTAB
0
TABLE
2
LAYER
5
127
100
AcDbSymbolTable
0
LAYER
5
10
100
AcDbSymbolTableRecord
100
AcDbLayerTableRecord
2
0
70
0
62
7
6
CONTINUOUS
290
1
370
-3
390
0
0
LAYER
5
46
100
AcDbSymbolTableRecord
100
AcDbLayerTableRecord
2
80
70
0
62
-6
6
CONTINUOUS
290
1
370
-3
390
0
0
LAYER
5
48
100
AcDbSymbolTableRecord
100
AcDbLayerTableRecord
2
2
70
0
62
7
6
CONTINUOUS
290
1
370
-3
390
0
0
LAYER
5
4A
100
AcDbSymbolTableRecord
100
AcDbLayerTableRecord
2
81
70
0
62
-3
6
CONTINUOUS
290
1
370
-3
390
0
0
LAYER
5
4F
100
AcDbSymbolTableRecord
100
AcDbLayerTableRecord
2
1
70
0
62
4
6
CONTINUOUS
290
1
370
-3
390
0
0
LAYER
5
112
100
AcDbSymbolTableRecord
100
AcDbLayerTableRecord
2
SK2
70
0
62
7
6
CONTINUOUS
290
1
370
-3
390
0
0
LAYER
5
113
100
AcDbSymbolTableRecord
100
AcDbLayerTableRecord
2
SK1
70
0
62
4
6
CONTINUOUS
290
1
370
-3
390
0
0
LAYER
5
114
100
AcDbSymbolTableRecord
100
AcDbLayerTableRecord
2
SK6
70
0
62
5
6
CONTINUOUS
290
1
370
-3
390
0
0
ENDTAB
0
TABLE
2
STYLE
5
128
100
AcDbSymbolTable
0
STYLE
5
11
100
AcDbSymbolTableRecord
100
AcDbTextStyleTableRecord
2
Standard
3
txt
70
0
71
0
40
0
41
1
42
0
50
0
0
STYLE
5
8E
100
AcDbSymbolTableRecord
100
AcDbTextStyleTableRecord
2
DEFAULT
3
simplex.shx
70
0
71
0
40
0
41
1
42
0
50
0
0
STYLE
5
B1
100
AcDbSymbolTableRecord
100
AcDbTextStyleTableRecord
2
DWGDirectTextStyle
3
SIMPLEX
70
0
71
0
40
0
41
1
42
0
50
0
0
ENDTAB
0
TABLE
2
DIMSTYLE
5
129
100
AcDbSymbolTable
100
AcDbDimStyleTable
0
DIMSTYLE
105
27
100
AcDbSymbolTableRecord
100
AcDbDimStyleTableRecord
2
Standard
70
0
3
<>
41
0.18
42
0.0625
44
0.18
140
0.18
147
0.09
73
0
74
0
77
1
271
2
275
0
278
52
280
0
340
11
0
ENDTAB
0
TABLE
2
VIEW
5
12a
100
AcDbSymbolTable
0
ENDTAB
0
TABLE
2
UCS
5
12b
100
AcDbSymbolTable
0
ENDTAB
0
TABLE
2
APPID
5
12c
100
AcDbSymbolTable
0
APPID
5
12
100
AcDbSymbolTableRecord
100
AcDbRegAppTableRecord
2
ACAD
70
0
0
ENDTAB
0
TABLE
2
BLOCK_RECORD
5
12d
100
AcDbSymbolTable
0
BLOCK_RECORD
5
1F
100
AcDbSymbolTableRecord
100
AcDbBlockTableRecord
2
*Model_Space
340
0
70
0
0
BLOCK_RECORD
5
1B
100
AcDbSymbolTableRecord
100
AcDbBlockTableRecord
2
*Paper_Space
340
0
70
0
0
BLOCK_RECORD
5
23
100
AcDbSymbolTableRecord
100
AcDbBlockTableRecord
2
*Paper_Space0
340
0
70
0
0
BLOCK_RECORD
5
B3
100
AcDbSymbolTableRecord
100
AcDbBlockTableRecord
2
DimnDraft3D1
340
0
70
0
0
BLOCK_RECORD
5
C2
100
AcDbSymbolTableRecord
100
AcDbBlockTableRecord
2
_CLOSED
340
0
70
0
0
BLOCK_RECORD
5
C9
100
AcDbSymbolTableRecord
100
AcDbBlockTableRecord
2
DimnDraft3D2
340
0
70
0
0
BLOCK_RECORD
5
D7
100
AcDbSymbolTableRecord
100
AcDbBlockTableRecord
2
DimnDraft3D3
340
0
70
0
0
BLOCK_RECORD
5
E5
100
AcDbSymbolTableRecord
100
AcDbBlockTableRecord
2
DimnDraft3D4
340
0
70
0
0
ENDTAB
0
ENDSEC
0
SECTION
2
BLOCKS
0
BLOCK
5
20
100
AcDbEntity
8
0
100
AcDbBlockBegin
2
*Model_Space
70
0
10
0
20
0
30
0
3
*Model_Space
0
ENDBLK
5
21
100
AcDbEntity
8
0
100
AcDbBlockEnd
0
BLOCK
5
1C
100
AcDbEntity
8
0
100
AcDbBlockBegin
2
*Paper_Space
70
0
10
0
20
0
30
0
3
*Paper_Space
0
ENDBLK
5
1D
100
AcDbEntity
8
0
100
AcDbBlockEnd
0
BLOCK
5
24
100
AcDbEntity
8
0
100
AcDbBlockBegin
2
*Paper_Space0
70
0
10
0
20
0
30
0
3
*Paper_Space0
0
ENDBLK
5
25
100
AcDbEntity
8
0
100
AcDbBlockEnd
0
BLOCK
5
BF
100
AcDbEntity
8
0
100
AcDbBlockBegin
2
DimnDraft3D1
70
0
10
0
20
0
30
0
3
DimnDraft3D1
0
MTEXT
5
B4
100
AcDbEntity
8
2
62
256
6
ByLayer
370
-1
48
1
60
0
100
AcDbMText
10
-5.637777
20
5.59621
30
0
210
0
220
0
230
1
1
\W01.000;\fsimplex.shx,bigfont.shx;45%%d0' 
40
4.5
41
0
44
1.084337
50
270.768931703139
71
7
72
5
7
DEFAULT
0
LINE
5
B5
100
AcDbEntity
8
2
62
256
6
ByLayer
370
-1
48
1
60
0
100
AcDbLine
10
15.11141
20
2.856268
30
0
11
15.11141
21
24.193769
31
0
39
0
210
0
220
0
230
1
0
LINE
5
B6
100
AcDbEntity
8
2
62
256
6
ByLayer
370
-1
48
1
60
0
100
AcDbLine
10
12.757606
20
2.745104
30
0
11
-1.719477
21
17.222187
31
0
39
0
210
0
220
0
230
1
0
ARC
5
B7
100
AcDbEntity
8
2
62
256
6
ByLayer
370
-1
48
1
60
0
100
AcDbCircle
39
0
10
15.11141
20
0.3913
30
0
40
21.8024688090547
210
0
220
0
230
1
100
AcDbArc
50
135
51
197.629944
0
ARC
5
B8
100
AcDbEntity
8
2
62
256
6
ByLayer
370
-1
48
1
60
0
100
AcDbCircle
39
0
10
15.11141
20
0.3913
30
0
40
21.8024688090547
210
0
220
0
230
1
100
AcDbArc
50
90
51
135
0
LINE
5
B9
100
AcDbEntity
8
2
62
256
6
ByLayer
370
-1
48
1
60
0
100
AcDbLine
10
15.11141
20
22.193769
30
0
11
11.953696
21
21.660687
31
0
39
0
210
0
220
0
230
1
0
LINE
5
BA
100
AcDbEntity
8
2
62
256
6
ByLayer
370
-1
48
1
60
0
100
AcDbLine
10
15.11141
20
22.193769
30
0
11
11.923317
21
22.496128
31
0
39
0
210
0
220
0
230
1
0
LINE
5
BB
100
AcDbEntity
8
2
62
256
6
ByLayer
370
-1
48
1
60
0
100
AcDbLine
10
11.953696
20
21.660687
30
0
11
11.923317
21
22.496128
31
0
39
0
210
0
220
0
230
1
0
LINE
5
BC
100
AcDbEntity
8
2
62
256
6
ByLayer
370
-1
48
1
60
0
100
AcDbLine
10
-0.305263
20
15.807974
30
0
11
1.735256
21
18.276094
31
0
39
0
210
0
220
0
230
1
0
LINE
5
BD
100
AcDbEntity
8
2
62
256
6
ByLayer
370
-1
48
1
60
0
100
AcDbLine
10
-0.305263
20
15.807974
30
0
11
2.304526
21
17.663871
31
0
39
0
210
0
220
0
230
1
0
LINE
5
BE
100
AcDbEntity
8
2
62
256
6
ByLayer
370
-1
48
1
60
0
100
AcDbLine
10
1.735256
20
18.276094
30
0
11
2.304526
21
17.663871
31
0
39
0
210
0
220
0
230
1
0
ENDBLK
5
C0
100
AcDbEntity
8
0
100
AcDbBlockEnd
0
BLOCK
5
C3
100
AcDbEntity
8
0
100
AcDbBlockBegin
2
_CLOSED
70
0
10
0
20
0
30
0
3
_CLOSED
0
LINE
5
C5
100
AcDbEntity
8
0
62
256
6
ByLayer
370
-2
48
1
60
0
100
AcDbLine
10
-1
20
0.166667
30
0
11
0
21
0
31
0
39
0
210
0
220
0
230
1
0
LINE
5
C6
100
AcDbEntity
8
0
62
256
6
ByLayer
370
-2
48
1
60
0
100
AcDbLine
10
0
20
0
30
0
11
-1
21
-0.166667
31
0
39
0
210
0
220
0
230
1
0
LINE
5
C7
100
AcDbEntity
8
0
62
256
6
ByLayer
370
-2
48
1
60
0
100
AcDbLine
10
-1
20
0.166667
30
0
11
-1
21
-0.166667
31
0
39
0
210
0
220
0
230
1
0
LINE
5
C8
100
AcDbEntity
8
0
62
256
6
ByLayer
370
-2
48
1
60
0
100
AcDbLine
10
0
20
0
30
0
11
-1
21
0
31
0
39
0
210
0
220
0
230
1
0
ENDBLK
5
C4
100
AcDbEntity
8
0
100
AcDbBlockEnd
0
BLOCK
5
D4
100
AcDbEntity
8
0
100
AcDbBlockBegin
2
DimnDraft3D2
70
0
10
0
20
0
30
0
3
DimnDraft3D2
0
MTEXT
5
CA
100
AcDbEntity
8
SK2
62
256
6
ByLayer
370
-1
48
1
60
0
100
AcDbMText
10
-77.11359
20
-0.941447
30
0
210
0
220
0
230
1
1
\W01.000;\fsimplex.shx,bigfont.shx;12 
40
4.5
41
0
44
1.084337
50
90
71
7
72
5
7
DEFAULT
0
LINE
5
CB
100
AcDbEntity
8
SK2
62
256
6
ByLayer
370
-1
48
1
60
0
100
AcDbLine
10
-68.23859
20
-5.9375
30
0
11
-77.98859
21
-5.9375
31
0
39
0
210
0
220
0
230
1
0
LINE
5
CC
100
AcDbEntity
8
SK2
62
256
6
ByLayer
370
-1
48
1
60
0
100
AcDbLine
10
-68.23859
20
5.9375
30
0
11
-77.98859
21
5.9375
31
0
39
0
210
0
220
0
230
1
0
LINE
5
CD
100
AcDbEntity
8
SK2
62
256
6
ByLayer
370
-1
48
1
60
0
100
AcDbLine
10
-75.98859
20
-17.1875
30
0
11
-75.98859
21
17.1875
31
0
39
0
210
0
220
0
230
1
0
LINE
5
CE
100
AcDbEntity
8
SK2
62
256
6
ByLayer
370
-1
48
1
60
0
100
AcDbLine
10
-75.98859
20
-5.9375
30
0
11
-75.570593
21
-9.112498
31
0
39
0
210
0
220
0
230
1
0
LINE
5
CF
100
AcDbEntity
8
SK2
62
256
6
ByLayer
370
-1
48
1
60
0
100
AcDbLine
10
-75.98859
20
-5.9375
30
0
11
-76.406587
21
-9.112502
31
0
39
0
210
0
220
0
230
1
0
LINE
5
D0
100
AcDbEntity
8
SK2
62
256
6
ByLayer
370
-1
48
1
60
0
100
AcDbLine
10
-75.570593
20
-9.112498
30
0
11
-76.406587
21
-9.112502
31
0
39
0
210
0
220
0
230
1
0
LINE
5
D1
100
AcDbEntity
8
SK2
62
256
6
ByLayer
370
-1
48
1
60
0
100
AcDbLine
10
-75.98859
20
5.9375
30
0
11
-76.406587
21
9.112498
31
0
39
0
210
0
220
0
230
1
0
LINE
5
D2
100
AcDbEntity
8
SK2
62
256
6
ByLayer
370
-1
48
1
60
0
100
AcDbLine
10
-75.98859
20
5.9375
30
0
11
-75.570593
21
9.112502
31
0
39
0
210
0
220
0
230
1
0
LINE
5
D3
100
AcDbEntity
8
SK2
62
256
6
ByLayer
370
-1
48
1
60
0
100
AcDbLine
10
-76.406587
20
9.112498
30
0
11
-75.570593
21
9.112502
31
0
39
0
210
0
220
0
230
1
0
ENDBLK
5
D5
100
AcDbEntity
8
0
100
AcDbBlockEnd
0
BLOCK
5
E2
100
AcDbEntity
8
0
100
AcDbBlockBegin
2
DimnDraft3D3
70
0
10
0
20
0
30
0
3
DimnDraft3D3
0
MTEXT
5
D8
100
AcDbEntity
8
2
62
256
6
ByLayer
370
-1
48
1
60
0
100
AcDbMText
10
41.23641
20
11.7713
30
0
210
0
220
0
230
1
1
\W01.000;\fsimplex.shx,bigfont.shx;6.27 
40
4.5
41
0
44
1.084337
50
90
71
7
72
5
7
DEFAULT
0
LINE
5
D9
100
AcDbEntity
8
2
62
256
6
ByLayer
370
-1
48
1
60
0
100
AcDbLine
10
2
20
-5.9375
30
0
11
44.36141
21
-5.9375
31
0
39
0
210
0
220
0
230
1
0
LINE
5
DA
100
AcDbEntity
8
2
62
256
6
ByLayer
370
-1
48
1
60
0
100
AcDbLine
10
17.11141
20
0.3913
30
0
11
44.36141
21
0.3913
31
0
39
0
210
0
220
0
230
1
0
LINE
5
DB
100
AcDbEntity
8
2
62
256
6
ByLayer
370
-1
48
1
60
0
100
AcDbLine
10
42.36141
20
20.972616
30
0
11
42.36141
21
-17.1875
31
0
39
0
210
0
220
0
230
1
0
LINE
5
DC
100
AcDbEntity
8
2
62
256
6
ByLayer
370
-1
48
1
60
0
100
AcDbLine
10
42.36141
20
-5.9375
30
0
11
42.779407
21
-9.112498
31
0
39
0
210
0
220
0
230
1
0
LINE
5
DD
100
AcDbEntity
8
2
62
256
6
ByLayer
370
-1
48
1
60
0
100
AcDbLine
10
42.36141
20
-5.9375
30
0
11
41.943413
21
-9.112502
31
0
39
0
210
0
220
0
230
1
0
LINE
5
DE
100
AcDbEntity
8
2
62
256
6
ByLayer
370
-1
48
1
60
0
100
AcDbLine
10
42.779407
20
-9.112498
30
0
11
41.943413
21
-9.112502
31
0
39
0
210
0
220
0
230
1
0
LINE
5
DF
100
AcDbEntity
8
2
62
256
6
ByLayer
370
-1
48
1
60
0
100
AcDbLine
10
42.36141
20
0.3913
30
0
11
41.943413
21
3.566298
31
0
39
0
210
0
220
0
230
1
0
LINE
5
E0
100
AcDbEntity
8
2
62
256
6
ByLayer
370
-1
48
1
60
0
100
AcDbLine
10
42.36141
20
0.3913
30
0
11
42.779407
21
3.566302
31
0
39
0
210
0
220
0
230
1
0
LINE
5
E1
100
AcDbEntity
8
2
62
256
6
ByLayer
370
-1
48
1
60
0
100
AcDbLine
10
41.943413
20
3.566298
30
0
11
42.779407
21
3.566302
31
0
39
0
210
0
220
0
230
1
0
ENDBLK
5
E3
100
AcDbEntity
8
0
100
AcDbBlockEnd
0
BLOCK
5
F0
100
AcDbEntity
8
0
100
AcDbBlockBegin
2
DimnDraft3D4
70
0
10
0
20
0
30
0
3
DimnDraft3D4
0
MTEXT
5
E6
100
AcDbEntity
8
SK2
62
256
6
ByLayer
370
-1
48
1
60
0
100
AcDbMText
10
-27.067537
20
21.731268
30
0
210
0
220
0
230
1
1
\W01.000;\fsimplex.shx,bigfont.shx;80 
40
4.5
41
0
44
1.084337
50
0
71
7
72
5
7
DEFAULT
0
LINE
5
E7
100
AcDbEntity
8
SK2
62
256
6
ByLayer
370
-1
48
1
60
0
100
AcDbLine
10
15.11141
20
2.856268
30
0
11
15.11141
21
22.606268
31
0
39
0
210
0
220
0
230
1
0
LINE
5
E8
100
AcDbEntity
8
SK2
62
256
6
ByLayer
370
-1
48
1
60
0
100
AcDbLine
10
-66.23859
20
7.9375
30
0
11
-66.23859
21
22.606268
31
0
39
0
210
0
220
0
230
1
0
LINE
5
E9
100
AcDbEntity
8
SK2
62
256
6
ByLayer
370
-1
48
1
60
0
100
AcDbLine
10
15.11141
20
20.606268
30
0
11
-66.23859
21
20.606268
31
0
39
0
210
0
220
0
230
1
0
LINE
5
EA
100
AcDbEntity
8
SK2
62
256
6
ByLayer
370
-1
48
1
60
0
100
AcDbLine
10
15.11141
20
20.606268
30
0
11
11.936412
21
20.188271
31
0
39
0
210
0
220
0
230
1
0
LINE
5
EB
100
AcDbEntity
8
SK2
62
256
6
ByLayer
370
-1
48
1
60
0
100
AcDbLine
10
15.11141
20
20.606268
30
0
11
11.936409
21
21.024265
31
0
39
0
210
0
220
0
230
1
0
LINE
5
EC
100
AcDbEntity
8
SK2
62
256
6
ByLayer
370
-1
48
1
60
0
100
AcDbLine
10
11.936412
20
20.188271
30
0
11
11.936409
21
21.024265
31
0
39
0
210
0
220
0
230
1
0
LINE
5
ED
100
AcDbEntity
8
SK2
62
256
6
ByLayer
370
-1
48
1
60
0
100
AcDbLine
10
-66.23859
20
20.606268
30
0
11
-63.063591
21
21.024265
31
0
39
0
210
0
220
0
230
1
0
LINE
5
EE
100
AcDbEntity
8
SK2
62
256
6
ByLayer
370
-1
48
1
60
0
100
AcDbLine
10
-66.23859
20
20.606268
30
0
11
-63.063588
21
20.188271
31
0
39
0
210
0
220
0
230
1
0
LINE
5
EF
100
AcDbEntity
8
SK2
62
256
6
ByLayer
370
-1
48
1
60
0
100
AcDbLine
10
-63.063591
20
21.024265
30
0
11
-63.063588
21
20.188271
31
0
39
0
210
0
220
0
230
1
0
ENDBLK
5
F1
100
AcDbEntity
8
0
100
AcDbBlockEnd
0
ENDSEC
0
SECTION
2
ENTITIES
0
ARC
5
61
100
AcDbEntity
8
1
62
256
6
ByLayer
370
-1
48
1
60
0
100
AcDbCircle
39
0
10
-2.905
20
0
30
0
40
1.5
210
0
220
0
230
-1
100
AcDbArc
50
270
51
90
0
ARC
5
62
100
AcDbEntity
8
1
62
256
6
ByLayer
370
-1
48
1
60
0
100
AcDbCircle
39
0
10
8.705
20
0
30
0
40
1.2065
210
0
220
0
230
1
100
AcDbArc
50
29.920057
51
86.044721
0
ARC
5
63
100
AcDbEntity
8
1
62
256
6
ByLayer
370
-1
48
1
60
0
100
AcDbCircle
39
0
10
-8.705
20
0
30
0
40
1.6765
210
0
220
0
230
-1
100
AcDbArc
50
0
51
59.840113
0
ARC
5
64
100
AcDbEntity
8
1
62
256
6
ByLayer
370
-1
48
1
60
0
100
AcDbCircle
39
0
10
-8.705
20
0
30
0
40
1.2065
210
0
220
0
230
-1
100
AcDbArc
50
266.044721
51
273.955279
0
ARC
5
65
100
AcDbEntity
8
1
62
256
6
ByLayer
370
-1
48
1
60
0
100
AcDbCircle
39
0
10
-3.092693
20
0
30
0
40
0.793999999999973
210
0
220
0
230
-1
100
AcDbArc
50
315
51
45
0
ARC
5
66
100
AcDbEntity
8
1
62
256
6
ByLayer
370
-1
48
1
60
0
100
AcDbCircle
39
0
10
8.705
20
0
30
0
40
1.2065
210
0
220
0
230
1
100
AcDbArc
50
330.079943
51
29.920057
0
ARC
5
68
100
AcDbEntity
8
1
62
256
6
ByLayer
370
-1
48
1
60
0
100
AcDbCircle
39
0
10
-8.705
20
0
30
0
40
1.2065
210
0
220
0
230
-1
100
AcDbArc
50
29.920057
51
86.044721
0
ARC
5
69
100
AcDbEntity
8
1
62
256
6
ByLayer
370
-1
48
1
60
0
100
AcDbCircle
39
0
10
-8.705
20
0
30
0
40
1.6765
210
0
220
0
230
-1
100
AcDbArc
50
300.159887
51
0
0
ARC
5
6A
100
AcDbEntity
8
1
62
256
6
ByLayer
370
-1
48
1
60
0
100
AcDbCircle
39
0
10
-8.705
20
0
30
0
40
1.6765
210
0
220
0
230
-1
100
AcDbArc
50
239.840113
51
300.159887
0
ARC
5
6B
100
AcDbEntity
8
1
62
256
6
ByLayer
370
-1
48
1
60
0
100
AcDbCircle
39
0
10
-8.705
20
-5.612307
30
0
40
0.793999999999989
210
0
220
0
230
-1
100
AcDbArc
50
225
51
315
0
ARC
5
6D
100
AcDbEntity
8
1
62
256
6
ByLayer
370
-1
48
1
60
0
100
AcDbCircle
39
0
10
-8.705
20
5.612307
30
0
40
0.793999999999975
210
0
220
0
230
-1
100
AcDbArc
50
45
51
135
0
ARC
5
6E
100
AcDbEntity
8
1
62
256
6
ByLayer
370
-1
48
1
60
0
100
AcDbCircle
39
0
10
-8.705
20
0
30
0
40
1.6765
210
0
220
0
230
-1
100
AcDbArc
50
180
51
239.840113
0
ARC
5
6F
100
AcDbEntity
8
1
62
256
6
ByLayer
370
-1
48
1
60
0
100
AcDbCircle
39
0
10
8.705
20
0
30
0
40
1.2065
210
0
220
0
230
1
100
AcDbArc
50
209.920057
51
266.044721
0
ARC
5
70
100
AcDbEntity
8
1
62
256
6
ByLayer
370
-1
48
1
60
0
100
AcDbCircle
39
0
10
-14.317307
20
0
30
0
40
0.793999999999963
210
0
220
0
230
-1
100
AcDbArc
50
135
51
225
0
ARC
5
71
100
AcDbEntity
8
1
62
256
6
ByLayer
370
-1
48
1
60
0
100
AcDbCircle
39
0
10
-8.705
20
0
30
0
40
1.6765
210
0
220
0
230
-1
100
AcDbArc
50
120.159887
51
180
0
ARC
5
74
100
AcDbEntity
8
1
62
256
6
ByLayer
370
-1
48
1
60
0
100
AcDbCircle
39
0
10
-8.705
20
0
30
0
40
1.2065
210
0
220
0
230
-1
100
AcDbArc
50
86.044721
51
93.955279
0
ARC
5
75
100
AcDbEntity
8
1
62
256
6
ByLayer
370
-1
48
1
60
0
100
AcDbCircle
39
0
10
8.705
20
0
30
0
40
1.2065
210
0
220
0
230
1
100
AcDbArc
50
150.079943
51
209.920057
0
ARC
5
76
100
AcDbEntity
8
1
62
256
6
ByLayer
370
-1
48
1
60
0
100
AcDbCircle
39
0
10
-8.705
20
0
30
0
40
1.6765
210
0
220
0
230
-1
100
AcDbArc
50
59.840113
51
120.159887
0
ARC
5
77
100
AcDbEntity
8
1
62
256
6
ByLayer
370
-1
48
1
60
0
100
AcDbCircle
39
0
10
8.705
20
0
30
0
40
1.2065
210
0
220
0
230
1
100
AcDbArc
50
273.955279
51
330.079943
0
CIRCLE
5
67
100
AcDbEntity
8
1
62
256
6
ByLayer
370
-1
48
1
60
0
100
AcDbCircle
10
-8.705
20
0
30
0
40
3.07132534818239
39
0
210
0
220
0
230
-1
0
CIRCLE
5
6C
100
AcDbEntity
8
1
62
256
6
ByLayer
370
-1
48
1
60
0
100
AcDbCircle
10
-8.705
20
0
30
0
40
2.62499999999999
39
0
210
0
220
0
230
-1
0
CIRCLE
5
72
100
AcDbEntity
8
1
62
256
6
ByLayer
370
-1
48
1
60
0
100
AcDbCircle
10
-8.705
20
0
30
0
40
3.00605207334198
39
0
210
0
220
0
230
-1
0
CIRCLE
5
73
100
AcDbEntity
8
1
62
256
6
ByLayer
370
-1
48
1
60
0
100
AcDbCircle
10
8.705
20
0
30
0
40
2.95049568210607
39
0
210
0
220
0
230
1
0
CIRCLE
5
78
100
AcDbEntity
8
1
62
256
6
ByLayer
370
-1
48
1
60
0
100
AcDbCircle
10
-8.705
20
0
30
0
40
1.8
39
0
210
0
220
0
230
-1
0
POINT
5
41
100
AcDbEntity
8
SK2
62
256
6
ByLayer
370
-1
48
1
60
0
100
AcDbPoint
10
15.11141
20
0.328782
30
0
39
0
210
0
220
0
230
1
50
360
0
POINT
5
43
100
AcDbEntity
8
SK2
62
256
6
ByLayer
370
-1
48
1
60
0
100
AcDbPoint
10
15.11141
20
0.328782
30
0
39
0
210
0
220
0
230
1
50
360
0
POINT
5
44
100
AcDbEntity
8
SK2
62
256
6
ByLayer
370
-1
48
1
60
0
100
AcDbPoint
10
15.11141
20
0.328782
30
0
39
0
210
0
220
0
230
1
50
360
0
POINT
5
45
100
AcDbEntity
8
80
62
256
6
ByLayer
370
-1
48
1
60
0
100
AcDbPoint
10
0
20
0
30
0
39
0
210
0
220
0
230
1
50
360
0
POINT
5
47
100
AcDbEntity
8
2
62
256
6
ByLayer
370
-1
48
1
60
0
100
AcDbPoint
10
15.11141
20
0.328782
30
0
39
0
210
0
220
0
230
1
50
360
0
POINT
5
49
100
AcDbEntity
8
81
62
256
6
ByLayer
370
-1
48
1
60
0
100
AcDbPoint
10
15.11141
20
0.328782
30
0
39
0
210
0
220
0
230
1
50
360
0
POINT
5
4B
100
AcDbEntity
8
SK2
62
256
6
ByLayer
370
-1
48
1
60
0
100
AcDbPoint
10
15.11141
20
0.328782
30
0
39
0
210
0
220
0
230
1
50
360
0
SPLINE
5
79
100
AcDbEntity
8
1
62
256
6
ByLayer
370
-1
48
1
60
0
100
AcDbSpline
70
4
71
3
72
16
73
12
40
0
40
0
40
0
40
0
40
0.0630415689509948
40
0.0630415689509948
40
0.28591433202503
40
0.28591433202503
40
0.51158830540897
40
0.51158830540897
40
0.751723061839443
40
0.751723061839443
40
1
40
1
40
1
40
1
41
1
10
10.3815
20
1.1937E-12
30
0
41
1
10
10.3815
20
0.0084336538340892
30
0
41
1
10
10.3811336287486
20
0.016876968351653
30
0
41
1
10
10.3778431434152
20
0.0547537924327344
30
0
41
1
10
10.370633890411
20
0.0841216087717385
30
0
41
1
10
10.3483240886929
20
0.138367789844523
30
0
41
1
10
10.33286346592
20
0.163884549645019
30
0
41
1
10
10.2952228348199
20
0.209452916502983
30
0
41
1
10
10.2722290297802
20
0.229640568254382
30
0
41
1
10
10.2220396182034
20
0.26195144864883
30
0
41
1
10
10.1941787135168
20
0.274165762469465
30
0
41
1
10
10.1658653921853
20
0.281837412131608
30
0
0
SPLINE
5
7A
100
AcDbEntity
8
1
62
256
6
ByLayer
370
-1
48
1
60
0
100
AcDbSpline
70
4
71
3
72
18
73
14
40
0
40
0
40
0
40
0
40
0.212491695755306
40
0.212491695755306
40
0.386618276853806
40
0.386618276853806
40
0.562426360907932
40
0.562426360907932
40
0.715388416645922
40
0.715388416645922
40
0.918249208689825
40
0.918249208689825
40
1
40
1
40
1
40
1
41
1
10
9.6826444677088
20
1.12150404177703
30
0
41
1
10
9.66427607619005
20
1.05294891330001
30
0
41
1
10
9.65609110915315
20
0.979185025512749
30
0
41
1
10
9.6639610008539
20
0.843022153373994
30
0
41
1
10
9.67615575944367
20
0.779448760082261
30
0
41
1
10
9.71883057162293
20
0.656905539532346
30
0
41
1
10
9.75029766833927
20
0.596232464323236
30
0
41
1
10
9.82230323633908
20
0.496295746404883
30
0
41
1
10
9.86191889888948
20
0.454031777746394
30
0
41
1
10
9.96040596248045
20
0.371396705692774
30
0
41
1
10
10.022893587529
20
0.33451809805976
30
0
41
1
10
10.112776731918
20
0.297950670802067
30
0
41
1
10
10.1392260360797
20
0.289055491737145
30
0
41
1
10
10.1658653921853
20
0.281837412131608
30
0
0
SPLINE
5
7B
100
AcDbEntity
8
1
62
256
6
ByLayer
370
-1
48
1
60
0
100
AcDbSpline
70
4
71
3
72
12
73
8
40
0
40
0
40
0
40
0
40
0.422118641229811
40
0.422118641229811
40
0.843213633747287
40
0.843213633747287
40
1
40
1
40
1
40
1
41
1
10
8.62177826348272
20
-1.20362635089475
30
0
41
1
10
8.55433079844883
20
-1.21186958890874
30
0
41
1
10
8.48834164085631
20
-1.23046260794013
30
0
41
1
10
8.3697272181067
20
-1.28256908028001
30
0
41
1
10
8.31535758871186
20
-1.31660935904151
30
0
41
1
10
8.25007300055861
20
-1.37058295421269
30
0
41
1
10
8.2331183540982
20
-1.38611837999446
30
0
41
1
10
8.21708902263606
20
-1.40233678764892
30
0
0
SPLINE
5
7C
100
AcDbEntity
8
1
62
256
6
ByLayer
370
-1
48
1
60
0
100
AcDbSpline
70
4
71
3
72
16
73
12
40
0
40
0
40
0
40
0
40
0.0569446172825238
40
0.0569446172825238
40
0.279906644834096
40
0.279906644834096
40
0.505321967306659
40
0.505321967306659
40
0.744915047128782
40
0.744915047128782
40
1
40
1
40
1
40
1
41
1
10
9.54729830366031
20
-1.44954676283572
30
0
41
1
10
9.55388956149233
20
-1.4457167344205
30
0
41
1
10
9.56033667471871
20
-1.44162442621996
30
0
41
1
10
9.59096361683905
20
-1.42045865074792
30
0
41
1
10
9.61292766700615
20
-1.39963106376038
30
0
41
1
10
9.64900763639335
20
-1.35336102380236
30
0
41
1
10
9.66351255408324
20
-1.32729536171442
30
0
41
1
10
9.68443688222121
20
-1.2720619633416
30
0
41
1
10
9.69058220038639
20
-1.24212170469198
30
0
41
1
10
9.69385290098941
20
-1.18170391695259
30
0
41
1
10
9.6904405212243
20
-1.15060073485347
30
0
41
1
10
9.6826444677088
20
-1.12150404177467
30
0
0
SPLINE
5
7D
100
AcDbEntity
8
1
62
256
6
ByLayer
370
-1
48
1
60
0
100
AcDbSpline
70
4
71
3
72
18
73
14
40
0
40
0
40
0
40
0
40
0.212491592102403
40
0.212491592102403
40
0.386618191488461
40
0.386618191488461
40
0.562426295050805
40
0.562426295050805
40
0.715388354469442
40
0.715388354469442
40
0.918249128147134
40
0.918249128147134
40
1
40
1
40
1
40
1
41
1
10
10.1658653921853
20
-0.281837412129249
30
0
41
1
10
10.0973622765154
20
-0.300398706935738
30
0
41
1
10
10.0294718307194
20
-0.330381808909408
30
0
41
1
10
9.91569573400662
20
-0.405596523650445
30
0
41
1
10
9.86685529322077
20
-0.448080643416915
30
0
41
1
10
9.78234157866993
20
-0.546545944411292
30
0
41
1
10
9.7456915357823
20
-0.604236286892188
30
0
41
1
10
9.69546021720575
20
-0.716703910711402
30
0
41
1
10
9.67882114485244
20
-0.77219071403627
30
0
41
1
10
9.6568539899321
20
-0.89886233775772
30
0
41
1
10
9.65636245442354
20
-0.971419161559169
30
0
41
1
10
9.66990388606882
20
-1.06750657274336
30
0
41
1
10
9.67550140037972
20
-1.09484444569827
30
0
41
1
10
9.6826444677088
20
-1.12150404177467
30
0
0
SPLINE
5
7E
100
AcDbEntity
8
1
62
256
6
ByLayer
370
-1
48
1
60
0
100
AcDbSpline
70
4
71
3
72
18
73
14
40
0
40
0
40
0
40
0
40
0.212491695755299
40
0.212491695755299
40
0.386618276853804
40
0.386618276853804
40
0.562426360907933
40
0.562426360907933
40
0.715388416645939
40
0.715388416645939
40
0.91824920868985
40
0.91824920868985
40
1
40
1
40
1
40
1
41
1
10
7.72735553229123
20
-1.12150404177467
30
0
41
1
10
7.74572392380995
20
-1.05294891329766
30
0
41
1
10
7.75390889084682
20
-0.97918502551039
30
0
41
1
10
7.74603899914607
20
-0.843022153371635
30
0
41
1
10
7.73384424055635
20
-0.779448760079902
30
0
41
1
10
7.69116942837704
20
-0.656905539529987
30
0
41
1
10
7.65970233166072
20
-0.596232464320877
30
0
41
1
10
7.58769676366094
20
-0.496295746402524
30
0
41
1
10
7.54808110111051
20
-0.454031777744035
30
0
41
1
10
7.44959403751957
20
-0.371396705690415
30
0
41
1
10
7.38710641247101
20
-0.334518098057401
30
0
41
1
10
7.29722326808198
20
-0.297950670799708
30
0
41
1
10
7.27077396392039
20
-0.289055491734786
30
0
41
1
10
7.24413460781469
20
-0.281837412129249
30
0
0
SPLINE
5
7F
100
AcDbEntity
8
1
62
256
6
ByLayer
370
-1
48
1
60
0
100
AcDbSpline
70
4
71
3
72
12
73
8
40
0
40
0
40
0
40
0
40
0.495785575728952
40
0.495785575728952
40
0.900238279923935
40
0.900238279923935
40
1
40
1
40
1
40
1
41
1
10
9.19291097736399
20
-1.40233678764889
30
0
41
1
10
9.14277360496871
20
-1.35160801295544
30
0
41
1
10
9.08292901172783
20
-1.30712335145191
30
0
41
1
10
8.96101628875763
20
-1.24516073117394
30
0
41
1
10
8.89994623418448
20
-1.22366365063416
30
0
41
1
10
8.82051725662043
20
-1.20816202596373
30
0
41
1
10
8.80442428045154
20
-1.20560657989245
30
0
41
1
10
8.78822173651733
20
-1.20362635089475
30
0
0
SPLINE
5
80
100
AcDbEntity
8
1
62
256
6
ByLayer
370
-1
48
1
60
0
100
AcDbSpline
70
4
71
3
72
14
73
10
40
0
40
0
40
0
40
0
40
0.282169922576046
40
0.282169922576046
40
0.566902245317903
40
0.566902245317903
40
0.824523972080228
40
0.824523972080228
40
1
40
1
40
1
40
1
41
1
10
8.21708902263603
20
1.40233678765125
30
0
41
1
10
8.19347554286773
20
1.42622880348031
30
0
41
1
10
8.16489737159725
20
1.44669095398609
30
0
41
1
10
8.10140340730271
20
1.47642759952237
30
0
41
1
10
8.06542078321027
20
1.48600316007395
30
0
41
1
10
7.99548423229658
20
1.4906398176615
30
0
41
1
10
7.96060129517198
20
1.48700486817467
30
0
41
1
10
7.90515815784943
20
1.47083834363005
30
0
41
1
10
7.88310789111497
20
1.46140433355197
30
0
41
1
10
7.86270169633966
20
1.44954676283808
30
0
0
SPLINE
5
81
100
AcDbEntity
8
1
62
256
6
ByLayer
370
-1
48
1
60
0
100
AcDbSpline
70
4
71
3
72
14
73
10
40
0
40
0
40
0
40
0
40
0.283961749036688
40
0.283961749036688
40
0.570285189258996
40
0.570285189258996
40
0.829451094335633
40
0.829451094335633
40
1
40
1
40
1
40
1
41
1
10
9.6826444677088
20
1.12150404177703
30
0
41
1
10
9.69132132840403
20
1.15388811302972
30
0
41
1
10
9.69455385980362
20
1.18882554196009
30
0
41
1
10
9.68820636548418
20
1.25850421461519
30
0
41
1
10
9.67835901775695
20
1.29431482284312
30
0
41
1
10
9.6472145913697
20
1.35690846987149
30
0
41
1
10
9.62656774860045
20
1.38514373353445
30
0
41
1
10
9.5854021593367
20
1.42427613243294
30
0
41
1
10
9.56695095076412
20
1.43812706135458
30
0
41
1
10
9.54729830366031
20
1.44954676283808
30
0
0
SPLINE
5
82
100
AcDbEntity
8
1
62
256
6
ByLayer
370
-1
48
1
60
0
100
AcDbSpline
70
4
71
3
72
16
73
12
40
0
40
0
40
0
40
0
40
0.0624450082614043
40
0.0624450082614043
40
0.283207995985777
40
0.283207995985777
40
0.506745688833508
40
0.506745688833508
40
0.744607284736867
40
0.744607284736867
40
1
40
1
40
1
40
1
41
1
10
7.86270169633966
20
-1.44954676283572
30
0
41
1
10
7.86999368318456
20
-1.45378396877294
30
0
41
1
10
7.87747809453137
20
-1.45770925194446
30
0
41
1
10
7.91188062772002
20
-1.47389408653478
30
0
41
1
10
7.94089486401688
20
-1.48241558862745
30
0
41
1
10
7.99900633848077
20
-1.49038000158026
30
0
41
1
10
8.02883645657369
20
-1.48983232117794
30
0
41
1
10
8.08714729235541
20
-1.48018142671694
30
0
41
1
10
8.11615450107658
20
-1.47044293260262
30
0
41
1
10
8.17032464200099
20
-1.44276136963327
30
0
41
1
10
8.19571538559435
20
-1.42396254037723
30
0
41
1
10
8.21708902263603
20
-1.40233678764889
30
0
0
SPLINE
5
83
100
AcDbEntity
8
1
62
256
6
ByLayer
370
-1
48
1
60
0
100
AcDbSpline
70
4
71
3
72
14
73
10
40
0
40
0
40
0
40
0
40
0.282169922576116
40
0.282169922576116
40
0.56690224531798
40
0.56690224531798
40
0.824523972080322
40
0.824523972080322
40
1
40
1
40
1
40
1
41
1
10
9.19291097736397
20
-1.40233678764892
30
0
41
1
10
9.21652445713229
20
-1.42622880347798
30
0
41
1
10
9.24510262840278
20
-1.44669095398376
30
0
41
1
10
9.30859659269731
20
-1.47642759952004
30
0
41
1
10
9.34457921678975
20
-1.48600316007159
30
0
41
1
10
9.41451576770348
20
-1.49063981765914
30
0
41
1
10
9.44939870482804
20
-1.48700486817231
30
0
41
1
10
9.50484184215057
20
-1.47083834362769
30
0
41
1
10
9.52689210888499
20
-1.46140433354961
30
0
41
1
10
9.54729830366031
20
-1.44954676283572
30
0
0
SPLINE
5
84
100
AcDbEntity
8
1
62
256
6
ByLayer
370
-1
48
1
60
0
100
AcDbSpline
70
4
71
3
72
12
73
8
40
0
40
0
40
0
40
0
40
0.422118641229893
40
0.422118641229893
40
0.843213633747431
40
0.843213633747431
40
1
40
1
40
1
40
1
41
1
10
8.78822173651733
20
1.20362635089711
30
0
41
1
10
8.85566920155125
20
1.2118695889111
30
0
41
1
10
8.92165835914378
20
1.23046260794248
30
0
41
1
10
9.04027278189338
20
1.2825690802824
30
0
41
1
10
9.09464241128822
20
1.31660935904389
30
0
41
1
10
9.15992699944144
20
1.37058295421508
30
0
41
1
10
9.17688164590186
20
1.38611837999682
30
0
41
1
10
9.19291097736399
20
1.40233678765125
30
0
0
SPLINE
5
85
100
AcDbEntity
8
1
62
256
6
ByLayer
370
-1
48
1
60
0
100
AcDbSpline
70
4
71
3
72
14
73
10
40
0
40
0
40
0
40
0
40
0.28396174903672
40
0.28396174903672
40
0.570285189259034
40
0.570285189259034
40
0.829451094335675
40
0.829451094335675
40
1
40
1
40
1
40
1
41
1
10
7.72735553229123
20
-1.12150404177467
30
0
41
1
10
7.718678671596
20
-1.15388811302736
30
0
41
1
10
7.71544614019641
20
-1.18882554195773
30
0
41
1
10
7.72179363451582
20
-1.25850421461283
30
0
41
1
10
7.73164098224308
20
-1.29431482284076
30
0
41
1
10
7.76278540863026
20
-1.35690846986913
30
0
41
1
10
7.78343225139955
20
-1.38514373353209
30
0
41
1
10
7.8245978406633
20
-1.42427613243058
30
0
41
1
10
7.84304904923587
20
-1.43812706135222
30
0
41
1
10
7.86270169633966
20
-1.44954676283572
30
0
0
SPLINE
5
86
100
AcDbEntity
8
1
62
256
6
ByLayer
370
-1
48
1
60
0
100
AcDbSpline
70
4
71
3
72
18
73
14
40
0
40
0
40
0
40
0
40
0.212491592102414
40
0.212491592102414
40
0.386618191488466
40
0.386618191488466
40
0.562426295050798
40
0.562426295050798
40
0.715388354469444
40
0.715388354469444
40
0.918249128147142
40
0.918249128147142
40
1
40
1
40
1
40
1
41
1
10
7.24413460781469
20
0.281837412131608
30
0
41
1
10
7.31263772348458
20
0.300398706938097
30
0
41
1
10
7.38052816928061
20
0.330381808911795
30
0
41
1
10
7.49430426599341
20
0.405596523652832
30
0
41
1
10
7.54314470677926
20
0.448080643419303
30
0
41
1
10
7.6276584213301
20
0.54654594441368
30
0
41
1
10
7.66430846421773
20
0.604236286894576
30
0
41
1
10
7.71453978279425
20
0.716703910713761
30
0
41
1
10
7.73117885514753
20
0.772190714038629
30
0
41
1
10
7.75314601006787
20
0.898862337760079
30
0
41
1
10
7.75363754557642
20
0.971419161561528
30
0
41
1
10
7.74009611393117
20
1.06750657274571
30
0
41
1
10
7.73449859962025
20
1.09484444570063
30
0
41
1
10
7.72735553229123
20
1.12150404177703
30
0
0
SPLINE
5
87
100
AcDbEntity
8
1
62
256
6
ByLayer
370
-1
48
1
60
0
100
AcDbSpline
70
4
71
3
72
16
73
12
40
0
40
0
40
0
40
0
40
0.0624450082613658
40
0.0624450082613658
40
0.283207995985758
40
0.283207995985758
40
0.50674568883351
40
0.50674568883351
40
0.744607284736931
40
0.744607284736931
40
1
40
1
40
1
40
1
41
1
10
9.54729830366031
20
1.44954676283808
30
0
41
1
10
9.54000631681544
20
1.4537839687753
30
0
41
1
10
9.53252190546863
20
1.45770925194682
30
0
41
1
10
9.49811937228
20
1.47389408653714
30
0
41
1
10
9.46910513598314
20
1.48241558862981
30
0
41
1
10
9.41099366151923
20
1.49038000158262
30
0
41
1
10
9.38116354342631
20
1.4898323211803
30
0
41
1
10
9.32285270764456
20
1.4801814267193
30
0
41
1
10
9.29384549892342
20
1.47044293260498
30
0
41
1
10
9.239675357999
20
1.44276136963563
30
0
41
1
10
9.21428461440567
20
1.42396254037959
30
0
41
1
10
9.19291097736397
20
1.40233678765128
30
0
0
SPLINE
5
88
100
AcDbEntity
8
1
62
256
6
ByLayer
370
-1
48
1
60
0
100
AcDbSpline
70
4
71
3
72
14
73
10
40
0
40
0
40
0
40
0
40
0.283961457856564
40
0.283961457856564
40
0.570284934646581
40
0.570284934646581
40
0.829450869060398
40
0.829450869060398
40
1
40
1
40
1
40
1
41
1
10
7.24413460781469
20
0.281837412131608
30
0
41
1
10
7.21177512363502
20
0.273069432459892
30
0
41
1
10
7.17994324878768
20
0.258311308210352
30
0
41
1
10
7.12288629142631
20
0.217815543954856
30
0
41
1
10
7.0968709220879
20
0.191309493310968
30
0
41
1
10
7.05839817547795
20
0.13293322621729
30
0
41
1
10
7.04435847721868
20
0.100895602611558
30
0
41
1
10
7.03120573197899
20
0.0456420108795044
30
0
41
1
10
7.02849999999998
20
0.022729660796756
30
0
41
1
10
7.02849999999998
20
1.1653E-12
30
0
0
SPLINE
5
89
100
AcDbEntity
8
1
62
256
6
ByLayer
370
-1
48
1
60
0
100
AcDbSpline
70
4
71
3
72
16
73
12
40
0
40
0
40
0
40
0
40
0.056944617282449
40
0.056944617282449
40
0.279906644834011
40
0.279906644834011
40
0.505321967306612
40
0.505321967306612
40
0.744915047128706
40
0.744915047128706
40
1
40
1
40
1
40
1
41
1
10
7.86270169633966
20
1.44954676283808
30
0
41
1
10
7.85611043850767
20
1.44571673442286
30
0
41
1
10
7.84966332528128
20
1.44162442622232
30
0
41
1
10
7.81903638316095
20
1.42045865075028
30
0
41
1
10
7.79707233299388
20
1.39963106376277
30
0
41
1
10
7.76099236360668
20
1.35336102380472
30
0
41
1
10
7.74648744591676
20
1.32729536171678
30
0
41
1
10
7.72556311777879
20
1.27206196334399
30
0
41
1
10
7.71941779961364
20
1.24212170469437
30
0
41
1
10
7.71614709901056
20
1.18170391695495
30
0
41
1
10
7.71955947877566
20
1.15060073485583
30
0
41
1
10
7.72735553229123
20
1.12150404177703
30
0
0
SPLINE
5
8A
100
AcDbEntity
8
1
62
256
6
ByLayer
370
-1
48
1
60
0
100
AcDbSpline
70
4
71
3
72
16
73
12
40
0
40
0
40
0
40
0
40
0.0630415689508614
40
0.0630415689508614
40
0.285914332024891
40
0.285914332024891
40
0.511588305408775
40
0.511588305408775
40
0.751723061839246
40
0.751723061839246
40
1
40
1
40
1
40
1
41
1
10
7.02849999999998
20
1.1653E-12
30
0
41
1
10
7.02849999999998
20
-0.0084336538317302
30
0
41
1
10
7.02886637125135
20
-0.0168769683492371
30
0
41
1
10
7.03215685658486
20
-0.0547537924303185
30
0
41
1
10
7.039366109589
20
-0.084121608769351
30
0
41
1
10
7.06167591130705
20
-0.138367789842107
30
0
41
1
10
7.07713653407998
20
-0.163884549642631
30
0
41
1
10
7.1147771651801
20
-0.209452916500595
30
0
41
1
10
7.13777097021978
20
-0.229640568251995
30
0
41
1
10
7.18796038179656
20
-0.261951448646471
30
0
41
1
10
7.21582128648319
20
-0.274165762467106
30
0
41
1
10
7.24413460781469
20
-0.281837412129278
30
0
0
SPLINE
5
8B
100
AcDbEntity
8
1
62
256
6
ByLayer
370
-1
48
1
60
0
100
AcDbSpline
70
4
71
3
72
12
73
8
40
0
40
0
40
0
40
0
40
0.495785575728983
40
0.495785575728983
40
0.900238279923959
40
0.900238279923959
40
1
40
1
40
1
40
1
41
1
10
8.21708902263606
20
1.40233678765128
30
0
41
1
10
8.26722639503134
20
1.3516080129578
30
0
41
1
10
8.3270709882722
20
1.30712335145427
30
0
41
1
10
8.44898371124239
20
1.2451607311763
30
0
41
1
10
8.51005376581554
20
1.22366365063652
30
0
41
1
10
8.58948274337959
20
1.20816202596609
30
0
41
1
10
8.60557571954845
20
1.20560657989481
30
0
41
1
10
8.6217782634827
20
1.20362635089711
30
0
0
SPLINE
5
8C
100
AcDbEntity
8
1
62
256
6
ByLayer
370
-1
48
1
60
0
100
AcDbSpline
70
4
71
3
72
14
73
10
40
0
40
0
40
0
40
0
40
0.283961457856642
40
0.283961457856642
40
0.57028493464668
40
0.57028493464668
40
0.829450869060516
40
0.829450869060516
40
1
40
1
40
1
40
1
41
1
10
10.1658653921853
20
-0.281837412129249
30
0
41
1
10
10.198224876365
20
-0.273069432457504
30
0
41
1
10
10.2300567512124
20
-0.258311308207965
30
0
41
1
10
10.2871137085737
20
-0.217815543952469
30
0
41
1
10
10.3131290779121
20
-0.19130949330858
30
0
41
1
10
10.3516018245221
20
-0.132933226214902
30
0
41
1
10
10.3656415227813
20
-0.100895602609171
30
0
41
1
10
10.378794268021
20
-0.0456420108771169
30
0
41
1
10
10.3815
20
-0.022729660794397
30
0
41
1
10
10.3815
20
1.1937E-12
30
0
0
LINE
5
4C
100
AcDbEntity
8
80
62
256
6
ByLayer
370
-1
48
1
60
0
100
AcDbLine
10
0
20
0
30
0
11
-5
21
0
31
0
39
0
210
0
220
0
230
1
0
LINE
5
4D
100
AcDbEntity
8
81
62
256
6
ByLayer
370
-1
48
1
60
0
100
AcDbLine
10
15.11141
20
0.328782
30
0
11
25.11141
21
0.328782
31
0
39
0
210
0
220
0
230
1
0
LINE
5
4E
100
AcDbEntity
8
1
62
256
6
ByLayer
370
-1
48
1
60
0
100
AcDbLine
10
7.907257
20
5.9375
30
0
11
0
21
5.9375
31
0
39
0
210
0
220
0
230
1
0
LINE
5
50
100
AcDbEntity
8
1
62
256
6
ByLayer
370
-1
48
1
60
0
100
AcDbLine
10
3.469805
20
-1.5
30
0
11
2.905
21
-1.5
31
0
39
0
210
0
220
0
230
1
0
LINE
5
51
100
AcDbEntity
8
1
62
256
6
ByLayer
370
-1
48
1
60
0
100
AcDbLine
10
0
20
5.9375
30
0
11
0
21
-5.936208
31
0
39
0
210
0
220
0
230
1
0
LINE
5
52
100
AcDbEntity
8
1
62
256
6
ByLayer
370
-1
48
1
60
0
100
AcDbLine
10
2.905
20
1.5
30
0
11
3.469803
21
1.5
31
0
39
0
210
0
220
0
230
1
0
LINE
5
53
100
AcDbEntity
8
1
62
256
6
ByLayer
370
-1
48
1
60
0
100
AcDbLine
10
0
20
-5.936208
30
0
11
7.905907
21
-5.936208
31
0
39
0
210
0
220
0
230
1
0
LINE
5
54
100
AcDbEntity
8
SK1
62
256
6
ByLayer
370
-1
48
1
60
0
100
AcDbLine
10
-0.15
20
-5.936863
30
0
11
0
21
-5.936208
31
0
39
0
210
0
220
0
230
1
0
LINE
5
56
100
AcDbEntity
8
1
62
256
6
ByLayer
370
-1
48
1
60
0
100
AcDbLine
10
9.266443
20
-6.173749
30
0
11
14.878749
21
-0.561443
31
0
39
0
210
0
220
0
230
1
0
LINE
5
57
100
AcDbEntity
8
1
62
256
6
ByLayer
370
-1
48
1
60
0
100
AcDbLine
10
2.531251
20
-0.561443
30
0
11
8.143557
21
-6.173749
31
0
39
0
210
0
220
0
230
1
0
LINE
5
58
100
AcDbEntity
8
SK1
62
256
6
ByLayer
370
-1
48
1
60
0
100
AcDbLine
10
-0.15
20
5.9375
30
0
11
-0.15
21
-5.9375
31
0
39
0
210
0
220
0
230
1
0
LINE
5
59
100
AcDbEntity
8
SK1
62
256
6
ByLayer
370
-1
48
1
60
0
100
AcDbLine
10
-66.23859
20
5.9375
30
0
11
-66.23859
21
-5.9375
31
0
39
0
210
0
220
0
230
1
0
LINE
5
5A
100
AcDbEntity
8
SK1
62
256
6
ByLayer
370
-1
48
1
60
0
100
AcDbLine
10
-0.15
20
5.9375
30
0
11
-66.23859
21
5.9375
31
0
39
0
210
0
220
0
230
1
0
LINE
5
5B
100
AcDbEntity
8
SK1
62
256
6
ByLayer
370
-1
48
1
60
0
100
AcDbLine
10
0
20
5.9375
30
0
11
-0.15
21
5.9375
31
0
39
0
210
0
220
0
230
1
0
LINE
5
5C
100
AcDbEntity
8
1
62
256
6
ByLayer
370
-1
48
1
60
0
100
AcDbLine
10
8.143557
20
6.173749
30
0
11
2.531251
21
0.561443
31
0
39
0
210
0
220
0
230
1
0
LINE
5
5D
100
AcDbEntity
8
SK1
62
256
6
ByLayer
370
-1
48
1
60
0
100
AcDbLine
10
-66.23859
20
-5.9375
30
0
11
-0.15
21
-5.9375
31
0
39
0
210
0
220
0
230
1
0
LINE
5
5E
100
AcDbEntity
8
SK1
62
256
6
ByLayer
370
-1
48
1
60
0
100
AcDbLine
10
0
20
5.9375
30
0
11
0
21
-5.936208
31
0
39
0
210
0
220
0
230
1
0
LINE
5
5F
100
AcDbEntity
8
1
62
256
6
ByLayer
370
-1
48
1
60
0
100
AcDbLine
10
14.878749
20
0.561443
30
0
11
9.266443
21
6.173749
31
0
39
0
210
0
220
0
230
1
0
LINE
5
60
100
AcDbEntity
8
2
62
256
6
ByLayer
370
-1
48
1
60
1
100
AcDbLine
10
15.11141
20
0.3913
30
0
11
15.112117
21
0.390593
31
0
39
0
210
0
220
0
230
1
0
MTEXT
5
8D
100
AcDbEntity
8
SK6
62
256
6
ByLayer
370
-1
48
1
60
0
100
AcDbMText
10
-37.73765
20
-14.412993
30
0
210
0
220
0
230
1
1
\W00.719;\fsimplex.shx,bigfont.shx;SSDCN 1212F 09-M 
40
3.5
41
0
44
1.084337
50
0
71
7
72
5
7
DEFAULT
0
DIMENSION
5
C1
100
AcDbEntity
8
2
62
256
6
ByLayer
370
-3
48
1
60
0
100
AcDbDimension
2
DimnDraft3D1
10
-1.719477
20
17.222187
30
0
11
-4.527976
21
6.736206
31
0
70
34
71
5
72
1
41
1
210
0
220
0
230
1
3
Standard
100
AcDb2LineAngularDimension
13
15.11141
23
2.856268
33
0
14
15.11141
24
24.193769
34
0
15
12.757606
25
2.745104
35
0
16
-2.189501
26
0.159101
36
0
40
0
0
DIMENSION
5
D6
100
AcDbEntity
8
SK2
62
256
6
ByLayer
370
-3
48
1
60
0
100
AcDbDimension
2
DimnDraft3D2
10
-75.98859
20
5.9375
30
0
11
-75.98859
21
-2.066447
31
0
70
32
71
5
72
1
41
1
210
0
220
0
230
1
3
Standard
100
AcDbAlignedDimension
13
-68.23859
23
-5.9375
33
0
14
-68.23859
24
5.9375
34
0
50
90
100
AcDbRotatedDimension
1001
ACAD
1000
DSTYLE
1002
{
1070
    74
1070
     0
1070
   279
1070
     0
1070
   172
1070
     1
1070
   173
1070
     1
1070
   340
1005
8E
1070
    77
1070
     1
1070
    73
1070
     0
1070
   171
1070
     3
1070
   274
1070
     4
1070
   177
1070
     2
1070
   176
1070
     2
1070
   178
1070
     7
1070
    78
1070
     8
1070
    41
1041
3.175
1070
   147
1041
2.25
1070
    42
1041
2.0
1070
    44
1041
2.0
1070
   140
1041
4.5
1070
   343
1005
C2
1070
   344
1005
C2
1002
}
0
DIMENSION
5
E4
100
AcDbEntity
8
2
62
256
6
ByLayer
370
-3
48
1
60
0
100
AcDbDimension
2
DimnDraft3D3
10
42.36141
20
0.3913
30
0
11
42.36141
21
10.6463
31
0
70
32
71
5
72
1
41
1
210
0
220
0
230
1
3
Standard
100
AcDbAlignedDimension
13
2
23
-5.9375
33
0
14
17.11141
24
0.3913
34
0
50
90
100
AcDbRotatedDimension
1001
ACAD
1000
DSTYLE
1002
{
1070
    74
1070
     0
1070
   279
1070
     0
1070
   172
1070
     1
1070
   173
1070
     1
1070
   340
1005
8E
1070
    77
1070
     1
1070
    73
1070
     0
1070
   171
1070
     3
1070
   274
1070
     4
1070
   177
1070
     2
1070
   176
1070
     2
1070
   178
1070
     7
1070
    78
1070
     8
1070
    41
1041
3.175
1070
   147
1041
2.25
1070
    42
1041
2.0
1070
    44
1041
2.0
1070
   140
1041
4.5
1070
   343
1005
C2
1070
   344
1005
C2
1002
}
0
DIMENSION
5
F2
100
AcDbEntity
8
SK2
62
256
6
ByLayer
370
-3
48
1
60
0
100
AcDbDimension
2
DimnDraft3D4
10
-66.23859
20
20.606268
30
0
11
-28.192537
21
20.606268
31
0
70
32
71
5
72
1
41
1
210
0
220
0
230
1
3
Standard
100
AcDbAlignedDimension
13
15.11141
23
2.856268
33
0
14
-66.23859
24
7.9375
34
0
50
0
100
AcDbRotatedDimension
1001
ACAD
1000
DSTYLE
1002
{
1070
   279
1070
     0
1070
   172
1070
     1
1070
   173
1070
     1
1070
   340
1005
8E
1070
    77
1070
     1
1070
    73
1070
     0
1070
   171
1070
     3
1070
   274
1070
     4
1070
   177
1070
     2
1070
   176
1070
     2
1070
   178
1070
     7
1070
    78
1070
     8
1070
    41
1041
3.175
1070
   147
1041
2.25
1070
    42
1041
2.0
1070
    44
1041
2.0
1070
   140
1041
4.5
1070
   343
1005
C2
1070
   344
1005
C2
1002
}
0
ENDSEC
0
SECTION
2
OBJECTS
0
DICTIONARY
5
122
330
0
100
AcDbDictionary
280
0
281
1
3
ACAD_GROUP
350
123
3
ACAD_MLINESTYLE
350
124
0
DICTIONARY
5
123
330
0
100
AcDbDictionary
280
0
281
1
0
DICTIONARY
5
124
330
0
100
AcDbDictionary
280
0
281
1
3
Standard
350
18
0
MLINESTYLE
5
18
330
124
100
AcDbMlineStyle
2
Standard
70
0
3

62
256
51
90
52
90
71
2
49
-0.5
62
256
6
ByLayer
49
0.5
62
256
6
ByLayer
0
RASTERVARIABLES
5
111
330

100
AcDbRasterVariables
90
0
70
1
71
1
72
1
0
ENDSEC
0
EOF
