0
SECTION
2
HEADER
9
$ACADVER
1
AC1015
9
$DWGCODEPAGE
3
ANSI_1252
9
$HANDSEED
5
14d
9
$ANGBASE
50
0
9
$ANGDIR
70
0
9
$ATTMODE
70
1
9
$AUNITS
70
0
9
$AUPREC
70
0
9
$CECOLOR
62
256
9
$CELTSCALE
40
1
9
$CELTYPE
6
ByLayer
9
$CELWEIGHT
370
-1
9
$CLAYER
8
0
9
$CMLJUST
70
0
9
$CMLSCALE
40
1
9
$CMLSTYLE
2
Standard
9
$DIMSTYLE
2
Standard
9
$TEXTSIZE
40
0.2
9
$TEXTSTYLE
7
Standard
9
$LUNITS
70
2
9
$LUPREC
70
4
9
$EXTNAMES
290
1
9
$INSUNITS
70
4
9
$LTSCALE
40
1
9
$LWDISPLAY
290
0
9
$PDMODE
70
0
9
$PDSIZE
40
0
9
$PLINEGEN
70
0
0
ENDSEC
0
SECTION
2
CLASSES
0
CLASS
1
RASTERVARIABLES
2
AcDbRasterVariables
3
ISM
90
0
280
0
281
0
0
ENDSEC
0
SECTION
2
TABLES
0
TABLE
2
VPORT
5
143
100
AcDbSymbolTable
0
VPORT
5
1
100
AcDbSymbolTableRecord
100
AcDbViewportTableRecord
2
*Active
70
0
10
0
20
0
11
1
21
1
12
-1
22
1
13
0
23
0
14
0.5
24
0.5
15
10
25
10
16
0
26
0
36
1
17
0
27
0
37
0
0
ENDTAB
0
TABLE
2
LTYPE
5
144
100
AcDbSymbolTable
0
LTYPE
5
14
100
AcDbSymbolTableRecord
100
AcDbLinetypeTableRecord
70
0
2
ByBlock
3

72
65
73
0
40
0
0
LTYPE
5
15
100
AcDbSymbolTableRecord
100
AcDbLinetypeTableRecord
70
0
2
ByLayer
3

72
65
73
0
40
0
0
LTYPE
5
16
100
AcDbSymbolTableRecord
100
AcDbLinetypeTableRecord
70
0
2
CONTINUOUS
3
Solid line
72
65
73
0
40
0
0
LTYPE
5
3B
100
AcDbSymbolTableRecord
100
AcDbLinetypeTableRecord
70
0
2
DASHED
3
__ __ __ __ __ __ __ __ __
72
65
73
2
40
25.72
49
12.86
74
0
49
-12.86
74
0
0
LTYPE
5
3C
100
AcDbSymbolTableRecord
100
AcDbLinetypeTableRecord
70
0
2
HIDDEN
3
_ _ _ _ _ _ _ _ _ _ _ _ _ _ _
72
65
73
2
40
0.5
49
0.25
74
0
49
-0.25
74
0
0
LTYPE
5
3D
100
AcDbSymbolTableRecord
100
AcDbLinetypeTableRecord
70
0
2
PHANTOM
3
____ _ _ ____ _ _ _____ _ _ ____
72
65
73
6
40
50.5
49
18
74
0
49
-6.5
74
0
49
6.5
74
0
49
-6.5
74
0
49
6.5
74
0
49
-6.5
74
0
0
LTYPE
5
3E
100
AcDbSymbolTableRecord
100
AcDbLinetypeTableRecord
70
0
2
CENTER
3
____ _ ____ _ ____ _ ____
72
65
73
4
40
47.5
49
22
74
0
49
-8.5
74
0
49
8.5
74
0
49
-8.5
74
0
0
LTYPE
5
3F
100
AcDbSymbolTableRecord
100
AcDbLinetypeTableRecord
70
0
2
DOT
3
.........................
72
65
73
2
40
10
49
0
74
0
49
-10
74
0
0
LTYPE
5
40
100
AcDbSymbolTableRecord
100
AcDbLinetypeTableRecord
70
0
2
DASHDOT
3
_._._._._._._._._._._._._._._._.
72
65
73
4
40
70
49
31
74
0
49
-13
74
0
49
13
74
0
49
-13
74
0
0
ENDTAB
0
TABLE
2
LAYER
5
145
100
AcDbSymbolTable
0
LAYER
5
10
100
AcDbSymbolTableRecord
100
AcDbLayerTableRecord
2
0
70
0
62
7
6
CONTINUOUS
290
1
370
-3
390
0
0
LAYER
5
46
100
AcDbSymbolTableRecord
100
AcDbLayerTableRecord
2
81
70
0
62
-3
6
CONTINUOUS
290
1
370
-3
390
0
0
LAYER
5
48
100
AcDbSymbolTableRecord
100
AcDbLayerTableRecord
2
2
70
0
62
7
6
CONTINUOUS
290
1
370
-3
390
0
0
LAYER
5
4B
100
AcDbSymbolTableRecord
100
AcDbLayerTableRecord
2
80
70
0
62
-6
6
CONTINUOUS
290
1
370
-3
390
0
0
LAYER
5
4F
100
AcDbSymbolTableRecord
100
AcDbLayerTableRecord
2
1
70
0
62
4
6
CONTINUOUS
290
1
370
-3
390
0
0
LAYER
5
130
100
AcDbSymbolTableRecord
100
AcDbLayerTableRecord
2
SK2
70
0
62
7
6
CONTINUOUS
290
1
370
-3
390
0
0
LAYER
5
131
100
AcDbSymbolTableRecord
100
AcDbLayerTableRecord
2
SK1
70
0
62
4
6
CONTINUOUS
290
1
370
-3
390
0
0
LAYER
5
132
100
AcDbSymbolTableRecord
100
AcDbLayerTableRecord
2
SK6
70
0
62
5
6
CONTINUOUS
290
1
370
-3
390
0
0
ENDTAB
0
TABLE
2
STYLE
5
146
100
AcDbSymbolTable
0
STYLE
5
11
100
AcDbSymbolTableRecord
100
AcDbTextStyleTableRecord
2
Standard
3
txt
70
0
71
0
40
0
41
1
42
0
50
0
0
STYLE
5
91
100
AcDbSymbolTableRecord
100
AcDbTextStyleTableRecord
2
DEFAULT
3
simplex.shx
70
0
71
0
40
0
41
1
42
0
50
0
0
STYLE
5
B4
100
AcDbSymbolTableRecord
100
AcDbTextStyleTableRecord
2
DWGDirectTextStyle
3
SIMPLEX
70
0
71
0
40
0
41
1
42
0
50
0
0
ENDTAB
0
TABLE
2
DIMSTYLE
5
147
100
AcDbSymbolTable
100
AcDbDimStyleTable
0
DIMSTYLE
105
27
100
AcDbSymbolTableRecord
100
AcDbDimStyleTableRecord
2
Standard
70
0
3
<>
41
0.18
42
0.0625
44
0.18
140
0.18
147
0.09
73
0
74
0
77
1
271
2
275
0
278
52
280
0
340
11
0
ENDTAB
0
TABLE
2
VIEW
5
148
100
AcDbSymbolTable
0
ENDTAB
0
TABLE
2
UCS
5
149
100
AcDbSymbolTable
0
ENDTAB
0
TABLE
2
APPID
5
14a
100
AcDbSymbolTable
0
APPID
5
12
100
AcDbSymbolTableRecord
100
AcDbRegAppTableRecord
2
ACAD
70
0
0
ENDTAB
0
TABLE
2
BLOCK_RECORD
5
14b
100
AcDbSymbolTable
0
BLOCK_RECORD
5
1F
100
AcDbSymbolTableRecord
100
AcDbBlockTableRecord
2
*Model_Space
340
0
70
0
0
BLOCK_RECORD
5
1B
100
AcDbSymbolTableRecord
100
AcDbBlockTableRecord
2
*Paper_Space
340
0
70
0
0
BLOCK_RECORD
5
23
100
AcDbSymbolTableRecord
100
AcDbBlockTableRecord
2
*Paper_Space0
340
0
70
0
0
BLOCK_RECORD
5
B6
100
AcDbSymbolTableRecord
100
AcDbBlockTableRecord
2
DimnDraft3D11
340
0
70
0
0
BLOCK_RECORD
5
C4
100
AcDbSymbolTableRecord
100
AcDbBlockTableRecord
2
DimnDraft3D2
340
0
70
0
0
BLOCK_RECORD
5
D2
100
AcDbSymbolTableRecord
100
AcDbBlockTableRecord
2
_CLOSED
340
0
70
0
0
BLOCK_RECORD
5
D9
100
AcDbSymbolTableRecord
100
AcDbBlockTableRecord
2
DimnDraft3D3
340
0
70
0
0
BLOCK_RECORD
5
E7
100
AcDbSymbolTableRecord
100
AcDbBlockTableRecord
2
DimnDraft3D4
340
0
70
0
0
BLOCK_RECORD
5
F5
100
AcDbSymbolTableRecord
100
AcDbBlockTableRecord
2
DimnDraft3D5
340
0
70
0
0
BLOCK_RECORD
5
103
100
AcDbSymbolTableRecord
100
AcDbBlockTableRecord
2
DimnDraft3D6
340
0
70
0
0
ENDTAB
0
ENDSEC
0
SECTION
2
BLOCKS
0
BLOCK
5
20
100
AcDbEntity
8
0
100
AcDbBlockBegin
2
*Model_Space
70
0
10
0
20
0
30
0
3
*Model_Space
0
ENDBLK
5
21
100
AcDbEntity
8
0
100
AcDbBlockEnd
0
BLOCK
5
1C
100
AcDbEntity
8
0
100
AcDbBlockBegin
2
*Paper_Space
70
0
10
0
20
0
30
0
3
*Paper_Space
0
ENDBLK
5
1D
100
AcDbEntity
8
0
100
AcDbBlockEnd
0
BLOCK
5
24
100
AcDbEntity
8
0
100
AcDbBlockBegin
2
*Paper_Space0
70
0
10
0
20
0
30
0
3
*Paper_Space0
0
ENDBLK
5
25
100
AcDbEntity
8
0
100
AcDbBlockEnd
0
BLOCK
5
B7
100
AcDbEntity
8
0
100
AcDbBlockBegin
2
DimnDraft3D11
70
0
10
0
20
0
30
0
3
DimnDraft3D11
0
LINE
5
B9
100
AcDbEntity
8
SK2
62
256
6
ByLayer
370
-1
48
1
60
0
100
AcDbLine
10
21.726474
20
-9.057468
30
0
11
21.726474
21
-43.307468
31
0
39
0
210
0
220
0
230
1
0
LINE
5
BA
100
AcDbEntity
8
SK2
62
256
6
ByLayer
370
-1
48
1
60
0
100
AcDbLine
10
-129.623526
20
-14.4375
30
0
11
-129.623526
21
-43.307468
31
0
39
0
210
0
220
0
230
1
0
LINE
5
BB
100
AcDbEntity
8
SK2
62
256
6
ByLayer
370
-1
48
1
60
0
100
AcDbLine
10
21.726474
20
-41.307468
30
0
11
-129.623526
21
-41.307468
31
0
39
0
210
0
220
0
230
1
0
LINE
5
BC
100
AcDbEntity
8
SK2
62
256
6
ByLayer
370
-1
48
1
60
0
100
AcDbLine
10
21.726474
20
-41.307468
30
0
11
18.551476
21
-41.725465
31
0
39
0
210
0
220
0
230
1
0
LINE
5
BD
100
AcDbEntity
8
SK2
62
256
6
ByLayer
370
-1
48
1
60
0
100
AcDbLine
10
21.726474
20
-41.307468
30
0
11
18.551473
21
-40.889471
31
0
39
0
210
0
220
0
230
1
0
LINE
5
BE
100
AcDbEntity
8
SK2
62
256
6
ByLayer
370
-1
48
1
60
0
100
AcDbLine
10
18.551476
20
-41.725465
30
0
11
18.551473
21
-40.889471
31
0
39
0
210
0
220
0
230
1
0
LINE
5
BF
100
AcDbEntity
8
SK2
62
256
6
ByLayer
370
-1
48
1
60
0
100
AcDbLine
10
-129.623526
20
-41.307468
30
0
11
-126.448527
21
-40.889471
31
0
39
0
210
0
220
0
230
1
0
LINE
5
C0
100
AcDbEntity
8
SK2
62
256
6
ByLayer
370
-1
48
1
60
0
100
AcDbLine
10
-129.623526
20
-41.307468
30
0
11
-126.448524
21
-41.725465
31
0
39
0
210
0
220
0
230
1
0
LINE
5
C1
100
AcDbEntity
8
SK2
62
256
6
ByLayer
370
-1
48
1
60
0
100
AcDbLine
10
-126.448527
20
-40.889471
30
0
11
-126.448524
21
-41.725465
31
0
39
0
210
0
220
0
230
1
0
MTEXT
5
C2
100
AcDbEntity
8
SK2
62
256
6
ByLayer
370
-1
48
1
60
0
100
AcDbMText
10
-56.541947
20
-40.182468
30
0
210
0
220
0
230
1
1
\W00.604;\fsimplex.shx,bigfont.shx;150 
40
4.5
41
0
44
1.084337
50
0
71
7
72
5
7
DEFAULT
0
ENDBLK
5
B8
100
AcDbEntity
8
0
100
AcDbBlockEnd
0
BLOCK
5
CF
100
AcDbEntity
8
0
100
AcDbBlockBegin
2
DimnDraft3D2
70
0
10
0
20
0
30
0
3
DimnDraft3D2
0
MTEXT
5
C5
100
AcDbEntity
8
2
62
256
6
ByLayer
370
-1
48
1
60
0
100
AcDbMText
10
30.047273
20
27.823181
30
0
210
0
220
0
230
1
1
\W01.000;\fsimplex.shx,bigfont.shx;45%%d0' 
40
4.5
41
0
44
1.084337
50
337.5
71
7
72
5
7
DEFAULT
0
LINE
5
C6
100
AcDbEntity
8
2
62
256
6
ByLayer
370
-1
48
1
60
0
100
AcDbLine
10
21.726474
20
-3.469968
30
0
11
21.726474
21
29.262675
31
0
39
0
210
0
220
0
230
1
0
LINE
5
C7
100
AcDbEntity
8
2
62
256
6
ByLayer
370
-1
48
1
60
0
100
AcDbLine
10
22.908204
20
-5.41077
30
0
11
47.079912
21
18.760938
31
0
39
0
210
0
220
0
230
1
0
ARC
5
C8
100
AcDbEntity
8
2
62
256
6
ByLayer
370
-1
48
1
60
0
100
AcDbCircle
39
0
10
21.726474
20
-6.5925
30
0
40
33.8551752983103
210
0
220
0
230
1
100
AcDbArc
50
45
51
90
0
LINE
5
C9
100
AcDbEntity
8
2
62
256
6
ByLayer
370
-1
48
1
60
0
100
AcDbLine
10
21.726474
20
27.262675
30
0
11
24.910393
21
27.606179
31
0
39
0
210
0
220
0
230
1
0
LINE
5
CA
100
AcDbEntity
8
2
62
256
6
ByLayer
370
-1
48
1
60
0
100
AcDbLine
10
21.726474
20
27.262675
30
0
11
24.890812
21
26.770415
31
0
39
0
210
0
220
0
230
1
0
LINE
5
CB
100
AcDbEntity
8
2
62
256
6
ByLayer
370
-1
48
1
60
0
100
AcDbLine
10
24.910393
20
27.606179
30
0
11
24.890812
21
26.770415
31
0
39
0
210
0
220
0
230
1
0
LINE
5
CC
100
AcDbEntity
8
2
62
256
6
ByLayer
370
-1
48
1
60
0
100
AcDbLine
10
45.665698
20
17.346724
30
0
11
43.080095
21
19.236166
31
0
39
0
210
0
220
0
230
1
0
LINE
5
CD
100
AcDbEntity
8
2
62
256
6
ByLayer
370
-1
48
1
60
0
100
AcDbLine
10
45.665698
20
17.346724
30
0
11
43.657219
21
19.840991
31
0
39
0
210
0
220
0
230
1
0
LINE
5
CE
100
AcDbEntity
8
2
62
256
6
ByLayer
370
-1
48
1
60
0
100
AcDbLine
10
43.080095
20
19.236166
30
0
11
43.657219
21
19.840991
31
0
39
0
210
0
220
0
230
1
0
ENDBLK
5
D0
100
AcDbEntity
8
0
100
AcDbBlockEnd
0
BLOCK
5
D3
100
AcDbEntity
8
0
100
AcDbBlockBegin
2
_CLOSED
70
0
10
0
20
0
30
0
3
_CLOSED
0
LINE
5
D5
100
AcDbEntity
8
0
62
256
6
ByLayer
370
-2
48
1
60
0
100
AcDbLine
10
-1
20
0.166667
30
0
11
0
21
0
31
0
39
0
210
0
220
0
230
1
0
LINE
5
D6
100
AcDbEntity
8
0
62
256
6
ByLayer
370
-2
48
1
60
0
100
AcDbLine
10
0
20
0
30
0
11
-1
21
-0.166667
31
0
39
0
210
0
220
0
230
1
0
LINE
5
D7
100
AcDbEntity
8
0
62
256
6
ByLayer
370
-2
48
1
60
0
100
AcDbLine
10
-1
20
0.166667
30
0
11
-1
21
-0.166667
31
0
39
0
210
0
220
0
230
1
0
LINE
5
D8
100
AcDbEntity
8
0
62
256
6
ByLayer
370
-2
48
1
60
0
100
AcDbLine
10
0
20
0
30
0
11
-1
21
0
31
0
39
0
210
0
220
0
230
1
0
ENDBLK
5
D4
100
AcDbEntity
8
0
100
AcDbBlockEnd
0
BLOCK
5
E4
100
AcDbEntity
8
0
100
AcDbBlockBegin
2
DimnDraft3D3
70
0
10
0
20
0
30
0
3
DimnDraft3D3
0
MTEXT
5
DA
100
AcDbEntity
8
SK2
62
256
6
ByLayer
370
-1
48
1
60
0
100
AcDbMText
10
-64.331335
20
-30.182468
30
0
210
0
220
0
230
1
1
\W01.000;\fsimplex.shx,bigfont.shx;141.68 
40
4.5
41
0
44
1.084337
50
0
71
7
72
5
7
DEFAULT
0
LINE
5
DB
100
AcDbEntity
8
SK2
62
256
6
ByLayer
370
-1
48
1
60
0
100
AcDbLine
10
13.86875
20
-16.915192
30
0
11
13.86875
21
-33.307468
31
0
39
0
210
0
220
0
230
1
0
LINE
5
DC
100
AcDbEntity
8
SK2
62
256
6
ByLayer
370
-1
48
1
60
0
100
AcDbLine
10
-129.623526
20
-14.4375
30
0
11
-129.623526
21
-33.307468
31
0
39
0
210
0
220
0
230
1
0
LINE
5
DD
100
AcDbEntity
8
SK2
62
256
6
ByLayer
370
-1
48
1
60
0
100
AcDbLine
10
13.86875
20
-31.307468
30
0
11
-129.623526
21
-31.307468
31
0
39
0
210
0
220
0
230
1
0
LINE
5
DE
100
AcDbEntity
8
SK2
62
256
6
ByLayer
370
-1
48
1
60
0
100
AcDbLine
10
13.86875
20
-31.307468
30
0
11
10.693752
21
-31.725465
31
0
39
0
210
0
220
0
230
1
0
LINE
5
DF
100
AcDbEntity
8
SK2
62
256
6
ByLayer
370
-1
48
1
60
0
100
AcDbLine
10
13.86875
20
-31.307468
30
0
11
10.693748
21
-30.889471
31
0
39
0
210
0
220
0
230
1
0
LINE
5
E0
100
AcDbEntity
8
SK2
62
256
6
ByLayer
370
-1
48
1
60
0
100
AcDbLine
10
10.693752
20
-31.725465
30
0
11
10.693748
21
-30.889471
31
0
39
0
210
0
220
0
230
1
0
LINE
5
E1
100
AcDbEntity
8
SK2
62
256
6
ByLayer
370
-1
48
1
60
0
100
AcDbLine
10
-129.623526
20
-31.307468
30
0
11
-126.448527
21
-30.889471
31
0
39
0
210
0
220
0
230
1
0
LINE
5
E2
100
AcDbEntity
8
SK2
62
256
6
ByLayer
370
-1
48
1
60
0
100
AcDbLine
10
-129.623526
20
-31.307468
30
0
11
-126.448524
21
-31.725465
31
0
39
0
210
0
220
0
230
1
0
LINE
5
E3
100
AcDbEntity
8
SK2
62
256
6
ByLayer
370
-1
48
1
60
0
100
AcDbLine
10
-126.448527
20
-30.889471
30
0
11
-126.448524
21
-31.725465
31
0
39
0
210
0
220
0
230
1
0
ENDBLK
5
E5
100
AcDbEntity
8
0
100
AcDbBlockEnd
0
BLOCK
5
F2
100
AcDbEntity
8
0
100
AcDbBlockBegin
2
DimnDraft3D4
70
0
10
0
20
0
30
0
3
DimnDraft3D4
0
MTEXT
5
E8
100
AcDbEntity
8
2
62
256
6
ByLayer
370
-1
48
1
60
0
100
AcDbMText
10
57.851474
20
-6.928978
30
0
210
0
220
0
230
1
1
\W01.000;\fsimplex.shx,bigfont.shx;27.00 
40
4.5
41
0
44
1.084337
50
90
71
7
72
5
7
DEFAULT
0
LINE
5
E9
100
AcDbEntity
8
2
62
256
6
ByLayer
370
-1
48
1
60
0
100
AcDbLine
10
2
20
12.4375
30
0
11
60.976474
21
12.4375
31
0
39
0
210
0
220
0
230
1
0
LINE
5
EA
100
AcDbEntity
8
2
62
256
6
ByLayer
370
-1
48
1
60
0
100
AcDbLine
10
15.86875
20
-14.915192
30
0
11
60.976474
21
-14.915192
31
0
39
0
210
0
220
0
230
1
0
LINE
5
EB
100
AcDbEntity
8
2
62
256
6
ByLayer
370
-1
48
1
60
0
100
AcDbLine
10
58.976474
20
12.4375
30
0
11
58.976474
21
-14.915192
31
0
39
0
210
0
220
0
230
1
0
LINE
5
EC
100
AcDbEntity
8
2
62
256
6
ByLayer
370
-1
48
1
60
0
100
AcDbLine
10
58.976474
20
12.4375
30
0
11
59.394471
21
9.262502
31
0
39
0
210
0
220
0
230
1
0
LINE
5
ED
100
AcDbEntity
8
2
62
256
6
ByLayer
370
-1
48
1
60
0
100
AcDbLine
10
58.976474
20
12.4375
30
0
11
58.558477
21
9.262498
31
0
39
0
210
0
220
0
230
1
0
LINE
5
EE
100
AcDbEntity
8
2
62
256
6
ByLayer
370
-1
48
1
60
0
100
AcDbLine
10
59.394471
20
9.262502
30
0
11
58.558477
21
9.262498
31
0
39
0
210
0
220
0
230
1
0
LINE
5
EF
100
AcDbEntity
8
2
62
256
6
ByLayer
370
-1
48
1
60
0
100
AcDbLine
10
58.976474
20
-14.915192
30
0
11
58.558477
21
-11.740194
31
0
39
0
210
0
220
0
230
1
0
LINE
5
F0
100
AcDbEntity
8
2
62
256
6
ByLayer
370
-1
48
1
60
0
100
AcDbLine
10
58.976474
20
-14.915192
30
0
11
59.394471
21
-11.740191
31
0
39
0
210
0
220
0
230
1
0
LINE
5
F1
100
AcDbEntity
8
2
62
256
6
ByLayer
370
-1
48
1
60
0
100
AcDbLine
10
58.558477
20
-11.740194
30
0
11
59.394471
21
-11.740191
31
0
39
0
210
0
220
0
230
1
0
ENDBLK
5
F3
100
AcDbEntity
8
0
100
AcDbBlockEnd
0
BLOCK
5
100
100
AcDbEntity
8
0
100
AcDbBlockBegin
2
DimnDraft3D5
70
0
10
0
20
0
30
0
3
DimnDraft3D5
0
MTEXT
5
F6
100
AcDbEntity
8
2
62
256
6
ByLayer
370
-1
48
1
60
0
100
AcDbMText
10
47.851474
20
-2.205132
30
0
210
0
220
0
230
1
1
\W01.000;\fsimplex.shx,bigfont.shx;18.68 
40
4.5
41
0
44
1.084337
50
90
71
7
72
5
7
DEFAULT
0
LINE
5
F7
100
AcDbEntity
8
2
62
256
6
ByLayer
370
-1
48
1
60
0
100
AcDbLine
10
2
20
12.4375
30
0
11
50.976474
21
12.4375
31
0
39
0
210
0
220
0
230
1
0
LINE
5
F8
100
AcDbEntity
8
2
62
256
6
ByLayer
370
-1
48
1
60
0
100
AcDbLine
10
23.726474
20
-6.5925
30
0
11
50.976474
21
-6.5925
31
0
39
0
210
0
220
0
230
1
0
LINE
5
F9
100
AcDbEntity
8
2
62
256
6
ByLayer
370
-1
48
1
60
0
100
AcDbLine
10
48.976474
20
23.6875
30
0
11
48.976474
21
-17.8425
31
0
39
0
210
0
220
0
230
1
0
LINE
5
FA
100
AcDbEntity
8
2
62
256
6
ByLayer
370
-1
48
1
60
0
100
AcDbLine
10
48.976474
20
12.4375
30
0
11
48.558477
21
15.612498
31
0
39
0
210
0
220
0
230
1
0
LINE
5
FB
100
AcDbEntity
8
2
62
256
6
ByLayer
370
-1
48
1
60
0
100
AcDbLine
10
48.976474
20
12.4375
30
0
11
49.394471
21
15.612502
31
0
39
0
210
0
220
0
230
1
0
LINE
5
FC
100
AcDbEntity
8
2
62
256
6
ByLayer
370
-1
48
1
60
0
100
AcDbLine
10
48.558477
20
15.612498
30
0
11
49.394471
21
15.612502
31
0
39
0
210
0
220
0
230
1
0
LINE
5
FD
100
AcDbEntity
8
2
62
256
6
ByLayer
370
-1
48
1
60
0
100
AcDbLine
10
48.976474
20
-6.5925
30
0
11
49.394471
21
-9.767498
31
0
39
0
210
0
220
0
230
1
0
LINE
5
FE
100
AcDbEntity
8
2
62
256
6
ByLayer
370
-1
48
1
60
0
100
AcDbLine
10
48.976474
20
-6.5925
30
0
11
48.558477
21
-9.767502
31
0
39
0
210
0
220
0
230
1
0
LINE
5
FF
100
AcDbEntity
8
2
62
256
6
ByLayer
370
-1
48
1
60
0
100
AcDbLine
10
49.394471
20
-9.767498
30
0
11
48.558477
21
-9.767502
31
0
39
0
210
0
220
0
230
1
0
ENDBLK
5
101
100
AcDbEntity
8
0
100
AcDbBlockEnd
0
BLOCK
5
10E
100
AcDbEntity
8
0
100
AcDbBlockBegin
2
DimnDraft3D6
70
0
10
0
20
0
30
0
3
DimnDraft3D6
0
MTEXT
5
104
100
AcDbEntity
8
SK2
62
256
6
ByLayer
370
-1
48
1
60
0
100
AcDbMText
10
-140.498526
20
-1.503947
30
0
210
0
220
0
230
1
1
\W01.000;\fsimplex.shx,bigfont.shx;25 
40
4.5
41
0
44
1.084337
50
90
71
7
72
5
7
DEFAULT
0
LINE
5
105
100
AcDbEntity
8
SK2
62
256
6
ByLayer
370
-1
48
1
60
0
100
AcDbLine
10
-131.623526
20
12.4375
30
0
11
-141.373526
21
12.4375
31
0
39
0
210
0
220
0
230
1
0
LINE
5
106
100
AcDbEntity
8
SK2
62
256
6
ByLayer
370
-1
48
1
60
0
100
AcDbLine
10
-131.623526
20
-12.4375
30
0
11
-141.373526
21
-12.4375
31
0
39
0
210
0
220
0
230
1
0
LINE
5
107
100
AcDbEntity
8
SK2
62
256
6
ByLayer
370
-1
48
1
60
0
100
AcDbLine
10
-139.373526
20
12.4375
30
0
11
-139.373526
21
-12.4375
31
0
39
0
210
0
220
0
230
1
0
LINE
5
108
100
AcDbEntity
8
SK2
62
256
6
ByLayer
370
-1
48
1
60
0
100
AcDbLine
10
-139.373526
20
12.4375
30
0
11
-138.955529
21
9.262502
31
0
39
0
210
0
220
0
230
1
0
LINE
5
109
100
AcDbEntity
8
SK2
62
256
6
ByLayer
370
-1
48
1
60
0
100
AcDbLine
10
-139.373526
20
12.4375
30
0
11
-139.791523
21
9.262498
31
0
39
0
210
0
220
0
230
1
0
LINE
5
10A
100
AcDbEntity
8
SK2
62
256
6
ByLayer
370
-1
48
1
60
0
100
AcDbLine
10
-138.955529
20
9.262502
30
0
11
-139.791523
21
9.262498
31
0
39
0
210
0
220
0
230
1
0
LINE
5
10B
100
AcDbEntity
8
SK2
62
256
6
ByLayer
370
-1
48
1
60
0
100
AcDbLine
10
-139.373526
20
-12.4375
30
0
11
-139.791523
21
-9.262502
31
0
39
0
210
0
220
0
230
1
0
LINE
5
10C
100
AcDbEntity
8
SK2
62
256
6
ByLayer
370
-1
48
1
60
0
100
AcDbLine
10
-139.373526
20
-12.4375
30
0
11
-138.955529
21
-9.262498
31
0
39
0
210
0
220
0
230
1
0
LINE
5
10D
100
AcDbEntity
8
SK2
62
256
6
ByLayer
370
-1
48
1
60
0
100
AcDbLine
10
-139.791523
20
-9.262502
30
0
11
-138.955529
21
-9.262498
31
0
39
0
210
0
220
0
230
1
0
ENDBLK
5
10F
100
AcDbEntity
8
0
100
AcDbBlockEnd
0
ENDSEC
0
SECTION
2
ENTITIES
0
ARC
5
64
100
AcDbEntity
8
1
62
256
6
ByLayer
370
-1
48
1
60
0
100
AcDbCircle
39
0
10
-4.175
20
-6.263718
30
0
40
1.5
210
0
220
0
230
-1
100
AcDbArc
50
270
51
90
0
ARC
5
65
100
AcDbEntity
8
1
62
256
6
ByLayer
370
-1
48
1
60
0
100
AcDbCircle
39
0
10
-13.075
20
-6.263718
30
0
40
1.20650000000003
210
0
220
0
230
-1
100
AcDbArc
50
150.079943
51
209.920057
0
ARC
5
67
100
AcDbEntity
8
1
62
256
6
ByLayer
370
-1
48
1
60
0
100
AcDbCircle
39
0
10
5.217629
20
-6.263718
30
0
40
0.79400000000006
210
0
220
0
230
1
100
AcDbArc
50
135
51
225
0
ARC
5
68
100
AcDbEntity
8
1
62
256
6
ByLayer
370
-1
48
1
60
0
100
AcDbCircle
39
0
10
13.075
20
-6.263718
30
0
40
1.20650000000003
210
0
220
0
230
1
100
AcDbArc
50
86.044721
51
93.955279
0
ARC
5
6B
100
AcDbEntity
8
1
62
256
6
ByLayer
370
-1
48
1
60
0
100
AcDbCircle
39
0
10
13.075
20
-6.263718
30
0
40
1.20650000000003
210
0
220
0
230
1
100
AcDbArc
50
266.044721
51
273.955279
0
ARC
5
6C
100
AcDbEntity
8
1
62
256
6
ByLayer
370
-1
48
1
60
0
100
AcDbCircle
39
0
10
13.075
20
-6.263718
30
0
40
1.67650000000002
210
0
220
0
230
1
100
AcDbArc
50
239.840113
51
300.159887
0
ARC
5
6D
100
AcDbEntity
8
1
62
256
6
ByLayer
370
-1
48
1
60
0
100
AcDbCircle
39
0
10
13.075
20
-6.263718
30
0
40
1.20650000000003
210
0
220
0
230
1
100
AcDbArc
50
209.920057
51
266.044721
0
ARC
5
6E
100
AcDbEntity
8
1
62
256
6
ByLayer
370
-1
48
1
60
0
100
AcDbCircle
39
0
10
13.075
20
-14.121089
30
0
40
0.794000000000038
210
0
220
0
230
1
100
AcDbArc
50
225
51
315
0
ARC
5
70
100
AcDbEntity
8
1
62
256
6
ByLayer
370
-1
48
1
60
0
100
AcDbCircle
39
0
10
-13.075
20
-6.263718
30
0
40
1.20650000000003
210
0
220
0
230
-1
100
AcDbArc
50
29.920057
51
86.044721
0
ARC
5
71
100
AcDbEntity
8
1
62
256
6
ByLayer
370
-1
48
1
60
0
100
AcDbCircle
39
0
10
13.075
20
-6.263718
30
0
40
1.67650000000002
210
0
220
0
230
1
100
AcDbArc
50
120.159887
51
180
0
ARC
5
72
100
AcDbEntity
8
1
62
256
6
ByLayer
370
-1
48
1
60
0
100
AcDbCircle
39
0
10
-13.075
20
-6.263718
30
0
40
1.20650000000003
210
0
220
0
230
-1
100
AcDbArc
50
330.079943
51
29.920057
0
ARC
5
73
100
AcDbEntity
8
1
62
256
6
ByLayer
370
-1
48
1
60
0
100
AcDbCircle
39
0
10
20.932371
20
-6.263718
30
0
40
0.794000000000006
210
0
220
0
230
1
100
AcDbArc
50
315
51
45
0
ARC
5
75
100
AcDbEntity
8
1
62
256
6
ByLayer
370
-1
48
1
60
0
100
AcDbCircle
39
0
10
13.075
20
-6.263718
30
0
40
1.67650000000002
210
0
220
0
230
1
100
AcDbArc
50
300.159887
51
0
0
ARC
5
76
100
AcDbEntity
8
1
62
256
6
ByLayer
370
-1
48
1
60
0
100
AcDbCircle
39
0
10
13.075
20
-6.263718
30
0
40
1.67650000000002
210
0
220
0
230
1
100
AcDbArc
50
0
51
59.840113
0
ARC
5
77
100
AcDbEntity
8
1
62
256
6
ByLayer
370
-1
48
1
60
0
100
AcDbCircle
39
0
10
13.075
20
-6.263718
30
0
40
1.67650000000002
210
0
220
0
230
1
100
AcDbArc
50
59.840113
51
120.159887
0
ARC
5
78
100
AcDbEntity
8
1
62
256
6
ByLayer
370
-1
48
1
60
0
100
AcDbCircle
39
0
10
13.075
20
1.593653
30
0
40
0.794000000000027
210
0
220
0
230
1
100
AcDbArc
50
45
51
135
0
ARC
5
79
100
AcDbEntity
8
1
62
256
6
ByLayer
370
-1
48
1
60
0
100
AcDbCircle
39
0
10
13.075
20
-6.263718
30
0
40
1.67650000000002
210
0
220
0
230
1
100
AcDbArc
50
180
51
239.840113
0
ARC
5
7A
100
AcDbEntity
8
1
62
256
6
ByLayer
370
-1
48
1
60
0
100
AcDbCircle
39
0
10
-13.075
20
-6.263718
30
0
40
1.20650000000003
210
0
220
0
230
-1
100
AcDbArc
50
93.955279
51
150.079943
0
ARC
5
7B
100
AcDbEntity
8
1
62
256
6
ByLayer
370
-1
48
1
60
0
100
AcDbCircle
39
0
10
-13.075
20
-6.263718
30
0
40
1.20650000000003
210
0
220
0
230
-1
100
AcDbArc
50
209.920057
51
266.044721
0
CIRCLE
5
66
100
AcDbEntity
8
1
62
256
6
ByLayer
370
-1
48
1
60
0
100
AcDbCircle
10
-13.075
20
-6.263718
30
0
40
3.93651081363664
39
0
210
0
220
0
230
-1
0
CIRCLE
5
69
100
AcDbEntity
8
1
62
256
6
ByLayer
370
-1
48
1
60
0
100
AcDbCircle
10
13.075
20
-6.263718
30
0
40
3.42500000000001
39
0
210
0
220
0
230
1
0
CIRCLE
5
6A
100
AcDbEntity
8
1
62
256
6
ByLayer
370
-1
48
1
60
0
100
AcDbCircle
10
13.075
20
-6.263718
30
0
40
2.40000000000001
39
0
210
0
220
0
230
1
0
CIRCLE
5
6F
100
AcDbEntity
8
1
62
256
6
ByLayer
370
-1
48
1
60
0
100
AcDbCircle
10
13.075
20
-6.263718
30
0
40
4.0713253481824
39
0
210
0
220
0
230
1
0
CIRCLE
5
74
100
AcDbEntity
8
1
62
256
6
ByLayer
370
-1
48
1
60
0
100
AcDbCircle
10
13.075
20
-6.263718
30
0
40
4.00697067753277
39
0
210
0
220
0
230
1
0
POINT
5
41
100
AcDbEntity
8
SK2
62
256
6
ByLayer
370
-1
48
1
60
0
100
AcDbPoint
10
21.726474
20
31.4675
30
0
39
0
210
0
220
0
230
1
50
360
0
POINT
5
43
100
AcDbEntity
8
SK2
62
256
6
ByLayer
370
-1
48
1
60
0
100
AcDbPoint
10
21.726474
20
31.4675
30
0
39
0
210
0
220
0
230
1
50
360
0
POINT
5
44
100
AcDbEntity
8
SK2
62
256
6
ByLayer
370
-1
48
1
60
0
100
AcDbPoint
10
21.726474
20
31.4675
30
0
39
0
210
0
220
0
230
1
50
360
0
POINT
5
45
100
AcDbEntity
8
81
62
256
6
ByLayer
370
-1
48
1
60
0
100
AcDbPoint
10
21.726474
20
-6.5925
30
0
39
0
210
0
220
0
230
1
50
360
0
POINT
5
47
100
AcDbEntity
8
2
62
256
6
ByLayer
370
-1
48
1
60
0
100
AcDbPoint
10
21.726474
20
31.4675
30
0
39
0
210
0
220
0
230
1
50
360
0
POINT
5
49
100
AcDbEntity
8
SK2
62
256
6
ByLayer
370
-1
48
1
60
0
100
AcDbPoint
10
21.726474
20
31.4675
30
0
39
0
210
0
220
0
230
1
50
360
0
POINT
5
4A
100
AcDbEntity
8
80
62
256
6
ByLayer
370
-1
48
1
60
0
100
AcDbPoint
10
0
20
0
30
0
39
0
210
0
220
0
230
1
50
360
0
SPLINE
5
7C
100
AcDbEntity
8
1
62
256
6
ByLayer
370
-1
48
1
60
0
100
AcDbSpline
70
4
71
3
72
18
73
14
40
0
40
0
40
0
40
0
40
0.212491592102427
40
0.212491592102427
40
0.386618191488449
40
0.386618191488449
40
0.562426295050772
40
0.562426295050772
40
0.715388354469415
40
0.715388354469415
40
0.918249128147109
40
0.918249128147109
40
1
40
1
40
1
40
1
41
1
10
11.6141346078147
20
-6.5455553969968
30
0
41
1
10
11.6826377234846
20
-6.56411669180326
30
0
41
1
10
11.7505281692806
20
-6.59409979377696
30
0
41
1
10
11.8643042659934
20
-6.669314508518
30
0
41
1
10
11.9131447067793
20
-6.71179862828447
30
0
41
1
10
11.9976584213301
20
-6.81026392927882
30
0
41
1
10
12.0343084642177
20
-6.86795427175971
30
0
41
1
10
12.0845397827942
20
-6.9804218955789
30
0
41
1
10
12.1011788551476
20
-7.03590869890377
30
0
41
1
10
12.1231460100679
20
-7.16258032262522
30
0
41
1
10
12.1236375455765
20
-7.23513714642667
30
0
41
1
10
12.1100961139312
20
-7.33122455761085
30
0
41
1
10
12.1044985996203
20
-7.35856243056577
30
0
41
1
10
12.0973555322913
20
-7.3852220266422
30
0
0
SPLINE
5
7D
100
AcDbEntity
8
1
62
256
6
ByLayer
370
-1
48
1
60
0
100
AcDbSpline
70
4
71
3
72
16
73
12
40
0
40
0
40
0
40
0
40
0.0624450082614467
40
0.0624450082614467
40
0.283207995985856
40
0.283207995985856
40
0.5067456888336
40
0.5067456888336
40
0.744607284737035
40
0.744607284737035
40
1
40
1
40
1
40
1
41
1
10
13.9172983036603
20
-7.71326474770325
30
0
41
1
10
13.9100063168154
20
-7.71750195364044
30
0
41
1
10
13.9025219054686
20
-7.72142723681199
30
0
41
1
10
13.8681193722799
20
-7.73761207140231
30
0
41
1
10
13.8391051359831
20
-7.74613357349497
30
0
41
1
10
13.7809936615192
20
-7.75409798644779
30
0
41
1
10
13.7511635434263
20
-7.75355030604544
30
0
41
1
10
13.6928527076446
20
-7.74389941158447
30
0
41
1
10
13.6638454989234
20
-7.73416091747012
30
0
41
1
10
13.609675357999
20
-7.7064793545008
30
0
41
1
10
13.5842846144057
20
-7.68768052524476
30
0
41
1
10
13.562910977364
20
-7.66605477251645
30
0
0
SPLINE
5
7E
100
AcDbEntity
8
1
62
256
6
ByLayer
370
-1
48
1
60
0
100
AcDbSpline
70
4
71
3
72
14
73
10
40
0
40
0
40
0
40
0
40
0.28396174903672
40
0.28396174903672
40
0.570285189259053
40
0.570285189259053
40
0.829451094335688
40
0.829451094335688
40
1
40
1
40
1
40
1
41
1
10
14.0526444677088
20
-7.3852220266422
30
0
41
1
10
14.0613213284041
20
-7.41760609789489
30
0
41
1
10
14.0645538598036
20
-7.45254352682528
30
0
41
1
10
14.0582063654842
20
-7.52222219948038
30
0
41
1
10
14.0483590177569
20
-7.55803280770829
30
0
41
1
10
14.0172145913697
20
-7.62062645473665
30
0
41
1
10
13.9965677486005
20
-7.64886171839964
30
0
41
1
10
13.9554021593367
20
-7.6879941172981
30
0
41
1
10
13.9369509507641
20
-7.70184504621975
30
0
41
1
10
13.9172983036603
20
-7.71326474770325
30
0
0
SPLINE
5
7F
100
AcDbEntity
8
1
62
256
6
ByLayer
370
-1
48
1
60
0
100
AcDbSpline
70
4
71
3
72
12
73
8
40
0
40
0
40
0
40
0
40
0.422118641230037
40
0.422118641230037
40
0.84321363374776
40
0.84321363374776
40
1
40
1
40
1
40
1
41
1
10
13.1582217365175
20
-7.46734433576228
30
0
41
1
10
13.2256692015514
20
-7.47558757377629
30
0
41
1
10
13.2916583591439
20
-7.49418059280771
30
0
41
1
10
13.4102727818935
20
-7.54628706514765
30
0
41
1
10
13.4646424112884
20
-7.58032734390918
30
0
41
1
10
13.5299269994415
20
-7.63430093908033
30
0
41
1
10
13.5468816459019
20
-7.64983636486207
30
0
41
1
10
13.562910977364
20
-7.66605477251645
30
0
0
SPLINE
5
80
100
AcDbEntity
8
1
62
256
6
ByLayer
370
-1
48
1
60
0
100
AcDbSpline
70
4
71
3
72
12
73
8
40
0
40
0
40
0
40
0
40
0.495785575729033
40
0.495785575729033
40
0.900238279924236
40
0.900238279924236
40
1
40
1
40
1
40
1
41
1
10
12.5870890226361
20
-7.66605477251642
30
0
41
1
10
12.6372263950313
20
-7.61532599782296
30
0
41
1
10
12.6970709882722
20
-7.57084133631943
30
0
41
1
10
12.8189837112424
20
-7.50887871604147
30
0
41
1
10
12.8800537658155
20
-7.48738163550169
30
0
41
1
10
12.9594827433796
20
-7.47188001083128
30
0
41
1
10
12.9755757195484
20
-7.46932456476
30
0
41
1
10
12.9917782634825
20
-7.46734433576231
30
0
0
SPLINE
5
81
100
AcDbEntity
8
1
62
256
6
ByLayer
370
-1
48
1
60
0
100
AcDbSpline
70
4
71
3
72
16
73
12
40
0
40
0
40
0
40
0
40
0.0624450082614426
40
0.0624450082614426
40
0.283207995985819
40
0.283207995985819
40
0.506745688833534
40
0.506745688833534
40
0.744607284736937
40
0.744607284736937
40
1
40
1
40
1
40
1
41
1
10
12.2327016963397
20
-4.81417122202944
30
0
41
1
10
12.2399936831846
20
-4.80993401609223
30
0
41
1
10
12.2474780945315
20
-4.8060087329207
30
0
41
1
10
12.2818806277201
20
-4.78982389833035
30
0
41
1
10
12.3108948640169
20
-4.78130239623772
30
0
41
1
10
12.3690063384809
20
-4.7733379832849
30
0
41
1
10
12.3988364565738
20
-4.77388566368722
30
0
41
1
10
12.4571472923555
20
-4.78353655814823
30
0
41
1
10
12.4861545010767
20
-4.79327505226254
30
0
41
1
10
12.540324642001
20
-4.82095661523189
30
0
41
1
10
12.5657153855944
20
-4.83975544448793
30
0
41
1
10
12.5870890226361
20
-4.86138119721628
30
0
0
SPLINE
5
82
100
AcDbEntity
8
1
62
256
6
ByLayer
370
-1
48
1
60
0
100
AcDbSpline
70
4
71
3
72
12
73
8
40
0
40
0
40
0
40
0
40
0.422118641230005
40
0.422118641230005
40
0.843213633747744
40
0.843213633747744
40
1
40
1
40
1
40
1
41
1
10
12.9917782634826
20
-5.06009163397042
30
0
41
1
10
12.9243307984487
20
-5.0518483959564
30
0
41
1
10
12.8583416408562
20
-5.03325537692498
30
0
41
1
10
12.7397272181065
20
-4.98114890458504
30
0
41
1
10
12.6853575887117
20
-4.94710862582355
30
0
41
1
10
12.6200730005585
20
-4.89313503065236
30
0
41
1
10
12.6031183540982
20
-4.87759960487065
30
0
41
1
10
12.5870890226361
20
-4.86138119721628
30
0
0
SPLINE
5
83
100
AcDbEntity
8
1
62
256
6
ByLayer
370
-1
48
1
60
0
100
AcDbSpline
70
4
71
3
72
14
73
10
40
0
40
0
40
0
40
0
40
0.282169922575983
40
0.282169922575983
40
0.566902245317939
40
0.566902245317939
40
0.824523972080192
40
0.824523972080192
40
1
40
1
40
1
40
1
41
1
10
12.5870890226361
20
-7.66605477251642
30
0
41
1
10
12.5634755428677
20
-7.68994678834548
30
0
41
1
10
12.5348973715973
20
-7.71040893885123
30
0
41
1
10
12.4714034073027
20
-7.74014558438753
30
0
41
1
10
12.4354207832103
20
-7.74972114493912
30
0
41
1
10
12.3654842322966
20
-7.75435780252664
30
0
41
1
10
12.330601295172
20
-7.75072285303983
30
0
41
1
10
12.2751581578494
20
-7.73455632849522
30
0
41
1
10
12.253107891115
20
-7.72512231841714
30
0
41
1
10
12.2327016963397
20
-7.71326474770325
30
0
0
SPLINE
5
84
100
AcDbEntity
8
1
62
256
6
ByLayer
370
-1
48
1
60
0
100
AcDbSpline
70
4
71
3
72
16
73
12
40
0
40
0
40
0
40
0
40
0.0630415689509978
40
0.0630415689509978
40
0.285914332025054
40
0.285914332025054
40
0.511588305409036
40
0.511588305409036
40
0.751723061839459
40
0.751723061839459
40
1
40
1
40
1
40
1
41
1
10
14.7515
20
-6.26371798486636
30
0
41
1
10
14.7515
20
-6.27215163869926
30
0
41
1
10
14.7511336287487
20
-6.28059495321682
30
0
41
1
10
14.7478431434152
20
-6.3184717772979
30
0
41
1
10
14.740633890411
20
-6.34783959363691
30
0
41
1
10
14.718324088693
20
-6.40208577470969
30
0
41
1
10
14.70286346592
20
-6.42760253451019
30
0
41
1
10
14.6652228348199
20
-6.47317090136815
30
0
41
1
10
14.6422290297802
20
-6.49335855311955
30
0
41
1
10
14.5920396182035
20
-6.525669433514
30
0
41
1
10
14.5641787135168
20
-6.53788374733463
30
0
41
1
10
14.5358653921853
20
-6.54555539699678
30
0
0
SPLINE
5
85
100
AcDbEntity
8
1
62
256
6
ByLayer
370
-1
48
1
60
0
100
AcDbSpline
70
4
71
3
72
18
73
14
40
0
40
0
40
0
40
0
40
0.21249169575531
40
0.21249169575531
40
0.386618276853822
40
0.386618276853822
40
0.562426360907952
40
0.562426360907952
40
0.71538841664596
40
0.71538841664596
40
0.918249208689899
40
0.918249208689899
40
1
40
1
40
1
40
1
41
1
10
12.0973555322913
20
-5.1422139430905
30
0
41
1
10
12.11572392381
20
-5.21076907156751
30
0
41
1
10
12.1239088908469
20
-5.28453295935478
30
0
41
1
10
12.1160389991461
20
-5.42069583149353
30
0
41
1
10
12.1038442405563
20
-5.48426922478527
30
0
41
1
10
12.0611694283771
20
-5.60681244533518
30
0
41
1
10
12.0297023316608
20
-5.66748552054429
30
0
41
1
10
11.957696763661
20
-5.76742223846264
30
0
41
1
10
11.9180811011105
20
-5.80968620712113
30
0
41
1
10
11.8195940375196
20
-5.89232127917475
30
0
41
1
10
11.757106412471
20
-5.92919988680777
30
0
41
1
10
11.667223268082
20
-5.96576731406546
30
0
41
1
10
11.6407739639204
20
-5.97466249313035
30
0
41
1
10
11.6141346078147
20
-5.98188057273589
30
0
0
SPLINE
5
86
100
AcDbEntity
8
1
62
256
6
ByLayer
370
-1
48
1
60
0
100
AcDbSpline
70
4
71
3
72
16
73
12
40
0
40
0
40
0
40
0
40
0.0630415689508846
40
0.0630415689508846
40
0.285914332024916
40
0.285914332024916
40
0.511588305408789
40
0.511588305408789
40
0.751723061839247
40
0.751723061839247
40
1
40
1
40
1
40
1
41
1
10
11.3985
20
-6.26371798486636
30
0
41
1
10
11.3985
20
-6.25528433103344
30
0
41
1
10
11.3988663712514
20
-6.24684101651593
30
0
41
1
10
11.4021568565849
20
-6.20896419243485
30
0
41
1
10
11.4093661095891
20
-6.17959637609582
30
0
41
1
10
11.4316759113071
20
-6.12535019502306
30
0
41
1
10
11.44713653408
20
-6.09983343522254
30
0
41
1
10
11.4847771651801
20
-6.05426506836457
30
0
41
1
10
11.5077709702198
20
-6.03407741661317
30
0
41
1
10
11.5579603817966
20
-6.0017665362187
30
0
41
1
10
11.5858212864832
20
-5.98955222239803
30
0
41
1
10
11.6141346078147
20
-5.98188057273589
30
0
0
SPLINE
5
87
100
AcDbEntity
8
1
62
256
6
ByLayer
370
-1
48
1
60
0
100
AcDbSpline
70
4
71
3
72
12
73
8
40
0
40
0
40
0
40
0
40
0.495785575729068
40
0.495785575729068
40
0.900238279924242
40
0.900238279924242
40
1
40
1
40
1
40
1
41
1
10
13.562910977364
20
-4.86138119721628
30
0
41
1
10
13.5127736049687
20
-4.91210997190973
30
0
41
1
10
13.4529290117279
20
-4.95659463341326
30
0
41
1
10
13.3310162887577
20
-5.01855725369123
30
0
41
1
10
13.2699462341845
20
-5.040054334231
30
0
41
1
10
13.1905172566205
20
-5.05555595890141
30
0
41
1
10
13.1744242804517
20
-5.05811140497269
30
0
41
1
10
13.1582217365175
20
-5.06009163397042
30
0
0
SPLINE
5
88
100
AcDbEntity
8
1
62
256
6
ByLayer
370
-1
48
1
60
0
100
AcDbSpline
70
4
71
3
72
14
73
10
40
0
40
0
40
0
40
0
40
0.283961457856567
40
0.283961457856567
40
0.570284934646608
40
0.570284934646608
40
0.829450869060432
40
0.829450869060432
40
1
40
1
40
1
40
1
41
1
10
11.6141346078147
20
-6.5455553969968
30
0
41
1
10
11.581775123635
20
-6.53678741732506
30
0
41
1
10
11.5499432487877
20
-6.52202929307552
30
0
41
1
10
11.4928862914263
20
-6.48153352882002
30
0
41
1
10
11.466870922088
20
-6.45502747817614
30
0
41
1
10
11.428398175478
20
-6.39665121108246
30
0
41
1
10
11.4143584772187
20
-6.36461358747673
30
0
41
1
10
11.4012057319791
20
-6.30935999574467
30
0
41
1
10
11.3985
20
-6.28644764566192
30
0
41
1
10
11.3985
20
-6.26371798486636
30
0
0
SPLINE
5
89
100
AcDbEntity
8
1
62
256
6
ByLayer
370
-1
48
1
60
0
100
AcDbSpline
70
4
71
3
72
18
73
14
40
0
40
0
40
0
40
0
40
0.212491592102428
40
0.212491592102428
40
0.386618191488496
40
0.386618191488496
40
0.562426295050861
40
0.562426295050861
40
0.71538835446948
40
0.71538835446948
40
0.918249128147178
40
0.918249128147178
40
1
40
1
40
1
40
1
41
1
10
14.5358653921854
20
-5.98188057273592
30
0
41
1
10
14.4673622765155
20
-5.96331927792943
30
0
41
1
10
14.3994718307195
20
-5.93333617595573
30
0
41
1
10
14.2856957340066
20
-5.85812146121469
30
0
41
1
10
14.2368552932208
20
-5.81563734144822
30
0
41
1
10
14.1523415786699
20
-5.71717204045385
30
0
41
1
10
14.1156915357823
20
-5.65948169797292
30
0
41
1
10
14.0654602172058
20
-5.54701407415374
30
0
41
1
10
14.0488211448525
20
-5.49152727082887
30
0
41
1
10
14.0268539899322
20
-5.36485564710742
30
0
41
1
10
14.0263624544236
20
-5.29229882330594
30
0
41
1
10
14.0399038860689
20
-5.19621141212178
30
0
41
1
10
14.0455014003798
20
-5.1688735391669
30
0
41
1
10
14.0526444677088
20
-5.1422139430905
30
0
0
SPLINE
5
8A
100
AcDbEntity
8
1
62
256
6
ByLayer
370
-1
48
1
60
0
100
AcDbSpline
70
4
71
3
72
16
73
12
40
0
40
0
40
0
40
0
40
0.0569446172824383
40
0.0569446172824383
40
0.279906644833945
40
0.279906644833945
40
0.505321967306545
40
0.505321967306545
40
0.744915047128663
40
0.744915047128663
40
1
40
1
40
1
40
1
41
1
10
12.2327016963397
20
-7.71326474770325
30
0
41
1
10
12.2261104385077
20
-7.709434719288
30
0
41
1
10
12.2196633252813
20
-7.70534241108746
30
0
41
1
10
12.189036383161
20
-7.68417663561544
30
0
41
1
10
12.1670723329939
20
-7.66334904862794
30
0
41
1
10
12.1309923636067
20
-7.61707900866992
30
0
41
1
10
12.1164874459168
20
-7.59101334658195
30
0
41
1
10
12.0955631177788
20
-7.53577994820915
30
0
41
1
10
12.0894177996136
20
-7.50583968955954
30
0
41
1
10
12.0861470990106
20
-7.44542190182014
30
0
41
1
10
12.0895594787757
20
-7.414318719721
30
0
41
1
10
12.0973555322912
20
-7.3852220266422
30
0
0
SPLINE
5
8B
100
AcDbEntity
8
1
62
256
6
ByLayer
370
-1
48
1
60
0
100
AcDbSpline
70
4
71
3
72
14
73
10
40
0
40
0
40
0
40
0
40
0.283961749036759
40
0.283961749036759
40
0.570285189259091
40
0.570285189259091
40
0.8294510943357
40
0.8294510943357
40
1
40
1
40
1
40
1
41
1
10
12.0973555322913
20
-5.1422139430905
30
0
41
1
10
12.088678671596
20
-5.1098298718378
30
0
41
1
10
12.0854461401964
20
-5.07489244290741
30
0
41
1
10
12.0917936345159
20
-5.00521377025231
30
0
41
1
10
12.1016409822431
20
-4.96940316202438
30
0
41
1
10
12.1327854086303
20
-4.90680951499601
30
0
41
1
10
12.1534322513996
20
-4.87857425133305
30
0
41
1
10
12.1945978406634
20
-4.83944185243459
30
0
41
1
10
12.2130490492359
20
-4.82559092351292
30
0
41
1
10
12.2327016963397
20
-4.81417122202944
30
0
0
SPLINE
5
8C
100
AcDbEntity
8
1
62
256
6
ByLayer
370
-1
48
1
60
0
100
AcDbSpline
70
4
71
3
72
18
73
14
40
0
40
0
40
0
40
0
40
0.212491695755303
40
0.212491695755303
40
0.386618276853797
40
0.386618276853797
40
0.562426360907924
40
0.562426360907924
40
0.715388416645937
40
0.715388416645937
40
0.918249208689873
40
0.918249208689873
40
1
40
1
40
1
40
1
41
1
10
14.0526444677088
20
-7.3852220266422
30
0
41
1
10
14.0342760761901
20
-7.31666689816518
30
0
41
1
10
14.0260911091532
20
-7.24290301037792
30
0
41
1
10
14.033961000854
20
-7.10674013823916
30
0
41
1
10
14.0461557594437
20
-7.04316674494743
30
0
41
1
10
14.088830571623
20
-6.92062352439751
30
0
41
1
10
14.1202976683393
20
-6.85995044918843
30
0
41
1
10
14.1923032363391
20
-6.76001373127005
30
0
41
1
10
14.2319188988895
20
-6.71774976261156
30
0
41
1
10
14.3304059624805
20
-6.63511469055794
30
0
41
1
10
14.3928935875291
20
-6.5982360829249
30
0
41
1
10
14.4827767319181
20
-6.56166865566723
30
0
41
1
10
14.5092260360797
20
-6.55277347660231
30
0
41
1
10
14.5358653921853
20
-6.54555539699678
30
0
0
SPLINE
5
8D
100
AcDbEntity
8
1
62
256
6
ByLayer
370
-1
48
1
60
0
100
AcDbSpline
70
4
71
3
72
14
73
10
40
0
40
0
40
0
40
0
40
0.282169922576125
40
0.282169922576125
40
0.566902245318074
40
0.566902245318074
40
0.824523972080338
40
0.824523972080338
40
1
40
1
40
1
40
1
41
1
10
13.562910977364
20
-4.86138119721625
30
0
41
1
10
13.5865244571323
20
-4.83748918138718
30
0
41
1
10
13.6151026284028
20
-4.81702703088141
30
0
41
1
10
13.6785965926973
20
-4.7872903853451
30
0
41
1
10
13.7145792167898
20
-4.77771482479355
30
0
41
1
10
13.7845157677035
20
-4.77307816720602
30
0
41
1
10
13.8193987048281
20
-4.77671311669283
30
0
41
1
10
13.8748418421506
20
-4.79287964123748
30
0
41
1
10
13.896892108885
20
-4.80231365131556
30
0
41
1
10
13.9172983036604
20
-4.81417122202942
30
0
0
SPLINE
5
8E
100
AcDbEntity
8
1
62
256
6
ByLayer
370
-1
48
1
60
0
100
AcDbSpline
70
4
71
3
72
14
73
10
40
0
40
0
40
0
40
0
40
0.283961457856635
40
0.283961457856635
40
0.570284934646661
40
0.570284934646661
40
0.829450869060556
40
0.829450869060556
40
1
40
1
40
1
40
1
41
1
10
14.5358653921854
20
-5.98188057273592
30
0
41
1
10
14.5682248763651
20
-5.99064855240766
30
0
41
1
10
14.6000567512124
20
-6.00540667665723
30
0
41
1
10
14.6571137085738
20
-6.04590244091273
30
0
41
1
10
14.6831290779122
20
-6.07240849155662
30
0
41
1
10
14.7216018245221
20
-6.13078475865029
30
0
41
1
10
14.7356415227814
20
-6.16282238225602
30
0
41
1
10
14.748794268021
20
-6.21807597398808
30
0
41
1
10
14.7515
20
-6.2409883240708
30
0
41
1
10
14.7515
20
-6.26371798486636
30
0
0
SPLINE
5
8F
100
AcDbEntity
8
1
62
256
6
ByLayer
370
-1
48
1
60
0
100
AcDbSpline
70
4
71
3
72
16
73
12
40
0
40
0
40
0
40
0
40
0.0569446172825272
40
0.0569446172825272
40
0.279906644834053
40
0.279906644834053
40
0.505321967306664
40
0.505321967306664
40
0.744915047128739
40
0.744915047128739
40
1
40
1
40
1
40
1
41
1
10
13.9172983036604
20
-4.81417122202942
30
0
41
1
10
13.9238895614924
20
-4.81800125044467
30
0
41
1
10
13.9303366747188
20
-4.82209355864521
30
0
41
1
10
13.9609636168391
20
-4.84325933411722
30
0
41
1
10
13.9829276670062
20
-4.86408692110476
30
0
41
1
10
14.0190076363934
20
-4.91035696106277
30
0
41
1
10
14.0335125540833
20
-4.93642262315075
30
0
41
1
10
14.0544368822212
20
-4.99165602152354
30
0
41
1
10
14.0605822003864
20
-5.02159628017316
30
0
41
1
10
14.0638529009895
20
-5.08201406791255
30
0
41
1
10
14.0604405212244
20
-5.1131172500117
30
0
41
1
10
14.0526444677088
20
-5.1422139430905
30
0
0
INSERT
5
C3
100
AcDbEntity
8
SK2
62
256
6
ByLayer
370
-1
48
1
60
0
100
AcDbBlockReference
2
DimnDraft3D11
10
0
20
0
30
0
41
1
42
1
43
1
50
0
210
0
220
0
230
1
0
LINE
5
4C
100
AcDbEntity
8
80
62
256
6
ByLayer
370
-1
48
1
60
0
100
AcDbLine
10
0
20
0
30
0
11
-5
21
0
31
0
39
0
210
0
220
0
230
1
0
LINE
5
4D
100
AcDbEntity
8
81
62
256
6
ByLayer
370
-1
48
1
60
0
100
AcDbLine
10
21.726474
20
-6.5925
30
0
11
31.726474
21
-6.5925
31
0
39
0
210
0
220
0
230
1
0
LINE
5
4E
100
AcDbEntity
8
1
62
256
6
ByLayer
370
-1
48
1
60
0
100
AcDbLine
10
1.588174
20
12.435598
30
0
11
12.190971
21
1.832801
31
0
39
0
210
0
220
0
230
1
0
LINE
5
50
100
AcDbEntity
8
1
62
256
6
ByLayer
370
-1
48
1
60
0
100
AcDbLine
10
4.175
20
-4.763718
30
0
11
5.594738
21
-4.763718
31
0
39
0
210
0
220
0
230
1
0
LINE
5
51
100
AcDbEntity
8
1
62
256
6
ByLayer
370
-1
48
1
60
0
100
AcDbLine
10
1
20
-12.4375
30
0
11
0
21
-12.4375
31
0
39
0
210
0
220
0
230
1
0
LINE
5
52
100
AcDbEntity
8
1
62
256
6
ByLayer
370
-1
48
1
60
0
100
AcDbLine
10
0
20
12.435598
30
0
11
1.588174
21
12.435598
31
0
39
0
210
0
220
0
230
1
0
LINE
5
53
100
AcDbEntity
8
1
62
256
6
ByLayer
370
-1
48
1
60
0
100
AcDbLine
10
5.594726
20
-7.763718
30
0
11
4.175
21
-7.763718
31
0
39
0
210
0
220
0
230
1
0
LINE
5
54
100
AcDbEntity
8
1
62
256
6
ByLayer
370
-1
48
1
60
0
100
AcDbLine
10
2.276218
20
-13.713718
30
0
11
11.544639
21
-13.713718
31
0
39
0
210
0
220
0
230
1
0
LINE
5
55
100
AcDbEntity
8
1
62
256
6
ByLayer
370
-1
48
1
60
0
100
AcDbLine
10
0
20
12.435598
30
0
11
0
21
-12.4375
31
0
39
0
210
0
220
0
230
1
0
LINE
5
56
100
AcDbEntity
8
1
62
256
6
ByLayer
370
-1
48
1
60
0
100
AcDbLine
10
2.276218
20
-13.713718
30
0
11
1
21
-12.4375
31
0
39
0
210
0
220
0
230
1
0
LINE
5
57
100
AcDbEntity
8
SK1
62
256
6
ByLayer
370
-1
48
1
60
0
100
AcDbLine
10
-0.15
20
-12.4375
30
0
11
-129.623526
21
-12.4375
31
0
39
0
210
0
220
0
230
1
0
LINE
5
59
100
AcDbEntity
8
SK1
62
256
6
ByLayer
370
-1
48
1
60
0
100
AcDbLine
10
-0.15
20
-12.4375
30
0
11
-0.15
21
12.4375
31
0
39
0
210
0
220
0
230
1
0
LINE
5
5A
100
AcDbEntity
8
1
62
256
6
ByLayer
370
-1
48
1
60
0
100
AcDbLine
10
12.513557
20
-14.682531
30
0
11
4.656187
21
-6.825161
31
0
39
0
210
0
220
0
230
1
0
LINE
5
5B
100
AcDbEntity
8
SK1
62
256
6
ByLayer
370
-1
48
1
60
0
100
AcDbLine
10
0
20
-12.4375
30
0
11
0
21
12.435598
31
0
39
0
210
0
220
0
230
1
0
LINE
5
5C
100
AcDbEntity
8
SK1
62
256
6
ByLayer
370
-1
48
1
60
0
100
AcDbLine
10
-129.623526
20
12.4375
30
0
11
-0.15
21
12.4375
31
0
39
0
210
0
220
0
230
1
0
LINE
5
5D
100
AcDbEntity
8
1
62
256
6
ByLayer
370
-1
48
1
60
0
100
AcDbLine
10
13.636443
20
2.155095
30
0
11
21.493813
21
-5.702275
31
0
39
0
210
0
220
0
230
1
0
LINE
5
5E
100
AcDbEntity
8
SK1
62
256
6
ByLayer
370
-1
48
1
60
0
100
AcDbLine
10
-0.15
20
12.436252
30
0
11
0
21
12.435598
31
0
39
0
210
0
220
0
230
1
0
LINE
5
5F
100
AcDbEntity
8
SK1
62
256
6
ByLayer
370
-1
48
1
60
0
100
AcDbLine
10
0
20
-12.4375
30
0
11
-0.15
21
-12.4375
31
0
39
0
210
0
220
0
230
1
0
LINE
5
60
100
AcDbEntity
8
SK1
62
256
6
ByLayer
370
-1
48
1
60
0
100
AcDbLine
10
-129.623526
20
-12.4375
30
0
11
-129.623526
21
12.4375
31
0
39
0
210
0
220
0
230
1
0
LINE
5
61
100
AcDbEntity
8
1
62
256
6
ByLayer
370
-1
48
1
60
0
100
AcDbLine
10
21.493813
20
-6.825161
30
0
11
13.636443
21
-14.682531
31
0
39
0
210
0
220
0
230
1
0
LINE
5
62
100
AcDbEntity
8
1
62
256
6
ByLayer
370
-1
48
1
60
0
100
AcDbLine
10
4.656187
20
-5.702275
30
0
11
12.513557
21
2.155095
31
0
39
0
210
0
220
0
230
1
0
LINE
5
63
100
AcDbEntity
8
2
62
256
6
ByLayer
370
-1
48
1
60
1
100
AcDbLine
10
21.726474
20
-6.5925
30
0
11
21.727181
21
-6.591793
31
0
39
0
210
0
220
0
230
1
0
MTEXT
5
90
100
AcDbEntity
8
SK6
62
256
6
ByLayer
370
-1
48
1
60
0
100
AcDbMText
10
-77.131439
20
22.895841
30
0
210
0
220
0
230
1
1
\W00.742;\fsimplex.shx,bigfont.shx;SSDCL 2525M 12 
40
3.5
41
0
44
1.084337
50
0
71
7
72
5
7
DEFAULT
0
DIMENSION
5
D1
100
AcDbEntity
8
2
62
256
6
ByLayer
370
-3
48
1
60
0
100
AcDbDimension
2
DimnDraft3D2
10
47.079912
20
18.760938
30
0
11
29.438428
21
29.293064
31
0
70
34
71
5
72
1
41
1
210
0
220
0
230
1
3
Standard
100
AcDb2LineAngularDimension
13
21.726474
23
-3.469968
33
0
14
21.726474
24
29.262675
34
0
15
22.908204
25
-5.41077
35
0
16
36.404364
26
28.843061
36
0
40
0
0
DIMENSION
5
E6
100
AcDbEntity
8
SK2
62
256
6
ByLayer
370
-3
48
1
60
0
100
AcDbDimension
2
DimnDraft3D3
10
-129.623526
20
-31.307468
30
0
11
-65.456335
21
-31.307468
31
0
70
32
71
5
72
1
41
1
210
0
220
0
230
1
3
Standard
100
AcDbAlignedDimension
13
13.86875
23
-16.915192
33
0
14
-129.623526
24
-14.4375
34
0
50
0
100
AcDbRotatedDimension
1001
ACAD
1000
DSTYLE
1002
{
1070
   279
1070
     0
1070
   172
1070
     1
1070
   173
1070
     1
1070
   340
1005
91
1070
    77
1070
     1
1070
    73
1070
     0
1070
   171
1070
     3
1070
   274
1070
     4
1070
   177
1070
     2
1070
   176
1070
     2
1070
   178
1070
     7
1070
    78
1070
     8
1070
    41
1041
3.175
1070
   147
1041
2.25
1070
    42
1041
2.0
1070
    44
1041
2.0
1070
   140
1041
4.5
1070
   343
1005
D2
1070
   344
1005
D2
1002
}
0
DIMENSION
5
F4
100
AcDbEntity
8
2
62
256
6
ByLayer
370
-3
48
1
60
0
100
AcDbDimension
2
DimnDraft3D4
10
58.976474
20
-14.915192
30
0
11
58.976474
21
-8.053978
31
0
70
32
71
5
72
1
41
1
210
0
220
0
230
1
3
Standard
100
AcDbAlignedDimension
13
2
23
12.4375
33
0
14
15.86875
24
-14.915192
34
0
50
90
100
AcDbRotatedDimension
1001
ACAD
1000
DSTYLE
1002
{
1070
    74
1070
     0
1070
   279
1070
     0
1070
   172
1070
     1
1070
   173
1070
     1
1070
   340
1005
91
1070
    77
1070
     1
1070
    73
1070
     0
1070
   171
1070
     3
1070
   274
1070
     4
1070
   177
1070
     2
1070
   176
1070
     2
1070
   178
1070
     7
1070
    78
1070
     8
1070
    41
1041
3.175
1070
   147
1041
2.25
1070
    42
1041
2.0
1070
    44
1041
2.0
1070
   140
1041
4.5
1070
   343
1005
D2
1070
   344
1005
D2
1002
}
0
DIMENSION
5
102
100
AcDbEntity
8
2
62
256
6
ByLayer
370
-3
48
1
60
0
100
AcDbDimension
2
DimnDraft3D5
10
48.976474
20
-6.5925
30
0
11
48.976474
21
-3.330132
31
0
70
32
71
5
72
1
41
1
210
0
220
0
230
1
3
Standard
100
AcDbAlignedDimension
13
2
23
12.4375
33
0
14
23.726474
24
-6.5925
34
0
50
90
100
AcDbRotatedDimension
1001
ACAD
1000
DSTYLE
1002
{
1070
    74
1070
     0
1070
   279
1070
     0
1070
   172
1070
     1
1070
   173
1070
     1
1070
   340
1005
91
1070
    77
1070
     1
1070
    73
1070
     0
1070
   171
1070
     3
1070
   274
1070
     4
1070
   177
1070
     2
1070
   176
1070
     2
1070
   178
1070
     7
1070
    78
1070
     8
1070
    41
1041
3.175
1070
   147
1041
2.25
1070
    42
1041
2.0
1070
    44
1041
2.0
1070
   140
1041
4.5
1070
   343
1005
D2
1070
   344
1005
D2
1002
}
0
DIMENSION
5
110
100
AcDbEntity
8
SK2
62
256
6
ByLayer
370
-3
48
1
60
0
100
AcDbDimension
2
DimnDraft3D6
10
-139.373526
20
-12.4375
30
0
11
-139.373526
21
-2.628947
31
0
70
32
71
5
72
1
41
1
210
0
220
0
230
1
3
Standard
100
AcDbAlignedDimension
13
-131.623526
23
12.4375
33
0
14
-131.623526
24
-12.4375
34
0
50
90
100
AcDbRotatedDimension
1001
ACAD
1000
DSTYLE
1002
{
1070
    74
1070
     0
1070
   279
1070
     0
1070
   172
1070
     1
1070
   173
1070
     1
1070
   340
1005
91
1070
    77
1070
     1
1070
    73
1070
     0
1070
   171
1070
     3
1070
   274
1070
     4
1070
   177
1070
     2
1070
   176
1070
     2
1070
   178
1070
     7
1070
    78
1070
     8
1070
    41
1041
3.175
1070
   147
1041
2.25
1070
    42
1041
2.0
1070
    44
1041
2.0
1070
   140
1041
4.5
1070
   343
1005
D2
1070
   344
1005
D2
1002
}
0
ENDSEC
0
SECTION
2
OBJECTS
0
DICTIONARY
5
140
330
0
100
AcDbDictionary
280
0
281
1
3
ACAD_GROUP
350
141
3
ACAD_MLINESTYLE
350
142
0
DICTIONARY
5
141
330
0
100
AcDbDictionary
280
0
281
1
0
DICTIONARY
5
142
330
0
100
AcDbDictionary
280
0
281
1
3
Standard
350
18
0
MLINESTYLE
5
18
330
142
100
AcDbMlineStyle
2
Standard
70
0
3

62
256
51
90
52
90
71
2
49
-0.5
62
256
6
ByLayer
49
0.5
62
256
6
ByLayer
0
RASTERVARIABLES
5
12f
330

100
AcDbRasterVariables
90
0
70
1
71
1
72
1
0
ENDSEC
0
EOF
