0
SECTION
2
HEADER
9
$ACADVER
1
AC1015
9
$DWGCODEPAGE
3
ANSI_1252
9
$HANDSEED
5
139
9
$ANGBASE
50
0
9
$ANGDIR
70
0
9
$ATTMODE
70
1
9
$AUNITS
70
0
9
$AUPREC
70
0
9
$CECOLOR
62
256
9
$CELTSCALE
40
1
9
$CELTYPE
6
ByLayer
9
$CELWEIGHT
370
-1
9
$CLAYER
8
0
9
$CMLJUST
70
0
9
$CMLSCALE
40
1
9
$CMLSTYLE
2
Standard
9
$DIMSTYLE
2
Standard
9
$TEXTSIZE
40
0.2
9
$TEXTSTYLE
7
Standard
9
$LUNITS
70
2
9
$LUPREC
70
4
9
$EXTNAMES
290
1
9
$INSUNITS
70
4
9
$LTSCALE
40
1
9
$LWDISPLAY
290
0
9
$PDMODE
70
0
9
$PDSIZE
40
0
9
$PLINEGEN
70
0
0
ENDSEC
0
SECTION
2
CLASSES
0
CLASS
1
RASTERVARIABLES
2
AcDbRasterVariables
3
ISM
90
0
280
0
281
0
0
ENDSEC
0
SECTION
2
TABLES
0
TABLE
2
VPORT
5
12f
100
AcDbSymbolTable
0
VPORT
5
1
100
AcDbSymbolTableRecord
100
AcDbViewportTableRecord
2
*Active
70
0
10
0
20
0
11
1
21
1
12
-1
22
1
13
0
23
0
14
0.5
24
0.5
15
10
25
10
16
0
26
0
36
1
17
0
27
0
37
0
0
ENDTAB
0
TABLE
2
LTYPE
5
130
100
AcDbSymbolTable
0
LTYPE
5
14
100
AcDbSymbolTableRecord
100
AcDbLinetypeTableRecord
70
0
2
ByBlock
3

72
65
73
0
40
0
0
LTYPE
5
15
100
AcDbSymbolTableRecord
100
AcDbLinetypeTableRecord
70
0
2
ByLayer
3

72
65
73
0
40
0
0
LTYPE
5
16
100
AcDbSymbolTableRecord
100
AcDbLinetypeTableRecord
70
0
2
CONTINUOUS
3
Solid line
72
65
73
0
40
0
0
LTYPE
5
3B
100
AcDbSymbolTableRecord
100
AcDbLinetypeTableRecord
70
0
2
DASHED
3
__ __ __ __ __ __ __ __ __
72
65
73
2
40
25.72
49
12.86
74
0
49
-12.86
74
0
0
LTYPE
5
3C
100
AcDbSymbolTableRecord
100
AcDbLinetypeTableRecord
70
0
2
HIDDEN
3
_ _ _ _ _ _ _ _ _ _ _ _ _ _ _
72
65
73
2
40
0.5
49
0.25
74
0
49
-0.25
74
0
0
LTYPE
5
3D
100
AcDbSymbolTableRecord
100
AcDbLinetypeTableRecord
70
0
2
PHANTOM
3
____ _ _ ____ _ _ _____ _ _ ____
72
65
73
6
40
50.5
49
18
74
0
49
-6.5
74
0
49
6.5
74
0
49
-6.5
74
0
49
6.5
74
0
49
-6.5
74
0
0
LTYPE
5
3E
100
AcDbSymbolTableRecord
100
AcDbLinetypeTableRecord
70
0
2
CENTER
3
____ _ ____ _ ____ _ ____
72
65
73
4
40
47.5
49
22
74
0
49
-8.5
74
0
49
8.5
74
0
49
-8.5
74
0
0
LTYPE
5
3F
100
AcDbSymbolTableRecord
100
AcDbLinetypeTableRecord
70
0
2
DOT
3
.........................
72
65
73
2
40
10
49
0
74
0
49
-10
74
0
0
LTYPE
5
40
100
AcDbSymbolTableRecord
100
AcDbLinetypeTableRecord
70
0
2
DASHDOT
3
_._._._._._._._._._._._._._._._.
72
65
73
4
40
70
49
31
74
0
49
-13
74
0
49
13
74
0
49
-13
74
0
0
ENDTAB
0
TABLE
2
LAYER
5
131
100
AcDbSymbolTable
0
LAYER
5
10
100
AcDbSymbolTableRecord
100
AcDbLayerTableRecord
2
0
70
0
62
7
6
CONTINUOUS
290
1
370
-3
390
0
0
LAYER
5
42
100
AcDbSymbolTableRecord
100
AcDbLayerTableRecord
2
81
70
0
62
-3
6
CONTINUOUS
290
1
370
-3
390
0
0
LAYER
5
44
100
AcDbSymbolTableRecord
100
AcDbLayerTableRecord
2
2
70
0
62
7
6
CONTINUOUS
290
1
370
-3
390
0
0
LAYER
5
49
100
AcDbSymbolTableRecord
100
AcDbLayerTableRecord
2
80
70
0
62
-6
6
CONTINUOUS
290
1
370
-3
390
0
0
LAYER
5
4F
100
AcDbSymbolTableRecord
100
AcDbLayerTableRecord
2
1
70
0
62
4
6
CONTINUOUS
290
1
370
-3
390
0
0
LAYER
5
11c
100
AcDbSymbolTableRecord
100
AcDbLayerTableRecord
2
SK2
70
0
62
7
6
CONTINUOUS
290
1
370
-3
390
0
0
LAYER
5
11d
100
AcDbSymbolTableRecord
100
AcDbLayerTableRecord
2
SK1
70
0
62
4
6
CONTINUOUS
290
1
370
-3
390
0
0
LAYER
5
11e
100
AcDbSymbolTableRecord
100
AcDbLayerTableRecord
2
SK6
70
0
62
5
6
CONTINUOUS
290
1
370
-3
390
0
0
ENDTAB
0
TABLE
2
STYLE
5
132
100
AcDbSymbolTable
0
STYLE
5
11
100
AcDbSymbolTableRecord
100
AcDbTextStyleTableRecord
2
Standard
3
txt
70
0
71
0
40
0
41
1
42
0
50
0
0
STYLE
5
99
100
AcDbSymbolTableRecord
100
AcDbTextStyleTableRecord
2
DEFAULT
3
simplex.shx
70
0
71
0
40
0
41
1
42
0
50
0
0
STYLE
5
BC
100
AcDbSymbolTableRecord
100
AcDbTextStyleTableRecord
2
DWGDirectTextStyle
3
SIMPLEX
70
0
71
0
40
0
41
1
42
0
50
0
0
ENDTAB
0
TABLE
2
DIMSTYLE
5
133
100
AcDbSymbolTable
100
AcDbDimStyleTable
0
DIMSTYLE
105
27
100
AcDbSymbolTableRecord
100
AcDbDimStyleTableRecord
2
Standard
70
0
3
<>
41
0.18
42
0.0625
44
0.18
140
0.18
147
0.09
73
0
74
0
77
1
271
2
275
0
278
52
280
0
340
11
0
ENDTAB
0
TABLE
2
VIEW
5
134
100
AcDbSymbolTable
0
ENDTAB
0
TABLE
2
UCS
5
135
100
AcDbSymbolTable
0
ENDTAB
0
TABLE
2
APPID
5
136
100
AcDbSymbolTable
0
APPID
5
12
100
AcDbSymbolTableRecord
100
AcDbRegAppTableRecord
2
ACAD
70
0
0
ENDTAB
0
TABLE
2
BLOCK_RECORD
5
137
100
AcDbSymbolTable
0
BLOCK_RECORD
5
1F
100
AcDbSymbolTableRecord
100
AcDbBlockTableRecord
2
*Model_Space
340
0
70
0
0
BLOCK_RECORD
5
1B
100
AcDbSymbolTableRecord
100
AcDbBlockTableRecord
2
*Paper_Space
340
0
70
0
0
BLOCK_RECORD
5
23
100
AcDbSymbolTableRecord
100
AcDbBlockTableRecord
2
*Paper_Space0
340
0
70
0
0
BLOCK_RECORD
5
BE
100
AcDbSymbolTableRecord
100
AcDbBlockTableRecord
2
DimnDraft3D1
340
0
70
0
0
BLOCK_RECORD
5
CC
100
AcDbSymbolTableRecord
100
AcDbBlockTableRecord
2
_CLOSED
340
0
70
0
0
BLOCK_RECORD
5
D3
100
AcDbSymbolTableRecord
100
AcDbBlockTableRecord
2
DimnDraft3D2
340
0
70
0
0
BLOCK_RECORD
5
E1
100
AcDbSymbolTableRecord
100
AcDbBlockTableRecord
2
DimnDraft3D3
340
0
70
0
0
BLOCK_RECORD
5
EF
100
AcDbSymbolTableRecord
100
AcDbBlockTableRecord
2
DimnDraft3D4
340
0
70
0
0
ENDTAB
0
ENDSEC
0
SECTION
2
BLOCKS
0
BLOCK
5
20
100
AcDbEntity
8
0
100
AcDbBlockBegin
2
*Model_Space
70
0
10
0
20
0
30
0
3
*Model_Space
0
ENDBLK
5
21
100
AcDbEntity
8
0
100
AcDbBlockEnd
0
BLOCK
5
1C
100
AcDbEntity
8
0
100
AcDbBlockBegin
2
*Paper_Space
70
0
10
0
20
0
30
0
3
*Paper_Space
0
ENDBLK
5
1D
100
AcDbEntity
8
0
100
AcDbBlockEnd
0
BLOCK
5
24
100
AcDbEntity
8
0
100
AcDbBlockBegin
2
*Paper_Space0
70
0
10
0
20
0
30
0
3
*Paper_Space0
0
ENDBLK
5
25
100
AcDbEntity
8
0
100
AcDbBlockEnd
0
BLOCK
5
C9
100
AcDbEntity
8
0
100
AcDbBlockBegin
2
DimnDraft3D1
70
0
10
0
20
0
30
0
3
DimnDraft3D1
0
MTEXT
5
BF
100
AcDbEntity
8
2
62
256
6
ByLayer
370
-1
48
1
60
0
100
AcDbMText
10
2.824912
20
13.108991
30
0
210
0
220
0
230
1
1
\W01.000;\fsimplex.shx,bigfont.shx;75%%d0' 
40
4.5
41
0
44
1.084337
50
37.5000000000002
71
7
72
5
7
DEFAULT
0
LINE
5
C0
100
AcDbEntity
8
2
62
256
6
ByLayer
370
-1
48
1
60
0
100
AcDbLine
10
15.343142
20
7.597184
30
0
11
15.343142
21
20.014153
31
0
39
0
210
0
220
0
230
1
0
LINE
5
C1
100
AcDbEntity
8
2
62
256
6
ByLayer
370
-1
48
1
60
0
100
AcDbLine
10
11.857052
20
6.346595
30
0
11
1.239029
21
9.191686
31
0
39
0
210
0
220
0
230
1
0
ARC
5
C2
100
AcDbEntity
8
2
62
256
6
ByLayer
370
-1
48
1
60
0
100
AcDbCircle
39
0
10
15.343142
20
5.4125
30
0
40
12.6016528180659
210
0
220
0
230
1
100
AcDbArc
50
48.243434
51
206.756566
0
LINE
5
C3
100
AcDbEntity
8
2
62
256
6
ByLayer
370
-1
48
1
60
0
100
AcDbLine
10
15.343142
20
18.014153
30
0
11
18.538084
21
18.232521
31
0
39
0
210
0
220
0
230
1
0
LINE
5
C4
100
AcDbEntity
8
2
62
256
6
ByLayer
370
-1
48
1
60
0
100
AcDbLine
10
15.343142
20
18.014153
30
0
11
18.48574
21
17.398168
31
0
39
0
210
0
220
0
230
1
0
LINE
5
C5
100
AcDbEntity
8
2
62
256
6
ByLayer
370
-1
48
1
60
0
100
AcDbLine
10
18.538084
20
18.232521
30
0
11
18.48574
21
17.398168
31
0
39
0
210
0
220
0
230
1
0
LINE
5
C6
100
AcDbEntity
8
2
62
256
6
ByLayer
370
-1
48
1
60
0
100
AcDbLine
10
3.17088
20
8.674048
30
0
11
2.952512
21
5.479106
31
0
39
0
210
0
220
0
230
1
0
LINE
5
C7
100
AcDbEntity
8
2
62
256
6
ByLayer
370
-1
48
1
60
0
100
AcDbLine
10
3.17088
20
8.674048
30
0
11
2.13304
21
5.644486
31
0
39
0
210
0
220
0
230
1
0
LINE
5
C8
100
AcDbEntity
8
2
62
256
6
ByLayer
370
-1
48
1
60
0
100
AcDbLine
10
2.952512
20
5.479106
30
0
11
2.13304
21
5.644486
31
0
39
0
210
0
220
0
230
1
0
ENDBLK
5
CA
100
AcDbEntity
8
0
100
AcDbBlockEnd
0
BLOCK
5
CD
100
AcDbEntity
8
0
100
AcDbBlockBegin
2
_CLOSED
70
0
10
0
20
0
30
0
3
_CLOSED
0
LINE
5
CF
100
AcDbEntity
8
0
62
256
6
ByLayer
370
-2
48
1
60
0
100
AcDbLine
10
-1
20
0.166667
30
0
11
0
21
0
31
0
39
0
210
0
220
0
230
1
0
LINE
5
D0
100
AcDbEntity
8
0
62
256
6
ByLayer
370
-2
48
1
60
0
100
AcDbLine
10
0
20
0
30
0
11
-1
21
-0.166667
31
0
39
0
210
0
220
0
230
1
0
LINE
5
D1
100
AcDbEntity
8
0
62
256
6
ByLayer
370
-2
48
1
60
0
100
AcDbLine
10
-1
20
0.166667
30
0
11
-1
21
-0.166667
31
0
39
0
210
0
220
0
230
1
0
LINE
5
D2
100
AcDbEntity
8
0
62
256
6
ByLayer
370
-2
48
1
60
0
100
AcDbLine
10
0
20
0
30
0
11
-1
21
0
31
0
39
0
210
0
220
0
230
1
0
ENDBLK
5
CE
100
AcDbEntity
8
0
100
AcDbBlockEnd
0
BLOCK
5
DE
100
AcDbEntity
8
0
100
AcDbBlockBegin
2
DimnDraft3D2
70
0
10
0
20
0
30
0
3
DimnDraft3D2
0
MTEXT
5
D4
100
AcDbEntity
8
SK2
62
256
6
ByLayer
370
-1
48
1
60
0
100
AcDbMText
10
-96.881858
20
-0.941447
30
0
210
0
220
0
230
1
1
\W01.000;\fsimplex.shx,bigfont.shx;16 
40
4.5
41
0
44
1.084337
50
90
71
7
72
5
7
DEFAULT
0
LINE
5
D5
100
AcDbEntity
8
SK2
62
256
6
ByLayer
370
-1
48
1
60
0
100
AcDbLine
10
-88.006858
20
-7.9375
30
0
11
-97.756858
21
-7.9375
31
0
39
0
210
0
220
0
230
1
0
LINE
5
D6
100
AcDbEntity
8
SK2
62
256
6
ByLayer
370
-1
48
1
60
0
100
AcDbLine
10
-88.006858
20
7.9375
30
0
11
-97.756858
21
7.9375
31
0
39
0
210
0
220
0
230
1
0
LINE
5
D7
100
AcDbEntity
8
SK2
62
256
6
ByLayer
370
-1
48
1
60
0
100
AcDbLine
10
-95.756858
20
-7.9375
30
0
11
-95.756858
21
7.9375
31
0
39
0
210
0
220
0
230
1
0
LINE
5
D8
100
AcDbEntity
8
SK2
62
256
6
ByLayer
370
-1
48
1
60
0
100
AcDbLine
10
-95.756858
20
-7.9375
30
0
11
-96.174854
21
-4.762502
31
0
39
0
210
0
220
0
230
1
0
LINE
5
D9
100
AcDbEntity
8
SK2
62
256
6
ByLayer
370
-1
48
1
60
0
100
AcDbLine
10
-95.756858
20
-7.9375
30
0
11
-95.338861
21
-4.762498
31
0
39
0
210
0
220
0
230
1
0
LINE
5
DA
100
AcDbEntity
8
SK2
62
256
6
ByLayer
370
-1
48
1
60
0
100
AcDbLine
10
-96.174854
20
-4.762502
30
0
11
-95.338861
21
-4.762498
31
0
39
0
210
0
220
0
230
1
0
LINE
5
DB
100
AcDbEntity
8
SK2
62
256
6
ByLayer
370
-1
48
1
60
0
100
AcDbLine
10
-95.756858
20
7.9375
30
0
11
-95.338861
21
4.762502
31
0
39
0
210
0
220
0
230
1
0
LINE
5
DC
100
AcDbEntity
8
SK2
62
256
6
ByLayer
370
-1
48
1
60
0
100
AcDbLine
10
-95.756858
20
7.9375
30
0
11
-96.174854
21
4.762498
31
0
39
0
210
0
220
0
230
1
0
LINE
5
DD
100
AcDbEntity
8
SK2
62
256
6
ByLayer
370
-1
48
1
60
0
100
AcDbLine
10
-95.338861
20
4.762502
30
0
11
-96.174854
21
4.762498
31
0
39
0
210
0
220
0
230
1
0
ENDBLK
5
DF
100
AcDbEntity
8
0
100
AcDbBlockEnd
0
BLOCK
5
EC
100
AcDbEntity
8
0
100
AcDbBlockBegin
2
DimnDraft3D3
70
0
10
0
20
0
30
0
3
DimnDraft3D3
0
MTEXT
5
E2
100
AcDbEntity
8
2
62
256
6
ByLayer
370
-1
48
1
60
0
100
AcDbMText
10
41.468142
20
-2.203947
30
0
210
0
220
0
230
1
1
\W01.000;\fsimplex.shx,bigfont.shx;13 
40
4.5
41
0
44
1.084337
50
90
71
7
72
5
7
DEFAULT
0
LINE
5
E3
100
AcDbEntity
8
2
62
256
6
ByLayer
370
-1
48
1
60
0
100
AcDbLine
10
2
20
-7.9375
30
0
11
44.593142
21
-7.9375
31
0
39
0
210
0
220
0
230
1
0
LINE
5
E4
100
AcDbEntity
8
2
62
256
6
ByLayer
370
-1
48
1
60
0
100
AcDbLine
10
17.343142
20
5.4125
30
0
11
44.593142
21
5.4125
31
0
39
0
210
0
220
0
230
1
0
LINE
5
E5
100
AcDbEntity
8
2
62
256
6
ByLayer
370
-1
48
1
60
0
100
AcDbLine
10
42.593142
20
-19.1875
30
0
11
42.593142
21
16.6625
31
0
39
0
210
0
220
0
230
1
0
LINE
5
E6
100
AcDbEntity
8
2
62
256
6
ByLayer
370
-1
48
1
60
0
100
AcDbLine
10
42.593142
20
-7.9375
30
0
11
43.011139
21
-11.112498
31
0
39
0
210
0
220
0
230
1
0
LINE
5
E7
100
AcDbEntity
8
2
62
256
6
ByLayer
370
-1
48
1
60
0
100
AcDbLine
10
42.593142
20
-7.9375
30
0
11
42.175146
21
-11.112502
31
0
39
0
210
0
220
0
230
1
0
LINE
5
E8
100
AcDbEntity
8
2
62
256
6
ByLayer
370
-1
48
1
60
0
100
AcDbLine
10
43.011139
20
-11.112498
30
0
11
42.175146
21
-11.112502
31
0
39
0
210
0
220
0
230
1
0
LINE
5
E9
100
AcDbEntity
8
2
62
256
6
ByLayer
370
-1
48
1
60
0
100
AcDbLine
10
42.593142
20
5.4125
30
0
11
42.175146
21
8.587498
31
0
39
0
210
0
220
0
230
1
0
LINE
5
EA
100
AcDbEntity
8
2
62
256
6
ByLayer
370
-1
48
1
60
0
100
AcDbLine
10
42.593142
20
5.4125
30
0
11
43.011139
21
8.587502
31
0
39
0
210
0
220
0
230
1
0
LINE
5
EB
100
AcDbEntity
8
2
62
256
6
ByLayer
370
-1
48
1
60
0
100
AcDbLine
10
42.175146
20
8.587498
30
0
11
43.011139
21
8.587502
31
0
39
0
210
0
220
0
230
1
0
ENDBLK
5
ED
100
AcDbEntity
8
0
100
AcDbBlockEnd
0
BLOCK
5
FA
100
AcDbEntity
8
0
100
AcDbBlockBegin
2
DimnDraft3D4
70
0
10
0
20
0
30
0
3
DimnDraft3D4
0
MTEXT
5
F0
100
AcDbEntity
8
SK2
62
256
6
ByLayer
370
-1
48
1
60
0
100
AcDbMText
10
-37.925279
20
26.472184
30
0
210
0
220
0
230
1
1
\W01.000;\fsimplex.shx,bigfont.shx;100 
40
4.5
41
0
44
1.084337
50
0
71
7
72
5
7
DEFAULT
0
LINE
5
F1
100
AcDbEntity
8
SK2
62
256
6
ByLayer
370
-1
48
1
60
0
100
AcDbLine
10
15.343142
20
7.597184
30
0
11
15.343142
21
27.347184
31
0
39
0
210
0
220
0
230
1
0
LINE
5
F2
100
AcDbEntity
8
SK2
62
256
6
ByLayer
370
-1
48
1
60
0
100
AcDbLine
10
-86.006858
20
9.9375
30
0
11
-86.006858
21
27.347184
31
0
39
0
210
0
220
0
230
1
0
LINE
5
F3
100
AcDbEntity
8
SK2
62
256
6
ByLayer
370
-1
48
1
60
0
100
AcDbLine
10
15.343142
20
25.347184
30
0
11
-86.006858
21
25.347184
31
0
39
0
210
0
220
0
230
1
0
LINE
5
F4
100
AcDbEntity
8
SK2
62
256
6
ByLayer
370
-1
48
1
60
0
100
AcDbLine
10
15.343142
20
25.347184
30
0
11
12.168144
21
24.929188
31
0
39
0
210
0
220
0
230
1
0
LINE
5
F5
100
AcDbEntity
8
SK2
62
256
6
ByLayer
370
-1
48
1
60
0
100
AcDbLine
10
15.343142
20
25.347184
30
0
11
12.168141
21
25.765181
31
0
39
0
210
0
220
0
230
1
0
LINE
5
F6
100
AcDbEntity
8
SK2
62
256
6
ByLayer
370
-1
48
1
60
0
100
AcDbLine
10
12.168144
20
24.929188
30
0
11
12.168141
21
25.765181
31
0
39
0
210
0
220
0
230
1
0
LINE
5
F7
100
AcDbEntity
8
SK2
62
256
6
ByLayer
370
-1
48
1
60
0
100
AcDbLine
10
-86.006858
20
25.347184
30
0
11
-82.831859
21
25.765181
31
0
39
0
210
0
220
0
230
1
0
LINE
5
F8
100
AcDbEntity
8
SK2
62
256
6
ByLayer
370
-1
48
1
60
0
100
AcDbLine
10
-86.006858
20
25.347184
30
0
11
-82.831856
21
24.929188
31
0
39
0
210
0
220
0
230
1
0
LINE
5
F9
100
AcDbEntity
8
SK2
62
256
6
ByLayer
370
-1
48
1
60
0
100
AcDbLine
10
-82.831859
20
25.765181
30
0
11
-82.831856
21
24.929188
31
0
39
0
210
0
220
0
230
1
0
ENDBLK
5
FB
100
AcDbEntity
8
0
100
AcDbBlockEnd
0
ENDSEC
0
SECTION
2
ENTITIES
0
ARC
5
66
100
AcDbEntity
8
1
62
256
6
ByLayer
370
-1
48
1
60
0
100
AcDbCircle
39
0
10
-3.38125
20
-1.644496
30
0
40
1.49999999999999
210
0
220
0
230
-1
100
AcDbArc
50
180.028773
51
220.076613
0
ARC
5
67
100
AcDbEntity
8
1
62
256
6
ByLayer
370
-1
48
1
60
0
100
AcDbCircle
39
0
10
5.875958
20
-1.660727
30
0
40
1.72741837279959
210
0
220
0
230
1
100
AcDbArc
50
255
51
336.92871
0
ARC
5
68
100
AcDbEntity
8
1
62
256
6
ByLayer
370
-1
48
1
60
0
100
AcDbCircle
39
0
10
3.38125
20
-1.644496
30
0
40
1.49999999999999
210
0
220
0
230
1
100
AcDbArc
50
60.031686
51
311.217759
0
ARC
5
69
100
AcDbEntity
8
1
62
256
6
ByLayer
370
-1
48
1
60
0
100
AcDbCircle
39
0
10
5.634115
20
-1.595925
30
0
40
1.72741837279959
210
0
220
0
230
1
100
AcDbArc
50
222.94516
51
255
0
ARC
5
6A
100
AcDbEntity
8
1
62
256
6
ByLayer
370
-1
48
1
60
0
100
AcDbCircle
39
0
10
5.875958
20
-1.660727
30
0
40
1.5
210
0
220
0
230
1
100
AcDbArc
50
255
51
335.695108
0
ARC
5
6B
100
AcDbEntity
8
1
62
256
6
ByLayer
370
-1
48
1
60
0
100
AcDbCircle
39
0
10
5.634115
20
-1.595925
30
0
40
1.5
210
0
220
0
230
1
100
AcDbArc
50
222.54677
51
255
0
ARC
5
6C
100
AcDbEntity
8
1
62
256
6
ByLayer
370
-1
48
1
60
0
100
AcDbCircle
39
0
10
9.688686
20
1.997104
30
0
40
1.2065
210
0
220
0
230
1
100
AcDbArc
50
123.955279
51
180.079943
0
ARC
5
6D
100
AcDbEntity
8
1
62
256
6
ByLayer
370
-1
48
1
60
0
100
AcDbCircle
39
0
10
-9.688686
20
1.997104
30
0
40
1.6765
210
0
220
0
230
-1
100
AcDbArc
50
270.159887
51
330
0
ARC
5
6E
100
AcDbEntity
8
1
62
256
6
ByLayer
370
-1
48
1
60
0
100
AcDbCircle
39
0
10
-9.688686
20
1.997104
30
0
40
1.6765
210
0
220
0
230
-1
100
AcDbArc
50
209.840113
51
270.159887
0
ARC
5
70
100
AcDbEntity
8
1
62
256
6
ByLayer
370
-1
48
1
60
0
100
AcDbCircle
39
0
10
9.688686
20
1.997104
30
0
40
1.2065
210
0
220
0
230
1
100
AcDbArc
50
0.079943
51
59.920057
0
ARC
5
71
100
AcDbEntity
8
1
62
256
6
ByLayer
370
-1
48
1
60
0
100
AcDbCircle
39
0
10
-14.549086
20
4.803257
30
0
40
0.793999999999994
210
0
220
0
230
-1
100
AcDbArc
50
105
51
195
0
ARC
5
74
100
AcDbEntity
8
1
62
256
6
ByLayer
370
-1
48
1
60
0
100
AcDbCircle
39
0
10
-9.688686
20
1.997104
30
0
40
1.6765
210
0
220
0
230
-1
100
AcDbArc
50
90.159887
51
150
0
ARC
5
76
100
AcDbEntity
8
1
62
256
6
ByLayer
370
-1
48
1
60
0
100
AcDbCircle
39
0
10
9.688686
20
1.997104
30
0
40
1.2065
210
0
220
0
230
1
100
AcDbArc
50
59.920057
51
116.044721
0
ARC
5
77
100
AcDbEntity
8
1
62
256
6
ByLayer
370
-1
48
1
60
0
100
AcDbCircle
39
0
10
9.688686
20
1.997104
30
0
40
1.2065
210
0
220
0
230
1
100
AcDbArc
50
239.920057
51
296.044721
0
ARC
5
78
100
AcDbEntity
8
1
62
256
6
ByLayer
370
-1
48
1
60
0
100
AcDbCircle
39
0
10
-6.882533
20
6.857504
30
0
40
0.793999999999981
210
0
220
0
230
-1
100
AcDbArc
50
15
51
105
0
ARC
5
79
100
AcDbEntity
8
1
62
256
6
ByLayer
370
-1
48
1
60
0
100
AcDbCircle
39
0
10
-4.828286
20
-0.809049
30
0
40
0.793999999999967
210
0
220
0
230
-1
100
AcDbArc
50
285
51
15
0
ARC
5
7A
100
AcDbEntity
8
1
62
256
6
ByLayer
370
-1
48
1
60
0
100
AcDbCircle
39
0
10
-9.688686
20
1.997104
30
0
40
1.2065
210
0
220
0
230
-1
100
AcDbArc
50
56.044721
51
63.955279
0
ARC
5
7B
100
AcDbEntity
8
1
62
256
6
ByLayer
370
-1
48
1
60
0
100
AcDbCircle
39
0
10
9.688686
20
1.997104
30
0
40
1.2065
210
0
220
0
230
1
100
AcDbArc
50
180.079943
51
239.920057
0
ARC
5
7C
100
AcDbEntity
8
1
62
256
6
ByLayer
370
-1
48
1
60
0
100
AcDbCircle
39
0
10
-9.688686
20
1.997104
30
0
40
1.6765
210
0
220
0
230
-1
100
AcDbArc
50
29.840113
51
90.159887
0
ARC
5
7D
100
AcDbEntity
8
1
62
256
6
ByLayer
370
-1
48
1
60
0
100
AcDbCircle
39
0
10
-9.688686
20
1.997104
30
0
40
1.6765
210
0
220
0
230
-1
100
AcDbArc
50
150
51
209.840113
0
ARC
5
7E
100
AcDbEntity
8
1
62
256
6
ByLayer
370
-1
48
1
60
0
100
AcDbCircle
39
0
10
9.688686
20
1.997104
30
0
40
1.2065
210
0
220
0
230
1
100
AcDbArc
50
303.955279
51
0.079943
0
ARC
5
7F
100
AcDbEntity
8
1
62
256
6
ByLayer
370
-1
48
1
60
0
100
AcDbCircle
39
0
10
-9.688686
20
1.997104
30
0
40
1.6765
210
0
220
0
230
-1
100
AcDbArc
50
330
51
29.840113
0
ARC
5
80
100
AcDbEntity
8
1
62
256
6
ByLayer
370
-1
48
1
60
0
100
AcDbCircle
39
0
10
-9.688686
20
1.997104
30
0
40
1.2065
210
0
220
0
230
-1
100
AcDbArc
50
236.044721
51
243.955279
0
ARC
5
82
100
AcDbEntity
8
1
62
256
6
ByLayer
370
-1
48
1
60
0
100
AcDbCircle
39
0
10
-12.494839
20
-2.863296
30
0
40
0.793999999999972
210
0
220
0
230
-1
100
AcDbArc
50
195
51
285
0
CIRCLE
5
6F
100
AcDbEntity
8
1
62
256
6
ByLayer
370
-1
48
1
60
0
100
AcDbCircle
10
-9.688686
20
1.997104
30
0
40
3.07132534818238
39
0
210
0
220
0
230
-1
0
CIRCLE
5
72
100
AcDbEntity
8
1
62
256
6
ByLayer
370
-1
48
1
60
0
100
AcDbCircle
10
-9.688686
20
1.997104
30
0
40
3.00605207334198
39
0
210
0
220
0
230
-1
0
CIRCLE
5
73
100
AcDbEntity
8
1
62
256
6
ByLayer
370
-1
48
1
60
0
100
AcDbCircle
10
-9.688686
20
1.997104
30
0
40
1.8
39
0
210
0
220
0
230
-1
0
CIRCLE
5
75
100
AcDbEntity
8
1
62
256
6
ByLayer
370
-1
48
1
60
0
100
AcDbCircle
10
-9.688686
20
1.997104
30
0
40
2.625
39
0
210
0
220
0
230
-1
0
CIRCLE
5
81
100
AcDbEntity
8
1
62
256
6
ByLayer
370
-1
48
1
60
0
100
AcDbCircle
10
9.688686
20
1.997104
30
0
40
2.95049568210608
39
0
210
0
220
0
230
1
0
POINT
5
41
100
AcDbEntity
8
81
62
256
6
ByLayer
370
-1
48
1
60
0
100
AcDbPoint
10
15.343142
20
5.4125
30
0
39
0
210
0
220
0
230
1
50
360
0
POINT
5
43
100
AcDbEntity
8
2
62
256
6
ByLayer
370
-1
48
1
60
0
100
AcDbPoint
10
15.343142
20
5.4125
30
0
39
0
210
0
220
0
230
1
50
360
0
POINT
5
45
100
AcDbEntity
8
SK2
62
256
6
ByLayer
370
-1
48
1
60
0
100
AcDbPoint
10
15.343142
20
5.4125
30
0
39
0
210
0
220
0
230
1
50
360
0
POINT
5
47
100
AcDbEntity
8
SK2
62
256
6
ByLayer
370
-1
48
1
60
0
100
AcDbPoint
10
15.343142
20
5.4125
30
0
39
0
210
0
220
0
230
1
50
360
0
POINT
5
48
100
AcDbEntity
8
80
62
256
6
ByLayer
370
-1
48
1
60
0
100
AcDbPoint
10
0
20
0
30
0
39
0
210
0
220
0
230
1
50
360
0
POINT
5
4A
100
AcDbEntity
8
SK2
62
256
6
ByLayer
370
-1
48
1
60
0
100
AcDbPoint
10
15.343142
20
5.4125
30
0
39
0
210
0
220
0
230
1
50
360
0
POINT
5
4B
100
AcDbEntity
8
SK2
62
256
6
ByLayer
370
-1
48
1
60
0
100
AcDbPoint
10
15.343142
20
5.4125
30
0
39
0
210
0
220
0
230
1
50
360
0
SPLINE
5
83
100
AcDbEntity
8
1
62
256
6
ByLayer
370
-1
48
1
60
0
100
AcDbSpline
70
4
71
3
72
8
73
4
40
0
40
0
40
0
40
0
40
1
40
1
40
1
40
1
41
1
10
4.52902637537591
20
-2.61021279288082
30
0
41
1
10
4.47981852707363
20
-2.66869742523599
30
0
41
1
10
4.42668258492222
20
-2.72283828730812
30
0
41
1
10
4.36963395595953
20
-2.77281182844254
30
0
0
SPLINE
5
84
100
AcDbEntity
8
1
62
256
6
ByLayer
370
-1
48
1
60
0
100
AcDbSpline
70
4
71
3
72
12
73
8
40
0
40
0
40
0
40
0
40
0.495912274382397
40
0.495912274382397
40
0.900351137184684
40
0.900351137184684
40
1
40
1
40
1
40
1
41
1
10
8.56497439265917
20
2.96760795954205
30
0
41
1
10
8.63377662019951
20
2.94873941091649
30
0
41
1
10
8.70786659462715
20
2.9401372975162
30
0
41
1
10
8.84444622247355
20
2.94744515642853
30
0
41
1
10
8.90808092182914
20
2.95936829073562
30
0
41
1
10
8.98459856719609
20
2.98565771935796
30
0
41
1
10
8.99979580484415
20
2.9914851605669
30
0
41
1
10
9.01480077424759
20
2.99786429373913
30
0
0
SPLINE
5
85
100
AcDbEntity
8
1
62
256
6
ByLayer
370
-1
48
1
60
0
100
AcDbSpline
70
4
71
3
72
16
73
12
40
0
40
0
40
0
40
0
40
0.0570818975261689
40
0.0570818975261689
40
0.280040791670408
40
0.280040791670408
40
0.50546083630731
40
0.50546083630731
40
0.745064976340765
40
0.745064976340765
40
1
40
1
40
1
40
1
41
1
10
11.1429111976195
20
1.1629089966975
30
0
41
1
10
11.1467134818284
20
1.16953739419827
30
0
41
1
10
11.1502585690864
20
1.17632162181184
30
0
41
1
10
11.1662007009152
20
1.20998430787975
30
0
41
1
10
11.1748027308247
20
1.23900451528428
30
0
41
1
10
11.1829032521163
20
1.29711654538411
30
0
41
1
10
11.1824265699905
20
1.32694255608496
30
0
41
1
10
11.1729200404809
20
1.38523738124283
30
0
41
1
10
11.1632662305433
20
1.41423797132637
30
0
41
1
10
11.1358878581974
20
1.46817502353605
30
0
41
1
10
11.1173904206967
20
1.49338752007634
30
0
41
1
10
11.0961030534597
20
1.51467540868717
30
0
0
SPLINE
5
86
100
AcDbEntity
8
1
62
256
6
ByLayer
370
-1
48
1
60
0
100
AcDbSpline
70
4
71
3
72
18
73
14
40
0
40
0
40
0
40
0
40
0.212436129019345
40
0.212436129019345
40
0.386572411030554
40
0.386572411030554
40
0.562390848305793
40
0.562390848305793
40
0.715354799834169
40
0.715354799834169
40
0.918205666171701
40
0.918205666171701
40
1
40
1
40
1
40
1
41
1
10
11.0947513348739
20
2.48345850290843
30
0
41
1
10
11.0447196130842
20
2.43314553492624
30
0
41
1
10
11.0009263118754
20
2.37325269187218
30
0
41
1
10
10.9399983593735
20
2.25124862306444
30
0
41
1
10
10.9189374909455
20
2.19003540256213
30
0
41
1
10
10.8949683890402
20
2.06250093211855
30
0
41
1
10
10.8920687842083
20
1.99421079594151
30
0
41
1
10
10.9047942847183
20
1.87168947055343
30
0
41
1
10
10.9181249347505
20
1.81531481960474
30
0
41
1
10
10.9624296594822
20
1.69462933442381
30
0
41
1
10
10.9982773536734
20
1.6315476061481
30
0
41
1
10
11.05805107289
20
1.55509037480468
30
0
41
1
10
11.076576869134
20
1.53420207125154
30
0
41
1
10
11.0961030534597
20
1.51467540868717
30
0
0
SPLINE
5
87
100
AcDbEntity
8
1
62
256
6
ByLayer
370
-1
48
1
60
0
100
AcDbSpline
70
4
71
3
72
18
73
14
40
0
40
0
40
0
40
0
40
0.212491707339853
40
0.212491707339853
40
0.386618286607118
40
0.386618286607118
40
0.562426368697784
40
0.562426368697784
40
0.715388424185701
40
0.715388424185701
40
0.918249218448281
40
0.918249218448281
40
1
40
1
40
1
40
1
41
1
10
9.4027731636495
20
0.537030940978383
30
0
41
1
10
9.38440309210748
20
0.605585623235925
30
0
41
1
10
9.35460953534158
20
0.673559511145839
30
0
41
1
10
9.27971256901705
20
0.787545073460876
30
0
41
1
10
9.23736490115363
20
0.83650386665019
30
0
41
1
10
9.13913581906158
20
0.921292000283529
30
0
41
1
10
9.081547976488
20
0.958102875117106
30
0
41
1
10
8.96922096677258
20
1.00864782580967
30
0
41
1
10
8.91378081236726
20
1.02544166432361
30
0
41
1
10
8.78717097679578
20
1.04776220282187
30
0
41
1
10
8.714615801729
20
1.04845620047911
30
0
41
1
10
8.61849100442765
20
1.03518294831136
30
0
41
1
10
8.59113764862576
20
1.02966174770401
30
0
41
1
10
8.5644582525899
20
1.02259311072311
30
0
0
SPLINE
5
88
100
AcDbEntity
8
1
62
256
6
ByLayer
370
-1
48
1
60
0
100
AcDbSpline
70
4
71
3
72
16
73
12
40
0
40
0
40
0
40
0
40
0.0614399919205097
40
0.0614399919205097
40
0.282217865975254
40
0.282217865975254
40
0.505713205332386
40
0.505713205332386
40
0.743485947899797
40
0.743485947899797
40
1
40
1
40
1
40
1
41
1
10
9.68400774055078
20
0.320610693037167
30
0
41
1
10
9.69230655568776
20
0.32058753473774
30
0
41
1
10
9.70061556705329
20
0.320919071324653
30
0
41
1
10
9.73837472665457
20
0.324040520987353
30
0
41
1
10
9.76777697308677
20
0.331128499608894
30
0
41
1
10
9.82211778848603
20
0.35321515700906
30
0
41
1
10
9.84769759898273
20
0.368569364006106
30
0
41
1
10
9.89341633255719
20
0.40601652743743
30
0
41
1
10
9.91369608303341
20
0.428921549729495
30
0
41
1
10
9.94691416450891
20
0.480046720318057
30
0
41
1
10
9.95958071987627
20
0.509147156954782
30
0
41
1
10
9.96731118030925
20
0.538689394009168
30
0
0
SPLINE
5
89
100
AcDbEntity
8
1
62
256
6
ByLayer
370
-1
48
1
60
0
100
AcDbSpline
70
4
71
3
72
14
73
10
40
0
40
0
40
0
40
0
40
0.282359797867267
40
0.282359797867267
40
0.567068341632632
40
0.567068341632632
40
0.824670789192299
40
0.824670789192299
40
1
40
1
40
1
40
1
41
1
10
10.8123977826742
20
1.02660037137312
30
0
41
1
10
10.8448154044373
20
1.01771005641635
30
0
41
1
10
10.8798215743155
20
1.01427986233534
30
0
41
1
10
10.9496983033017
20
1.02029316036544
30
0
41
1
10
10.9856436060836
20
1.02999969443636
30
0
41
1
10
11.0485182955073
20
1.06096478401363
30
0
41
1
10
11.0769041952978
20
1.08155909500468
30
0
41
1
10
11.1168127517624
20
1.12327381099556
30
0
41
1
10
11.1311774911859
20
1.14245401066114
30
0
41
1
10
11.1429111976195
20
1.1629089966975
30
0
0
SPLINE
5
8A
100
AcDbEntity
8
1
62
256
6
ByLayer
370
-1
48
1
60
0
100
AcDbSpline
70
4
71
3
72
16
73
12
40
0
40
0
40
0
40
0
40
0.061439991920749
40
0.061439991920749
40
0.282217865975473
40
0.282217865975473
40
0.505713205332646
40
0.505713205332646
40
0.743485947900085
40
0.743485947900085
40
1
40
1
40
1
40
1
41
1
10
9.69336443478261
20
3.673597637878
30
0
41
1
10
9.68506561964557
20
3.67362079617743
30
0
41
1
10
9.67675660828002
20
3.67328925959052
30
0
41
1
10
9.63899744867871
20
3.67016780992779
30
0
41
1
10
9.60959520224651
20
3.66307983130625
30
0
41
1
10
9.55525438684725
20
3.64099317390608
30
0
41
1
10
9.52967457635054
20
3.62563896690904
30
0
41
1
10
9.48395584277611
20
3.58819180347769
30
0
41
1
10
9.46367609229986
20
3.56528678118559
30
0
41
1
10
9.43045801082442
20
3.51416161059706
30
0
41
1
10
9.41779145545706
20
3.48506117396036
30
0
41
1
10
9.41006099502408
20
3.455518936906
30
0
0
SPLINE
5
8B
100
AcDbEntity
8
1
62
256
6
ByLayer
370
-1
48
1
60
0
100
AcDbSpline
70
4
71
3
72
14
73
10
40
0
40
0
40
0
40
0
40
0.28255043167543
40
0.28255043167543
40
0.569051114319388
40
0.569051114319388
40
0.828359346722369
40
0.828359346722369
40
1
40
1
40
1
40
1
41
1
10
9.97459901168378
20
3.45717738993704
30
0
41
1
10
9.96596436172678
20
3.4894007638554
30
0
41
1
10
9.95139969491072
20
3.52111577188396
30
0
41
1
10
9.91126191487422
20
3.57822206299846
30
0
41
1
10
9.88486254506461
20
3.60436825057766
30
0
41
1
10
9.82663296208278
20
3.64311570536765
30
0
41
1
10
9.7946429735191
20
3.65730175958169
30
0
41
1
10
9.73929188420422
20
3.67072845938529
30
0
41
1
10
9.716238929253
20
3.67353380534479
30
0
41
1
10
9.69336443478261
20
3.673597637878
30
0
0
SPLINE
5
8C
100
AcDbEntity
8
1
62
256
6
ByLayer
370
-1
48
1
60
0
100
AcDbSpline
70
4
71
3
72
12
73
8
40
0
40
0
40
0
40
0
40
0.422118799765369
40
0.422118799765369
40
0.843213950333298
40
0.843213950333298
40
1
40
1
40
1
40
1
41
1
10
9.15894505018983
20
3.08108603025653
30
0
41
1
10
9.21323464933892
20
3.12194861631497
30
0
41
1
10
9.26108642668473
20
3.17104522194239
30
0
41
1
10
9.33775629387429
20
3.27547796208782
30
0
41
1
10
9.36782163473987
20
3.33214252294928
30
0
41
1
10
9.39737294895633
20
3.41152732156229
30
0
41
1
10
9.40428839060485
20
3.43345871815779
30
0
41
1
10
9.41006099502414
20
3.455518936906
30
0
0
SPLINE
5
8D
100
AcDbEntity
8
1
62
256
6
ByLayer
370
-1
48
1
60
0
100
AcDbSpline
70
4
71
3
72
14
73
10
40
0
40
0
40
0
40
0
40
0.282359797867306
40
0.282359797867306
40
0.567068341632636
40
0.567068341632636
40
0.82467078919231
40
0.82467078919231
40
1
40
1
40
1
40
1
41
1
10
8.56497439265917
20
2.96760795954202
30
0
41
1
10
8.53255677089604
20
2.97649827449882
30
0
41
1
10
8.49755060101791
20
2.97992846857983
30
0
41
1
10
8.42767387203159
20
2.97391517054973
30
0
41
1
10
8.39172856924972
20
2.96420863647882
30
0
41
1
10
8.32885387982606
20
2.93324354690154
30
0
41
1
10
8.30046798003553
20
2.91264923591052
30
0
41
1
10
8.2605594235709
20
2.87093451991962
30
0
41
1
10
8.24619468414744
20
2.85175432025403
30
0
41
1
10
8.23446097771384
20
2.83129933421767
30
0
0
SPLINE
5
8E
100
AcDbEntity
8
1
62
256
6
ByLayer
370
-1
48
1
60
0
100
AcDbSpline
70
4
71
3
72
14
73
10
40
0
40
0
40
0
40
0
40
0.28377563182743
40
0.28377563182743
40
0.57012244554776
40
0.57012244554776
40
0.829307104757514
40
0.829307104757514
40
1
40
1
40
1
40
1
41
1
10
8.28262084045946
20
1.51074982800674
30
0
41
1
10
8.25899612052876
20
1.48699230508044
30
0
41
1
10
8.23881902529371
20
1.45831783227365
30
0
41
1
10
8.20964817921981
20
1.39474581323671
30
0
41
1
10
8.20036250000365
20
1.35878330788901
30
0
41
1
10
8.1962169256326
20
1.28898863553459
30
0
41
1
10
8.20006996191358
20
1.25422056227507
30
0
41
1
10
8.21630142465466
20
1.19976993827242
30
0
41
1
10
8.22542012374214
20
1.17855515996115
30
0
41
1
10
8.23679449822208
20
1.15885416545757
30
0
0
SPLINE
5
8F
100
AcDbEntity
8
1
62
256
6
ByLayer
370
-1
48
1
60
0
100
AcDbSpline
70
4
71
3
72
16
73
12
40
0
40
0
40
0
40
0
40
0.0629079181439174
40
0.0629079181439174
40
0.285782564289279
40
0.285782564289279
40
0.511450811666976
40
0.511450811666976
40
0.751573656725731
40
0.751573656725731
40
1
40
1
40
1
40
1
41
1
10
8.23679449822208
20
1.15885416545757
30
0
41
1
10
8.24100244680227
20
1.15156578472107
30
0
41
1
10
8.24553114393913
20
1.14445150310786
30
0
41
1
10
8.26730358792582
20
1.1133046779585
30
0
41
1
10
8.28822737350492
20
1.0914717851272
30
0
41
1
10
8.33466531442713
20
1.05563965753419
30
0
41
1
10
8.36081030840543
20
1.0412672004926
30
0
41
1
10
8.41618771378538
20
1.02061458778135
30
0
41
1
10
8.44619292922505
20
1.01462313703064
30
0
41
1
10
8.50583100058867
20
1.01172383460002
30
0
41
1
10
8.53608562798203
20
1.01507585721109
30
0
41
1
10
8.5644582525899
20
1.02259311072311
30
0
0
SPLINE
5
90
100
AcDbEntity
8
1
62
256
6
ByLayer
370
-1
48
1
60
0
100
AcDbSpline
70
4
71
3
72
18
73
14
40
0
40
0
40
0
40
0
40
0.212436129019343
40
0.212436129019343
40
0.38657241103055
40
0.38657241103055
40
0.562390848305792
40
0.562390848305792
40
0.715354799834172
40
0.715354799834172
40
0.918205666171705
40
0.918205666171705
40
1
40
1
40
1
40
1
41
1
10
8.28262084045946
20
1.51074982800674
30
0
41
1
10
8.33265256224917
20
1.56106279598893
30
0
41
1
10
8.37644586345789
20
1.62095563904299
30
0
41
1
10
8.43737381595986
20
1.74295970785073
30
0
41
1
10
8.45843468438784
20
1.80417292835304
30
0
41
1
10
8.48240378629311
20
1.93170739879659
30
0
41
1
10
8.485303391125
20
1.99999753497363
30
0
41
1
10
8.47257789061501
20
2.12251886036174
30
0
41
1
10
8.45924724058278
20
2.17889351131043
30
0
41
1
10
8.41494251585115
20
2.29957899649133
30
0
41
1
10
8.37909482165989
20
2.36266072476704
30
0
41
1
10
8.31932110244333
20
2.43911795611047
30
0
41
1
10
8.30079530619935
20
2.4600062596636
30
0
41
1
10
8.28126912187363
20
2.479532922228
30
0
0
SPLINE
5
91
100
AcDbEntity
8
1
62
256
6
ByLayer
370
-1
48
1
60
0
100
AcDbSpline
70
4
71
3
72
16
73
12
40
0
40
0
40
0
40
0
40
0.0629079181439646
40
0.0629079181439646
40
0.285782564289318
40
0.285782564289318
40
0.511450811667002
40
0.511450811667002
40
0.751573656725743
40
0.751573656725743
40
1
40
1
40
1
40
1
41
1
10
11.1405776771113
20
2.83535416545757
30
0
41
1
10
11.1363697285311
20
2.8426425461941
30
0
41
1
10
11.1318410313942
20
2.84975682780731
30
0
41
1
10
11.1100685874075
20
2.88090365295667
30
0
41
1
10
11.0891448018284
20
2.90273654578797
30
0
41
1
10
11.0427068609062
20
2.93856867338098
30
0
41
1
10
11.0165618669279
20
2.95294113042257
30
0
41
1
10
10.961184461548
20
2.97359374313382
30
0
41
1
10
10.9311792461083
20
2.97958519388453
30
0
41
1
10
10.8715411747447
20
2.98248449631515
30
0
41
1
10
10.8412865473513
20
2.97913247370408
30
0
41
1
10
10.8129139227435
20
2.97161522019206
30
0
0
SPLINE
5
92
100
AcDbEntity
8
1
62
256
6
ByLayer
370
-1
48
1
60
0
100
AcDbSpline
70
4
71
3
72
12
73
8
40
0
40
0
40
0
40
0
40
0.422118799667229
40
0.422118799667229
40
0.843213950217087
40
0.843213950217087
40
1
40
1
40
1
40
1
41
1
10
10.2184271251437
20
0.913122300658756
30
0
41
1
10
10.1641375260072
20
0.872259714609783
30
0
41
1
10
10.1162857486709
20
0.8231631089958
30
0
41
1
10
10.0396158814838
20
0.718730368868393
30
0
41
1
10
10.0095505406151
20
0.662065808010652
30
0
41
1
10
9.97999922638729
20
0.582681009385368
30
0
41
1
10
9.97308378473281
20
0.560749612773719
30
0
41
1
10
9.96731118030925
20
0.538689394009168
30
0
0
SPLINE
5
93
100
AcDbEntity
8
1
62
256
6
ByLayer
370
-1
48
1
60
0
100
AcDbSpline
70
4
71
3
72
12
73
8
40
0
40
0
40
0
40
0
40
0.495912274382185
40
0.495912274382185
40
0.90035113717623
40
0.90035113717623
40
1
40
1
40
1
40
1
41
1
10
10.8123977826742
20
1.02660037137312
30
0
41
1
10
10.7435955551338
20
1.04546891999868
30
0
41
1
10
10.6695055807062
20
1.054071033399
30
0
41
1
10
10.532925952861
20
1.04676317448673
30
0
41
1
10
10.4692912535067
20
1.03484004018003
30
0
41
1
10
10.3927736081396
20
1.00855061155812
30
0
41
1
10
10.3775763704903
20
1.00272317034873
30
0
41
1
10
10.3625714010856
20
0.996344037175959
30
0
0
SPLINE
5
94
100
AcDbEntity
8
1
62
256
6
ByLayer
370
-1
48
1
60
0
100
AcDbSpline
70
4
71
3
72
14
73
10
40
0
40
0
40
0
40
0
40
0.282550431675691
40
0.282550431675691
40
0.569051114319437
40
0.569051114319437
40
0.828359346722221
40
0.828359346722221
40
1
40
1
40
1
40
1
41
1
10
9.4027731636495
20
0.537030940978383
30
0
41
1
10
9.4114078136065
20
0.50480756705997
30
0
41
1
10
9.42597248042256
20
0.473092559031358
30
0
41
1
10
9.46611026045906
20
0.415986267916793
30
0
41
1
10
9.49250963026867
20
0.389840080337564
30
0
41
1
10
9.55073921325049
20
0.351092625547579
30
0
41
1
10
9.58272920181417
20
0.336906571333515
30
0
41
1
10
9.63808029112909
20
0.323479871529884
30
0
41
1
10
9.66113324608034
20
0.320674525570382
30
0
41
1
10
9.68400774055078
20
0.320610693037167
30
0
0
SPLINE
5
95
100
AcDbEntity
8
1
62
256
6
ByLayer
370
-1
48
1
60
0
100
AcDbSpline
70
4
71
3
72
14
73
10
40
0
40
0
40
0
40
0
40
0.283775631827444
40
0.283775631827444
40
0.570122445547784
40
0.570122445547784
40
0.82930710475755
40
0.82930710475755
40
1
40
1
40
1
40
1
41
1
10
11.0947513348739
20
2.48345850290843
30
0
41
1
10
11.1183760548046
20
2.50721602583474
30
0
41
1
10
11.1385531500397
20
2.53589049864152
30
0
41
1
10
11.1677239961135
20
2.59946251767846
30
0
41
1
10
11.1770096753297
20
2.63542502302616
30
0
41
1
10
11.1811552497007
20
2.70521969538058
30
0
41
1
10
11.1773022134198
20
2.73998776864011
30
0
41
1
10
11.1610707506787
20
2.79443839264272
30
0
41
1
10
11.1519520515913
20
2.81565317095399
30
0
41
1
10
11.1405776771113
20
2.83535416545757
30
0
0
SPLINE
5
96
100
AcDbEntity
8
1
62
256
6
ByLayer
370
-1
48
1
60
0
100
AcDbSpline
70
4
71
3
72
18
73
14
40
0
40
0
40
0
40
0
40
0.212491707340062
40
0.212491707340062
40
0.386618286607283
40
0.386618286607283
40
0.5624263686979
40
0.5624263686979
40
0.715388424185789
40
0.715388424185789
40
0.91824921844833
40
0.91824921844833
40
1
40
1
40
1
40
1
41
1
10
9.97459901168378
20
3.45717738993704
30
0
41
1
10
9.99296908322583
20
3.38862270767942
30
0
41
1
10
10.0227626399917
20
3.32064881976942
30
0
41
1
10
10.0976596063163
20
3.2066632574543
30
0
41
1
10
10.1400072741797
20
3.15770446426498
30
0
41
1
10
10.2382363562718
20
3.07291633063164
30
0
41
1
10
10.2958241988454
20
3.03610545579807
30
0
41
1
10
10.4081512085608
20
2.9855605051055
30
0
41
1
10
10.4635913629661
20
2.96876666659153
30
0
41
1
10
10.5902011985376
20
2.9464461280933
30
0
41
1
10
10.6627563736044
20
2.94575213043606
30
0
41
1
10
10.7588811709057
20
2.95902538260381
30
0
41
1
10
10.7862345267076
20
2.96454658321116
30
0
41
1
10
10.8129139227435
20
2.97161522019206
30
0
0
SPLINE
5
97
100
AcDbEntity
8
1
62
256
6
ByLayer
370
-1
48
1
60
0
100
AcDbSpline
70
4
71
3
72
16
73
12
40
0
40
0
40
0
40
0
40
0.057081897526151
40
0.057081897526151
40
0.280040791670341
40
0.280040791670341
40
0.505460836307238
40
0.505460836307238
40
0.745064976340669
40
0.745064976340669
40
1
40
1
40
1
40
1
41
1
10
8.23446097771384
20
2.83129933421767
30
0
41
1
10
8.23065869350495
20
2.8246709367169
30
0
41
1
10
8.22711360624697
20
2.81788670910333
30
0
41
1
10
8.21117147441811
20
2.78422402303542
30
0
41
1
10
8.20256944450864
20
2.75520381563089
30
0
41
1
10
8.19446892321707
20
2.69709178553109
30
0
41
1
10
8.19494560534287
20
2.66726577483024
30
0
41
1
10
8.20445213485237
20
2.60897094967234
30
0
41
1
10
8.21410594478999
20
2.5799703595888
30
0
41
1
10
8.24148431713587
20
2.52603330737912
30
0
41
1
10
8.25998175463667
20
2.5008208108388
30
0
41
1
10
8.28126912187361
20
2.479532922228
30
0
0
LINE
5
4C
100
AcDbEntity
8
81
62
256
6
ByLayer
370
-1
48
1
60
0
100
AcDbLine
10
15.343142
20
5.4125
30
0
11
25.343142
21
5.4125
31
0
39
0
210
0
220
0
230
1
0
LINE
5
4D
100
AcDbEntity
8
80
62
256
6
ByLayer
370
-1
48
1
60
0
100
AcDbLine
10
0
20
0
30
0
11
-5
21
0
31
0
39
0
210
0
220
0
230
1
0
LINE
5
4E
100
AcDbEntity
8
1
62
256
6
ByLayer
370
-1
48
1
60
0
100
AcDbLine
10
5.187026
20
-3.264483
30
0
11
5.245886
21
-3.044814
31
0
39
0
210
0
220
0
230
1
0
LINE
5
50
100
AcDbEntity
8
1
62
256
6
ByLayer
370
-1
48
1
60
0
100
AcDbLine
10
11.618693
20
-5.443449
30
0
11
12.116914
21
-3.584061
31
0
39
0
210
0
220
0
230
1
0
LINE
5
51
100
AcDbEntity
8
1
62
256
6
ByLayer
370
-1
48
1
60
0
100
AcDbLine
10
0
20
-7.936318
30
0
11
5.003138
21
-7.936318
31
0
39
0
210
0
220
0
230
1
0
LINE
5
52
100
AcDbEntity
8
1
62
256
6
ByLayer
370
-1
48
1
60
0
100
AcDbLine
10
5.003138
20
-7.936318
30
0
11
11.618693
21
-5.443449
31
0
39
0
210
0
220
0
230
1
0
LINE
5
53
100
AcDbEntity
8
1
62
256
6
ByLayer
370
-1
48
1
60
0
100
AcDbLine
10
2.162263
20
7.9375
30
0
11
0
21
7.9375
31
0
39
0
210
0
220
0
230
1
0
LINE
5
54
100
AcDbEntity
8
1
62
256
6
ByLayer
370
-1
48
1
60
0
100
AcDbLine
10
5.428869
20
-3.329285
30
0
11
5.187026
21
-3.264483
31
0
39
0
210
0
220
0
230
1
0
LINE
5
55
100
AcDbEntity
8
1
62
256
6
ByLayer
370
-1
48
1
60
0
100
AcDbLine
10
5.428869
20
-3.329285
30
0
11
5.48773
21
-3.109616
31
0
39
0
210
0
220
0
230
1
0
LINE
5
56
100
AcDbEntity
8
1
62
256
6
ByLayer
370
-1
48
1
60
0
100
AcDbLine
10
6.069388
20
6.890589
30
0
11
2.162263
21
7.9375
31
0
39
0
210
0
220
0
230
1
0
LINE
5
57
100
AcDbEntity
8
1
62
256
6
ByLayer
370
-1
48
1
60
0
100
AcDbLine
10
5.48773
20
-3.109616
30
0
11
5.245886
21
-3.044814
31
0
39
0
210
0
220
0
230
1
0
LINE
5
58
100
AcDbEntity
8
1
62
256
6
ByLayer
370
-1
48
1
60
0
100
AcDbLine
10
0
20
7.9375
30
0
11
0
21
-7.936318
31
0
39
0
210
0
220
0
230
1
0
LINE
5
59
100
AcDbEntity
8
SK1
62
256
6
ByLayer
370
-1
48
1
60
0
100
AcDbLine
10
-86.006858
20
-7.9375
30
0
11
-0.15
21
-7.9375
31
0
39
0
210
0
220
0
230
1
0
LINE
5
5B
100
AcDbEntity
8
SK1
62
256
6
ByLayer
370
-1
48
1
60
0
100
AcDbLine
10
-0.15
20
7.9375
30
0
11
-86.006858
21
7.9375
31
0
39
0
210
0
220
0
230
1
0
LINE
5
5C
100
AcDbEntity
8
SK1
62
256
6
ByLayer
370
-1
48
1
60
0
100
AcDbLine
10
0
20
7.9375
30
0
11
-0.15
21
7.9375
31
0
39
0
210
0
220
0
230
1
0
LINE
5
5D
100
AcDbEntity
8
SK1
62
256
6
ByLayer
370
-1
48
1
60
0
100
AcDbLine
10
-86.006858
20
7.9375
30
0
11
-86.006858
21
-7.9375
31
0
39
0
210
0
220
0
230
1
0
LINE
5
5E
100
AcDbEntity
8
1
62
256
6
ByLayer
370
-1
48
1
60
0
100
AcDbLine
10
13.261784
20
-3.068798
30
0
11
15.316031
21
4.597755
31
0
39
0
210
0
220
0
230
1
0
LINE
5
5F
100
AcDbEntity
8
1
62
256
6
ByLayer
370
-1
48
1
60
0
100
AcDbLine
10
6.115588
20
7.063007
30
0
11
4.061341
21
-0.603547
31
0
39
0
210
0
220
0
230
1
0
LINE
5
60
100
AcDbEntity
8
1
62
256
6
ByLayer
370
-1
48
1
60
0
100
AcDbLine
10
14.754588
20
5.570203
30
0
11
7.088035
21
7.624449
31
0
39
0
210
0
220
0
230
1
0
LINE
5
61
100
AcDbEntity
8
SK1
62
256
6
ByLayer
370
-1
48
1
60
0
100
AcDbLine
10
-0.15
20
7.9375
30
0
11
-0.15
21
-7.9375
31
0
39
0
210
0
220
0
230
1
0
LINE
5
62
100
AcDbEntity
8
SK1
62
256
6
ByLayer
370
-1
48
1
60
0
100
AcDbLine
10
-0.15
20
-7.936972
30
0
11
0
21
-7.936318
31
0
39
0
210
0
220
0
230
1
0
LINE
5
63
100
AcDbEntity
8
SK1
62
256
6
ByLayer
370
-1
48
1
60
0
100
AcDbLine
10
0
20
7.9375
30
0
11
0
21
-7.936318
31
0
39
0
210
0
220
0
230
1
0
LINE
5
64
100
AcDbEntity
8
1
62
256
6
ByLayer
370
-1
48
1
60
0
100
AcDbLine
10
4.622784
20
-1.575994
30
0
11
12.289337
21
-3.630241
31
0
39
0
210
0
220
0
230
1
0
LINE
5
65
100
AcDbEntity
8
2
62
256
6
ByLayer
370
-1
48
1
60
1
100
AcDbLine
10
15.343142
20
5.4125
30
0
11
15.344108
21
5.412241
31
0
39
0
210
0
220
0
230
1
0
MTEXT
5
98
100
AcDbEntity
8
SK6
62
256
6
ByLayer
370
-1
48
1
60
0
100
AcDbMText
10
-50.839252
20
-16.412993
30
0
210
0
220
0
230
1
1
\W00.720;\fsimplex.shx,bigfont.shx;SSBCR 1616H 09 
40
3.5
41
0
44
1.084337
50
0
71
7
72
5
7
DEFAULT
0
DIMENSION
5
CB
100
AcDbEntity
8
2
62
256
6
ByLayer
370
-3
48
1
60
0
100
AcDbDimension
2
DimnDraft3D1
10
1.239029
20
9.191686
30
0
11
1.247533
21
13.316657
31
0
70
34
71
5
72
1
41
1
210
0
220
0
230
1
3
Standard
100
AcDb2LineAngularDimension
13
15.343142
23
7.597184
33
0
14
15.343142
24
20.014153
34
0
15
11.857052
25
6.346595
35
0
16
4.932316
26
18.980153
36
0
40
0
0
DIMENSION
5
E0
100
AcDbEntity
8
SK2
62
256
6
ByLayer
370
-3
48
1
60
0
100
AcDbDimension
2
DimnDraft3D2
10
-95.756858
20
7.9375
30
0
11
-95.756858
21
-2.066447
31
0
70
32
71
5
72
1
41
1
210
0
220
0
230
1
3
Standard
100
AcDbAlignedDimension
13
-88.006858
23
-7.9375
33
0
14
-88.006858
24
7.9375
34
0
50
90
100
AcDbRotatedDimension
1001
ACAD
1000
DSTYLE
1002
{
1070
    74
1070
     0
1070
   279
1070
     0
1070
   172
1070
     1
1070
   173
1070
     1
1070
   340
1005
99
1070
    77
1070
     1
1070
    73
1070
     0
1070
   171
1070
     3
1070
   274
1070
     4
1070
   177
1070
     2
1070
   176
1070
     2
1070
   178
1070
     7
1070
    78
1070
     8
1070
    41
1041
3.175
1070
   147
1041
2.25
1070
    42
1041
2.0
1070
    44
1041
2.0
1070
   140
1041
4.5
1070
   343
1005
CC
1070
   344
1005
CC
1002
}
0
DIMENSION
5
EE
100
AcDbEntity
8
2
62
256
6
ByLayer
370
-3
48
1
60
0
100
AcDbDimension
2
DimnDraft3D3
10
42.593142
20
5.4125
30
0
11
42.593142
21
-3.328947
31
0
70
32
71
5
72
1
41
1
210
0
220
0
230
1
3
Standard
100
AcDbAlignedDimension
13
2
23
-7.9375
33
0
14
17.343142
24
5.4125
34
0
50
90
100
AcDbRotatedDimension
1001
ACAD
1000
DSTYLE
1002
{
1070
    74
1070
     0
1070
   279
1070
     0
1070
   172
1070
     1
1070
   173
1070
     1
1070
   340
1005
99
1070
    77
1070
     1
1070
    73
1070
     0
1070
   171
1070
     3
1070
   274
1070
     4
1070
   177
1070
     2
1070
   176
1070
     2
1070
   178
1070
     7
1070
    78
1070
     8
1070
    41
1041
3.175
1070
   147
1041
2.25
1070
    42
1041
2.0
1070
    44
1041
2.0
1070
   140
1041
4.5
1070
   343
1005
CC
1070
   344
1005
CC
1002
}
0
DIMENSION
5
FC
100
AcDbEntity
8
SK2
62
256
6
ByLayer
370
-3
48
1
60
0
100
AcDbDimension
2
DimnDraft3D4
10
-86.006858
20
25.347184
30
0
11
-39.050279
21
25.347184
31
0
70
32
71
5
72
1
41
1
210
0
220
0
230
1
3
Standard
100
AcDbAlignedDimension
13
15.343142
23
7.597184
33
0
14
-86.006858
24
9.9375
34
0
50
0
100
AcDbRotatedDimension
1001
ACAD
1000
DSTYLE
1002
{
1070
   279
1070
     0
1070
   172
1070
     1
1070
   173
1070
     1
1070
   340
1005
99
1070
    77
1070
     1
1070
    73
1070
     0
1070
   171
1070
     3
1070
   274
1070
     4
1070
   177
1070
     2
1070
   176
1070
     2
1070
   178
1070
     7
1070
    78
1070
     8
1070
    41
1041
3.175
1070
   147
1041
2.25
1070
    42
1041
2.0
1070
    44
1041
2.0
1070
   140
1041
4.5
1070
   343
1005
CC
1070
   344
1005
CC
1002
}
0
ENDSEC
0
SECTION
2
OBJECTS
0
DICTIONARY
5
12c
330
0
100
AcDbDictionary
280
0
281
1
3
ACAD_GROUP
350
12d
3
ACAD_MLINESTYLE
350
12e
0
DICTIONARY
5
12d
330
0
100
AcDbDictionary
280
0
281
1
0
DICTIONARY
5
12e
330
0
100
AcDbDictionary
280
0
281
1
3
Standard
350
18
0
MLINESTYLE
5
18
330
12e
100
AcDbMlineStyle
2
Standard
70
0
3

62
256
51
90
52
90
71
2
49
-0.5
62
256
6
ByLayer
49
0.5
62
256
6
ByLayer
0
RASTERVARIABLES
5
11b
330

100
AcDbRasterVariables
90
0
70
1
71
1
72
1
0
ENDSEC
0
EOF
