0
SECTION
2
HEADER
9
$ACADVER
1
AC1015
9
$DWGCODEPAGE
3
ANSI_1252
9
$HANDSEED
5
128
9
$ANGBASE
50
0
9
$ANGDIR
70
0
9
$ATTMODE
70
1
9
$AUNITS
70
0
9
$AUPREC
70
0
9
$CECOLOR
62
256
9
$CELTSCALE
40
1
9
$CELTYPE
6
ByLayer
9
$CELWEIGHT
370
-1
9
$CLAYER
8
0
9
$CMLJUST
70
0
9
$CMLSCALE
40
1
9
$CMLSTYLE
2
Standard
9
$DIMSTYLE
2
Standard
9
$TEXTSIZE
40
0.2
9
$TEXTSTYLE
7
Standard
9
$LUNITS
70
2
9
$LUPREC
70
4
9
$EXTNAMES
290
1
9
$INSUNITS
70
4
9
$LTSCALE
40
1
9
$LWDISPLAY
290
0
9
$PDMODE
70
0
9
$PDSIZE
40
0
9
$PLINEGEN
70
0
0
ENDSEC
0
SECTION
2
CLASSES
0
CLASS
1
RASTERVARIABLES
2
AcDbRasterVariables
3
ISM
90
0
280
0
281
0
0
ENDSEC
0
SECTION
2
TABLES
0
TABLE
2
VPORT
5
11e
100
AcDbSymbolTable
0
VPORT
5
1
100
AcDbSymbolTableRecord
100
AcDbViewportTableRecord
2
*Active
70
0
10
0
20
0
11
1
21
1
12
-1
22
1
13
0
23
0
14
0.5
24
0.5
15
10
25
10
16
0
26
0
36
1
17
0
27
0
37
0
0
ENDTAB
0
TABLE
2
LTYPE
5
11f
100
AcDbSymbolTable
0
LTYPE
5
14
100
AcDbSymbolTableRecord
100
AcDbLinetypeTableRecord
70
0
2
ByBlock
3

72
65
73
0
40
0
0
LTYPE
5
15
100
AcDbSymbolTableRecord
100
AcDbLinetypeTableRecord
70
0
2
ByLayer
3

72
65
73
0
40
0
0
LTYPE
5
16
100
AcDbSymbolTableRecord
100
AcDbLinetypeTableRecord
70
0
2
CONTINUOUS
3
Solid line
72
65
73
0
40
0
0
LTYPE
5
3B
100
AcDbSymbolTableRecord
100
AcDbLinetypeTableRecord
70
0
2
DASHED
3
__ __ __ __ __ __ __ __ __
72
65
73
2
40
25.72
49
12.86
74
0
49
-12.86
74
0
0
LTYPE
5
3C
100
AcDbSymbolTableRecord
100
AcDbLinetypeTableRecord
70
0
2
HIDDEN
3
_ _ _ _ _ _ _ _ _ _ _ _ _ _ _
72
65
73
2
40
0.5
49
0.25
74
0
49
-0.25
74
0
0
LTYPE
5
3D
100
AcDbSymbolTableRecord
100
AcDbLinetypeTableRecord
70
0
2
PHANTOM
3
____ _ _ ____ _ _ _____ _ _ ____
72
65
73
6
40
50.5
49
18
74
0
49
-6.5
74
0
49
6.5
74
0
49
-6.5
74
0
49
6.5
74
0
49
-6.5
74
0
0
LTYPE
5
3E
100
AcDbSymbolTableRecord
100
AcDbLinetypeTableRecord
70
0
2
CENTER
3
____ _ ____ _ ____ _ ____
72
65
73
4
40
47.5
49
22
74
0
49
-8.5
74
0
49
8.5
74
0
49
-8.5
74
0
0
LTYPE
5
3F
100
AcDbSymbolTableRecord
100
AcDbLinetypeTableRecord
70
0
2
DOT
3
.........................
72
65
73
2
40
10
49
0
74
0
49
-10
74
0
0
LTYPE
5
40
100
AcDbSymbolTableRecord
100
AcDbLinetypeTableRecord
70
0
2
DASHDOT
3
_._._._._._._._._._._._._._._._.
72
65
73
4
40
70
49
31
74
0
49
-13
74
0
49
13
74
0
49
-13
74
0
0
ENDTAB
0
TABLE
2
LAYER
5
120
100
AcDbSymbolTable
0
LAYER
5
10
100
AcDbSymbolTableRecord
100
AcDbLayerTableRecord
2
0
70
0
62
7
6
CONTINUOUS
290
1
370
-3
390
0
0
LAYER
5
42
100
AcDbSymbolTableRecord
100
AcDbLayerTableRecord
2
80
70
0
62
-6
6
CONTINUOUS
290
1
370
-3
390
0
0
LAYER
5
48
100
AcDbSymbolTableRecord
100
AcDbLayerTableRecord
2
2
70
0
62
7
6
CONTINUOUS
290
1
370
-3
390
0
0
LAYER
5
4A
100
AcDbSymbolTableRecord
100
AcDbLayerTableRecord
2
81
70
0
62
-3
6
CONTINUOUS
290
1
370
-3
390
0
0
LAYER
5
4F
100
AcDbSymbolTableRecord
100
AcDbLayerTableRecord
2
1
70
0
62
4
6
CONTINUOUS
290
1
370
-3
390
0
0
LAYER
5
10b
100
AcDbSymbolTableRecord
100
AcDbLayerTableRecord
2
SK2
70
0
62
7
6
CONTINUOUS
290
1
370
-3
390
0
0
LAYER
5
10c
100
AcDbSymbolTableRecord
100
AcDbLayerTableRecord
2
SK1
70
0
62
4
6
CONTINUOUS
290
1
370
-3
390
0
0
LAYER
5
10d
100
AcDbSymbolTableRecord
100
AcDbLayerTableRecord
2
SK6
70
0
62
5
6
CONTINUOUS
290
1
370
-3
390
0
0
ENDTAB
0
TABLE
2
STYLE
5
121
100
AcDbSymbolTable
0
STYLE
5
11
100
AcDbSymbolTableRecord
100
AcDbTextStyleTableRecord
2
Standard
3
txt
70
0
71
0
40
0
41
1
42
0
50
0
0
STYLE
5
96
100
AcDbSymbolTableRecord
100
AcDbTextStyleTableRecord
2
DEFAULT
3
simplex.shx
70
0
71
0
40
0
41
1
42
0
50
0
0
STYLE
5
B9
100
AcDbSymbolTableRecord
100
AcDbTextStyleTableRecord
2
DWGDirectTextStyle
3
SIMPLEX
70
0
71
0
40
0
41
1
42
0
50
0
0
ENDTAB
0
TABLE
2
DIMSTYLE
5
122
100
AcDbSymbolTable
100
AcDbDimStyleTable
0
DIMSTYLE
105
27
100
AcDbSymbolTableRecord
100
AcDbDimStyleTableRecord
2
Standard
70
0
3
<>
41
0.18
42
0.0625
44
0.18
140
0.18
147
0.09
73
0
74
0
77
1
271
2
275
0
278
52
280
0
340
11
0
ENDTAB
0
TABLE
2
VIEW
5
123
100
AcDbSymbolTable
0
ENDTAB
0
TABLE
2
UCS
5
124
100
AcDbSymbolTable
0
ENDTAB
0
TABLE
2
APPID
5
125
100
AcDbSymbolTable
0
APPID
5
12
100
AcDbSymbolTableRecord
100
AcDbRegAppTableRecord
2
ACAD
70
0
0
ENDTAB
0
TABLE
2
BLOCK_RECORD
5
126
100
AcDbSymbolTable
0
BLOCK_RECORD
5
1F
100
AcDbSymbolTableRecord
100
AcDbBlockTableRecord
2
*Model_Space
340
0
70
0
0
BLOCK_RECORD
5
1B
100
AcDbSymbolTableRecord
100
AcDbBlockTableRecord
2
*Paper_Space
340
0
70
0
0
BLOCK_RECORD
5
23
100
AcDbSymbolTableRecord
100
AcDbBlockTableRecord
2
*Paper_Space0
340
0
70
0
0
BLOCK_RECORD
5
BB
100
AcDbSymbolTableRecord
100
AcDbBlockTableRecord
2
DimnDraft3D1
340
0
70
0
0
BLOCK_RECORD
5
C9
100
AcDbSymbolTableRecord
100
AcDbBlockTableRecord
2
_CLOSED
340
0
70
0
0
BLOCK_RECORD
5
D0
100
AcDbSymbolTableRecord
100
AcDbBlockTableRecord
2
DimnDraft3D2
340
0
70
0
0
BLOCK_RECORD
5
DE
100
AcDbSymbolTableRecord
100
AcDbBlockTableRecord
2
DimnDraft3D3
340
0
70
0
0
ENDTAB
0
ENDSEC
0
SECTION
2
BLOCKS
0
BLOCK
5
20
100
AcDbEntity
8
0
100
AcDbBlockBegin
2
*Model_Space
70
0
10
0
20
0
30
0
3
*Model_Space
0
ENDBLK
5
21
100
AcDbEntity
8
0
100
AcDbBlockEnd
0
BLOCK
5
1C
100
AcDbEntity
8
0
100
AcDbBlockBegin
2
*Paper_Space
70
0
10
0
20
0
30
0
3
*Paper_Space
0
ENDBLK
5
1D
100
AcDbEntity
8
0
100
AcDbBlockEnd
0
BLOCK
5
24
100
AcDbEntity
8
0
100
AcDbBlockBegin
2
*Paper_Space0
70
0
10
0
20
0
30
0
3
*Paper_Space0
0
ENDBLK
5
25
100
AcDbEntity
8
0
100
AcDbBlockEnd
0
BLOCK
5
C6
100
AcDbEntity
8
0
100
AcDbBlockBegin
2
DimnDraft3D1
70
0
10
0
20
0
30
0
3
DimnDraft3D1
0
MTEXT
5
BC
100
AcDbEntity
8
SK2
62
256
6
ByLayer
370
-1
48
1
60
0
100
AcDbMText
10
-137.196028
20
-1.503947
30
0
210
0
220
0
230
1
1
\W01.000;\fsimplex.shx,bigfont.shx;25 
40
4.5
41
0
44
1.084337
50
90
71
7
72
5
7
DEFAULT
0
LINE
5
BD
100
AcDbEntity
8
SK2
62
256
6
ByLayer
370
-1
48
1
60
0
100
AcDbLine
10
-128.321028
20
-12.4375
30
0
11
-138.071028
21
-12.4375
31
0
39
0
210
0
220
0
230
1
0
LINE
5
BE
100
AcDbEntity
8
SK2
62
256
6
ByLayer
370
-1
48
1
60
0
100
AcDbLine
10
-128.321028
20
12.4375
30
0
11
-138.071028
21
12.4375
31
0
39
0
210
0
220
0
230
1
0
LINE
5
BF
100
AcDbEntity
8
SK2
62
256
6
ByLayer
370
-1
48
1
60
0
100
AcDbLine
10
-136.071028
20
-12.4375
30
0
11
-136.071028
21
12.4375
31
0
39
0
210
0
220
0
230
1
0
LINE
5
C0
100
AcDbEntity
8
SK2
62
256
6
ByLayer
370
-1
48
1
60
0
100
AcDbLine
10
-136.071028
20
-12.4375
30
0
11
-136.489024
21
-9.262502
31
0
39
0
210
0
220
0
230
1
0
LINE
5
C1
100
AcDbEntity
8
SK2
62
256
6
ByLayer
370
-1
48
1
60
0
100
AcDbLine
10
-136.071028
20
-12.4375
30
0
11
-135.653031
21
-9.262498
31
0
39
0
210
0
220
0
230
1
0
LINE
5
C2
100
AcDbEntity
8
SK2
62
256
6
ByLayer
370
-1
48
1
60
0
100
AcDbLine
10
-136.489024
20
-9.262502
30
0
11
-135.653031
21
-9.262498
31
0
39
0
210
0
220
0
230
1
0
LINE
5
C3
100
AcDbEntity
8
SK2
62
256
6
ByLayer
370
-1
48
1
60
0
100
AcDbLine
10
-136.071028
20
12.4375
30
0
11
-135.653031
21
9.262502
31
0
39
0
210
0
220
0
230
1
0
LINE
5
C4
100
AcDbEntity
8
SK2
62
256
6
ByLayer
370
-1
48
1
60
0
100
AcDbLine
10
-136.071028
20
12.4375
30
0
11
-136.489024
21
9.262498
31
0
39
0
210
0
220
0
230
1
0
LINE
5
C5
100
AcDbEntity
8
SK2
62
256
6
ByLayer
370
-1
48
1
60
0
100
AcDbLine
10
-135.653031
20
9.262502
30
0
11
-136.489024
21
9.262498
31
0
39
0
210
0
220
0
230
1
0
ENDBLK
5
C7
100
AcDbEntity
8
0
100
AcDbBlockEnd
0
BLOCK
5
CA
100
AcDbEntity
8
0
100
AcDbBlockBegin
2
_CLOSED
70
0
10
0
20
0
30
0
3
_CLOSED
0
LINE
5
CC
100
AcDbEntity
8
0
62
256
6
ByLayer
370
-2
48
1
60
0
100
AcDbLine
10
-1
20
0.166667
30
0
11
0
21
0
31
0
39
0
210
0
220
0
230
1
0
LINE
5
CD
100
AcDbEntity
8
0
62
256
6
ByLayer
370
-2
48
1
60
0
100
AcDbLine
10
0
20
0
30
0
11
-1
21
-0.166667
31
0
39
0
210
0
220
0
230
1
0
LINE
5
CE
100
AcDbEntity
8
0
62
256
6
ByLayer
370
-2
48
1
60
0
100
AcDbLine
10
-1
20
0.166667
30
0
11
-1
21
-0.166667
31
0
39
0
210
0
220
0
230
1
0
LINE
5
CF
100
AcDbEntity
8
0
62
256
6
ByLayer
370
-2
48
1
60
0
100
AcDbLine
10
0
20
0
30
0
11
-1
21
0
31
0
39
0
210
0
220
0
230
1
0
ENDBLK
5
CB
100
AcDbEntity
8
0
100
AcDbBlockEnd
0
BLOCK
5
DB
100
AcDbEntity
8
0
100
AcDbBlockBegin
2
DimnDraft3D2
70
0
10
0
20
0
30
0
3
DimnDraft3D2
0
MTEXT
5
D1
100
AcDbEntity
8
2
62
256
6
ByLayer
370
-1
48
1
60
0
100
AcDbMText
10
38.153972
20
2.233553
30
0
210
0
220
0
230
1
1
\W01.000;\fsimplex.shx,bigfont.shx;32 
40
4.5
41
0
44
1.084337
50
90
71
7
72
5
7
DEFAULT
0
LINE
5
D2
100
AcDbEntity
8
2
62
256
6
ByLayer
370
-1
48
1
60
0
100
AcDbLine
10
2
20
-12.4375
30
0
11
41.278972
21
-12.4375
31
0
39
0
210
0
220
0
230
1
0
LINE
5
D3
100
AcDbEntity
8
2
62
256
6
ByLayer
370
-1
48
1
60
0
100
AcDbLine
10
27.028972
20
19.9125
30
0
11
41.278972
21
19.9125
31
0
39
0
210
0
220
0
230
1
0
LINE
5
D4
100
AcDbEntity
8
2
62
256
6
ByLayer
370
-1
48
1
60
0
100
AcDbLine
10
39.278972
20
-12.4375
30
0
11
39.278972
21
19.9125
31
0
39
0
210
0
220
0
230
1
0
LINE
5
D5
100
AcDbEntity
8
2
62
256
6
ByLayer
370
-1
48
1
60
0
100
AcDbLine
10
39.278972
20
-12.4375
30
0
11
38.860976
21
-9.262502
31
0
39
0
210
0
220
0
230
1
0
LINE
5
D6
100
AcDbEntity
8
2
62
256
6
ByLayer
370
-1
48
1
60
0
100
AcDbLine
10
39.278972
20
-12.4375
30
0
11
39.696969
21
-9.262498
31
0
39
0
210
0
220
0
230
1
0
LINE
5
D7
100
AcDbEntity
8
2
62
256
6
ByLayer
370
-1
48
1
60
0
100
AcDbLine
10
38.860976
20
-9.262502
30
0
11
39.696969
21
-9.262498
31
0
39
0
210
0
220
0
230
1
0
LINE
5
D8
100
AcDbEntity
8
2
62
256
6
ByLayer
370
-1
48
1
60
0
100
AcDbLine
10
39.278972
20
19.9125
30
0
11
39.696969
21
16.737502
31
0
39
0
210
0
220
0
230
1
0
LINE
5
D9
100
AcDbEntity
8
2
62
256
6
ByLayer
370
-1
48
1
60
0
100
AcDbLine
10
39.278972
20
19.9125
30
0
11
38.860976
21
16.737498
31
0
39
0
210
0
220
0
230
1
0
LINE
5
DA
100
AcDbEntity
8
2
62
256
6
ByLayer
370
-1
48
1
60
0
100
AcDbLine
10
39.696969
20
16.737502
30
0
11
38.860976
21
16.737498
31
0
39
0
210
0
220
0
230
1
0
ENDBLK
5
DC
100
AcDbEntity
8
0
100
AcDbBlockEnd
0
BLOCK
5
E9
100
AcDbEntity
8
0
100
AcDbBlockBegin
2
DimnDraft3D3
70
0
10
0
20
0
30
0
3
DimnDraft3D3
0
MTEXT
5
DF
100
AcDbEntity
8
SK2
62
256
6
ByLayer
370
-1
48
1
60
0
100
AcDbMText
10
-53.239449
20
40.7875
30
0
210
0
220
0
230
1
1
\W01.000;\fsimplex.shx,bigfont.shx;150 
40
4.5
41
0
44
1.084337
50
0
71
7
72
5
7
DEFAULT
0
LINE
5
E0
100
AcDbEntity
8
SK2
62
256
6
ByLayer
370
-1
48
1
60
0
100
AcDbLine
10
25.028972
20
21.9125
30
0
11
25.028972
21
41.6625
31
0
39
0
210
0
220
0
230
1
0
LINE
5
E1
100
AcDbEntity
8
SK2
62
256
6
ByLayer
370
-1
48
1
60
0
100
AcDbLine
10
-126.321028
20
14.4375
30
0
11
-126.321028
21
41.6625
31
0
39
0
210
0
220
0
230
1
0
LINE
5
E2
100
AcDbEntity
8
SK2
62
256
6
ByLayer
370
-1
48
1
60
0
100
AcDbLine
10
25.028972
20
39.6625
30
0
11
-126.321028
21
39.6625
31
0
39
0
210
0
220
0
230
1
0
LINE
5
E3
100
AcDbEntity
8
SK2
62
256
6
ByLayer
370
-1
48
1
60
0
100
AcDbLine
10
25.028972
20
39.6625
30
0
11
21.853974
21
39.244503
31
0
39
0
210
0
220
0
230
1
0
LINE
5
E4
100
AcDbEntity
8
SK2
62
256
6
ByLayer
370
-1
48
1
60
0
100
AcDbLine
10
25.028972
20
39.6625
30
0
11
21.853971
21
40.080497
31
0
39
0
210
0
220
0
230
1
0
LINE
5
E5
100
AcDbEntity
8
SK2
62
256
6
ByLayer
370
-1
48
1
60
0
100
AcDbLine
10
21.853974
20
39.244503
30
0
11
21.853971
21
40.080497
31
0
39
0
210
0
220
0
230
1
0
LINE
5
E6
100
AcDbEntity
8
SK2
62
256
6
ByLayer
370
-1
48
1
60
0
100
AcDbLine
10
-126.321028
20
39.6625
30
0
11
-123.146029
21
40.080497
31
0
39
0
210
0
220
0
230
1
0
LINE
5
E7
100
AcDbEntity
8
SK2
62
256
6
ByLayer
370
-1
48
1
60
0
100
AcDbLine
10
-126.321028
20
39.6625
30
0
11
-123.146026
21
39.244503
31
0
39
0
210
0
220
0
230
1
0
LINE
5
E8
100
AcDbEntity
8
SK2
62
256
6
ByLayer
370
-1
48
1
60
0
100
AcDbLine
10
-123.146029
20
40.080497
30
0
11
-123.146026
21
39.244503
31
0
39
0
210
0
220
0
230
1
0
ENDBLK
5
EA
100
AcDbEntity
8
0
100
AcDbBlockEnd
0
ENDSEC
0
SECTION
2
ENTITIES
0
ARC
5
69
100
AcDbEntity
8
1
62
256
6
ByLayer
370
-1
48
1
60
0
100
AcDbCircle
39
0
10
-2.848295
20
22.2375
30
0
40
10.2
210
0
220
0
230
-1
100
AcDbArc
50
240
51
286.098934
0
ARC
5
6A
100
AcDbEntity
8
1
62
256
6
ByLayer
370
-1
48
1
60
0
100
AcDbCircle
39
0
10
17.049073
20
11.932601
30
0
40
3.5
210
0
220
0
230
1
100
AcDbArc
50
189.940751
51
260.059249
0
ARC
5
6B
100
AcDbEntity
8
1
62
256
6
ByLayer
370
-1
48
1
60
0
100
AcDbCircle
39
0
10
18.892713
20
13.776241
30
0
40
5.82988901006696
210
0
220
0
230
1
100
AcDbArc
50
245.1731
51
253.462749
0
ARC
5
6C
100
AcDbEntity
8
1
62
256
6
ByLayer
370
-1
48
1
60
0
100
AcDbCircle
39
0
10
18.892713
20
13.776241
30
0
40
5.82988901006696
210
0
220
0
230
1
100
AcDbArc
50
196.537251
51
204.8269
0
ARC
5
6D
100
AcDbEntity
8
1
62
256
6
ByLayer
370
-1
48
1
60
0
100
AcDbCircle
39
0
10
-19.028972
20
13.9125
30
0
40
1.67649999999998
210
0
220
0
230
-1
100
AcDbArc
50
75.159887
51
135
0
ARC
5
6E
100
AcDbEntity
8
1
62
256
6
ByLayer
370
-1
48
1
60
0
100
AcDbCircle
39
0
10
-19.028972
20
13.9125
30
0
40
1.67649999999998
210
0
220
0
230
-1
100
AcDbArc
50
315
51
14.840113
0
ARC
5
6F
100
AcDbEntity
8
1
62
256
6
ByLayer
370
-1
48
1
60
0
100
AcDbCircle
39
0
10
-19.028972
20
13.9125
30
0
40
1.20649999999999
210
0
220
0
230
-1
100
AcDbArc
50
221.044721
51
228.955279
0
ARC
5
70
100
AcDbEntity
8
1
62
256
6
ByLayer
370
-1
48
1
60
0
100
AcDbCircle
39
0
10
19.028972
20
13.9125
30
0
40
1.20649999999999
210
0
220
0
230
1
100
AcDbArc
50
74.920057
51
131.044721
0
ARC
5
71
100
AcDbEntity
8
1
62
256
6
ByLayer
370
-1
48
1
60
0
100
AcDbCircle
39
0
10
19.028972
20
13.9125
30
0
40
1.20649999999999
210
0
220
0
230
1
100
AcDbArc
50
15.079943
51
74.920057
0
ARC
5
72
100
AcDbEntity
8
1
62
256
6
ByLayer
370
-1
48
1
60
0
100
AcDbCircle
39
0
10
19.028972
20
13.9125
30
0
40
1.20649999999999
210
0
220
0
230
1
100
AcDbArc
50
318.955279
51
15.079943
0
ARC
5
75
100
AcDbEntity
8
1
62
256
6
ByLayer
370
-1
48
1
60
0
100
AcDbCircle
39
0
10
19.028972
20
13.9125
30
0
40
1.20649999999999
210
0
220
0
230
1
100
AcDbArc
50
254.920057
51
311.044721
0
ARC
5
78
100
AcDbEntity
8
1
62
256
6
ByLayer
370
-1
48
1
60
0
100
AcDbCircle
39
0
10
-19.028972
20
13.9125
30
0
40
1.67649999999998
210
0
220
0
230
-1
100
AcDbArc
50
135
51
194.840113
0
ARC
5
7A
100
AcDbEntity
8
1
62
256
6
ByLayer
370
-1
48
1
60
0
100
AcDbCircle
39
0
10
-19.028972
20
13.9125
30
0
40
1.20649999999999
210
0
220
0
230
-1
100
AcDbArc
50
41.044721
51
48.955279
0
ARC
5
7B
100
AcDbEntity
8
1
62
256
6
ByLayer
370
-1
48
1
60
0
100
AcDbCircle
39
0
10
19.028972
20
13.9125
30
0
40
1.20649999999999
210
0
220
0
230
1
100
AcDbArc
50
195.079943
51
254.920057
0
ARC
5
7C
100
AcDbEntity
8
1
62
256
6
ByLayer
370
-1
48
1
60
0
100
AcDbCircle
39
0
10
-19.028972
20
13.9125
30
0
40
1.67649999999998
210
0
220
0
230
-1
100
AcDbArc
50
14.840113
51
75.159887
0
ARC
5
7D
100
AcDbEntity
8
1
62
256
6
ByLayer
370
-1
48
1
60
0
100
AcDbCircle
39
0
10
19.028972
20
13.9125
30
0
40
1.20649999999999
210
0
220
0
230
1
100
AcDbArc
50
138.955279
51
195.079943
0
ARC
5
7E
100
AcDbEntity
8
1
62
256
6
ByLayer
370
-1
48
1
60
0
100
AcDbCircle
39
0
10
-19.028972
20
13.9125
30
0
40
1.67649999999998
210
0
220
0
230
-1
100
AcDbArc
50
255.159887
51
315
0
ARC
5
7F
100
AcDbEntity
8
1
62
256
6
ByLayer
370
-1
48
1
60
0
100
AcDbCircle
39
0
10
-19.028972
20
13.9125
30
0
40
1.67649999999998
210
0
220
0
230
-1
100
AcDbArc
50
194.840113
51
255.159887
0
CIRCLE
5
73
100
AcDbEntity
8
1
62
256
6
ByLayer
370
-1
48
1
60
0
100
AcDbCircle
10
-19.028972
20
13.9125
30
0
40
3.00000000000002
39
0
210
0
220
0
230
-1
0
CIRCLE
5
74
100
AcDbEntity
8
1
62
256
6
ByLayer
370
-1
48
1
60
0
100
AcDbCircle
10
-19.028972
20
13.9125
30
0
40
3.07132534818239
39
0
210
0
220
0
230
-1
0
CIRCLE
5
76
100
AcDbEntity
8
1
62
256
6
ByLayer
370
-1
48
1
60
0
100
AcDbCircle
10
-19.028972
20
13.9125
30
0
40
2.62499999999999
39
0
210
0
220
0
230
-1
0
CIRCLE
5
77
100
AcDbEntity
8
1
62
256
6
ByLayer
370
-1
48
1
60
0
100
AcDbCircle
10
-19.028972
20
13.9125
30
0
40
2.92793707720186
39
0
210
0
220
0
230
-1
0
CIRCLE
5
79
100
AcDbEntity
8
1
62
256
6
ByLayer
370
-1
48
1
60
0
100
AcDbCircle
10
-19.028972
20
13.9125
30
0
40
5.99999999999999
39
0
210
0
220
0
230
-1
0
CIRCLE
5
80
100
AcDbEntity
8
1
62
256
6
ByLayer
370
-1
48
1
60
0
100
AcDbCircle
10
-19.028972
20
13.9125
30
0
40
1.8
39
0
210
0
220
0
230
-1
0
POINT
5
41
100
AcDbEntity
8
80
62
256
6
ByLayer
370
-1
48
1
60
0
100
AcDbPoint
10
0
20
0
30
0
39
0
210
0
220
0
230
1
50
360
0
POINT
5
43
100
AcDbEntity
8
SK2
62
256
6
ByLayer
370
-1
48
1
60
0
100
AcDbPoint
10
25.028972
20
19.9125
30
0
39
0
210
0
220
0
230
1
50
360
0
POINT
5
45
100
AcDbEntity
8
SK2
62
256
6
ByLayer
370
-1
48
1
60
0
100
AcDbPoint
10
25.028972
20
19.9125
30
0
39
0
210
0
220
0
230
1
50
360
0
POINT
5
46
100
AcDbEntity
8
SK2
62
256
6
ByLayer
370
-1
48
1
60
0
100
AcDbPoint
10
25.028972
20
19.9125
30
0
39
0
210
0
220
0
230
1
50
360
0
POINT
5
47
100
AcDbEntity
8
2
62
256
6
ByLayer
370
-1
48
1
60
0
100
AcDbPoint
10
25.028972
20
19.9125
30
0
39
0
210
0
220
0
230
1
50
360
0
POINT
5
49
100
AcDbEntity
8
81
62
256
6
ByLayer
370
-1
48
1
60
0
100
AcDbPoint
10
25.028972
20
19.9125
30
0
39
0
210
0
220
0
230
1
50
360
0
POINT
5
4B
100
AcDbEntity
8
SK2
62
256
6
ByLayer
370
-1
48
1
60
0
100
AcDbPoint
10
25.028972
20
19.9125
30
0
39
0
210
0
220
0
230
1
50
360
0
SPLINE
5
81
100
AcDbEntity
8
1
62
256
6
ByLayer
370
-1
48
1
60
0
100
AcDbSpline
70
4
71
3
72
16
73
12
40
0
40
0
40
0
40
0
40
0.0570946626180622
40
0.0570946626180622
40
0.280051745716991
40
0.280051745716991
40
0.505470715177276
40
0.505470715177276
40
0.745074291066566
40
0.745074291066566
40
1
40
1
40
1
40
1
41
1
10
17.408393292283
20
14.3418895033488
30
0
41
1
10
17.4064356744427
20
14.3345011654754
30
0
41
1
10
17.4047669539185
20
14.3270288345711
30
0
41
1
10
17.3980809344758
20
14.2903852479409
30
0
41
1
10
17.3972835362692
20
14.2601275607884
30
0
41
1
10
17.4045005424421
20
14.2018992505547
30
0
41
1
10
17.4126810292395
20
14.1732130443712
30
0
41
1
10
17.4369524233624
20
14.119365386769
30
0
41
1
10
17.4537836914578
20
14.0938517998432
30
0
41
1
10
17.4941887518768
20
14.048840703782
30
0
41
1
10
17.5185800794518
20
14.029276174783
30
0
41
1
10
17.5446503344579
20
14.0142240803614
30
0
0
SPLINE
5
82
100
AcDbEntity
8
1
62
256
6
ByLayer
370
-1
48
1
60
0
100
AcDbSpline
70
4
71
3
72
18
73
14
40
0
40
0
40
0
40
0
40
0.212474276129463
40
0.212474276129463
40
0.386603898215942
40
0.386603898215942
40
0.562415227754627
40
0.562415227754627
40
0.715377877558397
40
0.715377877558397
40
0.918235557790032
40
0.918235557790032
40
1
40
1
40
1
40
1
41
1
10
17.7966955097077
20
13.0788013200945
30
0
41
1
10
17.8320068306428
20
13.1403601356765
30
0
41
1
10
17.858809850918
20
13.2095607955365
30
0
41
1
10
17.8860793297691
20
13.3431910830392
30
0
41
1
10
17.8905756420064
20
13.4077679760838
30
0
41
1
10
17.8807132797526
20
13.5371558005844
30
0
41
1
10
17.8658367131884
20
13.6038660731519
30
0
41
1
10
17.8218305518582
20
13.7189139042256
30
0
41
1
10
17.7943617577246
20
13.769915477086
30
0
41
1
10
17.7203265348311
20
13.8750198496275
30
0
41
1
10
17.6693702068601
20
13.9266732190225
30
0
41
1
10
17.591848951374
20
13.9850459796486
30
0
41
1
10
17.5685563689253
20
14.000421534588
30
0
41
1
10
17.5446503344579
20
14.0142240803614
30
0
0
SPLINE
5
83
100
AcDbEntity
8
1
62
256
6
ByLayer
370
-1
48
1
60
0
100
AcDbSpline
70
4
71
3
72
18
73
14
40
0
40
0
40
0
40
0
40
0.212474276129464
40
0.212474276129464
40
0.386603898215955
40
0.386603898215955
40
0.562415227754649
40
0.562415227754649
40
0.715377877558418
40
0.715377877558418
40
0.918235557790093
40
0.918235557790093
40
1
40
1
40
1
40
1
41
1
10
20.2612494507567
20
14.7461986799055
30
0
41
1
10
20.2259381298215
20
14.6846398643235
30
0
41
1
10
20.1991351095463
20
14.6154392044635
30
0
41
1
10
20.1718656306952
20
14.4818089169608
30
0
41
1
10
20.1673693184579
20
14.4172320239162
30
0
41
1
10
20.1772316807117
20
14.2878441994156
30
0
41
1
10
20.192108247276
20
14.2211339268481
30
0
41
1
10
20.2361144086061
20
14.1060860957743
30
0
41
1
10
20.2635832027397
20
14.055084522914
30
0
41
1
10
20.3376184256333
20
13.9499801503725
30
0
41
1
10
20.3885747536042
20
13.8983267809775
30
0
41
1
10
20.4660960090903
20
13.8399540203514
30
0
41
1
10
20.489388591539
20
13.824578465412
30
0
41
1
10
20.5132946260064
20
13.8107759196386
30
0
0
SPLINE
5
84
100
AcDbEntity
8
1
62
256
6
ByLayer
370
-1
48
1
60
0
100
AcDbSpline
70
4
71
3
72
18
73
14
40
0
40
0
40
0
40
0
40
0.212474032872469
40
0.212474032872469
40
0.386603697879194
40
0.386603697879194
40
0.562415073202749
40
0.562415073202749
40
0.715377731647768
40
0.715377731647768
40
0.918235368779605
40
0.918235368779605
40
1
40
1
40
1
40
1
41
1
10
19.1306965605936
20
12.4281778542258
30
0
41
1
10
19.0952121300211
20
12.4896369527317
30
0
41
1
10
19.0488456870529
20
12.5475789288347
30
0
41
1
10
18.9470060478215
20
12.6382946602452
30
0
41
1
10
18.8934301554371
20
12.6746267004009
30
0
41
1
10
18.7766029785384
20
12.7311058379576
30
0
41
1
10
18.7114492749394
20
12.7517594095395
30
0
41
1
10
18.589866480557
20
12.7715122656396
30
0
41
1
10
18.5319684232118
20
12.7733859676168
30
0
41
1
10
18.4038959867308
20
12.7621791490361
30
0
41
1
10
18.3336338974668
20
12.7440723794516
30
0
41
1
10
18.2442153637621
20
12.7063727666138
30
0
41
1
10
18.2192186503038
20
12.6939582560924
30
0
41
1
10
18.1952738003267
20
12.6802230294755
30
0
0
SPLINE
5
85
100
AcDbEntity
8
1
62
256
6
ByLayer
370
-1
48
1
60
0
100
AcDbSpline
70
4
71
3
72
14
73
10
40
0
40
0
40
0
40
0
40
0.283903408666489
40
0.283903408666489
40
0.570234175542327
40
0.570234175542327
40
0.829405958796974
40
0.829405958796974
40
1
40
1
40
1
40
1
41
1
10
17.7966955097077
20
13.0788013200945
30
0
41
1
10
17.7800171972306
20
13.0497257393798
30
0
41
1
10
17.7679457586319
20
13.0167892808728
30
0
41
1
10
17.7562312605348
20
12.9478167011908
30
0
41
1
10
17.7565755818523
20
12.9106777704805
30
0
41
1
10
17.7706451101071
20
12.8421930403522
30
0
41
1
10
17.7833696696486
20
12.8096100308777
30
0
41
1
10
17.8131399186691
20
12.7612320528696
30
0
41
1
10
17.8274314478625
20
12.7431119950511
30
0
41
1
10
17.8435079615729
20
12.7270354813407
30
0
0
SPLINE
5
86
100
AcDbEntity
8
1
62
256
6
ByLayer
370
-1
48
1
60
0
100
AcDbSpline
70
4
71
3
72
12
73
8
40
0
40
0
40
0
40
0
40
0.422118814264087
40
0.422118814264087
40
0.843213979141703
40
0.843213979141703
40
1
40
1
40
1
40
1
41
1
10
19.8212181807319
20
13.0025609910331
30
0
41
1
10
19.7793544703003
20
12.9490395815956
30
0
41
1
10
19.7458403393033
20
12.8892309508881
30
0
41
1
10
19.6988121165729
20
12.7685130482226
30
0
41
1
10
19.6844370948957
20
12.7059978026324
30
0
41
1
10
19.6764390150809
20
12.6216695325387
30
0
41
1
10
19.67543547452
20
12.5986955821895
30
0
41
1
10
19.6755691715775
20
12.5758929872359
30
0
0
SPLINE
5
87
100
AcDbEntity
8
1
62
256
6
ByLayer
370
-1
48
1
60
0
100
AcDbSpline
70
4
71
3
72
12
73
8
40
0
40
0
40
0
40
0
40
0.495924969245395
40
0.495924969245395
40
0.90036244524127
40
0.90036244524127
40
1
40
1
40
1
40
1
41
1
10
20.3655794929963
20
13.2659033086547
30
0
41
1
10
20.2942362760036
20
13.2663216109663
30
0
41
1
10
20.2204424727828
20
13.2554541386892
30
0
41
1
10
20.0904066056276
20
13.213044163163
30
0
41
1
10
20.0320264725698
20
13.1850569851041
30
0
41
1
10
19.9649223022183
20
13.139859684696
30
0
41
1
10
19.9517526810605
20
13.1302985031812
30
0
41
1
10
19.9389114891991
20
13.1202542995002
30
0
0
SPLINE
5
88
100
AcDbEntity
8
1
62
256
6
ByLayer
370
-1
48
1
60
0
100
AcDbSpline
70
4
71
3
72
16
73
12
40
0
40
0
40
0
40
0
40
0.0621039197212172
40
0.0621039197212172
40
0.282872737560546
40
0.282872737560546
40
0.50639683633148
40
0.50639683633148
40
0.744229103370153
40
0.744229103370153
40
1
40
1
40
1
40
1
41
1
10
19.4583619835811
20
12.2919208120509
30
0
41
1
10
19.4664700926548
20
12.2940691408423
30
0
41
1
10
19.474494571848
20
12.2965702116487
30
0
41
1
10
19.5102292612844
20
12.3094201188266
30
0
41
1
10
19.5367792265564
20
12.3238990490068
30
0
41
1
10
19.5835189339292
20
12.3593377266331
30
0
41
1
10
19.6042344017153
20
12.3808083018874
30
0
41
1
10
19.6386629313334
20
12.4288467991193
30
0
41
1
10
19.6523000105377
20
12.4562359965508
30
0
41
1
10
19.6710722681327
20
12.5141487962093
30
0
41
1
10
19.6757477056701
20
12.5454432475267
30
0
41
1
10
19.6755691715775
20
12.5758929872359
30
0
0
SPLINE
5
89
100
AcDbEntity
8
1
62
256
6
ByLayer
370
-1
48
1
60
0
100
AcDbSpline
70
4
71
3
72
14
73
10
40
0
40
0
40
0
40
0
40
0.2834825435894
40
0.2834825435894
40
0.569866164960665
40
0.569866164960665
40
0.829080366665652
40
0.829080366665652
40
1
40
1
40
1
40
1
41
1
10
19.1306965605936
20
12.4281778542258
30
0
41
1
10
19.1474318820378
20
12.3991922469447
30
0
41
1
10
19.1698024051068
20
12.3722446169819
30
0
41
1
10
19.2234902618487
20
12.3274660007787
30
0
41
1
10
19.2557691868941
20
12.3090855283503
30
0
41
1
10
19.3220490557514
20
12.2868074073087
30
0
41
1
10
19.3566162130813
20
12.2814221521509
30
0
41
1
10
19.4134501126832
20
12.282832395531
30
0
41
1
10
19.4363429342932
20
12.2860866333151
30
0
41
1
10
19.4583619835811
20
12.2919208120509
30
0
0
SPLINE
5
8A
100
AcDbEntity
8
1
62
256
6
ByLayer
370
-1
48
1
60
0
100
AcDbSpline
70
4
71
3
72
12
73
8
40
0
40
0
40
0
40
0
40
0.495924969245303
40
0.495924969245303
40
0.900362445266735
40
0.900362445266735
40
1
40
1
40
1
40
1
41
1
10
17.692365467468
20
14.5590966913453
30
0
41
1
10
17.7637086844607
20
14.5586783890337
30
0
41
1
10
17.8375024876815
20
14.5695458613108
30
0
41
1
10
17.9675383548403
20
14.6119558368382
30
0
41
1
10
18.0259184879019
20
14.6399430148994
30
0
41
1
10
18.0930226582527
20
14.6851403153088
30
0
41
1
10
18.1061922794071
20
14.6947014968213
30
0
41
1
10
18.1190334712654
20
14.7047457004998
30
0
0
SPLINE
5
8B
100
AcDbEntity
8
1
62
256
6
ByLayer
370
-1
48
1
60
0
100
AcDbSpline
70
4
71
3
72
16
73
12
40
0
40
0
40
0
40
0
40
0.0629997311901214
40
0.0629997311901214
40
0.285872777163813
40
0.285872777163813
40
0.511544652680601
40
0.511544652680601
40
0.751675359283854
40
0.751675359283854
40
1
40
1
40
1
40
1
41
1
10
20.2144369988914
20
15.0979645186592
30
0
41
1
10
20.2084774274097
20
15.1039240901409
30
0
41
1
10
20.2022523162118
20
15.109631757336
30
0
41
1
10
20.173148170399
20
15.1340861697915
30
0
41
1
10
20.1472849952026
20
15.1497562054189
30
0
41
1
10
20.0931528686016
20
15.1723416734177
30
0
41
1
10
20.06417791911
20
15.1794540425737
30
0
41
1
10
20.0053408630636
20
15.1850630500955
30
0
41
1
10
19.974807082915
20
15.1830805575903
30
0
41
1
10
19.9164643714879
20
15.1704407358252
30
0
41
1
10
19.8881210711331
20
15.159375529097
30
0
41
1
10
19.8626711601377
20
15.1447769705245
30
0
0
SPLINE
5
8C
100
AcDbEntity
8
1
62
256
6
ByLayer
370
-1
48
1
60
0
100
AcDbSpline
70
4
71
3
72
14
73
10
40
0
40
0
40
0
40
0
40
0.283903408666483
40
0.283903408666483
40
0.570234175542323
40
0.570234175542323
40
0.829405958796991
40
0.829405958796991
40
1
40
1
40
1
40
1
41
1
10
20.2612494507567
20
14.7461986799055
30
0
41
1
10
20.2779277632337
20
14.7752742606202
30
0
41
1
10
20.2899992018324
20
14.8082107191272
30
0
41
1
10
20.3017136999295
20
14.8771832988092
30
0
41
1
10
20.3013693786121
20
14.9143222295195
30
0
41
1
10
20.2872998503572
20
14.9828069596477
30
0
41
1
10
20.2745752908157
20
15.0153899691223
30
0
41
1
10
20.2448050417952
20
15.0637679471303
30
0
41
1
10
20.2305135126018
20
15.0818880049488
30
0
41
1
10
20.2144369988914
20
15.0979645186592
30
0
0
SPLINE
5
8D
100
AcDbEntity
8
1
62
256
6
ByLayer
370
-1
48
1
60
0
100
AcDbSpline
70
4
71
3
72
16
73
12
40
0
40
0
40
0
40
0
40
0.0570946626182558
40
0.0570946626182558
40
0.280051745717252
40
0.280051745717252
40
0.505470715177559
40
0.505470715177559
40
0.745074291066903
40
0.745074291066903
40
1
40
1
40
1
40
1
41
1
10
20.6495516681812
20
13.4831104966511
30
0
41
1
10
20.6515092860216
20
13.4904988345246
30
0
41
1
10
20.6531780065457
20
13.4979711654289
30
0
41
1
10
20.6598640259885
20
13.5346147520592
30
0
41
1
10
20.6606614241951
20
13.5648724392116
30
0
41
1
10
20.6534444180222
20
13.6231007494453
30
0
41
1
10
20.6452639312248
20
13.6517869556289
30
0
41
1
10
20.6209925371018
20
13.7056346132311
30
0
41
1
10
20.6041612690064
20
13.7311482001569
30
0
41
1
10
20.5637562085874
20
13.776159296218
30
0
41
1
10
20.5393648810124
20
13.795723825217
30
0
41
1
10
20.5132946260064
20
13.8107759196385
30
0
0
SPLINE
5
8E
100
AcDbEntity
8
1
62
256
6
ByLayer
370
-1
48
1
60
0
100
AcDbSpline
70
4
71
3
72
14
73
10
40
0
40
0
40
0
40
0
40
0.282377988048056
40
0.282377988048056
40
0.567084253766492
40
0.567084253766492
40
0.824684854618767
40
0.824684854618767
40
1
40
1
40
1
40
1
41
1
10
20.3655794929963
20
13.2659033086547
30
0
41
1
10
20.399195653534
20
13.2657062090809
30
0
41
1
10
20.4338991561355
20
13.2714539316878
30
0
41
1
10
20.4998400107707
20
13.2953500403369
30
0
41
1
10
20.5320476731941
20
13.3140297845178
30
0
41
1
10
20.5847643313001
20
13.3602138076601
30
0
41
1
10
20.6068521162537
20
13.3874534957189
30
0
41
1
10
20.6346022838562
20
13.43807464086
30
0
41
1
10
20.6435124008899
20
13.460317412967
30
0
41
1
10
20.6495516681812
20
13.4831104966511
30
0
0
SPLINE
5
8F
100
AcDbEntity
8
1
62
256
6
ByLayer
370
-1
48
1
60
0
100
AcDbSpline
70
4
71
3
72
14
73
10
40
0
40
0
40
0
40
0
40
0.282377988047919
40
0.282377988047919
40
0.567084253766257
40
0.567084253766257
40
0.8246848546185
40
0.8246848546185
40
1
40
1
40
1
40
1
41
1
10
17.692365467468
20
14.5590966913453
30
0
41
1
10
17.6587493069304
20
14.5592937909191
30
0
41
1
10
17.6240458043289
20
14.5535460683122
30
0
41
1
10
17.5581049496936
20
14.5296499596631
30
0
41
1
10
17.5258972872702
20
14.5109702154822
30
0
41
1
10
17.4731806291642
20
14.46478619234
30
0
41
1
10
17.4510928442107
20
14.4375465042812
30
0
41
1
10
17.4233426766081
20
14.38692535914
30
0
41
1
10
17.4144325595744
20
14.364682587033
30
0
41
1
10
17.408393292283
20
14.3418895033488
30
0
0
SPLINE
5
90
100
AcDbEntity
8
1
62
256
6
ByLayer
370
-1
48
1
60
0
100
AcDbSpline
70
4
71
3
72
18
73
14
40
0
40
0
40
0
40
0
40
0.212474032872513
40
0.212474032872513
40
0.386603697879209
40
0.386603697879209
40
0.562415073202763
40
0.562415073202763
40
0.715377731647754
40
0.715377731647754
40
0.918235368779551
40
0.918235368779551
40
1
40
1
40
1
40
1
41
1
10
18.9272483998707
20
15.3968221457742
30
0
41
1
10
18.9627328304433
20
15.3353630472683
30
0
41
1
10
19.0090992734114
20
15.2774210711653
30
0
41
1
10
19.1109389126428
20
15.1867053397548
30
0
41
1
10
19.1645148050272
20
15.1503732995991
30
0
41
1
10
19.2813419819259
20
15.0938941620424
30
0
41
1
10
19.346495685525
20
15.0732405904605
30
0
41
1
10
19.4680784799073
20
15.0534877343604
30
0
41
1
10
19.5259765372525
20
15.0516140323832
30
0
41
1
10
19.6540489737335
20
15.0628208509639
30
0
41
1
10
19.7243110629975
20
15.0809276205483
30
0
41
1
10
19.8137295967022
20
15.1186272333861
30
0
41
1
10
19.8387263101605
20
15.1310417439076
30
0
41
1
10
19.8626711601377
20
15.1447769705245
30
0
0
SPLINE
5
91
100
AcDbEntity
8
1
62
256
6
ByLayer
370
-1
48
1
60
0
100
AcDbSpline
70
4
71
3
72
16
73
12
40
0
40
0
40
0
40
0
40
0.0629997311901168
40
0.0629997311901168
40
0.285872777163716
40
0.285872777163716
40
0.511544652680487
40
0.511544652680487
40
0.751675359283794
40
0.751675359283794
40
1
40
1
40
1
40
1
41
1
10
17.8435079615729
20
12.7270354813407
30
0
41
1
10
17.8494675330546
20
12.721075909859
30
0
41
1
10
17.8556926442525
20
12.715368242664
30
0
41
1
10
17.8847967900653
20
12.6909138302085
30
0
41
1
10
17.9106599652617
20
12.6752437945811
30
0
41
1
10
17.9647920918627
20
12.6526583265823
30
0
41
1
10
17.9937670413543
20
12.6455459574263
30
0
41
1
10
18.0526040974007
20
12.6399369499045
30
0
41
1
10
18.0831378775493
20
12.6419194424097
30
0
41
1
10
18.1414805889764
20
12.6545592641748
30
0
41
1
10
18.1698238893312
20
12.6656244709029
30
0
41
1
10
18.1952738003267
20
12.6802230294755
30
0
0
SPLINE
5
92
100
AcDbEntity
8
1
62
256
6
ByLayer
370
-1
48
1
60
0
100
AcDbSpline
70
4
71
3
72
14
73
10
40
0
40
0
40
0
40
0
40
0.283482543589094
40
0.283482543589094
40
0.569866164960361
40
0.569866164960361
40
0.829080366665447
40
0.829080366665447
40
1
40
1
40
1
40
1
41
1
10
18.9272483998707
20
15.3968221457742
30
0
41
1
10
18.9105130784265
20
15.4258077530553
30
0
41
1
10
18.8881425553576
20
15.4527553830181
30
0
41
1
10
18.8344546986156
20
15.4975339992213
30
0
41
1
10
18.8021757735704
20
15.5159144716497
30
0
41
1
10
18.735895904713
20
15.5381925926912
30
0
41
1
10
18.7013287473831
20
15.5435778478491
30
0
41
1
10
18.6444948477812
20
15.542167604469
30
0
41
1
10
18.6216020261712
20
15.5389133666849
30
0
41
1
10
18.5995829768833
20
15.5330791879491
30
0
0
SPLINE
5
93
100
AcDbEntity
8
1
62
256
6
ByLayer
370
-1
48
1
60
0
100
AcDbSpline
70
4
71
3
72
12
73
8
40
0
40
0
40
0
40
0
40
0.422118813951661
40
0.422118813951661
40
0.843213978772272
40
0.843213978772272
40
1
40
1
40
1
40
1
41
1
10
18.2367267797324
20
14.8224390089668
30
0
41
1
10
18.278590490133
20
14.8759604183647
30
0
41
1
10
18.3121046211116
20
14.935769049023
30
0
41
1
10
18.3591328438492
20
15.056486951631
30
0
41
1
10
18.3735078655392
20
15.1190021972124
30
0
41
1
10
18.3815059453787
20
15.2033304673531
30
0
41
1
10
18.3825094859446
20
15.2263044177568
30
0
41
1
10
18.3823757888868
20
15.2491070127641
30
0
0
SPLINE
5
94
100
AcDbEntity
8
1
62
256
6
ByLayer
370
-1
48
1
60
0
100
AcDbSpline
70
4
71
3
72
16
73
12
40
0
40
0
40
0
40
0
40
0.0621039197210012
40
0.0621039197210012
40
0.282872737560373
40
0.282872737560373
40
0.50639683633122
40
0.50639683633122
40
0.744229103369858
40
0.744229103369858
40
1
40
1
40
1
40
1
41
1
10
18.5995829768833
20
15.5330791879491
30
0
41
1
10
18.5914748678095
20
15.5309308591577
30
0
41
1
10
18.5834503886164
20
15.5284297883513
30
0
41
1
10
18.54771569918
20
15.5155798811734
30
0
41
1
10
18.521165733908
20
15.5011009509932
30
0
41
1
10
18.4744260265351
20
15.465662273367
30
0
41
1
10
18.4537105587491
20
15.4441916981127
30
0
41
1
10
18.419282029131
20
15.3961532008808
30
0
41
1
10
18.4056449499266
20
15.3687640034493
30
0
41
1
10
18.3868726923316
20
15.3108512037907
30
0
41
1
10
18.3821972547942
20
15.2795567524733
30
0
41
1
10
18.3823757888868
20
15.2491070127641
30
0
0
LINE
5
4C
100
AcDbEntity
8
81
62
256
6
ByLayer
370
-1
48
1
60
0
100
AcDbLine
10
25.028972
20
19.9125
30
0
11
35.028972
21
19.9125
31
0
39
0
210
0
220
0
230
1
0
LINE
5
4D
100
AcDbEntity
8
80
62
256
6
ByLayer
370
-1
48
1
60
0
100
AcDbLine
10
0
20
0
30
0
11
-5
21
0
31
0
39
0
210
0
220
0
230
1
0
LINE
5
4E
100
AcDbEntity
8
1
62
256
6
ByLayer
370
-1
48
1
60
0
100
AcDbLine
10
20.120516
20
8.012631
30
0
11
20.231054
21
7.902092
31
0
39
0
210
0
220
0
230
1
0
LINE
5
50
100
AcDbEntity
8
1
62
256
6
ByLayer
370
-1
48
1
60
0
100
AcDbLine
10
9.019485
20
14.022492
30
0
11
17.68547
21
5.356508
31
0
39
0
210
0
220
0
230
1
0
LINE
5
51
100
AcDbEntity
8
1
62
256
6
ByLayer
370
-1
48
1
60
0
100
AcDbLine
10
9.019485
20
14.022492
30
0
11
11.945738
21
15.711966
31
0
39
0
210
0
220
0
230
1
0
LINE
5
52
100
AcDbEntity
8
1
62
256
6
ByLayer
370
-1
48
1
60
0
100
AcDbLine
10
7.948295
20
13.404041
30
0
11
8.884999
21
13.944847
31
0
39
0
210
0
220
0
230
1
0
LINE
5
53
100
AcDbEntity
8
1
62
256
6
ByLayer
370
-1
48
1
60
0
100
AcDbLine
10
17.68547
20
5.356508
30
0
11
19.993333
21
7.664371
31
0
39
0
210
0
220
0
230
1
0
LINE
5
54
100
AcDbEntity
8
1
62
256
6
ByLayer
370
-1
48
1
60
0
100
AcDbLine
10
12.247157
20
15.88599
30
0
11
13.129092
21
15.004054
31
0
39
0
210
0
220
0
230
1
0
LINE
5
55
100
AcDbEntity
8
1
62
256
6
ByLayer
370
-1
48
1
60
0
100
AcDbLine
10
17.579404
20
5.250442
30
0
11
17.68547
21
5.356508
31
0
39
0
210
0
220
0
230
1
0
LINE
5
56
100
AcDbEntity
8
1
62
256
6
ByLayer
370
-1
48
1
60
0
100
AcDbLine
10
12.247157
20
15.88599
30
0
11
12.471301
21
16.015399
31
0
39
0
210
0
220
0
230
1
0
LINE
5
57
100
AcDbEntity
8
1
62
256
6
ByLayer
370
-1
48
1
60
0
100
AcDbLine
10
19.706799
20
7.950905
30
0
11
19.993333
21
7.664371
31
0
39
0
210
0
220
0
230
1
0
LINE
5
58
100
AcDbEntity
8
1
62
256
6
ByLayer
370
-1
48
1
60
0
100
AcDbLine
10
0
20
-12.328962
30
0
11
17.579404
21
5.250442
31
0
39
0
210
0
220
0
230
1
0
LINE
5
59
100
AcDbEntity
8
1
62
256
6
ByLayer
370
-1
48
1
60
0
100
AcDbLine
10
12.471301
20
16.015399
30
0
11
13.741768
21
16.748904
31
0
39
0
210
0
220
0
230
1
0
LINE
5
5A
100
AcDbEntity
8
1
62
256
6
ByLayer
370
-1
48
1
60
0
100
AcDbLine
10
12.247157
20
15.88599
30
0
11
11.945738
21
15.711966
31
0
39
0
210
0
220
0
230
1
0
LINE
5
5B
100
AcDbEntity
8
1
62
256
6
ByLayer
370
-1
48
1
60
0
100
AcDbLine
10
20.231054
20
7.902092
30
0
11
20.400266
21
8.071305
31
0
39
0
210
0
220
0
230
1
0
LINE
5
5C
100
AcDbEntity
8
1
62
256
6
ByLayer
370
-1
48
1
60
0
100
AcDbLine
10
13.190661
20
15.296039
30
0
11
12.471301
21
16.015399
31
0
39
0
210
0
220
0
230
1
0
LINE
5
5D
100
AcDbEntity
8
1
62
256
6
ByLayer
370
-1
48
1
60
0
100
AcDbLine
10
8.884999
20
13.944847
30
0
11
17.579404
21
5.250442
31
0
39
0
210
0
220
0
230
1
0
LINE
5
5E
100
AcDbEntity
8
1
62
256
6
ByLayer
370
-1
48
1
60
0
100
AcDbLine
10
20.231054
20
7.902092
30
0
11
19.993333
21
7.664371
31
0
39
0
210
0
220
0
230
1
0
LINE
5
5F
100
AcDbEntity
8
1
62
256
6
ByLayer
370
-1
48
1
60
0
100
AcDbLine
10
0.019868
20
12.4375
30
0
11
0
21
12.4375
31
0
39
0
210
0
220
0
230
1
0
LINE
5
60
100
AcDbEntity
8
1
62
256
6
ByLayer
370
-1
48
1
60
0
100
AcDbLine
10
11.945738
20
15.711966
30
0
11
13.067371
21
14.590333
31
0
39
0
210
0
220
0
230
1
0
LINE
5
61
100
AcDbEntity
8
1
62
256
6
ByLayer
370
-1
48
1
60
0
100
AcDbLine
10
8.884999
20
13.944847
30
0
11
9.019485
21
14.022492
31
0
39
0
210
0
220
0
230
1
0
LINE
5
62
100
AcDbEntity
8
1
62
256
6
ByLayer
370
-1
48
1
60
0
100
AcDbLine
10
0
20
-12.328962
30
0
11
0
21
12.4375
31
0
39
0
210
0
220
0
230
1
0
LINE
5
63
100
AcDbEntity
8
SK1
62
256
6
ByLayer
370
-1
48
1
60
0
100
AcDbLine
10
0
20
12.4375
30
0
11
-126.321028
21
12.4375
31
0
39
0
210
0
220
0
230
1
0
LINE
5
65
100
AcDbEntity
8
SK1
62
256
6
ByLayer
370
-1
48
1
60
0
100
AcDbLine
10
-0.108538
20
-12.4375
30
0
11
0
21
-12.328962
31
0
39
0
210
0
220
0
230
1
0
LINE
5
66
100
AcDbEntity
8
SK1
62
256
6
ByLayer
370
-1
48
1
60
0
100
AcDbLine
10
0
20
-12.328962
30
0
11
0
21
12.4375
31
0
39
0
210
0
220
0
230
1
0
LINE
5
67
100
AcDbEntity
8
SK1
62
256
6
ByLayer
370
-1
48
1
60
0
100
AcDbLine
10
-126.321028
20
12.4375
30
0
11
-126.321028
21
-12.4375
31
0
39
0
210
0
220
0
230
1
0
LINE
5
68
100
AcDbEntity
8
SK1
62
256
6
ByLayer
370
-1
48
1
60
0
100
AcDbLine
10
-126.321028
20
-12.4375
30
0
11
-0.108538
21
-12.4375
31
0
39
0
210
0
220
0
230
1
0
MTEXT
5
95
100
AcDbEntity
8
SK6
62
256
6
ByLayer
370
-1
48
1
60
0
100
AcDbMText
10
-74.486755
20
-20.912993
30
0
210
0
220
0
230
1
1
\W00.740;\fsimplex.shx,bigfont.shx;SRSCR 2525M 12 
40
3.5
41
0
44
1.084337
50
0
71
7
72
5
7
DEFAULT
0
DIMENSION
5
C8
100
AcDbEntity
8
SK2
62
256
6
ByLayer
370
-3
48
1
60
0
100
AcDbDimension
2
DimnDraft3D1
10
-136.071028
20
12.4375
30
0
11
-136.071028
21
-2.628947
31
0
70
32
71
5
72
1
41
1
210
0
220
0
230
1
3
Standard
100
AcDbAlignedDimension
13
-128.321028
23
-12.4375
33
0
14
-128.321028
24
12.4375
34
0
50
90
100
AcDbRotatedDimension
1001
ACAD
1000
DSTYLE
1002
{
1070
    74
1070
     0
1070
   279
1070
     0
1070
   172
1070
     1
1070
   173
1070
     1
1070
   340
1005
96
1070
    77
1070
     1
1070
    73
1070
     0
1070
   171
1070
     3
1070
   274
1070
     4
1070
   177
1070
     2
1070
   176
1070
     2
1070
   178
1070
     7
1070
    78
1070
     8
1070
    41
1041
3.175
1070
   147
1041
2.25
1070
    42
1041
2.0
1070
    44
1041
2.0
1070
   140
1041
4.5
1070
   343
1005
C9
1070
   344
1005
C9
1002
}
0
DIMENSION
5
DD
100
AcDbEntity
8
2
62
256
6
ByLayer
370
-3
48
1
60
0
100
AcDbDimension
2
DimnDraft3D2
10
39.278972
20
19.9125
30
0
11
39.278972
21
1.108553
31
0
70
32
71
5
72
1
41
1
210
0
220
0
230
1
3
Standard
100
AcDbAlignedDimension
13
2
23
-12.4375
33
0
14
27.028972
24
19.9125
34
0
50
90
100
AcDbRotatedDimension
1001
ACAD
1000
DSTYLE
1002
{
1070
    74
1070
     0
1070
   279
1070
     0
1070
   172
1070
     1
1070
   173
1070
     1
1070
   340
1005
96
1070
    77
1070
     1
1070
    73
1070
     0
1070
   171
1070
     3
1070
   274
1070
     4
1070
   177
1070
     2
1070
   176
1070
     2
1070
   178
1070
     7
1070
    78
1070
     8
1070
    41
1041
3.175
1070
   147
1041
2.25
1070
    42
1041
2.0
1070
    44
1041
2.0
1070
   140
1041
4.5
1070
   343
1005
C9
1070
   344
1005
C9
1002
}
0
DIMENSION
5
EB
100
AcDbEntity
8
SK2
62
256
6
ByLayer
370
-3
48
1
60
0
100
AcDbDimension
2
DimnDraft3D3
10
-126.321028
20
39.6625
30
0
11
-54.364449
21
39.6625
31
0
70
32
71
5
72
1
41
1
210
0
220
0
230
1
3
Standard
100
AcDbAlignedDimension
13
25.028972
23
21.9125
33
0
14
-126.321028
24
14.4375
34
0
50
0
100
AcDbRotatedDimension
1001
ACAD
1000
DSTYLE
1002
{
1070
   279
1070
     0
1070
   172
1070
     1
1070
   173
1070
     1
1070
   340
1005
96
1070
    77
1070
     1
1070
    73
1070
     0
1070
   171
1070
     3
1070
   274
1070
     4
1070
   177
1070
     2
1070
   176
1070
     2
1070
   178
1070
     7
1070
    78
1070
     8
1070
    41
1041
3.175
1070
   147
1041
2.25
1070
    42
1041
2.0
1070
    44
1041
2.0
1070
   140
1041
4.5
1070
   343
1005
C9
1070
   344
1005
C9
1002
}
0
ENDSEC
0
SECTION
2
OBJECTS
0
DICTIONARY
5
11b
330
0
100
AcDbDictionary
280
0
281
1
3
ACAD_GROUP
350
11c
3
ACAD_MLINESTYLE
350
11d
0
DICTIONARY
5
11c
330
0
100
AcDbDictionary
280
0
281
1
0
DICTIONARY
5
11d
330
0
100
AcDbDictionary
280
0
281
1
3
Standard
350
18
0
MLINESTYLE
5
18
330
11d
100
AcDbMlineStyle
2
Standard
70
0
3

62
256
51
90
52
90
71
2
49
-0.5
62
256
6
ByLayer
49
0.5
62
256
6
ByLayer
0
RASTERVARIABLES
5
10a
330

100
AcDbRasterVariables
90
0
70
1
71
1
72
1
0
ENDSEC
0
EOF
