0
SECTION
2
HEADER
9
$ACADVER
1
AC1015
9
$DWGCODEPAGE
3
ANSI_1252
9
$HANDSEED
5
13b
9
$ANGBASE
50
0
9
$ANGDIR
70
0
9
$ATTMODE
70
1
9
$AUNITS
70
0
9
$AUPREC
70
0
9
$CECOLOR
62
256
9
$CELTSCALE
40
1
9
$CELTYPE
6
ByLayer
9
$CELWEIGHT
370
-1
9
$CLAYER
8
0
9
$CMLJUST
70
0
9
$CMLSCALE
40
1
9
$CMLSTYLE
2
Standard
9
$DIMSTYLE
2
Standard
9
$TEXTSIZE
40
0.2
9
$TEXTSTYLE
7
Standard
9
$LUNITS
70
2
9
$LUPREC
70
4
9
$EXTNAMES
290
1
9
$INSUNITS
70
4
9
$LTSCALE
40
1
9
$LWDISPLAY
290
0
9
$PDMODE
70
0
9
$PDSIZE
40
0
9
$PLINEGEN
70
0
0
ENDSEC
0
SECTION
2
CLASSES
0
CLASS
1
RASTERVARIABLES
2
AcDbRasterVariables
3
ISM
90
0
280
0
281
0
0
ENDSEC
0
SECTION
2
TABLES
0
TABLE
2
VPORT
5
131
100
AcDbSymbolTable
0
VPORT
5
1
100
AcDbSymbolTableRecord
100
AcDbViewportTableRecord
2
*Active
70
0
10
0
20
0
11
1
21
1
12
-1
22
1
13
0
23
0
14
0.5
24
0.5
15
10
25
10
16
0
26
0
36
1
17
0
27
0
37
0
0
ENDTAB
0
TABLE
2
LTYPE
5
132
100
AcDbSymbolTable
0
LTYPE
5
14
100
AcDbSymbolTableRecord
100
AcDbLinetypeTableRecord
70
0
2
ByBlock
3

72
65
73
0
40
0
0
LTYPE
5
15
100
AcDbSymbolTableRecord
100
AcDbLinetypeTableRecord
70
0
2
ByLayer
3

72
65
73
0
40
0
0
LTYPE
5
16
100
AcDbSymbolTableRecord
100
AcDbLinetypeTableRecord
70
0
2
CONTINUOUS
3
Solid line
72
65
73
0
40
0
0
LTYPE
5
3B
100
AcDbSymbolTableRecord
100
AcDbLinetypeTableRecord
70
0
2
DASHED
3
__ __ __ __ __ __ __ __ __
72
65
73
2
40
25.72
49
12.86
74
0
49
-12.86
74
0
0
LTYPE
5
3C
100
AcDbSymbolTableRecord
100
AcDbLinetypeTableRecord
70
0
2
HIDDEN
3
_ _ _ _ _ _ _ _ _ _ _ _ _ _ _
72
65
73
2
40
0.5
49
0.25
74
0
49
-0.25
74
0
0
LTYPE
5
3D
100
AcDbSymbolTableRecord
100
AcDbLinetypeTableRecord
70
0
2
PHANTOM
3
____ _ _ ____ _ _ _____ _ _ ____
72
65
73
6
40
50.5
49
18
74
0
49
-6.5
74
0
49
6.5
74
0
49
-6.5
74
0
49
6.5
74
0
49
-6.5
74
0
0
LTYPE
5
3E
100
AcDbSymbolTableRecord
100
AcDbLinetypeTableRecord
70
0
2
CENTER
3
____ _ ____ _ ____ _ ____
72
65
73
4
40
47.5
49
22
74
0
49
-8.5
74
0
49
8.5
74
0
49
-8.5
74
0
0
LTYPE
5
3F
100
AcDbSymbolTableRecord
100
AcDbLinetypeTableRecord
70
0
2
DOT
3
.........................
72
65
73
2
40
10
49
0
74
0
49
-10
74
0
0
LTYPE
5
40
100
AcDbSymbolTableRecord
100
AcDbLinetypeTableRecord
70
0
2
DASHDOT
3
_._._._._._._._._._._._._._._._.
72
65
73
4
40
70
49
31
74
0
49
-13
74
0
49
13
74
0
49
-13
74
0
0
ENDTAB
0
TABLE
2
LAYER
5
133
100
AcDbSymbolTable
0
LAYER
5
10
100
AcDbSymbolTableRecord
100
AcDbLayerTableRecord
2
0
70
0
62
7
6
CONTINUOUS
290
1
370
-3
390
0
0
LAYER
5
42
100
AcDbSymbolTableRecord
100
AcDbLayerTableRecord
2
81
70
0
62
-3
6
CONTINUOUS
290
1
370
-3
390
0
0
LAYER
5
47
100
AcDbSymbolTableRecord
100
AcDbLayerTableRecord
2
80
70
0
62
-6
6
CONTINUOUS
290
1
370
-3
390
0
0
LAYER
5
4B
100
AcDbSymbolTableRecord
100
AcDbLayerTableRecord
2
2
70
0
62
7
6
CONTINUOUS
290
1
370
-3
390
0
0
LAYER
5
4F
100
AcDbSymbolTableRecord
100
AcDbLayerTableRecord
2
1
70
0
62
4
6
CONTINUOUS
290
1
370
-3
390
0
0
LAYER
5
11e
100
AcDbSymbolTableRecord
100
AcDbLayerTableRecord
2
SK2
70
0
62
7
6
CONTINUOUS
290
1
370
-3
390
0
0
LAYER
5
11f
100
AcDbSymbolTableRecord
100
AcDbLayerTableRecord
2
SK1
70
0
62
4
6
CONTINUOUS
290
1
370
-3
390
0
0
LAYER
5
120
100
AcDbSymbolTableRecord
100
AcDbLayerTableRecord
2
SK6
70
0
62
5
6
CONTINUOUS
290
1
370
-3
390
0
0
ENDTAB
0
TABLE
2
STYLE
5
134
100
AcDbSymbolTable
0
STYLE
5
11
100
AcDbSymbolTableRecord
100
AcDbTextStyleTableRecord
2
Standard
3
txt
70
0
71
0
40
0
41
1
42
0
50
0
0
STYLE
5
9B
100
AcDbSymbolTableRecord
100
AcDbTextStyleTableRecord
2
DEFAULT
3
simplex.shx
70
0
71
0
40
0
41
1
42
0
50
0
0
STYLE
5
BE
100
AcDbSymbolTableRecord
100
AcDbTextStyleTableRecord
2
DWGDirectTextStyle
3
SIMPLEX
70
0
71
0
40
0
41
1
42
0
50
0
0
ENDTAB
0
TABLE
2
DIMSTYLE
5
135
100
AcDbSymbolTable
100
AcDbDimStyleTable
0
DIMSTYLE
105
27
100
AcDbSymbolTableRecord
100
AcDbDimStyleTableRecord
2
Standard
70
0
3
<>
41
0.18
42
0.0625
44
0.18
140
0.18
147
0.09
73
0
74
0
77
1
271
2
275
0
278
52
280
0
340
11
0
ENDTAB
0
TABLE
2
VIEW
5
136
100
AcDbSymbolTable
0
ENDTAB
0
TABLE
2
UCS
5
137
100
AcDbSymbolTable
0
ENDTAB
0
TABLE
2
APPID
5
138
100
AcDbSymbolTable
0
APPID
5
12
100
AcDbSymbolTableRecord
100
AcDbRegAppTableRecord
2
ACAD
70
0
0
ENDTAB
0
TABLE
2
BLOCK_RECORD
5
139
100
AcDbSymbolTable
0
BLOCK_RECORD
5
1F
100
AcDbSymbolTableRecord
100
AcDbBlockTableRecord
2
*Model_Space
340
0
70
0
0
BLOCK_RECORD
5
1B
100
AcDbSymbolTableRecord
100
AcDbBlockTableRecord
2
*Paper_Space
340
0
70
0
0
BLOCK_RECORD
5
23
100
AcDbSymbolTableRecord
100
AcDbBlockTableRecord
2
*Paper_Space0
340
0
70
0
0
BLOCK_RECORD
5
C0
100
AcDbSymbolTableRecord
100
AcDbBlockTableRecord
2
DimnDraft3D1
340
0
70
0
0
BLOCK_RECORD
5
CE
100
AcDbSymbolTableRecord
100
AcDbBlockTableRecord
2
_CLOSED
340
0
70
0
0
BLOCK_RECORD
5
D5
100
AcDbSymbolTableRecord
100
AcDbBlockTableRecord
2
DimnDraft3D2
340
0
70
0
0
BLOCK_RECORD
5
E3
100
AcDbSymbolTableRecord
100
AcDbBlockTableRecord
2
DimnDraft3D3
340
0
70
0
0
BLOCK_RECORD
5
F1
100
AcDbSymbolTableRecord
100
AcDbBlockTableRecord
2
DimnDraft3D4
340
0
70
0
0
ENDTAB
0
ENDSEC
0
SECTION
2
BLOCKS
0
BLOCK
5
20
100
AcDbEntity
8
0
100
AcDbBlockBegin
2
*Model_Space
70
0
10
0
20
0
30
0
3
*Model_Space
0
ENDBLK
5
21
100
AcDbEntity
8
0
100
AcDbBlockEnd
0
BLOCK
5
1C
100
AcDbEntity
8
0
100
AcDbBlockBegin
2
*Paper_Space
70
0
10
0
20
0
30
0
3
*Paper_Space
0
ENDBLK
5
1D
100
AcDbEntity
8
0
100
AcDbBlockEnd
0
BLOCK
5
24
100
AcDbEntity
8
0
100
AcDbBlockBegin
2
*Paper_Space0
70
0
10
0
20
0
30
0
3
*Paper_Space0
0
ENDBLK
5
25
100
AcDbEntity
8
0
100
AcDbBlockEnd
0
BLOCK
5
CB
100
AcDbEntity
8
0
100
AcDbBlockBegin
2
DimnDraft3D1
70
0
10
0
20
0
30
0
3
DimnDraft3D1
0
MTEXT
5
C1
100
AcDbEntity
8
SK2
62
256
6
ByLayer
370
-1
48
1
60
0
100
AcDbMText
10
-148.54405
20
-1.503947
30
0
210
0
220
0
230
1
1
\W01.000;\fsimplex.shx,bigfont.shx;25 
40
4.5
41
0
44
1.084337
50
90
71
7
72
5
7
DEFAULT
0
LINE
5
C2
100
AcDbEntity
8
SK2
62
256
6
ByLayer
370
-1
48
1
60
0
100
AcDbLine
10
-139.66905
20
-12.4375
30
0
11
-149.41905
21
-12.4375
31
0
39
0
210
0
220
0
230
1
0
LINE
5
C3
100
AcDbEntity
8
SK2
62
256
6
ByLayer
370
-1
48
1
60
0
100
AcDbLine
10
-139.66905
20
12.4375
30
0
11
-149.41905
21
12.4375
31
0
39
0
210
0
220
0
230
1
0
LINE
5
C4
100
AcDbEntity
8
SK2
62
256
6
ByLayer
370
-1
48
1
60
0
100
AcDbLine
10
-147.41905
20
-12.4375
30
0
11
-147.41905
21
12.4375
31
0
39
0
210
0
220
0
230
1
0
LINE
5
C5
100
AcDbEntity
8
SK2
62
256
6
ByLayer
370
-1
48
1
60
0
100
AcDbLine
10
-147.41905
20
-12.4375
30
0
11
-147.837047
21
-9.262502
31
0
39
0
210
0
220
0
230
1
0
LINE
5
C6
100
AcDbEntity
8
SK2
62
256
6
ByLayer
370
-1
48
1
60
0
100
AcDbLine
10
-147.41905
20
-12.4375
30
0
11
-147.001053
21
-9.262498
31
0
39
0
210
0
220
0
230
1
0
LINE
5
C7
100
AcDbEntity
8
SK2
62
256
6
ByLayer
370
-1
48
1
60
0
100
AcDbLine
10
-147.837047
20
-9.262502
30
0
11
-147.001053
21
-9.262498
31
0
39
0
210
0
220
0
230
1
0
LINE
5
C8
100
AcDbEntity
8
SK2
62
256
6
ByLayer
370
-1
48
1
60
0
100
AcDbLine
10
-147.41905
20
12.4375
30
0
11
-147.001053
21
9.262502
31
0
39
0
210
0
220
0
230
1
0
LINE
5
C9
100
AcDbEntity
8
SK2
62
256
6
ByLayer
370
-1
48
1
60
0
100
AcDbLine
10
-147.41905
20
12.4375
30
0
11
-147.837047
21
9.262498
31
0
39
0
210
0
220
0
230
1
0
LINE
5
CA
100
AcDbEntity
8
SK2
62
256
6
ByLayer
370
-1
48
1
60
0
100
AcDbLine
10
-147.001053
20
9.262502
30
0
11
-147.837047
21
9.262498
31
0
39
0
210
0
220
0
230
1
0
ENDBLK
5
CC
100
AcDbEntity
8
0
100
AcDbBlockEnd
0
BLOCK
5
CF
100
AcDbEntity
8
0
100
AcDbBlockBegin
2
_CLOSED
70
0
10
0
20
0
30
0
3
_CLOSED
0
LINE
5
D1
100
AcDbEntity
8
0
62
256
6
ByLayer
370
-2
48
1
60
0
100
AcDbLine
10
-1
20
0.166667
30
0
11
0
21
0
31
0
39
0
210
0
220
0
230
1
0
LINE
5
D2
100
AcDbEntity
8
0
62
256
6
ByLayer
370
-2
48
1
60
0
100
AcDbLine
10
0
20
0
30
0
11
-1
21
-0.166667
31
0
39
0
210
0
220
0
230
1
0
LINE
5
D3
100
AcDbEntity
8
0
62
256
6
ByLayer
370
-2
48
1
60
0
100
AcDbLine
10
-1
20
0.166667
30
0
11
-1
21
-0.166667
31
0
39
0
210
0
220
0
230
1
0
LINE
5
D4
100
AcDbEntity
8
0
62
256
6
ByLayer
370
-2
48
1
60
0
100
AcDbLine
10
0
20
0
30
0
11
-1
21
0
31
0
39
0
210
0
220
0
230
1
0
ENDBLK
5
D0
100
AcDbEntity
8
0
100
AcDbBlockEnd
0
BLOCK
5
E0
100
AcDbEntity
8
0
100
AcDbBlockBegin
2
DimnDraft3D2
70
0
10
0
20
0
30
0
3
DimnDraft3D2
0
MTEXT
5
D6
100
AcDbEntity
8
2
62
256
6
ByLayer
370
-1
48
1
60
0
100
AcDbMText
10
46.80595
20
-5.127632
30
0
210
0
220
0
230
1
1
\W01.000;\fsimplex.shx,bigfont.shx;25.65 
40
4.5
41
0
44
1.084337
50
90
71
7
72
5
7
DEFAULT
0
LINE
5
D7
100
AcDbEntity
8
2
62
256
6
ByLayer
370
-1
48
1
60
0
100
AcDbLine
10
2
20
-12.4375
30
0
11
49.93095
21
-12.4375
31
0
39
0
210
0
220
0
230
1
0
LINE
5
D8
100
AcDbEntity
8
2
62
256
6
ByLayer
370
-1
48
1
60
0
100
AcDbLine
10
35.68095
20
13.5625
30
0
11
49.93095
21
13.5625
31
0
39
0
210
0
220
0
230
1
0
LINE
5
D9
100
AcDbEntity
8
2
62
256
6
ByLayer
370
-1
48
1
60
0
100
AcDbLine
10
47.93095
20
-12.4375
30
0
11
47.93095
21
13.5625
31
0
39
0
210
0
220
0
230
1
0
LINE
5
DA
100
AcDbEntity
8
2
62
256
6
ByLayer
370
-1
48
1
60
0
100
AcDbLine
10
47.93095
20
-12.4375
30
0
11
47.512953
21
-9.262502
31
0
39
0
210
0
220
0
230
1
0
LINE
5
DB
100
AcDbEntity
8
2
62
256
6
ByLayer
370
-1
48
1
60
0
100
AcDbLine
10
47.93095
20
-12.4375
30
0
11
48.348947
21
-9.262498
31
0
39
0
210
0
220
0
230
1
0
LINE
5
DC
100
AcDbEntity
8
2
62
256
6
ByLayer
370
-1
48
1
60
0
100
AcDbLine
10
47.512953
20
-9.262502
30
0
11
48.348947
21
-9.262498
31
0
39
0
210
0
220
0
230
1
0
LINE
5
DD
100
AcDbEntity
8
2
62
256
6
ByLayer
370
-1
48
1
60
0
100
AcDbLine
10
47.93095
20
13.5625
30
0
11
48.348947
21
10.387502
31
0
39
0
210
0
220
0
230
1
0
LINE
5
DE
100
AcDbEntity
8
2
62
256
6
ByLayer
370
-1
48
1
60
0
100
AcDbLine
10
47.93095
20
13.5625
30
0
11
47.512953
21
10.387498
31
0
39
0
210
0
220
0
230
1
0
LINE
5
DF
100
AcDbEntity
8
2
62
256
6
ByLayer
370
-1
48
1
60
0
100
AcDbLine
10
48.348947
20
10.387502
30
0
11
47.512953
21
10.387498
31
0
39
0
210
0
220
0
230
1
0
ENDBLK
5
E1
100
AcDbEntity
8
0
100
AcDbBlockEnd
0
BLOCK
5
EE
100
AcDbEntity
8
0
100
AcDbBlockBegin
2
DimnDraft3D3
70
0
10
0
20
0
30
0
3
DimnDraft3D3
0
MTEXT
5
E4
100
AcDbEntity
8
2
62
256
6
ByLayer
370
-1
48
1
60
0
100
AcDbMText
10
22.177003
20
-23.5625
30
0
210
0
220
0
230
1
1
\W01.000;\fsimplex.shx,bigfont.shx;20 
40
4.5
41
0
44
1.084337
50
0
71
7
72
5
7
DEFAULT
0
LINE
5
E5
100
AcDbEntity
8
2
62
256
6
ByLayer
370
-1
48
1
60
0
100
AcDbLine
10
33.68095
20
3.5625
30
0
11
33.68095
21
-26.6875
31
0
39
0
210
0
220
0
230
1
0
LINE
5
E6
100
AcDbEntity
8
2
62
256
6
ByLayer
370
-1
48
1
60
0
100
AcDbLine
10
13.68095
20
3.5625
30
0
11
13.68095
21
-26.6875
31
0
39
0
210
0
220
0
230
1
0
LINE
5
E7
100
AcDbEntity
8
2
62
256
6
ByLayer
370
-1
48
1
60
0
100
AcDbLine
10
33.68095
20
-24.6875
30
0
11
13.68095
21
-24.6875
31
0
39
0
210
0
220
0
230
1
0
LINE
5
E8
100
AcDbEntity
8
2
62
256
6
ByLayer
370
-1
48
1
60
0
100
AcDbLine
10
33.68095
20
-24.6875
30
0
11
30.505952
21
-25.105497
31
0
39
0
210
0
220
0
230
1
0
LINE
5
E9
100
AcDbEntity
8
2
62
256
6
ByLayer
370
-1
48
1
60
0
100
AcDbLine
10
33.68095
20
-24.6875
30
0
11
30.505949
21
-24.269503
31
0
39
0
210
0
220
0
230
1
0
LINE
5
EA
100
AcDbEntity
8
2
62
256
6
ByLayer
370
-1
48
1
60
0
100
AcDbLine
10
30.505952
20
-25.105497
30
0
11
30.505949
21
-24.269503
31
0
39
0
210
0
220
0
230
1
0
LINE
5
EB
100
AcDbEntity
8
2
62
256
6
ByLayer
370
-1
48
1
60
0
100
AcDbLine
10
13.68095
20
-24.6875
30
0
11
16.855949
21
-24.269503
31
0
39
0
210
0
220
0
230
1
0
LINE
5
EC
100
AcDbEntity
8
2
62
256
6
ByLayer
370
-1
48
1
60
0
100
AcDbLine
10
13.68095
20
-24.6875
30
0
11
16.855952
21
-25.105497
31
0
39
0
210
0
220
0
230
1
0
LINE
5
ED
100
AcDbEntity
8
2
62
256
6
ByLayer
370
-1
48
1
60
0
100
AcDbLine
10
16.855949
20
-24.269503
30
0
11
16.855952
21
-25.105497
31
0
39
0
210
0
220
0
230
1
0
ENDBLK
5
EF
100
AcDbEntity
8
0
100
AcDbBlockEnd
0
BLOCK
5
FC
100
AcDbEntity
8
0
100
AcDbBlockBegin
2
DimnDraft3D4
70
0
10
0
20
0
30
0
3
DimnDraft3D4
0
MTEXT
5
F2
100
AcDbEntity
8
SK2
62
256
6
ByLayer
370
-1
48
1
60
0
100
AcDbMText
10
-54.587471
20
34.4375
30
0
210
0
220
0
230
1
1
\W01.000;\fsimplex.shx,bigfont.shx;170 
40
4.5
41
0
44
1.084337
50
0
71
7
72
5
7
DEFAULT
0
LINE
5
F3
100
AcDbEntity
8
SK2
62
256
6
ByLayer
370
-1
48
1
60
0
100
AcDbLine
10
33.68095
20
15.5625
30
0
11
33.68095
21
35.3125
31
0
39
0
210
0
220
0
230
1
0
LINE
5
F4
100
AcDbEntity
8
SK2
62
256
6
ByLayer
370
-1
48
1
60
0
100
AcDbLine
10
-137.66905
20
14.4375
30
0
11
-137.66905
21
35.3125
31
0
39
0
210
0
220
0
230
1
0
LINE
5
F5
100
AcDbEntity
8
SK2
62
256
6
ByLayer
370
-1
48
1
60
0
100
AcDbLine
10
33.68095
20
33.3125
30
0
11
-137.66905
21
33.3125
31
0
39
0
210
0
220
0
230
1
0
LINE
5
F6
100
AcDbEntity
8
SK2
62
256
6
ByLayer
370
-1
48
1
60
0
100
AcDbLine
10
33.68095
20
33.3125
30
0
11
30.505952
21
32.894503
31
0
39
0
210
0
220
0
230
1
0
LINE
5
F7
100
AcDbEntity
8
SK2
62
256
6
ByLayer
370
-1
48
1
60
0
100
AcDbLine
10
33.68095
20
33.3125
30
0
11
30.505949
21
33.730497
31
0
39
0
210
0
220
0
230
1
0
LINE
5
F8
100
AcDbEntity
8
SK2
62
256
6
ByLayer
370
-1
48
1
60
0
100
AcDbLine
10
30.505952
20
32.894503
30
0
11
30.505949
21
33.730497
31
0
39
0
210
0
220
0
230
1
0
LINE
5
F9
100
AcDbEntity
8
SK2
62
256
6
ByLayer
370
-1
48
1
60
0
100
AcDbLine
10
-137.66905
20
33.3125
30
0
11
-134.494051
21
33.730497
31
0
39
0
210
0
220
0
230
1
0
LINE
5
FA
100
AcDbEntity
8
SK2
62
256
6
ByLayer
370
-1
48
1
60
0
100
AcDbLine
10
-137.66905
20
33.3125
30
0
11
-134.494048
21
32.894503
31
0
39
0
210
0
220
0
230
1
0
LINE
5
FB
100
AcDbEntity
8
SK2
62
256
6
ByLayer
370
-1
48
1
60
0
100
AcDbLine
10
-134.494051
20
33.730497
30
0
11
-134.494048
21
32.894503
31
0
39
0
210
0
220
0
230
1
0
ENDBLK
5
FD
100
AcDbEntity
8
0
100
AcDbBlockEnd
0
ENDSEC
0
SECTION
2
ENTITIES
0
ARC
5
67
100
AcDbEntity
8
1
62
256
6
ByLayer
370
-1
48
1
60
0
100
AcDbCircle
39
0
10
26.98095
20
9.5625
30
0
40
1.5
210
0
220
0
230
1
100
AcDbArc
50
142.895898
51
217.104093
0
ARC
5
68
100
AcDbEntity
8
1
62
256
6
ByLayer
370
-1
48
1
60
0
100
AcDbCircle
39
0
10
-16.627688
20
-4.0375
30
0
40
10.2
210
0
220
0
230
-1
100
AcDbArc
50
30
51
90
0
ARC
5
69
100
AcDbEntity
8
1
62
256
6
ByLayer
370
-1
48
1
60
0
100
AcDbCircle
39
0
10
-29.68095
20
9.5625
30
0
40
1
210
0
220
0
230
-1
100
AcDbArc
50
137.228335
51
162.771665
0
ARC
5
6B
100
AcDbEntity
8
1
62
256
6
ByLayer
370
-1
48
1
60
0
100
AcDbCircle
39
0
10
-29.68095
20
9.5625
30
0
40
1.25
210
0
220
0
230
-1
100
AcDbArc
50
60
51
120
0
ARC
5
6C
100
AcDbEntity
8
1
62
256
6
ByLayer
370
-1
48
1
60
0
100
AcDbCircle
39
0
10
-29.68095
20
9.5625
30
0
40
1.25
210
0
220
0
230
-1
100
AcDbArc
50
120
51
180
0
ARC
5
6D
100
AcDbEntity
8
1
62
256
6
ByLayer
370
-1
48
1
60
0
100
AcDbCircle
39
0
10
-29.68095
20
9.5625
30
0
40
1.25
210
0
220
0
230
-1
100
AcDbArc
50
300
51
0
0
ARC
5
6E
100
AcDbEntity
8
1
62
256
6
ByLayer
370
-1
48
1
60
0
100
AcDbCircle
39
0
10
-29.68095
20
9.5625
30
0
40
1.25
210
0
220
0
230
-1
100
AcDbArc
50
180
51
240
0
ARC
5
6F
100
AcDbEntity
8
1
62
256
6
ByLayer
370
-1
48
1
60
0
100
AcDbCircle
39
0
10
-29.68095
20
9.5625
30
0
40
1.25
210
0
220
0
230
-1
100
AcDbArc
50
0
51
60
0
ARC
5
70
100
AcDbEntity
8
1
62
256
6
ByLayer
370
-1
48
1
60
0
100
AcDbCircle
39
0
10
-29.68095
20
9.5625
30
0
40
1
210
0
220
0
230
-1
100
AcDbArc
50
257.228335
51
282.771665
0
ARC
5
73
100
AcDbEntity
8
1
62
256
6
ByLayer
370
-1
48
1
60
0
100
AcDbCircle
39
0
10
-29.68095
20
9.5625
30
0
40
1
210
0
220
0
230
-1
100
AcDbArc
50
317.228335
51
342.771665
0
ARC
5
75
100
AcDbEntity
8
1
62
256
6
ByLayer
370
-1
48
1
60
0
100
AcDbCircle
39
0
10
-29.68095
20
9.5625
30
0
40
1
210
0
220
0
230
-1
100
AcDbArc
50
77.228335
51
102.771665
0
ARC
5
76
100
AcDbEntity
8
1
62
256
6
ByLayer
370
-1
48
1
60
0
100
AcDbCircle
39
0
10
-29.68095
20
9.5625
30
0
40
1
210
0
220
0
230
-1
100
AcDbArc
50
197.228335
51
222.771665
0
ARC
5
79
100
AcDbEntity
8
1
62
256
6
ByLayer
370
-1
48
1
60
0
100
AcDbCircle
39
0
10
-29.68095
20
9.5625
30
0
40
1
210
0
220
0
230
-1
100
AcDbArc
50
17.228335
51
42.771665
0
ARC
5
7B
100
AcDbEntity
8
1
62
256
6
ByLayer
370
-1
48
1
60
0
100
AcDbCircle
39
0
10
-29.68095
20
9.5625
30
0
40
1.25
210
0
220
0
230
-1
100
AcDbArc
50
240
51
300
0
CIRCLE
5
6A
100
AcDbEntity
8
1
62
256
6
ByLayer
370
-1
48
1
60
0
100
AcDbCircle
10
29.68095
20
9.5625
30
0
40
2.09999999999999
39
0
210
0
220
0
230
1
0
CIRCLE
5
71
100
AcDbEntity
8
1
62
256
6
ByLayer
370
-1
48
1
60
0
100
AcDbCircle
10
-29.68095
20
9.5625
30
0
40
4
39
0
210
0
220
0
230
-1
0
CIRCLE
5
72
100
AcDbEntity
8
1
62
256
6
ByLayer
370
-1
48
1
60
0
100
AcDbCircle
10
-29.68095
20
9.5625
30
0
40
2.3313644570791
39
0
210
0
220
0
230
-1
0
CIRCLE
5
74
100
AcDbEntity
8
1
62
256
6
ByLayer
370
-1
48
1
60
0
100
AcDbCircle
10
29.68095
20
9.5625
30
0
40
1.40000000000001
39
0
210
0
220
0
230
1
0
CIRCLE
5
77
100
AcDbEntity
8
1
62
256
6
ByLayer
370
-1
48
1
60
0
100
AcDbCircle
10
-29.68095
20
9.5625
30
0
40
2.20103780961137
39
0
210
0
220
0
230
-1
0
CIRCLE
5
78
100
AcDbEntity
8
1
62
256
6
ByLayer
370
-1
48
1
60
0
100
AcDbCircle
10
-29.68095
20
9.5625
30
0
40
2.25
39
0
210
0
220
0
230
-1
0
CIRCLE
5
7A
100
AcDbEntity
8
1
62
256
6
ByLayer
370
-1
48
1
60
0
100
AcDbCircle
10
29.68095
20
9.5625
30
0
40
0.833572051764949
39
0
210
0
220
0
230
1
0
POINT
5
41
100
AcDbEntity
8
81
62
256
6
ByLayer
370
-1
48
1
60
0
100
AcDbPoint
10
33.68095
20
13.5625
30
0
39
0
210
0
220
0
230
1
50
360
0
POINT
5
43
100
AcDbEntity
8
SK2
62
256
6
ByLayer
370
-1
48
1
60
0
100
AcDbPoint
10
33.68095
20
11.219354
30
0
39
0
210
0
220
0
230
1
50
360
0
POINT
5
45
100
AcDbEntity
8
SK2
62
256
6
ByLayer
370
-1
48
1
60
0
100
AcDbPoint
10
33.68095
20
11.219354
30
0
39
0
210
0
220
0
230
1
50
360
0
POINT
5
46
100
AcDbEntity
8
80
62
256
6
ByLayer
370
-1
48
1
60
0
100
AcDbPoint
10
0
20
0
30
0
39
0
210
0
220
0
230
1
50
360
0
POINT
5
48
100
AcDbEntity
8
SK2
62
256
6
ByLayer
370
-1
48
1
60
0
100
AcDbPoint
10
33.68095
20
11.219354
30
0
39
0
210
0
220
0
230
1
50
360
0
POINT
5
49
100
AcDbEntity
8
SK2
62
256
6
ByLayer
370
-1
48
1
60
0
100
AcDbPoint
10
33.68095
20
11.219354
30
0
39
0
210
0
220
0
230
1
50
360
0
POINT
5
4A
100
AcDbEntity
8
2
62
256
6
ByLayer
370
-1
48
1
60
0
100
AcDbPoint
10
33.68095
20
11.219354
30
0
39
0
210
0
220
0
230
1
50
360
0
SPLINE
5
7C
100
AcDbEntity
8
1
62
256
6
ByLayer
370
-1
48
1
60
0
100
AcDbSpline
70
4
71
3
72
8
73
4
40
0
40
0
40
0
40
0
40
1
40
1
40
1
40
1
41
1
10
29.4310328093704
20
10.5704119397122
30
0
41
1
10
29.4396370133865
20
10.5591973842976
30
0
41
1
10
29.4491991147954
20
10.5482849541968
30
0
41
1
10
29.4598839417167
20
10.5377587990112
30
0
0
SPLINE
5
7D
100
AcDbEntity
8
1
62
256
6
ByLayer
370
-1
48
1
60
0
100
AcDbSpline
70
4
71
3
72
18
73
14
40
0
40
0
40
0
40
0
40
0.208886483239678
40
0.208886483239678
40
0.421198226784358
40
0.421198226784358
40
0.600960032344691
40
0.600960032344691
40
0.761871479604343
40
0.761871479604343
40
0.93778055880984
40
0.93778055880984
40
1
40
1
40
1
40
1
41
1
10
28.7258181580267
20
9.26631956556224
30
0
41
1
10
28.7564478196584
20
9.25786629897564
30
0
41
1
10
28.7869374903561
20
9.24436905462593
30
0
41
1
10
28.8434499308178
20
9.20722312983534
30
0
41
1
10
28.8702878156498
20
9.18266979647095
30
0
41
1
10
28.9105730485584
20
9.13008830117647
30
0
41
1
10
28.9259530352366
20
9.1024054324084
30
0
41
1
10
28.946329442668
20
9.04848441476872
30
0
41
1
10
28.952535143747
20
9.02175995957012
30
0
41
1
10
28.9582900663786
20
8.96712273712168
30
0
41
1
10
28.9572851917775
20
8.93868973658857
30
0
41
1
10
28.9513026991406
20
8.90215959076303
30
0
41
1
10
28.9492958572185
20
8.89269841680309
30
0
41
1
10
28.9468843810523
20
8.88342163544448
30
0
0
SPLINE
5
7E
100
AcDbEntity
8
1
62
256
6
ByLayer
370
-1
48
1
60
0
100
AcDbSpline
70
4
71
3
72
8
73
4
40
0
40
0
40
0
40
0
40
1
40
1
40
1
40
1
41
1
10
28.9468843810523
20
10.2415783645675
30
0
41
1
10
28.9431108767181
20
10.2560947737091
30
0
41
1
10
28.9384414857382
20
10.2698320114933
30
0
41
1
10
28.933031497865
20
10.2828907484578
30
0
0
SPLINE
5
7F
100
AcDbEntity
8
1
62
256
6
ByLayer
370
-1
48
1
60
0
100
AcDbSpline
70
4
71
3
72
8
73
4
40
0
40
0
40
0
40
0
40
1
40
1
40
1
40
1
41
1
10
29.902016387768
20
10.5377587990112
30
0
41
1
10
29.9127012146892
20
10.5482849541968
30
0
41
1
10
29.9222633160982
20
10.5591973842976
30
0
41
1
10
29.9308675201142
20
10.5704119397122
30
0
0
SPLINE
5
80
100
AcDbEntity
8
1
62
256
6
ByLayer
370
-1
48
1
60
0
100
AcDbSpline
70
4
71
3
72
16
73
12
40
0
40
0
40
0
40
0
40
0.121458033874142
40
0.121458033874142
40
0.241889325533042
40
0.241889325533042
40
0.425703094688873
40
0.425703094688873
40
0.725236978036537
40
0.725236978036537
40
1
40
1
40
1
40
1
41
1
10
30.3059501647423
20
10.6450317547365
30
0
41
1
10
30.3261007927449
20
10.6333977842349
30
0
41
1
10
30.3450812074097
20
10.6190246083206
30
0
41
1
10
30.3771345278606
20
10.5884435615383
30
0
41
1
10
30.3907754110467
20
10.5718632621027
30
0
41
1
10
30.4186988299485
20
10.5301965444822
30
0
41
1
10
30.430254397942
20
10.5044709688254
30
0
41
1
10
30.4501941828298
20
10.4403916380659
30
0
41
1
10
30.4528052456396
20
10.4027863990855
30
0
41
1
10
30.4471633129855
20
10.3376095839144
30
0
41
1
10
30.439633631372
20
10.3088750374687
30
0
41
1
10
30.4288688316196
20
10.2828907484578
30
0
0
SPLINE
5
81
100
AcDbEntity
8
1
62
256
6
ByLayer
370
-1
48
1
60
0
100
AcDbSpline
70
4
71
3
72
16
73
12
40
0
40
0
40
0
40
0
40
0.417804919380099
40
0.417804919380099
40
0.619437241835971
40
0.619437241835971
40
0.788375803929753
40
0.788375803929753
40
0.906080805444956
40
0.906080805444956
40
1
40
1
40
1
40
1
41
1
10
28.933031497865
20
10.2828907484578
30
0
41
1
10
28.9167627179023
20
10.3221606550173
30
0
41
1
10
28.9075479190167
20
10.368057286055
30
0
41
1
10
28.9142711179995
20
10.4443094648172
30
0
41
1
10
28.9198345710187
20
10.4708911270631
30
0
41
1
10
28.9391548461804
20
10.5210118696942
30
0
41
1
10
28.9516817255562
20
10.5448340739746
30
0
41
1
10
28.9808605620412
20
10.5837827805874
30
0
41
1
10
28.995446550963
20
10.5996822819528
30
0
41
1
10
29.0254408842955
20
10.6254073106692
30
0
41
1
10
29.0403402680207
20
10.6360193766622
30
0
41
1
10
29.0559501647423
20
10.6450317547365
30
0
0
SPLINE
5
82
100
AcDbEntity
8
1
62
256
6
ByLayer
370
-1
48
1
60
0
100
AcDbSpline
70
4
71
3
72
8
73
4
40
0
40
0
40
0
40
0
40
1
40
1
40
1
40
1
41
1
10
29.902016387768
20
8.58724120100075
30
0
41
1
10
29.9127012146893
20
8.57671504581521
30
0
41
1
10
29.9222633160982
20
8.56580261571438
30
0
41
1
10
29.9308675201142
20
8.55458806029978
30
0
0
SPLINE
5
83
100
AcDbEntity
8
1
62
256
6
ByLayer
370
-1
48
1
60
0
100
AcDbSpline
70
4
71
3
72
16
73
12
40
0
40
0
40
0
40
0
40
0.417833985268656
40
0.417833985268656
40
0.619457993186622
40
0.619457993186622
40
0.78838955412753
40
0.78838955412753
40
0.906092272185611
40
0.906092272185611
40
1
40
1
40
1
40
1
41
1
10
30.6787861869915
20
9.85002119126042
30
0
41
1
10
30.720932240017
20
9.84447502962612
30
0
41
1
10
30.7652906501742
20
9.82950530020682
30
0
41
1
10
30.8279670013677
20
9.78555209952222
30
0
41
1
10
30.8482045911708
20
9.76744286578008
30
0
41
1
10
30.8819482025063
20
9.72565055494738
30
0
41
1
10
30.8963143815611
20
9.70289099797733
30
0
41
1
10
30.9154540684189
20
9.65814744749159
30
0
41
1
10
30.9219298962168
20
9.63756588122257
30
0
41
1
10
30.9292099733578
20
9.59872960095248
30
0
41
1
10
30.9309501647423
20
9.5805225695963
30
0
41
1
10
30.9309501647423
20
9.56250000000603
30
0
0
SPLINE
5
84
100
AcDbEntity
8
1
62
256
6
ByLayer
370
-1
48
1
60
0
100
AcDbSpline
70
4
71
3
72
18
73
14
40
0
40
0
40
0
40
0
40
0.0250986123280781
40
0.0250986123280781
40
0.128644319229003
40
0.128644319229003
40
0.261874229016372
40
0.261874229016372
40
0.456619428569282
40
0.456619428569282
40
0.778146641389455
40
0.778146641389455
40
1
40
1
40
1
40
1
41
1
10
29.0559501647423
20
10.6450317547365
30
0
41
1
10
29.0601632062923
20
10.6474641554095
30
0
41
1
10
29.0644412789282
20
10.6497923494846
30
0
41
1
10
29.0864712984342
20
10.661074350664
30
0
41
1
10
29.1051744822137
20
10.6682648102245
30
0
41
1
10
29.1467848105013
20
10.6798132042189
30
0
41
1
10
29.170020035568
20
10.6830342825296
30
0
41
1
10
29.2229563588806
20
10.6847497738143
30
0
41
1
10
29.2518041200783
20
10.68060872974
30
0
41
1
10
29.3191718369822
20
10.6622306894419
30
0
41
1
10
29.3535528162693
20
10.6430390690957
30
0
41
1
10
29.4007524498568
20
10.6055210172947
30
0
41
1
10
29.4171944427739
20
10.5884486028078
30
0
41
1
10
29.4310328093704
20
10.5704119397122
30
0
0
SPLINE
5
85
100
AcDbEntity
8
1
62
256
6
ByLayer
370
-1
48
1
60
0
100
AcDbSpline
70
4
71
3
72
8
73
4
40
0
40
0
40
0
40
0
40
1
40
1
40
1
40
1
41
1
10
29.4310328093704
20
8.55458806029975
30
0
41
1
10
29.4396370133864
20
8.56580261571438
30
0
41
1
10
29.4491991147954
20
8.57671504581521
30
0
41
1
10
29.4598839417166
20
8.58724120100075
30
0
0
SPLINE
5
86
100
AcDbEntity
8
1
62
256
6
ByLayer
370
-1
48
1
60
0
100
AcDbSpline
70
4
71
3
72
8
73
4
40
0
40
0
40
0
40
0
40
1
40
1
40
1
40
1
41
1
10
30.4288688316196
20
10.2828907484578
30
0
41
1
10
30.4234588437464
20
10.2698320114933
30
0
41
1
10
30.4187894527666
20
10.2560947737091
30
0
41
1
10
30.4150159484323
20
10.2415783645675
30
0
0
SPLINE
5
87
100
AcDbEntity
8
1
62
256
6
ByLayer
370
-1
48
1
60
0
100
AcDbSpline
70
4
71
3
72
16
73
12
40
0
40
0
40
0
40
0
40
0.41797618502544
40
0.41797618502544
40
0.619744748472067
40
0.619744748472067
40
0.788797544347739
40
0.788797544347739
40
0.906575913083682
40
0.906575913083682
40
1
40
1
40
1
40
1
41
1
10
29.9308675201142
20
10.5704119397122
30
0
41
1
10
29.9567375598814
20
10.6041304561498
30
0
41
1
10
29.9918703252048
20
10.6350540357923
30
0
41
1
10
30.061256645953
20
10.667359859325
30
0
41
1
10
30.0870594141686
20
10.6758352104642
30
0
41
1
10
30.1401277022051
20
10.6841681747304
30
0
41
1
10
30.1670232854609
20
10.6852326200752
30
0
41
1
10
30.2153458926362
20
10.6794399004125
30
0
41
1
10
30.2364089624879
20
10.6747589299652
30
0
41
1
10
30.2736905329648
20
10.6616457534004
30
0
41
1
10
30.2903357289998
20
10.6540467534157
30
0
41
1
10
30.3059501647423
20
10.6450317547366
30
0
0
SPLINE
5
88
100
AcDbEntity
8
1
62
256
6
ByLayer
370
-1
48
1
60
0
100
AcDbSpline
70
4
71
3
72
16
73
12
40
0
40
0
40
0
40
0
40
0.418045978506512
40
0.418045978506512
40
0.619794635905461
40
0.619794635905461
40
0.788830669762529
40
0.788830669762529
40
0.906603583031558
40
0.906603583031558
40
1
40
1
40
1
40
1
41
1
10
30.4288688316196
20
8.84210925155418
30
0
41
1
10
30.4451376115824
20
8.80283934499465
30
0
41
1
10
30.4543524104679
20
8.75694271395693
30
0
41
1
10
30.4476292114852
20
8.68069053519477
30
0
41
1
10
30.442065758466
20
8.65410887294885
30
0
41
1
10
30.4227454833042
20
8.60398813031779
30
0
41
1
10
30.4102186039285
20
8.58016592603741
30
0
41
1
10
30.3810397674435
20
8.5412172194246
30
0
41
1
10
30.3664537785217
20
8.52531771805914
30
0
41
1
10
30.3364594451891
20
8.49959268934279
30
0
41
1
10
30.321560061464
20
8.4889806233497
30
0
41
1
10
30.3059501647423
20
8.47996824527544
30
0
0
SPLINE
5
89
100
AcDbEntity
8
1
62
256
6
ByLayer
370
-1
48
1
60
0
100
AcDbSpline
70
4
71
3
72
16
73
12
40
0
40
0
40
0
40
0
40
0.121522020819415
40
0.121522020819415
40
0.241963776566804
40
0.241963776566804
40
0.425818169076768
40
0.425818169076768
40
0.725432485828853
40
0.725432485828853
40
1
40
1
40
1
40
1
41
1
10
28.4309501647423
20
9.562500000006
30
0
41
1
10
28.4309501647423
20
9.58578013306118
30
0
41
1
10
28.4339107325256
20
9.60941689283788
30
0
41
1
10
28.4443760191083
20
9.65247628586934
30
0
41
1
10
28.4519172572155
20
9.6725791988116
30
0
41
1
10
28.4740478328693
20
9.71759637764907
30
0
41
1
10
28.4905546805336
20
9.74046697257941
30
0
41
1
10
28.5360942163824
20
9.78977492259457
30
0
41
1
10
28.5673652324803
20
9.81083583476121
30
0
41
1
10
28.6266195870398
20
9.83851626448848
30
0
41
1
10
28.6552483412565
20
9.84635422302418
30
0
41
1
10
28.6831141424931
20
9.85002119126042
30
0
0
SPLINE
5
8A
100
AcDbEntity
8
1
62
256
6
ByLayer
370
-1
48
1
60
0
100
AcDbSpline
70
4
71
3
72
18
73
14
40
0
40
0
40
0
40
0
40
0.208886483239649
40
0.208886483239649
40
0.421198226784365
40
0.421198226784365
40
0.600960032344729
40
0.600960032344729
40
0.761871479604403
40
0.761871479604403
40
0.937780558809932
40
0.937780558809932
40
1
40
1
40
1
40
1
41
1
10
30.636082171458
20
9.26631956556221
30
0
41
1
10
30.6054525098262
20
9.25786629897561
30
0
41
1
10
30.5749628391285
20
9.24436905462588
30
0
41
1
10
30.5184503986669
20
9.20722312983534
30
0
41
1
10
30.4916125138348
20
9.18266979647092
30
0
41
1
10
30.4513272809263
20
9.13008830117647
30
0
41
1
10
30.435947294248
20
9.10240543240838
30
0
41
1
10
30.4155708868166
20
9.04848441476869
30
0
41
1
10
30.4093651857376
20
9.02175995957012
30
0
41
1
10
30.403610263106
20
8.96712273712168
30
0
41
1
10
30.4046151377072
20
8.93868973658854
30
0
41
1
10
30.410597630344
20
8.90215959076303
30
0
41
1
10
30.4126044722661
20
8.89269841680309
30
0
41
1
10
30.4150159484323
20
8.88342163544451
30
0
0
SPLINE
5
8B
100
AcDbEntity
8
1
62
256
6
ByLayer
370
-1
48
1
60
0
100
AcDbSpline
70
4
71
3
72
18
73
14
40
0
40
0
40
0
40
0
40
0.208886483239677
40
0.208886483239677
40
0.421198226784392
40
0.421198226784392
40
0.600960032344749
40
0.600960032344749
40
0.761871479604407
40
0.761871479604407
40
0.937780558809904
40
0.937780558809904
40
1
40
1
40
1
40
1
41
1
10
29.4598839417167
20
10.5377587990112
30
0
41
1
10
29.4825195161415
20
10.5154593672221
30
0
41
1
10
29.5094533079783
20
10.4958031600198
30
0
41
1
10
29.5698788427249
20
10.4654349133454
30
0
41
1
10
29.6045615955821
20
10.4544692899792
30
0
41
1
10
29.6702411227303
20
10.4458720025302
30
0
41
1
10
29.7019051836722
20
10.4463939777411
30
0
41
1
10
29.7587903584618
20
10.4557080000874
30
0
41
1
10
29.7850372661056
20
10.4636959329041
30
0
41
1
10
29.8352319500539
20
10.4860306349325
30
0
41
1
10
29.8593532135209
20
10.5011173821313
30
0
41
1
10
29.8879980014912
20
10.5245634456455
30
0
41
1
10
29.8951881975292
20
10.5310320087114
30
0
41
1
10
29.9020163877679
20
10.5377587990112
30
0
0
SPLINE
5
8C
100
AcDbEntity
8
1
62
256
6
ByLayer
370
-1
48
1
60
0
100
AcDbSpline
70
4
71
3
72
18
73
14
40
0
40
0
40
0
40
0
40
0.208886483239625
40
0.208886483239625
40
0.421198226784342
40
0.421198226784342
40
0.600960032344658
40
0.600960032344658
40
0.761871479604311
40
0.761871479604311
40
0.937780558809768
40
0.937780558809768
40
1
40
1
40
1
40
1
41
1
10
30.4150159484323
20
10.2415783645675
30
0
41
1
10
30.4070218612254
20
10.2108256661917
30
0
41
1
10
30.4034659823645
20
10.1776722146397
30
0
41
1
10
30.4073790766493
20
10.1101580431747
30
0
41
1
10
30.4152239446745
20
10.0746390864441
30
0
41
1
10
30.4406182389142
20
10.0134603037008
30
0
41
1
10
30.4569023131779
20
9.98629941014349
30
0
41
1
10
30.493411080536
20
9.94169241485014
30
0
41
1
10
30.5134522871008
20
9.92295589246817
30
0
41
1
10
30.5578920484176
20
9.89065337204818
30
0
41
1
10
30.5830181864856
20
9.87730711871384
30
0
41
1
10
30.617645467093
20
9.86422303640254
30
0
41
1
10
30.626842505053
20
9.86123042550847
30
0
41
1
10
30.636082171458
20
9.85868043444972
30
0
0
SPLINE
5
8D
100
AcDbEntity
8
1
62
256
6
ByLayer
370
-1
48
1
60
0
100
AcDbSpline
70
4
71
3
72
8
73
4
40
0
40
0
40
0
40
0
40
1
40
1
40
1
40
1
41
1
10
30.4150159484323
20
8.88342163544448
30
0
41
1
10
30.4187894527666
20
8.86890522630287
30
0
41
1
10
30.4234588437465
20
8.85516798851873
30
0
41
1
10
30.4288688316196
20
8.84210925155418
30
0
0
SPLINE
5
8E
100
AcDbEntity
8
1
62
256
6
ByLayer
370
-1
48
1
60
0
100
AcDbSpline
70
4
71
3
72
18
73
14
40
0
40
0
40
0
40
0
40
0.208886483239637
40
0.208886483239637
40
0.421198226784315
40
0.421198226784315
40
0.600960032344628
40
0.600960032344628
40
0.761871479604238
40
0.761871479604238
40
0.937780558809682
40
0.937780558809682
40
1
40
1
40
1
40
1
41
1
10
29.4598839417166
20
8.58724120100072
30
0
41
1
10
29.4825195161415
20
8.6095406327899
30
0
41
1
10
29.5094533079783
20
8.6291968399922
30
0
41
1
10
29.5698788427248
20
8.65956508666665
30
0
41
1
10
29.604561595582
20
8.67053071003284
30
0
41
1
10
29.6702411227303
20
8.67912799748174
30
0
41
1
10
29.7019051836721
20
8.67860602227091
30
0
41
1
10
29.7587903584618
20
8.66929199992458
30
0
41
1
10
29.7850372661055
20
8.66130406710798
30
0
41
1
10
29.8352319500539
20
8.63896936507953
30
0
41
1
10
29.8593532135208
20
8.62388261788075
30
0
41
1
10
29.8879980014912
20
8.6004365543665
30
0
41
1
10
29.8951881975292
20
8.59396799130062
30
0
41
1
10
29.902016387768
20
8.58724120100072
30
0
0
SPLINE
5
8F
100
AcDbEntity
8
1
62
256
6
ByLayer
370
-1
48
1
60
0
100
AcDbSpline
70
4
71
3
72
18
73
14
40
0
40
0
40
0
40
0
40
0.208886483239664
40
0.208886483239664
40
0.421198226784363
40
0.421198226784363
40
0.600960032344705
40
0.600960032344705
40
0.761871479604341
40
0.761871479604341
40
0.937780558809811
40
0.937780558809811
40
1
40
1
40
1
40
1
41
1
10
28.7258181580267
20
9.85868043444972
30
0
41
1
10
28.7564478196584
20
9.86713370103632
30
0
41
1
10
28.7869374903561
20
9.88063094538603
30
0
41
1
10
28.8434499308178
20
9.9177768701766
30
0
41
1
10
28.8702878156499
20
9.94233020354102
30
0
41
1
10
28.9105730485584
20
9.99491169883547
30
0
41
1
10
28.9259530352366
20
10.0225945676036
30
0
41
1
10
28.9463294426681
20
10.0765155852432
30
0
41
1
10
28.952535143747
20
10.1032400404418
30
0
41
1
10
28.9582900663786
20
10.1578772628903
30
0
41
1
10
28.9572851917775
20
10.1863102634234
30
0
41
1
10
28.9513026991406
20
10.2228404092489
30
0
41
1
10
28.9492958572185
20
10.2323015832089
30
0
41
1
10
28.9468843810523
20
10.2415783645675
30
0
0
SPLINE
5
90
100
AcDbEntity
8
1
62
256
6
ByLayer
370
-1
48
1
60
0
100
AcDbSpline
70
4
71
3
72
8
73
4
40
0
40
0
40
0
40
0
40
1
40
1
40
1
40
1
41
1
10
30.6787861869915
20
9.27497880875154
30
0
41
1
10
30.6647719951023
20
9.27313462720161
30
0
41
1
10
30.6505405027135
20
9.27030981951833
30
0
41
1
10
30.636082171458
20
9.26631956556221
30
0
0
SPLINE
5
91
100
AcDbEntity
8
1
62
256
6
ByLayer
370
-1
48
1
60
0
100
AcDbSpline
70
4
71
3
72
8
73
4
40
0
40
0
40
0
40
0
40
1
40
1
40
1
40
1
41
1
10
28.6831141424931
20
9.27497880875157
30
0
41
1
10
28.6971283343823
20
9.27313462720164
30
0
41
1
10
28.7113598267711
20
9.27030981951836
30
0
41
1
10
28.7258181580266
20
9.26631956556224
30
0
0
SPLINE
5
92
100
AcDbEntity
8
1
62
256
6
ByLayer
370
-1
48
1
60
0
100
AcDbSpline
70
4
71
3
72
18
73
14
40
0
40
0
40
0
40
0
40
0.0250986123280782
40
0.0250986123280782
40
0.128644319229
40
0.128644319229
40
0.26187422901636
40
0.26187422901636
40
0.456619428569264
40
0.456619428569264
40
0.778146641389336
40
0.778146641389336
40
1
40
1
40
1
40
1
41
1
10
29.0559501647423
20
8.47996824527544
30
0
41
1
10
29.0601632062923
20
8.47753584460247
30
0
41
1
10
29.0644412789282
20
8.47520765052735
30
0
41
1
10
29.0864712984342
20
8.46392564934794
30
0
41
1
10
29.1051744822138
20
8.45673518978748
30
0
41
1
10
29.1467848105013
20
8.44518679579303
30
0
41
1
10
29.170020035568
20
8.44196571748236
30
0
41
1
10
29.2229563588806
20
8.44025022619763
30
0
41
1
10
29.2518041200783
20
8.44439127027198
30
0
41
1
10
29.3191718369822
20
8.46276931057002
30
0
41
1
10
29.3535528162693
20
8.48196093091624
30
0
41
1
10
29.4007524498568
20
8.51947898271723
30
0
41
1
10
29.417194442774
20
8.53655139720414
30
0
41
1
10
29.4310328093704
20
8.55458806029975
30
0
0
SPLINE
5
93
100
AcDbEntity
8
1
62
256
6
ByLayer
370
-1
48
1
60
0
100
AcDbSpline
70
4
71
3
72
8
73
4
40
0
40
0
40
0
40
0
40
1
40
1
40
1
40
1
41
1
10
28.6831141424931
20
9.8500211912604
30
0
41
1
10
28.6971283343823
20
9.85186537281035
30
0
41
1
10
28.7113598267711
20
9.85469018049363
30
0
41
1
10
28.7258181580266
20
9.85868043444972
30
0
0
SPLINE
5
94
100
AcDbEntity
8
1
62
256
6
ByLayer
370
-1
48
1
60
0
100
AcDbSpline
70
4
71
3
72
18
73
14
40
0
40
0
40
0
40
0
40
0.0251076880059224
40
0.0251076880059224
40
0.128652803862348
40
0.128652803862348
40
0.261885870375159
40
0.261885870375159
40
0.456637719877846
40
0.456637719877846
40
0.778177853243562
40
0.778177853243562
40
1
40
1
40
1
40
1
41
1
10
30.9309501647423
20
9.56250000000603
30
0
41
1
10
30.9309501647423
20
9.55763346087988
30
0
41
1
10
30.9308273156705
20
9.55276270199687
30
0
41
1
10
30.9295822839992
20
9.52804162312046
30
0
41
1
10
30.9264575136867
20
9.50824927067288
30
0
41
1
10
30.915652873053
20
9.46643953053103
30
0
41
1
10
30.9068243021673
20
9.44470658894517
30
0
41
1
10
30.8818405069391
20
9.39800431524884
30
0
41
1
10
30.8638295264472
20
9.37509192022691
30
0
41
1
10
30.8142275436352
20
9.3259389255669
30
0
41
1
10
30.7804152173935
20
9.30576047333099
30
0
41
1
10
30.7243256225536
20
9.28364632698504
30
0
41
1
10
30.7013225998665
20
9.27794446222302
30
0
41
1
10
30.6787861869915
20
9.2749788087516
30
0
0
SPLINE
5
95
100
AcDbEntity
8
1
62
256
6
ByLayer
370
-1
48
1
60
0
100
AcDbSpline
70
4
71
3
72
16
73
12
40
0
40
0
40
0
40
0
40
0.121522020819403
40
0.121522020819403
40
0.241963776566791
40
0.241963776566791
40
0.425818169076734
40
0.425818169076734
40
0.72543248582885
40
0.72543248582885
40
1
40
1
40
1
40
1
41
1
10
28.4309501647423
20
9.562500000006
30
0
41
1
10
28.4309501647423
20
9.53921986695082
30
0
41
1
10
28.4339107325256
20
9.51558310717411
30
0
41
1
10
28.4443760191083
20
9.47252371414265
30
0
41
1
10
28.4519172572155
20
9.45242080120039
30
0
41
1
10
28.4740478328693
20
9.40740362236292
30
0
41
1
10
28.4905546805336
20
9.38453302743258
30
0
41
1
10
28.5360942163824
20
9.33522507741742
30
0
41
1
10
28.5673652324803
20
9.31416416525079
30
0
41
1
10
28.6266195870398
20
9.28648373552349
30
0
41
1
10
28.6552483412565
20
9.27864577698782
30
0
41
1
10
28.6831141424931
20
9.27497880875157
30
0
0
SPLINE
5
96
100
AcDbEntity
8
1
62
256
6
ByLayer
370
-1
48
1
60
0
100
AcDbSpline
70
4
71
3
72
8
73
4
40
0
40
0
40
0
40
0
40
1
40
1
40
1
40
1
41
1
10
30.636082171458
20
9.85868043444972
30
0
41
1
10
30.6505405027135
20
9.85469018049363
30
0
41
1
10
30.6647719951023
20
9.85186537281035
30
0
41
1
10
30.6787861869915
20
9.85002119126042
30
0
0
SPLINE
5
97
100
AcDbEntity
8
1
62
256
6
ByLayer
370
-1
48
1
60
0
100
AcDbSpline
70
4
71
3
72
8
73
4
40
0
40
0
40
0
40
0
40
1
40
1
40
1
40
1
41
1
10
28.9468843810523
20
8.88342163544448
30
0
41
1
10
28.9431108767181
20
8.86890522630287
30
0
41
1
10
28.9384414857382
20
8.85516798851873
30
0
41
1
10
28.933031497865
20
8.84210925155421
30
0
0
SPLINE
5
98
100
AcDbEntity
8
1
62
256
6
ByLayer
370
-1
48
1
60
0
100
AcDbSpline
70
4
71
3
72
16
73
12
40
0
40
0
40
0
40
0
40
0.417804919380056
40
0.417804919380056
40
0.619437241835943
40
0.619437241835943
40
0.788375803929722
40
0.788375803929722
40
0.906080805444946
40
0.906080805444946
40
1
40
1
40
1
40
1
41
1
10
28.933031497865
20
8.84210925155418
30
0
41
1
10
28.9167627179023
20
8.80283934499465
30
0
41
1
10
28.9075479190167
20
8.75694271395693
30
0
41
1
10
28.9142711179995
20
8.68069053519477
30
0
41
1
10
28.9198345710187
20
8.65410887294885
30
0
41
1
10
28.9391548461805
20
8.60398813031779
30
0
41
1
10
28.9516817255562
20
8.58016592603741
30
0
41
1
10
28.9808605620412
20
8.5412172194246
30
0
41
1
10
28.995446550963
20
8.52531771805914
30
0
41
1
10
29.0254408842956
20
8.49959268934279
30
0
41
1
10
29.0403402680207
20
8.4889806233497
30
0
41
1
10
29.0559501647423
20
8.47996824527544
30
0
0
SPLINE
5
99
100
AcDbEntity
8
1
62
256
6
ByLayer
370
-1
48
1
60
0
100
AcDbSpline
70
4
71
3
72
16
73
12
40
0
40
0
40
0
40
0
40
0.417976185025419
40
0.417976185025419
40
0.61974474847196
40
0.61974474847196
40
0.788797544347637
40
0.788797544347637
40
0.906575913083576
40
0.906575913083576
40
1
40
1
40
1
40
1
41
1
10
29.9308675201142
20
8.55458806029978
30
0
41
1
10
29.9567375598813
20
8.52086954386223
30
0
41
1
10
29.9918703252048
20
8.48994596421966
30
0
41
1
10
30.061256645953
20
8.45764014068695
30
0
41
1
10
30.0870594141686
20
8.44916478954775
30
0
41
1
10
30.140127702205
20
8.44083182528161
30
0
41
1
10
30.1670232854609
20
8.43976737993677
30
0
41
1
10
30.2153458926362
20
8.44556009959948
30
0
41
1
10
30.2364089624878
20
8.45024107004684
30
0
41
1
10
30.2736905329648
20
8.46335424661157
30
0
41
1
10
30.2903357289998
20
8.47095324659625
30
0
41
1
10
30.3059501647423
20
8.47996824527547
30
0
0
LINE
5
4C
100
AcDbEntity
8
80
62
256
6
ByLayer
370
-1
48
1
60
0
100
AcDbLine
10
0
20
0
30
0
11
-5
21
0
31
0
39
0
210
0
220
0
230
1
0
LINE
5
4D
100
AcDbEntity
8
81
62
256
6
ByLayer
370
-1
48
1
60
0
100
AcDbLine
10
33.68095
20
13.5625
30
0
11
43.68095
21
13.5625
31
0
39
0
210
0
220
0
230
1
0
LINE
5
4E
100
AcDbEntity
8
1
62
256
6
ByLayer
370
-1
48
1
60
0
100
AcDbLine
10
24.53095
20
6.1625
30
0
11
16.627688
21
6.1625
31
0
39
0
210
0
220
0
230
1
0
LINE
5
50
100
AcDbEntity
8
1
62
256
6
ByLayer
370
-1
48
1
60
0
100
AcDbLine
10
26.98095
20
6.611224
30
0
11
26.98095
21
6.1625
31
0
39
0
210
0
220
0
230
1
0
LINE
5
51
100
AcDbEntity
8
1
62
256
6
ByLayer
370
-1
48
1
60
0
100
AcDbLine
10
26.853423
20
6.1625
30
0
11
24.68095
21
6.1625
31
0
39
0
210
0
220
0
230
1
0
LINE
5
52
100
AcDbEntity
8
1
62
256
6
ByLayer
370
-1
48
1
60
0
100
AcDbLine
10
26.853423
20
12.9625
30
0
11
26.98095
21
12.9625
31
0
39
0
210
0
220
0
230
1
0
LINE
5
53
100
AcDbEntity
8
1
62
256
6
ByLayer
370
-1
48
1
60
0
100
AcDbLine
10
26.853423
20
12.9625
30
0
11
26.853423
21
12.391832
31
0
39
0
210
0
220
0
230
1
0
LINE
5
54
100
AcDbEntity
8
1
62
256
6
ByLayer
370
-1
48
1
60
0
100
AcDbLine
10
24.68095
20
12.9625
30
0
11
24.68095
21
6.1625
31
0
39
0
210
0
220
0
230
1
0
LINE
5
55
100
AcDbEntity
8
1
62
256
6
ByLayer
370
-1
48
1
60
0
100
AcDbLine
10
24.53095
20
12.9625
30
0
11
0.525
21
12.9625
31
0
39
0
210
0
220
0
230
1
0
LINE
5
56
100
AcDbEntity
8
1
62
256
6
ByLayer
370
-1
48
1
60
0
100
AcDbLine
10
26.853423
20
12.9625
30
0
11
24.68095
21
12.9625
31
0
39
0
210
0
220
0
230
1
0
LINE
5
57
100
AcDbEntity
8
1
62
256
6
ByLayer
370
-1
48
1
60
0
100
AcDbLine
10
0.525
20
12.9625
30
0
11
0
21
12.4375
31
0
39
0
210
0
220
0
230
1
0
LINE
5
58
100
AcDbEntity
8
1
62
256
6
ByLayer
370
-1
48
1
60
0
100
AcDbLine
10
24.68095
20
12.9625
30
0
11
24.53095
21
12.9625
31
0
39
0
210
0
220
0
230
1
0
LINE
5
59
100
AcDbEntity
8
1
62
256
6
ByLayer
370
-1
48
1
60
0
100
AcDbLine
10
24.68095
20
6.1625
30
0
11
24.53095
21
6.1625
31
0
39
0
210
0
220
0
230
1
0
LINE
5
5A
100
AcDbEntity
8
1
62
256
6
ByLayer
370
-1
48
1
60
0
100
AcDbLine
10
26.98095
20
12.9625
30
0
11
26.98095
21
12.513776
31
0
39
0
210
0
220
0
230
1
0
LINE
5
5B
100
AcDbEntity
8
1
62
256
6
ByLayer
370
-1
48
1
60
0
100
AcDbLine
10
0
20
-12.4375
30
0
11
0
21
12.4375
31
0
39
0
210
0
220
0
230
1
0
LINE
5
5C
100
AcDbEntity
8
1
62
256
6
ByLayer
370
-1
48
1
60
0
100
AcDbLine
10
26.853423
20
6.1625
30
0
11
26.98095
21
6.1625
31
0
39
0
210
0
220
0
230
1
0
LINE
5
5D
100
AcDbEntity
8
1
62
256
6
ByLayer
370
-1
48
1
60
0
100
AcDbLine
10
27.573853
20
12.9625
30
0
11
26.98095
21
12.9625
31
0
39
0
210
0
220
0
230
1
0
LINE
5
5E
100
AcDbEntity
8
1
62
256
6
ByLayer
370
-1
48
1
60
0
100
AcDbLine
10
26.853423
20
6.733168
30
0
11
26.853423
21
6.1625
31
0
39
0
210
0
220
0
230
1
0
LINE
5
5F
100
AcDbEntity
8
1
62
256
6
ByLayer
370
-1
48
1
60
0
100
AcDbLine
10
7.794229
20
1.0625
30
0
11
0
21
-12.4375
31
0
39
0
210
0
220
0
230
1
0
LINE
5
60
100
AcDbEntity
8
1
62
256
6
ByLayer
370
-1
48
1
60
0
100
AcDbLine
10
24.53095
20
12.9625
30
0
11
24.53095
21
6.1625
31
0
39
0
210
0
220
0
230
1
0
LINE
5
61
100
AcDbEntity
8
1
62
256
6
ByLayer
370
-1
48
1
60
0
100
AcDbLine
10
27.573853
20
6.1625
30
0
11
26.98095
21
6.1625
31
0
39
0
210
0
220
0
230
1
0
LINE
5
62
100
AcDbEntity
8
SK1
62
256
6
ByLayer
370
-1
48
1
60
0
100
AcDbLine
10
0
20
-12.4375
30
0
11
0
21
12.4375
31
0
39
0
210
0
220
0
230
1
0
LINE
5
64
100
AcDbEntity
8
SK1
62
256
6
ByLayer
370
-1
48
1
60
0
100
AcDbLine
10
-137.66905
20
-12.4375
30
0
11
0
21
-12.4375
31
0
39
0
210
0
220
0
230
1
0
LINE
5
65
100
AcDbEntity
8
SK1
62
256
6
ByLayer
370
-1
48
1
60
0
100
AcDbLine
10
-137.66905
20
12.4375
30
0
11
-137.66905
21
-12.4375
31
0
39
0
210
0
220
0
230
1
0
LINE
5
66
100
AcDbEntity
8
SK1
62
256
6
ByLayer
370
-1
48
1
60
0
100
AcDbLine
10
0
20
12.4375
30
0
11
-137.66905
21
12.4375
31
0
39
0
210
0
220
0
230
1
0
MTEXT
5
9A
100
AcDbEntity
8
SK6
62
256
6
ByLayer
370
-1
48
1
60
0
100
AcDbMText
10
-79.16811
20
-24.400493
30
0
210
0
220
0
230
1
1
\W00.758;\fsimplex.shx,bigfont.shx;SRDCR 3225P 08-A 
40
3.5
41
0
44
1.084337
50
0
71
7
72
5
7
DEFAULT
0
DIMENSION
5
CD
100
AcDbEntity
8
SK2
62
256
6
ByLayer
370
-3
48
1
60
0
100
AcDbDimension
2
DimnDraft3D1
10
-147.41905
20
12.4375
30
0
11
-147.41905
21
-2.628947
31
0
70
32
71
5
72
1
41
1
210
0
220
0
230
1
3
Standard
100
AcDbAlignedDimension
13
-139.66905
23
-12.4375
33
0
14
-139.66905
24
12.4375
34
0
50
90
100
AcDbRotatedDimension
1001
ACAD
1000
DSTYLE
1002
{
1070
    74
1070
     0
1070
   279
1070
     0
1070
   172
1070
     1
1070
   173
1070
     1
1070
   340
1005
9B
1070
    77
1070
     1
1070
    73
1070
     0
1070
   171
1070
     3
1070
   274
1070
     4
1070
   177
1070
     2
1070
   176
1070
     2
1070
   178
1070
     7
1070
    78
1070
     8
1070
    41
1041
3.175
1070
   147
1041
2.25
1070
    42
1041
2.0
1070
    44
1041
2.0
1070
   140
1041
4.5
1070
   343
1005
CE
1070
   344
1005
CE
1002
}
0
DIMENSION
5
E2
100
AcDbEntity
8
2
62
256
6
ByLayer
370
-3
48
1
60
0
100
AcDbDimension
2
DimnDraft3D2
10
47.93095
20
13.5625
30
0
11
47.93095
21
-6.252632
31
0
70
32
71
5
72
1
41
1
210
0
220
0
230
1
3
Standard
100
AcDbAlignedDimension
13
2
23
-12.4375
33
0
14
35.68095
24
13.5625
34
0
50
90
100
AcDbRotatedDimension
1001
ACAD
1000
DSTYLE
1002
{
1070
    74
1070
     0
1070
   279
1070
     0
1070
   172
1070
     1
1070
   173
1070
     1
1070
   340
1005
9B
1070
    77
1070
     1
1070
    73
1070
     0
1070
   171
1070
     3
1070
   274
1070
     4
1070
   177
1070
     2
1070
   176
1070
     2
1070
   178
1070
     7
1070
    78
1070
     8
1070
    41
1041
3.175
1070
   147
1041
2.25
1070
    42
1041
2.0
1070
    44
1041
2.0
1070
   140
1041
4.5
1070
   343
1005
CE
1070
   344
1005
CE
1002
}
0
DIMENSION
5
F0
100
AcDbEntity
8
2
62
256
6
ByLayer
370
-3
48
1
60
0
100
AcDbDimension
2
DimnDraft3D3
10
13.68095
20
-24.6875
30
0
11
21.052003
21
-24.6875
31
0
70
32
71
5
72
1
41
1
210
0
220
0
230
1
3
Standard
100
AcDbAlignedDimension
13
33.68095
23
3.5625
33
0
14
13.68095
24
3.5625
34
0
50
0
100
AcDbRotatedDimension
1001
ACAD
1000
DSTYLE
1002
{
1070
   279
1070
     0
1070
   172
1070
     1
1070
   173
1070
     1
1070
   340
1005
9B
1070
    77
1070
     1
1070
    73
1070
     0
1070
   171
1070
     3
1070
   274
1070
     4
1070
   177
1070
     2
1070
   176
1070
     2
1070
   178
1070
     7
1070
    78
1070
     8
1070
    41
1041
3.175
1070
   147
1041
2.25
1070
    42
1041
2.0
1070
    44
1041
2.0
1070
   140
1041
4.5
1070
   343
1005
CE
1070
   344
1005
CE
1002
}
0
DIMENSION
5
FE
100
AcDbEntity
8
SK2
62
256
6
ByLayer
370
-3
48
1
60
0
100
AcDbDimension
2
DimnDraft3D4
10
-137.66905
20
33.3125
30
0
11
-55.712471
21
33.3125
31
0
70
32
71
5
72
1
41
1
210
0
220
0
230
1
3
Standard
100
AcDbAlignedDimension
13
33.68095
23
15.5625
33
0
14
-137.66905
24
14.4375
34
0
50
0
100
AcDbRotatedDimension
1001
ACAD
1000
DSTYLE
1002
{
1070
   279
1070
     0
1070
   172
1070
     1
1070
   173
1070
     1
1070
   340
1005
9B
1070
    77
1070
     1
1070
    73
1070
     0
1070
   171
1070
     3
1070
   274
1070
     4
1070
   177
1070
     2
1070
   176
1070
     2
1070
   178
1070
     7
1070
    78
1070
     8
1070
    41
1041
3.175
1070
   147
1041
2.25
1070
    42
1041
2.0
1070
    44
1041
2.0
1070
   140
1041
4.5
1070
   343
1005
CE
1070
   344
1005
CE
1002
}
0
ENDSEC
0
SECTION
2
OBJECTS
0
DICTIONARY
5
12e
330
0
100
AcDbDictionary
280
0
281
1
3
ACAD_GROUP
350
12f
3
ACAD_MLINESTYLE
350
130
0
DICTIONARY
5
12f
330
0
100
AcDbDictionary
280
0
281
1
0
DICTIONARY
5
130
330
0
100
AcDbDictionary
280
0
281
1
3
Standard
350
18
0
MLINESTYLE
5
18
330
130
100
AcDbMlineStyle
2
Standard
70
0
3

62
256
51
90
52
90
71
2
49
-0.5
62
256
6
ByLayer
49
0.5
62
256
6
ByLayer
0
RASTERVARIABLES
5
11d
330

100
AcDbRasterVariables
90
0
70
1
71
1
72
1
0
ENDSEC
0
EOF
