0
SECTION
2
HEADER
9
$ACADVER
1
AC1015
9
$DWGCODEPAGE
3
ANSI_1252
9
$HANDSEED
5
132
9
$ANGBASE
50
0
9
$ANGDIR
70
0
9
$ATTMODE
70
1
9
$AUNITS
70
0
9
$AUPREC
70
0
9
$CECOLOR
62
256
9
$CELTSCALE
40
1
9
$CELTYPE
6
ByLayer
9
$CELWEIGHT
370
-1
9
$CLAYER
8
0
9
$CMLJUST
70
0
9
$CMLSCALE
40
1
9
$CMLSTYLE
2
Standard
9
$DIMSTYLE
2
Standard
9
$TEXTSIZE
40
0.2
9
$TEXTSTYLE
7
Standard
9
$LUNITS
70
2
9
$LUPREC
70
4
9
$EXTNAMES
290
1
9
$INSUNITS
70
4
9
$LTSCALE
40
1
9
$LWDISPLAY
290
0
9
$PDMODE
70
0
9
$PDSIZE
40
0
9
$PLINEGEN
70
0
0
ENDSEC
0
SECTION
2
CLASSES
0
CLASS
1
RASTERVARIABLES
2
AcDbRasterVariables
3
ISM
90
0
280
0
281
0
0
ENDSEC
0
SECTION
2
TABLES
0
TABLE
2
VPORT
5
128
100
AcDbSymbolTable
0
VPORT
5
1
100
AcDbSymbolTableRecord
100
AcDbViewportTableRecord
2
*Active
70
0
10
0
20
0
11
1
21
1
12
-1
22
1
13
0
23
0
14
0.5
24
0.5
15
10
25
10
16
0
26
0
36
1
17
0
27
0
37
0
0
ENDTAB
0
TABLE
2
LTYPE
5
129
100
AcDbSymbolTable
0
LTYPE
5
14
100
AcDbSymbolTableRecord
100
AcDbLinetypeTableRecord
70
0
2
ByBlock
3

72
65
73
0
40
0
0
LTYPE
5
15
100
AcDbSymbolTableRecord
100
AcDbLinetypeTableRecord
70
0
2
ByLayer
3

72
65
73
0
40
0
0
LTYPE
5
16
100
AcDbSymbolTableRecord
100
AcDbLinetypeTableRecord
70
0
2
CONTINUOUS
3
Solid line
72
65
73
0
40
0
0
LTYPE
5
3B
100
AcDbSymbolTableRecord
100
AcDbLinetypeTableRecord
70
0
2
DASHED
3
__ __ __ __ __ __ __ __ __
72
65
73
2
40
25.72
49
12.86
74
0
49
-12.86
74
0
0
LTYPE
5
3C
100
AcDbSymbolTableRecord
100
AcDbLinetypeTableRecord
70
0
2
HIDDEN
3
_ _ _ _ _ _ _ _ _ _ _ _ _ _ _
72
65
73
2
40
0.5
49
0.25
74
0
49
-0.25
74
0
0
LTYPE
5
3D
100
AcDbSymbolTableRecord
100
AcDbLinetypeTableRecord
70
0
2
PHANTOM
3
____ _ _ ____ _ _ _____ _ _ ____
72
65
73
6
40
50.5
49
18
74
0
49
-6.5
74
0
49
6.5
74
0
49
-6.5
74
0
49
6.5
74
0
49
-6.5
74
0
0
LTYPE
5
3E
100
AcDbSymbolTableRecord
100
AcDbLinetypeTableRecord
70
0
2
CENTER
3
____ _ ____ _ ____ _ ____
72
65
73
4
40
47.5
49
22
74
0
49
-8.5
74
0
49
8.5
74
0
49
-8.5
74
0
0
LTYPE
5
3F
100
AcDbSymbolTableRecord
100
AcDbLinetypeTableRecord
70
0
2
DOT
3
.........................
72
65
73
2
40
10
49
0
74
0
49
-10
74
0
0
LTYPE
5
40
100
AcDbSymbolTableRecord
100
AcDbLinetypeTableRecord
70
0
2
DASHDOT
3
_._._._._._._._._._._._._._._._.
72
65
73
4
40
70
49
31
74
0
49
-13
74
0
49
13
74
0
49
-13
74
0
0
ENDTAB
0
TABLE
2
LAYER
5
12a
100
AcDbSymbolTable
0
LAYER
5
10
100
AcDbSymbolTableRecord
100
AcDbLayerTableRecord
2
0
70
0
62
7
6
CONTINUOUS
290
1
370
-3
390
0
0
LAYER
5
44
100
AcDbSymbolTableRecord
100
AcDbLayerTableRecord
2
80
70
0
62
-6
6
CONTINUOUS
290
1
370
-3
390
0
0
LAYER
5
47
100
AcDbSymbolTableRecord
100
AcDbLayerTableRecord
2
81
70
0
62
-3
6
CONTINUOUS
290
1
370
-3
390
0
0
LAYER
5
4B
100
AcDbSymbolTableRecord
100
AcDbLayerTableRecord
2
2
70
0
62
7
6
CONTINUOUS
290
1
370
-3
390
0
0
LAYER
5
4F
100
AcDbSymbolTableRecord
100
AcDbLayerTableRecord
2
1
70
0
62
4
6
CONTINUOUS
290
1
370
-3
390
0
0
LAYER
5
115
100
AcDbSymbolTableRecord
100
AcDbLayerTableRecord
2
SK2
70
0
62
7
6
CONTINUOUS
290
1
370
-3
390
0
0
LAYER
5
116
100
AcDbSymbolTableRecord
100
AcDbLayerTableRecord
2
SK1
70
0
62
4
6
CONTINUOUS
290
1
370
-3
390
0
0
LAYER
5
117
100
AcDbSymbolTableRecord
100
AcDbLayerTableRecord
2
SK6
70
0
62
5
6
CONTINUOUS
290
1
370
-3
390
0
0
ENDTAB
0
TABLE
2
STYLE
5
12b
100
AcDbSymbolTable
0
STYLE
5
11
100
AcDbSymbolTableRecord
100
AcDbTextStyleTableRecord
2
Standard
3
txt
70
0
71
0
40
0
41
1
42
0
50
0
0
STYLE
5
92
100
AcDbSymbolTableRecord
100
AcDbTextStyleTableRecord
2
DEFAULT
3
simplex.shx
70
0
71
0
40
0
41
1
42
0
50
0
0
STYLE
5
B5
100
AcDbSymbolTableRecord
100
AcDbTextStyleTableRecord
2
DWGDirectTextStyle
3
SIMPLEX
70
0
71
0
40
0
41
1
42
0
50
0
0
ENDTAB
0
TABLE
2
DIMSTYLE
5
12c
100
AcDbSymbolTable
100
AcDbDimStyleTable
0
DIMSTYLE
105
27
100
AcDbSymbolTableRecord
100
AcDbDimStyleTableRecord
2
Standard
70
0
3
<>
41
0.18
42
0.0625
44
0.18
140
0.18
147
0.09
73
0
74
0
77
1
271
2
275
0
278
52
280
0
340
11
0
ENDTAB
0
TABLE
2
VIEW
5
12d
100
AcDbSymbolTable
0
ENDTAB
0
TABLE
2
UCS
5
12e
100
AcDbSymbolTable
0
ENDTAB
0
TABLE
2
APPID
5
12f
100
AcDbSymbolTable
0
APPID
5
12
100
AcDbSymbolTableRecord
100
AcDbRegAppTableRecord
2
ACAD
70
0
0
ENDTAB
0
TABLE
2
BLOCK_RECORD
5
130
100
AcDbSymbolTable
0
BLOCK_RECORD
5
1F
100
AcDbSymbolTableRecord
100
AcDbBlockTableRecord
2
*Model_Space
340
0
70
0
0
BLOCK_RECORD
5
1B
100
AcDbSymbolTableRecord
100
AcDbBlockTableRecord
2
*Paper_Space
340
0
70
0
0
BLOCK_RECORD
5
23
100
AcDbSymbolTableRecord
100
AcDbBlockTableRecord
2
*Paper_Space0
340
0
70
0
0
BLOCK_RECORD
5
B7
100
AcDbSymbolTableRecord
100
AcDbBlockTableRecord
2
DimnDraft3D1
340
0
70
0
0
BLOCK_RECORD
5
C5
100
AcDbSymbolTableRecord
100
AcDbBlockTableRecord
2
_CLOSED
340
0
70
0
0
BLOCK_RECORD
5
CC
100
AcDbSymbolTableRecord
100
AcDbBlockTableRecord
2
DimnDraft3D2
340
0
70
0
0
BLOCK_RECORD
5
DA
100
AcDbSymbolTableRecord
100
AcDbBlockTableRecord
2
DimnDraft3D3
340
0
70
0
0
BLOCK_RECORD
5
E8
100
AcDbSymbolTableRecord
100
AcDbBlockTableRecord
2
DimnDraft3D4
340
0
70
0
0
ENDTAB
0
ENDSEC
0
SECTION
2
BLOCKS
0
BLOCK
5
20
100
AcDbEntity
8
0
100
AcDbBlockBegin
2
*Model_Space
70
0
10
0
20
0
30
0
3
*Model_Space
0
ENDBLK
5
21
100
AcDbEntity
8
0
100
AcDbBlockEnd
0
BLOCK
5
1C
100
AcDbEntity
8
0
100
AcDbBlockBegin
2
*Paper_Space
70
0
10
0
20
0
30
0
3
*Paper_Space
0
ENDBLK
5
1D
100
AcDbEntity
8
0
100
AcDbBlockEnd
0
BLOCK
5
24
100
AcDbEntity
8
0
100
AcDbBlockBegin
2
*Paper_Space0
70
0
10
0
20
0
30
0
3
*Paper_Space0
0
ENDBLK
5
25
100
AcDbEntity
8
0
100
AcDbBlockEnd
0
BLOCK
5
C2
100
AcDbEntity
8
0
100
AcDbBlockBegin
2
DimnDraft3D1
70
0
10
0
20
0
30
0
3
DimnDraft3D1
0
MTEXT
5
B8
100
AcDbEntity
8
SK2
62
256
6
ByLayer
370
-1
48
1
60
0
100
AcDbMText
10
-147.025462
20
-1.503947
30
0
210
0
220
0
230
1
1
\W01.000;\fsimplex.shx,bigfont.shx;25 
40
4.5
41
0
44
1.084337
50
90
71
7
72
5
7
DEFAULT
0
LINE
5
B9
100
AcDbEntity
8
SK2
62
256
6
ByLayer
370
-1
48
1
60
0
100
AcDbLine
10
-138.150462
20
-12.4375
30
0
11
-147.900462
21
-12.4375
31
0
39
0
210
0
220
0
230
1
0
LINE
5
BA
100
AcDbEntity
8
SK2
62
256
6
ByLayer
370
-1
48
1
60
0
100
AcDbLine
10
-138.150462
20
12.4375
30
0
11
-147.900462
21
12.4375
31
0
39
0
210
0
220
0
230
1
0
LINE
5
BB
100
AcDbEntity
8
SK2
62
256
6
ByLayer
370
-1
48
1
60
0
100
AcDbLine
10
-145.900462
20
-12.4375
30
0
11
-145.900462
21
12.4375
31
0
39
0
210
0
220
0
230
1
0
LINE
5
BC
100
AcDbEntity
8
SK2
62
256
6
ByLayer
370
-1
48
1
60
0
100
AcDbLine
10
-145.900462
20
-12.4375
30
0
11
-146.318459
21
-9.262502
31
0
39
0
210
0
220
0
230
1
0
LINE
5
BD
100
AcDbEntity
8
SK2
62
256
6
ByLayer
370
-1
48
1
60
0
100
AcDbLine
10
-145.900462
20
-12.4375
30
0
11
-145.482465
21
-9.262498
31
0
39
0
210
0
220
0
230
1
0
LINE
5
BE
100
AcDbEntity
8
SK2
62
256
6
ByLayer
370
-1
48
1
60
0
100
AcDbLine
10
-146.318459
20
-9.262502
30
0
11
-145.482465
21
-9.262498
31
0
39
0
210
0
220
0
230
1
0
LINE
5
BF
100
AcDbEntity
8
SK2
62
256
6
ByLayer
370
-1
48
1
60
0
100
AcDbLine
10
-145.900462
20
12.4375
30
0
11
-145.482465
21
9.262502
31
0
39
0
210
0
220
0
230
1
0
LINE
5
C0
100
AcDbEntity
8
SK2
62
256
6
ByLayer
370
-1
48
1
60
0
100
AcDbLine
10
-145.900462
20
12.4375
30
0
11
-146.318459
21
9.262498
31
0
39
0
210
0
220
0
230
1
0
LINE
5
C1
100
AcDbEntity
8
SK2
62
256
6
ByLayer
370
-1
48
1
60
0
100
AcDbLine
10
-145.482465
20
9.262502
30
0
11
-146.318459
21
9.262498
31
0
39
0
210
0
220
0
230
1
0
ENDBLK
5
C3
100
AcDbEntity
8
0
100
AcDbBlockEnd
0
BLOCK
5
C6
100
AcDbEntity
8
0
100
AcDbBlockBegin
2
_CLOSED
70
0
10
0
20
0
30
0
3
_CLOSED
0
LINE
5
C8
100
AcDbEntity
8
0
62
256
6
ByLayer
370
-2
48
1
60
0
100
AcDbLine
10
-1
20
0.166667
30
0
11
0
21
0
31
0
39
0
210
0
220
0
230
1
0
LINE
5
C9
100
AcDbEntity
8
0
62
256
6
ByLayer
370
-2
48
1
60
0
100
AcDbLine
10
0
20
0
30
0
11
-1
21
-0.166667
31
0
39
0
210
0
220
0
230
1
0
LINE
5
CA
100
AcDbEntity
8
0
62
256
6
ByLayer
370
-2
48
1
60
0
100
AcDbLine
10
-1
20
0.166667
30
0
11
-1
21
-0.166667
31
0
39
0
210
0
220
0
230
1
0
LINE
5
CB
100
AcDbEntity
8
0
62
256
6
ByLayer
370
-2
48
1
60
0
100
AcDbLine
10
0
20
0
30
0
11
-1
21
0
31
0
39
0
210
0
220
0
230
1
0
ENDBLK
5
C7
100
AcDbEntity
8
0
100
AcDbBlockEnd
0
BLOCK
5
D7
100
AcDbEntity
8
0
100
AcDbBlockBegin
2
DimnDraft3D2
70
0
10
0
20
0
30
0
3
DimnDraft3D2
0
MTEXT
5
CD
100
AcDbEntity
8
2
62
256
6
ByLayer
370
-1
48
1
60
0
100
AcDbMText
10
48.324538
20
-5.127632
30
0
210
0
220
0
230
1
1
\W01.000;\fsimplex.shx,bigfont.shx;25.65 
40
4.5
41
0
44
1.084337
50
90
71
7
72
5
7
DEFAULT
0
LINE
5
CE
100
AcDbEntity
8
2
62
256
6
ByLayer
370
-1
48
1
60
0
100
AcDbLine
10
2
20
-12.4375
30
0
11
51.449538
21
-12.4375
31
0
39
0
210
0
220
0
230
1
0
LINE
5
CF
100
AcDbEntity
8
2
62
256
6
ByLayer
370
-1
48
1
60
0
100
AcDbLine
10
37.199538
20
13.5625
30
0
11
51.449538
21
13.5625
31
0
39
0
210
0
220
0
230
1
0
LINE
5
D0
100
AcDbEntity
8
2
62
256
6
ByLayer
370
-1
48
1
60
0
100
AcDbLine
10
49.449538
20
-12.4375
30
0
11
49.449538
21
13.5625
31
0
39
0
210
0
220
0
230
1
0
LINE
5
D1
100
AcDbEntity
8
2
62
256
6
ByLayer
370
-1
48
1
60
0
100
AcDbLine
10
49.449538
20
-12.4375
30
0
11
49.031541
21
-9.262502
31
0
39
0
210
0
220
0
230
1
0
LINE
5
D2
100
AcDbEntity
8
2
62
256
6
ByLayer
370
-1
48
1
60
0
100
AcDbLine
10
49.449538
20
-12.4375
30
0
11
49.867535
21
-9.262498
31
0
39
0
210
0
220
0
230
1
0
LINE
5
D3
100
AcDbEntity
8
2
62
256
6
ByLayer
370
-1
48
1
60
0
100
AcDbLine
10
49.031541
20
-9.262502
30
0
11
49.867535
21
-9.262498
31
0
39
0
210
0
220
0
230
1
0
LINE
5
D4
100
AcDbEntity
8
2
62
256
6
ByLayer
370
-1
48
1
60
0
100
AcDbLine
10
49.449538
20
13.5625
30
0
11
49.867535
21
10.387502
31
0
39
0
210
0
220
0
230
1
0
LINE
5
D5
100
AcDbEntity
8
2
62
256
6
ByLayer
370
-1
48
1
60
0
100
AcDbLine
10
49.449538
20
13.5625
30
0
11
49.031541
21
10.387498
31
0
39
0
210
0
220
0
230
1
0
LINE
5
D6
100
AcDbEntity
8
2
62
256
6
ByLayer
370
-1
48
1
60
0
100
AcDbLine
10
49.867535
20
10.387502
30
0
11
49.031541
21
10.387498
31
0
39
0
210
0
220
0
230
1
0
ENDBLK
5
D8
100
AcDbEntity
8
0
100
AcDbBlockEnd
0
BLOCK
5
E5
100
AcDbEntity
8
0
100
AcDbBlockBegin
2
DimnDraft3D3
70
0
10
0
20
0
30
0
3
DimnDraft3D3
0
MTEXT
5
DB
100
AcDbEntity
8
2
62
256
6
ByLayer
370
-1
48
1
60
0
100
AcDbMText
10
23.695591
20
-23.5625
30
0
210
0
220
0
230
1
1
\W01.000;\fsimplex.shx,bigfont.shx;20 
40
4.5
41
0
44
1.084337
50
0
71
7
72
5
7
DEFAULT
0
LINE
5
DC
100
AcDbEntity
8
2
62
256
6
ByLayer
370
-1
48
1
60
0
100
AcDbLine
10
35.199538
20
5.5625
30
0
11
35.199538
21
-26.6875
31
0
39
0
210
0
220
0
230
1
0
LINE
5
DD
100
AcDbEntity
8
2
62
256
6
ByLayer
370
-1
48
1
60
0
100
AcDbLine
10
15.199538
20
5.5625
30
0
11
15.199538
21
-26.6875
31
0
39
0
210
0
220
0
230
1
0
LINE
5
DE
100
AcDbEntity
8
2
62
256
6
ByLayer
370
-1
48
1
60
0
100
AcDbLine
10
35.199538
20
-24.6875
30
0
11
15.199538
21
-24.6875
31
0
39
0
210
0
220
0
230
1
0
LINE
5
DF
100
AcDbEntity
8
2
62
256
6
ByLayer
370
-1
48
1
60
0
100
AcDbLine
10
35.199538
20
-24.6875
30
0
11
32.02454
21
-25.105497
31
0
39
0
210
0
220
0
230
1
0
LINE
5
E0
100
AcDbEntity
8
2
62
256
6
ByLayer
370
-1
48
1
60
0
100
AcDbLine
10
35.199538
20
-24.6875
30
0
11
32.024537
21
-24.269503
31
0
39
0
210
0
220
0
230
1
0
LINE
5
E1
100
AcDbEntity
8
2
62
256
6
ByLayer
370
-1
48
1
60
0
100
AcDbLine
10
32.02454
20
-25.105497
30
0
11
32.024537
21
-24.269503
31
0
39
0
210
0
220
0
230
1
0
LINE
5
E2
100
AcDbEntity
8
2
62
256
6
ByLayer
370
-1
48
1
60
0
100
AcDbLine
10
15.199538
20
-24.6875
30
0
11
18.374537
21
-24.269503
31
0
39
0
210
0
220
0
230
1
0
LINE
5
E3
100
AcDbEntity
8
2
62
256
6
ByLayer
370
-1
48
1
60
0
100
AcDbLine
10
15.199538
20
-24.6875
30
0
11
18.37454
21
-25.105497
31
0
39
0
210
0
220
0
230
1
0
LINE
5
E4
100
AcDbEntity
8
2
62
256
6
ByLayer
370
-1
48
1
60
0
100
AcDbLine
10
18.374537
20
-24.269503
30
0
11
18.37454
21
-25.105497
31
0
39
0
210
0
220
0
230
1
0
ENDBLK
5
E6
100
AcDbEntity
8
0
100
AcDbBlockEnd
0
BLOCK
5
F3
100
AcDbEntity
8
0
100
AcDbBlockBegin
2
DimnDraft3D4
70
0
10
0
20
0
30
0
3
DimnDraft3D4
0
MTEXT
5
E9
100
AcDbEntity
8
SK2
62
256
6
ByLayer
370
-1
48
1
60
0
100
AcDbMText
10
-53.068883
20
34.4375
30
0
210
0
220
0
230
1
1
\W01.000;\fsimplex.shx,bigfont.shx;170 
40
4.5
41
0
44
1.084337
50
0
71
7
72
5
7
DEFAULT
0
LINE
5
EA
100
AcDbEntity
8
SK2
62
256
6
ByLayer
370
-1
48
1
60
0
100
AcDbLine
10
35.199538
20
15.5625
30
0
11
35.199538
21
35.3125
31
0
39
0
210
0
220
0
230
1
0
LINE
5
EB
100
AcDbEntity
8
SK2
62
256
6
ByLayer
370
-1
48
1
60
0
100
AcDbLine
10
-136.150462
20
14.4375
30
0
11
-136.150462
21
35.3125
31
0
39
0
210
0
220
0
230
1
0
LINE
5
EC
100
AcDbEntity
8
SK2
62
256
6
ByLayer
370
-1
48
1
60
0
100
AcDbLine
10
35.199538
20
33.3125
30
0
11
-136.150462
21
33.3125
31
0
39
0
210
0
220
0
230
1
0
LINE
5
ED
100
AcDbEntity
8
SK2
62
256
6
ByLayer
370
-1
48
1
60
0
100
AcDbLine
10
35.199538
20
33.3125
30
0
11
32.02454
21
32.894503
31
0
39
0
210
0
220
0
230
1
0
LINE
5
EE
100
AcDbEntity
8
SK2
62
256
6
ByLayer
370
-1
48
1
60
0
100
AcDbLine
10
35.199538
20
33.3125
30
0
11
32.024537
21
33.730497
31
0
39
0
210
0
220
0
230
1
0
LINE
5
EF
100
AcDbEntity
8
SK2
62
256
6
ByLayer
370
-1
48
1
60
0
100
AcDbLine
10
32.02454
20
32.894503
30
0
11
32.024537
21
33.730497
31
0
39
0
210
0
220
0
230
1
0
LINE
5
F0
100
AcDbEntity
8
SK2
62
256
6
ByLayer
370
-1
48
1
60
0
100
AcDbLine
10
-136.150462
20
33.3125
30
0
11
-132.975463
21
33.730497
31
0
39
0
210
0
220
0
230
1
0
LINE
5
F1
100
AcDbEntity
8
SK2
62
256
6
ByLayer
370
-1
48
1
60
0
100
AcDbLine
10
-136.150462
20
33.3125
30
0
11
-132.97546
21
32.894503
31
0
39
0
210
0
220
0
230
1
0
LINE
5
F2
100
AcDbEntity
8
SK2
62
256
6
ByLayer
370
-1
48
1
60
0
100
AcDbLine
10
-132.975463
20
33.730497
30
0
11
-132.97546
21
32.894503
31
0
39
0
210
0
220
0
230
1
0
ENDBLK
5
F4
100
AcDbEntity
8
0
100
AcDbBlockEnd
0
ENDSEC
0
SECTION
2
ENTITIES
0
ARC
5
67
100
AcDbEntity
8
1
62
256
6
ByLayer
370
-1
48
1
60
0
100
AcDbCircle
39
0
10
-17.695786
20
-2.1875
30
0
40
10.2
210
0
220
0
230
-1
100
AcDbArc
50
30
51
90
0
ARC
5
68
100
AcDbEntity
8
1
62
256
6
ByLayer
370
-1
48
1
60
0
100
AcDbCircle
39
0
10
29.999538
20
10.5625
30
0
40
1
210
0
220
0
230
1
100
AcDbArc
50
135.904948
51
224.095013
0
ARC
5
69
100
AcDbEntity
8
1
62
256
6
ByLayer
370
-1
48
1
60
0
100
AcDbCircle
39
0
10
32.199538
20
10.5625
30
0
40
0.747999999999999
210
0
220
0
230
1
100
AcDbArc
50
209.975421
51
267.838153
0
ARC
5
6C
100
AcDbEntity
8
1
62
256
6
ByLayer
370
-1
48
1
60
0
100
AcDbCircle
39
0
10
32.199538
20
10.5625
30
0
40
0.747999999999999
210
0
220
0
230
1
100
AcDbArc
50
272.161847
51
330.024579
0
ARC
5
6D
100
AcDbEntity
8
1
62
256
6
ByLayer
370
-1
48
1
60
0
100
AcDbCircle
39
0
10
-32.199538
20
10.5625
30
0
40
0.747999999999999
210
0
220
0
230
-1
100
AcDbArc
50
267.838153
51
272.161847
0
ARC
5
6F
100
AcDbEntity
8
1
62
256
6
ByLayer
370
-1
48
1
60
0
100
AcDbCircle
39
0
10
32.199538
20
10.5625
30
0
40
0.747999999999999
210
0
220
0
230
1
100
AcDbArc
50
29.975421
51
87.838153
0
ARC
5
71
100
AcDbEntity
8
1
62
256
6
ByLayer
370
-1
48
1
60
0
100
AcDbCircle
39
0
10
-32.199538
20
10.5625
30
0
40
1.03500000000001
210
0
220
0
230
-1
100
AcDbArc
50
0
51
59.950841
0
ARC
5
72
100
AcDbEntity
8
1
62
256
6
ByLayer
370
-1
48
1
60
0
100
AcDbCircle
39
0
10
32.199538
20
10.5625
30
0
40
0.747999999999999
210
0
220
0
230
1
100
AcDbArc
50
330.024579
51
29.975421
0
ARC
5
73
100
AcDbEntity
8
1
62
256
6
ByLayer
370
-1
48
1
60
0
100
AcDbCircle
39
0
10
-32.199538
20
10.5625
30
0
40
1.03500000000001
210
0
220
0
230
-1
100
AcDbArc
50
120.049159
51
180
0
ARC
5
74
100
AcDbEntity
8
1
62
256
6
ByLayer
370
-1
48
1
60
0
100
AcDbCircle
39
0
10
-32.199538
20
10.5625
30
0
40
0.747999999999999
210
0
220
0
230
-1
100
AcDbArc
50
29.975421
51
87.838153
0
ARC
5
75
100
AcDbEntity
8
1
62
256
6
ByLayer
370
-1
48
1
60
0
100
AcDbCircle
39
0
10
-32.199538
20
10.5625
30
0
40
1.03500000000001
210
0
220
0
230
-1
100
AcDbArc
50
300.049159
51
0
0
ARC
5
76
100
AcDbEntity
8
1
62
256
6
ByLayer
370
-1
48
1
60
0
100
AcDbCircle
39
0
10
-32.199538
20
10.5625
30
0
40
1.03500000000001
210
0
220
0
230
-1
100
AcDbArc
50
239.950841
51
300.049159
0
ARC
5
78
100
AcDbEntity
8
1
62
256
6
ByLayer
370
-1
48
1
60
0
100
AcDbCircle
39
0
10
32.199538
20
10.5625
30
0
40
0.747999999999999
210
0
220
0
230
1
100
AcDbArc
50
150.024579
51
209.975421
0
ARC
5
79
100
AcDbEntity
8
1
62
256
6
ByLayer
370
-1
48
1
60
0
100
AcDbCircle
39
0
10
-32.199538
20
10.5625
30
0
40
1.03500000000001
210
0
220
0
230
-1
100
AcDbArc
50
59.950841
51
120.049159
0
ARC
5
7B
100
AcDbEntity
8
1
62
256
6
ByLayer
370
-1
48
1
60
0
100
AcDbCircle
39
0
10
-32.199538
20
10.5625
30
0
40
0.747999999999999
210
0
220
0
230
-1
100
AcDbArc
50
87.838153
51
92.161847
0
ARC
5
7C
100
AcDbEntity
8
1
62
256
6
ByLayer
370
-1
48
1
60
0
100
AcDbCircle
39
0
10
-32.199538
20
10.5625
30
0
40
1.03500000000001
210
0
220
0
230
-1
100
AcDbArc
50
180
51
239.950841
0
CIRCLE
5
6A
100
AcDbEntity
8
1
62
256
6
ByLayer
370
-1
48
1
60
0
100
AcDbCircle
10
-32.199538
20
10.5625
30
0
40
1.30000000000002
39
0
210
0
220
0
230
-1
0
CIRCLE
5
6B
100
AcDbEntity
8
1
62
256
6
ByLayer
370
-1
48
1
60
0
100
AcDbCircle
10
-32.199538
20
10.5625
30
0
40
1.87500000000002
39
0
210
0
220
0
230
-1
0
CIRCLE
5
6E
100
AcDbEntity
8
1
62
256
6
ByLayer
370
-1
48
1
60
0
100
AcDbCircle
10
-32.199538
20
10.5625
30
0
40
1.92255023212162
39
0
210
0
220
0
230
-1
0
CIRCLE
5
70
100
AcDbEntity
8
1
62
256
6
ByLayer
370
-1
48
1
60
0
100
AcDbCircle
10
-32.199538
20
10.5625
30
0
40
1.82475962939468
39
0
210
0
220
0
230
-1
0
CIRCLE
5
77
100
AcDbEntity
8
1
62
256
6
ByLayer
370
-1
48
1
60
0
100
AcDbCircle
10
-32.199538
20
10.5625
30
0
40
1.725
39
0
210
0
220
0
230
-1
0
CIRCLE
5
7A
100
AcDbEntity
8
1
62
256
6
ByLayer
370
-1
48
1
60
0
100
AcDbCircle
10
-32.199538
20
10.5625
30
0
40
3
39
0
210
0
220
0
230
-1
0
POINT
5
41
100
AcDbEntity
8
SK2
62
256
6
ByLayer
370
-1
48
1
60
0
100
AcDbPoint
10
35.199538
20
11.805141
30
0
39
0
210
0
220
0
230
1
50
360
0
POINT
5
43
100
AcDbEntity
8
80
62
256
6
ByLayer
370
-1
48
1
60
0
100
AcDbPoint
10
0
20
0
30
0
39
0
210
0
220
0
230
1
50
360
0
POINT
5
45
100
AcDbEntity
8
SK2
62
256
6
ByLayer
370
-1
48
1
60
0
100
AcDbPoint
10
35.199538
20
11.805141
30
0
39
0
210
0
220
0
230
1
50
360
0
POINT
5
46
100
AcDbEntity
8
81
62
256
6
ByLayer
370
-1
48
1
60
0
100
AcDbPoint
10
35.199538
20
13.5625
30
0
39
0
210
0
220
0
230
1
50
360
0
POINT
5
48
100
AcDbEntity
8
SK2
62
256
6
ByLayer
370
-1
48
1
60
0
100
AcDbPoint
10
35.199538
20
11.805141
30
0
39
0
210
0
220
0
230
1
50
360
0
POINT
5
49
100
AcDbEntity
8
SK2
62
256
6
ByLayer
370
-1
48
1
60
0
100
AcDbPoint
10
35.199538
20
11.805141
30
0
39
0
210
0
220
0
230
1
50
360
0
POINT
5
4A
100
AcDbEntity
8
2
62
256
6
ByLayer
370
-1
48
1
60
0
100
AcDbPoint
10
35.199538
20
11.805141
30
0
39
0
210
0
220
0
230
1
50
360
0
SPLINE
5
7D
100
AcDbEntity
8
1
62
256
6
ByLayer
370
-1
48
1
60
0
100
AcDbSpline
70
4
71
3
72
16
73
12
40
0
40
0
40
0
40
0
40
0.0668638488452744
40
0.0668638488452744
40
0.290854271538348
40
0.290854271538348
40
0.517824973971187
40
0.517824973971187
40
0.759328674280884
40
0.759328674280884
40
1
40
1
40
1
40
1
41
1
10
32.7178069450893
20
11.4583919585923
30
0
41
1
10
32.7129239962741
20
11.461216719136
30
0
41
1
10
32.7079052367793
20
11.4638210601559
30
0
41
1
10
32.6857595455479
20
11.4740572127786
30
0
41
1
10
32.6673312579891
20
11.4793323606933
30
0
41
1
10
32.6304483724236
20
11.4841271249414
30
0
41
1
10
32.6115290307072
20
11.4836451192595
30
0
41
1
10
32.5745862307417
20
11.4772535608868
30
0
41
1
10
32.5562314186578
20
11.4709382447153
30
0
41
1
10
32.5232512533434
20
11.4537642460259
30
0
41
1
10
32.5082577484014
20
11.4427541615962
30
0
41
1
10
32.4954465975114
20
11.430154231548
30
0
0
SPLINE
5
7E
100
AcDbEntity
8
1
62
256
6
ByLayer
370
-1
48
1
60
0
100
AcDbSpline
70
4
71
3
72
14
73
10
40
0
40
0
40
0
40
0
40
0.283738489034098
40
0.283738489034098
40
0.570489531030609
40
0.570489531030609
40
0.830294403552148
40
0.830294403552148
40
1
40
1
40
1
40
1
41
1
10
31.9036295971872
20
11.430154231548
30
0
41
1
10
31.8885452324103
20
11.444989896403
30
0
41
1
10
31.8703748882884
20
11.4576414398757
30
0
41
1
10
31.8301185746705
20
11.475901319868
30
0
41
1
10
31.8073541930267
20
11.4816798037083
30
0
41
1
10
31.7631987629817
20
11.4841404217929
30
0
41
1
10
31.7412121954342
20
11.4816259765623
30
0
41
1
10
31.7069134810265
20
11.4712831102673
30
0
41
1
10
31.6936213824066
20
11.4655376032994
30
0
41
1
10
31.6812692496093
20
11.4583919585923
30
0
0
SPLINE
5
7F
100
AcDbEntity
8
1
62
256
6
ByLayer
370
-1
48
1
60
0
100
AcDbSpline
70
4
71
3
72
12
73
8
40
0
40
0
40
0
40
0
40
0.377026254658414
40
0.377026254658414
40
0.761056299192094
40
0.761056299192094
40
1
40
1
40
1
40
1
41
1
10
32.1713217422863
20
9.81503238377823
30
0
41
1
10
32.1318941376176
20
9.81239020722731
30
0
41
1
10
32.0926808997792
20
9.80398971757759
30
0
41
1
10
32.0203069304584
20
9.77799793923779
30
0
41
1
10
31.9862620597814
20
9.75997943775133
30
0
41
1
10
31.9372559384966
20
9.72537665709532
30
0
41
1
10
31.9197000370201
20
9.71065125069109
30
0
41
1
10
31.9036295971872
20
9.69484576846099
30
0
0
SPLINE
5
80
100
AcDbEntity
8
1
62
256
6
ByLayer
370
-1
48
1
60
0
100
AcDbSpline
70
4
71
3
72
12
73
8
40
0
40
0
40
0
40
0
40
0.464379035262453
40
0.464379035262453
40
0.846391164399599
40
0.846391164399599
40
1
40
1
40
1
40
1
41
1
10
32.4954465975114
20
9.69484576846099
30
0
41
1
10
32.4644988794968
20
9.72528324324261
30
0
41
1
10
32.4277290676339
20
9.75190666234076
30
0
41
1
10
32.3528179759506
20
9.7889622272902
30
0
41
1
10
32.3151870747877
20
9.80175802888797
30
0
41
1
10
32.2602656174963
20
9.81189649860696
30
0
41
1
10
32.2440453784398
20
9.81394067396974
30
0
41
1
10
32.2277544524123
20
9.81503238377823
30
0
0
SPLINE
5
81
100
AcDbEntity
8
1
62
256
6
ByLayer
370
-1
48
1
60
0
100
AcDbSpline
70
4
71
3
72
16
73
12
40
0
40
0
40
0
40
0
40
0.0650212293341456
40
0.0650212293341456
40
0.289691523269186
40
0.289691523269186
40
0.517236422325921
40
0.517236422325921
40
0.759263521180646
40
0.759263521180646
40
1
40
1
40
1
40
1
41
1
10
31.6812692496093
20
11.4583919585923
30
0
41
1
10
31.6765336378661
20
11.45565243178
30
0
41
1
10
31.6719142200611
20
11.4526989583797
30
0
41
1
10
31.6520978142025
20
11.438754773532
30
0
41
1
10
31.6382973723878
20
11.4254430422275
30
0
41
1
10
31.6156728958759
20
11.3959176112337
30
0
41
1
10
31.6066148413637
20
11.3793020281727
30
0
41
1
10
31.5936469818655
20
11.3441336386306
30
0
41
1
10
31.5899201662741
20
11.3250911648753
30
0
41
1
10
31.588264395285
20
11.2879921051226
30
0
41
1
10
31.5902715165038
20
11.2695410850893
30
0
41
1
10
31.5947373256492
20
11.2521769271111
30
0
0
SPLINE
5
82
100
AcDbEntity
8
1
62
256
6
ByLayer
370
-1
48
1
60
0
100
AcDbSpline
70
4
71
3
72
16
73
12
40
0
40
0
40
0
40
0
40
0.0670553612811925
40
0.0670553612811925
40
0.291697905104334
40
0.291697905104334
40
0.519329228663822
40
0.519329228663822
40
0.761535715028809
40
0.761535715028809
40
1
40
1
40
1
40
1
41
1
10
33.2345380973493
20
10.5625000000045
30
0
41
1
10
33.2345380973493
20
10.568140877679
30
0
41
1
10
33.2342793209914
20
10.5737889380491
30
0
41
1
10
33.2320505250463
20
10.5980835965071
30
0
41
1
10
33.227388915678
20
10.6166765712945
30
0
41
1
10
33.2130705431436
20
10.6510032612909
30
0
41
1
10
33.2031796641642
20
10.6671384482429
30
0
41
1
10
33.1791484417115
20
10.6959155544254
30
0
41
1
10
33.1644909504477
20
10.7086411139665
30
0
41
1
10
33.1332955713831
20
10.7284714818276
30
0
41
1
10
33.1164758632644
20
10.7358777914852
30
0
41
1
10
33.0993694133683
20
10.7406623976753
30
0
0
SPLINE
5
83
100
AcDbEntity
8
1
62
256
6
ByLayer
370
-1
48
1
60
0
100
AcDbSpline
70
4
71
3
72
14
73
10
40
0
40
0
40
0
40
0
40
0.283738489034149
40
0.283738489034149
40
0.570489531030777
40
0.570489531030777
40
0.830294403552238
40
0.830294403552238
40
1
40
1
40
1
40
1
41
1
10
32.4954465975114
20
9.69484576846099
30
0
41
1
10
32.5105309622883
20
9.68001010360595
30
0
41
1
10
32.5287013064101
20
9.66735856013329
30
0
41
1
10
32.5689576200281
20
9.64909868014095
30
0
41
1
10
32.5917220016719
20
9.64332019630064
30
0
41
1
10
32.6358774317169
20
9.64085957821612
30
0
41
1
10
32.6578639992644
20
9.64337402344665
30
0
41
1
10
32.6921627136721
20
9.65371688974167
30
0
41
1
10
32.705454812292
20
9.65946239670961
30
0
41
1
10
32.7178069450893
20
9.66660804141671
30
0
0
SPLINE
5
84
100
AcDbEntity
8
1
62
256
6
ByLayer
370
-1
48
1
60
0
100
AcDbSpline
70
4
71
3
72
14
73
10
40
0
40
0
40
0
40
0
40
0.284519249123308
40
0.284519249123308
40
0.571733062184538
40
0.571733062184538
40
0.831996244286535
40
0.831996244286535
40
1
40
1
40
1
40
1
41
1
10
33.0993694133682
20
10.3843376023337
30
0
41
1
10
33.1197491977971
20
10.3900377472102
30
0
41
1
10
33.1397726135701
20
10.3995041062003
30
0
41
1
10
33.1756353918379
20
10.4253283232151
30
0
41
1
10
33.1919644677494
20
10.4421815299251
30
0
41
1
10
33.2160640646367
20
10.4792181760951
30
0
41
1
10
33.224825603124
20
10.4995188213083
30
0
41
1
10
33.2328989827041
20
10.534216353213
30
0
41
1
10
33.2345380973493
20
10.5484123608924
30
0
41
1
10
33.2345380973493
20
10.5625000000045
30
0
0
SPLINE
5
85
100
AcDbEntity
8
1
62
256
6
ByLayer
370
-1
48
1
60
0
100
AcDbSpline
70
4
71
3
72
18
73
14
40
0
40
0
40
0
40
0
40
0.213393079737837
40
0.213393079737837
40
0.38900317749608
40
0.38900317749608
40
0.566251555260835
40
0.566251555260835
40
0.721174645896086
40
0.721174645896086
40
0.927415342090006
40
0.927415342090006
40
1
40
1
40
1
40
1
41
1
10
31.2997067813303
20
10.7406623976753
30
0
41
1
10
31.3414631854796
20
10.7523414983059
30
0
41
1
10
31.3828168380835
20
10.7709554942375
30
0
41
1
10
31.4521981271863
20
10.817421685224
30
0
41
1
10
31.4820167661632
20
10.843661518786
30
0
41
1
10
31.5335184560026
20
10.9043051157307
30
0
41
1
10
31.5557941444343
20
10.9397456508476
30
0
41
1
10
31.5863350215841
20
11.0088762789335
30
0
41
1
10
31.5964259001382
20
11.0430260230992
30
0
41
1
10
31.6096535639943
20
11.1211187441526
30
0
41
1
10
31.6097591346107
20
11.1658913349753
30
0
41
1
10
31.6014292455456
20
11.2229799895675
30
0
41
1
10
31.5984514357381
20
11.237735558877
30
0
41
1
10
31.5947373256492
20
11.2521769271111
30
0
0
SPLINE
5
86
100
AcDbEntity
8
1
62
256
6
ByLayer
370
-1
48
1
60
0
100
AcDbSpline
70
4
71
3
72
12
73
8
40
0
40
0
40
0
40
0
40
0.464379035262033
40
0.464379035262033
40
0.846391164398803
40
0.846391164398803
40
1
40
1
40
1
40
1
41
1
10
31.9036295971872
20
11.430154231548
30
0
41
1
10
31.9345773152018
20
11.3997167567663
30
0
41
1
10
31.9713471270647
20
11.3730933376682
30
0
41
1
10
32.046258218748
20
11.3360377727188
30
0
41
1
10
32.0838891199109
20
11.323241971121
30
0
41
1
10
32.1388105772023
20
11.313103501402
30
0
41
1
10
32.1550308162588
20
11.3110593260392
30
0
41
1
10
32.1713217422863
20
11.3099676162308
30
0
0
SPLINE
5
87
100
AcDbEntity
8
1
62
256
6
ByLayer
370
-1
48
1
60
0
100
AcDbSpline
70
4
71
3
72
14
73
10
40
0
40
0
40
0
40
0
40
0.284523597312333
40
0.284523597312333
40
0.571736866218044
40
0.571736866218044
40
0.83199961628627
40
0.83199961628627
40
1
40
1
40
1
40
1
41
1
10
31.5947373256492
20
9.87282307289783
30
0
41
1
10
31.5894662371861
20
9.85232779201806
30
0
41
1
10
31.5876337243889
20
9.83025502304073
30
0
41
1
10
31.5920293108482
20
9.78628075337002
30
0
41
1
10
31.5984408242685
20
9.76370731008905
30
0
41
1
10
31.6184320724498
20
9.72430110876795
30
0
41
1
10
31.6316170225546
20
9.70655184030895
30
0
41
1
10
31.6576082699913
20
9.68218934350472
30
0
41
1
10
31.6690752880002
20
9.67366218491239
30
0
41
1
10
31.6812692496092
20
9.66660804141671
30
0
0
SPLINE
5
88
100
AcDbEntity
8
1
62
256
6
ByLayer
370
-1
48
1
60
0
100
AcDbSpline
70
4
71
3
72
14
73
10
40
0
40
0
40
0
40
0
40
0.284519249123141
40
0.284519249123141
40
0.571733062184421
40
0.571733062184421
40
0.831996244286462
40
0.831996244286462
40
1
40
1
40
1
40
1
41
1
10
31.2997067813303
20
10.7406623976753
30
0
41
1
10
31.2793269969015
20
10.7349622527988
30
0
41
1
10
31.2593035811284
20
10.7254958938087
30
0
41
1
10
31.2234408028607
20
10.6996716767939
30
0
41
1
10
31.2071117269491
20
10.6828184700839
30
0
41
1
10
31.1830121300618
20
10.6457818239139
30
0
41
1
10
31.1742505915745
20
10.6254811787007
30
0
41
1
10
31.1661772119944
20
10.590783646796
30
0
41
1
10
31.1645380973493
20
10.5765876391166
30
0
41
1
10
31.1645380973493
20
10.5625000000045
30
0
0
SPLINE
5
89
100
AcDbEntity
8
1
62
256
6
ByLayer
370
-1
48
1
60
0
100
AcDbSpline
70
4
71
3
72
16
73
12
40
0
40
0
40
0
40
0
40
0.0668638488454044
40
0.0668638488454044
40
0.290854271538491
40
0.290854271538491
40
0.517824973971231
40
0.517824973971231
40
0.75932867428108
40
0.75932867428108
40
1
40
1
40
1
40
1
41
1
10
31.6812692496092
20
9.66660804141671
30
0
41
1
10
31.6861521984245
20
9.66378328087299
30
0
41
1
10
31.6911709579192
20
9.66117893985304
30
0
41
1
10
31.7133166491507
20
9.65094278723038
30
0
41
1
10
31.7317449367095
20
9.64566763931563
30
0
41
1
10
31.7686278222749
20
9.64087287506754
30
0
41
1
10
31.7875471639913
20
9.6413548807495
30
0
41
1
10
31.8244899639568
20
9.64774643912213
30
0
41
1
10
31.8428447760408
20
9.65406175529367
30
0
41
1
10
31.8758249413552
20
9.67123575398304
30
0
41
1
10
31.8908184462972
20
9.6822458384128
30
0
41
1
10
31.9036295971872
20
9.69484576846102
30
0
0
SPLINE
5
8A
100
AcDbEntity
8
1
62
256
6
ByLayer
370
-1
48
1
60
0
100
AcDbSpline
70
4
71
3
72
14
73
10
40
0
40
0
40
0
40
0
40
0.284523597312208
40
0.284523597312208
40
0.571736866217945
40
0.571736866217945
40
0.831999616286134
40
0.831999616286134
40
1
40
1
40
1
40
1
41
1
10
32.8043388690494
20
11.2521769271112
30
0
41
1
10
32.8096099575125
20
11.272672207991
30
0
41
1
10
32.8114424703097
20
11.2947449769683
30
0
41
1
10
32.8070468838504
20
11.3387192466389
30
0
41
1
10
32.80063537043
20
11.3612926899199
30
0
41
1
10
32.7806441222488
20
11.400698891241
30
0
41
1
10
32.767459172144
20
11.4184481597
30
0
41
1
10
32.7414679247073
20
11.4428106565043
30
0
41
1
10
32.7300009066984
20
11.4513378150966
30
0
41
1
10
32.7178069450893
20
11.4583919585923
30
0
0
SPLINE
5
8B
100
AcDbEntity
8
1
62
256
6
ByLayer
370
-1
48
1
60
0
100
AcDbSpline
70
4
71
3
72
16
73
12
40
0
40
0
40
0
40
0
40
0.0670553612810097
40
0.0670553612810097
40
0.291697905104096
40
0.291697905104096
40
0.519329228663645
40
0.519329228663645
40
0.76153571502851
40
0.76153571502851
40
1
40
1
40
1
40
1
41
1
10
31.1645380973493
20
10.5625000000045
30
0
41
1
10
31.1645380973493
20
10.55685912233
30
0
41
1
10
31.1647968737072
20
10.5512110619599
30
0
41
1
10
31.1670256696522
20
10.5269164035019
30
0
41
1
10
31.1716872790206
20
10.5083234287145
30
0
41
1
10
31.1860056515549
20
10.4739967387181
30
0
41
1
10
31.1958965305344
20
10.4578615517661
30
0
41
1
10
31.219927752987
20
10.4290844455836
30
0
41
1
10
31.2345852442508
20
10.4163588860425
30
0
41
1
10
31.2657806233155
20
10.3965285181814
30
0
41
1
10
31.2826003314342
20
10.3891222085238
30
0
41
1
10
31.2997067813303
20
10.3843376023337
30
0
0
SPLINE
5
8C
100
AcDbEntity
8
1
62
256
6
ByLayer
370
-1
48
1
60
0
100
AcDbSpline
70
4
71
3
72
16
73
12
40
0
40
0
40
0
40
0
40
0.0650212293342793
40
0.0650212293342793
40
0.289691523269375
40
0.289691523269375
40
0.517236422326027
40
0.517236422326027
40
0.759263521180848
40
0.759263521180848
40
1
40
1
40
1
40
1
41
1
10
32.7178069450893
20
9.66660804141671
30
0
41
1
10
32.7225425568325
20
9.669347568229
30
0
41
1
10
32.7271619746374
20
9.67230104162928
30
0
41
1
10
32.7469783804961
20
9.68624522647701
30
0
41
1
10
32.7607788223107
20
9.69955695778154
30
0
41
1
10
32.7834032988227
20
9.72908238877531
30
0
41
1
10
32.7924613533348
20
9.74569797183634
30
0
41
1
10
32.8054292128331
20
9.7808663613784
30
0
41
1
10
32.8091560284244
20
9.79990883513369
30
0
41
1
10
32.8108117994136
20
9.8370078948864
30
0
41
1
10
32.8088046781947
20
9.85545891491964
30
0
41
1
10
32.8043388690494
20
9.8728230728978
30
0
0
SPLINE
5
8D
100
AcDbEntity
8
1
62
256
6
ByLayer
370
-1
48
1
60
0
100
AcDbSpline
70
4
71
3
72
18
73
14
40
0
40
0
40
0
40
0
40
0.213393079737808
40
0.213393079737808
40
0.389003177496016
40
0.389003177496016
40
0.566251555260756
40
0.566251555260756
40
0.721174645895987
40
0.721174645895987
40
0.927415342089843
40
0.927415342089843
40
1
40
1
40
1
40
1
41
1
10
33.0993694133683
20
10.3843376023337
30
0
41
1
10
33.057613009219
20
10.3726585017031
30
0
41
1
10
33.0162593566151
20
10.3540445057714
30
0
41
1
10
32.9468780675123
20
10.3075783147849
30
0
41
1
10
32.9170594285354
20
10.281338481223
30
0
41
1
10
32.865557738696
20
10.2206948842784
30
0
41
1
10
32.8432820502642
20
10.1852543491615
30
0
41
1
10
32.8127411731144
20
10.1161237210755
30
0
41
1
10
32.8026502945604
20
10.0819739769099
30
0
41
1
10
32.7894226307042
20
10.0038812558565
30
0
41
1
10
32.7893170600879
20
9.95910866503377
30
0
41
1
10
32.797646949153
20
9.90202001044156
30
0
41
1
10
32.8006247589604
20
9.88726444113203
30
0
41
1
10
32.8043388690493
20
9.8728230728978
30
0
0
SPLINE
5
8E
100
AcDbEntity
8
1
62
256
6
ByLayer
370
-1
48
1
60
0
100
AcDbSpline
70
4
71
3
72
18
73
14
40
0
40
0
40
0
40
0
40
0.21339446477973
40
0.21339446477973
40
0.389004322610693
40
0.389004322610693
40
0.56625244417802
40
0.56625244417802
40
0.721175490823099
40
0.721175490823099
40
0.927416435499238
40
0.927416435499238
40
1
40
1
40
1
40
1
41
1
10
31.5947373256492
20
9.87282307289783
30
0
41
1
10
31.6055372327411
20
9.91481575256418
30
0
41
1
10
31.6101325655561
20
9.9599324581236
30
0
41
1
10
31.6046535990274
20
10.0432565138371
30
0
41
1
10
31.5968718997394
20
10.0822067672026
30
0
41
1
10
31.5701680323066
20
10.1571531405978
30
0
41
1
10
31.5506451994804
20
10.1941813969365
30
0
41
1
10
31.5060990784322
20
10.2552340014159
30
0
41
1
10
31.4815921056791
20
10.2810688168892
30
0
41
1
10
31.4206189236769
20
10.3316229348969
30
0
41
1
10
31.381916739798
20
10.3541338329838
30
0
41
1
10
31.3283300360895
20
10.3755100899357
30
0
41
1
10
31.3140667703405
20
10.3803211703606
30
0
41
1
10
31.2997067813303
20
10.3843376023337
30
0
0
SPLINE
5
8F
100
AcDbEntity
8
1
62
256
6
ByLayer
370
-1
48
1
60
0
100
AcDbSpline
70
4
71
3
72
12
73
8
40
0
40
0
40
0
40
0
40
0.377026254864812
40
0.377026254864812
40
0.761056299431618
40
0.761056299431618
40
1
40
1
40
1
40
1
41
1
10
32.2277544524123
20
11.3099676162308
30
0
41
1
10
32.2671820571025
20
11.3126097927831
30
0
41
1
10
32.3063952949622
20
11.3210102824407
30
0
41
1
10
32.3787692642997
20
11.3470020607988
30
0
41
1
10
32.4128141349756
20
11.3650205622915
30
0
41
1
10
32.4618202562371
20
11.3996233429431
30
0
41
1
10
32.4793761576946
20
11.4143487493337
30
0
41
1
10
32.4954465975114
20
11.430154231548
30
0
0
SPLINE
5
90
100
AcDbEntity
8
1
62
256
6
ByLayer
370
-1
48
1
60
0
100
AcDbSpline
70
4
71
3
72
18
73
14
40
0
40
0
40
0
40
0
40
0.213394464779728
40
0.213394464779728
40
0.389004322610657
40
0.389004322610657
40
0.566252444177943
40
0.566252444177943
40
0.72117549082301
40
0.72117549082301
40
0.927416435499111
40
0.927416435499111
40
1
40
1
40
1
40
1
41
1
10
32.8043388690493
20
11.2521769271112
30
0
41
1
10
32.7935389619574
20
11.2101842474448
30
0
41
1
10
32.7889436291424
20
11.1650675418854
30
0
41
1
10
32.7944225956711
20
11.0817434861719
30
0
41
1
10
32.8022042949591
20
11.0427932328064
30
0
41
1
10
32.8289081623919
20
10.9678468594112
30
0
41
1
10
32.8484309952181
20
10.9308186030725
30
0
41
1
10
32.8929771162663
20
10.8697659985931
30
0
41
1
10
32.9174840890194
20
10.8439311831198
30
0
41
1
10
32.9784572710216
20
10.7933770651121
30
0
41
1
10
33.0171594549006
20
10.7708661670251
30
0
41
1
10
33.070746158609
20
10.7494899100733
30
0
41
1
10
33.085009424358
20
10.7446788296483
30
0
41
1
10
33.0993694133683
20
10.7406623976753
30
0
0
LINE
5
4C
100
AcDbEntity
8
80
62
256
6
ByLayer
370
-1
48
1
60
0
100
AcDbLine
10
0
20
0
30
0
11
-5
21
0
31
0
39
0
210
0
220
0
230
1
0
LINE
5
4D
100
AcDbEntity
8
81
62
256
6
ByLayer
370
-1
48
1
60
0
100
AcDbLine
10
35.199538
20
13.5625
30
0
11
45.199538
21
13.5625
31
0
39
0
210
0
220
0
230
1
0
LINE
5
4E
100
AcDbEntity
8
1
62
256
6
ByLayer
370
-1
48
1
60
0
100
AcDbLine
10
28.118538
20
13.1125
30
0
11
0.675
21
13.1125
31
0
39
0
210
0
220
0
230
1
0
LINE
5
50
100
AcDbEntity
8
1
62
256
6
ByLayer
370
-1
48
1
60
0
100
AcDbLine
10
28.199538
20
13.1125
30
0
11
28.199538
21
8.0125
31
0
39
0
210
0
220
0
230
1
0
LINE
5
51
100
AcDbEntity
8
1
62
256
6
ByLayer
370
-1
48
1
60
0
100
AcDbLine
10
28.118538
20
13.1125
30
0
11
28.118538
21
8.0125
31
0
39
0
210
0
220
0
230
1
0
LINE
5
52
100
AcDbEntity
8
1
62
256
6
ByLayer
370
-1
48
1
60
0
100
AcDbLine
10
30.619222
20
8.0125
30
0
11
30.099538
21
8.0125
31
0
39
0
210
0
220
0
230
1
0
LINE
5
53
100
AcDbEntity
8
1
62
256
6
ByLayer
370
-1
48
1
60
0
100
AcDbLine
10
30.005308
20
13.1125
30
0
11
30.005308
21
12.608316
31
0
39
0
210
0
220
0
230
1
0
LINE
5
54
100
AcDbEntity
8
1
62
256
6
ByLayer
370
-1
48
1
60
0
100
AcDbLine
10
28.118538
20
8.0125
30
0
11
17.695786
21
8.0125
31
0
39
0
210
0
220
0
230
1
0
LINE
5
55
100
AcDbEntity
8
1
62
256
6
ByLayer
370
-1
48
1
60
0
100
AcDbLine
10
30.005308
20
8.0125
30
0
11
28.199538
21
8.0125
31
0
39
0
210
0
220
0
230
1
0
LINE
5
56
100
AcDbEntity
8
1
62
256
6
ByLayer
370
-1
48
1
60
0
100
AcDbLine
10
0
20
-12.4375
30
0
11
0
21
12.4375
31
0
39
0
210
0
220
0
230
1
0
LINE
5
57
100
AcDbEntity
8
1
62
256
6
ByLayer
370
-1
48
1
60
0
100
AcDbLine
10
28.199538
20
8.0125
30
0
11
28.118538
21
8.0125
31
0
39
0
210
0
220
0
230
1
0
LINE
5
58
100
AcDbEntity
8
1
62
256
6
ByLayer
370
-1
48
1
60
0
100
AcDbLine
10
30.619222
20
13.1125
30
0
11
30.099538
21
13.1125
31
0
39
0
210
0
220
0
230
1
0
LINE
5
59
100
AcDbEntity
8
1
62
256
6
ByLayer
370
-1
48
1
60
0
100
AcDbLine
10
30.005308
20
8.0125
30
0
11
30.099538
21
8.0125
31
0
39
0
210
0
220
0
230
1
0
LINE
5
5A
100
AcDbEntity
8
1
62
256
6
ByLayer
370
-1
48
1
60
0
100
AcDbLine
10
30.005308
20
13.1125
30
0
11
30.099538
21
13.1125
31
0
39
0
210
0
220
0
230
1
0
LINE
5
5B
100
AcDbEntity
8
1
62
256
6
ByLayer
370
-1
48
1
60
0
100
AcDbLine
10
8.862327
20
2.9125
30
0
11
0
21
-12.4375
31
0
39
0
210
0
220
0
230
1
0
LINE
5
5C
100
AcDbEntity
8
1
62
256
6
ByLayer
370
-1
48
1
60
0
100
AcDbLine
10
30.005308
20
13.1125
30
0
11
28.199538
21
13.1125
31
0
39
0
210
0
220
0
230
1
0
LINE
5
5D
100
AcDbEntity
8
1
62
256
6
ByLayer
370
-1
48
1
60
0
100
AcDbLine
10
0.675
20
13.1125
30
0
11
0
21
12.4375
31
0
39
0
210
0
220
0
230
1
0
LINE
5
5E
100
AcDbEntity
8
1
62
256
6
ByLayer
370
-1
48
1
60
0
100
AcDbLine
10
28.199538
20
13.1125
30
0
11
28.118538
21
13.1125
31
0
39
0
210
0
220
0
230
1
0
LINE
5
5F
100
AcDbEntity
8
1
62
256
6
ByLayer
370
-1
48
1
60
0
100
AcDbLine
10
30.099538
20
13.1125
30
0
11
30.099538
21
12.704935
31
0
39
0
210
0
220
0
230
1
0
LINE
5
60
100
AcDbEntity
8
1
62
256
6
ByLayer
370
-1
48
1
60
0
100
AcDbLine
10
30.005308
20
8.516684
30
0
11
30.005308
21
8.0125
31
0
39
0
210
0
220
0
230
1
0
LINE
5
61
100
AcDbEntity
8
1
62
256
6
ByLayer
370
-1
48
1
60
0
100
AcDbLine
10
30.099538
20
8.420065
30
0
11
30.099538
21
8.0125
31
0
39
0
210
0
220
0
230
1
0
LINE
5
62
100
AcDbEntity
8
SK1
62
256
6
ByLayer
370
-1
48
1
60
0
100
AcDbLine
10
0
20
-12.4375
30
0
11
0
21
12.4375
31
0
39
0
210
0
220
0
230
1
0
LINE
5
64
100
AcDbEntity
8
SK1
62
256
6
ByLayer
370
-1
48
1
60
0
100
AcDbLine
10
-136.150462
20
-12.4375
30
0
11
0
21
-12.4375
31
0
39
0
210
0
220
0
230
1
0
LINE
5
65
100
AcDbEntity
8
SK1
62
256
6
ByLayer
370
-1
48
1
60
0
100
AcDbLine
10
0
20
12.4375
30
0
11
-136.150462
21
12.4375
31
0
39
0
210
0
220
0
230
1
0
LINE
5
66
100
AcDbEntity
8
SK1
62
256
6
ByLayer
370
-1
48
1
60
0
100
AcDbLine
10
-136.150462
20
12.4375
30
0
11
-136.150462
21
-12.4375
31
0
39
0
210
0
220
0
230
1
0
MTEXT
5
91
100
AcDbEntity
8
SK6
62
256
6
ByLayer
370
-1
48
1
60
0
100
AcDbMText
10
-77.649522
20
-24.400493
30
0
210
0
220
0
230
1
1
\W00.758;\fsimplex.shx,bigfont.shx;SRDCR 3225P 06-A 
40
3.5
41
0
44
1.084337
50
0
71
7
72
5
7
DEFAULT
0
DIMENSION
5
C4
100
AcDbEntity
8
SK2
62
256
6
ByLayer
370
-3
48
1
60
0
100
AcDbDimension
2
DimnDraft3D1
10
-145.900462
20
12.4375
30
0
11
-145.900462
21
-2.628947
31
0
70
32
71
5
72
1
41
1
210
0
220
0
230
1
3
Standard
100
AcDbAlignedDimension
13
-138.150462
23
-12.4375
33
0
14
-138.150462
24
12.4375
34
0
50
90
100
AcDbRotatedDimension
1001
ACAD
1000
DSTYLE
1002
{
1070
    74
1070
     0
1070
   279
1070
     0
1070
   172
1070
     1
1070
   173
1070
     1
1070
   340
1005
92
1070
    77
1070
     1
1070
    73
1070
     0
1070
   171
1070
     3
1070
   274
1070
     4
1070
   177
1070
     2
1070
   176
1070
     2
1070
   178
1070
     7
1070
    78
1070
     8
1070
    41
1041
3.175
1070
   147
1041
2.25
1070
    42
1041
2.0
1070
    44
1041
2.0
1070
   140
1041
4.5
1070
   343
1005
C5
1070
   344
1005
C5
1002
}
0
DIMENSION
5
D9
100
AcDbEntity
8
2
62
256
6
ByLayer
370
-3
48
1
60
0
100
AcDbDimension
2
DimnDraft3D2
10
49.449538
20
13.5625
30
0
11
49.449538
21
-6.252632
31
0
70
32
71
5
72
1
41
1
210
0
220
0
230
1
3
Standard
100
AcDbAlignedDimension
13
2
23
-12.4375
33
0
14
37.199538
24
13.5625
34
0
50
90
100
AcDbRotatedDimension
1001
ACAD
1000
DSTYLE
1002
{
1070
    74
1070
     0
1070
   279
1070
     0
1070
   172
1070
     1
1070
   173
1070
     1
1070
   340
1005
92
1070
    77
1070
     1
1070
    73
1070
     0
1070
   171
1070
     3
1070
   274
1070
     4
1070
   177
1070
     2
1070
   176
1070
     2
1070
   178
1070
     7
1070
    78
1070
     8
1070
    41
1041
3.175
1070
   147
1041
2.25
1070
    42
1041
2.0
1070
    44
1041
2.0
1070
   140
1041
4.5
1070
   343
1005
C5
1070
   344
1005
C5
1002
}
0
DIMENSION
5
E7
100
AcDbEntity
8
2
62
256
6
ByLayer
370
-3
48
1
60
0
100
AcDbDimension
2
DimnDraft3D3
10
15.199538
20
-24.6875
30
0
11
22.570591
21
-24.6875
31
0
70
32
71
5
72
1
41
1
210
0
220
0
230
1
3
Standard
100
AcDbAlignedDimension
13
35.199538
23
5.5625
33
0
14
15.199538
24
5.5625
34
0
50
0
100
AcDbRotatedDimension
1001
ACAD
1000
DSTYLE
1002
{
1070
   279
1070
     0
1070
   172
1070
     1
1070
   173
1070
     1
1070
   340
1005
92
1070
    77
1070
     1
1070
    73
1070
     0
1070
   171
1070
     3
1070
   274
1070
     4
1070
   177
1070
     2
1070
   176
1070
     2
1070
   178
1070
     7
1070
    78
1070
     8
1070
    41
1041
3.175
1070
   147
1041
2.25
1070
    42
1041
2.0
1070
    44
1041
2.0
1070
   140
1041
4.5
1070
   343
1005
C5
1070
   344
1005
C5
1002
}
0
DIMENSION
5
F5
100
AcDbEntity
8
SK2
62
256
6
ByLayer
370
-3
48
1
60
0
100
AcDbDimension
2
DimnDraft3D4
10
-136.150462
20
33.3125
30
0
11
-54.193883
21
33.3125
31
0
70
32
71
5
72
1
41
1
210
0
220
0
230
1
3
Standard
100
AcDbAlignedDimension
13
35.199538
23
15.5625
33
0
14
-136.150462
24
14.4375
34
0
50
0
100
AcDbRotatedDimension
1001
ACAD
1000
DSTYLE
1002
{
1070
   279
1070
     0
1070
   172
1070
     1
1070
   173
1070
     1
1070
   340
1005
92
1070
    77
1070
     1
1070
    73
1070
     0
1070
   171
1070
     3
1070
   274
1070
     4
1070
   177
1070
     2
1070
   176
1070
     2
1070
   178
1070
     7
1070
    78
1070
     8
1070
    41
1041
3.175
1070
   147
1041
2.25
1070
    42
1041
2.0
1070
    44
1041
2.0
1070
   140
1041
4.5
1070
   343
1005
C5
1070
   344
1005
C5
1002
}
0
ENDSEC
0
SECTION
2
OBJECTS
0
DICTIONARY
5
125
330
0
100
AcDbDictionary
280
0
281
1
3
ACAD_GROUP
350
126
3
ACAD_MLINESTYLE
350
127
0
DICTIONARY
5
126
330
0
100
AcDbDictionary
280
0
281
1
0
DICTIONARY
5
127
330
0
100
AcDbDictionary
280
0
281
1
3
Standard
350
18
0
MLINESTYLE
5
18
330
127
100
AcDbMlineStyle
2
Standard
70
0
3

62
256
51
90
52
90
71
2
49
-0.5
62
256
6
ByLayer
49
0.5
62
256
6
ByLayer
0
RASTERVARIABLES
5
114
330

100
AcDbRasterVariables
90
0
70
1
71
1
72
1
0
ENDSEC
0
EOF
