0
SECTION
2
HEADER
9
$ACADVER
1
AC1015
9
$DWGCODEPAGE
3
ANSI_1252
9
$HANDSEED
5
137
9
$ANGBASE
50
0
9
$ANGDIR
70
0
9
$ATTMODE
70
1
9
$AUNITS
70
0
9
$AUPREC
70
0
9
$CECOLOR
62
256
9
$CELTSCALE
40
1
9
$CELTYPE
6
ByLayer
9
$CELWEIGHT
370
-1
9
$CLAYER
8
0
9
$CMLJUST
70
0
9
$CMLSCALE
40
1
9
$CMLSTYLE
2
Standard
9
$DIMSTYLE
2
Standard
9
$TEXTSIZE
40
0.2
9
$TEXTSTYLE
7
Standard
9
$LUNITS
70
2
9
$LUPREC
70
4
9
$EXTNAMES
290
1
9
$INSUNITS
70
4
9
$LTSCALE
40
1
9
$LWDISPLAY
290
0
9
$PDMODE
70
0
9
$PDSIZE
40
0
9
$PLINEGEN
70
0
0
ENDSEC
0
SECTION
2
CLASSES
0
CLASS
1
RASTERVARIABLES
2
AcDbRasterVariables
3
ISM
90
0
280
0
281
0
0
ENDSEC
0
SECTION
2
TABLES
0
TABLE
2
VPORT
5
12d
100
AcDbSymbolTable
0
VPORT
5
1
100
AcDbSymbolTableRecord
100
AcDbViewportTableRecord
2
*Active
70
0
10
0
20
0
11
1
21
1
12
-1
22
1
13
0
23
0
14
0.5
24
0.5
15
10
25
10
16
0
26
0
36
1
17
0
27
0
37
0
0
ENDTAB
0
TABLE
2
LTYPE
5
12e
100
AcDbSymbolTable
0
LTYPE
5
14
100
AcDbSymbolTableRecord
100
AcDbLinetypeTableRecord
70
0
2
ByBlock
3

72
65
73
0
40
0
0
LTYPE
5
15
100
AcDbSymbolTableRecord
100
AcDbLinetypeTableRecord
70
0
2
ByLayer
3

72
65
73
0
40
0
0
LTYPE
5
16
100
AcDbSymbolTableRecord
100
AcDbLinetypeTableRecord
70
0
2
CONTINUOUS
3
Solid line
72
65
73
0
40
0
0
LTYPE
5
3B
100
AcDbSymbolTableRecord
100
AcDbLinetypeTableRecord
70
0
2
DASHED
3
__ __ __ __ __ __ __ __ __
72
65
73
2
40
25.72
49
12.86
74
0
49
-12.86
74
0
0
LTYPE
5
3C
100
AcDbSymbolTableRecord
100
AcDbLinetypeTableRecord
70
0
2
HIDDEN
3
_ _ _ _ _ _ _ _ _ _ _ _ _ _ _
72
65
73
2
40
0.5
49
0.25
74
0
49
-0.25
74
0
0
LTYPE
5
3D
100
AcDbSymbolTableRecord
100
AcDbLinetypeTableRecord
70
0
2
PHANTOM
3
____ _ _ ____ _ _ _____ _ _ ____
72
65
73
6
40
50.5
49
18
74
0
49
-6.5
74
0
49
6.5
74
0
49
-6.5
74
0
49
6.5
74
0
49
-6.5
74
0
0
LTYPE
5
3E
100
AcDbSymbolTableRecord
100
AcDbLinetypeTableRecord
70
0
2
CENTER
3
____ _ ____ _ ____ _ ____
72
65
73
4
40
47.5
49
22
74
0
49
-8.5
74
0
49
8.5
74
0
49
-8.5
74
0
0
LTYPE
5
3F
100
AcDbSymbolTableRecord
100
AcDbLinetypeTableRecord
70
0
2
DOT
3
.........................
72
65
73
2
40
10
49
0
74
0
49
-10
74
0
0
LTYPE
5
40
100
AcDbSymbolTableRecord
100
AcDbLinetypeTableRecord
70
0
2
DASHDOT
3
_._._._._._._._._._._._._._._._.
72
65
73
4
40
70
49
31
74
0
49
-13
74
0
49
13
74
0
49
-13
74
0
0
ENDTAB
0
TABLE
2
LAYER
5
12f
100
AcDbSymbolTable
0
LAYER
5
10
100
AcDbSymbolTableRecord
100
AcDbLayerTableRecord
2
0
70
0
62
7
6
CONTINUOUS
290
1
370
-3
390
0
0
LAYER
5
42
100
AcDbSymbolTableRecord
100
AcDbLayerTableRecord
2
81
70
0
62
-3
6
CONTINUOUS
290
1
370
-3
390
0
0
LAYER
5
49
100
AcDbSymbolTableRecord
100
AcDbLayerTableRecord
2
80
70
0
62
-6
6
CONTINUOUS
290
1
370
-3
390
0
0
LAYER
5
4B
100
AcDbSymbolTableRecord
100
AcDbLayerTableRecord
2
2
70
0
62
7
6
CONTINUOUS
290
1
370
-3
390
0
0
LAYER
5
4F
100
AcDbSymbolTableRecord
100
AcDbLayerTableRecord
2
1
70
0
62
4
6
CONTINUOUS
290
1
370
-3
390
0
0
LAYER
5
11a
100
AcDbSymbolTableRecord
100
AcDbLayerTableRecord
2
SK2
70
0
62
7
6
CONTINUOUS
290
1
370
-3
390
0
0
LAYER
5
11b
100
AcDbSymbolTableRecord
100
AcDbLayerTableRecord
2
SK1
70
0
62
4
6
CONTINUOUS
290
1
370
-3
390
0
0
LAYER
5
11c
100
AcDbSymbolTableRecord
100
AcDbLayerTableRecord
2
SK6
70
0
62
5
6
CONTINUOUS
290
1
370
-3
390
0
0
ENDTAB
0
TABLE
2
STYLE
5
130
100
AcDbSymbolTable
0
STYLE
5
11
100
AcDbSymbolTableRecord
100
AcDbTextStyleTableRecord
2
Standard
3
txt
70
0
71
0
40
0
41
1
42
0
50
0
0
STYLE
5
97
100
AcDbSymbolTableRecord
100
AcDbTextStyleTableRecord
2
DEFAULT
3
simplex.shx
70
0
71
0
40
0
41
1
42
0
50
0
0
STYLE
5
BA
100
AcDbSymbolTableRecord
100
AcDbTextStyleTableRecord
2
DWGDirectTextStyle
3
SIMPLEX
70
0
71
0
40
0
41
1
42
0
50
0
0
ENDTAB
0
TABLE
2
DIMSTYLE
5
131
100
AcDbSymbolTable
100
AcDbDimStyleTable
0
DIMSTYLE
105
27
100
AcDbSymbolTableRecord
100
AcDbDimStyleTableRecord
2
Standard
70
0
3
<>
41
0.18
42
0.0625
44
0.18
140
0.18
147
0.09
73
0
74
0
77
1
271
2
275
0
278
52
280
0
340
11
0
ENDTAB
0
TABLE
2
VIEW
5
132
100
AcDbSymbolTable
0
ENDTAB
0
TABLE
2
UCS
5
133
100
AcDbSymbolTable
0
ENDTAB
0
TABLE
2
APPID
5
134
100
AcDbSymbolTable
0
APPID
5
12
100
AcDbSymbolTableRecord
100
AcDbRegAppTableRecord
2
ACAD
70
0
0
ENDTAB
0
TABLE
2
BLOCK_RECORD
5
135
100
AcDbSymbolTable
0
BLOCK_RECORD
5
1F
100
AcDbSymbolTableRecord
100
AcDbBlockTableRecord
2
*Model_Space
340
0
70
0
0
BLOCK_RECORD
5
1B
100
AcDbSymbolTableRecord
100
AcDbBlockTableRecord
2
*Paper_Space
340
0
70
0
0
BLOCK_RECORD
5
23
100
AcDbSymbolTableRecord
100
AcDbBlockTableRecord
2
*Paper_Space0
340
0
70
0
0
BLOCK_RECORD
5
BC
100
AcDbSymbolTableRecord
100
AcDbBlockTableRecord
2
DimnDraft3D11
340
0
70
0
0
BLOCK_RECORD
5
CA
100
AcDbSymbolTableRecord
100
AcDbBlockTableRecord
2
DimnDraft3D2
340
0
70
0
0
BLOCK_RECORD
5
D8
100
AcDbSymbolTableRecord
100
AcDbBlockTableRecord
2
_CLOSED
340
0
70
0
0
BLOCK_RECORD
5
DF
100
AcDbSymbolTableRecord
100
AcDbBlockTableRecord
2
DimnDraft3D3
340
0
70
0
0
BLOCK_RECORD
5
ED
100
AcDbSymbolTableRecord
100
AcDbBlockTableRecord
2
DimnDraft3D4
340
0
70
0
0
ENDTAB
0
ENDSEC
0
SECTION
2
BLOCKS
0
BLOCK
5
20
100
AcDbEntity
8
0
100
AcDbBlockBegin
2
*Model_Space
70
0
10
0
20
0
30
0
3
*Model_Space
0
ENDBLK
5
21
100
AcDbEntity
8
0
100
AcDbBlockEnd
0
BLOCK
5
1C
100
AcDbEntity
8
0
100
AcDbBlockBegin
2
*Paper_Space
70
0
10
0
20
0
30
0
3
*Paper_Space
0
ENDBLK
5
1D
100
AcDbEntity
8
0
100
AcDbBlockEnd
0
BLOCK
5
24
100
AcDbEntity
8
0
100
AcDbBlockBegin
2
*Paper_Space0
70
0
10
0
20
0
30
0
3
*Paper_Space0
0
ENDBLK
5
25
100
AcDbEntity
8
0
100
AcDbBlockEnd
0
BLOCK
5
BD
100
AcDbEntity
8
0
100
AcDbBlockBegin
2
DimnDraft3D11
70
0
10
0
20
0
30
0
3
DimnDraft3D11
0
LINE
5
BF
100
AcDbEntity
8
SK2
62
256
6
ByLayer
370
-1
48
1
60
0
100
AcDbLine
10
36.098237
20
-15.5625
30
0
11
36.098237
21
-39.8125
31
0
39
0
210
0
220
0
230
1
0
LINE
5
C0
100
AcDbEntity
8
SK2
62
256
6
ByLayer
370
-1
48
1
60
0
100
AcDbLine
10
-135.251763
20
-14.4375
30
0
11
-135.251763
21
-39.8125
31
0
39
0
210
0
220
0
230
1
0
LINE
5
C1
100
AcDbEntity
8
SK2
62
256
6
ByLayer
370
-1
48
1
60
0
100
AcDbLine
10
36.098237
20
-37.8125
30
0
11
-135.251763
21
-37.8125
31
0
39
0
210
0
220
0
230
1
0
LINE
5
C2
100
AcDbEntity
8
SK2
62
256
6
ByLayer
370
-1
48
1
60
0
100
AcDbLine
10
36.098237
20
-37.8125
30
0
11
32.923238
21
-38.230497
31
0
39
0
210
0
220
0
230
1
0
LINE
5
C3
100
AcDbEntity
8
SK2
62
256
6
ByLayer
370
-1
48
1
60
0
100
AcDbLine
10
36.098237
20
-37.8125
30
0
11
32.923235
21
-37.394503
31
0
39
0
210
0
220
0
230
1
0
LINE
5
C4
100
AcDbEntity
8
SK2
62
256
6
ByLayer
370
-1
48
1
60
0
100
AcDbLine
10
32.923238
20
-38.230497
30
0
11
32.923235
21
-37.394503
31
0
39
0
210
0
220
0
230
1
0
LINE
5
C5
100
AcDbEntity
8
SK2
62
256
6
ByLayer
370
-1
48
1
60
0
100
AcDbLine
10
-135.251763
20
-37.8125
30
0
11
-132.076765
21
-37.394503
31
0
39
0
210
0
220
0
230
1
0
LINE
5
C6
100
AcDbEntity
8
SK2
62
256
6
ByLayer
370
-1
48
1
60
0
100
AcDbLine
10
-135.251763
20
-37.8125
30
0
11
-132.076762
21
-38.230497
31
0
39
0
210
0
220
0
230
1
0
LINE
5
C7
100
AcDbEntity
8
SK2
62
256
6
ByLayer
370
-1
48
1
60
0
100
AcDbLine
10
-132.076765
20
-37.394503
30
0
11
-132.076762
21
-38.230497
31
0
39
0
210
0
220
0
230
1
0
MTEXT
5
C8
100
AcDbEntity
8
SK2
62
256
6
ByLayer
370
-1
48
1
60
0
100
AcDbMText
10
-52.170184
20
-36.6875
30
0
210
0
220
0
230
1
1
\W00.604;\fsimplex.shx,bigfont.shx;170 
40
4.5
41
0
44
1.084337
50
0
71
7
72
5
7
DEFAULT
0
ENDBLK
5
BE
100
AcDbEntity
8
0
100
AcDbBlockEnd
0
BLOCK
5
D5
100
AcDbEntity
8
0
100
AcDbBlockBegin
2
DimnDraft3D2
70
0
10
0
20
0
30
0
3
DimnDraft3D2
0
MTEXT
5
CB
100
AcDbEntity
8
2
62
256
6
ByLayer
370
-1
48
1
60
0
100
AcDbMText
10
24.594289
20
21.3125
30
0
210
0
220
0
230
1
1
\W01.000;\fsimplex.shx,bigfont.shx;20 
40
4.5
41
0
44
1.084337
50
0
71
7
72
5
7
DEFAULT
0
LINE
5
CC
100
AcDbEntity
8
2
62
256
6
ByLayer
370
-1
48
1
60
0
100
AcDbLine
10
16.098237
20
-6.5625
30
0
11
16.098237
21
22.1875
31
0
39
0
210
0
220
0
230
1
0
LINE
5
CD
100
AcDbEntity
8
2
62
256
6
ByLayer
370
-1
48
1
60
0
100
AcDbLine
10
36.098237
20
-7.320843
30
0
11
36.098237
21
22.1875
31
0
39
0
210
0
220
0
230
1
0
LINE
5
CE
100
AcDbEntity
8
2
62
256
6
ByLayer
370
-1
48
1
60
0
100
AcDbLine
10
16.098237
20
20.1875
30
0
11
36.098237
21
20.1875
31
0
39
0
210
0
220
0
230
1
0
LINE
5
CF
100
AcDbEntity
8
2
62
256
6
ByLayer
370
-1
48
1
60
0
100
AcDbLine
10
16.098237
20
20.1875
30
0
11
19.273235
21
20.605497
31
0
39
0
210
0
220
0
230
1
0
LINE
5
D0
100
AcDbEntity
8
2
62
256
6
ByLayer
370
-1
48
1
60
0
100
AcDbLine
10
16.098237
20
20.1875
30
0
11
19.273238
21
19.769503
31
0
39
0
210
0
220
0
230
1
0
LINE
5
D1
100
AcDbEntity
8
2
62
256
6
ByLayer
370
-1
48
1
60
0
100
AcDbLine
10
19.273235
20
20.605497
30
0
11
19.273238
21
19.769503
31
0
39
0
210
0
220
0
230
1
0
LINE
5
D2
100
AcDbEntity
8
2
62
256
6
ByLayer
370
-1
48
1
60
0
100
AcDbLine
10
36.098237
20
20.1875
30
0
11
32.923238
21
19.769503
31
0
39
0
210
0
220
0
230
1
0
LINE
5
D3
100
AcDbEntity
8
2
62
256
6
ByLayer
370
-1
48
1
60
0
100
AcDbLine
10
36.098237
20
20.1875
30
0
11
32.923235
21
20.605497
31
0
39
0
210
0
220
0
230
1
0
LINE
5
D4
100
AcDbEntity
8
2
62
256
6
ByLayer
370
-1
48
1
60
0
100
AcDbLine
10
32.923238
20
19.769503
30
0
11
32.923235
21
20.605497
31
0
39
0
210
0
220
0
230
1
0
ENDBLK
5
D6
100
AcDbEntity
8
0
100
AcDbBlockEnd
0
BLOCK
5
D9
100
AcDbEntity
8
0
100
AcDbBlockBegin
2
_CLOSED
70
0
10
0
20
0
30
0
3
_CLOSED
0
LINE
5
DB
100
AcDbEntity
8
0
62
256
6
ByLayer
370
-2
48
1
60
0
100
AcDbLine
10
-1
20
0.166667
30
0
11
0
21
0
31
0
39
0
210
0
220
0
230
1
0
LINE
5
DC
100
AcDbEntity
8
0
62
256
6
ByLayer
370
-2
48
1
60
0
100
AcDbLine
10
0
20
0
30
0
11
-1
21
-0.166667
31
0
39
0
210
0
220
0
230
1
0
LINE
5
DD
100
AcDbEntity
8
0
62
256
6
ByLayer
370
-2
48
1
60
0
100
AcDbLine
10
-1
20
0.166667
30
0
11
-1
21
-0.166667
31
0
39
0
210
0
220
0
230
1
0
LINE
5
DE
100
AcDbEntity
8
0
62
256
6
ByLayer
370
-2
48
1
60
0
100
AcDbLine
10
0
20
0
30
0
11
-1
21
0
31
0
39
0
210
0
220
0
230
1
0
ENDBLK
5
DA
100
AcDbEntity
8
0
100
AcDbBlockEnd
0
BLOCK
5
EA
100
AcDbEntity
8
0
100
AcDbBlockBegin
2
DimnDraft3D3
70
0
10
0
20
0
30
0
3
DimnDraft3D3
0
MTEXT
5
E0
100
AcDbEntity
8
2
62
256
6
ByLayer
370
-1
48
1
60
0
100
AcDbMText
10
49.223237
20
-6.252632
30
0
210
0
220
0
230
1
1
\W01.000;\fsimplex.shx,bigfont.shx;25.65 
40
4.5
41
0
44
1.084337
50
90
71
7
72
5
7
DEFAULT
0
LINE
5
E1
100
AcDbEntity
8
2
62
256
6
ByLayer
370
-1
48
1
60
0
100
AcDbLine
10
2
20
12.4375
30
0
11
52.348237
21
12.4375
31
0
39
0
210
0
220
0
230
1
0
LINE
5
E2
100
AcDbEntity
8
2
62
256
6
ByLayer
370
-1
48
1
60
0
100
AcDbLine
10
38.098237
20
-13.5625
30
0
11
52.348237
21
-13.5625
31
0
39
0
210
0
220
0
230
1
0
LINE
5
E3
100
AcDbEntity
8
2
62
256
6
ByLayer
370
-1
48
1
60
0
100
AcDbLine
10
50.348237
20
12.4375
30
0
11
50.348237
21
-13.5625
31
0
39
0
210
0
220
0
230
1
0
LINE
5
E4
100
AcDbEntity
8
2
62
256
6
ByLayer
370
-1
48
1
60
0
100
AcDbLine
10
50.348237
20
12.4375
30
0
11
50.766233
21
9.262502
31
0
39
0
210
0
220
0
230
1
0
LINE
5
E5
100
AcDbEntity
8
2
62
256
6
ByLayer
370
-1
48
1
60
0
100
AcDbLine
10
50.348237
20
12.4375
30
0
11
49.93024
21
9.262498
31
0
39
0
210
0
220
0
230
1
0
LINE
5
E6
100
AcDbEntity
8
2
62
256
6
ByLayer
370
-1
48
1
60
0
100
AcDbLine
10
50.766233
20
9.262502
30
0
11
49.93024
21
9.262498
31
0
39
0
210
0
220
0
230
1
0
LINE
5
E7
100
AcDbEntity
8
2
62
256
6
ByLayer
370
-1
48
1
60
0
100
AcDbLine
10
50.348237
20
-13.5625
30
0
11
49.93024
21
-10.387502
31
0
39
0
210
0
220
0
230
1
0
LINE
5
E8
100
AcDbEntity
8
2
62
256
6
ByLayer
370
-1
48
1
60
0
100
AcDbLine
10
50.348237
20
-13.5625
30
0
11
50.766233
21
-10.387498
31
0
39
0
210
0
220
0
230
1
0
LINE
5
E9
100
AcDbEntity
8
2
62
256
6
ByLayer
370
-1
48
1
60
0
100
AcDbLine
10
49.93024
20
-10.387502
30
0
11
50.766233
21
-10.387498
31
0
39
0
210
0
220
0
230
1
0
ENDBLK
5
EB
100
AcDbEntity
8
0
100
AcDbBlockEnd
0
BLOCK
5
F8
100
AcDbEntity
8
0
100
AcDbBlockBegin
2
DimnDraft3D4
70
0
10
0
20
0
30
0
3
DimnDraft3D4
0
MTEXT
5
EE
100
AcDbEntity
8
SK2
62
256
6
ByLayer
370
-1
48
1
60
0
100
AcDbMText
10
-146.126763
20
-1.503947
30
0
210
0
220
0
230
1
1
\W01.000;\fsimplex.shx,bigfont.shx;25 
40
4.5
41
0
44
1.084337
50
90
71
7
72
5
7
DEFAULT
0
LINE
5
EF
100
AcDbEntity
8
SK2
62
256
6
ByLayer
370
-1
48
1
60
0
100
AcDbLine
10
-137.251763
20
12.4375
30
0
11
-147.001763
21
12.4375
31
0
39
0
210
0
220
0
230
1
0
LINE
5
F0
100
AcDbEntity
8
SK2
62
256
6
ByLayer
370
-1
48
1
60
0
100
AcDbLine
10
-137.251763
20
-12.4375
30
0
11
-147.001763
21
-12.4375
31
0
39
0
210
0
220
0
230
1
0
LINE
5
F1
100
AcDbEntity
8
SK2
62
256
6
ByLayer
370
-1
48
1
60
0
100
AcDbLine
10
-145.001763
20
12.4375
30
0
11
-145.001763
21
-12.4375
31
0
39
0
210
0
220
0
230
1
0
LINE
5
F2
100
AcDbEntity
8
SK2
62
256
6
ByLayer
370
-1
48
1
60
0
100
AcDbLine
10
-145.001763
20
12.4375
30
0
11
-144.583767
21
9.262502
31
0
39
0
210
0
220
0
230
1
0
LINE
5
F3
100
AcDbEntity
8
SK2
62
256
6
ByLayer
370
-1
48
1
60
0
100
AcDbLine
10
-145.001763
20
12.4375
30
0
11
-145.41976
21
9.262498
31
0
39
0
210
0
220
0
230
1
0
LINE
5
F4
100
AcDbEntity
8
SK2
62
256
6
ByLayer
370
-1
48
1
60
0
100
AcDbLine
10
-144.583767
20
9.262502
30
0
11
-145.41976
21
9.262498
31
0
39
0
210
0
220
0
230
1
0
LINE
5
F5
100
AcDbEntity
8
SK2
62
256
6
ByLayer
370
-1
48
1
60
0
100
AcDbLine
10
-145.001763
20
-12.4375
30
0
11
-145.41976
21
-9.262502
31
0
39
0
210
0
220
0
230
1
0
LINE
5
F6
100
AcDbEntity
8
SK2
62
256
6
ByLayer
370
-1
48
1
60
0
100
AcDbLine
10
-145.001763
20
-12.4375
30
0
11
-144.583767
21
-9.262498
31
0
39
0
210
0
220
0
230
1
0
LINE
5
F7
100
AcDbEntity
8
SK2
62
256
6
ByLayer
370
-1
48
1
60
0
100
AcDbLine
10
-145.41976
20
-9.262502
30
0
11
-144.583767
21
-9.262498
31
0
39
0
210
0
220
0
230
1
0
ENDBLK
5
F9
100
AcDbEntity
8
0
100
AcDbBlockEnd
0
ENDSEC
0
SECTION
2
ENTITIES
0
ARC
5
6C
100
AcDbEntity
8
1
62
256
6
ByLayer
370
-1
48
1
60
0
100
AcDbCircle
39
0
10
-31.898237
20
-11.0625
30
0
40
1
210
0
220
0
230
-1
100
AcDbArc
50
313.958188
51
46.041787
0
ARC
5
6D
100
AcDbEntity
8
1
62
256
6
ByLayer
370
-1
48
1
60
0
100
AcDbCircle
39
0
10
18.594484
20
1.1875
30
0
40
10.2
210
0
220
0
230
1
100
AcDbArc
50
210
51
270
0
ARC
5
6E
100
AcDbEntity
8
1
62
256
6
ByLayer
370
-1
48
1
60
0
100
AcDbCircle
39
0
10
33.598237
20
-11.0625
30
0
40
1.03500000000001
210
0
220
0
230
1
100
AcDbArc
50
300.049159
51
0
0
ARC
5
6F
100
AcDbEntity
8
1
62
256
6
ByLayer
370
-1
48
1
60
0
100
AcDbCircle
39
0
10
33.598237
20
-11.0625
30
0
40
1.03500000000001
210
0
220
0
230
1
100
AcDbArc
50
120.049159
51
180
0
ARC
5
70
100
AcDbEntity
8
1
62
256
6
ByLayer
370
-1
48
1
60
0
100
AcDbCircle
39
0
10
33.598237
20
-11.0625
30
0
40
0.747999999999999
210
0
220
0
230
1
100
AcDbArc
50
209.975421
51
267.838153
0
ARC
5
71
100
AcDbEntity
8
1
62
256
6
ByLayer
370
-1
48
1
60
0
100
AcDbCircle
39
0
10
33.598237
20
-11.0625
30
0
40
1.03500000000001
210
0
220
0
230
1
100
AcDbArc
50
239.950841
51
300.049159
0
ARC
5
72
100
AcDbEntity
8
1
62
256
6
ByLayer
370
-1
48
1
60
0
100
AcDbCircle
39
0
10
-33.598237
20
-11.0625
30
0
40
0.747999999999999
210
0
220
0
230
-1
100
AcDbArc
50
92.161847
51
150.024579
0
ARC
5
75
100
AcDbEntity
8
1
62
256
6
ByLayer
370
-1
48
1
60
0
100
AcDbCircle
39
0
10
-33.598237
20
-11.0625
30
0
40
0.747999999999999
210
0
220
0
230
-1
100
AcDbArc
50
209.975421
51
267.838153
0
ARC
5
76
100
AcDbEntity
8
1
62
256
6
ByLayer
370
-1
48
1
60
0
100
AcDbCircle
39
0
10
33.598237
20
-11.0625
30
0
40
1.03500000000001
210
0
220
0
230
1
100
AcDbArc
50
0
51
59.950841
0
ARC
5
79
100
AcDbEntity
8
1
62
256
6
ByLayer
370
-1
48
1
60
0
100
AcDbCircle
39
0
10
33.598237
20
-11.0625
30
0
40
0.747999999999999
210
0
220
0
230
1
100
AcDbArc
50
267.838153
51
272.161847
0
ARC
5
7B
100
AcDbEntity
8
1
62
256
6
ByLayer
370
-1
48
1
60
0
100
AcDbCircle
39
0
10
-33.598237
20
-11.0625
30
0
40
0.747999999999999
210
0
220
0
230
-1
100
AcDbArc
50
29.975421
51
87.838153
0
ARC
5
7C
100
AcDbEntity
8
1
62
256
6
ByLayer
370
-1
48
1
60
0
100
AcDbCircle
39
0
10
-33.598237
20
-11.0625
30
0
40
0.747999999999999
210
0
220
0
230
-1
100
AcDbArc
50
330.024579
51
29.975421
0
ARC
5
7D
100
AcDbEntity
8
1
62
256
6
ByLayer
370
-1
48
1
60
0
100
AcDbCircle
39
0
10
33.598237
20
-11.0625
30
0
40
1.03500000000001
210
0
220
0
230
1
100
AcDbArc
50
59.950841
51
120.049159
0
ARC
5
7E
100
AcDbEntity
8
1
62
256
6
ByLayer
370
-1
48
1
60
0
100
AcDbCircle
39
0
10
-33.598237
20
-11.0625
30
0
40
0.747999999999999
210
0
220
0
230
-1
100
AcDbArc
50
150.024579
51
209.975421
0
ARC
5
80
100
AcDbEntity
8
1
62
256
6
ByLayer
370
-1
48
1
60
0
100
AcDbCircle
39
0
10
33.598237
20
-11.0625
30
0
40
1.03500000000001
210
0
220
0
230
1
100
AcDbArc
50
180
51
239.950841
0
ARC
5
81
100
AcDbEntity
8
1
62
256
6
ByLayer
370
-1
48
1
60
0
100
AcDbCircle
39
0
10
33.598237
20
-11.0625
30
0
40
0.747999999999999
210
0
220
0
230
1
100
AcDbArc
50
87.838153
51
92.161847
0
CIRCLE
5
73
100
AcDbEntity
8
1
62
256
6
ByLayer
370
-1
48
1
60
0
100
AcDbCircle
10
33.598237
20
-11.0625
30
0
40
2.5
39
0
210
0
220
0
230
1
0
CIRCLE
5
74
100
AcDbEntity
8
1
62
256
6
ByLayer
370
-1
48
1
60
0
100
AcDbCircle
10
33.598237
20
-11.0625
30
0
40
1.65000000000001
39
0
210
0
220
0
230
1
0
CIRCLE
5
77
100
AcDbEntity
8
1
62
256
6
ByLayer
370
-1
48
1
60
0
100
AcDbCircle
10
33.598237
20
-11.0625
30
0
40
1.09999999999999
39
0
210
0
220
0
230
1
0
CIRCLE
5
78
100
AcDbEntity
8
1
62
256
6
ByLayer
370
-1
48
1
60
0
100
AcDbCircle
10
33.598237
20
-11.0625
30
0
40
1.70511785802135
39
0
210
0
220
0
230
1
0
CIRCLE
5
7A
100
AcDbEntity
8
1
62
256
6
ByLayer
370
-1
48
1
60
0
100
AcDbCircle
10
33.598237
20
-11.0625
30
0
40
1.60300459970381
39
0
210
0
220
0
230
1
0
CIRCLE
5
7F
100
AcDbEntity
8
1
62
256
6
ByLayer
370
-1
48
1
60
0
100
AcDbCircle
10
33.598237
20
-11.0625
30
0
40
1.55
39
0
210
0
220
0
230
1
0
POINT
5
41
100
AcDbEntity
8
81
62
256
6
ByLayer
370
-1
48
1
60
0
100
AcDbPoint
10
36.098237
20
-13.5625
30
0
39
0
210
0
220
0
230
1
50
360
0
POINT
5
43
100
AcDbEntity
8
SK2
62
256
6
ByLayer
370
-1
48
1
60
0
100
AcDbPoint
10
36.098237
20
36.973034
30
0
39
0
210
0
220
0
230
1
50
360
0
POINT
5
45
100
AcDbEntity
8
SK2
62
256
6
ByLayer
370
-1
48
1
60
0
100
AcDbPoint
10
36.098237
20
36.973034
30
0
39
0
210
0
220
0
230
1
50
360
0
POINT
5
46
100
AcDbEntity
8
SK2
62
256
6
ByLayer
370
-1
48
1
60
0
100
AcDbPoint
10
36.098237
20
36.973034
30
0
39
0
210
0
220
0
230
1
50
360
0
POINT
5
47
100
AcDbEntity
8
SK2
62
256
6
ByLayer
370
-1
48
1
60
0
100
AcDbPoint
10
36.098237
20
36.973034
30
0
39
0
210
0
220
0
230
1
50
360
0
POINT
5
48
100
AcDbEntity
8
80
62
256
6
ByLayer
370
-1
48
1
60
0
100
AcDbPoint
10
0
20
0
30
0
39
0
210
0
220
0
230
1
50
360
0
POINT
5
4A
100
AcDbEntity
8
2
62
256
6
ByLayer
370
-1
48
1
60
0
100
AcDbPoint
10
36.098237
20
36.973034
30
0
39
0
210
0
220
0
230
1
50
360
0
SPLINE
5
82
100
AcDbEntity
8
1
62
256
6
ByLayer
370
-1
48
1
60
0
100
AcDbSpline
70
4
71
3
72
18
73
14
40
0
40
0
40
0
40
0
40
0.213394464779728
40
0.213394464779728
40
0.389004322610657
40
0.389004322610657
40
0.566252444177944
40
0.566252444177944
40
0.721175490823016
40
0.721175490823016
40
0.927416435499117
40
0.927416435499117
40
1
40
1
40
1
40
1
41
1
10
34.20303756124
20
-11.7521769271104
30
0
41
1
10
34.1922376541481
20
-11.7101842474441
30
0
41
1
10
34.1876423213331
20
-11.6650675418846
30
0
41
1
10
34.1931212878618
20
-11.5817434861711
30
0
41
1
10
34.2009029871499
20
-11.5427932328056
30
0
41
1
10
34.2276068545826
20
-11.4678468594105
30
0
41
1
10
34.2471296874088
20
-11.4308186030718
30
0
41
1
10
34.291675808457
20
-11.3697659985924
30
0
41
1
10
34.3161827812101
20
-11.3439311831191
30
0
41
1
10
34.3771559632123
20
-11.2933770651113
30
0
41
1
10
34.4158581470913
20
-11.2708661670244
30
0
41
1
10
34.4694448507997
20
-11.2494899100725
30
0
41
1
10
34.4837081165487
20
-11.2446788296476
30
0
41
1
10
34.498068105559
20
-11.2406623976745
30
0
0
SPLINE
5
83
100
AcDbEntity
8
1
62
256
6
ByLayer
370
-1
48
1
60
0
100
AcDbSpline
70
4
71
3
72
12
73
8
40
0
40
0
40
0
40
0
40
0.377026254658597
40
0.377026254658597
40
0.761056299192282
40
0.761056299192282
40
1
40
1
40
1
40
1
41
1
10
33.570020434477
20
-10.3150323837775
30
0
41
1
10
33.5305928298082
20
-10.3123902072266
30
0
41
1
10
33.4913795919698
20
-10.3039897175768
30
0
41
1
10
33.4190056226491
20
-10.277997939237
30
0
41
1
10
33.3849607519721
20
-10.2599794377505
30
0
41
1
10
33.3359546306872
20
-10.2253766570945
30
0
41
1
10
33.3183987292107
20
-10.2106512506903
30
0
41
1
10
33.3023282893779
20
-10.1948457684602
30
0
0
SPLINE
5
84
100
AcDbEntity
8
1
62
256
6
ByLayer
370
-1
48
1
60
0
100
AcDbSpline
70
4
71
3
72
14
73
10
40
0
40
0
40
0
40
0
40
0.283738489034021
40
0.283738489034021
40
0.570489531030563
40
0.570489531030563
40
0.830294403552025
40
0.830294403552025
40
1
40
1
40
1
40
1
41
1
10
33.3023282893778
20
-11.9301542315472
30
0
41
1
10
33.2872439246009
20
-11.9449898964022
30
0
41
1
10
33.2690735804791
20
-11.9576414398749
30
0
41
1
10
33.2288172668612
20
-11.9759013198672
30
0
41
1
10
33.2060528852174
20
-11.9816798037076
30
0
41
1
10
33.1618974551724
20
-11.9841404217921
30
0
41
1
10
33.1399108876249
20
-11.9816259765616
30
0
41
1
10
33.1056121732172
20
-11.9712831102665
30
0
41
1
10
33.0923200745973
20
-11.9655376032986
30
0
41
1
10
33.0799679418
20
-11.9583919585915
30
0
0
SPLINE
5
85
100
AcDbEntity
8
1
62
256
6
ByLayer
370
-1
48
1
60
0
100
AcDbSpline
70
4
71
3
72
16
73
12
40
0
40
0
40
0
40
0
40
0.0670553612810095
40
0.0670553612810095
40
0.291697905104095
40
0.291697905104095
40
0.519329228663652
40
0.519329228663652
40
0.76153571502852
40
0.76153571502852
40
1
40
1
40
1
40
1
41
1
10
32.56323678954
20
-11.0625000000037
30
0
41
1
10
32.56323678954
20
-11.0568591223292
30
0
41
1
10
32.5634955658979
20
-11.0512110619592
30
0
41
1
10
32.5657243618429
20
-11.0269164035012
30
0
41
1
10
32.5703859712113
20
-11.0083234287137
30
0
41
1
10
32.5847043437456
20
-10.9739967387174
30
0
41
1
10
32.594595222725
20
-10.9578615517653
30
0
41
1
10
32.6186264451777
20
-10.9290844455828
30
0
41
1
10
32.6332839364415
20
-10.9163588860418
30
0
41
1
10
32.6644793155062
20
-10.8965285181807
30
0
41
1
10
32.6812990236249
20
-10.889122208523
30
0
41
1
10
32.698405473521
20
-10.8843376023329
30
0
0
SPLINE
5
86
100
AcDbEntity
8
1
62
256
6
ByLayer
370
-1
48
1
60
0
100
AcDbSpline
70
4
71
3
72
14
73
10
40
0
40
0
40
0
40
0
40
0.284523597312316
40
0.284523597312316
40
0.571736866218045
40
0.571736866218045
40
0.831999616286275
40
0.831999616286275
40
1
40
1
40
1
40
1
41
1
10
32.9934360178399
20
-10.3728230728971
30
0
41
1
10
32.9881649293768
20
-10.3523277920173
30
0
41
1
10
32.9863324165796
20
-10.33025502304
30
0
41
1
10
32.9907280030389
20
-10.2862807533693
30
0
41
1
10
32.9971395164592
20
-10.2637073100883
30
0
41
1
10
33.0171307646405
20
-10.2243011087672
30
0
41
1
10
33.0303157147453
20
-10.2065518403082
30
0
41
1
10
33.056306962182
20
-10.182189343504
30
0
41
1
10
33.0677739801909
20
-10.1736621849117
30
0
41
1
10
33.0799679417999
20
-10.1666080414159
30
0
0
SPLINE
5
87
100
AcDbEntity
8
1
62
256
6
ByLayer
370
-1
48
1
60
0
100
AcDbSpline
70
4
71
3
72
14
73
10
40
0
40
0
40
0
40
0
40
0.2845235973123
40
0.2845235973123
40
0.571736866218016
40
0.571736866218016
40
0.83199961628625
40
0.83199961628625
40
1
40
1
40
1
40
1
41
1
10
34.2030375612401
20
-11.7521769271104
30
0
41
1
10
34.2083086497032
20
-11.7726722079902
30
0
41
1
10
34.2101411625004
20
-11.7947449769675
30
0
41
1
10
34.2057455760411
20
-11.8387192466382
30
0
41
1
10
34.1993340626207
20
-11.8612926899192
30
0
41
1
10
34.1793428144394
20
-11.9006988912403
30
0
41
1
10
34.1661578643347
20
-11.9184481596993
30
0
41
1
10
34.1401666168979
20
-11.9428106565035
30
0
41
1
10
34.1286995988891
20
-11.9513378150958
30
0
41
1
10
34.11650563728
20
-11.9583919585915
30
0
0
SPLINE
5
88
100
AcDbEntity
8
1
62
256
6
ByLayer
370
-1
48
1
60
0
100
AcDbSpline
70
4
71
3
72
18
73
14
40
0
40
0
40
0
40
0
40
0.213393079737837
40
0.213393079737837
40
0.38900317749608
40
0.38900317749608
40
0.56625155526083
40
0.56625155526083
40
0.721174645896086
40
0.721174645896086
40
0.927415342090001
40
0.927415342090001
40
1
40
1
40
1
40
1
41
1
10
32.698405473521
20
-11.2406623976745
30
0
41
1
10
32.7401618776703
20
-11.2523414983051
30
0
41
1
10
32.7815155302742
20
-11.2709554942368
30
0
41
1
10
32.850896819377
20
-11.3174216852233
30
0
41
1
10
32.8807154583539
20
-11.3436615187853
30
0
41
1
10
32.9322171481933
20
-11.4043051157299
30
0
41
1
10
32.954492836625
20
-11.4397456508468
30
0
41
1
10
32.9850337137748
20
-11.5088762789327
30
0
41
1
10
32.9951245923289
20
-11.5430260230984
30
0
41
1
10
33.008352256185
20
-11.6211187441518
30
0
41
1
10
33.0084578268014
20
-11.6658913349745
30
0
41
1
10
33.0001279377362
20
-11.7229799895667
30
0
41
1
10
32.9971501279288
20
-11.7377355588762
30
0
41
1
10
32.9934360178399
20
-11.7521769271104
30
0
0
SPLINE
5
89
100
AcDbEntity
8
1
62
256
6
ByLayer
370
-1
48
1
60
0
100
AcDbSpline
70
4
71
3
72
14
73
10
40
0
40
0
40
0
40
0
40
0.284519249123248
40
0.284519249123248
40
0.571733062184519
40
0.571733062184519
40
0.831996244286517
40
0.831996244286517
40
1
40
1
40
1
40
1
41
1
10
34.498068105559
20
-10.8843376023329
30
0
41
1
10
34.5184478899878
20
-10.8900377472094
30
0
41
1
10
34.5384713057609
20
-10.8995041061996
30
0
41
1
10
34.5743340840286
20
-10.9253283232144
30
0
41
1
10
34.5906631599401
20
-10.9421815299244
30
0
41
1
10
34.6147627568275
20
-10.9792181760944
30
0
41
1
10
34.6235242953147
20
-10.9995188213075
30
0
41
1
10
34.6315976748948
20
-11.0342163532123
30
0
41
1
10
34.63323678954
20
-11.0484123608917
30
0
41
1
10
34.63323678954
20
-11.0625000000037
30
0
0
SPLINE
5
8A
100
AcDbEntity
8
1
62
256
6
ByLayer
370
-1
48
1
60
0
100
AcDbSpline
70
4
71
3
72
16
73
12
40
0
40
0
40
0
40
0
40
0.0650212293341553
40
0.0650212293341553
40
0.289691523269223
40
0.289691523269223
40
0.51723642232599
40
0.51723642232599
40
0.759263521180739
40
0.759263521180739
40
1
40
1
40
1
40
1
41
1
10
33.0799679418
20
-11.9583919585915
30
0
41
1
10
33.0752323300568
20
-11.9556524317792
30
0
41
1
10
33.0706129122518
20
-11.9526989583789
30
0
41
1
10
33.0507965063932
20
-11.9387547735312
30
0
41
1
10
33.0369960645785
20
-11.9254430422267
30
0
41
1
10
33.0143715880666
20
-11.8959176112329
30
0
41
1
10
33.0053135335544
20
-11.8793020281719
30
0
41
1
10
32.9923456740562
20
-11.8441336386298
30
0
41
1
10
32.9886188584648
20
-11.8250911648745
30
0
41
1
10
32.9869630874757
20
-11.7879921051218
30
0
41
1
10
32.9889702086945
20
-11.7695410850886
30
0
41
1
10
32.9934360178399
20
-11.7521769271104
30
0
0
SPLINE
5
8B
100
AcDbEntity
8
1
62
256
6
ByLayer
370
-1
48
1
60
0
100
AcDbSpline
70
4
71
3
72
12
73
8
40
0
40
0
40
0
40
0
40
0.377026254864889
40
0.377026254864889
40
0.761056299431677
40
0.761056299431677
40
1
40
1
40
1
40
1
41
1
10
33.6264531446029
20
-11.80996761623
30
0
41
1
10
33.6658807492932
20
-11.8126097927824
30
0
41
1
10
33.7050939871529
20
-11.82101028244
30
0
41
1
10
33.7774679564904
20
-11.847002060798
30
0
41
1
10
33.8115128271663
20
-11.8650205622907
30
0
41
1
10
33.8605189484278
20
-11.8996233429423
30
0
41
1
10
33.8780748498853
20
-11.9143487493329
30
0
41
1
10
33.8941452897021
20
-11.9301542315472
30
0
0
SPLINE
5
8C
100
AcDbEntity
8
1
62
256
6
ByLayer
370
-1
48
1
60
0
100
AcDbSpline
70
4
71
3
72
16
73
12
40
0
40
0
40
0
40
0
40
0.0650212293342778
40
0.0650212293342778
40
0.28969152326936
40
0.28969152326936
40
0.51723642232599
40
0.51723642232599
40
0.759263521180792
40
0.759263521180792
40
1
40
1
40
1
40
1
41
1
10
34.11650563728
20
-10.1666080414159
30
0
41
1
10
34.1212412490232
20
-10.1693475682283
30
0
41
1
10
34.1258606668282
20
-10.1723010416285
30
0
41
1
10
34.1456770726868
20
-10.1862452264763
30
0
41
1
10
34.1594775145014
20
-10.1995569577808
30
0
41
1
10
34.1821019910134
20
-10.2290823887746
30
0
41
1
10
34.1911600455255
20
-10.2456979718356
30
0
41
1
10
34.2041279050238
20
-10.2808663613777
30
0
41
1
10
34.2078547206151
20
-10.2999088351329
30
0
41
1
10
34.2095104916042
20
-10.3370078948857
30
0
41
1
10
34.2075033703854
20
-10.3554589149189
30
0
41
1
10
34.20303756124
20
-10.3728230728971
30
0
0
SPLINE
5
8D
100
AcDbEntity
8
1
62
256
6
ByLayer
370
-1
48
1
60
0
100
AcDbSpline
70
4
71
3
72
16
73
12
40
0
40
0
40
0
40
0
40
0.0670553612812053
40
0.0670553612812053
40
0.291697905104343
40
0.291697905104343
40
0.519329228663829
40
0.519329228663829
40
0.761535715028812
40
0.761535715028812
40
1
40
1
40
1
40
1
41
1
10
34.63323678954
20
-11.0625000000037
30
0
41
1
10
34.63323678954
20
-11.0681408776783
30
0
41
1
10
34.632978013182
20
-11.0737889380484
30
0
41
1
10
34.630749217237
20
-11.0980835965063
30
0
41
1
10
34.6260876078687
20
-11.1166765712938
30
0
41
1
10
34.6117692353343
20
-11.1510032612901
30
0
41
1
10
34.6018783563549
20
-11.1671384482422
30
0
41
1
10
34.5778471339022
20
-11.1959155544247
30
0
41
1
10
34.5631896426384
20
-11.2086411139657
30
0
41
1
10
34.5319942635738
20
-11.2284714818268
30
0
41
1
10
34.515174555455
20
-11.2358777914845
30
0
41
1
10
34.498068105559
20
-11.2406623976745
30
0
0
SPLINE
5
8E
100
AcDbEntity
8
1
62
256
6
ByLayer
370
-1
48
1
60
0
100
AcDbSpline
70
4
71
3
72
14
73
10
40
0
40
0
40
0
40
0
40
0.284519249123141
40
0.284519249123141
40
0.571733062184421
40
0.571733062184421
40
0.831996244286462
40
0.831996244286462
40
1
40
1
40
1
40
1
41
1
10
32.698405473521
20
-11.2406623976745
30
0
41
1
10
32.6780256890922
20
-11.2349622527981
30
0
41
1
10
32.6580022733191
20
-11.2254958938079
30
0
41
1
10
32.6221394950514
20
-11.1996716767931
30
0
41
1
10
32.6058104191398
20
-11.1828184700831
30
0
41
1
10
32.5817108222525
20
-11.1457818239132
30
0
41
1
10
32.5729492837652
20
-11.1254811787
30
0
41
1
10
32.5648759041851
20
-11.0907836467952
30
0
41
1
10
32.56323678954
20
-11.0765876391158
30
0
41
1
10
32.56323678954
20
-11.0625000000037
30
0
0
SPLINE
5
8F
100
AcDbEntity
8
1
62
256
6
ByLayer
370
-1
48
1
60
0
100
AcDbSpline
70
4
71
3
72
16
73
12
40
0
40
0
40
0
40
0
40
0.066863848845404
40
0.066863848845404
40
0.290854271538491
40
0.290854271538491
40
0.51782497397123
40
0.51782497397123
40
0.75932867428108
40
0.75932867428108
40
1
40
1
40
1
40
1
41
1
10
33.0799679417999
20
-10.1666080414159
30
0
41
1
10
33.0848508906152
20
-10.1637832808723
30
0
41
1
10
33.0898696501099
20
-10.1611789398523
30
0
41
1
10
33.1120153413414
20
-10.1509427872296
30
0
41
1
10
33.1304436289002
20
-10.1456676393149
30
0
41
1
10
33.1673265144656
20
-10.1408728750668
30
0
41
1
10
33.186245856182
20
-10.1413548807487
30
0
41
1
10
33.2231886561475
20
-10.1477464391214
30
0
41
1
10
33.2415434682315
20
-10.1540617552929
30
0
41
1
10
33.2745236335458
20
-10.1712357539823
30
0
41
1
10
33.2895171384879
20
-10.1822458384121
30
0
41
1
10
33.3023282893778
20
-10.1948457684602
30
0
0
SPLINE
5
90
100
AcDbEntity
8
1
62
256
6
ByLayer
370
-1
48
1
60
0
100
AcDbSpline
70
4
71
3
72
12
73
8
40
0
40
0
40
0
40
0
40
0.464379035261974
40
0.464379035261974
40
0.846391164398725
40
0.846391164398725
40
1
40
1
40
1
40
1
41
1
10
33.3023282893779
20
-11.9301542315472
30
0
41
1
10
33.3332760073925
20
-11.8997167567656
30
0
41
1
10
33.3700458192554
20
-11.8730933376675
30
0
41
1
10
33.4449569109387
20
-11.836037772718
30
0
41
1
10
33.4825878121016
20
-11.8232419711202
30
0
41
1
10
33.537509269393
20
-11.8131035014013
30
0
41
1
10
33.5537295084495
20
-11.8110593260385
30
0
41
1
10
33.570020434477
20
-11.80996761623
30
0
0
SPLINE
5
91
100
AcDbEntity
8
1
62
256
6
ByLayer
370
-1
48
1
60
0
100
AcDbSpline
70
4
71
3
72
18
73
14
40
0
40
0
40
0
40
0
40
0.213394464779724
40
0.213394464779724
40
0.38900432261068
40
0.38900432261068
40
0.566252444178
40
0.566252444178
40
0.721175490823073
40
0.721175490823073
40
0.927416435499243
40
0.927416435499243
40
1
40
1
40
1
40
1
41
1
10
32.9934360178399
20
-10.3728230728971
30
0
41
1
10
33.0042359249319
20
-10.4148157525634
30
0
41
1
10
33.0088312577468
20
-10.4599324581228
30
0
41
1
10
33.0033522912182
20
-10.5432565138364
30
0
41
1
10
32.9955705919301
20
-10.5822067672019
30
0
41
1
10
32.9688667244973
20
-10.657153140597
30
0
41
1
10
32.9493438916711
20
-10.6941813969357
30
0
41
1
10
32.9047977706229
20
-10.7552340014151
30
0
41
1
10
32.8802907978698
20
-10.7810688168884
30
0
41
1
10
32.8193176158676
20
-10.8316229348962
30
0
41
1
10
32.7806154319887
20
-10.8541338329831
30
0
41
1
10
32.7270287282802
20
-10.8755100899349
30
0
41
1
10
32.7127654625312
20
-10.8803211703599
30
0
41
1
10
32.698405473521
20
-10.8843376023329
30
0
0
SPLINE
5
92
100
AcDbEntity
8
1
62
256
6
ByLayer
370
-1
48
1
60
0
100
AcDbSpline
70
4
71
3
72
14
73
10
40
0
40
0
40
0
40
0
40
0.28373848903415
40
0.28373848903415
40
0.57048953103078
40
0.57048953103078
40
0.830294403552132
40
0.830294403552132
40
1
40
1
40
1
40
1
41
1
10
33.8941452897021
20
-10.1948457684602
30
0
41
1
10
33.909229654479
20
-10.1800101036052
30
0
41
1
10
33.9273999986008
20
-10.1673585601326
30
0
41
1
10
33.9676563122188
20
-10.1490986801402
30
0
41
1
10
33.9904206938626
20
-10.1433201962999
30
0
41
1
10
34.0345761239076
20
-10.1408595782154
30
0
41
1
10
34.0565626914551
20
-10.1433740234459
30
0
41
1
10
34.0908614058628
20
-10.1537168897409
30
0
41
1
10
34.1041535044826
20
-10.1594623967089
30
0
41
1
10
34.11650563728
20
-10.1666080414159
30
0
0
SPLINE
5
93
100
AcDbEntity
8
1
62
256
6
ByLayer
370
-1
48
1
60
0
100
AcDbSpline
70
4
71
3
72
12
73
8
40
0
40
0
40
0
40
0
40
0.464379035262528
40
0.464379035262528
40
0.846391164399748
40
0.846391164399748
40
1
40
1
40
1
40
1
41
1
10
33.8941452897021
20
-10.1948457684602
30
0
41
1
10
33.8631975716875
20
-10.2252832432419
30
0
41
1
10
33.8264277598246
20
-10.25190666234
30
0
41
1
10
33.7515166681413
20
-10.2889622272895
30
0
41
1
10
33.7138857669784
20
-10.3017580288872
30
0
41
1
10
33.658964309687
20
-10.3118964986062
30
0
41
1
10
33.6427440706306
20
-10.313940673969
30
0
41
1
10
33.626453144603
20
-10.3150323837775
30
0
0
SPLINE
5
94
100
AcDbEntity
8
1
62
256
6
ByLayer
370
-1
48
1
60
0
100
AcDbSpline
70
4
71
3
72
18
73
14
40
0
40
0
40
0
40
0
40
0.213393079737859
40
0.213393079737859
40
0.389003177496082
40
0.389003177496082
40
0.566251555260796
40
0.566251555260796
40
0.721174645896053
40
0.721174645896053
40
0.927415342089928
40
0.927415342089928
40
1
40
1
40
1
40
1
41
1
10
34.498068105559
20
-10.8843376023329
30
0
41
1
10
34.4563117014097
20
-10.8726585017024
30
0
41
1
10
34.4149580488058
20
-10.8540445057707
30
0
41
1
10
34.345576759703
20
-10.8075783147842
30
0
41
1
10
34.3157581207261
20
-10.7813384812222
30
0
41
1
10
34.2642564308867
20
-10.7206948842776
30
0
41
1
10
34.241980742455
20
-10.6852543491607
30
0
41
1
10
34.2114398653052
20
-10.6161237210748
30
0
41
1
10
34.2013489867511
20
-10.5819739769091
30
0
41
1
10
34.1881213228949
20
-10.5038812558557
30
0
41
1
10
34.1880157522786
20
-10.459108665033
30
0
41
1
10
34.1963456413437
20
-10.4020200104408
30
0
41
1
10
34.1993234511511
20
-10.3872644411313
30
0
41
1
10
34.2030375612401
20
-10.3728230728971
30
0
0
SPLINE
5
95
100
AcDbEntity
8
1
62
256
6
ByLayer
370
-1
48
1
60
0
100
AcDbSpline
70
4
71
3
72
16
73
12
40
0
40
0
40
0
40
0
40
0.066863848845399
40
0.066863848845399
40
0.2908542715385
40
0.2908542715385
40
0.51782497397137
40
0.51782497397137
40
0.759328674281106
40
0.759328674281106
40
1
40
1
40
1
40
1
41
1
10
34.11650563728
20
-11.9583919585915
30
0
41
1
10
34.1116226884648
20
-11.9612167191352
30
0
41
1
10
34.10660392897
20
-11.9638210601552
30
0
41
1
10
34.0844582377385
20
-11.9740572127778
30
0
41
1
10
34.0660299501798
20
-11.9793323606926
30
0
41
1
10
34.0291470646143
20
-11.9841271249406
30
0
41
1
10
34.0102277228979
20
-11.9836451192587
30
0
41
1
10
33.9732849229324
20
-11.9772535608861
30
0
41
1
10
33.9549301108485
20
-11.9709382447145
30
0
41
1
10
33.9219499455341
20
-11.9537642460252
30
0
41
1
10
33.906956440592
20
-11.9427541615954
30
0
41
1
10
33.8941452897021
20
-11.9301542315472
30
0
0
INSERT
5
C9
100
AcDbEntity
8
SK2
62
256
6
ByLayer
370
-1
48
1
60
0
100
AcDbBlockReference
2
DimnDraft3D11
10
0
20
0
30
0
41
1
42
1
43
1
50
0
210
0
220
0
230
1
0
LINE
5
4C
100
AcDbEntity
8
81
62
256
6
ByLayer
370
-1
48
1
60
0
100
AcDbLine
10
36.098237
20
-13.5625
30
0
11
46.098237
21
-13.5625
31
0
39
0
210
0
220
0
230
1
0
LINE
5
4D
100
AcDbEntity
8
80
62
256
6
ByLayer
370
-1
48
1
60
0
100
AcDbLine
10
0
20
0
30
0
11
-5
21
0
31
0
39
0
210
0
220
0
230
1
0
LINE
5
4E
100
AcDbEntity
8
1
62
256
6
ByLayer
370
-1
48
1
60
0
100
AcDbLine
10
0.675
20
-13.1125
30
0
11
0
21
-12.4375
31
0
39
0
210
0
220
0
230
1
0
LINE
5
50
100
AcDbEntity
8
1
62
256
6
ByLayer
370
-1
48
1
60
0
100
AcDbLine
10
32.048237
20
-9.0125
30
0
11
31.948237
21
-9.0125
31
0
39
0
210
0
220
0
230
1
0
LINE
5
51
100
AcDbEntity
8
1
62
256
6
ByLayer
370
-1
48
1
60
0
100
AcDbLine
10
32.048237
20
-13.1125
30
0
11
32.167345
21
-13.1125
31
0
39
0
210
0
220
0
230
1
0
LINE
5
52
100
AcDbEntity
8
1
62
256
6
ByLayer
370
-1
48
1
60
0
100
AcDbLine
10
31.854006
20
-9.271502
30
0
11
31.854006
21
-9.0125
31
0
39
0
210
0
220
0
230
1
0
LINE
5
53
100
AcDbEntity
8
1
62
256
6
ByLayer
370
-1
48
1
60
0
100
AcDbLine
10
31.854006
20
-9.0125
30
0
11
31.948237
21
-9.0125
31
0
39
0
210
0
220
0
230
1
0
LINE
5
54
100
AcDbEntity
8
1
62
256
6
ByLayer
370
-1
48
1
60
0
100
AcDbLine
10
31.854006
20
-13.1125
30
0
11
31.854006
21
-12.853498
31
0
39
0
210
0
220
0
230
1
0
LINE
5
55
100
AcDbEntity
8
1
62
256
6
ByLayer
370
-1
48
1
60
0
100
AcDbLine
10
30.017237
20
-9.0125
30
0
11
18.594484
21
-9.0125
31
0
39
0
210
0
220
0
230
1
0
LINE
5
56
100
AcDbEntity
8
1
62
256
6
ByLayer
370
-1
48
1
60
0
100
AcDbLine
10
30.098237
20
-13.1125
30
0
11
30.098237
21
-9.0125
31
0
39
0
210
0
220
0
230
1
0
LINE
5
57
100
AcDbEntity
8
1
62
256
6
ByLayer
370
-1
48
1
60
0
100
AcDbLine
10
9.761025
20
-3.9125
30
0
11
0.321348
21
12.4375
31
0
39
0
210
0
220
0
230
1
0
LINE
5
58
100
AcDbEntity
8
1
62
256
6
ByLayer
370
-1
48
1
60
0
100
AcDbLine
10
30.098237
20
-9.0125
30
0
11
30.017237
21
-9.0125
31
0
39
0
210
0
220
0
230
1
0
LINE
5
59
100
AcDbEntity
8
1
62
256
6
ByLayer
370
-1
48
1
60
0
100
AcDbLine
10
31.854006
20
-13.1125
30
0
11
31.948237
21
-13.1125
31
0
39
0
210
0
220
0
230
1
0
LINE
5
5A
100
AcDbEntity
8
1
62
256
6
ByLayer
370
-1
48
1
60
0
100
AcDbLine
10
32.048237
20
-9.0125
30
0
11
32.167345
21
-9.0125
31
0
39
0
210
0
220
0
230
1
0
LINE
5
5B
100
AcDbEntity
8
1
62
256
6
ByLayer
370
-1
48
1
60
0
100
AcDbLine
10
31.854006
20
-13.1125
30
0
11
30.098237
21
-13.1125
31
0
39
0
210
0
220
0
230
1
0
LINE
5
5C
100
AcDbEntity
8
1
62
256
6
ByLayer
370
-1
48
1
60
0
100
AcDbLine
10
32.048237
20
-13.024002
30
0
11
32.048237
21
-13.1125
31
0
39
0
210
0
220
0
230
1
0
LINE
5
5D
100
AcDbEntity
8
1
62
256
6
ByLayer
370
-1
48
1
60
0
100
AcDbLine
10
30.017237
20
-13.1125
30
0
11
0.675
21
-13.1125
31
0
39
0
210
0
220
0
230
1
0
LINE
5
5E
100
AcDbEntity
8
1
62
256
6
ByLayer
370
-1
48
1
60
0
100
AcDbLine
10
31.948237
20
-9.184332
30
0
11
31.948237
21
-9.0125
31
0
39
0
210
0
220
0
230
1
0
LINE
5
5F
100
AcDbEntity
8
1
62
256
6
ByLayer
370
-1
48
1
60
0
100
AcDbLine
10
32.048237
20
-13.1125
30
0
11
31.948237
21
-13.1125
31
0
39
0
210
0
220
0
230
1
0
LINE
5
60
100
AcDbEntity
8
1
62
256
6
ByLayer
370
-1
48
1
60
0
100
AcDbLine
10
0
20
12.4375
30
0
11
0.321348
21
12.4375
31
0
39
0
210
0
220
0
230
1
0
LINE
5
61
100
AcDbEntity
8
1
62
256
6
ByLayer
370
-1
48
1
60
0
100
AcDbLine
10
31.854006
20
-9.0125
30
0
11
30.098237
21
-9.0125
31
0
39
0
210
0
220
0
230
1
0
LINE
5
62
100
AcDbEntity
8
1
62
256
6
ByLayer
370
-1
48
1
60
0
100
AcDbLine
10
31.948237
20
-13.1125
30
0
11
31.948237
21
-12.940668
31
0
39
0
210
0
220
0
230
1
0
LINE
5
63
100
AcDbEntity
8
1
62
256
6
ByLayer
370
-1
48
1
60
0
100
AcDbLine
10
30.098237
20
-13.1125
30
0
11
30.017237
21
-13.1125
31
0
39
0
210
0
220
0
230
1
0
LINE
5
64
100
AcDbEntity
8
1
62
256
6
ByLayer
370
-1
48
1
60
0
100
AcDbLine
10
0
20
-12.4375
30
0
11
0
21
12.4375
31
0
39
0
210
0
220
0
230
1
0
LINE
5
65
100
AcDbEntity
8
1
62
256
6
ByLayer
370
-1
48
1
60
0
100
AcDbLine
10
30.017237
20
-13.1125
30
0
11
30.017237
21
-9.0125
31
0
39
0
210
0
220
0
230
1
0
LINE
5
66
100
AcDbEntity
8
1
62
256
6
ByLayer
370
-1
48
1
60
0
100
AcDbLine
10
32.048237
20
-9.0125
30
0
11
32.048237
21
-9.100998
31
0
39
0
210
0
220
0
230
1
0
LINE
5
67
100
AcDbEntity
8
SK1
62
256
6
ByLayer
370
-1
48
1
60
0
100
AcDbLine
10
0
20
-12.4375
30
0
11
-135.251763
21
-12.4375
31
0
39
0
210
0
220
0
230
1
0
LINE
5
69
100
AcDbEntity
8
SK1
62
256
6
ByLayer
370
-1
48
1
60
0
100
AcDbLine
10
-135.251763
20
12.4375
30
0
11
0
21
12.4375
31
0
39
0
210
0
220
0
230
1
0
LINE
5
6A
100
AcDbEntity
8
SK1
62
256
6
ByLayer
370
-1
48
1
60
0
100
AcDbLine
10
0
20
-12.4375
30
0
11
0
21
12.4375
31
0
39
0
210
0
220
0
230
1
0
LINE
5
6B
100
AcDbEntity
8
SK1
62
256
6
ByLayer
370
-1
48
1
60
0
100
AcDbLine
10
-135.251763
20
-12.4375
30
0
11
-135.251763
21
12.4375
31
0
39
0
210
0
220
0
230
1
0
MTEXT
5
96
100
AcDbEntity
8
SK6
62
256
6
ByLayer
370
-1
48
1
60
0
100
AcDbMText
10
-76.09301
20
26.383341
30
0
210
0
220
0
230
1
1
\W00.760;\fsimplex.shx,bigfont.shx;SRDCL 3225P 05-A 
40
3.5
41
0
44
1.084337
50
0
71
7
72
5
7
DEFAULT
0
DIMENSION
5
D7
100
AcDbEntity
8
2
62
256
6
ByLayer
370
-3
48
1
60
0
100
AcDbDimension
2
DimnDraft3D2
10
36.098237
20
20.1875
30
0
11
23.469289
21
20.1875
31
0
70
32
71
5
72
1
41
1
210
0
220
0
230
1
3
Standard
100
AcDbAlignedDimension
13
16.098237
23
-6.5625
33
0
14
36.098237
24
-7.320843
34
0
50
0
100
AcDbRotatedDimension
1001
ACAD
1000
DSTYLE
1002
{
1070
   279
1070
     0
1070
   172
1070
     1
1070
   173
1070
     1
1070
   340
1005
97
1070
    77
1070
     1
1070
    73
1070
     0
1070
   171
1070
     3
1070
   274
1070
     4
1070
   177
1070
     2
1070
   176
1070
     2
1070
   178
1070
     7
1070
    78
1070
     8
1070
    41
1041
3.175
1070
   147
1041
2.25
1070
    42
1041
2.0
1070
    44
1041
2.0
1070
   140
1041
4.5
1070
   343
1005
D8
1070
   344
1005
D8
1002
}
0
DIMENSION
5
EC
100
AcDbEntity
8
2
62
256
6
ByLayer
370
-3
48
1
60
0
100
AcDbDimension
2
DimnDraft3D3
10
50.348237
20
-13.5625
30
0
11
50.348237
21
-7.377632
31
0
70
32
71
5
72
1
41
1
210
0
220
0
230
1
3
Standard
100
AcDbAlignedDimension
13
2
23
12.4375
33
0
14
38.098237
24
-13.5625
34
0
50
90
100
AcDbRotatedDimension
1001
ACAD
1000
DSTYLE
1002
{
1070
    74
1070
     0
1070
   279
1070
     0
1070
   172
1070
     1
1070
   173
1070
     1
1070
   340
1005
97
1070
    77
1070
     1
1070
    73
1070
     0
1070
   171
1070
     3
1070
   274
1070
     4
1070
   177
1070
     2
1070
   176
1070
     2
1070
   178
1070
     7
1070
    78
1070
     8
1070
    41
1041
3.175
1070
   147
1041
2.25
1070
    42
1041
2.0
1070
    44
1041
2.0
1070
   140
1041
4.5
1070
   343
1005
D8
1070
   344
1005
D8
1002
}
0
DIMENSION
5
FA
100
AcDbEntity
8
SK2
62
256
6
ByLayer
370
-3
48
1
60
0
100
AcDbDimension
2
DimnDraft3D4
10
-145.001763
20
-12.4375
30
0
11
-145.001763
21
-2.628947
31
0
70
32
71
5
72
1
41
1
210
0
220
0
230
1
3
Standard
100
AcDbAlignedDimension
13
-137.251763
23
12.4375
33
0
14
-137.251763
24
-12.4375
34
0
50
90
100
AcDbRotatedDimension
1001
ACAD
1000
DSTYLE
1002
{
1070
    74
1070
     0
1070
   279
1070
     0
1070
   172
1070
     1
1070
   173
1070
     1
1070
   340
1005
97
1070
    77
1070
     1
1070
    73
1070
     0
1070
   171
1070
     3
1070
   274
1070
     4
1070
   177
1070
     2
1070
   176
1070
     2
1070
   178
1070
     7
1070
    78
1070
     8
1070
    41
1041
3.175
1070
   147
1041
2.25
1070
    42
1041
2.0
1070
    44
1041
2.0
1070
   140
1041
4.5
1070
   343
1005
D8
1070
   344
1005
D8
1002
}
0
ENDSEC
0
SECTION
2
OBJECTS
0
DICTIONARY
5
12a
330
0
100
AcDbDictionary
280
0
281
1
3
ACAD_GROUP
350
12b
3
ACAD_MLINESTYLE
350
12c
0
DICTIONARY
5
12b
330
0
100
AcDbDictionary
280
0
281
1
0
DICTIONARY
5
12c
330
0
100
AcDbDictionary
280
0
281
1
3
Standard
350
18
0
MLINESTYLE
5
18
330
12c
100
AcDbMlineStyle
2
Standard
70
0
3

62
256
51
90
52
90
71
2
49
-0.5
62
256
6
ByLayer
49
0.5
62
256
6
ByLayer
0
RASTERVARIABLES
5
119
330

100
AcDbRasterVariables
90
0
70
1
71
1
72
1
0
ENDSEC
0
EOF
