  0
SECTION
  2
HEADER
  9
$ACADVER
  1
AC1015
  9
$ACADMAINTVER
 70
    20
  9
$DWGCODEPAGE
  3
ANSI_1252
  9
$INSBASE
 10
0.0
 20
0.0
 30
0.0
  9
$EXTMIN
 10
-23.46887475
 20
-124.8237878916765
 30
0.0
  9
$EXTMAX
 10
28.237296
 20
20.0
 30
0.0
  9
$LIMMIN
 10
0.0
 20
0.0
  9
$LIMMAX
 10
12.0
 20
9.0
  9
$ORTHOMODE
 70
     0
  9
$REGENMODE
 70
     1
  9
$FILLMODE
 70
     1
  9
$QTEXTMODE
 70
     0
  9
$MIRRTEXT
 70
     0
  9
$LTSCALE
 40
1.0
  9
$ATTMODE
 70
     1
  9
$TEXTSIZE
 40
0.0
  9
$TRACEWID
 40
0.05
  9
$TEXTSTYLE
  7
Standard
  9
$CLAYER
  8
0
  9
$CELTYPE
  6
ByLayer
  9
$CECOLOR
 62
   256
  9
$CELTSCALE
 40
1.0
  9
$DISPSILH
 70
     0
  9
$DIMSCALE
 40
1.0
  9
$DIMASZ
 40
0.18
  9
$DIMEXO
 40
0.0625
  9
$DIMDLI
 40
0.38
  9
$DIMRND
 40
0.0
  9
$DIMDLE
 40
0.0
  9
$DIMEXE
 40
0.18
  9
$DIMTP
 40
0.0
  9
$DIMTM
 40
0.0
  9
$DIMTXT
 40
0.18
  9
$DIMCEN
 40
0.09
  9
$DIMTSZ
 40
0.0
  9
$DIMTOL
 70
     0
  9
$DIMLIM
 70
     0
  9
$DIMTIH
 70
     1
  9
$DIMTOH
 70
     1
  9
$DIMSE1
 70
     0
  9
$DIMSE2
 70
     0
  9
$DIMTAD
 70
     0
  9
$DIMZIN
 70
     0
  9
$DIMBLK
  1

  9
$DIMASO
 70
     1
  9
$DIMSHO
 70
     1
  9
$DIMPOST
  1

  9
$DIMAPOST
  1

  9
$DIMALT
 70
     0
  9
$DIMALTD
 70
     2
  9
$DIMALTF
 40
25.4
  9
$DIMLFAC
 40
1.0
  9
$DIMTOFL
 70
     0
  9
$DIMTVP
 40
0.0
  9
$DIMTIX
 70
     0
  9
$DIMSOXD
 70
     0
  9
$DIMSAH
 70
     0
  9
$DIMBLK1
  1

  9
$DIMBLK2
  1

  9
$DIMSTYLE
  2
Standard
  9
$DIMCLRD
 70
     0
  9
$DIMCLRE
 70
     0
  9
$DIMCLRT
 70
     0
  9
$DIMTFAC
 40
1.0
  9
$DIMGAP
 40
0.09
  9
$DIMJUST
 70
     0
  9
$DIMSD1
 70
     0
  9
$DIMSD2
 70
     0
  9
$DIMTOLJ
 70
     1
  9
$DIMTZIN
 70
     0
  9
$DIMALTZ
 70
     0
  9
$DIMALTTZ
 70
     0
  9
$DIMUPT
 70
     0
  9
$DIMDEC
 70
     4
  9
$DIMTDEC
 70
     4
  9
$DIMALTU
 70
     2
  9
$DIMALTTD
 70
     2
  9
$DIMTXSTY
  7
Standard
  9
$DIMAUNIT
 70
     0
  9
$DIMADEC
 70
     0
  9
$DIMALTRND
 40
0.0
  9
$DIMAZIN
 70
     0
  9
$DIMDSEP
 70
    46
  9
$DIMATFIT
 70
     3
  9
$DIMFRAC
 70
     0
  9
$DIMLDRBLK
  1

  9
$DIMLUNIT
 70
     2
  9
$DIMLWD
 70
    -2
  9
$DIMLWE
 70
    -2
  9
$DIMTMOVE
 70
     0
  9
$LUNITS
 70
     2
  9
$LUPREC
 70
     4
  9
$SKETCHINC
 40
0.1
  9
$FILLETRAD
 40
0.0
  9
$AUNITS
 70
     0
  9
$AUPREC
 70
     0
  9
$MENU
  1
.
  9
$ELEVATION
 40
0.0
  9
$PELEVATION
 40
0.0
  9
$THICKNESS
 40
0.0
  9
$LIMCHECK
 70
     0
  9
$CHAMFERA
 40
0.0
  9
$CHAMFERB
 40
0.0
  9
$CHAMFERC
 40
0.0
  9
$CHAMFERD
 40
0.0
  9
$SKPOLY
 70
     0
  9
$TDCREATE
 40
2456819.312859294
  9
$TDUCREATE
 40
2456819.229525961
  9
$TDUPDATE
 40
2456819.312866100
  9
$TDUUPDATE
 40
2456819.229532766
  9
$TDINDWG
 40
0.0000076505
  9
$TDUSRTIMER
 40
0.0000076505
  9
$USRTIMER
 70
     1
  9
$ANGBASE
 50
0.0
  9
$ANGDIR
 70
     0
  9
$PDMODE
 70
     0
  9
$PDSIZE
 40
0.0
  9
$PLINEWID
 40
0.0
  9
$SPLFRAME
 70
     0
  9
$SPLINETYPE
 70
     6
  9
$SPLINESEGS
 70
     8
  9
$HANDSEED
  5
2BF
  9
$SURFTAB1
 70
     6
  9
$SURFTAB2
 70
     6
  9
$SURFTYPE
 70
     6
  9
$SURFU
 70
     6
  9
$SURFV
 70
     6
  9
$UCSBASE
  2

  9
$UCSNAME
  2

  9
$UCSORG
 10
0.0
 20
0.0
 30
0.0
  9
$UCSXDIR
 10
1.0
 20
0.0
 30
0.0
  9
$UCSYDIR
 10
0.0
 20
1.0
 30
0.0
  9
$UCSORTHOREF
  2

  9
$UCSORTHOVIEW
 70
     0
  9
$UCSORGTOP
 10
0.0
 20
0.0
 30
0.0
  9
$UCSORGBOTTOM
 10
0.0
 20
0.0
 30
0.0
  9
$UCSORGLEFT
 10
0.0
 20
0.0
 30
0.0
  9
$UCSORGRIGHT
 10
0.0
 20
0.0
 30
0.0
  9
$UCSORGFRONT
 10
0.0
 20
0.0
 30
0.0
  9
$UCSORGBACK
 10
0.0
 20
0.0
 30
0.0
  9
$PUCSBASE
  2

  9
$PUCSNAME
  2

  9
$PUCSORG
 10
0.0
 20
0.0
 30
0.0
  9
$PUCSXDIR
 10
1.0
 20
0.0
 30
0.0
  9
$PUCSYDIR
 10
0.0
 20
1.0
 30
0.0
  9
$PUCSORTHOREF
  2

  9
$PUCSORTHOVIEW
 70
     0
  9
$PUCSORGTOP
 10
0.0
 20
0.0
 30
0.0
  9
$PUCSORGBOTTOM
 10
0.0
 20
0.0
 30
0.0
  9
$PUCSORGLEFT
 10
0.0
 20
0.0
 30
0.0
  9
$PUCSORGRIGHT
 10
0.0
 20
0.0
 30
0.0
  9
$PUCSORGFRONT
 10
0.0
 20
0.0
 30
0.0
  9
$PUCSORGBACK
 10
0.0
 20
0.0
 30
0.0
  9
$USERI1
 70
     0
  9
$USERI2
 70
     0
  9
$USERI3
 70
     0
  9
$USERI4
 70
     0
  9
$USERI5
 70
     0
  9
$USERR1
 40
0.0
  9
$USERR2
 40
0.0
  9
$USERR3
 40
0.0
  9
$USERR4
 40
0.0
  9
$USERR5
 40
0.0
  9
$WORLDVIEW
 70
     1
  9
$SHADEDGE
 70
     3
  9
$SHADEDIF
 70
    70
  9
$TILEMODE
 70
     1
  9
$MAXACTVP
 70
    64
  9
$PINSBASE
 10
0.0
 20
0.0
 30
0.0
  9
$PLIMCHECK
 70
     0
  9
$PEXTMIN
 10
1.000000000000000E+20
 20
1.000000000000000E+20
 30
1.000000000000000E+20
  9
$PEXTMAX
 10
-1.000000000000000E+20
 20
-1.000000000000000E+20
 30
-1.000000000000000E+20
  9
$PLIMMIN
 10
0.0
 20
0.0
  9
$PLIMMAX
 10
12.0
 20
9.0
  9
$UNITMODE
 70
     0
  9
$VISRETAIN
 70
     1
  9
$PLINEGEN
 70
     0
  9
$PSLTSCALE
 70
     1
  9
$TREEDEPTH
 70
  3020
  9
$CMLSTYLE
  2
Standard
  9
$CMLJUST
 70
     0
  9
$CMLSCALE
 40
1.0
  9
$PROXYGRAPHICS
 70
     1
  9
$MEASUREMENT
 70
     0
  9
$CELWEIGHT
370
    -1
  9
$ENDCAPS
280
     0
  9
$JOINSTYLE
280
     0
  9
$LWDISPLAY
290
     0
  9
$INSUNITS
 70
     4
  9
$HYPERLINKBASE
  1

  9
$STYLESHEET
  1

  9
$XEDIT
290
     1
  9
$CEPSNTYPE
380
     0
  9
$PSTYLEMODE
290
     1
  9
$FINGERPRINTGUID
  2
{431C077C-ED3C-4B8C-8D73-28A6DD8D735C}
  9
$VERSIONGUID
  2
{903588FB-8664-4850-96AC-530FF797938C}
  9
$EXTNAMES
290
     1
  9
$PSVPSCALE
 40
0.0
  9
$OLESTARTUP
290
     0
  0
ENDSEC
  0
SECTION
  2
CLASSES
  0
CLASS
  1
RASTERVARIABLES
  2
AcDbRasterVariables
  3
ISM
 90
        0
280
     0
281
     0
  0
CLASS
  1
ACDBDICTIONARYWDFLT
  2
AcDbDictionaryWithDefault
  3
ObjectDBX Classes
 90
        0
280
     0
281
     0
  0
CLASS
  1
MATERIAL
  2
AcDbMaterial
  3
ObjectDBX Classes
 90
     1153
280
     0
281
     0
  0
CLASS
  1
VISUALSTYLE
  2
AcDbVisualStyle
  3
ObjectDBX Classes
 90
     4095
280
     0
281
     0
  0
CLASS
  1
TABLESTYLE
  2
AcDbTableStyle
  3
ObjectDBX Classes
 90
     4095
280
     0
281
     0
  0
CLASS
  1
SCALE
  2
AcDbScale
  3
ObjectDBX Classes
 90
     1153
280
     0
281
     0
  0
CLASS
  1
MLEADERSTYLE
  2
AcDbMLeaderStyle
  3
ACDB_MLEADERSTYLE_CLASS
 90
     4095
280
     0
281
     0
  0
CLASS
  1
ACDBSECTIONVIEWSTYLE
  2
AcDbSectionViewStyle
  3
ObjectDBX Classes
 90
     1025
280
     0
281
     0
  0
CLASS
  1
ACDBDETAILVIEWSTYLE
  2
AcDbDetailViewStyle
  3
ObjectDBX Classes
 90
     1025
280
     0
281
     0
  0
CLASS
  1
EXACXREFPANELOBJECT
  2
ExAcXREFPanelObject
  3
EXAC_ESW
 90
     1025
280
     0
281
     0
  0
CLASS
  1
NPOCOLLECTION
  2
AcDbImpNonPersistentObjectsCollection
  3
ObjectDBX Classes
 90
     1153
280
     0
281
     0
  0
CLASS
  1
DICTIONARYVAR
  2
AcDbDictionaryVar
  3
ObjectDBX Classes
 90
        0
280
     0
281
     0
  0
CLASS
  1
CELLSTYLEMAP
  2
AcDbCellStyleMap
  3
ObjectDBX Classes
 90
     1152
280
     0
281
     0
  0
CLASS
  1
ACDBPLACEHOLDER
  2
AcDbPlaceHolder
  3
ObjectDBX Classes
 90
        0
280
     0
281
     0
  0
CLASS
  1
LAYOUT
  2
AcDbLayout
  3
ObjectDBX Classes
 90
        0
280
     0
281
     0
  0
ENDSEC
  0
SECTION
  2
TABLES
  0
TABLE
  2
VPORT
  5
1FC
330
0
100
AcDbSymbolTable
 70
     1
  0
VPORT
  5
1
330
1FC
100
AcDbSymbolTableRecord
100
AcDbViewportTableRecord
  2
*Active
 70
     0
 10
0.0
 20
0.0
 11
1.0
 21
1.0
 12
2.384210625000008
 22
-52.41189394583824
 13
0.0
 23
0.0
 14
0.5
 24
0.5
 15
10.0
 25
10.0
 16
0.0
 26
0.0
 36
1.0
 17
0.0
 27
0.0
 37
0.0
 40
162.070214519925
 41
2.220359281437125
 42
50.0
 43
0.0
 44
0.0
 50
0.0
 51
0.0
 71
     0
 72
   100
 73
     1
 74
     1
 75
     0
 76
     0
 77
     0
 78
     0
281
     0
 65
     1
110
0.0
120
0.0
130
0.0
111
1.0
121
0.0
131
0.0
112
0.0
122
1.0
132
0.0
 79
     0
146
0.0
1001
ACAD_NAV_VCDISPLAY
1070
     3
  0
ENDTAB
  0
TABLE
  2
LTYPE
  5
1FD
330
0
100
AcDbSymbolTable
 70
     8
  0
LTYPE
  5
14
330
1FD
100
AcDbSymbolTableRecord
100
AcDbLinetypeTableRecord
  2
ByBlock
 70
     0
  3

 72
    65
 73
     0
 40
0.0
  0
LTYPE
  5
15
330
1FD
100
AcDbSymbolTableRecord
100
AcDbLinetypeTableRecord
  2
ByLayer
 70
     0
  3

 72
    65
 73
     0
 40
0.0
  0
LTYPE
  5
16
330
1FD
100
AcDbSymbolTableRecord
100
AcDbLinetypeTableRecord
  2
CONTINUOUS
 70
     0
  3
Solid line
 72
    65
 73
     0
 40
0.0
  0
LTYPE
  5
3C
330
1FD
100
AcDbSymbolTableRecord
100
AcDbLinetypeTableRecord
  2
DASHED
 70
     0
  3
__ __ __ __ __ __ __ __ __
 72
    65
 73
     2
 40
25.72
 49
12.86
 74
     0
 49
-12.86
 74
     0
  0
LTYPE
  5
3D
330
1FD
100
AcDbSymbolTableRecord
100
AcDbLinetypeTableRecord
  2
HIDDEN
 70
     0
  3
_ _ _ _ _ _ _ _ _ _ _ _ _ _ _
 72
    65
 73
     2
 40
0.5
 49
0.25
 74
     0
 49
-0.25
 74
     0
  0
LTYPE
  5
3E
330
1FD
100
AcDbSymbolTableRecord
100
AcDbLinetypeTableRecord
  2
PHANTOM
 70
     0
  3
____ _ _ ____ _ _ _____ _ _ ____
 72
    65
 73
     6
 40
50.5
 49
18.0
 74
     0
 49
-6.5
 74
     0
 49
6.5
 74
     0
 49
-6.5
 74
     0
 49
6.5
 74
     0
 49
-6.5
 74
     0
  0
LTYPE
  5
3F
330
1FD
100
AcDbSymbolTableRecord
100
AcDbLinetypeTableRecord
  2
CENTER
 70
     0
  3
____ _ ____ _ ____ _ ____
 72
    65
 73
     4
 40
47.5
 49
22.0
 74
     0
 49
-8.5
 74
     0
 49
8.5
 74
     0
 49
-8.5
 74
     0
  0
LTYPE
  5
40
330
1FD
100
AcDbSymbolTableRecord
100
AcDbLinetypeTableRecord
  2
DOT
 70
     0
  3
.........................
 72
    65
 73
     2
 40
10.0
 49
0.0
 74
     0
 49
-10.0
 74
     0
  0
LTYPE
  5
41
330
1FD
100
AcDbSymbolTableRecord
100
AcDbLinetypeTableRecord
  2
DASHDOT
 70
     0
  3
_._._._._._._._._._._._._._._._.
 72
    65
 73
     4
 40
70.0
 49
31.0
 74
     0
 49
-13.0
 74
     0
 49
13.0
 74
     0
 49
-13.0
 74
     0
  0
LTYPE
  5
254
330
1FD
100
AcDbSymbolTableRecord
100
AcDbLinetypeTableRecord
  2
PHANTOM2
 70
     0
  3
Phantom (.5x) ___ _ _ ___ _ _ ___ _ _ ___ _ _
 72
    65
 73
     6
 40
1.25
 49
0.625
 74
     0
 49
-0.125
 74
     0
 49
0.125
 74
     0
 49
-0.125
 74
     0
 49
0.125
 74
     0
 49
-0.125
 74
     0
  0
ENDTAB
  0
TABLE
  2
LAYER
  5
1FE
330
0
100
AcDbSymbolTable
 70
    10
  0
LAYER
  5
10
102
{ACAD_XDICTIONARY
360
262
102
}
330
1FE
100
AcDbSymbolTableRecord
100
AcDbLayerTableRecord
  2
0
 70
     0
 62
     7
  6
CONTINUOUS
370
    -3
390
209
  0
LAYER
  5
43
102
{ACAD_XDICTIONARY
360
264
102
}
330
1FE
100
AcDbSymbolTableRecord
100
AcDbLayerTableRecord
  2
80
 70
     0
 62
    -6
  6
CONTINUOUS
370
    -3
390
209
  0
LAYER
  5
45
102
{ACAD_XDICTIONARY
360
266
102
}
330
1FE
100
AcDbSymbolTableRecord
100
AcDbLayerTableRecord
  2
81
 70
     0
 62
    -3
  6
CONTINUOUS
370
    -3
390
209
  0
LAYER
  5
47
102
{ACAD_XDICTIONARY
360
268
102
}
330
1FE
100
AcDbSymbolTableRecord
100
AcDbLayerTableRecord
  2
1
 70
     0
 62
     4
  6
CONTINUOUS
370
    -3
390
209
  0
LAYER
  5
B3
102
{ACAD_XDICTIONARY
360
26A
102
}
330
1FE
100
AcDbSymbolTableRecord
100
AcDbLayerTableRecord
  2
4
 70
     0
 62
    -2
  6
CENTER
370
    -3
390
209
  0
LAYER
  5
1E7
102
{ACAD_XDICTIONARY
360
26C
102
}
330
1FE
100
AcDbSymbolTableRecord
100
AcDbLayerTableRecord
  2
SK1
 70
     0
 62
     4
  6
CONTINUOUS
370
    -3
390
209
  0
LAYER
  5
1E8
102
{ACAD_XDICTIONARY
360
26E
102
}
330
1FE
100
AcDbSymbolTableRecord
100
AcDbLayerTableRecord
  2
SK4
 70
     0
 62
     2
  6
CENTER
370
    -3
390
209
  0
LAYER
  5
1E9
102
{ACAD_XDICTIONARY
360
270
102
}
330
1FE
100
AcDbSymbolTableRecord
100
AcDbLayerTableRecord
  2
SK6
 70
     0
 62
     5
  6
CONTINUOUS
370
    -3
390
209
  0
LAYER
  5
1EA
102
{ACAD_XDICTIONARY
360
272
102
}
330
1FE
100
AcDbSymbolTableRecord
100
AcDbLayerTableRecord
  2
2L
 70
     0
 62
     7
  6
CONTINUOUS
370
    -3
390
209
  0
LAYER
  5
1EB
102
{ACAD_XDICTIONARY
360
274
102
}
330
1FE
100
AcDbSymbolTableRecord
100
AcDbLayerTableRecord
  2
SK2
 70
     0
 62
     7
  6
CONTINUOUS
370
    -3
390
209
  0
ENDTAB
  0
TABLE
  2
STYLE
  5
1FF
330
0
100
AcDbSymbolTable
 70
     3
  0
STYLE
  5
11
330
1FF
100
AcDbSymbolTableRecord
100
AcDbTextStyleTableRecord
  2
Standard
 70
     0
 40
0.0
 41
1.0
 50
0.0
 71
     0
 42
0.0
  3
txt
  4

  0
STYLE
  5
158
330
1FF
100
AcDbSymbolTableRecord
100
AcDbTextStyleTableRecord
  2
DEFAULT
 70
     0
 40
0.0
 41
1.0
 50
0.0
 71
     0
 42
0.0
  3
simplex.shx
  4

  0
STYLE
  5
159
330
1FF
100
AcDbSymbolTableRecord
100
AcDbTextStyleTableRecord
  2
DWGDirectTextStyle
 70
     0
 40
0.0
 41
1.0
 50
0.0
 71
     0
 42
0.0
  3
SIMPLEX
  4

  0
ENDTAB
  0
TABLE
  2
VIEW
  5
201
330
0
100
AcDbSymbolTable
 70
     0
  0
ENDTAB
  0
TABLE
  2
UCS
  5
202
330
0
100
AcDbSymbolTable
 70
     0
  0
ENDTAB
  0
TABLE
  2
APPID
  5
203
330
0
100
AcDbSymbolTable
 70
     3
  0
APPID
  5
12
330
203
100
AcDbSymbolTableRecord
100
AcDbRegAppTableRecord
  2
ACAD
 70
     0
  0
APPID
  5
280
330
203
100
AcDbSymbolTableRecord
100
AcDbRegAppTableRecord
  2
ACAD_NAV_VCDISPLAY
 70
     0
  0
APPID
  5
2BA
330
203
100
AcDbSymbolTableRecord
100
AcDbRegAppTableRecord
  2
ACAD_MLEADERVER
 70
     0
  0
ENDTAB
  0
TABLE
  2
DIMSTYLE
  5
200
330
0
100
AcDbSymbolTable
 70
     1
100
AcDbDimStyleTable
 71
     0
  0
DIMSTYLE
105
27
102
{ACAD_REACTORS
330
169
330
177
330
18C
330
19A
330
1A9
102
}
330
200
100
AcDbSymbolTableRecord
100
AcDbDimStyleTableRecord
  2
Standard
 70
     0
  3
<>
 73
     0
 74
     0
 77
     1
271
     2
278
    52
340
11
  0
ENDTAB
  0
TABLE
  2
BLOCK_RECORD
  5
204
330
0
100
AcDbSymbolTable
 70
     7
  0
BLOCK_RECORD
  5
1F
330
204
100
AcDbSymbolTableRecord
100
AcDbBlockTableRecord
  2
*Model_Space
340
25A
  0
BLOCK_RECORD
  5
1B
330
204
100
AcDbSymbolTableRecord
100
AcDbBlockTableRecord
  2
*Paper_Space
340
25B
  0
BLOCK_RECORD
  5
23
330
204
100
AcDbSymbolTableRecord
100
AcDbBlockTableRecord
  2
*Paper_Space0
340
0
  0
BLOCK_RECORD
  5
15B
330
204
100
AcDbSymbolTableRecord
100
AcDbBlockTableRecord
  2
DimnDraft3D1
340
0
  0
BLOCK_RECORD
  5
16A
330
204
100
AcDbSymbolTableRecord
100
AcDbBlockTableRecord
  2
DimnDraft3D2
340
0
  0
BLOCK_RECORD
  5
178
330
204
100
AcDbSymbolTableRecord
100
AcDbBlockTableRecord
  2
_CLOSED
340
0
  0
BLOCK_RECORD
  5
17F
330
204
100
AcDbSymbolTableRecord
100
AcDbBlockTableRecord
  2
DimnDraft3D3
340
0
  0
BLOCK_RECORD
  5
18D
330
204
100
AcDbSymbolTableRecord
100
AcDbBlockTableRecord
  2
DimnDraft3D4
340
0
  0
BLOCK_RECORD
  5
19B
330
204
100
AcDbSymbolTableRecord
100
AcDbBlockTableRecord
  2
DimnDraft3D5
340
0
  0
ENDTAB
  0
ENDSEC
  0
SECTION
  2
BLOCKS
  0
BLOCK
  5
20
330
1F
100
AcDbEntity
  8
0
100
AcDbBlockBegin
  2
*Model_Space
 70
     0
 10
0.0
 20
0.0
 30
0.0
  3
*Model_Space
  1

  0
ENDBLK
  5
21
330
1F
100
AcDbEntity
  8
0
100
AcDbBlockEnd
  0
BLOCK
  5
1C
330
1B
100
AcDbEntity
 67
     1
  8
0
100
AcDbBlockBegin
  2
*Paper_Space
 70
     0
 10
0.0
 20
0.0
 30
0.0
  3
*Paper_Space
  1

  0
ENDBLK
  5
1D
330
1B
100
AcDbEntity
 67
     1
  8
0
100
AcDbBlockEnd
  0
BLOCK
  5
24
330
23
100
AcDbEntity
  8
0
100
AcDbBlockBegin
  2
*Paper_Space0
 70
     0
 10
0.0
 20
0.0
 30
0.0
  3
*Paper_Space0
  1

  0
ENDBLK
  5
25
330
23
100
AcDbEntity
  8
0
100
AcDbBlockEnd
  0
BLOCK
  5
167
330
15B
100
AcDbEntity
  8
0
100
AcDbBlockBegin
  2
DimnDraft3D1
 70
     0
 10
0.0
 20
0.0
 30
0.0
  3
DimnDraft3D1
  1

  0
MTEXT
  5
15C
330
15B
100
AcDbEntity
  8
2L
100
AcDbMText
 10
14.682806
 20
-49.169777
 30
0.0
 40
3.500119999999999
 41
0.0
 71
     7
 72
     5
  1
\W01.000;\fsimplex.shx,bigfont.shx;96 
  7
DEFAULT
 11
0.0000000000000001
 21
1.0
 31
0.0
 73
     1
 44
1.084337
1001
ACAD
1000
MTEXTBEGIN
1070
    73
1070
     1
1070
    44
1040
1.084337
1070
    74
1070
     0
1000
MTEXTEND
  0
LINE
  5
15E
330
15B
100
AcDbEntity
  8
2L
100
AcDbLine
 10
1.587499999999999
 20
0.0
 30
0.0
 11
18.732836
 21
0.0
 31
0.0
  0
LINE
  5
15F
330
15B
100
AcDbEntity
  8
2L
100
AcDbLine
 10
-10.1625
 20
-96.0
 30
0.0
 11
18.732836
 21
-96.0
 31
0.0
  0
LINE
  5
160
330
15B
100
AcDbEntity
  8
2L
100
AcDbLine
 10
15.55783599999999
 20
0.0
 30
0.0
 11
15.55783599999999
 21
-96.0
 31
0.0
  0
LINE
  5
161
330
15B
100
AcDbEntity
  8
2L
100
AcDbLine
 10
15.55783599999999
 20
0.0
 30
0.0
 11
15.975833
 21
-3.174997999999999
 31
0.0
  0
LINE
  5
162
330
15B
100
AcDbEntity
  8
2L
100
AcDbLine
 10
15.55783599999999
 20
0.0
 30
0.0
 11
15.139839
 21
-3.175002
 31
0.0
  0
LINE
  5
163
330
15B
100
AcDbEntity
  8
2L
100
AcDbLine
 10
15.975833
 20
-3.174997999999999
 30
0.0
 11
15.139839
 21
-3.175002
 31
0.0
  0
LINE
  5
164
330
15B
100
AcDbEntity
  8
2L
100
AcDbLine
 10
15.55783599999999
 20
-96.0
 30
0.0
 11
15.139839
 21
-92.82500199999999
 31
0.0
  0
LINE
  5
165
330
15B
100
AcDbEntity
  8
2L
100
AcDbLine
 10
15.55783599999999
 20
-96.0
 30
0.0
 11
15.975833
 21
-92.824998
 31
0.0
  0
LINE
  5
166
330
15B
100
AcDbEntity
  8
2L
100
AcDbLine
 10
15.139839
 20
-92.82500199999999
 30
0.0
 11
15.975833
 21
-92.824998
 31
0.0
  0
ENDBLK
  5
168
330
15B
100
AcDbEntity
  8
0
100
AcDbBlockEnd
  0
BLOCK
  5
175
330
16A
100
AcDbEntity
  8
0
100
AcDbBlockBegin
  2
DimnDraft3D2
 70
     0
 10
0.0
 20
0.0
 30
0.0
  3
DimnDraft3D2
  1

  0
MTEXT
  5
16B
330
16A
100
AcDbEntity
  8
2L
100
AcDbMText
 10
3.261623
 20
-62.55081
 30
0.0
 40
3.500119999999999
 41
0.0
 71
     7
 72
     5
  1
\W01.000;\fsimplex.shx,bigfont.shx;75.75 
  7
DEFAULT
 11
0.0000000000000001
 21
1.0
 31
0.0
 73
     1
 44
1.084337
1001
ACAD
1000
MTEXTBEGIN
1070
    73
1070
     1
1070
    44
1040
1.084337
1070
    74
1070
     0
1000
MTEXTEND
  0
LINE
  5
16C
330
16A
100
AcDbEntity
  8
2L
100
AcDbLine
 10
-10.1625
 20
-96.0
 30
0.0
 11
7.311652999999999
 21
-96.0
 31
0.0
  0
LINE
  5
16D
330
16A
100
AcDbEntity
  8
2L
100
AcDbLine
 10
0.0875
 20
-20.25
 30
0.0
 11
7.311652999999999
 21
-20.25
 31
0.0
  0
LINE
  5
16E
330
16A
100
AcDbEntity
  8
2L
100
AcDbLine
 10
4.136652999999999
 20
-96.0
 30
0.0
 11
4.136652999999999
 21
-20.25
 31
0.0
  0
LINE
  5
16F
330
16A
100
AcDbEntity
  8
2L
100
AcDbLine
 10
4.136652999999999
 20
-96.0
 30
0.0
 11
3.718655999999999
 21
-92.82500199999999
 31
0.0
  0
LINE
  5
170
330
16A
100
AcDbEntity
  8
2L
100
AcDbLine
 10
4.136652999999999
 20
-96.0
 30
0.0
 11
4.554649999999999
 21
-92.824998
 31
0.0
  0
LINE
  5
171
330
16A
100
AcDbEntity
  8
2L
100
AcDbLine
 10
3.718655999999999
 20
-92.82500199999999
 30
0.0
 11
4.554649999999999
 21
-92.824998
 31
0.0
  0
LINE
  5
172
330
16A
100
AcDbEntity
  8
2L
100
AcDbLine
 10
4.136652999999999
 20
-20.25
 30
0.0
 11
4.554649999999999
 21
-23.424998
 31
0.0
  0
LINE
  5
173
330
16A
100
AcDbEntity
  8
2L
100
AcDbLine
 10
4.136652999999999
 20
-20.25
 30
0.0
 11
3.718655999999999
 21
-23.425002
 31
0.0
  0
LINE
  5
174
330
16A
100
AcDbEntity
  8
2L
100
AcDbLine
 10
4.554649999999999
 20
-23.424998
 30
0.0
 11
3.718655999999999
 21
-23.425002
 31
0.0
  0
ENDBLK
  5
176
330
16A
100
AcDbEntity
  8
0
100
AcDbBlockEnd
  0
BLOCK
  5
179
330
178
100
AcDbEntity
  8
0
100
AcDbBlockBegin
  2
_CLOSED
 70
     0
 10
0.0
 20
0.0
 30
0.0
  3
_CLOSED
  1

  0
LINE
  5
17B
330
178
100
AcDbEntity
  8
0
370
    -2
100
AcDbLine
 10
-1.0
 20
0.166667
 30
0.0
 11
0.0
 21
0.0
 31
0.0
  0
LINE
  5
17C
330
178
100
AcDbEntity
  8
0
370
    -2
100
AcDbLine
 10
0.0
 20
0.0
 30
0.0
 11
-1.0
 21
-0.166667
 31
0.0
  0
LINE
  5
17D
330
178
100
AcDbEntity
  8
0
370
    -2
100
AcDbLine
 10
-1.0
 20
0.166667
 30
0.0
 11
-1.0
 21
-0.166667
 31
0.0
  0
LINE
  5
17E
330
178
100
AcDbEntity
  8
0
370
    -2
100
AcDbLine
 10
0.0
 20
0.0
 30
0.0
 11
-1.0
 21
0.0
 31
0.0
  0
ENDBLK
  5
17A
330
178
100
AcDbEntity
  8
0
100
AcDbBlockEnd
  0
BLOCK
  5
18A
330
17F
100
AcDbEntity
  8
0
100
AcDbBlockBegin
  2
DimnDraft3D3
 70
     0
 10
0.0
 20
0.0
 30
0.0
  3
DimnDraft3D3
  1

  0
MTEXT
  5
180
330
17F
100
AcDbEntity
  8
2L
100
AcDbMText
 10
-9.425779999999999
 20
-104.387007
 30
0.0
 40
3.500119999999999
 41
0.0
 71
     7
 72
     5
  1
\W01.000;\fsimplex.shx,bigfont.shx;11.75 
  7
DEFAULT
 73
     1
 44
1.084337
1001
ACAD
1000
MTEXTBEGIN
1070
    73
1070
     1
1070
    44
1040
1.084337
1070
    74
1070
     0
1000
MTEXTEND
  0
LINE
  5
181
330
17F
100
AcDbEntity
  8
2L
100
AcDbLine
 10
-11.75
 20
-97.5875
 30
0.0
 11
-11.75
 21
-108.437037
 31
0.0
  0
LINE
  5
182
330
17F
100
AcDbEntity
  8
2L
100
AcDbLine
 10
0.0
 20
-1.587499999999999
 30
0.0
 11
0.0
 21
-108.437037
 31
0.0
  0
LINE
  5
183
330
17F
100
AcDbEntity
  8
2L
100
AcDbLine
 10
-11.75
 20
-105.262037
 30
0.0
 11
0.0
 21
-105.262037
 31
0.0
  0
LINE
  5
184
330
17F
100
AcDbEntity
  8
2L
100
AcDbLine
 10
-11.75
 20
-105.262037
 30
0.0
 11
-8.575001999999999
 21
-104.844041
 31
0.0
  0
LINE
  5
185
330
17F
100
AcDbEntity
  8
2L
100
AcDbLine
 10
-11.75
 20
-105.262037
 30
0.0
 11
-8.574999
 21
-105.680034
 31
0.0
  0
LINE
  5
186
330
17F
100
AcDbEntity
  8
2L
100
AcDbLine
 10
-8.575001999999999
 20
-104.844041
 30
0.0
 11
-8.574999
 21
-105.680034
 31
0.0
  0
LINE
  5
187
330
17F
100
AcDbEntity
  8
2L
100
AcDbLine
 10
0.0
 20
-105.262037
 30
0.0
 11
-3.174997999999999
 21
-105.680034
 31
0.0
  0
LINE
  5
188
330
17F
100
AcDbEntity
  8
2L
100
AcDbLine
 10
0.0
 20
-105.262037
 30
0.0
 11
-3.175002
 21
-104.844041
 31
0.0
  0
LINE
  5
189
330
17F
100
AcDbEntity
  8
2L
100
AcDbLine
 10
-3.174997999999999
 20
-105.680034
 30
0.0
 11
-3.175002
 21
-104.844041
 31
0.0
  0
ENDBLK
  5
18B
330
17F
100
AcDbEntity
  8
0
100
AcDbBlockEnd
  0
BLOCK
  5
198
330
18D
100
AcDbEntity
  8
0
100
AcDbBlockBegin
  2
DimnDraft3D4
 70
     0
 10
0.0
 20
0.0
 30
0.0
  3
DimnDraft3D4
  1

  0
MTEXT
  5
18E
330
18D
100
AcDbEntity
  8
2L
100
AcDbMText
 10
-11.315867
 20
-114.221915
 30
0.0
 40
3.500119999999999
 41
0.0
 71
     7
 72
     5
  1
\W01.000;\fsimplex.shx,bigfont.shx;18.1 
  7
DEFAULT
 73
     1
 44
1.084337
1001
ACAD
1000
MTEXTBEGIN
1070
    73
1070
     1
1070
    44
1040
1.084337
1070
    74
1070
     0
1000
MTEXTEND
  0
LINE
  5
18F
330
18D
100
AcDbEntity
  8
2L
100
AcDbLine
 10
0.0
 20
-1.587499999999999
 30
0.0
 11
0.0
 21
-118.271945
 31
0.0
  0
LINE
  5
190
330
18D
100
AcDbEntity
  8
2L
100
AcDbLine
 10
-18.1
 20
-94.4125
 30
0.0
 11
-18.1
 21
-118.271945
 31
0.0
  0
LINE
  5
191
330
18D
100
AcDbEntity
  8
2L
100
AcDbLine
 10
0.0
 20
-115.096945
 30
0.0
 11
-18.1
 21
-115.096945
 31
0.0
  0
LINE
  5
192
330
18D
100
AcDbEntity
  8
2L
100
AcDbLine
 10
0.0
 20
-115.096945
 30
0.0
 11
-3.174997999999999
 21
-115.514942
 31
0.0
  0
LINE
  5
193
330
18D
100
AcDbEntity
  8
2L
100
AcDbLine
 10
0.0
 20
-115.096945
 30
0.0
 11
-3.175002
 21
-114.678948
 31
0.0
  0
LINE
  5
194
330
18D
100
AcDbEntity
  8
2L
100
AcDbLine
 10
-3.174997999999999
 20
-115.514942
 30
0.0
 11
-3.175002
 21
-114.678948
 31
0.0
  0
LINE
  5
195
330
18D
100
AcDbEntity
  8
2L
100
AcDbLine
 10
-18.1
 20
-115.096945
 30
0.0
 11
-14.925002
 21
-114.678948
 31
0.0
  0
LINE
  5
196
330
18D
100
AcDbEntity
  8
2L
100
AcDbLine
 10
-18.1
 20
-115.096945
 30
0.0
 11
-14.924998
 21
-115.514942
 31
0.0
  0
LINE
  5
197
330
18D
100
AcDbEntity
  8
2L
100
AcDbLine
 10
-14.925002
 20
-114.678948
 30
0.0
 11
-14.924998
 21
-115.514942
 31
0.0
  0
ENDBLK
  5
199
330
18D
100
AcDbEntity
  8
0
100
AcDbBlockEnd
  0
BLOCK
  5
1A7
330
19B
100
AcDbEntity
  8
0
100
AcDbBlockBegin
  2
DimnDraft3D5
 70
     0
 10
0.0
 20
0.0
 30
0.0
  3
DimnDraft3D5
  1

  0
MTEXT
  5
19C
330
19B
100
AcDbEntity
  8
SK2
100
AcDbMText
 10
24.187266
 20
-1.353994
 30
0.0
 40
3.500119999999999
 41
0.0
 71
     7
 72
     5
  1
\W01.000;\fsimplex.shx,bigfont.shx;40 
  7
DEFAULT
 11
0.0000000000000001
 21
1.0
 31
0.0
 73
     1
 44
1.084337
1001
ACAD
1000
MTEXTBEGIN
1070
    73
1070
     1
1070
    44
1040
1.084337
1070
    74
1070
     0
1000
MTEXTEND
  0
LINE
  5
19E
330
19B
100
AcDbEntity
  8
SK2
100
AcDbLine
 10
1.087499999999999
 20
-20.0
 30
0.0
 11
28.237296
 21
-20.0
 31
0.0
  0
LINE
  5
19F
330
19B
100
AcDbEntity
  8
SK2
100
AcDbLine
 10
1.087499999999999
 20
20.0
 30
0.0
 11
28.237296
 21
20.0
 31
0.0
  0
LINE
  5
1A0
330
19B
100
AcDbEntity
  8
SK2
100
AcDbLine
 10
25.062296
 20
-20.0
 30
0.0
 11
25.062296
 21
20.0
 31
0.0
  0
LINE
  5
1A1
330
19B
100
AcDbEntity
  8
SK2
100
AcDbLine
 10
25.062296
 20
-20.0
 30
0.0
 11
24.6443
 21
-16.82500199999999
 31
0.0
  0
LINE
  5
1A2
330
19B
100
AcDbEntity
  8
SK2
100
AcDbLine
 10
25.062296
 20
-20.0
 30
0.0
 11
25.480293
 21
-16.824998
 31
0.0
  0
LINE
  5
1A3
330
19B
100
AcDbEntity
  8
SK2
100
AcDbLine
 10
24.6443
 20
-16.82500199999999
 30
0.0
 11
25.480293
 21
-16.824998
 31
0.0
  0
LINE
  5
1A4
330
19B
100
AcDbEntity
  8
SK2
100
AcDbLine
 10
25.062296
 20
20.0
 30
0.0
 11
25.480293
 21
16.82500199999999
 31
0.0
  0
LINE
  5
1A5
330
19B
100
AcDbEntity
  8
SK2
100
AcDbLine
 10
25.062296
 20
20.0
 30
0.0
 11
24.6443
 21
16.824998
 31
0.0
  0
LINE
  5
1A6
330
19B
100
AcDbEntity
  8
SK2
100
AcDbLine
 10
25.480293
 20
16.82500199999999
 30
0.0
 11
24.6443
 21
16.824998
 31
0.0
  0
ENDBLK
  5
1A8
330
19B
100
AcDbEntity
  8
0
100
AcDbBlockEnd
  0
ENDSEC
  0
SECTION
  2
ENTITIES
  0
ARC
  5
B6
330
1F
100
AcDbEntity
  8
1
100
AcDbCircle
 10
-11.75
 20
-89.65000000000001
 30
0.0
 40
6.349999999999999
100
AcDbArc
 50
0.000003
 51
24.091877
  0
ARC
  5
B7
330
1F
100
AcDbEntity
  8
1
100
AcDbCircle
 10
-11.75
 20
-89.65000000000001
 30
0.0
 40
6.349999999999999
100
AcDbArc
 50
156.588746
 51
180.0
  0
ARC
  5
B8
330
1F
100
AcDbEntity
  8
1
100
AcDbCircle
 10
-11.75
 20
-89.65000000000001
 30
0.0
 40
6.349999999999999
100
AcDbArc
 50
180.0
 51
359.999997
  0
ARC
  5
B9
330
1F
100
AcDbEntity
  8
SK1
100
AcDbCircle
 10
-0.174981
 20
2.899229999999999
 30
0.0
 40
0.150000000000321
210
0.0
220
0.0
230
-1.0
100
AcDbArc
 50
180.0
 51
240.0
  0
ARC
  5
BA
330
1F
100
AcDbEntity
  8
SK1
100
AcDbCircle
 10
0.240519
 20
-5.25
 30
0.0
 40
0.204500000000094
210
0.0
220
0.0
230
-1.0
100
AcDbArc
 50
300.0
 51
60.0
  0
ARC
  5
BB
330
1F
100
AcDbEntity
  8
SK1
100
AcDbCircle
 10
-0.174981
 20
-4.600769999999999
 30
0.0
 40
0.150000000000299
210
0.0
220
0.0
230
-1.0
100
AcDbArc
 50
180.0
 51
240.0
  0
ARC
  5
BC
330
1F
100
AcDbEntity
  8
SK1
100
AcDbCircle
 10
-0.174981
 20
-4.39923
 30
0.0
 40
0.150000000000872
210
0.0
220
0.0
230
-1.0
100
AcDbArc
 50
120.0
 51
180.0
  0
ARC
  5
BD
330
1F
100
AcDbEntity
  8
SK1
100
AcDbCircle
 10
0.240519
 20
-3.75
 30
0.0
 40
0.204500000000058
210
0.0
220
0.0
230
-1.0
100
AcDbArc
 50
300.0
 51
60.0
  0
ARC
  5
BE
330
1F
100
AcDbEntity
  8
SK1
100
AcDbCircle
 10
-0.174981
 20
-3.10077
 30
0.0
 40
0.150000000000321
210
0.0
220
0.0
230
-1.0
100
AcDbArc
 50
180.0
 51
240.0
  0
ARC
  5
BF
330
1F
100
AcDbEntity
  8
SK1
100
AcDbCircle
 10
-0.174981
 20
-2.899229999999999
 30
0.0
 40
0.149999999999692
210
0.0
220
0.0
230
-1.0
100
AcDbArc
 50
120.0
 51
180.0
  0
ARC
  5
C0
330
1F
100
AcDbEntity
  8
SK1
100
AcDbCircle
 10
0.240519
 20
-2.25
 30
0.0
 40
0.204500000000003
210
0.0
220
0.0
230
-1.0
100
AcDbArc
 50
300.0
 51
60.0
  0
ARC
  5
C1
330
1F
100
AcDbEntity
  8
SK1
100
AcDbCircle
 10
-0.174981
 20
-1.600769999999999
 30
0.0
 40
0.149999999999635
210
0.0
220
0.0
230
-1.0
100
AcDbArc
 50
180.0
 51
240.0
  0
ARC
  5
C2
330
1F
100
AcDbEntity
  8
SK1
100
AcDbCircle
 10
-0.174981
 20
-1.399229999999999
 30
0.0
 40
0.149999999999737
210
0.0
220
0.0
230
-1.0
100
AcDbArc
 50
120.0
 51
180.0
  0
ARC
  5
C3
330
1F
100
AcDbEntity
  8
SK1
100
AcDbCircle
 10
0.240519
 20
-0.75
 30
0.0
 40
0.204500000000031
210
0.0
220
0.0
230
-1.0
100
AcDbArc
 50
300.0
 51
60.0
  0
ARC
  5
C4
330
1F
100
AcDbEntity
  8
SK1
100
AcDbCircle
 10
-0.174981
 20
-0.10077
 30
0.0
 40
0.149999999999632
210
0.0
220
0.0
230
-1.0
100
AcDbArc
 50
180.0
 51
240.0
  0
ARC
  5
C5
330
1F
100
AcDbEntity
  8
SK1
100
AcDbCircle
 10
-0.174981
 20
0.10077
 30
0.0
 40
0.150000000000332
210
0.0
220
0.0
230
-1.0
100
AcDbArc
 50
120.0
 51
180.0
  0
ARC
  5
C6
330
1F
100
AcDbEntity
  8
SK1
100
AcDbCircle
 10
0.240519
 20
0.75
 30
0.0
 40
0.2045000000000269
210
0.0
220
0.0
230
-1.0
100
AcDbArc
 50
300.0
 51
60.0
  0
ARC
  5
C7
330
1F
100
AcDbEntity
  8
SK1
100
AcDbCircle
 10
-0.174981
 20
1.399229999999999
 30
0.0
 40
0.150000000000332
210
0.0
220
0.0
230
-1.0
100
AcDbArc
 50
180.0
 51
240.0
  0
ARC
  5
C8
330
1F
100
AcDbEntity
  8
SK1
100
AcDbCircle
 10
-0.174981
 20
1.600769999999999
 30
0.0
 40
0.149999999999626
210
0.0
220
0.0
230
-1.0
100
AcDbArc
 50
120.0
 51
180.0
  0
ARC
  5
C9
330
1F
100
AcDbEntity
  8
SK1
100
AcDbCircle
 10
0.240519
 20
5.25
 30
0.0
 40
0.204500000000094
210
0.0
220
0.0
230
-1.0
100
AcDbArc
 50
300.0
 51
60.0
  0
ARC
  5
CA
330
1F
100
AcDbEntity
  8
SK1
100
AcDbCircle
 10
-0.174981
 20
4.600769999999999
 30
0.0
 40
0.150000000000425
210
0.0
220
0.0
230
-1.0
100
AcDbArc
 50
120.0
 51
180.0
  0
ARC
  5
CB
330
1F
100
AcDbEntity
  8
SK1
100
AcDbCircle
 10
0.240519
 20
2.25
 30
0.0
 40
0.204500000000054
210
0.0
220
0.0
230
-1.0
100
AcDbArc
 50
300.0
 51
60.0
  0
ARC
  5
CC
330
1F
100
AcDbEntity
  8
SK1
100
AcDbCircle
 10
-0.174981
 20
4.39923
 30
0.0
 40
0.14999999999995
210
0.0
220
0.0
230
-1.0
100
AcDbArc
 50
180.0
 51
240.0
  0
ARC
  5
CD
330
1F
100
AcDbEntity
  8
SK1
100
AcDbCircle
 10
0.240519
 20
3.75
 30
0.0
 40
0.204500000000054
210
0.0
220
0.0
230
-1.0
100
AcDbArc
 50
300.0
 51
60.0
  0
ARC
  5
CE
330
1F
100
AcDbEntity
  8
SK1
100
AcDbCircle
 10
-0.174981
 20
3.10077
 30
0.0
 40
0.150000000000405
210
0.0
220
0.0
230
-1.0
100
AcDbArc
 50
120.0
 51
180.0
  0
ARC
  5
CF
330
1F
100
AcDbEntity
  8
1
100
AcDbCircle
 10
11.75
 20
-76.76999999999999
 30
0.0
 40
2.185749299439439
210
0.0
220
0.0
230
-1.0
100
AcDbArc
 50
214.980997
 51
265.019003
  0
ARC
  5
D0
330
1F
100
AcDbEntity
  8
1
100
AcDbCircle
 10
11.75
 20
-76.76999999999999
 30
0.0
 40
2.185749299439439
210
0.0
220
0.0
230
-1.0
100
AcDbArc
 50
274.980997
 51
325.019003
  0
ARC
  5
D1
330
1F
100
AcDbEntity
  8
1
100
AcDbCircle
 10
11.75
 20
-76.76999999999999
 30
0.0
 40
2.185749299439439
210
0.0
220
0.0
230
-1.0
100
AcDbArc
 50
334.980997
 51
25.019003
  0
ARC
  5
D2
330
1F
100
AcDbEntity
  8
1
100
AcDbCircle
 10
11.75
 20
-76.76999999999999
 30
0.0
 40
2.185749299439439
210
0.0
220
0.0
230
-1.0
100
AcDbArc
 50
34.980997
 51
85.019003
  0
ARC
  5
D3
330
1F
100
AcDbEntity
  8
1
100
AcDbCircle
 10
11.75
 20
-76.76999999999999
 30
0.0
 40
2.185749299439439
210
0.0
220
0.0
230
-1.0
100
AcDbArc
 50
94.980997
 51
145.019003
  0
ARC
  5
D4
330
1F
100
AcDbEntity
  8
1
100
AcDbCircle
 10
11.75
 20
-76.76999999999999
 30
0.0
 40
2.185749299439439
210
0.0
220
0.0
230
-1.0
100
AcDbArc
 50
154.980997
 51
205.019003
  0
ARC
  5
D5
330
1F
100
AcDbEntity
  8
1
100
AcDbCircle
 10
11.75
 20
-78.48449999999999
 30
0.0
 40
0.50038
210
0.0
220
0.0
230
-1.0
100
AcDbArc
 50
292.288383
 51
358.936835
  0
ARC
  5
D6
330
1F
100
AcDbEntity
  8
1
100
AcDbCircle
 10
11.75
 20
-75.05549999999999
 30
0.0
 40
0.50038
210
0.0
220
0.0
230
-1.0
100
AcDbArc
 50
1.063164999999999
 51
67.711617
  0
ARC
  5
D7
330
1F
100
AcDbEntity
  8
1
100
AcDbCircle
 10
10.265199
 20
-77.62725
 30
0.0
 40
0.50038
210
0.0
220
0.0
230
-1.0
100
AcDbArc
 50
121.0631649999999
 51
187.711617
  0
ARC
  5
D8
330
1F
100
AcDbEntity
  8
1
100
AcDbCircle
 10
13.234801
 20
-77.62725
 30
0.0
 40
0.50038
210
0.0
220
0.0
230
-1.0
100
AcDbArc
 50
241.063165
 51
307.711617
  0
ARC
  5
D9
330
1F
100
AcDbEntity
  8
1
100
AcDbCircle
 10
12.750588
 20
-75.03693100000001
 30
0.0
 40
0.50038
210
0.0
220
0.0
230
-1.0
100
AcDbArc
 50
181.063165
 51
298.936835
  0
ARC
  5
DA
330
1F
100
AcDbEntity
  8
1
100
AcDbCircle
 10
9.748825
 20
-76.76999999999999
 30
0.0
 40
0.50038
210
0.0
220
0.0
230
-1.0
100
AcDbArc
 50
301.063165
 51
58.93683499999998
  0
ARC
  5
DB
330
1F
100
AcDbEntity
  8
1
100
AcDbCircle
 10
11.75
 20
-75.05549999999999
 30
0.0
 40
0.50038
210
0.0
220
0.0
230
-1.0
100
AcDbArc
 50
112.288383
 51
178.936835
  0
ARC
  5
DC
330
1F
100
AcDbEntity
  8
1
100
AcDbCircle
 10
13.234801
 20
-77.62725
 30
0.0
 40
0.50038
210
0.0
220
0.0
230
-1.0
100
AcDbArc
 50
352.288383
 51
58.93683499999998
  0
ARC
  5
DD
330
1F
100
AcDbEntity
  8
1
100
AcDbCircle
 10
12.750588
 20
-78.50306899999999
 30
0.0
 40
0.50038
210
0.0
220
0.0
230
-1.0
100
AcDbArc
 50
61.06316500000001
 51
178.936835
  0
ARC
  5
DE
330
1F
100
AcDbEntity
  8
1
100
AcDbCircle
 10
13.234801
 20
-75.91275
 30
0.0
 40
0.50038
210
0.0
220
0.0
230
-1.0
100
AcDbArc
 50
52.288383
 51
118.936835
  0
ARC
  5
DF
330
1F
100
AcDbEntity
  8
1
100
AcDbCircle
 10
10.265199
 20
-75.91275
 30
0.0
 40
0.50038
210
0.0
220
0.0
230
-1.0
100
AcDbArc
 50
172.288383
 51
238.936835
  0
ARC
  5
E1
330
1F
100
AcDbEntity
  8
1
100
AcDbCircle
 10
13.234801
 20
-75.91275
 30
0.0
 40
0.50038
210
0.0
220
0.0
230
-1.0
100
AcDbArc
 50
301.063165
 51
7.711616999999999
  0
ARC
  5
E2
330
1F
100
AcDbEntity
  8
1
100
AcDbCircle
 10
11.75
 20
-78.48449999999999
 30
0.0
 40
0.50038
210
0.0
220
0.0
230
-1.0
100
AcDbArc
 50
181.063165
 51
247.7116169999999
  0
ARC
  5
E3
330
1F
100
AcDbEntity
  8
1
100
AcDbCircle
 10
10.265199
 20
-75.91275
 30
0.0
 40
0.50038
210
0.0
220
0.0
230
-1.0
100
AcDbArc
 50
61.06316500000001
 51
127.711617
  0
ARC
  5
E4
330
1F
100
AcDbEntity
  8
1
100
AcDbCircle
 10
10.749412
 20
-75.03693100000001
 30
0.0
 40
0.50038
210
0.0
220
0.0
230
-1.0
100
AcDbArc
 50
241.063165
 51
358.936835
  0
ARC
  5
E5
330
1F
100
AcDbEntity
  8
1
100
AcDbCircle
 10
10.749412
 20
-78.50306899999999
 30
0.0
 40
0.50038
210
0.0
220
0.0
230
-1.0
100
AcDbArc
 50
1.063164999999999
 51
118.936835
  0
ARC
  5
E6
330
1F
100
AcDbEntity
  8
1
100
AcDbCircle
 10
13.751175
 20
-76.76999999999999
 30
0.0
 40
0.50038
210
0.0
220
0.0
230
-1.0
100
AcDbArc
 50
121.0631649999999
 51
238.936835
  0
ARC
  5
E7
330
1F
100
AcDbEntity
  8
1
100
AcDbCircle
 10
10.265199
 20
-77.62725
 30
0.0
 40
0.50038
210
0.0
220
0.0
230
-1.0
100
AcDbArc
 50
232.288383
 51
298.936835
  0
CIRCLE
  5
E0
330
1F
100
AcDbEntity
  8
1
100
AcDbCircle
 10
11.75
 20
-76.76999999999999
 30
0.0
 40
5.549999999999999
210
0.0
220
0.0
230
-1.0
  0
ELLIPSE
  5
E8
330
1F
100
AcDbEntity
  8
1
100
AcDbEllipse
 10
-11.75
 20
-70.77977299999999
 30
0.0
 11
0.0000000000000023
 21
-12.3602265351408
 31
0.0
210
0.0
220
0.0
230
-1.0
 40
0.7071069999999999
 41
-0.747263395774864
 42
0.747263395774866
  0
ELLIPSE
  5
E9
330
1F
100
AcDbEntity
  8
1
100
AcDbEllipse
 10
-19.14
 20
-40.0
 30
0.0
 11
0.000000000000011
 21
-60.00000000870329
 31
0.0
210
0.0
220
0.0
230
-0.9999999999999998
 40
0.140541
 41
-2.735841311894379
 42
-2.637134301092339
  0
ELLIPSE
  5
EA
330
1F
100
AcDbEntity
  8
1
100
AcDbEllipse
 10
-15.856114
 20
7.367291999999999
 30
0.0
 11
0.0000000000000012
 21
-6.75
 31
0.0
210
0.0
220
0.0
230
-1.0
 40
0.140541
 41
-0.9875097150208359
 42
4.129102368610636
  0
ELLIPSE
  5
EB
330
1F
100
AcDbEntity
  8
1
100
AcDbEllipse
 10
-16.469013
 20
7.367291999999999
 30
0.0
 11
0.0000000000000012
 21
-6.750000000000059
 31
0.0
210
0.0
220
0.0
230
-1.0
 40
0.249328
 41
-2.154082938568949
 42
-0.987509715020848
  0
ELLIPSE
  5
EC
330
1F
100
AcDbEntity
  8
1
100
AcDbEllipse
 10
-16.469013
 20
-7.367291999999999
 30
0.0
 11
0.0000000000000012
 21
-6.750000000000419
 31
0.0
210
0.0
220
0.0
230
-1.0
 40
0.249328
 41
-2.154082938568909
 42
-0.987509715020881
  0
ELLIPSE
  5
ED
330
1F
100
AcDbEntity
  8
1
100
AcDbEllipse
 10
-22.294828
 20
-40.0
 30
0.0
 11
0.000000000000011
 21
-59.9999999230594
 31
0.0
210
0.0
220
0.0
230
-1.0
 40
0.249328
 41
-2.637134300895319
 42
-2.57467194352695
  0
ELLIPSE
  5
EE
330
1F
100
AcDbEntity
  8
1
100
AcDbEllipse
 10
-6.862924999999999
 20
-21.85
 30
0.0
 11
0.0000000000000003
 21
-1.599999999999919
 31
0.0
210
0.0
220
0.0
230
-1.0
 40
0.9829740000000001
 41
1.5707963267949
 42
3.14159265358979
  0
ELLIPSE
  5
EF
330
1F
100
AcDbEntity
  8
1
100
AcDbEllipse
 10
-15.856114
 20
-7.367291999999999
 30
0.0
 11
0.0000000000000012
 21
-6.75
 31
0.0
210
0.0
220
0.0
230
-1.0
 40
0.140541
 41
-0.9875097150208381
 42
4.129102368610636
  0
ELLIPSE
  5
F0
330
1F
100
AcDbEntity
  8
1
100
AcDbEllipse
 10
-15.064316
 20
5.552167999999999
 30
0.0
 11
0.0000000000000011
 21
-6.00000000000007
 31
0.0
210
0.0
220
0.0
230
-1.0
 40
0.249328
 41
-2.574671943754919
 42
-1.5707963267949
  0
ELLIPSE
  5
F1
330
1F
100
AcDbEntity
  8
1
100
AcDbEllipse
 10
-8.282669999999999
 20
-21.85
 30
0.0
 11
-1.64898180695983
 21
0.0
 31
0.0
210
0.0
220
0.0
230
-1.0
 40
0.9702959999999999
 41
0.0
 42
1.5707963267949
  0
POINT
  5
42
330
1F
100
AcDbEntity
  8
80
100
AcDbPoint
 10
0.0
 20
0.0
 30
0.0
 50
360.0
  0
POINT
  5
44
330
1F
100
AcDbEntity
  8
81
100
AcDbPoint
 10
-11.75
 20
-96.0
 30
0.0
 50
360.0
  0
SPLINE
  5
F2
330
1F
100
AcDbEntity
  8
1
100
AcDbSpline
210
0.0
220
0.0
230
1.0
 70
    28
 71
     3
 72
    19
 73
    15
 74
     0
 42
0.000000001
 43
0.0000000001
 40
0.0
 40
0.0
 40
0.0
 40
0.0
 40
0.0579735451826973
 40
0.0579735451826973
 40
0.371982363455132
 40
0.371982363455132
 40
0.685991181727566
 40
0.685991181727566
 40
0.8429955908637829
 40
0.8429955908637829
 40
0.9214977954318909
 40
0.9607488977159459
 40
0.9607488977159459
 40
1.0
 40
1.0
 40
1.0
 40
1.0
 10
-6.159090000004849
 20
-20.2499999999955
 30
0.0
 41
1.0
 10
-6.14368990250421
 20
-20.2499999999955
 30
0.0
 41
1.0
 10
-6.12694644631875
 20
-20.2499999999955
 30
0.0
 41
1.0
 10
-6.011865490652099
 20
-20.2499999999955
 30
0.0
 41
1.0
 10
-5.880086916160109
 20
-20.2499999999955
 30
0.0
 41
1.0
 10
-5.57785012379992
 20
-20.2499999999955
 30
0.0
 41
1.0
 10
-5.4070750383305
 20
-20.2499999999955
 30
0.0
 41
1.0
 10
-5.13745453251261
 20
-20.2499999999955
 30
0.0
 41
1.0
 10
-5.045295127411719
 20
-20.2499999999955
 30
0.0
 41
1.0
 10
-4.905376685272019
 20
-20.2499999999955
 30
0.0
 41
1.0
 10
-4.834996004475869
 20
-20.2499999999955
 30
0.0
 41
1.0
 10
-4.764300850321519
 20
-20.2499999999955
 30
0.0
 41
1.0
 10
-4.71713579398798
 20
-20.2499999999955
 30
0.0
 41
1.0
 10
-4.693409671005699
 20
-20.2499999999955
 30
0.0
 41
1.0
 10
-4.67000000000053
 20
-20.2499999999955
 30
0.0
 41
1.0
  0
SPLINE
  5
F3
330
1F
100
AcDbEntity
  8
SK1
100
AcDbSpline
210
0.0
220
0.0
230
1.0
 70
    28
 71
     3
 72
     8
 73
     4
 74
     0
 42
0.000000001
 43
0.0000000001
 40
0.0
 40
0.0
 40
0.0
 40
0.0
 40
1.0
 40
1.0
 40
1.0
 40
1.0
 10
0.249980947161561
 20
10.2693265671408
 30
0.0
 41
1.0
 10
0.182784534592884
 20
10.2305307002557
 30
0.0
 41
1.0
 10
0.115112466682717
 20
10.1914602136311
 30
0.0
 41
1.0
 10
0.0469703231314327
 20
10.1521183287086
 30
0.0
 41
1.0
  0
SPLINE
  5
F4
330
1F
100
AcDbEntity
  8
SK1
100
AcDbSpline
210
0.0
220
0.0
230
1.0
 70
    12
 71
     3
 72
    12
 73
     8
 74
     0
 42
0.000000001
 43
0.0000000001
 40
0.0
 40
0.0
 40
0.0
 40
0.0
 40
0.5
 40
0.5
 40
0.75
 40
0.75
 40
1.0
 40
1.0
 40
1.0
 40
1.0
 10
0.249980947161532
 20
10.2693265671408
 30
0.0
 41
1.0
 10
0.271126314916216
 20
10.2815348509062
 30
0.0
 41
1.0
 10
0.288501148953316
 20
10.2980519996792
 30
0.0
 41
1.0
 10
0.308497323777431
 20
10.3297368364678
 30
0.0
 41
1.0
 10
0.314134955365745
 20
10.3415577123938
 30
0.0
 41
1.0
 10
0.322314839321166
 20
10.3678823547268
 30
0.0
 41
1.0
 10
0.3249809526557219
 20
10.3823371606149
 30
0.0
 41
1.0
 10
0.324980947161123
 20
10.3992304264963
 30
0.0
 41
1.0
  0
SPLINE
  5
F5
330
1F
100
AcDbEntity
  8
SK1
100
AcDbSpline
210
0.0
220
0.0
230
1.0
 70
    12
 71
     3
 72
    14
 73
    10
 74
     0
 42
0.000000001
 43
0.0000000001
 40
0.0
 40
0.0
 40
0.0
 40
0.0
 40
0.25
 40
0.25
 40
0.5
 40
0.5
 40
0.75
 40
0.75
 40
1.0
 40
1.0
 40
1.0
 40
1.0
 10
0.324980947161123
 20
10.6007696222993
 30
0.0
 41
1.0
 10
0.324980947161208
 20
10.6094716182522
 30
0.0
 41
1.0
 10
0.324268771107057
 20
10.6187488372202
 30
0.0
 41
1.0
 10
0.320311567264042
 20
10.6393587063548
 30
0.0
 41
1.0
 10
0.317072101415306
 20
10.6507683101554
 30
0.0
 41
1.0
 10
0.305588721991484
 20
10.6758121039916
 30
0.0
 41
1.0
 10
0.296479647805171
 20
10.6903185612508
 30
0.0
 41
1.0
 10
0.27371673258159
 20
10.7149282461654
 30
0.0
 41
1.0
 10
0.26112412731473
 20
10.7242399148092
 30
0.0
 41
1.0
 10
0.249980947160452
 20
10.7306734328707
 30
0.0
 41
1.0
  0
SPLINE
  5
F6
330
1F
100
AcDbEntity
  8
SK1
100
AcDbSpline
210
0.0
220
0.0
230
1.0
 70
    28
 71
     3
 72
     8
 73
     4
 74
     0
 42
0.000000001
 43
0.0000000001
 40
0.0
 40
0.0
 40
0.0
 40
0.0
 40
1.0
 40
1.0
 40
1.0
 40
1.0
 10
-0.3427690528369569
 20
11.0728978049294
 30
0.0
 41
1.0
 10
-0.144956402684414
 20
10.9586906181148
 30
0.0
 41
1.0
 10
0.0526311005797311
 20
10.8446134199167
 30
0.0
 41
1.0
 10
0.2499809471611339
 20
10.7306734328684
 30
0.0
 41
1.0
  0
SPLINE
  5
F7
330
1F
100
AcDbEntity
  8
SK1
100
AcDbSpline
210
0.0
220
0.0
230
1.0
 70
    12
 71
     3
 72
    22
 73
    18
 74
     0
 42
0.000000001
 43
0.0000000001
 40
0.0
 40
0.0
 40
0.0
 40
0.0
 40
0.250000000000012
 40
0.250000000000012
 40
0.500000000000024
 40
0.500000000000024
 40
0.625000000000023
 40
0.625000000000023
 40
0.7500000000000219
 40
0.7500000000000219
 40
0.812500000000017
 40
0.812500000000017
 40
0.875000000000011
 40
0.875000000000011
 40
0.937500000000006
 40
0.937500000000006
 40
1.0
 40
1.0
 40
1.0
 40
1.0
 10
-0.342769052838889
 20
11.4271021950784
 30
0.0
 41
1.0
 10
-0.3641392009019171
 20
11.4147641343416
 30
0.0
 41
1.0
 10
-0.38279503646902
 20
11.3990038010243
 30
0.0
 41
1.0
 10
-0.414485775922259
 20
11.360363796133
 30
0.0
 41
1.0
 10
-0.427387321549475
 20
11.3378225353033
 30
0.0
 41
1.0
 10
-0.4400563053901861
 20
11.2969915868428
 30
0.0
 41
1.0
 10
-0.44315304911791
 20
11.2821377660434
 30
0.0
 41
1.0
 10
-0.445684116399008
 20
11.24918198512
 30
0.0
 41
1.0
 10
-0.445238249152453
 20
11.2310314255257
 30
0.0
 41
1.0
 10
-0.4390542195351661
 20
11.1998361273057
 30
0.0
 41
1.0
 10
-0.4360064142473161
 20
11.1885638491982
 30
0.0
 41
1.0
 10
-0.42663855651756
 20
11.1642722947586
 30
0.0
 41
1.0
 10
-0.4202493839404721
 20
11.1510810564896
 30
0.0
 41
1.0
 10
-0.4022352200603051
 20
11.1237628004031
 30
0.0
 41
1.0
 10
-0.390493448089615
 20
11.1100099143652
 30
0.0
 41
1.0
 10
-0.3662510053015071
 20
11.0878857827438
 30
0.0
 41
1.0
 10
-0.354094587802507
 20
11.079436605586
 30
0.0
 41
1.0
 10
-0.342769052835394
 20
11.0728978049245
 30
0.0
 41
1.0
  0
SPLINE
  5
F8
330
1F
100
AcDbEntity
  8
SK1
100
AcDbSpline
210
0.0
220
0.0
230
1.0
 70
    28
 71
     3
 72
     8
 73
     4
 74
     0
 42
0.000000001
 43
0.0000000001
 40
0.0
 40
0.0
 40
0.0
 40
0.0
 40
1.0
 40
1.0
 40
1.0
 40
1.0
 10
0.24998094716176
 20
11.7693265671409
 30
0.0
 41
1.0
 10
0.0572098387454503
 20
11.6580301158048
 30
0.0
 41
1.0
 10
-0.140428826571195
 20
11.5439233791819
 30
0.0
 41
1.0
 10
-0.342769052838889
 20
11.4271021950784
 30
0.0
 41
1.0
  0
SPLINE
  5
F9
330
1F
100
AcDbEntity
  8
SK1
100
AcDbSpline
210
0.0
220
0.0
230
1.0
 70
    12
 71
     3
 72
    12
 73
     8
 74
     0
 42
0.000000001
 43
0.0000000001
 40
0.0
 40
0.0
 40
0.0
 40
0.0
 40
0.4999999999999981
 40
0.4999999999999981
 40
0.7499999999999991
 40
0.7499999999999991
 40
1.0
 40
1.0
 40
1.0
 40
1.0
 10
0.249980947161731
 20
11.7693265671409
 30
0.0
 41
1.0
 10
0.271252824097672
 20
11.7816078910162
 30
0.0
 41
1.0
 10
0.288661605339485
 20
11.7982211292885
 30
0.0
 41
1.0
 10
0.308635985285775
 20
11.8299998146483
 30
0.0
 41
1.0
 10
0.314204674629025
 20
11.8417437291665
 30
0.0
 41
1.0
 10
0.322319259757705
 20
11.8679352871698
 30
0.0
 41
1.0
 10
0.324980952823125
 20
11.882331297693
 30
0.0
 41
1.0
 10
0.324980947161123
 20
11.8992304279654
 30
0.0
 41
1.0
  0
SPLINE
  5
FA
330
1F
100
AcDbEntity
  8
SK1
100
AcDbSpline
210
0.0
220
0.0
230
1.0
 70
    12
 71
     3
 72
    16
 73
    12
 74
     0
 42
0.000000001
 43
0.0000000001
 40
0.0
 40
0.0
 40
0.0
 40
0.0
 40
0.250000000000005
 40
0.250000000000005
 40
0.50000000000001
 40
0.50000000000001
 40
0.7500000000000151
 40
0.7500000000000151
 40
0.8750000000000071
 40
0.8750000000000071
 40
1.0
 40
1.0
 40
1.0
 40
1.0
 10
0.324980947161123
 20
12.1007696223007
 30
0.0
 41
1.0
 10
0.324980947161123
 20
12.1091603018655
 30
0.0
 41
1.0
 10
0.324309623281351
 20
12.1181445945311
 30
0.0
 41
1.0
 10
0.320658555581758
 20
12.1379042096375
 30
0.0
 41
1.0
 10
0.3177929071543129
 20
12.1485863813642
 30
0.0
 41
1.0
 10
0.306979697105163
 20
12.1732818859369
 30
0.0
 41
1.0
 10
0.298378669723945
 20
12.187869115989
 30
0.0
 41
1.0
 10
0.280630941143784
 20
12.2076172179923
 30
0.0
 41
1.0
 10
0.274135693970607
 20
12.2136033036675
 30
0.0
 41
1.0
 10
0.261663498997819
 20
12.223444960787
 30
0.0
 41
1.0
 10
0.255702802243974
 20
12.2273699182964
 30
0.0
 41
1.0
 10
0.24998094716085
 20
12.2306734328689
 30
0.0
 41
1.0
  0
SPLINE
  5
FB
330
1F
100
AcDbEntity
  8
SK1
100
AcDbSpline
210
0.0
220
0.0
230
1.0
 70
    28
 71
     3
 72
     8
 73
     4
 74
     0
 42
0.000000001
 43
0.0000000001
 40
0.0
 40
0.0
 40
0.0
 40
0.0
 40
1.0
 40
1.0
 40
1.0
 40
1.0
 10
-0.342769052838889
 20
12.5728978049305
 30
0.0
 41
1.0
 10
-0.144826582198704
 20
12.4586156662224
 30
0.0
 41
1.0
 10
0.0527632894166743
 20
12.3445371006561
 30
0.0
 41
1.0
 10
0.2499809471611339
 20
12.2306734328684
 30
0.0
 41
1.0
  0
SPLINE
  5
FC
330
1F
100
AcDbEntity
  8
SK1
100
AcDbSpline
210
0.0
220
0.0
230
1.0
 70
    12
 71
     3
 72
    22
 73
    18
 74
     0
 42
0.000000001
 43
0.0000000001
 40
0.0
 40
0.0
 40
0.0
 40
0.0
 40
0.249999999999998
 40
0.249999999999998
 40
0.499999999999997
 40
0.499999999999997
 40
0.624999999999996
 40
0.624999999999996
 40
0.7499999999999949
 40
0.7499999999999949
 40
0.812499999999996
 40
0.812499999999996
 40
0.8749999999999969
 40
0.8749999999999969
 40
0.9374999999999989
 40
0.9374999999999989
 40
1.0
 40
1.0
 40
1.0
 40
1.0
 10
-0.342769052838889
 20
12.9271021950784
 30
0.0
 41
1.0
 10
-0.3638991331885109
 20
12.9149027375005
 30
0.0
 41
1.0
 10
-0.382301349969197
 20
12.8993948544374
 30
0.0
 41
1.0
 10
-0.413590628623268
 20
12.8616569387324
 30
0.0
 41
1.0
 10
-0.4264812287572961
 20
12.8395057813031
 30
0.0
 41
1.0
 10
-0.439340611946676
 20
12.7998345168928
 30
0.0
 41
1.0
 10
-0.4425571835426471
 20
12.785506909941
 30
0.0
 41
1.0
 10
-0.4456251593737761
 20
12.7534105679355
 30
0.0
 41
1.0
 10
-0.445572341475639
 20
12.7359641084738
 30
0.0
 41
1.0
 10
-0.4403903344600911
 20
12.70552953069
 30
0.0
 41
1.0
 10
-0.437757104230911
 20
12.6945147669147
 30
0.0
 41
1.0
 10
-0.4293789066978771
 20
12.6705429952264
 30
0.0
 41
1.0
 10
-0.423571453143069
 20
12.6573077544739
 30
0.0
 41
1.0
 10
-0.4060759919882461
 20
12.6287938387002
 30
0.0
 41
1.0
 10
-0.393906869266743
 20
12.6135562105405
 30
0.0
 41
1.0
 10
-0.367692788120848
 20
12.5888430238408
 30
0.0
 41
1.0
 10
-0.35463068952393
 20
12.5797461240637
 30
0.0
 41
1.0
 10
-0.342769052838889
 20
12.5728978049305
 30
0.0
 41
1.0
  0
SPLINE
  5
FD
330
1F
100
AcDbEntity
  8
SK1
100
AcDbSpline
210
0.0
220
0.0
230
1.0
 70
    28
 71
     3
 72
     8
 73
     4
 74
     0
 42
0.000000001
 43
0.0000000001
 40
0.0
 40
0.0
 40
0.0
 40
0.0
 40
1.0
 40
1.0
 40
1.0
 40
1.0
 10
0.249980947161959
 20
13.269326567141
 30
0.0
 41
1.0
 10
0.0585614418594957
 20
13.1588104642265
 30
0.0
 41
1.0
 10
-0.139093450172538
 20
13.0446943591052
 30
0.0
 41
1.0
 10
-0.342769052838889
 20
12.9271021950784
 30
0.0
 41
1.0
  0
SPLINE
  5
FE
330
1F
100
AcDbEntity
  8
SK1
100
AcDbSpline
210
0.0
220
0.0
230
1.0
 70
    12
 71
     3
 72
    12
 73
     8
 74
     0
 42
0.000000001
 43
0.0000000001
 40
0.0
 40
0.0
 40
0.0
 40
0.0
 40
0.50000000000001
 40
0.50000000000001
 40
0.7500000000000052
 40
0.7500000000000052
 40
1.0
 40
1.0
 40
1.0
 40
1.0
 10
0.249980947161959
 20
13.269326567141
 30
0.0
 41
1.0
 10
0.271385328434747
 20
13.2816843924309
 30
0.0
 41
1.0
 10
0.2888422347692479
 20
13.2984367477457
 30
0.0
 41
1.0
 10
0.308729368112921
 20
13.3301847619379
 30
0.0
 41
1.0
 10
0.31423654910833
 20
13.3418324974432
 30
0.0
 41
1.0
 10
0.322314560477508
 20
13.3679342801923
 30
0.0
 41
1.0
 10
0.324980953004626
 20
13.3822947958104
 30
0.0
 41
1.0
 10
0.324980947161123
 20
13.3992304294646
 30
0.0
 41
1.0
  0
SPLINE
  5
FF
330
1F
100
AcDbEntity
  8
SK1
100
AcDbSpline
210
0.0
220
0.0
230
1.0
 70
    12
 71
     3
 72
    18
 73
    14
 74
     0
 42
0.000000001
 43
0.0000000001
 40
0.0
 40
0.0
 40
0.0
 40
0.0
 40
0.249999999999976
 40
0.249999999999976
 40
0.4999999999999521
 40
0.4999999999999521
 40
0.6249999999999641
 40
0.6249999999999641
 40
0.7499999999999761
 40
0.7499999999999761
 40
0.8749999999999879
 40
0.8749999999999879
 40
1.0
 40
1.0
 40
1.0
 40
1.0
 10
0.324980947161123
 20
13.6007696223007
 30
0.0
 41
1.0
 10
0.324980947161123
 20
13.6087354024407
 30
0.0
 41
1.0
 10
0.324378061040022
 20
13.6172020417665
 30
0.0
 41
1.0
 10
0.321129129589508
 20
13.6358442686671
 30
0.0
 41
1.0
 10
0.318552588756575
 20
13.6460821415564
 30
0.0
 41
1.0
 10
0.311178929678533
 20
13.6639488888922
 30
0.0
 41
1.0
 10
0.30808922316794
 20
13.6703801801099
 30
0.0
 41
1.0
 10
0.299968734940507
 20
13.6840852619251
 30
0.0
 41
1.0
 10
0.294779912659237
 20
13.6915427093956
 30
0.0
 41
1.0
 10
0.28227578623563
 20
13.7060281753172
 30
0.0
 41
1.0
 10
0.275337287804007
 20
13.712573730903
 30
0.0
 41
1.0
 10
0.262131049820709
 20
13.7231477797227
 30
0.0
 41
1.0
 10
0.255839552614049
 20
13.7272909654388
 30
0.0
 41
1.0
 10
0.249980947157809
 20
13.7306734328757
 30
0.0
 41
1.0
  0
SPLINE
  5
100
330
1F
100
AcDbEntity
  8
SK1
100
AcDbSpline
210
0.0
220
0.0
230
1.0
 70
    28
 71
     3
 72
     8
 73
     4
 74
     0
 42
0.000000001
 43
0.0000000001
 40
0.0
 40
0.0
 40
0.0
 40
0.0
 40
1.0
 40
1.0
 40
1.0
 40
1.0
 10
-0.342769052838889
 20
14.0728978049306
 30
0.0
 41
1.0
 10
-0.144595422329758
 20
13.9584822060098
 30
0.0
 41
1.0
 10
0.053000004072743
 20
13.8444004333857
 30
0.0
 41
1.0
 10
0.249980947161106
 20
13.7306734328684
 30
0.0
 41
1.0
  0
SPLINE
  5
101
330
1F
100
AcDbEntity
  8
SK1
100
AcDbSpline
210
0.0
220
0.0
230
1.0
 70
    12
 71
     3
 72
    24
 73
    20
 74
     0
 42
0.000000001
 43
0.0000000001
 40
0.0
 40
0.0
 40
0.0
 40
0.0
 40
0.249999999999992
 40
0.249999999999992
 40
0.499999999999984
 40
0.499999999999984
 40
0.6249999999999849
 40
0.6249999999999849
 40
0.749999999999986
 40
0.749999999999986
 40
0.8124999999999859
 40
0.8124999999999859
 40
0.874999999999987
 40
0.874999999999987
 40
0.90624999999999
 40
0.90624999999999
 40
0.9374999999999928
 40
0.9374999999999928
 40
1.0
 40
1.0
 40
1.0
 40
1.0
 10
-0.342769052838889
 20
14.4271021950784
 30
0.0
 41
1.0
 10
-0.36364716914963
 20
14.4150482090062
 30
0.0
 41
1.0
 10
-0.381883709696695
 20
14.3997153626776
 30
0.0
 41
1.0
 10
-0.412760627849281
 20
14.3628339304811
 30
0.0
 41
1.0
 10
-0.425396201596641
 20
14.3414580368546
 30
0.0
 41
1.0
 10
-0.438419641872343
 20
14.3032595298515
 30
0.0
 41
1.0
 10
-0.441761489897289
 20
14.2894932907538
 30
0.0
 41
1.0
 10
-0.445408808317581
 20
14.2588558786903
 30
0.0
 41
1.0
 10
-0.445842715961504
 20
14.2420298278389
 30
0.0
 41
1.0
 10
-0.4417573425782561
 20
14.2122684374372
 30
0.0
 41
1.0
 10
-0.43961510221115
 20
14.2017197487894
 30
0.0
 41
1.0
 10
-0.432430534830758
 20
14.1783047936604
 30
0.0
 41
1.0
 10
-0.427384570685064
 20
14.1652713644201
 30
0.0
 41
1.0
 10
-0.415254455817262
 20
14.1434301059981
 30
0.0
 41
1.0
 10
-0.410391554240874
 20
14.1357148338722
 30
0.0
 41
1.0
 10
-0.3985895232322039
 20
14.1198789320713
 30
0.0
 41
1.0
 10
-0.391669363998318
 20
14.1118846134219
 30
0.0
 41
1.0
 10
-0.370149901852642
 20
14.0905503236743
 30
0.0
 41
1.0
 10
-0.3554775645376939
 20
14.0802350675808
 30
0.0
 41
1.0
 10
-0.342769052838889
 20
14.0728978049306
 30
0.0
 41
1.0
  0
SPLINE
  5
102
330
1F
100
AcDbEntity
  8
SK1
100
AcDbSpline
210
0.0
220
0.0
230
1.0
 70
    28
 71
     3
 72
     8
 73
     4
 74
     0
 42
0.000000001
 43
0.0000000001
 40
0.0
 40
0.0
 40
0.0
 40
0.0
 40
1.0
 40
1.0
 40
1.0
 40
1.0
 10
0.2499809471611339
 20
14.7693265671405
 30
0.0
 41
1.0
 10
0.0607307434434574
 20
14.66006291108
 30
0.0
 41
1.0
 10
-0.136951465371141
 20
14.5459310346068
 30
0.0
 41
1.0
 10
-0.342769052838889
 20
14.4271021950784
 30
0.0
 41
1.0
  0
SPLINE
  5
103
330
1F
100
AcDbEntity
  8
SK1
100
AcDbSpline
210
0.0
220
0.0
230
1.0
 70
    12
 71
     3
 72
    12
 73
     8
 74
     0
 42
0.000000001
 43
0.0000000001
 40
0.0
 40
0.0
 40
0.0
 40
0.0
 40
0.4999999999999911
 40
0.4999999999999911
 40
0.7499999999999949
 40
0.7499999999999949
 40
1.0
 40
1.0
 40
1.0
 40
1.0
 10
0.2499809471611339
 20
14.7693265671405
 30
0.0
 41
1.0
 10
0.271522771615736
 20
14.7817637452882
 30
0.0
 41
1.0
 10
0.289017650643871
 20
14.7986676405864
 30
0.0
 41
1.0
 10
0.308767375299709
 20
14.8302702435322
 30
0.0
 41
1.0
 10
0.314257261279209
 20
14.8418815202535
 30
0.0
 41
1.0
 10
0.322328249137286
 20
14.8679964902457
 30
0.0
 41
1.0
 10
0.324980952495764
 20
14.8824702317472
 30
0.0
 41
1.0
 10
0.324980947161123
 20
14.899230425452
 30
0.0
 41
1.0
  0
SPLINE
  5
104
330
1F
100
AcDbEntity
  8
SK1
100
AcDbSpline
210
0.0
220
0.0
230
1.0
 70
    12
 71
     3
 72
    18
 73
    14
 74
     0
 42
0.000000001
 43
0.0000000001
 40
0.0
 40
0.0
 40
0.0
 40
0.0
 40
0.249999999999983
 40
0.249999999999983
 40
0.4999999999999661
 40
0.4999999999999661
 40
0.6249999999999741
 40
0.6249999999999741
 40
0.749999999999983
 40
0.749999999999983
 40
0.8749999999999909
 40
0.8749999999999909
 40
1.0
 40
1.0
 40
1.0
 40
1.0
 10
0.324980947161123
 20
15.1007696223007
 30
0.0
 41
1.0
 10
0.324980947161123
 20
15.1082975285075
 30
0.0
 41
1.0
 10
0.3244407518782
 20
15.1163571186074
 30
0.0
 41
1.0
 10
0.321499710077518
 20
15.1341381011486
 30
0.0
 41
1.0
 10
0.319181655555866
 20
15.1438037302868
 30
0.0
 41
1.0
 10
0.312626808722911
 20
15.1606867441339
 30
0.0
 41
1.0
 10
0.3099212787423649
 20
15.1667281887011
 30
0.0
 41
1.0
 10
0.302448739441104
 20
15.1802138637541
 30
0.0
 41
1.0
 10
0.29765852923461
 20
15.187684401404
 30
0.0
 41
1.0
 10
0.284768039341969
 20
15.2034865262671
 30
0.0
 41
1.0
 10
0.276951489819908
 20
15.2111675640573
 30
0.0
 41
1.0
 10
0.262602924646558
 20
15.2228682962319
 30
0.0
 41
1.0
 10
0.255987477706867
 20
15.2272055608409
 30
0.0
 41
1.0
 10
0.2499809471611339
 20
15.2306734328684
 30
0.0
 41
1.0
  0
SPLINE
  5
105
330
1F
100
AcDbEntity
  8
SK1
100
AcDbSpline
210
0.0
220
0.0
230
1.0
 70
    28
 71
     3
 72
     8
 73
     4
 74
     0
 42
0.000000001
 43
0.0000000001
 40
0.0
 40
0.0
 40
0.0
 40
0.0
 40
1.0
 40
1.0
 40
1.0
 40
1.0
 10
-0.342769052837184
 20
15.5728978049296
 30
0.0
 41
1.0
 10
-0.144124364080824
 20
15.458210240403
 30
0.0
 41
1.0
 10
0.053484127968801
 20
15.344120924324
 30
0.0
 41
1.0
 10
0.249980947161106
 20
15.2306734328684
 30
0.0
 41
1.0
  0
SPLINE
  5
106
330
1F
100
AcDbEntity
  8
SK1
100
AcDbSpline
210
0.0
220
0.0
230
1.0
 70
    12
 71
     3
 72
    26
 73
    22
 74
     0
 42
0.000000001
 43
0.0000000001
 40
0.0
 40
0.0
 40
0.0
 40
0.0
 40
0.249999999999993
 40
0.249999999999993
 40
0.4999999999999871
 40
0.4999999999999871
 40
0.624999999999989
 40
0.624999999999989
 40
0.749999999999991
 40
0.749999999999991
 40
0.8124999999999909
 40
0.8124999999999909
 40
0.87499999999999
 40
0.87499999999999
 40
0.9062499999999928
 40
0.9062499999999928
 40
0.9374999999999948
 40
0.9374999999999948
 40
0.9687499999999978
 40
0.9687499999999978
 40
1.0
 40
1.0
 40
1.0
 40
1.0
 10
-0.342769052838918
 20
15.9271021950784
 30
0.0
 41
1.0
 10
-0.363331826393761
 20
15.9152302722312
 30
0.0
 41
1.0
 10
-0.381215016577727
 20
15.9002516840649
 30
0.0
 41
1.0
 10
-0.4115925819678521
 20
15.8644760691489
 30
0.0
 41
1.0
 10
-0.424183315279805
 20
15.8437113242316
 30
0.0
 41
1.0
 10
-0.4374992517004161
 20
15.8065029393356
 30
0.0
 41
1.0
 10
-0.440999019416807
 20
15.7930790413227
 30
0.0
 41
1.0
 10
-0.4451510649157341
 20
15.7631818220853
 30
0.0
 41
1.0
 10
-0.4458742858498971
 20
15.7467988246982
 30
0.0
 41
1.0
 10
-0.442797544982653
 20
15.7184745511079
 30
0.0
 41
1.0
 10
-0.4410721214686931
 20
15.7083607502292
 30
0.0
 41
1.0
 10
-0.435062149184205
 20
15.6859036340929
 30
0.0
 41
1.0
 10
-0.430985445417576
 20
15.6738466499551
 30
0.0
 41
1.0
 10
-0.420351616464728
 20
15.6523033705018
 30
0.0
 41
1.0
 10
-0.4159935815140441
 20
15.6444899416664
 30
0.0
 41
1.0
 10
-0.404659182765016
 20
15.6276002435827
 30
0.0
 41
1.0
 10
-0.39744998720198
 20
15.6183626777346
 30
0.0
 41
1.0
 10
-0.3815016907190061
 20
15.6014079457391
 30
0.0
 41
1.0
 10
-0.372810150429416
 20
15.5937359655246
 30
0.0
 41
1.0
 10
-0.3570042876395971
 20
15.5816237159052
 30
0.0
 41
1.0
 10
-0.3496237276722811
 20
15.5768553532907
 30
0.0
 41
1.0
 10
-0.342769052837184
 20
15.5728978049296
 30
0.0
 41
1.0
  0
SPLINE
  5
107
330
1F
100
AcDbEntity
  8
SK1
100
AcDbSpline
210
0.0
220
0.0
230
1.0
 70
    28
 71
     3
 72
     8
 73
     4
 74
     0
 42
0.000000001
 43
0.0000000001
 40
0.0
 40
0.0
 40
0.0
 40
0.0
 40
1.0
 40
1.0
 40
1.0
 40
1.0
 10
0.2499809471611339
 20
16.2693265671405
 30
0.0
 41
1.0
 10
0.0648365548907179
 20
16.1624334024243
 30
0.0
 41
1.0
 10
-0.132896815745909
 20
16.0482719876594
 30
0.0
 41
1.0
 10
-0.342769052838889
 20
15.9271021950784
 30
0.0
 41
1.0
  0
SPLINE
  5
108
330
1F
100
AcDbEntity
  8
SK1
100
AcDbSpline
210
0.0
220
0.0
230
1.0
 70
    12
 71
     3
 72
    12
 73
     8
 74
     0
 42
0.000000001
 43
0.0000000001
 40
0.0
 40
0.0
 40
0.0
 40
0.0
 40
0.499999999999999
 40
0.499999999999999
 40
0.7499999999999991
 40
0.7499999999999991
 40
1.0
 40
1.0
 40
1.0
 40
1.0
 10
0.249980947161106
 20
16.2693265671405
 30
0.0
 41
1.0
 10
0.271821990502474
 20
16.2819364993931
 30
0.0
 41
1.0
 10
0.289252343848744
 20
16.298923652987
 30
0.0
 41
1.0
 10
0.308955278474087
 20
16.3306320808571
 30
0.0
 41
1.0
 10
0.314421205763921
 20
16.3422990157904
 30
0.0
 41
1.0
 10
0.322383834273666
 20
16.36829246310619
 30
0.0
 41
1.0
 10
0.324980952818038
 20
16.3825483441045
 30
0.0
 41
1.0
 10
0.324980947161691
 20
16.3992304285683
 30
0.0
 41
1.0
  0
SPLINE
  5
109
330
1F
100
AcDbEntity
  8
SK1
100
AcDbSpline
210
0.0
220
0.0
230
1.0
 70
    12
 71
     3
 72
    20
 73
    16
 74
     0
 42
0.000000001
 43
0.0000000001
 40
0.0
 40
0.0
 40
0.0
 40
0.0
 40
0.249999999999999
 40
0.249999999999999
 40
0.499999999999997
 40
0.499999999999997
 40
0.6249999999999809
 40
0.6249999999999809
 40
0.7499999999999642
 40
0.7499999999999642
 40
0.812499999999977
 40
0.812499999999977
 40
0.87499999999999
 40
0.87499999999999
 40
1.0
 40
1.0
 40
1.0
 40
1.0
 10
0.324980947161123
 20
16.6007696223007
 30
0.0
 41
1.0
 10
0.324980947161123
 20
16.6078032185018
 30
0.0
 41
1.0
 10
0.32450913187435
 20
16.6152775726067
 30
0.0
 41
1.0
 10
0.321988989283113
 20
16.6317178726095
 30
0.0
 41
1.0
 10
0.319997432428039
 20
16.6406666206477
 30
0.0
 41
1.0
 10
0.314453591192347
 20
16.6562472703764
 30
0.0
 41
1.0
 10
0.3121772679720039
 20
16.6618214930529
 30
0.0
 41
1.0
 10
0.305814417568314
 20
16.6744769108657
 30
0.0
 41
1.0
 10
0.301830241082115
 20
16.6815074788983
 30
0.0
 41
1.0
 10
0.2925082524435539
 20
16.6941220123461
 30
0.0
 41
1.0
 10
0.288820724973419
 20
16.6986410544387
 30
0.0
 41
1.0
 10
0.280370180446596
 20
16.7076874493857
 30
0.0
 41
1.0
 10
0.275915330575202
 20
16.7118635171981
 30
0.0
 41
1.0
 10
0.263444356731469
 20
16.7223946120081
 30
0.0
 41
1.0
 10
0.256283828454855
 20
16.7270344626568
 30
0.0
 41
1.0
 10
0.2499809471611339
 20
16.7306734328684
 30
0.0
 41
1.0
  0
SPLINE
  5
10A
330
1F
100
AcDbEntity
  8
SK1
100
AcDbSpline
210
0.0
220
0.0
230
1.0
 70
    28
 71
     3
 72
     8
 73
     4
 74
     0
 42
0.000000001
 43
0.0000000001
 40
0.0
 40
0.0
 40
0.0
 40
0.0
 40
1.0
 40
1.0
 40
1.0
 40
1.0
 10
-0.342769052838918
 20
17.07289780493059
 30
0.0
 41
1.0
 10
-0.14292323900213
 20
16.9575167705155
 30
0.0
 41
1.0
 10
0.0547247618737003
 20
16.843404644005
 30
0.0
 41
1.0
 10
0.249980947161106
 20
16.7306734328684
 30
0.0
 41
1.0
  0
SPLINE
  5
10B
330
1F
100
AcDbEntity
  8
SK1
100
AcDbSpline
210
0.0
220
0.0
230
1.0
 70
    12
 71
     3
 72
    28
 73
    24
 74
     0
 42
0.000000001
 43
0.0000000001
 40
0.0
 40
0.0
 40
0.0
 40
0.0
 40
0.250000000000001
 40
0.250000000000001
 40
0.5000000000000031
 40
0.5000000000000031
 40
0.625000000000004
 40
0.625000000000004
 40
0.750000000000004
 40
0.750000000000004
 40
0.8125000000000078
 40
0.8125000000000078
 40
0.875000000000012
 40
0.875000000000012
 40
0.906250000000011
 40
0.906250000000011
 40
0.9375000000000099
 40
0.9375000000000099
 40
0.953125000000006
 40
0.953125000000006
 40
0.968750000000003
 40
0.968750000000003
 40
1.0
 40
1.0
 40
1.0
 40
1.0
 10
-0.342769052838889
 20
17.4271021950784
 30
0.0
 41
1.0
 10
-0.362720981479328
 20
17.41558294370699
 30
0.0
 41
1.0
 10
-0.380152456249704
 20
17.4011491961865
 30
0.0
 41
1.0
 10
-0.410099323642726
 20
17.3665594209394
 30
0.0
 41
1.0
 10
-0.4226639248591649
 20
17.3464551713387
 30
0.0
 41
1.0
 10
-0.4363132462671901
 20
17.3104144845249
 30
0.0
 41
1.0
 10
-0.439985184899996
 20
17.2973874805499
 30
0.0
 41
1.0
 10
-0.4446873118681651
 20
17.2686449230887
 30
0.0
 41
1.0
 10
-0.445800474153088
 20
17.25296551257609
 30
0.0
 41
1.0
 10
-0.44378838176425
 20
17.2258322224759
 30
0.0
 41
1.0
 10
-0.442501443656255
 20
17.2162018951879
 30
0.0
 41
1.0
 10
-0.437760921268108
 20
17.194910586974
 30
0.0
 41
1.0
 10
-0.434413771526124
 20
17.1833061362723
 30
0.0
 41
1.0
 10
-0.4256049869661071
 20
17.162712012074
 30
0.0
 41
1.0
 10
-0.4220731861730371
 20
17.1553836637324
 30
0.0
 41
1.0
 10
-0.4123127961426011
 20
17.1386399345323
 30
0.0
 41
1.0
 10
-0.4059117135325611
 20
17.128960460933
 30
0.0
 41
1.0
 10
-0.392794606359502
 20
17.1133300733288
 30
0.0
 41
1.0
 10
-0.387812534906573
 20
17.1079628158597
 30
0.0
 41
1.0
 10
-0.377683397641704
 20
17.0981583915627
 30
0.0
 41
1.0
 10
-0.3726494902926451
 20
17.0938016135018
 30
0.0
 41
1.0
 10
-0.3585442181704929
 20
17.0825638505764
 30
0.0
 41
1.0
 10
-0.350240876687764
 20
17.077211664441
 30
0.0
 41
1.0
 10
-0.342769052838889
 20
17.07289780493059
 30
0.0
 41
1.0
  0
SPLINE
  5
10C
330
1F
100
AcDbEntity
  8
SK1
100
AcDbSpline
210
0.0
220
0.0
230
1.0
 70
    28
 71
     3
 72
     8
 73
     4
 74
     0
 42
0.000000001
 43
0.0000000001
 40
0.0
 40
0.0
 40
0.0
 40
0.0
 40
1.0
 40
1.0
 40
1.0
 40
1.0
 10
0.2499809471611339
 20
17.7693265671405
 30
0.0
 41
1.0
 10
0.0754822092157781
 20
17.6685796738145
 30
0.0
 41
1.0
 10
-0.122384349147978
 20
17.5543413630796
 30
0.0
 41
1.0
 10
-0.342769052838889
 20
17.4271021950784
 30
0.0
 41
1.0
  0
SPLINE
  5
10D
330
1F
100
AcDbEntity
  8
SK1
100
AcDbSpline
210
0.0
220
0.0
230
1.0
 70
    12
 71
     3
 72
    12
 73
     8
 74
     0
 42
0.000000001
 43
0.0000000001
 40
0.0
 40
0.0
 40
0.0
 40
0.0
 40
0.4999999999999981
 40
0.4999999999999981
 40
0.7499999999999991
 40
0.7499999999999991
 40
1.0
 40
1.0
 40
1.0
 40
1.0
 10
0.249980947161106
 20
17.7693265671405
 30
0.0
 41
1.0
 10
0.272396005300777
 20
17.7822679069914
 30
0.0
 41
1.0
 10
0.2898471975723
 20
17.7996186392808
 30
0.0
 41
1.0
 10
0.309328354487178
 20
17.831370502791
 30
0.0
 41
1.0
 10
0.314671304432437
 20
17.84294997374639
 30
0.0
 41
1.0
 10
0.322455078688535
 20
17.8686974395114
 30
0.0
 41
1.0
 10
0.324980952955428
 20
17.8827804691395
 30
0.0
 41
1.0
 10
0.324980947161123
 20
17.899230430544
 30
0.0
 41
1.0
  0
SPLINE
  5
10E
330
1F
100
AcDbEntity
  8
SK1
100
AcDbSpline
210
0.0
220
0.0
230
1.0
 70
    12
 71
     3
 72
    22
 73
    18
 74
     0
 42
0.000000001
 43
0.0000000001
 40
0.0
 40
0.0
 40
0.0
 40
0.0
 40
0.5000000000000321
 40
0.5000000000000321
 40
0.6250000000000289
 40
0.6250000000000289
 40
0.750000000000026
 40
0.750000000000026
 40
0.812500000000025
 40
0.812500000000025
 40
0.8437500000000239
 40
0.8437500000000239
 40
0.8750000000000229
 40
0.8750000000000229
 40
0.937500000000012
 40
0.937500000000012
 40
1.0
 40
1.0
 40
1.0
 40
1.0
 10
0.324980947161123
 20
18.100769622303
 30
0.0
 41
1.0
 10
0.324980947160924
 20
18.1137816980146
 30
0.0
 41
1.0
 10
0.323796984574159
 20
18.1278288247732
 30
0.0
 41
1.0
 10
0.316406241304946
 20
18.1509944868172
 30
0.0
 41
1.0
 10
0.314597684644212
 20
18.1559386971482
 30
0.0
 41
1.0
 10
0.309711471155339
 20
18.16698250706789
 30
0.0
 41
1.0
 10
0.306734779287524
 20
18.1730323018146
 30
0.0
 41
1.0
 10
0.299547140858095
 20
18.1844565697326
 30
0.0
 41
1.0
 10
0.296691811621685
 20
18.1887032504384
 30
0.0
 41
1.0
 10
0.290377886777748
 20
18.1966602407085
 30
0.0
 41
1.0
 10
0.287896294877072
 20
18.1996058463459
 30
0.0
 41
1.0
 10
0.282051361801706
 20
18.2059095349981
 30
0.0
 41
1.0
 10
0.278861017606488
 20
18.2090527170129
 30
0.0
 41
1.0
 10
0.269898927186915
 20
18.2171988609506
 30
0.0
 41
1.0
 10
0.265152990595681
 20
18.2207474447514
 30
0.0
 41
1.0
 10
0.256850840502409
 20
18.226559112567
 30
0.0
 41
1.0
 10
0.253267911824139
 20
18.2287757029354
 30
0.0
 41
1.0
 10
0.249980947161163
 20
18.2306734328684
 30
0.0
 41
1.0
  0
SPLINE
  5
10F
330
1F
100
AcDbEntity
  8
SK1
100
AcDbSpline
210
0.0
220
0.0
230
1.0
 70
    28
 71
     3
 72
     8
 73
     4
 74
     0
 42
0.000000001
 43
0.0000000001
 40
0.0
 40
0.0
 40
0.0
 40
0.0
 40
1.0
 40
1.0
 40
1.0
 40
1.0
 10
-0.342769052838918
 20
18.5728978049306
 30
0.0
 41
1.0
 10
-0.137660453239164
 20
18.4544782997386
 30
0.0
 41
1.0
 10
0.0602000624352002
 20
18.340243477752
 30
0.0
 41
1.0
 10
0.249980947161106
 20
18.2306734328684
 30
0.0
 41
1.0
  0
SPLINE
  5
110
330
1F
100
AcDbEntity
  8
SK1
100
AcDbSpline
210
0.0
220
0.0
230
1.0
 70
    12
 71
     3
 72
    30
 73
    26
 74
     0
 42
0.000000001
 43
0.0000000001
 40
0.0
 40
0.0
 40
0.0
 40
0.0
 40
0.250000000000001
 40
0.250000000000001
 40
0.500000000000001
 40
0.500000000000001
 40
0.7500000000000022
 40
0.7500000000000022
 40
0.812500000000003
 40
0.812500000000003
 40
0.8750000000000051
 40
0.8750000000000051
 40
0.9062500000000051
 40
0.9062500000000051
 40
0.9375000000000051
 40
0.9375000000000051
 40
0.953125000000006
 40
0.953125000000006
 40
0.9609375000000051
 40
0.9609375000000051
 40
0.9687500000000039
 40
0.9687500000000039
 40
0.9843750000000021
 40
0.9843750000000021
 40
1.0
 40
1.0
 40
1.0
 40
1.0
 10
-0.342769052838889
 20
18.9271021950784
 30
0.0
 41
1.0
 10
-0.361317770924416
 20
18.9163930876986
 30
0.0
 41
1.0
 10
-0.377928050253956
 20
18.9030121234244
 30
0.0
 41
1.0
 10
-0.407054784269889
 20
18.8706639657971
 30
0.0
 41
1.0
 10
-0.41961725518334
 20
18.8517443816911
 30
0.0
 41
1.0
 10
-0.4386665893644591
 20
18.8062640120962
 30
0.0
 41
1.0
 10
-0.4456537798351971
 20
18.7802516467673
 30
0.0
 41
1.0
 10
-0.444810916120559
 20
18.7374090262851
 30
0.0
 41
1.0
 10
-0.4441156254111721
 20
18.7282871925248
 30
0.0
 41
1.0
 10
-0.4409701920026521
 20
18.7082585196788
 30
0.0
 41
1.0
 10
-0.438589114136221
 20
18.6973984755425
 30
0.0
 41
1.0
 10
-0.432195159830769
 20
18.6784100223682
 30
0.0
 41
1.0
 10
-0.4295953694897041
 20
18.6716280591157
 30
0.0
 41
1.0
 10
-0.422465578064504
 20
18.6562584585448
 30
0.0
 41
1.0
 10
-0.4181652738954821
 20
18.6478652592676
 30
0.0
 41
1.0
 10
-0.407377837534938
 20
18.6315907319954
 30
0.0
 41
1.0
 10
-0.4030220108484461
 20
18.6254889500086
 30
0.0
 41
1.0
 10
-0.393854982588238
 20
18.6146085919272
 30
0.0
 41
1.0
 10
-0.390324880273852
 20
18.6106935937561
 30
0.0
 41
1.0
 10
-0.382945752215107
 20
18.6031575808603
 30
0.0
 41
1.0
 10
-0.379087438396453
 20
18.59952882794389
 30
0.0
 41
1.0
 10
-0.368393800696424
 20
18.5901301052477
 30
0.0
 41
1.0
 10
-0.3623997777089579
 20
18.5856625711658
 30
0.0
 41
1.0
 10
-0.351820949238459
 20
18.5783212608723
 30
0.0
 41
1.0
 10
-0.347121257748029
 20
18.57541055160639
 30
0.0
 41
1.0
 10
-0.342769052838889
 20
18.5728978049305
 30
0.0
 41
1.0
  0
SPLINE
  5
111
330
1F
100
AcDbEntity
  8
1
100
AcDbSpline
210
0.0
220
0.0
230
1.0
 70
    12
 71
     3
 72
    26
 73
    22
 74
     0
 42
0.000000001
 43
0.0000000001
 40
0.0
 40
0.0
 40
0.0
 40
0.0
 40
0.124999999999998
 40
0.124999999999998
 40
0.249999999999997
 40
0.249999999999997
 40
0.374999999999995
 40
0.374999999999995
 40
0.4374999999999951
 40
0.4374999999999951
 40
0.4999999999999951
 40
0.4999999999999951
 40
0.624999999999996
 40
0.624999999999996
 40
0.749999999999997
 40
0.749999999999997
 40
0.8124999999999978
 40
0.8124999999999978
 40
0.8749999999999989
 40
0.8749999999999989
 40
1.0
 40
1.0
 40
1.0
 40
1.0
 10
-6.270000000000549
 20
-10.9943379209843
 30
0.0
 41
1.0
 10
-6.270000000000549
 20
-10.8783312718688
 30
0.0
 41
1.0
 10
-6.261481493579308
 20
-10.76214645463
 30
0.0
 41
1.0
 10
-6.226679964899999
 20
-10.5299902973298
 30
0.0
 41
1.0
 10
-6.20081665553195
 20
-10.4167279848985
 30
0.0
 41
1.0
 10
-6.1322239158917
 20
-10.1958152715027
 30
0.0
 41
1.0
 10
-6.0895093093207
 20
-10.0881599382069
 30
0.0
 41
1.0
 10
-6.01147164409619
 20
-9.931323803012789
 30
0.0
 41
1.0
 10
-5.982981331594539
 20
-9.87964110287683
 30
0.0
 41
1.0
 10
-5.92208013120862
 20
-9.77986255092901
 30
0.0
 41
1.0
 10
-5.889590073673049
 20
-9.73156511155935
 30
0.0
 41
1.0
 10
-5.785788883770209
 20
-9.591614277081189
 30
0.0
 41
1.0
 10
-5.708184051512719
 20
-9.504776282139971
 30
0.0
 41
1.0
 10
-5.533549868383349
 20
-9.346653621791348
 30
0.0
 41
1.0
 10
-5.43797976940601
 20
-9.277083289811338
 30
0.0
 41
1.0
 10
-5.28623357587196
 20
-9.19171555773784
 30
0.0
 41
1.0
 10
-5.2340837485867
 20
-9.166274868349688
 30
0.0
 41
1.0
 10
-5.12644764307075
 20
-9.121810364712249
 30
0.0
 41
1.0
 10
-5.070537533062349
 20
-9.10269482452205
 30
0.0
 41
1.0
 10
-4.90154374496592
 20
-9.05697382773647
 30
0.0
 41
1.0
 10
-4.7868354223107
 20
-9.04143656133618
 30
0.0
 41
1.0
 10
-4.67000000000053
 20
-9.04143656133618
 30
0.0
 41
1.0
  0
SPLINE
  5
112
330
1F
100
AcDbEntity
  8
SK1
100
AcDbSpline
210
0.0
220
0.0
230
1.0
 70
    28
 71
     3
 72
     8
 73
     4
 74
     0
 42
0.000000001
 43
0.0000000001
 40
0.0
 40
0.0
 40
0.0
 40
0.0
 40
1.0
 40
1.0
 40
1.0
 40
1.0
 10
0.0469703231311769
 20
-10.1521183286995
 30
0.0
 41
1.0
 10
-0.0693189021624221
 20
-10.0849787131724
 30
0.0
 41
1.0
 10
-0.200228104510558
 20
-10.0093982499573
 30
0.0
 41
1.0
 10
-0.342769052838776
 20
-9.92710219506949
 30
0.0
 41
1.0
  0
SPLINE
  5
113
330
1F
100
AcDbEntity
  8
SK1
100
AcDbSpline
210
0.0
220
0.0
230
1.0
 70
    28
 71
     3
 72
     8
 73
     4
 74
     0
 42
0.000000001
 43
0.0000000001
 40
0.0
 40
0.0
 40
0.0
 40
0.0
 40
1.0
 40
1.0
 40
1.0
 40
1.0
 10
0.2499809471611339
 20
5.769326567140549
 30
0.0
 41
1.0
 10
0.125290129203876
 20
5.69733628982743
 30
0.0
 41
1.0
 10
-0.000126053685932
 20
5.624927222875269
 30
0.0
 41
1.0
 10
-0.126148905033062
 20
5.55216789572597
 30
0.0
 41
1.0
  0
SPLINE
  5
114
330
1F
100
AcDbEntity
  8
SK1
100
AcDbSpline
210
0.0
220
0.0
230
1.0
 70
    28
 71
     3
 72
     8
 73
     4
 74
     0
 42
0.000000001
 43
0.0000000001
 40
0.0
 40
0.0
 40
0.0
 40
0.0
 40
1.0
 40
1.0
 40
1.0
 40
1.0
 10
0.249980947161021
 20
-5.769326567131539
 30
0.0
 41
1.0
 10
0.125290129203791
 20
-5.69733628981845
 30
0.0
 41
1.0
 10
-0.0001260536859888
 20
-5.62492722286632
 30
0.0
 41
1.0
 10
-0.126148905033091
 20
-5.55216789571702
 30
0.0
 41
1.0
  0
SPLINE
  5
115
330
1F
100
AcDbEntity
  8
SK1
100
AcDbSpline
210
0.0
220
0.0
230
1.0
 70
    12
 71
     3
 72
    10
 73
     6
 74
     0
 42
0.000000001
 43
0.0000000001
 40
0.0
 40
0.0
 40
0.0
 40
0.0
 40
0.5
 40
0.5
 40
1.0
 40
1.0
 40
1.0
 40
1.0
 10
0.324980947161151
 20
-5.89923038581725
 30
0.0
 41
1.0
 10
0.32498094878315
 20
-5.869259808017829
 30
0.0
 41
1.0
 10
0.3154192079553581
 20
-5.84050504266011
 30
0.0
 41
1.0
 10
0.287575494756396
 20
-5.796789966131429
 30
0.0
 41
1.0
 10
0.269423016933558
 20
-5.780551451348259
 30
0.0
 41
1.0
 10
0.249980947161021
 20
-5.76932656713151
 30
0.0
 41
1.0
  0
SPLINE
  5
116
330
1F
100
AcDbEntity
  8
SK1
100
AcDbSpline
210
0.0
220
0.0
230
1.0
 70
    12
 71
     3
 72
    10
 73
     6
 74
     0
 42
0.000000001
 43
0.0000000001
 40
0.0
 40
0.0
 40
0.0
 40
0.0
 40
0.5
 40
0.5
 40
1.0
 40
1.0
 40
1.0
 40
1.0
 10
0.249980947161191
 20
-6.230673432859419
 30
0.0
 41
1.0
 10
0.269234514782738
 20
-6.219557380410269
 30
0.0
 41
1.0
 10
0.287688786376862
 20
-6.20322110924741
 30
0.0
 41
1.0
 10
0.315929492509412
 20
-6.15850065176721
 30
0.0
 41
1.0
 10
0.324980947161151
 20
-6.12964370819006
 30
0.0
 41
1.0
 10
0.324980947161151
 20
-6.100769622291809
 30
0.0
 41
1.0
  0
SPLINE
  5
117
330
1F
100
AcDbEntity
  8
SK1
100
AcDbSpline
210
0.0
220
0.0
230
1.0
 70
    28
 71
     3
 72
     8
 73
     4
 74
     0
 42
0.000000001
 43
0.0000000001
 40
0.0
 40
0.0
 40
0.0
 40
0.0
 40
1.0
 40
1.0
 40
1.0
 40
1.0
 10
-0.342769052838861
 20
-6.57289780492161
 30
0.0
 41
1.0
 10
-0.144388484030742
 20
-6.45836273011827
 30
0.0
 41
1.0
 10
0.0532711848772465
 20
-6.3442438670663
 30
0.0
 41
1.0
 10
0.2499809471611339
 20
-6.23067343285948
 30
0.0
 41
1.0
  0
SPLINE
  5
118
330
1F
100
AcDbEntity
  8
SK1
100
AcDbSpline
210
0.0
220
0.0
230
1.0
 70
    12
 71
     3
 72
    18
 73
    14
 74
     0
 42
0.000000001
 43
0.0000000001
 40
0.0
 40
0.0
 40
0.0
 40
0.0
 40
0.125000000000014
 40
0.125000000000014
 40
0.250000000000027
 40
0.250000000000027
 40
0.500000000000029
 40
0.500000000000029
 40
0.6250000000000221
 40
0.6250000000000221
 40
0.7500000000000151
 40
0.7500000000000151
 40
1.0
 40
1.0
 40
1.0
 40
1.0
 10
-0.342769052839543
 20
-6.927102195071059
 30
0.0
 41
1.0
 10
-0.3552176052962179
 20
-6.919915019959178
 30
0.0
 41
1.0
 10
-0.3670713419581379
 20
-6.9113478633611
 30
0.0
 41
1.0
 10
-0.389413177876804
 20
-6.890993455244879
 30
0.0
 41
1.0
 10
-0.399960795512896
 20
-6.879091758571239
 30
0.0
 41
1.0
 10
-0.4276334286452651
 20
-6.838729172884829
 30
0.0
 41
1.0
 10
-0.4417319473660661
 20
-6.803981566119209
 30
0.0
 41
1.0
 10
-0.4459090793588701
 20
-6.744496900196249
 30
0.0
 41
1.0
 10
-0.444326698213445
 20
-6.72344563035011
 30
0.0
 41
1.0
 10
-0.434966071459172
 20
-6.68341886295153
 30
0.0
 41
1.0
 10
-0.4271559539441231
 20
-6.664146737417299
 30
0.0
 41
1.0
 10
-0.397611777000776
 20
-6.613334026858808
 30
0.0
 41
1.0
 10
-0.370658691864321
 20
-6.58899989551699
 30
0.0
 41
1.0
 10
-0.3427690528393161
 20
-6.572897804918509
 30
0.0
 41
1.0
  0
SPLINE
  5
119
330
1F
100
AcDbEntity
  8
SK1
100
AcDbSpline
210
0.0
220
0.0
230
1.0
 70
    28
 71
     3
 72
     8
 73
     4
 74
     0
 42
0.000000001
 43
0.0000000001
 40
0.0
 40
0.0
 40
0.0
 40
0.0
 40
1.0
 40
1.0
 40
1.0
 40
1.0
 10
0.2499809471611339
 20
-7.269326567131598
 30
0.0
 41
1.0
 10
0.0563906484574943
 20
-7.15755715606258
 30
0.0
 41
1.0
 10
-0.141559860425616
 20
-7.04327037647266
 30
0.0
 41
1.0
 10
-0.342769052838861
 20
-6.927102195069469
 30
0.0
 41
1.0
  0
SPLINE
  5
11A
330
1F
100
AcDbEntity
  8
SK1
100
AcDbSpline
210
0.0
220
0.0
230
1.0
 70
    12
 71
     3
 72
    12
 73
     8
 74
     0
 42
0.000000001
 43
0.0000000001
 40
0.0
 40
0.0
 40
0.0
 40
0.0
 40
0.25
 40
0.25
 40
0.5
 40
0.5
 40
1.0
 40
1.0
 40
1.0
 40
1.0
 10
0.324980947162231
 20
-7.399230402015919
 30
0.0
 41
1.0
 10
0.3249809497323211
 20
-7.38337658995093
 30
0.0
 41
1.0
 10
0.322450179119358
 20
-7.368378269263989
 30
0.0
 41
1.0
 10
0.314111657831205
 20
-7.34142317816762
 30
0.0
 41
1.0
 10
0.308330052131765
 20
-7.32935310315119
 30
0.0
 41
1.0
 10
0.287609547350712
 20
-7.296887485429119
 30
0.0
 41
1.0
 10
0.269931111630314
 20
-7.280844799958259
 30
0.0
 41
1.0
 10
0.2499809471611339
 20
-7.269326567131598
 30
0.0
 41
1.0
  0
SPLINE
  5
11B
330
1F
100
AcDbEntity
  8
SK1
100
AcDbSpline
210
0.0
220
0.0
230
1.0
 70
    12
 71
     3
 72
    12
 73
     8
 74
     0
 42
0.000000001
 43
0.0000000001
 40
0.0
 40
0.0
 40
0.0
 40
0.0
 40
0.5
 40
0.5
 40
0.75
 40
0.75
 40
1.0
 40
1.0
 40
1.0
 40
1.0
 10
0.249980947161418
 20
-7.73067343286041
 30
0.0
 41
1.0
 10
0.269428565205033
 20
-7.71944534534788
 30
0.0
 41
1.0
 10
0.2890272168785089
 20
-7.70196479222415
 30
0.0
 41
1.0
 10
0.310299566888176
 20
-7.66691812695134
 30
0.0
 41
1.0
 10
0.315984027622562
 20
-7.65375959307266
 30
0.0
 41
1.0
 10
0.32327745524222
 20
-7.62718839201949
 30
0.0
 41
1.0
 10
0.324980947161151
 20
-7.613633366113959
 30
0.0
 41
1.0
 10
0.324980947161151
 20
-7.600769622291809
 30
0.0
 41
1.0
  0
SPLINE
  5
11C
330
1F
100
AcDbEntity
  8
SK1
100
AcDbSpline
210
0.0
220
0.0
230
1.0
 70
    28
 71
     3
 72
     8
 73
     4
 74
     0
 42
0.000000001
 43
0.0000000001
 40
0.0
 40
0.0
 40
0.0
 40
0.0
 40
1.0
 40
1.0
 40
1.0
 40
1.0
 10
-0.342769052838861
 20
-8.072897804921609
 30
0.0
 41
1.0
 10
-0.145053884700474
 20
-7.958746899374059
 30
0.0
 41
1.0
 10
0.0525430838762304
 20
-7.844664236375219
 30
0.0
 41
1.0
 10
0.249980947161163
 20
-7.73067343285948
 30
0.0
 41
1.0
  0
SPLINE
  5
11D
330
1F
100
AcDbEntity
  8
SK1
100
AcDbSpline
210
0.0
220
0.0
230
1.0
 70
    12
 71
     3
 72
    20
 73
    16
 74
     0
 42
0.000000001
 43
0.0000000001
 40
0.0
 40
0.0
 40
0.0
 40
0.0
 40
0.25
 40
0.25
 40
0.375
 40
0.375
 40
0.5
 40
0.5
 40
0.625
 40
0.625
 40
0.75
 40
0.75
 40
0.875
 40
0.875
 40
1.0
 40
1.0
 40
1.0
 40
1.0
 10
-0.3427690528396
 20
-8.42710219507072
 30
0.0
 41
1.0
 10
-0.366238605932438
 20
-8.413552042274799
 30
0.0
 41
1.0
 10
-0.387198131900306
 20
-8.395568737596679
 30
0.0
 41
1.0
 10
-0.4137416707810929
 20
-8.359705809019089
 30
0.0
 41
1.0
 10
-0.421555403428783
 20
-8.346470821965279
 30
0.0
 41
1.0
 10
-0.4344481088748181
 20
-8.31687526411795
 30
0.0
 41
1.0
 10
-0.4395556918054241
 20
-8.300357947896321
 30
0.0
 41
1.0
 10
-0.445320597945539
 20
-8.26441643817569
 30
0.0
 41
1.0
 10
-0.4460110726985821
 20
-8.244496652090111
 30
0.0
 41
1.0
 10
-0.440647338207043
 20
-8.20303270861331
 30
0.0
 41
1.0
 10
-0.434513465222693
 20
-8.181520508473798
 30
0.0
 41
1.0
 10
-0.4150599150156891
 20
-8.14110206509412
 30
0.0
 41
1.0
 10
-0.402157087916606
 20
-8.12307483753503
 30
0.0
 41
1.0
 10
-0.37388198585117
 20
-8.093631271191529
 30
0.0
 41
1.0
 10
-0.35834353631796
 20
-8.081889737147829
 30
0.0
 41
1.0
 10
-0.342769052838889
 20
-8.072897804918849
 30
0.0
 41
1.0
  0
SPLINE
  5
11E
330
1F
100
AcDbEntity
  8
SK1
100
AcDbSpline
210
0.0
220
0.0
230
1.0
 70
    28
 71
     3
 72
     8
 73
     4
 74
     0
 42
0.000000001
 43
0.0000000001
 40
0.0
 40
0.0
 40
0.0
 40
0.0
 40
1.0
 40
1.0
 40
1.0
 40
1.0
 10
0.249980947161163
 20
-8.769326567131599
 30
0.0
 41
1.0
 10
0.0625363391937412
 20
-8.661105372263479
 30
0.0
 41
1.0
 10
-0.136066482639336
 20
-8.546441979616329
 30
0.0
 41
1.0
 10
-0.342769052838861
 20
-8.427102195069469
 30
0.0
 41
1.0
  0
SPLINE
  5
11F
330
1F
100
AcDbEntity
  8
SK1
100
AcDbSpline
210
0.0
220
0.0
230
1.0
 70
    12
 71
     3
 72
    10
 73
     6
 74
     0
 42
0.000000001
 43
0.0000000001
 40
0.0
 40
0.0
 40
0.0
 40
0.0
 40
0.5
 40
0.5
 40
1.0
 40
1.0
 40
1.0
 40
1.0
 10
0.324980947161151
 20
-8.89923041732791
 30
0.0
 41
1.0
 10
0.32498095579254
 20
-8.86655941689008
 30
0.0
 41
1.0
 10
0.315263443967609
 20
-8.840481290268231
 30
0.0
 41
1.0
 10
0.288479327746643
 20
-8.79799425870655
 30
0.0
 41
1.0
 10
0.270660201712474
 20
-8.781265740313189
 30
0.0
 41
1.0
 10
0.249980947161248
 20
-8.769326567131429
 30
0.0
 41
1.0
  0
SPLINE
  5
120
330
1F
100
AcDbEntity
  8
SK1
100
AcDbSpline
210
0.0
220
0.0
230
1.0
 70
    12
 71
     3
 72
    14
 73
    10
 74
     0
 42
0.000000001
 43
0.0000000001
 40
0.0
 40
0.0
 40
0.0
 40
0.0
 40
0.25
 40
0.25
 40
0.5
 40
0.5
 40
0.75
 40
0.75
 40
1.0
 40
1.0
 40
1.0
 40
1.0
 10
0.249980947160879
 20
-9.230673432861689
 30
0.0
 41
1.0
 10
0.260241275079409
 20
-9.224749629776079
 30
0.0
 41
1.0
 10
0.270767052629338
 20
-9.217062578700391
 30
0.0
 41
1.0
 10
0.290770655956436
 20
-9.197163465705759
 30
0.0
 41
1.0
 10
0.299853865577063
 20
-9.185108717333919
 30
0.0
 41
1.0
 10
0.313590476416493
 20
-9.15987738071524
 30
0.0
 41
1.0
 10
0.31824030948647
 20
-9.14694912115908
 30
0.0
 41
1.0
 10
0.323902506001701
 20
-9.122636499571999
 30
0.0
 41
1.0
 10
0.324980947161151
 20
-9.111422087119368
 30
0.0
 41
1.0
 10
0.324980947161151
 20
-9.100769622291778
 30
0.0
 41
1.0
  0
SPLINE
  5
121
330
1F
100
AcDbEntity
  8
SK1
100
AcDbSpline
210
0.0
220
0.0
230
1.0
 70
    28
 71
     3
 72
     8
 73
     4
 74
     0
 42
0.000000001
 43
0.0000000001
 40
0.0
 40
0.0
 40
0.0
 40
0.0
 40
1.0
 40
1.0
 40
1.0
 40
1.0
 10
-0.342769052838861
 20
-9.572897804921609
 30
0.0
 41
1.0
 10
-0.145035952120935
 20
-9.458736545994439
 30
0.0
 41
1.0
 10
0.052567100611185
 20
-9.344650370306849
 30
0.0
 41
1.0
 10
0.2499809471611339
 20
-9.230673432859481
 30
0.0
 41
1.0
  0
SPLINE
  5
122
330
1F
100
AcDbEntity
  8
SK1
100
AcDbSpline
210
0.0
220
0.0
230
1.0
 70
    12
 71
     3
 72
    18
 73
    14
 74
     0
 42
0.000000001
 43
0.0000000001
 40
0.0
 40
0.0
 40
0.0
 40
0.0
 40
0.249999999999987
 40
0.249999999999987
 40
0.4999999999999741
 40
0.4999999999999741
 40
0.62499999999998
 40
0.62499999999998
 40
0.7499999999999871
 40
0.7499999999999871
 40
0.8749999999999928
 40
0.8749999999999928
 40
1.0
 40
1.0
 40
1.0
 40
1.0
 10
-0.342769052842243
 20
-9.927102195073929
 30
0.0
 41
1.0
 10
-0.364364108614183
 20
-9.914634283810759
 30
0.0
 41
1.0
 10
-0.3835428217690829
 20
-9.89849702880139
 30
0.0
 41
1.0
 10
-0.4163684749514121
 20
-9.85762967427664
 30
0.0
 41
1.0
 10
-0.4301430435769471
 20
-9.832856542178289
 30
0.0
 41
1.0
 10
-0.442275829187565
 20
-9.786945998545519
 30
0.0
 41
1.0
 10
-0.444921249770886
 20
-9.769934869340008
 30
0.0
 41
1.0
 10
-0.445111669172235
 20
-9.73212492046346
 30
0.0
 41
1.0
 10
-0.442746615960289
 20
-9.711176475302639
 30
0.0
 41
1.0
 10
-0.428143958450875
 20
-9.665146313277229
 30
0.0
 41
1.0
 10
-0.4154429708268591
 20
-9.640705632514618
 30
0.0
 41
1.0
 10
-0.381234416571544
 20
-9.59919276456932
 30
0.0
 41
1.0
 10
-0.361684606801333
 20
-9.583818705093618
 30
0.0
 41
1.0
 10
-0.342769052838833
 20
-9.572897804921499
 30
0.0
 41
1.0
  0
SPLINE
  5
123
330
1F
100
AcDbEntity
  8
SK1
100
AcDbSpline
210
0.0
220
0.0
230
1.0
 70
    28
 71
     3
 72
     8
 73
     4
 74
     0
 42
0.000000001
 43
0.0000000001
 40
0.0
 40
0.0
 40
0.0
 40
0.0
 40
1.0
 40
1.0
 40
1.0
 40
1.0
 10
0.0469703231311485
 20
10.1521183287085
 30
0.0
 41
1.0
 10
-0.0693189021624221
 20
10.0849787131814
 30
0.0
 41
1.0
 10
-0.200228104510558
 20
10.0093982499663
 30
0.0
 41
1.0
 10
-0.342769052838747
 20
9.927102195078481
 30
0.0
 41
1.0
  0
SPLINE
  5
124
330
1F
100
AcDbEntity
  8
SK1
100
AcDbSpline
210
0.0
220
0.0
230
1.0
 70
    12
 71
     3
 72
    18
 73
    14
 74
     0
 42
0.000000001
 43
0.0000000001
 40
0.0
 40
0.0
 40
0.0
 40
0.0
 40
0.250000000000013
 40
0.250000000000013
 40
0.500000000000026
 40
0.500000000000026
 40
0.6250000000000201
 40
0.6250000000000201
 40
0.750000000000013
 40
0.750000000000013
 40
0.8750000000000071
 40
0.8750000000000071
 40
1.0
 40
1.0
 40
1.0
 40
1.0
 10
-0.342769052842215
 20
9.927102195082881
 30
0.0
 41
1.0
 10
-0.364364108614154
 20
9.91463428381971
 30
0.0
 41
1.0
 10
-0.3835428217690549
 20
9.898497028810368
 30
0.0
 41
1.0
 10
-0.4163684749514121
 20
9.85762967428559
 30
0.0
 41
1.0
 10
-0.4301430435769471
 20
9.83285654218724
 30
0.0
 41
1.0
 10
-0.4422758291875941
 20
9.78694599855447
 30
0.0
 41
1.0
 10
-0.444921249770914
 20
9.769934869348929
 30
0.0
 41
1.0
 10
-0.445111669172263
 20
9.73212492047239
 30
0.0
 41
1.0
 10
-0.4427466159603171
 20
9.71117647531156
 30
0.0
 41
1.0
 10
-0.428143958450903
 20
9.665146313286159
 30
0.0
 41
1.0
 10
-0.4154429708268591
 20
9.64070563252355
 30
0.0
 41
1.0
 10
-0.381234416571573
 20
9.599192764578249
 30
0.0
 41
1.0
 10
-0.361684606801362
 20
9.583818705102538
 30
0.0
 41
1.0
 10
-0.342769052838861
 20
9.57289780493042
 30
0.0
 41
1.0
  0
SPLINE
  5
125
330
1F
100
AcDbEntity
  8
SK1
100
AcDbSpline
210
0.0
220
0.0
230
1.0
 70
    28
 71
     3
 72
     8
 73
     4
 74
     0
 42
0.000000001
 43
0.0000000001
 40
0.0
 40
0.0
 40
0.0
 40
0.0
 40
1.0
 40
1.0
 40
1.0
 40
1.0
 10
-0.342769052838861
 20
9.57289780493053
 30
0.0
 41
1.0
 10
-0.145035952120963
 20
9.458736546003368
 30
0.0
 41
1.0
 10
0.052567100611185
 20
9.344650370315779
 30
0.0
 41
1.0
 10
0.2499809471611339
 20
9.2306734328684
 30
0.0
 41
1.0
  0
SPLINE
  5
126
330
1F
100
AcDbEntity
  8
SK1
100
AcDbSpline
210
0.0
220
0.0
230
1.0
 70
    12
 71
     3
 72
    14
 73
    10
 74
     0
 42
0.000000001
 43
0.0000000001
 40
0.0
 40
0.0
 40
0.0
 40
0.0
 40
0.25
 40
0.25
 40
0.5
 40
0.5
 40
0.75
 40
0.75
 40
1.0
 40
1.0
 40
1.0
 40
1.0
 10
0.324980947165955
 20
9.100769655851019
 30
0.0
 41
1.0
 10
0.32498094479709
 20
9.111360627971381
 30
0.0
 41
1.0
 10
0.323881989895909
 20
9.122749803670929
 30
0.0
 41
1.0
 10
0.318229417265769
 20
9.146970539101801
 30
0.0
 41
1.0
 10
0.3135717673286249
 20
9.15991641963998
 30
0.0
 41
1.0
 10
0.299850202851161
 20
9.185110763232099
 30
0.0
 41
1.0
 10
0.290681999532467
 20
9.197258996112198
 30
0.0
 41
1.0
 10
0.27077670178906
 20
9.21704561369032
 30
0.0
 41
1.0
 10
0.260190124441238
 20
9.22477916162197
 30
0.0
 41
1.0
 10
0.249980947161077
 20
9.230673432872659
 30
0.0
 41
1.0
  0
SPLINE
  5
127
330
1F
100
AcDbEntity
  8
SK1
100
AcDbSpline
210
0.0
220
0.0
230
1.0
 70
    12
 71
     3
 72
    12
 73
     8
 74
     0
 42
0.000000001
 43
0.0000000001
 40
0.0
 40
0.0
 40
0.0
 40
0.0
 40
0.5000000000000381
 40
0.5000000000000381
 40
0.7500000000000191
 40
0.7500000000000191
 40
1.0
 40
1.0
 40
1.0
 40
1.0
 10
0.249980947161561
 20
8.769326567139929
 30
0.0
 41
1.0
 10
0.2706152764937999
 20
8.781239802734459
 30
0.0
 41
1.0
 10
0.288241968744359
 20
8.797678417829789
 30
0.0
 41
1.0
 10
0.308533147690156
 20
8.829775179017499
 30
0.0
 41
1.0
 10
0.314157506398857
 20
8.841582408203489
 30
0.0
 41
1.0
 10
0.322383586430334
 20
8.868152009576329
 30
0.0
 41
1.0
 10
0.3249809471763
 20
8.882881721397151
 30
0.0
 41
1.0
 10
0.324980947178972
 20
8.89923037768364
 30
0.0
 41
1.0
  0
SPLINE
  5
128
330
1F
100
AcDbEntity
  8
SK1
100
AcDbSpline
210
0.0
220
0.0
230
1.0
 70
    28
 71
     3
 72
     8
 73
     4
 74
     0
 42
0.000000001
 43
0.0000000001
 40
0.0
 40
0.0
 40
0.0
 40
0.0
 40
1.0
 40
1.0
 40
1.0
 40
1.0
 10
0.2499809471611339
 20
8.769326567140549
 30
0.0
 41
1.0
 10
0.0625363391937697
 20
8.661105372272428
 30
0.0
 41
1.0
 10
-0.136066482639251
 20
8.54644197962531
 30
0.0
 41
1.0
 10
-0.3427690528387189
 20
8.427102195078481
 30
0.0
 41
1.0
  0
SPLINE
  5
129
330
1F
100
AcDbEntity
  8
SK1
100
AcDbSpline
210
0.0
220
0.0
230
1.0
 70
    12
 71
     3
 72
    20
 73
    16
 74
     0
 42
0.000000001
 43
0.0000000001
 40
0.0
 40
0.0
 40
0.0
 40
0.0
 40
0.249999999999978
 40
0.249999999999978
 40
0.3749999999999821
 40
0.3749999999999821
 40
0.499999999999986
 40
0.499999999999986
 40
0.624999999999989
 40
0.624999999999989
 40
0.7499999999999929
 40
0.7499999999999929
 40
0.874999999999996
 40
0.874999999999996
 40
1.0
 40
1.0
 40
1.0
 40
1.0
 10
-0.3427690528394289
 20
8.427102195079749
 30
0.0
 41
1.0
 10
-0.366238605932267
 20
8.413552042283839
 30
0.0
 41
1.0
 10
-0.387198131900163
 20
8.395568737605739
 30
0.0
 41
1.0
 10
-0.413741670781007
 20
8.359705809028179
 30
0.0
 41
1.0
 10
-0.4215554034287261
 20
8.34647082197438
 30
0.0
 41
1.0
 10
-0.43444810887479
 20
8.316875264127048
 30
0.0
 41
1.0
 10
-0.4395556918054241
 20
8.300357947905411
 30
0.0
 41
1.0
 10
-0.445320597945567
 20
8.264416438184749
 30
0.0
 41
1.0
 10
-0.44601107269861
 20
8.244496652099169
 30
0.0
 41
1.0
 10
-0.4406473382071
 20
8.203032708622369
 30
0.0
 41
1.0
 10
-0.4345134652227501
 20
8.181520508482829
 30
0.0
 41
1.0
 10
-0.4150599150157461
 20
8.14110206510313
 30
0.0
 41
1.0
 10
-0.4021570879166921
 20
8.12307483754401
 30
0.0
 41
1.0
 10
-0.373881985851227
 20
8.093631271200509
 30
0.0
 41
1.0
 10
-0.358343536317989
 20
8.081889737156791
 30
0.0
 41
1.0
 10
-0.342769052838918
 20
8.07289780492778
 30
0.0
 41
1.0
  0
SPLINE
  5
12A
330
1F
100
AcDbEntity
  8
SK1
100
AcDbSpline
210
0.0
220
0.0
230
1.0
 70
    28
 71
     3
 72
     8
 73
     4
 74
     0
 42
0.000000001
 43
0.0000000001
 40
0.0
 40
0.0
 40
0.0
 40
0.0
 40
1.0
 40
1.0
 40
1.0
 40
1.0
 10
-0.342769052838889
 20
8.072897804930558
 30
0.0
 41
1.0
 10
-0.145053884701184
 20
7.958746899383389
 30
0.0
 41
1.0
 10
0.0525430838748377
 20
7.844664236384939
 30
0.0
 41
1.0
 10
0.249980947159088
 20
7.730673432869569
 30
0.0
 41
1.0
  0
SPLINE
  5
12B
330
1F
100
AcDbEntity
  8
SK1
100
AcDbSpline
210
0.0
220
0.0
230
1.0
 70
    12
 71
     3
 72
    12
 73
     8
 74
     0
 42
0.000000001
 43
0.0000000001
 40
0.0
 40
0.0
 40
0.0
 40
0.0
 40
0.249999999999997
 40
0.249999999999997
 40
0.499999999999993
 40
0.499999999999993
 40
1.0
 40
1.0
 40
1.0
 40
1.0
 10
0.32498094716118
 20
7.600769640748299
 30
0.0
 41
1.0
 10
0.324980945589061
 20
7.61355285922249
 30
0.0
 41
1.0
 10
0.323278184878916
 20
7.62715831182209
 30
0.0
 41
1.0
 10
0.316025126160213
 20
7.65363712857683
 30
0.0
 41
1.0
 10
0.3103493687465
 20
7.66682046297169
 30
0.0
 41
1.0
 10
0.289065317215801
 20
7.70193309877649
 30
0.0
 41
1.0
 10
0.269481465036705
 20
7.719414803624179
 30
0.0
 41
1.0
 10
0.249980947159031
 20
7.73067343286974
 30
0.0
 41
1.0
  0
SPLINE
  5
12C
330
1F
100
AcDbEntity
  8
SK1
100
AcDbSpline
210
0.0
220
0.0
230
1.0
 70
    12
 71
     3
 72
    10
 73
     6
 74
     0
 42
0.000000001
 43
0.0000000001
 40
0.0
 40
0.0
 40
0.0
 40
0.0
 40
0.5
 40
0.5
 40
1.0
 40
1.0
 40
1.0
 40
1.0
 10
0.249980947161418
 20
7.269326567139929
 30
0.0
 41
1.0
 10
0.269740064702375
 20
7.28073449897116
 30
0.0
 41
1.0
 10
0.287604047280524
 20
7.29692753288765
 30
0.0
 41
1.0
 10
0.315076987279895
 20
7.33987606630691
 30
0.0
 41
1.0
 10
0.324980947160469
 20
7.36726638714791
 30
0.0
 41
1.0
 10
0.324980947161123
 20
7.399230377705119
 30
0.0
 41
1.0
  0
SPLINE
  5
12D
330
1F
100
AcDbEntity
  8
SK1
100
AcDbSpline
210
0.0
220
0.0
230
1.0
 70
    28
 71
     3
 72
     8
 73
     4
 74
     0
 42
0.000000001
 43
0.0000000001
 40
0.0
 40
0.0
 40
0.0
 40
0.0
 40
1.0
 40
1.0
 40
1.0
 40
1.0
 10
0.2499809471611339
 20
7.269326567140519
 30
0.0
 41
1.0
 10
0.0563906484602512
 20
7.15755715607307
 30
0.0
 41
1.0
 10
-0.141559860419989
 20
7.043270376484859
 30
0.0
 41
1.0
 10
-0.342769052830306
 20
6.92710219508334
 30
0.0
 41
1.0
  0
SPLINE
  5
12E
330
1F
100
AcDbEntity
  8
SK1
100
AcDbSpline
210
0.0
220
0.0
230
1.0
 70
    12
 71
     3
 72
    18
 73
    14
 74
     0
 42
0.000000001
 43
0.0000000001
 40
0.0
 40
0.0
 40
0.0
 40
0.0
 40
0.125000000000008
 40
0.125000000000008
 40
0.250000000000017
 40
0.250000000000017
 40
0.500000000000008
 40
0.500000000000008
 40
0.62500000000001
 40
0.62500000000001
 40
0.7500000000000111
 40
0.7500000000000111
 40
1.0
 40
1.0
 40
1.0
 40
1.0
 10
-0.342769052830306
 20
6.9271021950853
 30
0.0
 41
1.0
 10
-0.355217605287692
 20
6.9199150199739
 30
0.0
 41
1.0
 10
-0.367071341950265
 20
6.911347863376219
 30
0.0
 41
1.0
 10
-0.38941317787021
 20
6.8909934552608
 30
0.0
 41
1.0
 10
-0.3999607955070421
 20
6.87909175858746
 30
0.0
 41
1.0
 10
-0.4276334286416271
 20
6.838729172901619
 30
0.0
 41
1.0
 10
-0.4417319473640761
 20
6.803981566136339
 30
0.0
 41
1.0
 10
-0.445909079359126
 20
6.74449690021208
 30
0.0
 41
1.0
 10
-0.4443266982143541
 20
6.72344563036538
 30
0.0
 41
1.0
 10
-0.434966071460906
 20
6.68341886296528
 30
0.0
 41
1.0
 10
-0.427155953945999
 20
6.664146737430121
 30
0.0
 41
1.0
 10
-0.3976117770025671
 20
6.613334026869349
 30
0.0
 41
1.0
 10
-0.3706586918652021
 20
6.588999895526429
 30
0.0
 41
1.0
 10
-0.342769052839344
 20
6.57289780492744
 30
0.0
 41
1.0
  0
SPLINE
  5
12F
330
1F
100
AcDbEntity
  8
SK1
100
AcDbSpline
210
0.0
220
0.0
230
1.0
 70
    28
 71
     3
 72
     8
 73
     4
 74
     0
 42
0.000000001
 43
0.0000000001
 40
0.0
 40
0.0
 40
0.0
 40
0.0
 40
1.0
 40
1.0
 40
1.0
 40
1.0
 10
-0.342769052838889
 20
6.572897804930559
 30
0.0
 41
1.0
 10
-0.144388484030884
 20
6.45836273012725
 30
0.0
 41
1.0
 10
0.0532711848769907
 20
6.344243867075359
 30
0.0
 41
1.0
 10
0.2499809471607929
 20
6.230673432868599
 30
0.0
 41
1.0
  0
SPLINE
  5
130
330
1F
100
AcDbEntity
  8
SK1
100
AcDbSpline
210
0.0
220
0.0
230
1.0
 70
    12
 71
     3
 72
    10
 73
     6
 74
     0
 42
0.000000001
 43
0.0000000001
 40
0.0
 40
0.0
 40
0.0
 40
0.0
 40
0.5
 40
0.5
 40
1.0
 40
1.0
 40
1.0
 40
1.0
 10
0.324980947161123
 20
6.100769624153909
 30
0.0
 41
1.0
 10
0.324980946808438
 20
6.12931816299579
 30
0.0
 41
1.0
 10
0.315985815126368
 20
6.158352855905519
 30
0.0
 41
1.0
 10
0.287821352089594
 20
6.203069400393619
 30
0.0
 41
1.0
 10
0.269396502251681
 20
6.219463856910469
 30
0.0
 41
1.0
 10
0.2499809471607929
 20
6.230673432868599
 30
0.0
 41
1.0
  0
SPLINE
  5
131
330
1F
100
AcDbEntity
  8
SK1
100
AcDbSpline
210
0.0
220
0.0
230
1.0
 70
    12
 71
     3
 72
    10
 73
     6
 74
     0
 42
0.000000001
 43
0.0000000001
 40
0.0
 40
0.0
 40
0.0
 40
0.0
 40
0.5
 40
0.5
 40
1.0
 40
1.0
 40
1.0
 40
1.0
 10
0.249980947161163
 20
5.769326567140549
 30
0.0
 41
1.0
 10
0.26934841851687
 20
5.780508381941269
 30
0.0
 41
1.0
 10
0.287510170312913
 20
5.796683829835099
 30
0.0
 41
1.0
 10
0.3154964190883049
 20
5.840629842788129
 30
0.0
 41
1.0
 10
0.324980947162857
 20
5.868883197145459
 30
0.0
 41
1.0
 10
0.324980947161123
 20
5.899230377716779
 30
0.0
 41
1.0
  0
SPLINE
  5
132
330
1F
100
AcDbEntity
  8
SK1
100
AcDbSpline
210
0.0
220
0.0
230
1.0
 70
    28
 71
     3
 72
     8
 73
     4
 74
     0
 42
0.000000001
 43
0.0000000001
 40
0.0
 40
0.0
 40
0.0
 40
0.0
 40
1.0
 40
1.0
 40
1.0
 40
1.0
 10
0.2499809471611339
 20
-10.2693265671316
 30
0.0
 41
1.0
 10
0.182784534592514
 20
-10.2305307002465
 30
0.0
 41
1.0
 10
0.115112466682376
 20
-10.191460213622
 30
0.0
 41
1.0
 10
0.0469703231311769
 20
-10.1521183286995
 30
0.0
 41
1.0
  0
SPLINE
  5
133
330
1F
100
AcDbEntity
  8
SK1
100
AcDbSpline
210
0.0
220
0.0
230
1.0
 70
    12
 71
     3
 72
    12
 73
     8
 74
     0
 42
0.000000001
 43
0.0000000001
 40
0.0
 40
0.0
 40
0.0
 40
0.0
 40
0.250000000000005
 40
0.250000000000005
 40
0.50000000000001
 40
0.50000000000001
 40
1.0
 40
1.0
 40
1.0
 40
1.0
 10
0.324980947161151
 20
-10.3992304244665
 30
0.0
 41
1.0
 10
0.324980952427694
 20
-10.3823386161284
 30
0.0
 41
1.0
 10
0.3222909781569569
 20
-10.3677443580356
 30
0.0
 41
1.0
 10
0.3140409242543
 20
-10.3413171888984
 30
0.0
 41
1.0
 10
0.308462934813122
 20
-10.329684217474
 30
0.0
 41
1.0
 10
0.28858924352781
 20
-10.2981878484601
 30
0.0
 41
1.0
 10
0.27122810946139
 20
-10.2815936220052
 30
0.0
 41
1.0
 10
0.2499809471611339
 20
-10.2693265671316
 30
0.0
 41
1.0
  0
SPLINE
  5
134
330
1F
100
AcDbEntity
  8
SK1
100
AcDbSpline
210
0.0
220
0.0
230
1.0
 70
    12
 71
     3
 72
    14
 73
    10
 74
     0
 42
0.000000001
 43
0.0000000001
 40
0.0
 40
0.0
 40
0.0
 40
0.0
 40
0.25
 40
0.25
 40
0.5
 40
0.5
 40
0.75
 40
0.75
 40
1.0
 40
1.0
 40
1.0
 40
1.0
 10
0.2499809471611339
 20
-10.7306734328595
 30
0.0
 41
1.0
 10
0.261173823038348
 20
-10.7242112229588
 30
0.0
 41
1.0
 10
0.273677051626748
 20
-10.7149718778691
 30
0.0
 41
1.0
 10
0.29652534266495
 20
-10.6902684275198
 30
0.0
 41
1.0
 10
0.305601236583129
 20
-10.6757918386964
 30
0.0
 41
1.0
 10
0.3170861827943269
 20
-10.6507305567164
 30
0.0
 41
1.0
 10
0.320293153647071
 20
-10.6394141854664
 30
0.0
 41
1.0
 10
0.324246030298383
 20
-10.618907278502
 30
0.0
 41
1.0
 10
0.324980947164079
 20
-10.60950210283
 30
0.0
 41
1.0
 10
0.32498094716388
 20
-10.600769622288
 30
0.0
 41
1.0
  0
SPLINE
  5
135
330
1F
100
AcDbEntity
  8
SK1
100
AcDbSpline
210
0.0
220
0.0
230
1.0
 70
    28
 71
     3
 72
     8
 73
     4
 74
     0
 42
0.000000001
 43
0.0000000001
 40
0.0
 40
0.0
 40
0.0
 40
0.0
 40
1.0
 40
1.0
 40
1.0
 40
1.0
 10
-0.342769052836928
 20
-11.0728978049205
 30
0.0
 41
1.0
 10
-0.144956402684386
 20
-10.9586906181058
 30
0.0
 41
1.0
 10
0.0526311005797595
 20
-10.8446134199077
 30
0.0
 41
1.0
 10
0.249980947161163
 20
-10.7306734328595
 30
0.0
 41
1.0
  0
SPLINE
  5
136
330
1F
100
AcDbEntity
  8
SK1
100
AcDbSpline
210
0.0
220
0.0
230
1.0
 70
    12
 71
     3
 72
    22
 73
    18
 74
     0
 42
0.000000001
 43
0.0000000001
 40
0.0
 40
0.0
 40
0.0
 40
0.0
 40
0.250000000000003
 40
0.250000000000003
 40
0.5000000000000061
 40
0.5000000000000061
 40
0.625000000000001
 40
0.625000000000001
 40
0.749999999999997
 40
0.749999999999997
 40
0.8124999999999978
 40
0.8124999999999978
 40
0.8749999999999978
 40
0.8749999999999978
 40
0.9374999999999989
 40
0.9374999999999989
 40
1.0
 40
1.0
 40
1.0
 40
1.0
 10
-0.342769052838861
 20
-11.4271021950695
 30
0.0
 41
1.0
 10
-0.364139200901889
 20
-11.4147641343326
 30
0.0
 41
1.0
 10
-0.3827950364689911
 20
-11.3990038010153
 30
0.0
 41
1.0
 10
-0.414485775922231
 20
-11.3603637961241
 30
0.0
 41
1.0
 10
-0.4273873215494461
 20
-11.3378225352944
 30
0.0
 41
1.0
 10
-0.440056305390158
 20
-11.2969915868338
 30
0.0
 41
1.0
 10
-0.44315304911791
 20
-11.2821377660344
 30
0.0
 41
1.0
 10
-0.445684116398979
 20
-11.2491819851111
 30
0.0
 41
1.0
 10
-0.445238249152453
 20
-11.2310314255167
 30
0.0
 41
1.0
 10
-0.4390542195351371
 20
-11.1998361272968
 30
0.0
 41
1.0
 10
-0.436006414247288
 20
-11.1885638491893
 30
0.0
 41
1.0
 10
-0.426638556517531
 20
-11.1642722947497
 30
0.0
 41
1.0
 10
-0.4202493839404721
 20
-11.1510810564807
 30
0.0
 41
1.0
 10
-0.4022352200602771
 20
-11.1237628003942
 30
0.0
 41
1.0
 10
-0.390493448089586
 20
-11.1100099143563
 30
0.0
 41
1.0
 10
-0.366251005301479
 20
-11.0878857827349
 30
0.0
 41
1.0
 10
-0.354094587802479
 20
-11.0794366055771
 30
0.0
 41
1.0
 10
-0.342769052835365
 20
-11.0728978049155
 30
0.0
 41
1.0
  0
SPLINE
  5
137
330
1F
100
AcDbEntity
  8
SK1
100
AcDbSpline
210
0.0
220
0.0
230
1.0
 70
    28
 71
     3
 72
     8
 73
     4
 74
     0
 42
0.000000001
 43
0.0000000001
 40
0.0
 40
0.0
 40
0.0
 40
0.0
 40
1.0
 40
1.0
 40
1.0
 40
1.0
 10
0.249980947161731
 20
-11.7693265671319
 30
0.0
 41
1.0
 10
0.0572098387454503
 20
-11.6580301157958
 30
0.0
 41
1.0
 10
-0.140428826571195
 20
-11.543923379173
 30
0.0
 41
1.0
 10
-0.342769052838861
 20
-11.4271021950695
 30
0.0
 41
1.0
  0
SPLINE
  5
138
330
1F
100
AcDbEntity
  8
SK1
100
AcDbSpline
210
0.0
220
0.0
230
1.0
 70
    12
 71
     3
 72
    12
 73
     8
 74
     0
 42
0.000000001
 43
0.0000000001
 40
0.0
 40
0.0
 40
0.0
 40
0.0
 40
0.249999999999999
 40
0.249999999999999
 40
0.4999999999999981
 40
0.4999999999999981
 40
1.0
 40
1.0
 40
1.0
 40
1.0
 10
0.324980947161151
 20
-11.8992304265718
 30
0.0
 41
1.0
 10
0.32498095266925
 20
-11.8823249200815
 30
0.0
 41
1.0
 10
0.322311256170536
 20
-11.8678605324895
 30
0.0
 41
1.0
 10
0.3141188012685629
 20
-11.8415160406965
 30
0.0
 41
1.0
 10
0.308506703089677
 20
-11.8297623741288
 30
0.0
 41
1.0
 10
0.288591984360323
 20
-11.7981746688456
 30
0.0
 41
1.0
 10
0.271237110181772
 20
-11.7815988185736
 30
0.0
 41
1.0
 10
0.249980947161703
 20
-11.7693265671319
 30
0.0
 41
1.0
  0
SPLINE
  5
139
330
1F
100
AcDbEntity
  8
SK1
100
AcDbSpline
210
0.0
220
0.0
230
1.0
 70
    12
 71
     3
 72
    14
 73
    10
 74
     0
 42
0.000000001
 43
0.0000000001
 40
0.0
 40
0.0
 40
0.0
 40
0.0
 40
0.25
 40
0.25
 40
0.5
 40
0.5
 40
0.75
 40
0.75
 40
1.0
 40
1.0
 40
1.0
 40
1.0
 10
0.2499809471611339
 20
-12.2306734328595
 30
0.0
 41
1.0
 10
0.261357803062367
 20
-12.2241050020424
 30
0.0
 41
1.0
 10
0.274703362209351
 20
-12.2142303573523
 30
0.0
 41
1.0
 10
0.298521870549678
 20
-12.18769222413859
 30
0.0
 41
1.0
 10
0.307109153758375
 20
-12.1730281677512
 30
0.0
 41
1.0
 10
0.31781553096863
 20
-12.1484921750216
 30
0.0
 41
1.0
 10
0.320722148142352
 20
-12.1376309839467
 30
0.0
 41
1.0
 10
0.324317000769668
 20
-12.1180323202018
 30
0.0
 41
1.0
 10
0.324980947162118
 20
-12.1091375336704
 30
0.0
 41
1.0
 10
0.324980947162089
 20
-12.100769622291
 30
0.0
 41
1.0
  0
SPLINE
  5
13A
330
1F
100
AcDbEntity
  8
SK1
100
AcDbSpline
210
0.0
220
0.0
230
1.0
 70
    28
 71
     3
 72
     8
 73
     4
 74
     0
 42
0.000000001
 43
0.0000000001
 40
0.0
 40
0.0
 40
0.0
 40
0.0
 40
1.0
 40
1.0
 40
1.0
 40
1.0
 10
-0.342769052838861
 20
-12.5728978049216
 30
0.0
 41
1.0
 10
-0.144826582198704
 20
-12.4586156662135
 30
0.0
 41
1.0
 10
0.0527632894167027
 20
-12.3445371006472
 30
0.0
 41
1.0
 10
0.249980947161163
 20
-12.2306734328595
 30
0.0
 41
1.0
  0
SPLINE
  5
13B
330
1F
100
AcDbEntity
  8
SK1
100
AcDbSpline
210
0.0
220
0.0
230
1.0
 70
    12
 71
     3
 72
    22
 73
    18
 74
     0
 42
0.000000001
 43
0.0000000001
 40
0.0
 40
0.0
 40
0.0
 40
0.0
 40
0.25
 40
0.25
 40
0.5
 40
0.5
 40
0.6250000000000061
 40
0.6250000000000061
 40
0.750000000000013
 40
0.750000000000013
 40
0.8125000000000099
 40
0.8125000000000099
 40
0.875000000000006
 40
0.875000000000006
 40
0.937500000000003
 40
0.937500000000003
 40
1.0
 40
1.0
 40
1.0
 40
1.0
 10
-0.342769052838861
 20
-12.9271021950694
 30
0.0
 41
1.0
 10
-0.363899133188482
 20
-12.9149027374916
 30
0.0
 41
1.0
 10
-0.3823013499691679
 20
-12.8993948544285
 30
0.0
 41
1.0
 10
-0.4135906286232111
 20
-12.8616569387235
 30
0.0
 41
1.0
 10
-0.426481228757268
 20
-12.8395057812942
 30
0.0
 41
1.0
 10
-0.4393406119466479
 20
-12.7998345168838
 30
0.0
 41
1.0
 10
-0.4425571835426181
 20
-12.7855069099321
 30
0.0
 41
1.0
 10
-0.4456251593737481
 20
-12.7534105679266
 30
0.0
 41
1.0
 10
-0.4455723414756111
 20
-12.7359641084648
 30
0.0
 41
1.0
 10
-0.4403903344600621
 20
-12.7055295306811
 30
0.0
 41
1.0
 10
-0.437757104230883
 20
-12.6945147669059
 30
0.0
 41
1.0
 10
-0.4293789066978771
 20
-12.6705429952175
 30
0.0
 41
1.0
 10
-0.423571453143069
 20
-12.657307754465
 30
0.0
 41
1.0
 10
-0.406075991988274
 20
-12.6287938386913
 30
0.0
 41
1.0
 10
-0.393906869266743
 20
-12.6135562105316
 30
0.0
 41
1.0
 10
-0.367692788120877
 20
-12.5888430238319
 30
0.0
 41
1.0
 10
-0.3546306895239009
 20
-12.5797461240548
 30
0.0
 41
1.0
 10
-0.342769052838861
 20
-12.5728978049216
 30
0.0
 41
1.0
  0
SPLINE
  5
13C
330
1F
100
AcDbEntity
  8
SK1
100
AcDbSpline
210
0.0
220
0.0
230
1.0
 70
    28
 71
     3
 72
     8
 73
     4
 74
     0
 42
0.000000001
 43
0.0000000001
 40
0.0
 40
0.0
 40
0.0
 40
0.0
 40
1.0
 40
1.0
 40
1.0
 40
1.0
 10
0.249980947161959
 20
-13.2693265671321
 30
0.0
 41
1.0
 10
0.0585614418594957
 20
-13.1588104642175
 30
0.0
 41
1.0
 10
-0.13909345017251
 20
-13.0446943590962
 30
0.0
 41
1.0
 10
-0.342769052838861
 20
-12.9271021950695
 30
0.0
 41
1.0
  0
SPLINE
  5
13D
330
1F
100
AcDbEntity
  8
SK1
100
AcDbSpline
210
0.0
220
0.0
230
1.0
 70
    12
 71
     3
 72
    12
 73
     8
 74
     0
 42
0.000000001
 43
0.0000000001
 40
0.0
 40
0.0
 40
0.0
 40
0.0
 40
0.249999999999999
 40
0.249999999999999
 40
0.4999999999999981
 40
0.4999999999999981
 40
1.0
 40
1.0
 40
1.0
 40
1.0
 10
0.324980947161151
 20
-13.3992304289405
 30
0.0
 41
1.0
 10
0.324980952942639
 20
-13.3823060938475
 30
0.0
 41
1.0
 10
0.322315637351352
 20
-13.3679300508752
 30
0.0
 41
1.0
 10
0.314220681262839
 20
-13.3417889480511
 30
0.0
 41
1.0
 10
0.308680617033616
 20
-13.3300907753199
 30
0.0
 41
1.0
 10
0.288774828673525
 20
-13.2983616615635
 30
0.0
 41
1.0
 10
0.271372998941104
 20
-13.2816772739854
 30
0.0
 41
1.0
 10
0.249980947161959
 20
-13.269326567132
 30
0.0
 41
1.0
  0
SPLINE
  5
13E
330
1F
100
AcDbEntity
  8
SK1
100
AcDbSpline
210
0.0
220
0.0
230
1.0
 70
    12
 71
     3
 72
    18
 73
    14
 74
     0
 42
0.000000001
 43
0.0000000001
 40
0.0
 40
0.0
 40
0.0
 40
0.0
 40
0.124999999999996
 40
0.124999999999996
 40
0.249999999999993
 40
0.249999999999993
 40
0.3749999999999891
 40
0.3749999999999891
 40
0.499999999999986
 40
0.499999999999986
 40
0.7499999999999929
 40
0.7499999999999929
 40
1.0
 40
1.0
 40
1.0
 40
1.0
 10
0.249980947161049
 20
-13.7306734328597
 30
0.0
 41
1.0
 10
0.25587279822517
 20
-13.7272717710618
 30
0.0
 41
1.0
 10
0.262189800746455
 20
-13.7231058959245
 30
0.0
 41
1.0
 10
0.275390446523005
 20
-13.7125259663081
 30
0.0
 41
1.0
 10
0.2823810796228089
 20
-13.7059182022827
 30
0.0
 41
1.0
 10
0.2948367837623211
 20
-13.6914646649321
 30
0.0
 41
1.0
 10
0.300011148025931
 20
-13.684022372869
 30
0.0
 41
1.0
 10
0.308132203638877
 20
-13.6702988571887
 30
0.0
 41
1.0
 10
0.311202092027344
 20
-13.6638950323276
 30
0.0
 41
1.0
 10
0.318529478761377
 20
-13.6461335934448
 30
0.0
 41
1.0
 10
0.321130022521459
 20
-13.635842026125
 30
0.0
 41
1.0
 10
0.324379860044104
 20
-13.6171888356925
 30
0.0
 41
1.0
 10
0.324980947161151
 20
-13.6087270685549
 30
0.0
 41
1.0
 10
0.324980947161151
 20
-13.6007696222918
 30
0.0
 41
1.0
  0
SPLINE
  5
13F
330
1F
100
AcDbEntity
  8
SK1
100
AcDbSpline
210
0.0
220
0.0
230
1.0
 70
    28
 71
     3
 72
     8
 73
     4
 74
     0
 42
0.000000001
 43
0.0000000001
 40
0.0
 40
0.0
 40
0.0
 40
0.0
 40
1.0
 40
1.0
 40
1.0
 40
1.0
 10
-0.342769052838833
 20
-14.0728978049216
 30
0.0
 41
1.0
 10
-0.144595422329701
 20
-13.9584822060009
 30
0.0
 41
1.0
 10
0.0530000040727998
 20
-13.8444004333767
 30
0.0
 41
1.0
 10
0.249980947161163
 20
-13.7306734328595
 30
0.0
 41
1.0
  0
SPLINE
  5
140
330
1F
100
AcDbEntity
  8
SK1
100
AcDbSpline
210
0.0
220
0.0
230
1.0
 70
    12
 71
     3
 72
    24
 73
    20
 74
     0
 42
0.000000001
 43
0.0000000001
 40
0.0
 40
0.0
 40
0.0
 40
0.0
 40
0.250000000000003
 40
0.250000000000003
 40
0.5000000000000061
 40
0.5000000000000061
 40
0.6250000000000022
 40
0.6250000000000022
 40
0.7499999999999979
 40
0.7499999999999979
 40
0.8125
 40
0.8125
 40
0.875000000000001
 40
0.875000000000001
 40
0.90625
 40
0.90625
 40
0.9374999999999989
 40
0.9374999999999989
 40
1.0
 40
1.0
 40
1.0
 40
1.0
 10
-0.342769052838861
 20
-14.4271021950694
 30
0.0
 41
1.0
 10
-0.363647169149601
 20
-14.4150482089973
 30
0.0
 41
1.0
 10
-0.381883709696666
 20
-14.3997153626686
 30
0.0
 41
1.0
 10
-0.412760627849252
 20
-14.3628339304722
 30
0.0
 41
1.0
 10
-0.4253962015966121
 20
-14.3414580368457
 30
0.0
 41
1.0
 10
-0.4384196418723151
 20
-14.3032595298426
 30
0.0
 41
1.0
 10
-0.44176148989726
 20
-14.2894932907449
 30
0.0
 41
1.0
 10
-0.445408808317552
 20
-14.2588558786814
 30
0.0
 41
1.0
 10
-0.4458427159614761
 20
-14.24202982783
 30
0.0
 41
1.0
 10
-0.441757342578228
 20
-14.2122684374282
 30
0.0
 41
1.0
 10
-0.4396151022111211
 20
-14.2017197487805
 30
0.0
 41
1.0
 10
-0.432430534830701
 20
-14.1783047936514
 30
0.0
 41
1.0
 10
-0.4273845706850351
 20
-14.1652713644111
 30
0.0
 41
1.0
 10
-0.415254455817205
 20
-14.1434301059892
 30
0.0
 41
1.0
 10
-0.410391554240817
 20
-14.1357148338633
 30
0.0
 41
1.0
 10
-0.398589523232147
 20
-14.1198789320623
 30
0.0
 41
1.0
 10
-0.39166936399829
 20
-14.1118846134129
 30
0.0
 41
1.0
 10
-0.370149901852585
 20
-14.0905503236654
 30
0.0
 41
1.0
 10
-0.355477564537637
 20
-14.0802350675719
 30
0.0
 41
1.0
 10
-0.342769052838861
 20
-14.0728978049216
 30
0.0
 41
1.0
  0
SPLINE
  5
141
330
1F
100
AcDbEntity
  8
SK1
100
AcDbSpline
210
0.0
220
0.0
230
1.0
 70
    28
 71
     3
 72
     8
 73
     4
 74
     0
 42
0.000000001
 43
0.0000000001
 40
0.0
 40
0.0
 40
0.0
 40
0.0
 40
1.0
 40
1.0
 40
1.0
 40
1.0
 10
0.249980947161163
 20
-14.7693265671316
 30
0.0
 41
1.0
 10
0.0607307434434858
 20
-14.660062911071
 30
0.0
 41
1.0
 10
-0.136951465371112
 20
-14.5459310345979
 30
0.0
 41
1.0
 10
-0.342769052838861
 20
-14.4271021950695
 30
0.0
 41
1.0
  0
SPLINE
  5
142
330
1F
100
AcDbEntity
  8
SK1
100
AcDbSpline
210
0.0
220
0.0
230
1.0
 70
    12
 71
     3
 72
    12
 73
     8
 74
     0
 42
0.000000001
 43
0.0000000001
 40
0.0
 40
0.0
 40
0.0
 40
0.0
 40
0.249999999999996
 40
0.249999999999996
 40
0.499999999999992
 40
0.499999999999992
 40
1.0
 40
1.0
 40
1.0
 40
1.0
 10
0.324980947161151
 20
-14.8992304301629
 30
0.0
 41
1.0
 10
0.324980953077272
 20
-14.8823154788934
 30
0.0
 41
1.0
 10
0.322323108241278
 20
-14.867989716038
 30
0.0
 41
1.0
 10
0.3142812993955319
 20
-14.8419494625515
 30
0.0
 41
1.0
 10
0.308800970555893
 20
-14.8303305689946
 30
0.0
 41
1.0
 10
0.289017012064022
 20
-14.7986535160383
 30
0.0
 41
1.0
 10
0.271512680030099
 20
-14.7817579188996
 30
0.0
 41
1.0
 10
0.249980947161163
 20
-14.7693265671316
 30
0.0
 41
1.0
  0
SPLINE
  5
143
330
1F
100
AcDbEntity
  8
SK1
100
AcDbSpline
210
0.0
220
0.0
230
1.0
 70
    12
 71
     3
 72
    18
 73
    14
 74
     0
 42
0.000000001
 43
0.0000000001
 40
0.0
 40
0.0
 40
0.0
 40
0.0
 40
0.125
 40
0.125
 40
0.25
 40
0.25
 40
0.375
 40
0.375
 40
0.5
 40
0.5
 40
0.75
 40
0.75
 40
1.0
 40
1.0
 40
1.0
 40
1.0
 10
0.249980947161163
 20
-15.2306734328595
 30
0.0
 41
1.0
 10
0.255992282634963
 20
-15.2272027867054
 30
0.0
 41
1.0
 10
0.262568054782975
 20
-15.222897795439
 30
0.0
 41
1.0
 10
0.277006954312242
 20
-15.2111212691424
 30
0.0
 41
1.0
 10
0.284889990325865
 20
-15.203350604791
 30
0.0
 41
1.0
 10
0.297697957449572
 20
-15.1876223201529
 30
0.0
 41
1.0
 10
0.30257447032011
 20
-15.1800104739869
 30
0.0
 41
1.0
 10
0.310013812268295
 20
-15.1665369779512
 30
0.0
 41
1.0
 10
0.312704971407214
 20
-15.1605107192989
 30
0.0
 41
1.0
 10
0.31927502479283
 20
-15.1435111859618
 30
0.0
 41
1.0
 10
0.321522697071799
 20
-15.1340169264927
 30
0.0
 41
1.0
 10
0.324433705137551
 20
-15.1163818238262
 30
0.0
 41
1.0
 10
0.324980947163056
 20
-15.1083279595915
 30
0.0
 41
1.0
 10
0.32498094716297
 20
-15.10076962229
 30
0.0
 41
1.0
  0
SPLINE
  5
144
330
1F
100
AcDbEntity
  8
SK1
100
AcDbSpline
210
0.0
220
0.0
230
1.0
 70
    28
 71
     3
 72
     8
 73
     4
 74
     0
 42
0.000000001
 43
0.0000000001
 40
0.0
 40
0.0
 40
0.0
 40
0.0
 40
1.0
 40
1.0
 40
1.0
 40
1.0
 10
-0.342769052837127
 20
-15.5728978049206
 30
0.0
 41
1.0
 10
-0.144124364080795
 20
-15.4582102403941
 30
0.0
 41
1.0
 10
0.0534841279688578
 20
-15.3441209243151
 30
0.0
 41
1.0
 10
0.2499809471611339
 20
-15.2306734328595
 30
0.0
 41
1.0
  0
SPLINE
  5
145
330
1F
100
AcDbEntity
  8
SK1
100
AcDbSpline
210
0.0
220
0.0
230
1.0
 70
    12
 71
     3
 72
    26
 73
    22
 74
     0
 42
0.000000001
 43
0.0000000001
 40
0.0
 40
0.0
 40
0.0
 40
0.0
 40
0.249999999999997
 40
0.249999999999997
 40
0.499999999999994
 40
0.499999999999994
 40
0.624999999999996
 40
0.624999999999996
 40
0.749999999999997
 40
0.749999999999997
 40
0.812499999999996
 40
0.812499999999996
 40
0.8749999999999948
 40
0.8749999999999948
 40
0.9062499999999948
 40
0.9062499999999948
 40
0.9374999999999939
 40
0.9374999999999939
 40
0.9687499999999969
 40
0.9687499999999969
 40
1.0
 40
1.0
 40
1.0
 40
1.0
 10
-0.342769052838889
 20
-15.9271021950695
 30
0.0
 41
1.0
 10
-0.363331826393733
 20
-15.9152302722223
 30
0.0
 41
1.0
 10
-0.381215016577698
 20
-15.900251684056
 30
0.0
 41
1.0
 10
-0.411592581967824
 20
-15.86447606914
 30
0.0
 41
1.0
 10
-0.4241833152797771
 20
-15.8437113242226
 30
0.0
 41
1.0
 10
-0.437499251700388
 20
-15.8065029393267
 30
0.0
 41
1.0
 10
-0.440999019416779
 20
-15.7930790413138
 30
0.0
 41
1.0
 10
-0.445151064915706
 20
-15.7631818220764
 30
0.0
 41
1.0
 10
-0.4458742858498681
 20
-15.7467988246893
 30
0.0
 41
1.0
 10
-0.442797544982625
 20
-15.718474551099
 30
0.0
 41
1.0
 10
-0.441072121468665
 20
-15.7083607502202
 30
0.0
 41
1.0
 10
-0.4350621491841479
 20
-15.685903634084
 30
0.0
 41
1.0
 10
-0.430985445417548
 20
-15.6738466499461
 30
0.0
 41
1.0
 10
-0.4203516164646721
 20
-15.6523033704929
 30
0.0
 41
1.0
 10
-0.415993581514016
 20
-15.6444899416574
 30
0.0
 41
1.0
 10
-0.404659182764959
 20
-15.6276002435737
 30
0.0
 41
1.0
 10
-0.397449987201924
 20
-15.6183626777257
 30
0.0
 41
1.0
 10
-0.3815016907189771
 20
-15.6014079457302
 30
0.0
 41
1.0
 10
-0.372810150429387
 20
-15.5937359655156
 30
0.0
 41
1.0
 10
-0.357004287639569
 20
-15.5816237158963
 30
0.0
 41
1.0
 10
-0.349623727672224
 20
-15.5768553532818
 30
0.0
 41
1.0
 10
-0.342769052837156
 20
-15.5728978049206
 30
0.0
 41
1.0
  0
SPLINE
  5
146
330
1F
100
AcDbEntity
  8
SK1
100
AcDbSpline
210
0.0
220
0.0
230
1.0
 70
    28
 71
     3
 72
     8
 73
     4
 74
     0
 42
0.000000001
 43
0.0000000001
 40
0.0
 40
0.0
 40
0.0
 40
0.0
 40
1.0
 40
1.0
 40
1.0
 40
1.0
 10
0.249980947161191
 20
-16.2693265671316
 30
0.0
 41
1.0
 10
0.0648365548907748
 20
-16.1624334024154
 30
0.0
 41
1.0
 10
-0.13289681574588
 20
-16.0482719876505
 30
0.0
 41
1.0
 10
-0.342769052838861
 20
-15.9271021950694
 30
0.0
 41
1.0
  0
SPLINE
  5
147
330
1F
100
AcDbEntity
  8
SK1
100
AcDbSpline
210
0.0
220
0.0
230
1.0
 70
    12
 71
     3
 72
    12
 73
     8
 74
     0
 42
0.000000001
 43
0.0000000001
 40
0.0
 40
0.0
 40
0.0
 40
0.0
 40
0.250000000000003
 40
0.250000000000003
 40
0.5000000000000061
 40
0.5000000000000061
 40
1.0
 40
1.0
 40
1.0
 40
1.0
 10
0.324980947161151
 20
-16.3992304261359
 30
0.0
 41
1.0
 10
0.324980952628465
 20
-16.3822990641123
 30
0.0
 41
1.0
 10
0.322301818992628
 20
-16.3678972495498
 30
0.0
 41
1.0
 10
0.314257262200982
 20
-16.3418952901372
 30
0.0
 41
1.0
 10
0.308790827673874
 20
-16.3303218966675
 30
0.0
 41
1.0
 10
0.2891142690968139
 20
-16.298794147445
 30
0.0
 41
1.0
 10
0.271755227526455
 20
-16.281897953762
 30
0.0
 41
1.0
 10
0.249980947161163
 20
-16.2693265671316
 30
0.0
 41
1.0
  0
SPLINE
  5
148
330
1F
100
AcDbEntity
  8
SK1
100
AcDbSpline
210
0.0
220
0.0
230
1.0
 70
    12
 71
     3
 72
    20
 73
    16
 74
     0
 42
0.000000001
 43
0.0000000001
 40
0.0
 40
0.0
 40
0.0
 40
0.0
 40
0.124999999999954
 40
0.124999999999954
 40
0.187499999999949
 40
0.187499999999949
 40
0.249999999999944
 40
0.249999999999944
 40
0.3749999999999589
 40
0.3749999999999589
 40
0.499999999999973
 40
0.499999999999973
 40
0.7499999999999871
 40
0.7499999999999871
 40
1.0
 40
1.0
 40
1.0
 40
1.0
 10
0.249980947160452
 20
-16.7306734328605
 30
0.0
 41
1.0
 10
0.256322006907965
 20
-16.72701242030839
 30
0.0
 41
1.0
 10
0.263417204332171
 20
-16.7224255673839
 30
0.0
 41
1.0
 10
0.276025033299788
 20
-16.711766819536
 30
0.0
 41
1.0
 10
0.280508144989596
 20
-16.7075474071424
 30
0.0
 41
1.0
 10
0.288859221983074
 20
-16.6985920294525
 30
0.0
 41
1.0
 10
0.292605317005155
 20
-16.6939995347058
 30
0.0
 41
1.0
 10
0.301909742009883
 20
-16.68138176057
 30
0.0
 41
1.0
 10
0.305920109269266
 20
-16.6742856978542
 30
0.0
 41
1.0
 10
0.312236739809777
 20
-16.6616837005009
 30
0.0
 41
1.0
 10
0.314491697414269
 20
-16.6561502016815
 30
0.0
 41
1.0
 10
0.320014098729359
 20
-16.6405994727196
 30
0.0
 41
1.0
 10
0.322002618785717
 20
-16.6316478063206
 30
0.0
 41
1.0
 10
0.324511179409285
 20
-16.6152452507762
 30
0.0
 41
1.0
 10
0.32498094716118
 20
-16.6077875992199
 30
0.0
 41
1.0
 10
0.32498094716118
 20
-16.6007696222918
 30
0.0
 41
1.0
  0
SPLINE
  5
149
330
1F
100
AcDbEntity
  8
SK1
100
AcDbSpline
210
0.0
220
0.0
230
1.0
 70
    28
 71
     3
 72
     8
 73
     4
 74
     0
 42
0.000000001
 43
0.0000000001
 40
0.0
 40
0.0
 40
0.0
 40
0.0
 40
1.0
 40
1.0
 40
1.0
 40
1.0
 10
-0.342769052838861
 20
-17.0728978049217
 30
0.0
 41
1.0
 10
-0.142923239002073
 20
-16.95751677050659
 30
0.0
 41
1.0
 10
0.0547247618737572
 20
-16.8434046439961
 30
0.0
 41
1.0
 10
0.2499809471611339
 20
-16.7306734328595
 30
0.0
 41
1.0
  0
SPLINE
  5
14A
330
1F
100
AcDbEntity
  8
SK1
100
AcDbSpline
210
0.0
220
0.0
230
1.0
 70
    12
 71
     3
 72
    28
 73
    24
 74
     0
 42
0.000000001
 43
0.0000000001
 40
0.0
 40
0.0
 40
0.0
 40
0.0
 40
0.2500000000000111
 40
0.2500000000000111
 40
0.500000000000023
 40
0.500000000000023
 40
0.625000000000025
 40
0.625000000000025
 40
0.750000000000027
 40
0.750000000000027
 40
0.8125000000000229
 40
0.8125000000000229
 40
0.8750000000000191
 40
0.8750000000000191
 40
0.9062500000000159
 40
0.9062500000000159
 40
0.937500000000012
 40
0.937500000000012
 40
0.953125000000009
 40
0.953125000000009
 40
0.968750000000006
 40
0.968750000000006
 40
1.0
 40
1.0
 40
1.0
 40
1.0
 10
-0.342769052838861
 20
-17.4271021950695
 30
0.0
 41
1.0
 10
-0.3627209814792709
 20
-17.415582943698
 30
0.0
 41
1.0
 10
-0.380152456249647
 20
-17.4011491961776
 30
0.0
 41
1.0
 10
-0.4100993236426691
 20
-17.3665594209304
 30
0.0
 41
1.0
 10
-0.4226639248591371
 20
-17.3464551713298
 30
0.0
 41
1.0
 10
-0.436313246267133
 20
-17.3104144845159
 30
0.0
 41
1.0
 10
-0.4399851848999671
 20
-17.297387480541
 30
0.0
 41
1.0
 10
-0.4446873118681081
 20
-17.2686449230797
 30
0.0
 41
1.0
 10
-0.4458004741530321
 20
-17.25296551256719
 30
0.0
 41
1.0
 10
-0.443788381764222
 20
-17.2258322224669
 30
0.0
 41
1.0
 10
-0.4425014436561981
 20
-17.2162018951789
 30
0.0
 41
1.0
 10
-0.4377609212680511
 20
-17.194910586965
 30
0.0
 41
1.0
 10
-0.4344137715260671
 20
-17.1833061362633
 30
0.0
 41
1.0
 10
-0.42560498696605
 20
-17.1627120120651
 30
0.0
 41
1.0
 10
-0.4220731861729801
 20
-17.1553836637234
 30
0.0
 41
1.0
 10
-0.4123127961425151
 20
-17.1386399345233
 30
0.0
 41
1.0
 10
-0.405911713532504
 20
-17.1289604609241
 30
0.0
 41
1.0
 10
-0.3927946063593879
 20
-17.1133300733198
 30
0.0
 41
1.0
 10
-0.387812534906459
 20
-17.1079628158508
 30
0.0
 41
1.0
 10
-0.3776833976416189
 20
-17.0981583915537
 30
0.0
 41
1.0
 10
-0.372649490292559
 20
-17.0938016134928
 30
0.0
 41
1.0
 10
-0.3585442181704079
 20
-17.0825638505675
 30
0.0
 41
1.0
 10
-0.350240876687707
 20
-17.0772116644321
 30
0.0
 41
1.0
 10
-0.342769052838861
 20
-17.0728978049216
 30
0.0
 41
1.0
  0
SPLINE
  5
14B
330
1F
100
AcDbEntity
  8
SK1
100
AcDbSpline
210
0.0
220
0.0
230
1.0
 70
    28
 71
     3
 72
     8
 73
     4
 74
     0
 42
0.000000001
 43
0.0000000001
 40
0.0
 40
0.0
 40
0.0
 40
0.0
 40
1.0
 40
1.0
 40
1.0
 40
1.0
 10
0.249980947161163
 20
-17.7693265671316
 30
0.0
 41
1.0
 10
0.0754822092158349
 20
-17.6685796738056
 30
0.0
 41
1.0
 10
-0.122384349147921
 20
-17.5543413630707
 30
0.0
 41
1.0
 10
-0.342769052838833
 20
-17.4271021950694
 30
0.0
 41
1.0
  0
SPLINE
  5
14C
330
1F
100
AcDbEntity
  8
SK1
100
AcDbSpline
210
0.0
220
0.0
230
1.0
 70
    12
 71
     3
 72
    12
 73
     8
 74
     0
 42
0.000000001
 43
0.0000000001
 40
0.0
 40
0.0
 40
0.0
 40
0.0
 40
0.249999999999998
 40
0.249999999999998
 40
0.499999999999997
 40
0.499999999999997
 40
1.0
 40
1.0
 40
1.0
 40
1.0
 10
0.324980947161151
 20
-17.89923042865799
 30
0.0
 41
1.0
 10
0.324980952762672
 20
-17.8827419818696
 30
0.0
 41
1.0
 10
0.322430397728169
 20
-17.8685646901502
 30
0.0
 41
1.0
 10
0.314599977396
 20
-17.8427657758531
 30
0.0
 41
1.0
 10
0.309234904042796
 20
-17.8311865898517
 30
0.0
 41
1.0
 10
0.289717889405153
 20
-17.7994718587819
 30
0.0
 41
1.0
 10
0.272291716849253
 20
-17.7822076960169
 30
0.0
 41
1.0
 10
0.2499809471611339
 20
-17.7693265671316
 30
0.0
 41
1.0
  0
SPLINE
  5
14D
330
1F
100
AcDbEntity
  8
SK1
100
AcDbSpline
210
0.0
220
0.0
230
1.0
 70
    12
 71
     3
 72
    22
 73
    18
 74
     0
 42
0.000000001
 43
0.0000000001
 40
0.0
 40
0.0
 40
0.0
 40
0.0
 40
0.0624999999999951
 40
0.0624999999999951
 40
0.12499999999999
 40
0.12499999999999
 40
0.156249999999993
 40
0.156249999999993
 40
0.187499999999996
 40
0.187499999999996
 40
0.2499999999999861
 40
0.2499999999999861
 40
0.3749999999999891
 40
0.3749999999999891
 40
0.499999999999992
 40
0.499999999999992
 40
1.0
 40
1.0
 40
1.0
 40
1.0
 10
0.249980947038267
 20
-18.2306734329998
 30
0.0
 41
1.0
 10
0.253298607308096
 20
-18.2287579809551
 30
0.0
 41
1.0
 10
0.25689744789176
 20
-18.2265297514048
 30
0.0
 41
1.0
 10
0.265236483526422
 20
-18.2206856817746
 30
0.0
 41
1.0
 10
0.270025127869871
 20
-18.2170927009175
 30
0.0
 41
1.0
 10
0.278930074325757
 20
-18.2089855762386
 30
0.0
 41
1.0
 10
0.28217038696863
 20
-18.2057859852719
 30
0.0
 41
1.0
 10
0.287936833326171
 20
-18.1995571735343
 30
0.0
 41
1.0
 10
0.290427733233713
 20
-18.1966005315523
 30
0.0
 41
1.0
 10
0.296753341811382
 20
-18.1886193703727
 30
0.0
 41
1.0
 10
0.299606934503998
 20
-18.1843690632623
 30
0.0
 41
1.0
 10
0.3068305053211589
 20
-18.1728647470928
 30
0.0
 41
1.0
 10
0.30974220259148
 20
-18.1669200085272
 30
0.0
 41
1.0
 10
0.3146238614938
 20
-18.1558724901022
 30
0.0
 41
1.0
 10
0.316430522614098
 20
-18.15092459677339
 30
0.0
 41
1.0
 10
0.323789207543797
 20
-18.127828140709
 30
0.0
 41
1.0
 10
0.324980947161151
 20
-18.113780567925
 30
0.0
 41
1.0
 10
0.324980947161151
 20
-18.1007696222918
 30
0.0
 41
1.0
  0
SPLINE
  5
14E
330
1F
100
AcDbEntity
  8
SK1
100
AcDbSpline
210
0.0
220
0.0
230
1.0
 70
    28
 71
     3
 72
     8
 73
     4
 74
     0
 42
0.000000001
 43
0.0000000001
 40
0.0
 40
0.0
 40
0.0
 40
0.0
 40
1.0
 40
1.0
 40
1.0
 40
1.0
 10
-0.342769052838889
 20
-18.5728978049217
 30
0.0
 41
1.0
 10
-0.137660453239135
 20
-18.4544782997296
 30
0.0
 41
1.0
 10
0.0602000624352286
 20
-18.340243477743
 30
0.0
 41
1.0
 10
0.2499809471611339
 20
-18.2306734328595
 30
0.0
 41
1.0
  0
SPLINE
  5
14F
330
1F
100
AcDbEntity
  8
SK1
100
AcDbSpline
210
0.0
220
0.0
230
1.0
 70
    12
 71
     3
 72
    30
 73
    26
 74
     0
 42
0.000000001
 43
0.0000000001
 40
0.0
 40
0.0
 40
0.0
 40
0.0
 40
0.250000000000003
 40
0.250000000000003
 40
0.500000000000005
 40
0.500000000000005
 40
0.7500000000000079
 40
0.7500000000000079
 40
0.8125000000000071
 40
0.8125000000000071
 40
0.8750000000000071
 40
0.8750000000000071
 40
0.9062500000000078
 40
0.9062500000000078
 40
0.937500000000009
 40
0.937500000000009
 40
0.953125000000009
 40
0.953125000000009
 40
0.9609375000000078
 40
0.9609375000000078
 40
0.968750000000006
 40
0.968750000000006
 40
0.984375000000003
 40
0.984375000000003
 40
1.0
 40
1.0
 40
1.0
 40
1.0
 10
-0.342769052838861
 20
-18.9271021950695
 30
0.0
 41
1.0
 10
-0.361317770924359
 20
-18.9163930876897
 30
0.0
 41
1.0
 10
-0.377928050253899
 20
-18.9030121234154
 30
0.0
 41
1.0
 10
-0.407054784269832
 20
-18.8706639657882
 30
0.0
 41
1.0
 10
-0.419617255183283
 20
-18.8517443816822
 30
0.0
 41
1.0
 10
-0.4386665893644021
 20
-18.8062640120873
 30
0.0
 41
1.0
 10
-0.44565377983514
 20
-18.7802516467584
 30
0.0
 41
1.0
 10
-0.4448109161205031
 20
-18.7374090262762
 30
0.0
 41
1.0
 10
-0.4441156254111151
 20
-18.7282871925159
 30
0.0
 41
1.0
 10
-0.4409701920025951
 20
-18.7082585196699
 30
0.0
 41
1.0
 10
-0.4385891141361921
 20
-18.6973984755337
 30
0.0
 41
1.0
 10
-0.432195159830712
 20
-18.6784100223593
 30
0.0
 41
1.0
 10
-0.4295953694897041
 20
-18.6716280591068
 30
0.0
 41
1.0
 10
-0.422465578064504
 20
-18.6562584585359
 30
0.0
 41
1.0
 10
-0.4181652738954539
 20
-18.6478652592587
 30
0.0
 41
1.0
 10
-0.407377837534938
 20
-18.6315907319866
 30
0.0
 41
1.0
 10
-0.4030220108484461
 20
-18.6254889499997
 30
0.0
 41
1.0
 10
-0.393854982588238
 20
-18.6146085919183
 30
0.0
 41
1.0
 10
-0.390324880273852
 20
-18.6106935937472
 30
0.0
 41
1.0
 10
-0.382945752215136
 20
-18.6031575808514
 30
0.0
 41
1.0
 10
-0.379087438396482
 20
-18.5995288279351
 30
0.0
 41
1.0
 10
-0.368393800696424
 20
-18.5901301052388
 30
0.0
 41
1.0
 10
-0.3623997777089579
 20
-18.5856625711569
 30
0.0
 41
1.0
 10
-0.3518209492384299
 20
-18.5783212608634
 30
0.0
 41
1.0
 10
-0.347121257747972
 20
-18.5754105515975
 30
0.0
 41
1.0
 10
-0.342769052838861
 20
-18.5728978049216
 30
0.0
 41
1.0
  0
SPLINE
  5
150
330
1F
100
AcDbEntity
  8
1
100
AcDbSpline
210
0.0
220
0.0
230
1.0
 70
    12
 71
     3
 72
    14
 73
    10
 74
     0
 42
0.000000001
 43
0.0000000001
 40
0.0
 40
0.0
 40
0.0
 40
0.0
 40
0.25
 40
0.25
 40
0.5
 40
0.5
 40
0.75
 40
0.75
 40
1.0
 40
1.0
 40
1.0
 40
1.0
 10
-11.5602215983722
 20
-78.94749492726301
 30
0.0
 41
1.0
 10
-11.5903712176945
 20
-78.95985304660229
 30
0.0
 41
1.0
 10
-11.6212907335868
 20
-78.9691195846659
 30
0.0
 41
1.0
 10
-11.6846272854528
 20
-78.9816404482589
 30
0.0
 41
1.0
 10
-11.7174256794585
 20
-78.98487295050421
 30
0.0
 41
1.0
 10
-11.782357382346
 20
-78.9848870259737
 30
0.0
 41
1.0
 10
-11.8144945157018
 20
-78.98176391202508
 30
0.0
 41
1.0
 10
-11.8781144149433
 20
-78.9692861770328
 30
0.0
 41
1.0
 10
-11.9096140083492
 20
-78.95985910234479
 30
0.0
 41
1.0
 10
-11.9397784016289
 20
-78.94749492726301
 30
0.0
 41
1.0
  0
SPLINE
  5
151
330
1F
100
AcDbEntity
  8
1
100
AcDbSpline
210
0.0
220
0.0
230
1.0
 70
    12
 71
     3
 72
    14
 73
    10
 74
     0
 42
0.000000001
 43
0.0000000001
 40
0.0
 40
0.0
 40
0.0
 40
0.0
 40
0.25
 40
0.25
 40
0.5
 40
0.5
 40
0.75
 40
0.75
 40
1.0
 40
1.0
 40
1.0
 40
1.0
 10
-9.769344875561019
 20
-77.6943945467295
 30
0.0
 41
1.0
 10
-9.77371723993124
 20
-77.7266839426465
 30
0.0
 41
1.0
 10
-9.781151940509149
 20
-77.7580942979137
 30
0.0
 41
1.0
 10
-9.80197683049332
 20
-77.8192057926144
 30
0.0
 41
1.0
 10
-9.815576598434061
 20
-77.8492262861494
 30
0.0
 41
1.0
 10
-9.84803026016354
 20
-77.9054658280956
 30
0.0
 41
1.0
 10
-9.866803522859779
 20
-77.93173584501229
 30
0.0
 41
1.0
 10
-9.90941950796574
 20
-77.9805934264457
 30
0.0
 41
1.0
 10
-9.933333390831901
 20
-78.0031593372
 30
0.0
 41
1.0
 10
-9.959123277189409
 20
-78.0231003805291
 30
0.0
 41
1.0
  0
SPLINE
  5
152
330
1F
100
AcDbEntity
  8
1
100
AcDbSpline
210
0.0
220
0.0
230
1.0
 70
    12
 71
     3
 72
    14
 73
    10
 74
     0
 42
0.000000001
 43
0.0000000001
 40
0.0
 40
0.0
 40
0.0
 40
0.0
 40
0.25
 40
0.25
 40
0.5
 40
0.5
 40
0.75
 40
0.75
 40
1.0
 40
1.0
 40
1.0
 40
1.0
 10
-9.95912327718938
 20
-75.51689961946201
 30
0.0
 41
1.0
 10
-9.93334602223746
 20
-75.5368308960398
 30
0.0
 41
1.0
 10
-9.90986120692313
 20
-75.5589747132434
 30
0.0
 41
1.0
 10
-9.867349545041179
 20
-75.607565344351
 30
0.0
 41
1.0
 10
-9.84815091897607
 20
-75.63435333564079
 30
0.0
 41
1.0
 10
-9.81567287781826
 20
-75.6905788021175
 30
0.0
 41
1.0
 10
-9.802309007158699
 20
-75.7199719329826
 30
0.0
 41
1.0
 10
-9.78130509302292
 20
-75.78130724940841
 30
0.0
 41
1.0
 10
-9.773719382483189
 20
-75.8133002348508
 30
0.0
 41
1.0
 10
-9.769344875560991
 20
-75.84560545326159
 30
0.0
 41
1.0
  0
SPLINE
  5
153
330
1F
100
AcDbEntity
  8
1
100
AcDbSpline
210
0.0
220
0.0
230
1.0
 70
    12
 71
     3
 72
    14
 73
    10
 74
     0
 42
0.000000001
 43
0.0000000001
 40
0.0
 40
0.0
 40
0.0
 40
0.0
 40
0.25
 40
0.25
 40
0.5
 40
0.5
 40
0.75
 40
0.75
 40
1.0
 40
1.0
 40
1.0
 40
1.0
 10
-11.9397784016289
 20
-74.59250507272809
 30
0.0
 41
1.0
 10
-11.9096287823067
 20
-74.58014695338879
 30
0.0
 41
1.0
 10
-11.8787092664144
 20
-74.57088041532509
 30
0.0
 41
1.0
 10
-11.8153727145483
 20
-74.5583595517321
 30
0.0
 41
1.0
 10
-11.7825743205426
 20
-74.5551270494869
 30
0.0
 41
1.0
 10
-11.71764261765519
 20
-74.55511297401741
 30
0.0
 41
1.0
 10
-11.6855054842994
 20
-74.55823608796601
 30
0.0
 41
1.0
 10
-11.6218855850578
 20
-74.57071382295829
 30
0.0
 41
1.0
 10
-11.5903859916519
 20
-74.58014089764628
 30
0.0
 41
1.0
 10
-11.5602215983722
 20
-74.59250507272809
 30
0.0
 41
1.0
  0
SPLINE
  5
154
330
1F
100
AcDbEntity
  8
1
100
AcDbSpline
210
0.0
220
0.0
230
1.0
 70
    12
 71
     3
 72
    14
 73
    10
 74
     0
 42
0.000000001
 43
0.0000000001
 40
0.0
 40
0.0
 40
0.0
 40
0.0
 40
0.25
 40
0.25
 40
0.5
 40
0.5
 40
0.75
 40
0.75
 40
1.0
 40
1.0
 40
1.0
 40
1.0
 10
-13.7306551244401
 20
-75.84560545326159
 30
0.0
 41
1.0
 10
-13.7262827600698
 20
-75.81331605734459
 30
0.0
 41
1.0
 10
-13.7188480594919
 20
-75.7819057020773
 30
0.0
 41
1.0
 10
-13.6980231695078
 20
-75.7207942073767
 30
0.0
 41
1.0
 10
-13.684423401567
 20
-75.69077371384171
 30
0.0
 41
1.0
 10
-13.6519697398375
 20
-75.63453417189551
 30
0.0
 41
1.0
 10
-13.6331964771413
 20
-75.60826415497891
 30
0.0
 41
1.0
 10
-13.5905804920353
 20
-75.5594065735455
 30
0.0
 41
1.0
 10
-13.5666666091692
 20
-75.53684066279109
 30
0.0
 41
1.0
 10
-13.5408767228117
 20
-75.51689961946201
 30
0.0
 41
1.0
  0
SPLINE
  5
155
330
1F
100
AcDbEntity
  8
1
100
AcDbSpline
210
0.0
220
0.0
230
1.0
 70
    12
 71
     3
 72
    14
 73
    10
 74
     0
 42
0.000000001
 43
0.0000000001
 40
0.0
 40
0.0
 40
0.0
 40
0.0
 40
0.25
 40
0.25
 40
0.5
 40
0.5
 40
0.75
 40
0.75
 40
1.0
 40
1.0
 40
1.0
 40
1.0
 10
-13.5408767228117
 20
-78.0231003805291
 30
0.0
 41
1.0
 10
-13.5666539777636
 20
-78.00316910395131
 30
0.0
 41
1.0
 10
-13.5901387930779
 20
-77.98102528674771
 30
0.0
 41
1.0
 10
-13.6326504549599
 20
-77.93243465564
 30
0.0
 41
1.0
 10
-13.651849081025
 20
-77.9056466643503
 30
0.0
 41
1.0
 10
-13.6843271221828
 20
-77.84942119787371
 30
0.0
 41
1.0
 10
-13.6976909928424
 20
-77.82002806700849
 30
0.0
 41
1.0
 10
-13.7186949069782
 20
-77.75869275058271
 30
0.0
 41
1.0
 10
-13.7262806175179
 20
-77.7266997651403
 30
0.0
 41
1.0
 10
-13.7306551244401
 20
-77.6943945467295
 30
0.0
 41
1.0
  0
SPLINE
  5
156
330
1F
100
AcDbEntity
  8
1
100
AcDbSpline
210
0.0
220
0.0
230
1.0
 70
    12
 71
     3
 72
    70
 73
    66
 74
     0
 42
0.000000001
 43
0.0000000001
 40
0.0
 40
0.0
 40
0.0
 40
0.0
 40
0.0625000000000004
 40
0.0625000000000004
 40
0.0937500000000014
 40
0.0937500000000014
 40
0.109375000000002
 40
0.109375000000002
 40
0.125000000000002
 40
0.125000000000002
 40
0.187500000000004
 40
0.187500000000004
 40
0.203125000000004
 40
0.203125000000004
 40
0.218750000000004
 40
0.218750000000004
 40
0.250000000000004
 40
0.250000000000004
 40
0.2812500000000039
 40
0.2812500000000039
 40
0.3125000000000039
 40
0.3125000000000039
 40
0.3437500000000039
 40
0.3437500000000039
 40
0.3593750000000039
 40
0.3593750000000039
 40
0.3750000000000039
 40
0.3750000000000039
 40
0.4375000000000039
 40
0.4375000000000039
 40
0.4531250000000039
 40
0.4531250000000039
 40
0.4687500000000031
 40
0.4687500000000031
 40
0.5000000000000031
 40
0.5000000000000031
 40
0.5312500000000031
 40
0.5312500000000031
 40
0.5625000000000022
 40
0.5625000000000022
 40
0.625000000000001
 40
0.625000000000001
 40
0.656250000000001
 40
0.656250000000001
 40
0.671875000000001
 40
0.671875000000001
 40
0.6875000000000022
 40
0.6875000000000022
 40
0.7500000000000052
 40
0.7500000000000052
 40
0.7656250000000052
 40
0.7656250000000052
 40
0.7812500000000052
 40
0.7812500000000052
 40
0.8125000000000051
 40
0.8125000000000051
 40
0.8437500000000051
 40
0.8437500000000051
 40
0.8593750000000051
 40
0.8593750000000051
 40
0.8750000000000039
 40
0.8750000000000039
 40
0.9375000000000021
 40
0.9375000000000021
 40
1.0
 40
1.0
 40
1.0
 40
1.0
 10
-17.6900000000005
 20
-85.8099999999955
 30
0.0
 41
1.0
 10
-17.6900000000005
 20
-86.10721671127761
 30
0.0
 41
1.0
 10
-17.6680494188168
 20
-86.41594804515369
 30
0.0
 41
1.0
 10
-17.5913654475396
 20
-86.9003073867182
 30
0.0
 41
1.0
 10
-17.5584466378949
 20
-87.06530377577829
 30
0.0
 41
1.0
 10
-17.4959086094981
 20
-87.31854043034271
 30
0.0
 41
1.0
 10
-17.4727870985035
 20
-87.40415832454679
 30
0.0
 41
1.0
 10
-17.4220854158444
 20
-87.57609172295309
 30
0.0
 41
1.0
 10
-17.3945734738452
 20
-87.6622184497736
 30
0.0
 41
1.0
 10
-17.2457141622986
 20
-88.09339485055978
 30
0.0
 41
1.0
 10
-17.0906905532165
 20
-88.44029168982
 30
0.0
 41
1.0
 10
-16.8420594841077
 20
-88.8701296267822
 30
0.0
 41
1.0
 10
-16.789577758596
 20
-88.95584180006089
 30
0.0
 41
1.0
 10
-16.6804715543601
 20
-89.12422915133971
 30
0.0
 41
1.0
 10
-16.6236727315436
 20
-89.2072163533496
 30
0.0
 41
1.0
 10
-16.4465266132047
 20
-89.45237520776791
 30
0.0
 41
1.0
 10
-16.319441152217
 20
-89.61075015218641
 30
0.0
 41
1.0
 10
-16.0469809140773
 20
-89.91626949760629
 30
0.0
 41
1.0
 10
-15.9012485496503
 20
-90.06374403151481
 30
0.0
 41
1.0
 10
-15.5923007714074
 20
-90.34474669509341
 30
0.0
 41
1.0
 10
-15.4312397114239
 20
-90.4763911980863
 30
0.0
 41
1.0
 10
-15.0963408631434
 20
-90.72210092060378
 30
0.0
 41
1.0
 10
-14.9225028703966
 20
-90.83616708917979
 30
0.0
 41
1.0
 10
-14.6521541904093
 20
-90.9938194000963
 30
0.0
 41
1.0
 10
-14.5604361922937
 20
-91.04412515615491
 30
0.0
 41
1.0
 10
-14.3737553953997
 20
-91.14015247121109
 30
0.0
 41
1.0
 10
-14.278647908529
 20
-91.18592221361959
 30
0.0
 41
1.0
 10
-13.8002521422606
 20
-91.4007123364542
 30
0.0
 41
1.0
 10
-13.4046701908946
 20
-91.53013497185758
 30
0.0
 41
1.0
 10
-12.8944573291053
 20
-91.6396406208158
 30
0.0
 41
1.0
 10
-12.7916195267625
 20
-91.65890125995678
 30
0.0
 41
1.0
 10
-12.5843277094096
 20
-91.69205019194571
 30
0.0
 41
1.0
 10
-12.4796102712634
 20
-91.7059557645982
 30
0.0
 41
1.0
 10
-12.1663524060387
 20
-91.73911062287322
 30
0.0
 41
1.0
 10
-11.9579359994799
 20
-91.7500024627909
 30
0.0
 41
1.0
 10
-11.5419233175161
 20
-91.7499975363672
 30
0.0
 41
1.0
 10
-11.3343270984666
 20
-91.73909929652131
 30
0.0
 41
1.0
 10
-10.9199590970434
 20
-91.69540861185508
 30
0.0
 41
1.0
 10
-10.7128226955586
 20
-91.66253964021178
 30
0.0
 41
1.0
 10
-10.0949811338759
 20
-91.5303094809049
 30
0.0
 41
1.0
 10
-9.699566154341569
 20
-91.40036818099693
 30
0.0
 41
1.0
 10
-9.130427851221639
 20
-91.14522872948651
 30
0.0
 41
1.0
 10
-8.944746676401679
 20
-91.0500614291703
 30
0.0
 41
1.0
 10
-8.672494489632128
 20
-90.891690892939
 30
0.0
 41
1.0
 10
-8.582887164740549
 20
-90.8363225458271
 30
0.0
 41
1.0
 10
-8.40803541906013
 20
-90.72180158248469
 30
0.0
 41
1.0
 10
-8.322503135520239
 20
-90.66248640548279
 30
0.0
 41
1.0
 10
-7.90417906487033
 20
-90.3559219613019
 30
0.0
 41
1.0
 10
-7.599135312144799
 20
-90.07893099171431
 30
0.0
 41
1.0
 10
-7.255533611320149
 20
-89.6950981291077
 30
0.0
 41
1.0
 10
-7.188481568533059
 20
-89.61613605718758
 30
0.0
 41
1.0
 10
-7.05978506143455
 20
-89.45636886731099
 30
0.0
 41
1.0
 10
-6.998071101773209
 20
-89.37552211556841
 30
0.0
 41
1.0
 10
-6.820577314252259
 20
-89.1304061238033
 30
0.0
 41
1.0
 10
-6.71243628400549
 20
-88.96356771452341
 30
0.0
 41
1.0
 10
-6.515454071222759
 20
-88.62452774765371
 30
0.0
 41
1.0
 10
-6.42661656167905
 20
-88.4523254234033
 30
0.0
 41
1.0
 10
-6.307226658587349
 20
-88.19096452569679
 30
0.0
 41
1.0
 10
-6.26963256159783
 20
-88.10303693004399
 30
0.0
 41
1.0
 10
-6.19978419731055
 20
-87.92838385710009
 30
0.0
 41
1.0
 10
-6.16745757902757
 20
-87.8415426547739
 30
0.0
 41
1.0
 10
-6.017875903678199
 20
-87.40996262040491
 30
0.0
 41
1.0
 10
-5.936437394033308
 20
-87.0732925185448
 30
0.0
 41
1.0
 10
-5.831994897203429
 20
-86.4187969810905
 30
0.0
 41
1.0
 10
-5.810000000000539
 20
-86.1078789439462
 30
0.0
 41
1.0
 10
-5.810000000000539
 20
-85.8099999999955
 30
0.0
 41
1.0
  0
LINE
  5
46
330
1F
100
AcDbEntity
  8
1
 60
     1
100
AcDbLine
 10
-214.434844
 20
-209.666744
 30
0.0
 11
-214.434844
 21
87.333256
 31
0.0
  0
LINE
  5
48
330
1F
100
AcDbEntity
  8
1
 60
     1
100
AcDbLine
 10
205.565156
 20
87.333256
 30
0.0
 11
-214.434844
 21
87.333256
 31
0.0
  0
LINE
  5
49
330
1F
100
AcDbEntity
  8
1
 60
     1
100
AcDbLine
 10
205.565156
 20
87.333256
 30
0.0
 11
205.565156
 21
-209.666744
 31
0.0
  0
LINE
  5
4A
330
1F
100
AcDbEntity
  8
1
 60
     1
100
AcDbLine
 10
-214.434844
 20
-209.666744
 30
0.0
 11
205.565156
 21
-209.666744
 31
0.0
  0
LINE
  5
4B
330
1F
100
AcDbEntity
  8
1
100
AcDbLine
 10
-0.5
 20
20.0
 30
0.0
 11
-0.5
 21
10.61352
 31
0.0
  0
LINE
  5
4C
330
1F
100
AcDbEntity
  8
1
100
AcDbLine
 10
-4.669999999999999
 20
-20.25
 30
0.0
 11
-1.5
 21
-20.25
 31
0.0
  0
LINE
  5
4D
330
1F
100
AcDbEntity
  8
1
100
AcDbLine
 10
-0.5
 20
20.0
 30
0.0
 11
-10.94
 21
20.0
 31
0.0
  0
LINE
  5
4E
330
1F
100
AcDbEntity
  8
SK1
100
AcDbLine
 10
0.237239
 20
19.262761
 30
0.0
 11
-0.5
 21
20.0
 31
0.0
  0
LINE
  5
50
330
1F
100
AcDbEntity
  8
1
100
AcDbLine
 10
-1.5
 20
-20.0
 30
0.0
 11
-0.5
 21
-20.0
 31
0.0
  0
LINE
  5
51
330
1F
100
AcDbEntity
  8
SK1
100
AcDbLine
 10
-0.5
 20
-20.0
 30
0.0
 11
0.237239
 21
-19.262761
 31
0.0
  0
LINE
  5
52
330
1F
100
AcDbEntity
  8
SK1
100
AcDbLine
 10
6.824981
 20
-5.9325
 30
0.0
 11
7.824981
 21
-5.664551
 31
0.0
  0
LINE
  5
53
330
1F
100
AcDbEntity
  8
SK1
100
AcDbLine
 10
7.824981
 20
5.664551
 30
0.0
 11
6.824981
 21
5.9325
 31
0.0
  0
LINE
  5
54
330
1F
100
AcDbEntity
  8
SK1
100
AcDbLine
 10
6.824981
 20
5.9325
 30
0.0
 11
0.325106
 21
5.9325
 31
0.0
  0
LINE
  5
55
330
1F
100
AcDbEntity
  8
SK1
100
AcDbLine
 10
0.325106
 20
-5.9325
 30
0.0
 11
6.824981
 21
-5.9325
 31
0.0
  0
LINE
  5
56
330
1F
100
AcDbEntity
  8
1
100
AcDbLine
 10
-1.5
 20
-9.041437
 30
0.0
 11
-1.5
 21
-20.25
 31
0.0
  0
LINE
  5
57
330
1F
100
AcDbEntity
  8
1
100
AcDbLine
 10
-15.811634
 20
15.128366
 30
0.0
 11
-10.94
 21
20.0
 31
0.0
  0
LINE
  5
58
330
1F
100
AcDbEntity
  8
SK1
100
AcDbLine
 10
0.23774
 20
19.26226
 30
0.0
 11
-0.342769
 21
18.92710199999999
 31
0.0
  0
LINE
  5
59
330
1F
100
AcDbEntity
  8
1
100
AcDbLine
 10
-0.5
 20
-20.0
 30
0.0
 11
-0.5
 21
-10.61352
 31
0.0
  0
LINE
  5
5A
330
1F
100
AcDbEntity
  8
SK1
100
AcDbLine
 10
0.23774
 20
-19.26226
 30
0.0
 11
-0.342769
 21
-18.92710199999999
 31
0.0
  0
LINE
  5
5B
330
1F
100
AcDbEntity
  8
1
100
AcDbLine
 10
-17.69
 20
-67.25
 30
0.0
 11
-17.189926
 21
-67.25
 31
0.0
  0
LINE
  5
5C
330
1F
100
AcDbEntity
  8
1
100
AcDbLine
 10
-6.310074
 20
-67.25
 30
0.0
 11
-5.809999999999999
 21
-67.25
 31
0.0
  0
LINE
  5
5D
330
1F
100
AcDbEntity
  8
SK1
100
AcDbLine
 10
6.824981
 20
5.9325
 30
0.0
 11
6.824981
 21
-5.9325
 31
0.0
  0
LINE
  5
5E
330
1F
100
AcDbEntity
  8
SK1
100
AcDbLine
 10
7.824981
 20
5.664551
 30
0.0
 11
7.824981
 21
-5.664551
 31
0.0
  0
LINE
  5
5F
330
1F
100
AcDbEntity
  8
1
100
AcDbLine
 10
-5.809999999999999
 20
-67.25
 30
0.0
 11
-5.809999999999999
 21
-79.84663600000001
 31
0.0
  0
LINE
  5
60
330
1F
100
AcDbEntity
  8
1
100
AcDbLine
 10
-17.69
 20
-79.84663600000001
 30
0.0
 11
-17.69
 21
-85.81000000000001
 31
0.0
  0
LINE
  5
61
330
1F
100
AcDbEntity
  8
1
100
AcDbLine
 10
-5.809999999999999
 20
-85.81000000000001
 30
0.0
 11
-5.809999999999999
 21
-79.84663600000001
 31
0.0
  0
LINE
  5
62
330
1F
100
AcDbEntity
  8
SK1
100
AcDbLine
 10
0.324981
 20
10.39923
 30
0.0
 11
0.324981
 21
10.60077
 31
0.0
  0
LINE
  5
63
330
1F
100
AcDbEntity
  8
SK1
100
AcDbLine
 10
0.324981
 20
11.89923
 30
0.0
 11
0.324981
 21
12.10077
 31
0.0
  0
LINE
  5
64
330
1F
100
AcDbEntity
  8
SK1
100
AcDbLine
 10
0.324981
 20
13.39923
 30
0.0
 11
0.324981
 21
13.60077
 31
0.0
  0
LINE
  5
65
330
1F
100
AcDbEntity
  8
SK1
100
AcDbLine
 10
0.324981
 20
14.89923
 30
0.0
 11
0.324981
 21
15.10077
 31
0.0
  0
LINE
  5
66
330
1F
100
AcDbEntity
  8
SK1
100
AcDbLine
 10
0.324981
 20
16.39923
 30
0.0
 11
0.324981
 21
16.60077
 31
0.0
  0
LINE
  5
67
330
1F
100
AcDbEntity
  8
SK1
100
AcDbLine
 10
0.324981
 20
17.89923
 30
0.0
 11
0.324981
 21
18.10077
 31
0.0
  0
LINE
  5
68
330
1F
100
AcDbEntity
  8
1
100
AcDbLine
 10
-0.5
 20
5.552167999999999
 30
0.0
 11
-0.5
 21
-5.552167999999999
 31
0.0
  0
LINE
  5
69
330
1F
100
AcDbEntity
  8
SK1
100
AcDbLine
 10
-0.126149
 20
-5.552167999999999
 30
0.0
 11
-0.5
 21
-5.552167999999999
 31
0.0
  0
LINE
  5
6A
330
1F
100
AcDbEntity
  8
1
100
AcDbLine
 10
-0.5
 20
-5.552167999999999
 30
0.0
 11
-0.5
 21
-10.61352
 31
0.0
  0
LINE
  5
6B
330
1F
100
AcDbEntity
  8
SK1
100
AcDbLine
 10
0.04697
 20
-10.152118
 30
0.0
 11
-0.5
 21
-10.61352
 31
0.0
  0
LINE
  5
6C
330
1F
100
AcDbEntity
  8
1
100
AcDbLine
 10
-8.709246999999999
 20
-67.25
 30
0.0
 11
-14.790753
 21
-67.25
 31
0.0
  0
LINE
  5
6D
330
1F
100
AcDbEntity
  8
1
100
AcDbLine
 10
-17.19
 20
-67.25
 30
0.0
 11
-15.064316
 21
-67.25
 31
0.0
  0
LINE
  5
6E
330
1F
100
AcDbEntity
  8
1
100
AcDbLine
 10
-15.064316
 20
-67.25
 30
0.0
 11
-14.790753
 21
-67.25
 31
0.0
  0
LINE
  5
6F
330
1F
100
AcDbEntity
  8
1
100
AcDbLine
 10
-13.568348
 20
5.552167999999999
 30
0.0
 11
-13.568348
 21
-61.30242800000001
 31
0.0
  0
LINE
  5
70
330
1F
100
AcDbEntity
  8
1
100
AcDbLine
 10
-15.064316
 20
-11.08499
 30
0.0
 11
-15.064316
 21
-67.25
 31
0.0
  0
LINE
  5
71
330
1F
100
AcDbEntity
  8
1
100
AcDbLine
 10
-15.811634
 20
15.128366
 30
0.0
 11
-17.19
 21
13.75
 31
0.0
  0
LINE
  5
72
330
1F
100
AcDbEntity
  8
1
100
AcDbLine
 10
-15.064316
 20
12.526184
 30
0.0
 11
-15.064316
 21
11.08499
 31
0.0
  0
LINE
  5
73
330
1F
100
AcDbEntity
  8
1
100
AcDbLine
 10
-15.064316
 20
3.649594
 30
0.0
 11
-15.064316
 21
-3.649594
 31
0.0
  0
LINE
  5
74
330
1F
100
AcDbEntity
  8
1
100
AcDbLine
 10
-8.435684
 20
-67.25
 30
0.0
 11
-6.309999999999999
 21
-67.25
 31
0.0
  0
LINE
  5
75
330
1F
100
AcDbEntity
  8
1
100
AcDbLine
 10
-6.309999999999999
 20
-21.85
 30
0.0
 11
-6.309999999999999
 21
-20.25
 31
0.0
  0
LINE
  5
76
330
1F
100
AcDbEntity
  8
1
100
AcDbLine
 10
-8.709246999999999
 20
-67.25
 30
0.0
 11
-8.435684
 21
-67.25
 31
0.0
  0
LINE
  5
77
330
1F
100
AcDbEntity
  8
1
100
AcDbLine
 10
-9.931651999999999
 20
-61.30242800000001
 30
0.0
 11
-9.931651999999999
 21
-21.85
 31
0.0
  0
LINE
  5
78
330
1F
100
AcDbEntity
  8
1
100
AcDbLine
 10
-9.931651999999999
 20
-21.85
 30
0.0
 11
-8.435684
 21
-21.85
 31
0.0
  0
LINE
  5
79
330
1F
100
AcDbEntity
  8
1
100
AcDbLine
 10
-8.435684
 20
-21.85
 30
0.0
 11
-6.309999999999999
 21
-21.85
 31
0.0
  0
LINE
  5
7A
330
1F
100
AcDbEntity
  8
1
100
AcDbLine
 10
-8.435684
 20
-21.85
 30
0.0
 11
-8.435684
 21
-67.25
 31
0.0
  0
LINE
  5
7B
330
1F
100
AcDbEntity
  8
SK1
100
AcDbLine
 10
0.04697
 20
10.152118
 30
0.0
 11
-0.5
 21
10.61352
 31
0.0
  0
LINE
  5
7C
330
1F
100
AcDbEntity
  8
1
100
AcDbLine
 10
-0.5
 20
10.61352
 30
0.0
 11
-0.5
 21
5.552167999999999
 31
0.0
  0
LINE
  5
7D
330
1F
100
AcDbEntity
  8
SK1
100
AcDbLine
 10
-0.126149
 20
5.552167999999999
 30
0.0
 11
-0.5
 21
5.552167999999999
 31
0.0
  0
LINE
  5
7E
330
1F
100
AcDbEntity
  8
1
100
AcDbLine
 10
-1.5
 20
-10.61352
 30
0.0
 11
-0.5
 21
-10.61352
 31
0.0
  0
LINE
  5
7F
330
1F
100
AcDbEntity
  8
1
100
AcDbLine
 10
-14.260926
 20
10.61352
 30
0.0
 11
-0.5
 21
10.61352
 31
0.0
  0
LINE
  5
80
330
1F
100
AcDbEntity
  8
1
100
AcDbLine
 10
-13.568348
 20
5.552167999999999
 30
0.0
 11
-0.5
 21
5.552167999999999
 31
0.0
  0
LINE
  5
81
330
1F
100
AcDbEntity
  8
1
100
AcDbLine
 10
-1.5
 20
-5.552167999999999
 30
0.0
 11
-0.5
 21
-5.552167999999999
 31
0.0
  0
LINE
  5
82
330
1F
100
AcDbEntity
  8
1
100
AcDbLine
 10
-4.669999999999999
 20
-20.25
 30
0.0
 11
-4.669999999999999
 21
-9.041437
 31
0.0
  0
LINE
  5
83
330
1F
100
AcDbEntity
  8
1
100
AcDbLine
 10
-1.5
 20
-9.041437
 30
0.0
 11
-1.5
 21
-5.552167999999999
 31
0.0
  0
LINE
  5
84
330
1F
100
AcDbEntity
  8
SK1
100
AcDbLine
 10
0.324981
 20
-6.100769999999999
 30
0.0
 11
0.324981
 21
-5.89923
 31
0.0
  0
LINE
  5
85
330
1F
100
AcDbEntity
  8
SK1
100
AcDbLine
 10
0.324981
 20
-7.600769999999999
 30
0.0
 11
0.324981
 21
-7.39923
 31
0.0
  0
LINE
  5
86
330
1F
100
AcDbEntity
  8
SK1
100
AcDbLine
 10
0.324981
 20
-9.100769999999998
 30
0.0
 11
0.324981
 21
-8.899230000000001
 31
0.0
  0
LINE
  5
87
330
1F
100
AcDbEntity
  8
SK1
100
AcDbLine
 10
0.324981
 20
8.899230000000001
 30
0.0
 11
0.324981
 21
9.100769999999998
 31
0.0
  0
LINE
  5
88
330
1F
100
AcDbEntity
  8
SK1
100
AcDbLine
 10
0.324981
 20
7.39923
 30
0.0
 11
0.324981
 21
7.600769999999999
 31
0.0
  0
LINE
  5
89
330
1F
100
AcDbEntity
  8
SK1
100
AcDbLine
 10
0.324981
 20
5.89923
 30
0.0
 11
0.324981
 21
6.100769999999999
 31
0.0
  0
LINE
  5
8A
330
1F
100
AcDbEntity
  8
SK1
100
AcDbLine
 10
-0.126149
 20
-5.552167999999999
 30
0.0
 11
-0.342769
 21
-5.427101999999999
 31
0.0
  0
LINE
  5
8B
330
1F
100
AcDbEntity
  8
SK1
100
AcDbLine
 10
-0.342769
 20
-5.072898
 30
0.0
 11
0.249981
 21
-4.730673
 31
0.0
  0
LINE
  5
8C
330
1F
100
AcDbEntity
  8
SK1
100
AcDbLine
 10
0.324981
 20
-4.600769999999999
 30
0.0
 11
0.324981
 21
-4.39923
 31
0.0
  0
LINE
  5
8D
330
1F
100
AcDbEntity
  8
SK1
100
AcDbLine
 10
0.249981
 20
-4.269326999999999
 30
0.0
 11
-0.342769
 21
-3.927101999999999
 31
0.0
  0
LINE
  5
8E
330
1F
100
AcDbEntity
  8
SK1
100
AcDbLine
 10
-0.342769
 20
-3.572898
 30
0.0
 11
0.249981
 21
-3.230672999999999
 31
0.0
  0
LINE
  5
8F
330
1F
100
AcDbEntity
  8
SK1
100
AcDbLine
 10
0.324981
 20
-3.10077
 30
0.0
 11
0.324981
 21
-2.899229999999999
 31
0.0
  0
LINE
  5
90
330
1F
100
AcDbEntity
  8
SK1
100
AcDbLine
 10
0.249981
 20
-2.769327
 30
0.0
 11
-0.342769
 21
-2.427102
 31
0.0
  0
LINE
  5
91
330
1F
100
AcDbEntity
  8
SK1
100
AcDbLine
 10
-0.342769
 20
-2.072897999999999
 30
0.0
 11
0.249981
 21
-1.730672999999999
 31
0.0
  0
LINE
  5
92
330
1F
100
AcDbEntity
  8
SK1
100
AcDbLine
 10
0.324981
 20
-1.600769999999999
 30
0.0
 11
0.324981
 21
-1.399229999999999
 31
0.0
  0
LINE
  5
93
330
1F
100
AcDbEntity
  8
SK1
100
AcDbLine
 10
0.249981
 20
-1.269327
 30
0.0
 11
-0.342769
 21
-0.927102
 31
0.0
  0
LINE
  5
94
330
1F
100
AcDbEntity
  8
SK1
100
AcDbLine
 10
-0.342769
 20
-0.5728979999999999
 30
0.0
 11
0.249981
 21
-0.230673
 31
0.0
  0
LINE
  5
95
330
1F
100
AcDbEntity
  8
SK1
100
AcDbLine
 10
0.324981
 20
-0.10077
 30
0.0
 11
0.324981
 21
0.10077
 31
0.0
  0
LINE
  5
96
330
1F
100
AcDbEntity
  8
SK1
100
AcDbLine
 10
-0.342769
 20
0.5728979999999999
 30
0.0
 11
0.249981
 21
0.230673
 31
0.0
  0
LINE
  5
97
330
1F
100
AcDbEntity
  8
SK1
100
AcDbLine
 10
0.249981
 20
1.269327
 30
0.0
 11
-0.342769
 21
0.927102
 31
0.0
  0
LINE
  5
98
330
1F
100
AcDbEntity
  8
SK1
100
AcDbLine
 10
0.324981
 20
1.399229999999999
 30
0.0
 11
0.324981
 21
1.600769999999999
 31
0.0
  0
LINE
  5
99
330
1F
100
AcDbEntity
  8
SK1
100
AcDbLine
 10
-0.342769
 20
2.072897999999999
 30
0.0
 11
0.249981
 21
1.730672999999999
 31
0.0
  0
LINE
  5
9A
330
1F
100
AcDbEntity
  8
SK1
100
AcDbLine
 10
-0.126149
 20
5.552167999999999
 30
0.0
 11
-0.342769
 21
5.427101999999999
 31
0.0
  0
LINE
  5
9B
330
1F
100
AcDbEntity
  8
SK1
100
AcDbLine
 10
-0.342769
 20
5.072898
 30
0.0
 11
0.249981
 21
4.730673
 31
0.0
  0
LINE
  5
9C
330
1F
100
AcDbEntity
  8
SK1
100
AcDbLine
 10
0.324981
 20
4.39923
 30
0.0
 11
0.324981
 21
4.600769999999999
 31
0.0
  0
LINE
  5
9D
330
1F
100
AcDbEntity
  8
SK1
100
AcDbLine
 10
0.249981
 20
4.269326999999999
 30
0.0
 11
-0.342769
 21
3.927101999999999
 31
0.0
  0
LINE
  5
9E
330
1F
100
AcDbEntity
  8
SK1
100
AcDbLine
 10
-0.342769
 20
3.572898
 30
0.0
 11
0.249981
 21
3.230672999999999
 31
0.0
  0
LINE
  5
9F
330
1F
100
AcDbEntity
  8
SK1
100
AcDbLine
 10
0.249981
 20
2.769327
 30
0.0
 11
-0.342769
 21
2.427102
 31
0.0
  0
LINE
  5
A0
330
1F
100
AcDbEntity
  8
SK1
100
AcDbLine
 10
0.324981
 20
2.899229999999999
 30
0.0
 11
0.324981
 21
3.10077
 31
0.0
  0
LINE
  5
A1
330
1F
100
AcDbEntity
  8
SK1
100
AcDbLine
 10
0.324981
 20
-10.60077
 30
0.0
 11
0.324981
 21
-10.39923
 31
0.0
  0
LINE
  5
A2
330
1F
100
AcDbEntity
  8
SK1
100
AcDbLine
 10
0.324981
 20
-12.10077
 30
0.0
 11
0.324981
 21
-11.89923
 31
0.0
  0
LINE
  5
A3
330
1F
100
AcDbEntity
  8
SK1
100
AcDbLine
 10
0.324981
 20
-13.60077
 30
0.0
 11
0.324981
 21
-13.39923
 31
0.0
  0
LINE
  5
A4
330
1F
100
AcDbEntity
  8
SK1
100
AcDbLine
 10
0.324981
 20
-15.10077
 30
0.0
 11
0.324981
 21
-14.89923
 31
0.0
  0
LINE
  5
A5
330
1F
100
AcDbEntity
  8
SK1
100
AcDbLine
 10
0.324981
 20
-16.60077
 30
0.0
 11
0.324981
 21
-16.39923
 31
0.0
  0
LINE
  5
A6
330
1F
100
AcDbEntity
  8
SK1
100
AcDbLine
 10
0.324981
 20
-18.10077
 30
0.0
 11
0.324981
 21
-17.89923
 31
0.0
  0
LINE
  5
A7
330
1F
100
AcDbEntity
  8
1
100
AcDbLine
 10
-6.269999999999999
 20
-20.25
 30
0.0
 11
-8.282669999999999
 21
-20.25
 31
0.0
  0
LINE
  5
A8
330
1F
100
AcDbEntity
  8
1
100
AcDbLine
 10
-6.269999999999999
 20
-10.994338
 30
0.0
 11
-6.269999999999999
 21
-20.25
 31
0.0
  0
LINE
  5
A9
330
1F
100
AcDbEntity
  8
1
100
AcDbLine
 10
-1.5
 20
-9.041437
 30
0.0
 11
-4.669999999999999
 21
-9.041437
 31
0.0
  0
LINE
  5
AA
330
1F
100
AcDbEntity
  8
1
100
AcDbLine
 10
-17.69
 20
-79.84663600000001
 30
0.0
 11
-17.69
 21
-67.25
 31
0.0
  0
LINE
  5
AB
330
1F
100
AcDbEntity
  8
1
100
AcDbLine
 10
-17.19
 20
13.75
 30
0.0
 11
-17.19
 21
-67.25
 31
0.0
  0
LINE
  5
AC
330
1F
100
AcDbEntity
  8
1
100
AcDbLine
 10
-14.790753
 20
-67.25
 30
0.0
 11
-13.568348
 21
-61.30242800000001
 31
0.0
  0
LINE
  5
AD
330
1F
100
AcDbEntity
  8
1
100
AcDbLine
 10
-9.931651999999999
 20
-61.30242800000001
 30
0.0
 11
-13.568348
 21
-61.30242800000001
 31
0.0
  0
LINE
  5
AE
330
1F
100
AcDbEntity
  8
1
100
AcDbLine
 10
-6.309999999999999
 20
-67.25
 30
0.0
 11
-6.309999999999999
 21
-21.85
 31
0.0
  0
LINE
  5
AF
330
1F
100
AcDbEntity
  8
1
100
AcDbLine
 10
-9.931651999999999
 20
-61.30242800000001
 30
0.0
 11
-8.709246999999999
 21
-67.25
 31
0.0
  0
LINE
  5
B0
330
1F
100
AcDbEntity
  8
80
100
AcDbLine
 10
0.0
 20
0.0
 30
0.0
 11
9.35213
 21
0.0
 31
0.0
  0
LINE
  5
B1
330
1F
100
AcDbEntity
  8
81
100
AcDbLine
 10
-11.75
 20
-96.0
 30
0.0
 11
-11.75
 21
-101.656472
 31
0.0
  0
LINE
  5
B2
330
1F
100
AcDbEntity
  8
4
 48
0.05
100
AcDbLine
 10
-0.5
 20
0.0
 30
0.0
 11
-19.004095
 21
0.0
 31
0.0
  0
LINE
  5
B4
330
1F
100
AcDbEntity
  8
SK4
 48
0.05
100
AcDbLine
 10
7.824981
 20
0.0
 30
0.0
 11
-21.115745
 21
0.0
 31
0.0
  0
MTEXT
  5
157
330
1F
100
AcDbEntity
  8
SK6
100
AcDbMText
 10
-23.561804
 20
-125.003368
 30
0.0
 40
3.174999999999999
 41
0.0
 71
     7
 72
     5
  1
\W00.739;\fsimplex.shx,bigfont.shx;SL70-CRDCR-75-12V 
  7
DEFAULT
 73
     1
 44
1.084337
1001
ACAD
1000
MTEXTBEGIN
1070
    73
1070
     1
1070
    44
1040
1.084337
1070
    74
1070
     0
1000
MTEXTEND
  0
DIMENSION
  5
169
330
1F
100
AcDbEntity
  8
2L
370
    -3
100
AcDbDimension
  2
DimnDraft3D1
 10
15.55783599999999
 20
-96.0
 30
0.0
 11
15.55783599999999
 21
-48.0
 31
0.0
 70
    32
 71
     5
 42
-1.0
  3
Standard
100
AcDbAlignedDimension
 13
1.587499999999999
 23
0.0
 33
0.0
 14
-10.1625
 24
-96.0
 34
0.0
 50
90.0
100
AcDbRotatedDimension
1001
ACAD
1000
DSTYLE
1002
{
1070
    74
1070
     0
1070
   279
1070
     0
1070
   172
1070
     1
1070
   173
1070
     1
1070
   340
1005
158
1070
   271
1070
     1
1070
   272
1070
     2
1070
    77
1070
     1
1070
    73
1070
     0
1070
   171
1070
     3
1070
   274
1070
     4
1070
   177
1070
   150
1070
   176
1070
     9
1070
   178
1070
    43
1070
    78
1070
     8
1070
    48
1040
-0.005
1070
    41
1041
3.174999999999999
1070
   147
1041
1.750059999999999
1070
    42
1041
1.587499999999999
1070
    44
1041
3.174999999999999
1070
   140
1041
3.500119999999999
1070
   343
1005
0
1070
   344
1005
0
1002
}
  0
DIMENSION
  5
177
330
1F
100
AcDbEntity
  8
2L
370
    -3
100
AcDbDimension
  2
DimnDraft3D2
 10
4.136652999999999
 20
-20.25
 30
0.0
 11
4.136652999999999
 21
-58.125
 31
0.0
 70
    32
 71
     5
 42
-1.0
  3
Standard
100
AcDbAlignedDimension
 13
-10.1625
 23
-96.0
 33
0.0
 14
0.0875
 24
-20.25
 34
0.0
 50
90.0
100
AcDbRotatedDimension
1001
ACAD
1000
DSTYLE
1002
{
1070
    74
1070
     0
1070
   279
1070
     0
1070
   172
1070
     1
1070
   173
1070
     1
1070
   340
1005
158
1070
   271
1070
     2
1070
   272
1070
     2
1070
    77
1070
     1
1070
    73
1070
     0
1070
   171
1070
     3
1070
   274
1070
     4
1070
   177
1070
   150
1070
   176
1070
     9
1070
   178
1070
    43
1070
    78
1070
     8
1070
    48
1040
-0.005
1070
    41
1041
3.174999999999999
1070
   147
1041
1.750059999999999
1070
    42
1041
1.587499999999999
1070
    44
1041
3.174999999999999
1070
   140
1041
3.500119999999999
1070
   343
1005
178
1070
   344
1005
178
1002
}
  0
DIMENSION
  5
18C
330
1F
100
AcDbEntity
  8
2L
370
    -3
100
AcDbDimension
  2
DimnDraft3D3
 10
0.0
 20
-105.262037
 30
0.0
 11
-5.875
 21
-105.262037
 31
0.0
 70
    32
 71
     5
 42
-1.0
  3
Standard
100
AcDbAlignedDimension
 13
-11.75
 23
-97.5875
 33
0.0
 14
0.0
 24
-1.587499999999999
 34
0.0
100
AcDbRotatedDimension
1001
ACAD
1000
DSTYLE
1002
{
1070
   279
1070
     0
1070
   172
1070
     1
1070
   173
1070
     1
1070
   340
1005
158
1070
   271
1070
     2
1070
   272
1070
     2
1070
    77
1070
     1
1070
    73
1070
     0
1070
   171
1070
     3
1070
   274
1070
     4
1070
   177
1070
   150
1070
   176
1070
     9
1070
   178
1070
    43
1070
    78
1070
     8
1070
    48
1040
-0.005
1070
    41
1041
3.174999999999999
1070
   147
1041
1.750059999999999
1070
    42
1041
1.587499999999999
1070
    44
1041
3.174999999999999
1070
   140
1041
3.500119999999999
1070
   343
1005
178
1070
   344
1005
178
1002
}
  0
DIMENSION
  5
19A
330
1F
100
AcDbEntity
  8
2L
370
    -3
100
AcDbDimension
  2
DimnDraft3D4
 10
-18.1
 20
-115.096945
 30
0.0
 11
-9.05
 21
-115.096945
 31
0.0
 70
    32
 71
     5
 42
-1.0
  3
Standard
100
AcDbAlignedDimension
 13
0.0
 23
-1.587499999999999
 33
0.0
 14
-18.1
 24
-94.4125
 34
0.0
100
AcDbRotatedDimension
1001
ACAD
1000
DSTYLE
1002
{
1070
   279
1070
     0
1070
   172
1070
     1
1070
   173
1070
     1
1070
   340
1005
158
1070
   272
1070
     2
1070
    77
1070
     1
1070
    73
1070
     0
1070
   171
1070
     3
1070
   274
1070
     4
1070
   177
1070
   150
1070
   176
1070
     9
1070
   178
1070
    43
1070
    78
1070
     8
1070
    48
1040
-0.005
1070
    41
1041
3.174999999999999
1070
   147
1041
1.750059999999999
1070
    42
1041
1.587499999999999
1070
    44
1041
3.174999999999999
1070
   140
1041
3.500119999999999
1070
   343
1005
178
1070
   344
1005
178
1002
}
  0
DIMENSION
  5
1A9
330
1F
100
AcDbEntity
  8
SK2
370
    -3
100
AcDbDimension
  2
DimnDraft3D5
 10
25.062296
 20
20.0
 30
0.0
 11
25.062296
 21
0.0
 31
0.0
 70
    32
 71
     5
 42
-1.0
  3
Standard
100
AcDbAlignedDimension
 13
1.087499999999999
 23
-20.0
 33
0.0
 14
1.087499999999999
 24
20.0
 34
0.0
 50
90.0
100
AcDbRotatedDimension
1001
ACAD
1000
DSTYLE
1002
{
1070
    74
1070
     0
1070
   279
1070
     0
1070
   172
1070
     1
1070
   173
1070
     1
1070
   340
1005
158
1070
   271
1070
     1
1070
   272
1070
     2
1070
    77
1070
     1
1070
    73
1070
     0
1070
   171
1070
     3
1070
   274
1070
     4
1070
   177
1070
   150
1070
   176
1070
     9
1070
   178
1070
    43
1070
    78
1070
     8
1070
    48
1040
-0.005
1070
    41
1041
3.174999999999999
1070
   147
1041
1.750059999999999
1070
    42
1041
1.587499999999999
1070
    44
1041
3.174999999999999
1070
   140
1041
3.500119999999999
1070
   343
1005
0
1070
   344
1005
0
1002
}
  0
ENDSEC
  0
SECTION
  2
OBJECTS
  0
DICTIONARY
  5
1F9
330
0
100
AcDbDictionary
281
     1
  3
ACAD_CIP_PREVIOUS_PRODUCT_INFO
350
25F
  3
ACAD_COLOR
350
23C
  3
ACAD_DETAILVIEWSTYLE
350
256
  3
ACAD_GROUP
350
1FA
  3
ACAD_LAYOUT
350
258
  3
ACAD_MATERIAL
350
20A
  3
ACAD_MLEADERSTYLE
350
251
  3
ACAD_MLINESTYLE
350
1FB
  3
ACAD_PLOTSETTINGS
350
259
  3
ACAD_PLOTSTYLENAME
350
208
  3
ACAD_SCALELIST
350
23F
  3
ACAD_SECTIONVIEWSTYLE
350
253
  3
ACAD_TABLESTYLE
350
23D
  3
ACAD_VISUALSTYLE
350
223
  3
ACDB_RECOMPOSE_DATA
350
283
  3
AcDbVariableDictionary
350
276
  3
DWGPROPS
350
284
  0
DICTIONARY
  5
262
330
10
100
AcDbDictionary
280
     1
281
     1
  3
ADSK_XREC_LAYER_RECONCILED
360
263
  0
DICTIONARY
  5
264
330
43
100
AcDbDictionary
280
     1
281
     1
  3
ADSK_XREC_LAYER_RECONCILED
360
265
  0
DICTIONARY
  5
266
330
45
100
AcDbDictionary
280
     1
281
     1
  3
ADSK_XREC_LAYER_RECONCILED
360
267
  0
DICTIONARY
  5
268
330
47
100
AcDbDictionary
280
     1
281
     1
  3
ADSK_XREC_LAYER_RECONCILED
360
269
  0
DICTIONARY
  5
26A
330
B3
100
AcDbDictionary
280
     1
281
     1
  3
ADSK_XREC_LAYER_RECONCILED
360
26B
  0
DICTIONARY
  5
26C
330
1E7
100
AcDbDictionary
280
     1
281
     1
  3
ADSK_XREC_LAYER_RECONCILED
360
26D
  0
DICTIONARY
  5
26E
330
1E8
100
AcDbDictionary
280
     1
281
     1
  3
ADSK_XREC_LAYER_RECONCILED
360
26F
  0
DICTIONARY
  5
270
330
1E9
100
AcDbDictionary
280
     1
281
     1
  3
ADSK_XREC_LAYER_RECONCILED
360
271
  0
DICTIONARY
  5
272
330
1EA
100
AcDbDictionary
280
     1
281
     1
  3
ADSK_XREC_LAYER_RECONCILED
360
273
  0
DICTIONARY
  5
274
330
1EB
100
AcDbDictionary
280
     1
281
     1
  3
ADSK_XREC_LAYER_RECONCILED
360
275
  0
XRECORD
  5
25F
102
{ACAD_REACTORS
330
1F9
102
}
330
1F9
100
AcDbXrecord
280
     1
300
AMECH_PP
300
2013
300
PDSU_F_S
  0
DICTIONARY
  5
23C
102
{ACAD_REACTORS
330
1F9
102
}
330
1F9
100
AcDbDictionary
281
     1
  0
DICTIONARY
  5
256
102
{ACAD_REACTORS
330
1F9
102
}
330
1F9
100
AcDbDictionary
281
     1
  3
Imperial24
350
257
  0
DICTIONARY
  5
1FA
330
1F9
100
AcDbDictionary
281
     1
  0
DICTIONARY
  5
258
102
{ACAD_REACTORS
330
1F9
102
}
330
1F9
100
AcDbDictionary
281
     1
  3
Layout1
350
25B
  3
Model
350
25A
  0
DICTIONARY
  5
20A
102
{ACAD_REACTORS
330
1F9
102
}
330
1F9
100
AcDbDictionary
281
     1
  3
ByBlock
350
213
  3
ByLayer
350
20B
  3
Global
350
21B
  0
DICTIONARY
  5
251
102
{ACAD_REACTORS
330
1F9
102
}
330
1F9
100
AcDbDictionary
281
     1
  3
Standard
350
252
  0
DICTIONARY
  5
1FB
330
1F9
100
AcDbDictionary
281
     1
  3
Standard
350
18
  0
DICTIONARY
  5
259
102
{ACAD_REACTORS
330
1F9
102
}
330
1F9
100
AcDbDictionary
281
     1
  0
ACDBDICTIONARYWDFLT
  5
208
102
{ACAD_REACTORS
330
1F9
102
}
330
1F9
100
AcDbDictionary
281
     1
  3
Normal
350
209
100
AcDbDictionaryWithDefault
340
209
  0
DICTIONARY
  5
23F
102
{ACAD_REACTORS
330
1F9
102
}
330
1F9
100
AcDbDictionary
281
     1
  3
A0
350
240
  3
A1
350
241
  3
A2
350
242
  3
A3
350
243
  3
A4
350
244
  3
A5
350
245
  3
A6
350
246
  3
A7
350
247
  3
A8
350
248
  3
A9
350
249
  3
B0
350
24A
  3
B1
350
24B
  3
B2
350
24C
  3
B3
350
24D
  3
B4
350
24E
  3
B5
350
24F
  3
B6
350
250
  0
DICTIONARY
  5
253
102
{ACAD_REACTORS
330
1F9
102
}
330
1F9
100
AcDbDictionary
281
     1
  3
Imperial24
350
255
  0
DICTIONARY
  5
23D
102
{ACAD_REACTORS
330
1F9
102
}
330
1F9
100
AcDbDictionary
281
     1
  3
Standard
350
23E
  0
DICTIONARY
  5
223
102
{ACAD_REACTORS
330
1F9
102
}
330
1F9
100
AcDbDictionary
281
     1
  3
2dWireframe
350
229
  3
Basic
350
228
  3
Brighten
350
22F
  3
ColorChange
350
233
  3
Conceptual
350
22C
  3
Dim
350
22E
  3
EdgeColorOff
350
23B
  3
Facepattern
350
232
  3
Flat
350
224
  3
FlatWithEdges
350
225
  3
Gouraud
350
226
  3
GouraudWithEdges
350
227
  3
Hidden
350
22B
  3
JitterOff
350
239
  3
Linepattern
350
231
  3
OverhangOff
350
23A
  3
Realistic
350
22D
  3
Shaded
350
238
  3
Shaded with edges
350
237
  3
Shades of Gray
350
234
  3
Sketchy
350
235
  3
Thicken
350
230
  3
Wireframe
350
22A
  3
X-Ray
350
236
  0
XRECORD
  5
283
102
{ACAD_REACTORS
330
1F9
102
}
330
1F9
100
AcDbXrecord
280
     1
 90
        1
330
23E
  0
DICTIONARY
  5
276
102
{ACAD_REACTORS
330
1F9
102
}
330
1F9
100
AcDbDictionary
281
     1
  3
CANNOSCALE
350
27B
  3
CMLEADERSTYLE
350
278
  3
CTABLESTYLE
350
277
  3
CVIEWDETAILSTYLE
350
279
  3
CVIEWSECTIONSTYLE
350
27A
  3
DIMASSOC
350
27E
  3
INDEXCTL
350
27D
  3
SORTENTS
350
27C
  3
XCLIPFRAME
350
27F
  0
XRECORD
  5
284
102
{ACAD_REACTORS
330
1F9
102
}
330
1F9
100
AcDbXrecord
280
     1
  1
DWGPROPS COOKIE
  2

  3

  4

  6

  7

  8
Micke
  9

300
=
301
=
302
=
303
=
304
=
305
=
306
=
307
=
308
=
309
=
 40
0.0000068634259259
 41
2456819.312859294
 42
2456819.3128661
  1

 90
        0
  0
XRECORD
  5
263
102
{ACAD_REACTORS
330
262
102
}
330
262
100
AcDbXrecord
280
     1
290
     1
  0
XRECORD
  5
265
102
{ACAD_REACTORS
330
264
102
}
330
264
100
AcDbXrecord
280
     1
290
     1
  0
XRECORD
  5
267
102
{ACAD_REACTORS
330
266
102
}
330
266
100
AcDbXrecord
280
     1
290
     1
  0
XRECORD
  5
269
102
{ACAD_REACTORS
330
268
102
}
330
268
100
AcDbXrecord
280
     1
290
     1
  0
XRECORD
  5
26B
102
{ACAD_REACTORS
330
26A
102
}
330
26A
100
AcDbXrecord
280
     1
290
     1
  0
XRECORD
  5
26D
102
{ACAD_REACTORS
330
26C
102
}
330
26C
100
AcDbXrecord
280
     1
290
     1
  0
XRECORD
  5
26F
102
{ACAD_REACTORS
330
26E
102
}
330
26E
100
AcDbXrecord
280
     1
290
     1
  0
XRECORD
  5
271
102
{ACAD_REACTORS
330
270
102
}
330
270
100
AcDbXrecord
280
     1
290
     1
  0
XRECORD
  5
273
102
{ACAD_REACTORS
330
272
102
}
330
272
100
AcDbXrecord
280
     1
290
     1
  0
XRECORD
  5
275
102
{ACAD_REACTORS
330
274
102
}
330
274
100
AcDbXrecord
280
     1
290
     1
  0
ACDBDETAILVIEWSTYLE
  5
257
102
{ACAD_REACTORS
330
256
102
}
330
256
100
AcDbModelDocViewStyle
 70
     0
  3
Imperial24
290
     0
100
AcDbDetailViewStyle
 70
     0
 71
     0
 90
        3
 71
     1
340
11
 40
0.24
340
0
 40
0.24
300

 40
0.36
280
     3
 71
     2
340
16
 90
       25
 71
     3
340
11
 40
0.24
 90
        1
 40
0.75
 90
        1
300
%<\AcVar ViewType \f "%tc1">% %<\AcVar ViewDetailId>%\PSCALE %<\AcVar ViewScale \f "%sn">%
 71
     4
340
16
 90
       25
340
16
 90
       25
280
     0
  0
LAYOUT
  5
25B
102
{ACAD_XDICTIONARY
360
2BD
102
}
102
{ACAD_REACTORS
330
258
102
}
330
258
100
AcDbPlotSettings
  1

  2
Brother DCP-9020CDW Printer
  4

  6

 40
0.0
 41
0.0
 42
0.0
 43
0.0
 44
0.0
 45
0.0
 46
0.0
 47
0.0
 48
0.0
 49
0.0
140
0.0
141
0.0
142
1.0
143
1.0
 70
   688
 72
     0
 73
     0
 74
     5
  7

 75
    16
147
1.0
148
0.0
149
0.0
100
AcDbLayout
  1
Layout1
 70
     1
 71
     1
 10
0.0
 20
0.0
 11
12.0
 21
9.0
 12
0.0
 22
0.0
 32
0.0
 14
1.000000000000000E+20
 24
1.000000000000000E+20
 34
1.000000000000000E+20
 15
-1.000000000000000E+20
 25
-1.000000000000000E+20
 35
-1.000000000000000E+20
146
0.0
 13
0.0
 23
0.0
 33
0.0
 16
1.0
 26
0.0
 36
0.0
 17
0.0
 27
1.0
 37
0.0
 76
     0
330
1B
  0
LAYOUT
  5
25A
102
{ACAD_XDICTIONARY
360
2BB
102
}
102
{ACAD_REACTORS
330
258
102
}
330
258
100
AcDbPlotSettings
  1

  2
Brother DCP-9020CDW Printer
  4

  6

 40
0.0
 41
0.0
 42
0.0
 43
0.0
 44
0.0
 45
0.0
 46
0.0
 47
0.0
 48
0.0
 49
0.0
140
0.0
141
0.0
142
1.0
143
1.0
 70
  1712
 72
     0
 73
     0
 74
     0
  7

 75
     0
147
1.0
148
0.0
149
0.0
100
AcDbLayout
  1
Model
 70
     1
 71
     0
 10
0.0
 20
0.0
 11
12.0
 21
9.0
 12
0.0
 22
0.0
 32
0.0
 14
0.0
 24
0.0
 34
0.0
 15
0.0
 25
0.0
 35
0.0
146
0.0
 13
0.0
 23
0.0
 33
0.0
 16
1.0
 26
0.0
 36
0.0
 17
0.0
 27
1.0
 37
0.0
 76
     0
330
1F
331
1
  0
MATERIAL
  5
213
102
{ACAD_XDICTIONARY
360
214
102
}
102
{ACAD_REACTORS
330
20A
102
}
330
20A
100
AcDbMaterial
  1
ByBlock
 72
     0
 43
0.0008202099737533
 43
0.0
 43
0.0
 43
0.0
 43
0.0
 43
0.0008202099737533
 43
0.0
 43
0.0
 43
0.0
 43
0.0
 43
1.0
 43
0.0
 43
0.0
 43
0.0
 43
0.0
 43
1.0
 77
     0
 47
0.0008202099737533
 47
0.0
 47
0.0
 47
0.0
 47
0.0
 47
0.0008202099737533
 47
0.0
 47
0.0
 47
0.0
 47
0.0
 47
1.0
 47
0.0
 47
0.0
 47
0.0
 47
0.0
 47
1.0
171
     0
 49
0.0008202099737533
 49
0.0
 49
0.0
 49
0.0
 49
0.0
 49
0.0008202099737533
 49
0.0
 49
0.0
 49
0.0
 49
0.0
 49
1.0
 49
0.0
 49
0.0
 49
0.0
 49
0.0
 49
1.0
175
     0
142
0.0008202099737533
142
0.0
142
0.0
142
0.0
142
0.0
142
0.0008202099737533
142
0.0
142
0.0
142
0.0
142
0.0
142
1.0
142
0.0
142
0.0
142
0.0
142
0.0
142
1.0
179
     0
144
0.0008202099737533
144
0.0
144
0.0
144
0.0
144
0.0
144
0.0008202099737533
144
0.0
144
0.0
144
0.0
144
0.0
144
1.0
144
0.0
144
0.0
144
0.0
144
0.0
144
1.0
147
0.0008202099737533
147
0.0
147
0.0
147
0.0
147
0.0
147
0.0008202099737533
147
0.0
147
0.0
147
0.0
147
0.0
147
1.0
147
0.0
147
0.0
147
0.0
147
0.0
147
1.0
  0
MATERIAL
  5
20B
102
{ACAD_XDICTIONARY
360
20C
102
}
102
{ACAD_REACTORS
330
20A
102
}
330
20A
100
AcDbMaterial
  1
ByLayer
 72
     0
 43
0.0008202099737533
 43
0.0
 43
0.0
 43
0.0
 43
0.0
 43
0.0008202099737533
 43
0.0
 43
0.0
 43
0.0
 43
0.0
 43
1.0
 43
0.0
 43
0.0
 43
0.0
 43
0.0
 43
1.0
 77
     0
 47
0.0008202099737533
 47
0.0
 47
0.0
 47
0.0
 47
0.0
 47
0.0008202099737533
 47
0.0
 47
0.0
 47
0.0
 47
0.0
 47
1.0
 47
0.0
 47
0.0
 47
0.0
 47
0.0
 47
1.0
171
     0
 49
0.0008202099737533
 49
0.0
 49
0.0
 49
0.0
 49
0.0
 49
0.0008202099737533
 49
0.0
 49
0.0
 49
0.0
 49
0.0
 49
1.0
 49
0.0
 49
0.0
 49
0.0
 49
0.0
 49
1.0
175
     0
142
0.0008202099737533
142
0.0
142
0.0
142
0.0
142
0.0
142
0.0008202099737533
142
0.0
142
0.0
142
0.0
142
0.0
142
1.0
142
0.0
142
0.0
142
0.0
142
0.0
142
1.0
179
     0
144
0.0008202099737533
144
0.0
144
0.0
144
0.0
144
0.0
144
0.0008202099737533
144
0.0
144
0.0
144
0.0
144
0.0
144
1.0
144
0.0
144
0.0
144
0.0
144
0.0
144
1.0
147
0.0008202099737533
147
0.0
147
0.0
147
0.0
147
0.0
147
0.0008202099737533
147
0.0
147
0.0
147
0.0
147
0.0
147
1.0
147
0.0
147
0.0
147
0.0
147
0.0
147
1.0
  0
MATERIAL
  5
21B
102
{ACAD_XDICTIONARY
360
21C
102
}
102
{ACAD_REACTORS
330
20A
102
}
330
20A
100
AcDbMaterial
  1
Global
 72
     0
 43
0.0008202099737533
 43
0.0
 43
0.0
 43
0.0
 43
0.0
 43
0.0008202099737533
 43
0.0
 43
0.0
 43
0.0
 43
0.0
 43
1.0
 43
0.0
 43
0.0
 43
0.0
 43
0.0
 43
1.0
 77
     0
 47
0.0008202099737533
 47
0.0
 47
0.0
 47
0.0
 47
0.0
 47
0.0008202099737533
 47
0.0
 47
0.0
 47
0.0
 47
0.0
 47
1.0
 47
0.0
 47
0.0
 47
0.0
 47
0.0
 47
1.0
171
     0
 49
0.0008202099737533
 49
0.0
 49
0.0
 49
0.0
 49
0.0
 49
0.0008202099737533
 49
0.0
 49
0.0
 49
0.0
 49
0.0
 49
1.0
 49
0.0
 49
0.0
 49
0.0
 49
0.0
 49
1.0
175
     0
142
0.0008202099737533
142
0.0
142
0.0
142
0.0
142
0.0
142
0.0008202099737533
142
0.0
142
0.0
142
0.0
142
0.0
142
1.0
142
0.0
142
0.0
142
0.0
142
0.0
142
1.0
179
     0
144
0.0008202099737533
144
0.0
144
0.0
144
0.0
144
0.0
144
0.0008202099737533
144
0.0
144
0.0
144
0.0
144
0.0
144
1.0
144
0.0
144
0.0
144
0.0
144
0.0
144
1.0
147
0.0008202099737533
147
0.0
147
0.0
147
0.0
147
0.0
147
0.0008202099737533
147
0.0
147
0.0
147
0.0
147
0.0
147
1.0
147
0.0
147
0.0
147
0.0
147
0.0
147
1.0
  0
MLEADERSTYLE
  5
252
102
{ACAD_REACTORS
330
251
102
}
330
251
100
AcDbMLeaderStyle
170
     2
171
     1
172
     0
 90
        2
 40
0.0
 41
0.0
173
     1
 91
-1056964608
340
14
 92
       -2
290
     1
 42
0.09
291
     1
 43
0.36
  3
Standard
 44
0.18
300

342
11
174
     1
178
     6
175
     1
176
     0
 93
-1056964608
 45
0.18
292
     0
297
     0
 46
0.18
 94
-1056964608
 47
1.0
 49
1.0
140
1.0
293
     1
141
0.0
294
     1
177
     0
142
1.0
295
     0
296
     0
143
0.125
1001
ACAD_MLEADERVER
1070
     2
  0
MLINESTYLE
  5
18
330
1FB
100
AcDbMlineStyle
  2
STANDARD
 70
     0
  3

 62
   256
 51
90.0
 52
90.0
 71
     2
 49
0.5
 62
   256
  6
BYLAYER
 49
-0.5
 62
   256
  6
BYLAYER
  0
ACDBPLACEHOLDER
  5
209
102
{ACAD_REACTORS
330
208
102
}
330
208
  0
SCALE
  5
240
102
{ACAD_REACTORS
330
23F
102
}
330
23F
100
AcDbScale
 70
     0
300
1:1
140
1.0
141
1.0
290
     1
  0
SCALE
  5
241
102
{ACAD_REACTORS
330
23F
102
}
330
23F
100
AcDbScale
 70
     0
300
1/128" = 1'-0"
140
0.0078125
141
12.0
290
     0
  0
SCALE
  5
242
102
{ACAD_REACTORS
330
23F
102
}
330
23F
100
AcDbScale
 70
     0
300
1/64" = 1'-0"
140
0.015625
141
12.0
290
     0
  0
SCALE
  5
243
102
{ACAD_REACTORS
330
23F
102
}
330
23F
100
AcDbScale
 70
     0
300
1/32" = 1'-0"
140
0.03125
141
12.0
290
     0
  0
SCALE
  5
244
102
{ACAD_REACTORS
330
23F
102
}
330
23F
100
AcDbScale
 70
     0
300
1/16" = 1'-0"
140
0.0625
141
12.0
290
     0
  0
SCALE
  5
245
102
{ACAD_REACTORS
330
23F
102
}
330
23F
100
AcDbScale
 70
     0
300
3/32" = 1'-0"
140
0.09375
141
12.0
290
     0
  0
SCALE
  5
246
102
{ACAD_REACTORS
330
23F
102
}
330
23F
100
AcDbScale
 70
     0
300
1/8" = 1'-0"
140
0.125
141
12.0
290
     0
  0
SCALE
  5
247
102
{ACAD_REACTORS
330
23F
102
}
330
23F
100
AcDbScale
 70
     0
300
3/16" = 1'-0"
140
0.1875
141
12.0
290
     0
  0
SCALE
  5
248
102
{ACAD_REACTORS
330
23F
102
}
330
23F
100
AcDbScale
 70
     0
300
1/4" = 1'-0"
140
0.25
141
12.0
290
     0
  0
SCALE
  5
249
102
{ACAD_REACTORS
330
23F
102
}
330
23F
100
AcDbScale
 70
     0
300
3/8" = 1'-0"
140
0.375
141
12.0
290
     0
  0
SCALE
  5
24A
102
{ACAD_REACTORS
330
23F
102
}
330
23F
100
AcDbScale
 70
     0
300
1/2" = 1'-0"
140
0.5
141
12.0
290
     0
  0
SCALE
  5
24B
102
{ACAD_REACTORS
330
23F
102
}
330
23F
100
AcDbScale
 70
     0
300
3/4" = 1'-0"
140
0.75
141
12.0
290
     0
  0
SCALE
  5
24C
102
{ACAD_REACTORS
330
23F
102
}
330
23F
100
AcDbScale
 70
     0
300
1" = 1'-0"
140
1.0
141
12.0
290
     0
  0
SCALE
  5
24D
102
{ACAD_REACTORS
330
23F
102
}
330
23F
100
AcDbScale
 70
     0
300
1-1/2" = 1'-0"
140
1.5
141
12.0
290
     0
  0
SCALE
  5
24E
102
{ACAD_REACTORS
330
23F
102
}
330
23F
100
AcDbScale
 70
     0
300
3" = 1'-0"
140
3.0
141
12.0
290
     0
  0
SCALE
  5
24F
102
{ACAD_REACTORS
330
23F
102
}
330
23F
100
AcDbScale
 70
     0
300
6" = 1'-0"
140
6.0
141
12.0
290
     0
  0
SCALE
  5
250
102
{ACAD_REACTORS
330
23F
102
}
330
23F
100
AcDbScale
 70
     0
300
1'-0" = 1'-0"
140
12.0
141
12.0
290
     0
  0
ACDBSECTIONVIEWSTYLE
  5
255
102
{ACAD_REACTORS
330
253
102
}
330
253
100
AcDbModelDocViewStyle
 70
     0
  3
Imperial24
290
     0
100
AcDbSectionViewStyle
 70
     0
 71
     0
 90
       78
 71
     1
340
11
 40
0.24
340
0
340
0
 40
0.24
300
I, O, Q, S, X, Z
 40
0.48
 90
        3
 40
0.18
 90
        1
 71
     2
340
254
 90
       25
340
16
 90
       50
 40
0.24
 40
0.0
 40
0.24
 71
     3
340
11
 40
0.24
 90
        1
 40
0.75
 90
        1
300
%<\AcVar ViewType \f "%tc1">% %<\AcVar ViewSectionStartId>%-%<\AcVar ViewSectionEndId>%\PSCALE %<\AcVar ViewScale \f "%sn">%
 71
     4
300
ANSI31
 40
1.0
 90
        0
290
     0
290
     0
 90
        6
 40
0.0
 40
1.570796326794896
 40
0.2617993877991494
 40
1.308996938995747
 40
-0.2617993877991494
 40
1.832595714594046
  0
TABLESTYLE
  5
23E
102
{ACAD_XDICTIONARY
360
281
102
}
102
{ACAD_REACTORS
330
23D
102
}
330
23D
100
AcDbTableStyle
  3
Standard
 70
     0
 71
     0
 40
0.06
 41
0.06
280
     0
281
     0
  7
Standard
140
0.18
170
     2
 62
     0
 63
     7
283
     0
274
    -2
284
     1
 64
     0
275
    -2
285
     1
 65
     0
276
    -2
286
     1
 66
     0
277
    -2
287
     1
 67
     0
278
    -2
288
     1
 68
     0
279
    -2
289
     1
 69
     0
  7
Standard
140
0.25
170
     5
 62
     0
 63
     7
283
     0
274
    -2
284
     1
 64
     0
275
    -2
285
     1
 65
     0
276
    -2
286
     1
 66
     0
277
    -2
287
     1
 67
     0
278
    -2
288
     1
 68
     0
279
    -2
289
     1
 69
     0
  7
Standard
140
0.18
170
     5
 62
     0
 63
     7
283
     0
274
    -2
284
     1
 64
     0
275
    -2
285
     1
 65
     0
276
    -2
286
     1
 66
     0
277
    -2
287
     1
 67
     0
278
    -2
288
     1
 68
     0
279
    -2
289
     1
 69
     0
  0
VISUALSTYLE
  5
229
102
{ACAD_XDICTIONARY
360
293
102
}
102
{ACAD_REACTORS
330
223
102
}
330
223
100
AcDbVisualStyle
  2
2dWireframe
 70
     4
 71
     0
 72
     2
 73
     0
 90
        0
 40
-0.6
 41
-30.0
 62
     5
 63
     7
 74
     1
 91
        4
 64
     7
 65
   257
 75
     1
175
     1
 42
1.0
 92
        0
 66
   257
 43
1.0
 76
     1
 77
     6
 78
     2
 67
     7
 79
     5
170
     0
171
     0
290
     0
174
     0
 93
        1
 44
0.0
173
     0
291
     0
 45
0.0
1001
ACAD
1000
AcDbSavedByObjectVersion
1070
     0
  0
VISUALSTYLE
  5
228
102
{ACAD_XDICTIONARY
360
291
102
}
102
{ACAD_REACTORS
330
223
102
}
330
223
100
AcDbVisualStyle
  2
Basic
 70
     7
 71
     1
 72
     0
 73
     1
 90
        0
 40
-0.6
 41
-30.0
 62
     5
 63
     7
 74
     0
 91
        4
 64
     7
 65
   257
 75
     1
175
     1
 42
1.0
 92
        8
 66
     7
 43
1.0
 76
     1
 77
     6
 78
     2
 67
     7
 79
     5
170
     0
171
     0
290
     0
174
     0
 93
        1
 44
0.0
173
     0
291
     1
 45
0.0
1001
ACAD
1000
AcDbSavedByObjectVersion
1070
     0
  0
VISUALSTYLE
  5
22F
102
{ACAD_XDICTIONARY
360
29F
102
}
102
{ACAD_REACTORS
330
223
102
}
330
223
100
AcDbVisualStyle
  2
Brighten
 70
    12
 71
     2
 72
     2
 73
     0
 90
        0
 40
-0.6
 41
-30.0
 62
     5
 63
     7
 74
     1
 91
        4
 64
     7
 65
   257
 75
     1
175
     1
 42
1.0
 92
        8
 66
     7
 43
1.0
 76
     1
 77
     6
 78
     2
 67
     7
 79
     5
170
     0
171
     0
290
     0
174
     0
 93
        1
 44
50.0
173
     0
291
     1
 45
0.0
1001
ACAD
1000
AcDbSavedByObjectVersion
1070
     0
  0
VISUALSTYLE
  5
233
102
{ACAD_XDICTIONARY
360
2A7
102
}
102
{ACAD_REACTORS
330
223
102
}
330
223
100
AcDbVisualStyle
  2
ColorChange
 70
    16
 71
     2
 72
     2
 73
     3
 90
        0
 40
-0.6
 41
-30.0
 62
     5
 63
     8
 74
     1
 91
        4
 64
     7
 65
   257
 75
     1
175
     1
 42
1.0
 92
        8
 66
     8
 43
1.0
 76
     1
 77
     6
 78
     2
 67
     7
 79
     5
170
     0
171
     0
290
     0
174
     0
 93
        1
 44
0.0
173
     0
291
     1
 45
0.0
1001
ACAD
1000
AcDbSavedByObjectVersion
1070
     0
  0
VISUALSTYLE
  5
22C
102
{ACAD_XDICTIONARY
360
299
102
}
102
{ACAD_REACTORS
330
223
102
}
330
223
100
AcDbVisualStyle
  2
Conceptual
 70
     9
 71
     3
 72
     2
 73
     0
 90
        0
 40
-0.6
 41
-30.0
 62
     5
 63
     7
 74
     2
 91
        2
 64
     7
 65
   257
 75
     1
175
     1
 42
179.0
 92
        8
 66
     7
 43
1.0
 76
     1
 77
     6
 78
     2
 67
     7
 79
     3
170
     0
171
     0
290
     0
174
     0
 93
        1
 44
0.0
173
     0
291
     0
 45
0.0
1001
ACAD
1000
AcDbSavedByObjectVersion
1070
     0
  0
VISUALSTYLE
  5
22E
102
{ACAD_XDICTIONARY
360
29D
102
}
102
{ACAD_REACTORS
330
223
102
}
330
223
100
AcDbVisualStyle
  2
Dim
 70
    11
 71
     2
 72
     2
 73
     0
 90
        0
 40
-0.6
 41
-30.0
 62
     5
 63
     7
 74
     1
 91
        4
 64
     7
 65
   257
 75
     1
175
     1
 42
1.0
 92
        8
 66
     7
 43
1.0
 76
     1
 77
     6
 78
     2
 67
     7
 79
     5
170
     0
171
     0
290
     0
174
     0
 93
        1
 44
-50.0
173
     0
291
     1
 45
0.0
1001
ACAD
1000
AcDbSavedByObjectVersion
1070
     0
  0
VISUALSTYLE
  5
23B
102
{ACAD_XDICTIONARY
360
2B7
102
}
102
{ACAD_REACTORS
330
223
102
}
330
223
100
AcDbVisualStyle
  2
EdgeColorOff
 70
    22
 71
     2
 72
     2
 73
     0
 90
        0
 40
-0.6
 41
-30.0
 62
     5
 63
     7
 74
     1
 91
        4
 64
     7
 65
   257
 75
     1
175
     1
 42
1.0
 92
        8
 66
     7
 43
1.0
 76
     1
 77
     6
 78
     2
 67
     7
 79
     5
170
     0
171
     0
290
     0
174
     0
 93
        1
 44
0.0
173
     0
291
     1
 45
0.0
1001
ACAD
1000
AcDbSavedByObjectVersion
1070
     0
  0
VISUALSTYLE
  5
232
102
{ACAD_XDICTIONARY
360
2A5
102
}
102
{ACAD_REACTORS
330
223
102
}
330
223
100
AcDbVisualStyle
  2
Facepattern
 70
    15
 71
     2
 72
     2
 73
     0
 90
        0
 40
-0.6
 41
-30.0
 62
     5
 63
     7
 74
     1
 91
        4
 64
     7
 65
   257
 75
     1
175
     1
 42
1.0
 92
        8
 66
     7
 43
1.0
 76
     1
 77
     6
 78
     2
 67
     7
 79
     5
170
     0
171
     0
290
     0
174
     0
 93
        1
 44
0.0
173
     0
291
     1
 45
0.0
1001
ACAD
1000
AcDbSavedByObjectVersion
1070
     0
  0
VISUALSTYLE
  5
224
102
{ACAD_XDICTIONARY
360
289
102
}
102
{ACAD_REACTORS
330
223
102
}
330
223
100
AcDbVisualStyle
  2
Flat
 70
     0
 71
     2
 72
     1
 73
     1
 90
        2
 40
-0.6
 41
30.0
 62
     5
 63
     7
 74
     0
 91
        0
 64
     7
 65
   257
 75
     1
175
     1
 42
1.0
 92
        8
 66
     7
 43
1.0
 76
     1
 77
     6
 78
     2
 67
     7
 79
     5
170
     0
171
     0
290
     0
174
     0
 93
       13
 44
0.0
173
     0
291
     1
 45
0.0
1001
ACAD
1000
AcDbSavedByObjectVersion
1070
     0
  0
VISUALSTYLE
  5
225
102
{ACAD_XDICTIONARY
360
28B
102
}
102
{ACAD_REACTORS
330
223
102
}
330
223
100
AcDbVisualStyle
  2
FlatWithEdges
 70
     1
 71
     2
 72
     1
 73
     1
 90
        2
 40
-0.6
 41
30.0
 62
     5
 63
     7
 74
     1
 91
        0
 64
     7
 65
   257
 75
     1
175
     1
 42
1.0
 92
        0
 66
   257
 43
1.0
 76
     1
 77
     6
 78
     2
 67
     7
 79
     5
170
     0
171
     0
290
     0
174
     0
 93
       13
 44
0.0
173
     0
291
     1
 45
0.0
1001
ACAD
1000
AcDbSavedByObjectVersion
1070
     0
  0
VISUALSTYLE
  5
226
102
{ACAD_XDICTIONARY
360
28D
102
}
102
{ACAD_REACTORS
330
223
102
}
330
223
100
AcDbVisualStyle
  2
Gouraud
 70
     2
 71
     2
 72
     2
 73
     1
 90
        2
 40
-0.6
 41
30.0
 62
     5
 63
     7
 74
     0
 91
        0
 64
     7
 65
   257
 75
     1
175
     1
 42
1.0
 92
        0
 66
     7
 43
1.0
 76
     1
 77
     6
 78
     2
 67
     7
 79
     5
170
     0
171
     0
290
     0
174
     0
 93
       13
 44
0.0
173
     0
291
     1
 45
0.0
1001
ACAD
1000
AcDbSavedByObjectVersion
1070
     0
  0
VISUALSTYLE
  5
227
102
{ACAD_XDICTIONARY
360
28F
102
}
102
{ACAD_REACTORS
330
223
102
}
330
223
100
AcDbVisualStyle
  2
GouraudWithEdges
 70
     3
 71
     2
 72
     2
 73
     1
 90
        2
 40
-0.6
 41
30.0
 62
     5
 63
     7
 74
     1
 91
        0
 64
     7
 65
   257
 75
     1
175
     1
 42
1.0
 92
        0
 66
   257
 43
1.0
 76
     1
 77
     6
 78
     2
 67
     7
 79
     5
170
     0
171
     0
290
     0
174
     0
 93
       13
 44
0.0
173
     0
291
     1
 45
0.0
1001
ACAD
1000
AcDbSavedByObjectVersion
1070
     0
  0
VISUALSTYLE
  5
22B
102
{ACAD_XDICTIONARY
360
297
102
}
102
{ACAD_REACTORS
330
223
102
}
330
223
100
AcDbVisualStyle
  2
Hidden
 70
     6
 71
     1
 72
     2
 73
     2
 90
        0
 40
-0.6
 41
-30.0
 62
     5
 63
     7
 74
     2
 91
        2
 64
     7
 65
   257
 75
     2
175
     1
 42
40.0
 92
        0
 66
   257
 43
1.0
 76
     1
 77
     6
 78
     2
 67
     7
 79
     3
170
     0
171
     0
290
     0
174
     0
 93
        1
 44
0.0
173
     0
291
     0
 45
0.0
1001
ACAD
1000
AcDbSavedByObjectVersion
1070
     0
  0
VISUALSTYLE
  5
239
102
{ACAD_XDICTIONARY
360
2B3
102
}
102
{ACAD_REACTORS
330
223
102
}
330
223
100
AcDbVisualStyle
  2
JitterOff
 70
    20
 71
     2
 72
     2
 73
     0
 90
        0
 40
-0.6
 41
-30.0
 62
     5
 63
     7
 74
     1
 91
        4
 64
     7
 65
   257
 75
     1
175
     1
 42
1.0
 92
       10
 66
     7
 43
1.0
 76
     1
 77
     6
 78
     2
 67
     7
 79
     5
170
     0
171
     0
290
     0
174
     0
 93
        1
 44
0.0
173
     0
291
     1
 45
0.0
1001
ACAD
1000
AcDbSavedByObjectVersion
1070
     0
  0
VISUALSTYLE
  5
231
102
{ACAD_XDICTIONARY
360
2A3
102
}
102
{ACAD_REACTORS
330
223
102
}
330
223
100
AcDbVisualStyle
  2
Linepattern
 70
    14
 71
     2
 72
     2
 73
     0
 90
        0
 40
-0.6
 41
-30.0
 62
     5
 63
     7
 74
     1
 91
        4
 64
     7
 65
   257
 75
     7
175
     7
 42
1.0
 92
        8
 66
     7
 43
1.0
 76
     1
 77
     6
 78
     2
 67
     7
 79
     5
170
     0
171
     0
290
     0
174
     0
 93
        1
 44
0.0
173
     0
291
     1
 45
0.0
1001
ACAD
1000
AcDbSavedByObjectVersion
1070
     0
  0
VISUALSTYLE
  5
23A
102
{ACAD_XDICTIONARY
360
2B5
102
}
102
{ACAD_REACTORS
330
223
102
}
330
223
100
AcDbVisualStyle
  2
OverhangOff
 70
    21
 71
     2
 72
     2
 73
     0
 90
        0
 40
-0.6
 41
-30.0
 62
     5
 63
     7
 74
     1
 91
        4
 64
     7
 65
   257
 75
     1
175
     1
 42
1.0
 92
        9
 66
     7
 43
1.0
 76
     1
 77
     6
 78
     2
 67
     7
 79
     5
170
     0
171
     0
290
     0
174
     0
 93
        1
 44
0.0
173
     0
291
     1
 45
0.0
1001
ACAD
1000
AcDbSavedByObjectVersion
1070
     0
  0
VISUALSTYLE
  5
22D
102
{ACAD_XDICTIONARY
360
29B
102
}
102
{ACAD_REACTORS
330
223
102
}
330
223
100
AcDbVisualStyle
  2
Realistic
 70
     8
 71
     2
 72
     3
 73
     0
 90
        2
 40
-0.6
 41
30.0
 62
     5
 63
     7
 74
     0
 91
        0
 64
     7
 65
   257
 75
     1
175
     1
 42
1.0
 92
        8
 66
   257
 43
1.0
 76
     1
 77
     6
 78
     2
 67
     7
 79
     3
170
     0
171
     0
290
     0
174
     0
 93
       13
 44
0.0
173
     0
291
     0
 45
0.0
1001
ACAD
1000
AcDbSavedByObjectVersion
1070
     0
  0
VISUALSTYLE
  5
238
102
{ACAD_XDICTIONARY
360
2B1
102
}
102
{ACAD_REACTORS
330
223
102
}
330
223
100
AcDbVisualStyle
  2
Shaded
 70
    27
 71
     2
 72
     2
 73
     1
 90
        2
 40
-0.6
 41
30.0
 62
     5
 63
     7
 74
     0
 91
        4
 64
     7
 65
   257
 75
     1
175
     1
 42
1.0
 92
        8
 66
   257
 43
1.0
 76
     1
 77
     6
 78
     2
 67
     8
 79
     3
170
     0
171
     0
290
     0
174
     0
 93
        5
 44
0.0
173
     0
291
     0
 45
0.0
1001
ACAD
1000
AcDbSavedByObjectVersion
1070
     0
  0
VISUALSTYLE
  5
237
102
{ACAD_XDICTIONARY
360
2AF
102
}
102
{ACAD_REACTORS
330
223
102
}
330
223
100
AcDbVisualStyle
  2
Shaded with edges
 70
    26
 71
     2
 72
     2
 73
     1
 90
        2
 40
-0.6
 41
30.0
 62
     5
 63
     7
 74
     1
 91
       10
 64
     7
 65
   257
 75
     2
175
     1
 42
1.0
 92
        8
 66
   257
 43
1.0
 76
     1
 77
     6
 78
     2
 67
     7
 79
     3
170
     0
171
     0
290
     0
174
     0
 93
        5
 44
0.0
173
     0
291
     0
 45
0.0
1001
ACAD
1000
AcDbSavedByObjectVersion
1070
     0
  0
VISUALSTYLE
  5
234
102
{ACAD_XDICTIONARY
360
2A9
102
}
102
{ACAD_REACTORS
330
223
102
}
330
223
100
AcDbVisualStyle
  2
Shades of Gray
 70
    23
 71
     2
 72
     2
 73
     3
 90
        0
 40
-0.6
 41
-30.0
 62
     5
 63
     7
 74
     2
 91
        2
 64
     7
 65
     7
 75
     1
175
     1
 42
40.0
 92
        8
 66
     7
 43
1.0
 76
     1
 77
     6
 78
     2
 67
     7
 79
     3
170
     0
171
     0
290
     0
174
     0
 93
        1
 44
0.0
173
     0
291
     0
 45
0.0
1001
ACAD
1000
AcDbSavedByObjectVersion
1070
     0
  0
VISUALSTYLE
  5
235
102
{ACAD_XDICTIONARY
360
2AB
102
}
102
{ACAD_REACTORS
330
223
102
}
330
223
100
AcDbVisualStyle
  2
Sketchy
 70
    24
 71
     1
 72
     2
 73
     2
 90
        0
 40
-0.6
 41
-30.0
 62
     5
 63
     7
 74
     2
 91
        2
 64
     7
 65
     7
 75
     1
175
     1
 42
40.0
 92
       11
 66
     7
 43
1.0
 76
     1
 77
     6
 78
     2
 67
     7
 79
     6
170
     0
171
     0
290
     0
174
     0
 93
        1
 44
0.0
173
     0
291
     0
 45
0.0
1001
ACAD
1000
AcDbSavedByObjectVersion
1070
     0
  0
VISUALSTYLE
  5
230
102
{ACAD_XDICTIONARY
360
2A1
102
}
102
{ACAD_REACTORS
330
223
102
}
330
223
100
AcDbVisualStyle
  2
Thicken
 70
    13
 71
     2
 72
     2
 73
     0
 90
        0
 40
-0.6
 41
-30.0
 62
     5
 63
     7
 74
     1
 91
        4
 64
     7
 65
   257
 75
     1
175
     1
 42
1.0
 92
       12
 66
     7
 43
1.0
 76
     1
 77
     6
 78
     2
 67
     7
 79
     5
170
     0
171
     0
290
     0
174
     0
 93
        1
 44
0.0
173
     0
291
     1
 45
0.0
1001
ACAD
1000
AcDbSavedByObjectVersion
1070
     0
  0
VISUALSTYLE
  5
22A
102
{ACAD_XDICTIONARY
360
295
102
}
102
{ACAD_REACTORS
330
223
102
}
330
223
100
AcDbVisualStyle
  2
Wireframe
 70
     5
 71
     0
 72
     2
 73
     0
 90
        0
 40
-0.6
 41
-30.0
 62
     5
 63
     7
 74
     1
 91
        4
 64
     7
 65
   257
 75
     1
175
     1
 42
1.0
 92
        0
 66
   257
 43
1.0
 76
     1
 77
     6
 78
     2
 67
     7
 79
     3
170
     0
171
     0
290
     0
174
     0
 93
        1
 44
0.0
173
     0
291
     0
 45
0.0
1001
ACAD
1000
AcDbSavedByObjectVersion
1070
     0
  0
VISUALSTYLE
  5
236
102
{ACAD_XDICTIONARY
360
2AD
102
}
102
{ACAD_REACTORS
330
223
102
}
330
223
100
AcDbVisualStyle
  2
X-Ray
 70
    25
 71
     2
 72
     2
 73
     1
 90
        1
 40
0.5
 41
-30.0
 62
     5
 63
     7
 74
     1
 91
        0
 64
     7
 65
   257
 75
     1
175
     1
 42
1.0
 92
        8
 66
     7
 43
1.0
 76
     1
 77
     6
 78
     2
 67
     7
 79
     3
170
     0
171
     0
290
     0
174
     0
 93
       13
 44
0.0
173
     0
291
     0
 45
0.0
1001
ACAD
1000
AcDbSavedByObjectVersion
1070
     0
  0
DICTIONARYVAR
  5
27B
102
{ACAD_REACTORS
330
276
102
}
330
276
100
DictionaryVariables
280
     0
  1
1:1
  0
DICTIONARYVAR
  5
278
102
{ACAD_REACTORS
330
276
102
}
330
276
100
DictionaryVariables
280
     0
  1
STANDARD
  0
DICTIONARYVAR
  5
277
102
{ACAD_REACTORS
330
276
102
}
330
276
100
DictionaryVariables
280
     0
  1
STANDARD
  0
DICTIONARYVAR
  5
279
102
{ACAD_REACTORS
330
276
102
}
330
276
100
DictionaryVariables
280
     0
  1
Imperial24
  0
DICTIONARYVAR
  5
27A
102
{ACAD_REACTORS
330
276
102
}
330
276
100
DictionaryVariables
280
     0
  1
Imperial24
  0
DICTIONARYVAR
  5
27E
102
{ACAD_REACTORS
330
276
102
}
330
276
100
DictionaryVariables
280
     0
  1
1
  0
DICTIONARYVAR
  5
27D
102
{ACAD_REACTORS
330
276
102
}
330
276
100
DictionaryVariables
280
     0
  1
0
  0
DICTIONARYVAR
  5
27C
102
{ACAD_REACTORS
330
276
102
}
330
276
100
DictionaryVariables
280
     0
  1
127
  0
DICTIONARYVAR
  5
27F
102
{ACAD_REACTORS
330
276
102
}
330
276
100
DictionaryVariables
280
     0
  1
2
  0
DICTIONARY
  5
2BD
330
25B
100
AcDbDictionary
280
     1
281
     1
  3
ACAD_XREC_ROUNDTRIP
360
2BE
  0
DICTIONARY
  5
2BB
330
25A
100
AcDbDictionary
280
     1
281
     1
  3
ACAD_XREC_ROUNDTRIP
360
2BC
  0
DICTIONARY
  5
214
330
213
100
AcDbDictionary
280
     1
281
     1
  3
ACAD_XREC_ROUNDTRIP
360
287
  3
BUMPTILE
360
216
  3
DIFFUSETILE
360
215
  3
OPACITYTILE
360
219
  3
REFLECTIONTILE
360
218
  3
REFRACTIONTILE
360
21A
  3
SPECULARTILE
360
217
  0
DICTIONARY
  5
20C
330
20B
100
AcDbDictionary
280
     1
281
     1
  3
ACAD_XREC_ROUNDTRIP
360
286
  3
BUMPTILE
360
20E
  3
DIFFUSETILE
360
20D
  3
OPACITYTILE
360
211
  3
REFLECTIONTILE
360
210
  3
REFRACTIONTILE
360
212
  3
SPECULARTILE
360
20F
  0
DICTIONARY
  5
21C
330
21B
100
AcDbDictionary
280
     1
281
     1
  3
ACAD_XREC_ROUNDTRIP
360
288
  3
BUMPTILE
360
21E
  3
DIFFUSETILE
360
21D
  3
OPACITYTILE
360
221
  3
REFLECTIONTILE
360
220
  3
REFRACTIONTILE
360
222
  3
SPECULARTILE
360
21F
  0
DICTIONARY
  5
281
330
23E
100
AcDbDictionary
280
     1
281
     1
  3
ACAD_ROUNDTRIP_2008_TABLESTYLE_CELLSTYLEMAP
360
282
  3
ACAD_XREC_ROUNDTRIP
360
2B9
  0
DICTIONARY
  5
293
330
229
100
AcDbDictionary
280
     1
281
     1
  3
ACAD_XREC_ROUNDTRIP
360
294
  0
DICTIONARY
  5
291
330
228
100
AcDbDictionary
280
     1
281
     1
  3
ACAD_XREC_ROUNDTRIP
360
292
  0
DICTIONARY
  5
29F
330
22F
100
AcDbDictionary
280
     1
281
     1
  3
ACAD_XREC_ROUNDTRIP
360
2A0
  0
DICTIONARY
  5
2A7
330
233
100
AcDbDictionary
280
     1
281
     1
  3
ACAD_XREC_ROUNDTRIP
360
2A8
  0
DICTIONARY
  5
299
330
22C
100
AcDbDictionary
280
     1
281
     1
  3
ACAD_XREC_ROUNDTRIP
360
29A
  0
DICTIONARY
  5
29D
330
22E
100
AcDbDictionary
280
     1
281
     1
  3
ACAD_XREC_ROUNDTRIP
360
29E
  0
DICTIONARY
  5
2B7
330
23B
100
AcDbDictionary
280
     1
281
     1
  3
ACAD_XREC_ROUNDTRIP
360
2B8
  0
DICTIONARY
  5
2A5
330
232
100
AcDbDictionary
280
     1
281
     1
  3
ACAD_XREC_ROUNDTRIP
360
2A6
  0
DICTIONARY
  5
289
330
224
100
AcDbDictionary
280
     1
281
     1
  3
ACAD_XREC_ROUNDTRIP
360
28A
  0
DICTIONARY
  5
28B
330
225
100
AcDbDictionary
280
     1
281
     1
  3
ACAD_XREC_ROUNDTRIP
360
28C
  0
DICTIONARY
  5
28D
330
226
100
AcDbDictionary
280
     1
281
     1
  3
ACAD_XREC_ROUNDTRIP
360
28E
  0
DICTIONARY
  5
28F
330
227
100
AcDbDictionary
280
     1
281
     1
  3
ACAD_XREC_ROUNDTRIP
360
290
  0
DICTIONARY
  5
297
330
22B
100
AcDbDictionary
280
     1
281
     1
  3
ACAD_XREC_ROUNDTRIP
360
298
  0
DICTIONARY
  5
2B3
330
239
100
AcDbDictionary
280
     1
281
     1
  3
ACAD_XREC_ROUNDTRIP
360
2B4
  0
DICTIONARY
  5
2A3
330
231
100
AcDbDictionary
280
     1
281
     1
  3
ACAD_XREC_ROUNDTRIP
360
2A4
  0
DICTIONARY
  5
2B5
330
23A
100
AcDbDictionary
280
     1
281
     1
  3
ACAD_XREC_ROUNDTRIP
360
2B6
  0
DICTIONARY
  5
29B
330
22D
100
AcDbDictionary
280
     1
281
     1
  3
ACAD_XREC_ROUNDTRIP
360
29C
  0
DICTIONARY
  5
2B1
330
238
100
AcDbDictionary
280
     1
281
     1
  3
ACAD_XREC_ROUNDTRIP
360
2B2
  0
DICTIONARY
  5
2AF
330
237
100
AcDbDictionary
280
     1
281
     1
  3
ACAD_XREC_ROUNDTRIP
360
2B0
  0
DICTIONARY
  5
2A9
330
234
100
AcDbDictionary
280
     1
281
     1
  3
ACAD_XREC_ROUNDTRIP
360
2AA
  0
DICTIONARY
  5
2AB
330
235
100
AcDbDictionary
280
     1
281
     1
  3
ACAD_XREC_ROUNDTRIP
360
2AC
  0
DICTIONARY
  5
2A1
330
230
100
AcDbDictionary
280
     1
281
     1
  3
ACAD_XREC_ROUNDTRIP
360
2A2
  0
DICTIONARY
  5
295
330
22A
100
AcDbDictionary
280
     1
281
     1
  3
ACAD_XREC_ROUNDTRIP
360
296
  0
DICTIONARY
  5
2AD
330
236
100
AcDbDictionary
280
     1
281
     1
  3
ACAD_XREC_ROUNDTRIP
360
2AE
  0
XRECORD
  5
2BE
102
{ACAD_REACTORS
330
2BD
102
}
330
2BD
100
AcDbXrecord
280
     1
102
SHADEPLOT
 70
     0
102
SHADEPLOTRESLEVEL
 70
     2
102
SHADEPLOTCUSTOMDPI
 70
   300
  0
XRECORD
  5
2BC
102
{ACAD_REACTORS
330
2BB
102
}
330
2BB
100
AcDbXrecord
280
     1
102
SHADEPLOT
 70
     0
102
SHADEPLOTRESLEVEL
 70
     2
102
SHADEPLOTCUSTOMDPI
 70
   300
  0
XRECORD
  5
287
102
{ACAD_REACTORS
330
214
102
}
330
214
100
AcDbXrecord
280
     1
102
MATERIAL
148
0.0
149
0.0
149
0.0
 93
        0
 94
      127
282
     0
 72
     0
 77
     0
171
     0
175
     0
179
     0
273
     0
  0
XRECORD
  5
216
102
{ACAD_REACTORS
330
214
102
}
330
214
100
AcDbXrecord
280
     1
270
     1
271
     1
  0
XRECORD
  5
215
102
{ACAD_REACTORS
330
214
102
}
330
214
100
AcDbXrecord
280
     1
270
     1
271
     1
  0
XRECORD
  5
219
102
{ACAD_REACTORS
330
214
102
}
330
214
100
AcDbXrecord
280
     1
270
     1
271
     1
  0
XRECORD
  5
218
102
{ACAD_REACTORS
330
214
102
}
330
214
100
AcDbXrecord
280
     1
270
     1
271
     1
  0
XRECORD
  5
21A
102
{ACAD_REACTORS
330
214
102
}
330
214
100
AcDbXrecord
280
     1
270
     1
271
     1
  0
XRECORD
  5
217
102
{ACAD_REACTORS
330
214
102
}
330
214
100
AcDbXrecord
280
     1
270
     1
271
     1
  0
XRECORD
  5
286
102
{ACAD_REACTORS
330
20C
102
}
330
20C
100
AcDbXrecord
280
     1
102
MATERIAL
148
0.0
149
0.0
149
0.0
 93
        0
 94
      127
282
     0
 72
     0
 77
     0
171
     0
175
     0
179
     0
273
     0
  0
XRECORD
  5
20E
102
{ACAD_REACTORS
330
20C
102
}
330
20C
100
AcDbXrecord
280
     1
270
     1
271
     1
  0
XRECORD
  5
20D
102
{ACAD_REACTORS
330
20C
102
}
330
20C
100
AcDbXrecord
280
     1
270
     1
271
     1
  0
XRECORD
  5
211
102
{ACAD_REACTORS
330
20C
102
}
330
20C
100
AcDbXrecord
280
     1
270
     1
271
     1
  0
XRECORD
  5
210
102
{ACAD_REACTORS
330
20C
102
}
330
20C
100
AcDbXrecord
280
     1
270
     1
271
     1
  0
XRECORD
  5
212
102
{ACAD_REACTORS
330
20C
102
}
330
20C
100
AcDbXrecord
280
     1
270
     1
271
     1
  0
XRECORD
  5
20F
102
{ACAD_REACTORS
330
20C
102
}
330
20C
100
AcDbXrecord
280
     1
270
     1
271
     1
  0
XRECORD
  5
288
102
{ACAD_REACTORS
330
21C
102
}
330
21C
100
AcDbXrecord
280
     1
102
MATERIAL
148
0.0
149
0.0
149
0.0
 93
        0
 94
      127
282
     0
 72
     0
 77
     0
171
     0
175
     0
179
     0
273
     0
  0
XRECORD
  5
21E
102
{ACAD_REACTORS
330
21C
102
}
330
21C
100
AcDbXrecord
280
     1
270
     1
271
     1
  0
XRECORD
  5
21D
102
{ACAD_REACTORS
330
21C
102
}
330
21C
100
AcDbXrecord
280
     1
270
     1
271
     1
  0
XRECORD
  5
221
102
{ACAD_REACTORS
330
21C
102
}
330
21C
100
AcDbXrecord
280
     1
270
     1
271
     1
  0
XRECORD
  5
220
102
{ACAD_REACTORS
330
21C
102
}
330
21C
100
AcDbXrecord
280
     1
270
     1
271
     1
  0
XRECORD
  5
222
102
{ACAD_REACTORS
330
21C
102
}
330
21C
100
AcDbXrecord
280
     1
270
     1
271
     1
  0
XRECORD
  5
21F
102
{ACAD_REACTORS
330
21C
102
}
330
21C
100
AcDbXrecord
280
     1
270
     1
271
     1
  0
CELLSTYLEMAP
  5
282
102
{ACAD_REACTORS
330
281
102
}
330
281
100
AcDbCellStyleMap
 90
        3
300
CELLSTYLE
  1
TABLEFORMAT_BEGIN
 90
        5
170
     1
 91
        0
 92
    32768
 62
   257
 93
        1
300
CONTENTFORMAT
  1
CONTENTFORMAT_BEGIN
 90
        0
 91
        0
 92
      512
 93
        0
300

 40
0.0
140
1.0
 94
        5
 62
     0
340
11
144
0.25
309
CONTENTFORMAT_END
171
     0
 94
        0
309
TABLEFORMAT_END
  1
CELLSTYLE_BEGIN
 90
        1
 91
        1
300
_TITLE
309
CELLSTYLE_END
300
CELLSTYLE
  1
TABLEFORMAT_BEGIN
 90
        5
170
     1
 91
        0
 92
        0
 62
   257
 93
        1
300
CONTENTFORMAT
  1
CONTENTFORMAT_BEGIN
 90
        0
 91
        0
 92
      512
 93
        0
300

 40
0.0
140
1.0
 94
        5
 62
     0
340
11
144
0.18
309
CONTENTFORMAT_END
171
     0
 94
        0
309
TABLEFORMAT_END
  1
CELLSTYLE_BEGIN
 90
        2
 91
        1
300
_HEADER
309
CELLSTYLE_END
300
CELLSTYLE
  1
TABLEFORMAT_BEGIN
 90
        5
170
     1
 91
        0
 92
        0
 62
   257
 93
        1
300
CONTENTFORMAT
  1
CONTENTFORMAT_BEGIN
 90
        0
 91
        0
 92
      512
 93
        0
300

 40
0.0
140
1.0
 94
        2
 62
     0
340
11
144
0.18
309
CONTENTFORMAT_END
171
     0
 94
        0
309
TABLEFORMAT_END
  1
CELLSTYLE_BEGIN
 90
        3
 91
        2
300
_DATA
309
CELLSTYLE_END
  0
XRECORD
  5
2B9
102
{ACAD_REACTORS
330
281
102
}
330
281
100
AcDbXrecord
280
     1
102
ACAD_ROUNDTRIP_PRE2007_TABLESTYLE
 90
      512
 91
        0
  1

 92
      512
 93
        0
  2

 94
      512
 95
        0
  3

  0
XRECORD
  5
294
102
{ACAD_REACTORS
330
293
102
}
330
293
100
AcDbXrecord
280
     1
102
RTVSPost2010Prop28
280
     1
102
RTVSPost2010PropOp28
 70
     1
102
RTVSPost2010Prop29
280
     1
102
RTVSPost2010PropOp29
 70
     1
102
RTVSPost2010Prop30
280
     0
102
RTVSPost2010PropOp30
 70
     1
102
RTVSPost2010Prop31
280
     0
102
RTVSPost2010PropOp31
 70
     1
102
RTVSPost2010Prop32
280
     0
102
RTVSPost2010PropOp32
 70
     1
102
RTVSPost2010Prop33
280
     0
102
RTVSPost2010PropOp33
 70
     1
102
RTVSPost2010Prop34
280
     0
102
RTVSPost2010PropOp34
 70
     1
102
RTVSPost2010Prop35
280
     0
102
RTVSPost2010PropOp35
 70
     1
102
RTVSPost2010Prop36
280
     0
102
RTVSPost2010PropOp36
 70
     1
102
RTVSPost2010Prop37
 90
       50
102
RTVSPost2010PropOp37
 70
     1
102
RTVSPost2010Prop38
140
0.0
102
RTVSPost2010PropOp38
 70
     1
102
RTVSPost2010Prop39
140
1.0
102
RTVSPost2010PropOp39
 70
     1
102
RTVSPost2010Prop40
 90
        0
102
RTVSPost2010PropOp40
 70
     1
102
RTVSPost2010Prop41ColorIndex
 90
       18
102
RTVSPost2010Prop41ColorRGB
 90
        0
102
RTVSPost2010PropOp41
 70
     1
102
RTVSPost2010Prop42
 90
       50
102
RTVSPost2010PropOp42
 70
     1
102
RTVSPost2010Prop43
 90
        3
102
RTVSPost2010PropOp43
 70
     1
102
RTVSPost2010Prop44ColorIndex
 90
        5
102
RTVSPost2010Prop44ColorRGB
 90
      255
102
RTVSPost2010PropOp44
 70
     1
102
RTVSPost2010Prop45
280
     0
102
RTVSPost2010PropOp45
 70
     1
102
RTVSPost2010Prop46
 90
       50
102
RTVSPost2010PropOp46
 70
     1
102
RTVSPost2010Prop47
 90
       50
102
RTVSPost2010PropOp47
 70
     1
102
RTVSPost2010Prop48
 90
       50
102
RTVSPost2010PropOp48
 70
     1
102
RTVSPost2010Prop49
280
     0
102
RTVSPost2010PropOp49
 70
     1
102
RTVSPost2010Prop50
 90
       50
102
RTVSPost2010PropOp50
 70
     1
102
RTVSPost2010Prop51ColorIndex
 90
      256
102
RTVSPost2010Prop51ColorRGB
 90
-16777216
102
RTVSPost2010PropOp51
 70
     0
102
RTVSPost2010Prop52
140
1.0
102
RTVSPost2010PropOp52
 70
     0
102
RTVSPost2010Prop53
 90
        2
102
RTVSPost2010PropOp53
 70
     1
102
RTVSPost2010Prop54
  1
strokes_ogs.tif
102
RTVSPost2010PropOp54
 70
     1
102
RTVSPost2010Prop55
280
     0
102
RTVSPost2010PropOp55
 70
     1
102
RTVSPost2010Prop56
140
1.0
102
RTVSPost2010PropOp56
 70
     1
102
RTVSPost2010Prop57
140
1.0
102
RTVSPost2010PropOp57
 70
     1
102
RTVSPropertyOp0
 70
     1
102
RTVSPropertyOp1
 70
     1
102
RTVSPropertyOp2
 70
     1
102
RTVSPropertyOp3
 70
     1
102
RTVSPropertyOp4
 70
     1
102
RTVSPropertyOp5
 70
     1
102
RTVSPropertyOp6
 70
     1
102
RTVSPropertyOp7
 70
     1
102
RTVSPropertyOp8
 70
     1
102
RTVSPropertyOp9
 70
     1
102
RTVSPropertyOp10
 70
     1
102
RTVSPropertyOp11
 70
     1
102
RTVSPropertyOp12
 70
     1
102
RTVSPropertyOp13
 70
     1
102
RTVSPropertyOp14
 70
     1
102
RTVSPropertyOp15
 70
     1
102
RTVSPropertyOp16
 70
     1
102
RTVSPropertyOp17
 70
     1
102
RTVSPropertyOp18
 70
     1
102
RTVSPropertyOp19
 70
     1
102
RTVSPropertyOp20
 70
     1
102
RTVSPropertyOp21
 70
     1
102
RTVSPropertyOp22
 70
     1
102
RTVSPropertyOp23
 70
     1
102
RTVSPropertyOp24
 70
     1
102
RTVSPropertyOp25
 70
     1
102
RTVSPropertyOp26
 70
     1
102
RTVSPropertyOp27
 70
     1
102
RTVSPropertyOp28
 70
     1
102
RTVSPropertyOp29
 70
     1
102
RTVSPropertyOp30
 70
     1
102
RTVSPropertyOp31
 70
     1
102
RTVSPropertyOp32
 70
     1
102
RTVSPropertyOp33
 70
     1
102
RTVSPropertyOp34
 70
     1
102
RTVSPropertyOp35
 70
     1
102
RTVSPropertyOp36
 70
     1
102
RTVSPropertyOp37
 70
     1
102
RTVSPropertyOp38
 70
     1
102
RTVSPropertyOp39
 70
     1
102
RTVSPropertyOp40
 70
     1
102
RTVSPropertyOp41
 70
     1
102
RTVSPropertyOp42
 70
     1
102
RTVSPropertyOp43
 70
     1
102
RTVSPropertyOp44
 70
     1
102
RTVSPropertyOp45
 70
     1
102
RTVSPropertyOp46
 70
     1
102
RTVSPropertyOp47
 70
     1
102
RTVSPropertyOp48
 70
     1
102
RTVSPropertyOp49
 70
     1
102
RTVSPropertyOp50
 70
     1
102
RTVSPropertyOp51
 70
     0
102
RTVSPropertyOp52
 70
     0
102
RTVSPropertyOp53
 70
     1
102
RTVSPropertyOp54
 70
     1
102
RTVSPropertyOp55
 70
     1
102
RTVSPropertyOp56
 70
     1
102
RTVSPropertyOp57
 70
     1
102
RTVSPropertyOp58
 70
     1
102
RTVSPropertyOp59
 70
     1
102
RTVSPropertyOp60
 70
     1
102
RTVSPropertyOp61
 70
     1
102
RTVSPropertyOp62
 70
     1
  0
XRECORD
  5
292
102
{ACAD_REACTORS
330
291
102
}
330
291
100
AcDbXrecord
280
     1
102
RTVSPost2010Prop28
280
     0
102
RTVSPost2010PropOp28
 70
     1
102
RTVSPost2010Prop29
280
     1
102
RTVSPost2010PropOp29
 70
     1
102
RTVSPost2010Prop30
280
     1
102
RTVSPost2010PropOp30
 70
     1
102
RTVSPost2010Prop31
280
     0
102
RTVSPost2010PropOp31
 70
     1
102
RTVSPost2010Prop32
280
     0
102
RTVSPost2010PropOp32
 70
     1
102
RTVSPost2010Prop33
280
     0
102
RTVSPost2010PropOp33
 70
     1
102
RTVSPost2010Prop34
280
     0
102
RTVSPost2010PropOp34
 70
     1
102
RTVSPost2010Prop35
280
     0
102
RTVSPost2010PropOp35
 70
     1
102
RTVSPost2010Prop36
280
     0
102
RTVSPost2010PropOp36
 70
     1
102
RTVSPost2010Prop37
 90
       50
102
RTVSPost2010PropOp37
 70
     1
102
RTVSPost2010Prop38
140
0.0
102
RTVSPost2010PropOp38
 70
     1
102
RTVSPost2010Prop39
140
1.0
102
RTVSPost2010PropOp39
 70
     1
102
RTVSPost2010Prop40
 90
        0
102
RTVSPost2010PropOp40
 70
     1
102
RTVSPost2010Prop41ColorIndex
 90
       18
102
RTVSPost2010Prop41ColorRGB
 90
        0
102
RTVSPost2010PropOp41
 70
     1
102
RTVSPost2010Prop42
 90
       50
102
RTVSPost2010PropOp42
 70
     1
102
RTVSPost2010Prop43
 90
        3
102
RTVSPost2010PropOp43
 70
     1
102
RTVSPost2010Prop44ColorIndex
 90
        5
102
RTVSPost2010Prop44ColorRGB
 90
      255
102
RTVSPost2010PropOp44
 70
     1
102
RTVSPost2010Prop45
280
     0
102
RTVSPost2010PropOp45
 70
     1
102
RTVSPost2010Prop46
 90
       50
102
RTVSPost2010PropOp46
 70
     1
102
RTVSPost2010Prop47
 90
       50
102
RTVSPost2010PropOp47
 70
     1
102
RTVSPost2010Prop48
 90
       50
102
RTVSPost2010PropOp48
 70
     1
102
RTVSPost2010Prop49
280
     0
102
RTVSPost2010PropOp49
 70
     1
102
RTVSPost2010Prop50
 90
       50
102
RTVSPost2010PropOp50
 70
     1
102
RTVSPost2010Prop51ColorIndex
 90
      256
102
RTVSPost2010Prop51ColorRGB
 90
-16777216
102
RTVSPost2010PropOp51
 70
     0
102
RTVSPost2010Prop52
140
1.0
102
RTVSPost2010PropOp52
 70
     0
102
RTVSPost2010Prop53
 90
        2
102
RTVSPost2010PropOp53
 70
     1
102
RTVSPost2010Prop54
  1
strokes_ogs.tif
102
RTVSPost2010PropOp54
 70
     1
102
RTVSPost2010Prop55
280
     0
102
RTVSPost2010PropOp55
 70
     1
102
RTVSPost2010Prop56
140
1.0
102
RTVSPost2010PropOp56
 70
     1
102
RTVSPost2010Prop57
140
1.0
102
RTVSPost2010PropOp57
 70
     1
102
RTVSPropertyOp0
 70
     1
102
RTVSPropertyOp1
 70
     1
102
RTVSPropertyOp2
 70
     1
102
RTVSPropertyOp3
 70
     1
102
RTVSPropertyOp4
 70
     1
102
RTVSPropertyOp5
 70
     1
102
RTVSPropertyOp6
 70
     1
102
RTVSPropertyOp7
 70
     1
102
RTVSPropertyOp8
 70
     1
102
RTVSPropertyOp9
 70
     1
102
RTVSPropertyOp10
 70
     1
102
RTVSPropertyOp11
 70
     1
102
RTVSPropertyOp12
 70
     1
102
RTVSPropertyOp13
 70
     1
102
RTVSPropertyOp14
 70
     1
102
RTVSPropertyOp15
 70
     1
102
RTVSPropertyOp16
 70
     1
102
RTVSPropertyOp17
 70
     1
102
RTVSPropertyOp18
 70
     1
102
RTVSPropertyOp19
 70
     1
102
RTVSPropertyOp20
 70
     1
102
RTVSPropertyOp21
 70
     1
102
RTVSPropertyOp22
 70
     1
102
RTVSPropertyOp23
 70
     1
102
RTVSPropertyOp24
 70
     1
102
RTVSPropertyOp25
 70
     1
102
RTVSPropertyOp26
 70
     1
102
RTVSPropertyOp27
 70
     1
102
RTVSPropertyOp28
 70
     1
102
RTVSPropertyOp29
 70
     1
102
RTVSPropertyOp30
 70
     1
102
RTVSPropertyOp31
 70
     1
102
RTVSPropertyOp32
 70
     1
102
RTVSPropertyOp33
 70
     1
102
RTVSPropertyOp34
 70
     1
102
RTVSPropertyOp35
 70
     1
102
RTVSPropertyOp36
 70
     1
102
RTVSPropertyOp37
 70
     1
102
RTVSPropertyOp38
 70
     1
102
RTVSPropertyOp39
 70
     1
102
RTVSPropertyOp40
 70
     1
102
RTVSPropertyOp41
 70
     1
102
RTVSPropertyOp42
 70
     1
102
RTVSPropertyOp43
 70
     1
102
RTVSPropertyOp44
 70
     1
102
RTVSPropertyOp45
 70
     1
102
RTVSPropertyOp46
 70
     1
102
RTVSPropertyOp47
 70
     1
102
RTVSPropertyOp48
 70
     1
102
RTVSPropertyOp49
 70
     1
102
RTVSPropertyOp50
 70
     1
102
RTVSPropertyOp51
 70
     0
102
RTVSPropertyOp52
 70
     0
102
RTVSPropertyOp53
 70
     1
102
RTVSPropertyOp54
 70
     1
102
RTVSPropertyOp55
 70
     1
102
RTVSPropertyOp56
 70
     1
102
RTVSPropertyOp57
 70
     1
102
RTVSPropertyOp58
 70
     1
102
RTVSPropertyOp59
 70
     1
102
RTVSPropertyOp60
 70
     1
102
RTVSPropertyOp61
 70
     1
102
RTVSPropertyOp62
 70
     1
  0
XRECORD
  5
2A0
102
{ACAD_REACTORS
330
29F
102
}
330
29F
100
AcDbXrecord
280
     1
102
RTVSPost2010Prop28
280
     0
102
RTVSPost2010PropOp28
 70
     1
102
RTVSPost2010Prop29
280
     1
102
RTVSPost2010PropOp29
 70
     1
102
RTVSPost2010Prop30
280
     1
102
RTVSPost2010PropOp30
 70
     1
102
RTVSPost2010Prop31
280
     0
102
RTVSPost2010PropOp31
 70
     1
102
RTVSPost2010Prop32
280
     0
102
RTVSPost2010PropOp32
 70
     1
102
RTVSPost2010Prop33
280
     0
102
RTVSPost2010PropOp33
 70
     1
102
RTVSPost2010Prop34
280
     0
102
RTVSPost2010PropOp34
 70
     1
102
RTVSPost2010Prop35
280
     0
102
RTVSPost2010PropOp35
 70
     1
102
RTVSPost2010Prop36
280
     0
102
RTVSPost2010PropOp36
 70
     1
102
RTVSPost2010Prop37
 90
       50
102
RTVSPost2010PropOp37
 70
     1
102
RTVSPost2010Prop38
140
0.0
102
RTVSPost2010PropOp38
 70
     1
102
RTVSPost2010Prop39
140
1.0
102
RTVSPost2010PropOp39
 70
     1
102
RTVSPost2010Prop40
 90
        0
102
RTVSPost2010PropOp40
 70
     1
102
RTVSPost2010Prop41ColorIndex
 90
       18
102
RTVSPost2010Prop41ColorRGB
 90
        0
102
RTVSPost2010PropOp41
 70
     1
102
RTVSPost2010Prop42
 90
       50
102
RTVSPost2010PropOp42
 70
     1
102
RTVSPost2010Prop43
 90
        3
102
RTVSPost2010PropOp43
 70
     1
102
RTVSPost2010Prop44ColorIndex
 90
        5
102
RTVSPost2010Prop44ColorRGB
 90
      255
102
RTVSPost2010PropOp44
 70
     1
102
RTVSPost2010Prop45
280
     0
102
RTVSPost2010PropOp45
 70
     1
102
RTVSPost2010Prop46
 90
       50
102
RTVSPost2010PropOp46
 70
     1
102
RTVSPost2010Prop47
 90
       50
102
RTVSPost2010PropOp47
 70
     1
102
RTVSPost2010Prop48
 90
       50
102
RTVSPost2010PropOp48
 70
     1
102
RTVSPost2010Prop49
280
     0
102
RTVSPost2010PropOp49
 70
     1
102
RTVSPost2010Prop50
 90
       50
102
RTVSPost2010PropOp50
 70
     1
102
RTVSPost2010Prop51ColorIndex
 90
      256
102
RTVSPost2010Prop51ColorRGB
 90
-16777216
102
RTVSPost2010PropOp51
 70
     0
102
RTVSPost2010Prop52
140
1.0
102
RTVSPost2010PropOp52
 70
     0
102
RTVSPost2010Prop53
 90
        2
102
RTVSPost2010PropOp53
 70
     1
102
RTVSPost2010Prop54
  1
strokes_ogs.tif
102
RTVSPost2010PropOp54
 70
     1
102
RTVSPost2010Prop55
280
     0
102
RTVSPost2010PropOp55
 70
     1
102
RTVSPost2010Prop56
140
1.0
102
RTVSPost2010PropOp56
 70
     1
102
RTVSPost2010Prop57
140
1.0
102
RTVSPost2010PropOp57
 70
     1
102
RTVSPropertyOp0
 70
     1
102
RTVSPropertyOp1
 70
     1
102
RTVSPropertyOp2
 70
     1
102
RTVSPropertyOp3
 70
     1
102
RTVSPropertyOp4
 70
     1
102
RTVSPropertyOp5
 70
     1
102
RTVSPropertyOp6
 70
     1
102
RTVSPropertyOp7
 70
     1
102
RTVSPropertyOp8
 70
     1
102
RTVSPropertyOp9
 70
     1
102
RTVSPropertyOp10
 70
     1
102
RTVSPropertyOp11
 70
     1
102
RTVSPropertyOp12
 70
     1
102
RTVSPropertyOp13
 70
     1
102
RTVSPropertyOp14
 70
     1
102
RTVSPropertyOp15
 70
     1
102
RTVSPropertyOp16
 70
     1
102
RTVSPropertyOp17
 70
     1
102
RTVSPropertyOp18
 70
     1
102
RTVSPropertyOp19
 70
     1
102
RTVSPropertyOp20
 70
     1
102
RTVSPropertyOp21
 70
     1
102
RTVSPropertyOp22
 70
     1
102
RTVSPropertyOp23
 70
     1
102
RTVSPropertyOp24
 70
     1
102
RTVSPropertyOp25
 70
     1
102
RTVSPropertyOp26
 70
     1
102
RTVSPropertyOp27
 70
     1
102
RTVSPropertyOp28
 70
     1
102
RTVSPropertyOp29
 70
     1
102
RTVSPropertyOp30
 70
     1
102
RTVSPropertyOp31
 70
     1
102
RTVSPropertyOp32
 70
     1
102
RTVSPropertyOp33
 70
     1
102
RTVSPropertyOp34
 70
     1
102
RTVSPropertyOp35
 70
     1
102
RTVSPropertyOp36
 70
     1
102
RTVSPropertyOp37
 70
     1
102
RTVSPropertyOp38
 70
     1
102
RTVSPropertyOp39
 70
     1
102
RTVSPropertyOp40
 70
     1
102
RTVSPropertyOp41
 70
     1
102
RTVSPropertyOp42
 70
     1
102
RTVSPropertyOp43
 70
     1
102
RTVSPropertyOp44
 70
     1
102
RTVSPropertyOp45
 70
     1
102
RTVSPropertyOp46
 70
     1
102
RTVSPropertyOp47
 70
     1
102
RTVSPropertyOp48
 70
     1
102
RTVSPropertyOp49
 70
     1
102
RTVSPropertyOp50
 70
     1
102
RTVSPropertyOp51
 70
     0
102
RTVSPropertyOp52
 70
     0
102
RTVSPropertyOp53
 70
     1
102
RTVSPropertyOp54
 70
     1
102
RTVSPropertyOp55
 70
     1
102
RTVSPropertyOp56
 70
     1
102
RTVSPropertyOp57
 70
     1
102
RTVSPropertyOp58
 70
     1
102
RTVSPropertyOp59
 70
     1
102
RTVSPropertyOp60
 70
     1
102
RTVSPropertyOp61
 70
     1
102
RTVSPropertyOp62
 70
     1
  0
XRECORD
  5
2A8
102
{ACAD_REACTORS
330
2A7
102
}
330
2A7
100
AcDbXrecord
280
     1
102
RTVSPost2010Prop28
280
     0
102
RTVSPost2010PropOp28
 70
     1
102
RTVSPost2010Prop29
280
     1
102
RTVSPost2010PropOp29
 70
     1
102
RTVSPost2010Prop30
280
     1
102
RTVSPost2010PropOp30
 70
     1
102
RTVSPost2010Prop31
280
     0
102
RTVSPost2010PropOp31
 70
     1
102
RTVSPost2010Prop32
280
     0
102
RTVSPost2010PropOp32
 70
     1
102
RTVSPost2010Prop33
280
     0
102
RTVSPost2010PropOp33
 70
     1
102
RTVSPost2010Prop34
280
     0
102
RTVSPost2010PropOp34
 70
     1
102
RTVSPost2010Prop35
280
     0
102
RTVSPost2010PropOp35
 70
     1
102
RTVSPost2010Prop36
280
     0
102
RTVSPost2010PropOp36
 70
     1
102
RTVSPost2010Prop37
 90
       50
102
RTVSPost2010PropOp37
 70
     1
102
RTVSPost2010Prop38
140
0.0
102
RTVSPost2010PropOp38
 70
     1
102
RTVSPost2010Prop39
140
1.0
102
RTVSPost2010PropOp39
 70
     1
102
RTVSPost2010Prop40
 90
        0
102
RTVSPost2010PropOp40
 70
     1
102
RTVSPost2010Prop41ColorIndex
 90
       18
102
RTVSPost2010Prop41ColorRGB
 90
        0
102
RTVSPost2010PropOp41
 70
     1
102
RTVSPost2010Prop42
 90
       50
102
RTVSPost2010PropOp42
 70
     1
102
RTVSPost2010Prop43
 90
        3
102
RTVSPost2010PropOp43
 70
     1
102
RTVSPost2010Prop44ColorIndex
 90
        5
102
RTVSPost2010Prop44ColorRGB
 90
      255
102
RTVSPost2010PropOp44
 70
     1
102
RTVSPost2010Prop45
280
     0
102
RTVSPost2010PropOp45
 70
     1
102
RTVSPost2010Prop46
 90
       50
102
RTVSPost2010PropOp46
 70
     1
102
RTVSPost2010Prop47
 90
       50
102
RTVSPost2010PropOp47
 70
     1
102
RTVSPost2010Prop48
 90
       50
102
RTVSPost2010PropOp48
 70
     1
102
RTVSPost2010Prop49
280
     0
102
RTVSPost2010PropOp49
 70
     1
102
RTVSPost2010Prop50
 90
       50
102
RTVSPost2010PropOp50
 70
     1
102
RTVSPost2010Prop51ColorIndex
 90
      256
102
RTVSPost2010Prop51ColorRGB
 90
-16777216
102
RTVSPost2010PropOp51
 70
     0
102
RTVSPost2010Prop52
140
1.0
102
RTVSPost2010PropOp52
 70
     0
102
RTVSPost2010Prop53
 90
        2
102
RTVSPost2010PropOp53
 70
     1
102
RTVSPost2010Prop54
  1
strokes_ogs.tif
102
RTVSPost2010PropOp54
 70
     1
102
RTVSPost2010Prop55
280
     0
102
RTVSPost2010PropOp55
 70
     1
102
RTVSPost2010Prop56
140
1.0
102
RTVSPost2010PropOp56
 70
     1
102
RTVSPost2010Prop57
140
1.0
102
RTVSPost2010PropOp57
 70
     1
102
RTVSPropertyOp0
 70
     1
102
RTVSPropertyOp1
 70
     1
102
RTVSPropertyOp2
 70
     1
102
RTVSPropertyOp3
 70
     1
102
RTVSPropertyOp4
 70
     1
102
RTVSPropertyOp5
 70
     1
102
RTVSPropertyOp6
 70
     1
102
RTVSPropertyOp7
 70
     1
102
RTVSPropertyOp8
 70
     1
102
RTVSPropertyOp9
 70
     1
102
RTVSPropertyOp10
 70
     1
102
RTVSPropertyOp11
 70
     1
102
RTVSPropertyOp12
 70
     1
102
RTVSPropertyOp13
 70
     1
102
RTVSPropertyOp14
 70
     1
102
RTVSPropertyOp15
 70
     1
102
RTVSPropertyOp16
 70
     1
102
RTVSPropertyOp17
 70
     1
102
RTVSPropertyOp18
 70
     1
102
RTVSPropertyOp19
 70
     1
102
RTVSPropertyOp20
 70
     1
102
RTVSPropertyOp21
 70
     1
102
RTVSPropertyOp22
 70
     1
102
RTVSPropertyOp23
 70
     1
102
RTVSPropertyOp24
 70
     1
102
RTVSPropertyOp25
 70
     1
102
RTVSPropertyOp26
 70
     1
102
RTVSPropertyOp27
 70
     1
102
RTVSPropertyOp28
 70
     1
102
RTVSPropertyOp29
 70
     1
102
RTVSPropertyOp30
 70
     1
102
RTVSPropertyOp31
 70
     1
102
RTVSPropertyOp32
 70
     1
102
RTVSPropertyOp33
 70
     1
102
RTVSPropertyOp34
 70
     1
102
RTVSPropertyOp35
 70
     1
102
RTVSPropertyOp36
 70
     1
102
RTVSPropertyOp37
 70
     1
102
RTVSPropertyOp38
 70
     1
102
RTVSPropertyOp39
 70
     1
102
RTVSPropertyOp40
 70
     1
102
RTVSPropertyOp41
 70
     1
102
RTVSPropertyOp42
 70
     1
102
RTVSPropertyOp43
 70
     1
102
RTVSPropertyOp44
 70
     1
102
RTVSPropertyOp45
 70
     1
102
RTVSPropertyOp46
 70
     1
102
RTVSPropertyOp47
 70
     1
102
RTVSPropertyOp48
 70
     1
102
RTVSPropertyOp49
 70
     1
102
RTVSPropertyOp50
 70
     1
102
RTVSPropertyOp51
 70
     0
102
RTVSPropertyOp52
 70
     0
102
RTVSPropertyOp53
 70
     1
102
RTVSPropertyOp54
 70
     1
102
RTVSPropertyOp55
 70
     1
102
RTVSPropertyOp56
 70
     1
102
RTVSPropertyOp57
 70
     1
102
RTVSPropertyOp58
 70
     1
102
RTVSPropertyOp59
 70
     1
102
RTVSPropertyOp60
 70
     1
102
RTVSPropertyOp61
 70
     1
102
RTVSPropertyOp62
 70
     1
  0
XRECORD
  5
29A
102
{ACAD_REACTORS
330
299
102
}
330
299
100
AcDbXrecord
280
     1
102
RTVSPost2010Prop28
280
     0
102
RTVSPost2010PropOp28
 70
     1
102
RTVSPost2010Prop29
280
     1
102
RTVSPost2010PropOp29
 70
     1
102
RTVSPost2010Prop30
280
     1
102
RTVSPost2010PropOp30
 70
     1
102
RTVSPost2010Prop31
280
     0
102
RTVSPost2010PropOp31
 70
     1
102
RTVSPost2010Prop32
280
     0
102
RTVSPost2010PropOp32
 70
     1
102
RTVSPost2010Prop33
280
     0
102
RTVSPost2010PropOp33
 70
     1
102
RTVSPost2010Prop34
280
     0
102
RTVSPost2010PropOp34
 70
     1
102
RTVSPost2010Prop35
280
     0
102
RTVSPost2010PropOp35
 70
     1
102
RTVSPost2010Prop36
280
     0
102
RTVSPost2010PropOp36
 70
     1
102
RTVSPost2010Prop37
 90
       50
102
RTVSPost2010PropOp37
 70
     1
102
RTVSPost2010Prop38
140
0.0
102
RTVSPost2010PropOp38
 70
     1
102
RTVSPost2010Prop39
140
1.0
102
RTVSPost2010PropOp39
 70
     1
102
RTVSPost2010Prop40
 90
        0
102
RTVSPost2010PropOp40
 70
     1
102
RTVSPost2010Prop41ColorIndex
 90
       18
102
RTVSPost2010Prop41ColorRGB
 90
        0
102
RTVSPost2010PropOp41
 70
     1
102
RTVSPost2010Prop42
 90
       50
102
RTVSPost2010PropOp42
 70
     1
102
RTVSPost2010Prop43
 90
        3
102
RTVSPost2010PropOp43
 70
     1
102
RTVSPost2010Prop44ColorIndex
 90
        5
102
RTVSPost2010Prop44ColorRGB
 90
      255
102
RTVSPost2010PropOp44
 70
     1
102
RTVSPost2010Prop45
280
     0
102
RTVSPost2010PropOp45
 70
     1
102
RTVSPost2010Prop46
 90
       50
102
RTVSPost2010PropOp46
 70
     1
102
RTVSPost2010Prop47
 90
       50
102
RTVSPost2010PropOp47
 70
     1
102
RTVSPost2010Prop48
 90
       50
102
RTVSPost2010PropOp48
 70
     1
102
RTVSPost2010Prop49
280
     0
102
RTVSPost2010PropOp49
 70
     1
102
RTVSPost2010Prop50
 90
       50
102
RTVSPost2010PropOp50
 70
     1
102
RTVSPost2010Prop51ColorIndex
 90
      256
102
RTVSPost2010Prop51ColorRGB
 90
-16777216
102
RTVSPost2010PropOp51
 70
     0
102
RTVSPost2010Prop52
140
1.0
102
RTVSPost2010PropOp52
 70
     0
102
RTVSPost2010Prop53
 90
        2
102
RTVSPost2010PropOp53
 70
     1
102
RTVSPost2010Prop54
  1
strokes_ogs.tif
102
RTVSPost2010PropOp54
 70
     1
102
RTVSPost2010Prop55
280
     0
102
RTVSPost2010PropOp55
 70
     1
102
RTVSPost2010Prop56
140
1.0
102
RTVSPost2010PropOp56
 70
     1
102
RTVSPost2010Prop57
140
1.0
102
RTVSPost2010PropOp57
 70
     1
102
RTVSPropertyOp0
 70
     1
102
RTVSPropertyOp1
 70
     1
102
RTVSPropertyOp2
 70
     1
102
RTVSPropertyOp3
 70
     1
102
RTVSPropertyOp4
 70
     1
102
RTVSPropertyOp5
 70
     1
102
RTVSPropertyOp6
 70
     1
102
RTVSPropertyOp7
 70
     1
102
RTVSPropertyOp8
 70
     1
102
RTVSPropertyOp9
 70
     1
102
RTVSPropertyOp10
 70
     1
102
RTVSPropertyOp11
 70
     1
102
RTVSPropertyOp12
 70
     1
102
RTVSPropertyOp13
 70
     1
102
RTVSPropertyOp14
 70
     1
102
RTVSPropertyOp15
 70
     1
102
RTVSPropertyOp16
 70
     1
102
RTVSPropertyOp17
 70
     1
102
RTVSPropertyOp18
 70
     1
102
RTVSPropertyOp19
 70
     1
102
RTVSPropertyOp20
 70
     1
102
RTVSPropertyOp21
 70
     1
102
RTVSPropertyOp22
 70
     1
102
RTVSPropertyOp23
 70
     1
102
RTVSPropertyOp24
 70
     1
102
RTVSPropertyOp25
 70
     1
102
RTVSPropertyOp26
 70
     1
102
RTVSPropertyOp27
 70
     1
102
RTVSPropertyOp28
 70
     1
102
RTVSPropertyOp29
 70
     1
102
RTVSPropertyOp30
 70
     1
102
RTVSPropertyOp31
 70
     1
102
RTVSPropertyOp32
 70
     1
102
RTVSPropertyOp33
 70
     1
102
RTVSPropertyOp34
 70
     1
102
RTVSPropertyOp35
 70
     1
102
RTVSPropertyOp36
 70
     1
102
RTVSPropertyOp37
 70
     1
102
RTVSPropertyOp38
 70
     1
102
RTVSPropertyOp39
 70
     1
102
RTVSPropertyOp40
 70
     1
102
RTVSPropertyOp41
 70
     1
102
RTVSPropertyOp42
 70
     1
102
RTVSPropertyOp43
 70
     1
102
RTVSPropertyOp44
 70
     1
102
RTVSPropertyOp45
 70
     1
102
RTVSPropertyOp46
 70
     1
102
RTVSPropertyOp47
 70
     1
102
RTVSPropertyOp48
 70
     1
102
RTVSPropertyOp49
 70
     1
102
RTVSPropertyOp50
 70
     1
102
RTVSPropertyOp51
 70
     0
102
RTVSPropertyOp52
 70
     0
102
RTVSPropertyOp53
 70
     1
102
RTVSPropertyOp54
 70
     1
102
RTVSPropertyOp55
 70
     1
102
RTVSPropertyOp56
 70
     1
102
RTVSPropertyOp57
 70
     1
102
RTVSPropertyOp58
 70
     1
102
RTVSPropertyOp59
 70
     1
102
RTVSPropertyOp60
 70
     1
102
RTVSPropertyOp61
 70
     1
102
RTVSPropertyOp62
 70
     1
  0
XRECORD
  5
29E
102
{ACAD_REACTORS
330
29D
102
}
330
29D
100
AcDbXrecord
280
     1
102
RTVSPost2010Prop28
280
     0
102
RTVSPost2010PropOp28
 70
     1
102
RTVSPost2010Prop29
280
     1
102
RTVSPost2010PropOp29
 70
     1
102
RTVSPost2010Prop30
280
     1
102
RTVSPost2010PropOp30
 70
     1
102
RTVSPost2010Prop31
280
     0
102
RTVSPost2010PropOp31
 70
     1
102
RTVSPost2010Prop32
280
     0
102
RTVSPost2010PropOp32
 70
     1
102
RTVSPost2010Prop33
280
     0
102
RTVSPost2010PropOp33
 70
     1
102
RTVSPost2010Prop34
280
     0
102
RTVSPost2010PropOp34
 70
     1
102
RTVSPost2010Prop35
280
     0
102
RTVSPost2010PropOp35
 70
     1
102
RTVSPost2010Prop36
280
     0
102
RTVSPost2010PropOp36
 70
     1
102
RTVSPost2010Prop37
 90
       50
102
RTVSPost2010PropOp37
 70
     1
102
RTVSPost2010Prop38
140
0.0
102
RTVSPost2010PropOp38
 70
     1
102
RTVSPost2010Prop39
140
1.0
102
RTVSPost2010PropOp39
 70
     1
102
RTVSPost2010Prop40
 90
        0
102
RTVSPost2010PropOp40
 70
     1
102
RTVSPost2010Prop41ColorIndex
 90
       18
102
RTVSPost2010Prop41ColorRGB
 90
        0
102
RTVSPost2010PropOp41
 70
     1
102
RTVSPost2010Prop42
 90
       50
102
RTVSPost2010PropOp42
 70
     1
102
RTVSPost2010Prop43
 90
        3
102
RTVSPost2010PropOp43
 70
     1
102
RTVSPost2010Prop44ColorIndex
 90
        5
102
RTVSPost2010Prop44ColorRGB
 90
      255
102
RTVSPost2010PropOp44
 70
     1
102
RTVSPost2010Prop45
280
     0
102
RTVSPost2010PropOp45
 70
     1
102
RTVSPost2010Prop46
 90
       50
102
RTVSPost2010PropOp46
 70
     1
102
RTVSPost2010Prop47
 90
       50
102
RTVSPost2010PropOp47
 70
     1
102
RTVSPost2010Prop48
 90
       50
102
RTVSPost2010PropOp48
 70
     1
102
RTVSPost2010Prop49
280
     0
102
RTVSPost2010PropOp49
 70
     1
102
RTVSPost2010Prop50
 90
       50
102
RTVSPost2010PropOp50
 70
     1
102
RTVSPost2010Prop51ColorIndex
 90
      256
102
RTVSPost2010Prop51ColorRGB
 90
-16777216
102
RTVSPost2010PropOp51
 70
     0
102
RTVSPost2010Prop52
140
1.0
102
RTVSPost2010PropOp52
 70
     0
102
RTVSPost2010Prop53
 90
        2
102
RTVSPost2010PropOp53
 70
     1
102
RTVSPost2010Prop54
  1
strokes_ogs.tif
102
RTVSPost2010PropOp54
 70
     1
102
RTVSPost2010Prop55
280
     0
102
RTVSPost2010PropOp55
 70
     1
102
RTVSPost2010Prop56
140
1.0
102
RTVSPost2010PropOp56
 70
     1
102
RTVSPost2010Prop57
140
1.0
102
RTVSPost2010PropOp57
 70
     1
102
RTVSPropertyOp0
 70
     1
102
RTVSPropertyOp1
 70
     1
102
RTVSPropertyOp2
 70
     1
102
RTVSPropertyOp3
 70
     1
102
RTVSPropertyOp4
 70
     1
102
RTVSPropertyOp5
 70
     1
102
RTVSPropertyOp6
 70
     1
102
RTVSPropertyOp7
 70
     1
102
RTVSPropertyOp8
 70
     1
102
RTVSPropertyOp9
 70
     1
102
RTVSPropertyOp10
 70
     1
102
RTVSPropertyOp11
 70
     1
102
RTVSPropertyOp12
 70
     1
102
RTVSPropertyOp13
 70
     1
102
RTVSPropertyOp14
 70
     1
102
RTVSPropertyOp15
 70
     1
102
RTVSPropertyOp16
 70
     1
102
RTVSPropertyOp17
 70
     1
102
RTVSPropertyOp18
 70
     1
102
RTVSPropertyOp19
 70
     1
102
RTVSPropertyOp20
 70
     1
102
RTVSPropertyOp21
 70
     1
102
RTVSPropertyOp22
 70
     1
102
RTVSPropertyOp23
 70
     1
102
RTVSPropertyOp24
 70
     1
102
RTVSPropertyOp25
 70
     1
102
RTVSPropertyOp26
 70
     1
102
RTVSPropertyOp27
 70
     1
102
RTVSPropertyOp28
 70
     1
102
RTVSPropertyOp29
 70
     1
102
RTVSPropertyOp30
 70
     1
102
RTVSPropertyOp31
 70
     1
102
RTVSPropertyOp32
 70
     1
102
RTVSPropertyOp33
 70
     1
102
RTVSPropertyOp34
 70
     1
102
RTVSPropertyOp35
 70
     1
102
RTVSPropertyOp36
 70
     1
102
RTVSPropertyOp37
 70
     1
102
RTVSPropertyOp38
 70
     1
102
RTVSPropertyOp39
 70
     1
102
RTVSPropertyOp40
 70
     1
102
RTVSPropertyOp41
 70
     1
102
RTVSPropertyOp42
 70
     1
102
RTVSPropertyOp43
 70
     1
102
RTVSPropertyOp44
 70
     1
102
RTVSPropertyOp45
 70
     1
102
RTVSPropertyOp46
 70
     1
102
RTVSPropertyOp47
 70
     1
102
RTVSPropertyOp48
 70
     1
102
RTVSPropertyOp49
 70
     1
102
RTVSPropertyOp50
 70
     1
102
RTVSPropertyOp51
 70
     0
102
RTVSPropertyOp52
 70
     0
102
RTVSPropertyOp53
 70
     1
102
RTVSPropertyOp54
 70
     1
102
RTVSPropertyOp55
 70
     1
102
RTVSPropertyOp56
 70
     1
102
RTVSPropertyOp57
 70
     1
102
RTVSPropertyOp58
 70
     1
102
RTVSPropertyOp59
 70
     1
102
RTVSPropertyOp60
 70
     1
102
RTVSPropertyOp61
 70
     1
102
RTVSPropertyOp62
 70
     1
  0
XRECORD
  5
2B8
102
{ACAD_REACTORS
330
2B7
102
}
330
2B7
100
AcDbXrecord
280
     1
102
RTVSPost2010Prop28
280
     0
102
RTVSPost2010PropOp28
 70
     1
102
RTVSPost2010Prop29
280
     1
102
RTVSPost2010PropOp29
 70
     1
102
RTVSPost2010Prop30
280
     1
102
RTVSPost2010PropOp30
 70
     1
102
RTVSPost2010Prop31
280
     0
102
RTVSPost2010PropOp31
 70
     1
102
RTVSPost2010Prop32
280
     0
102
RTVSPost2010PropOp32
 70
     1
102
RTVSPost2010Prop33
280
     0
102
RTVSPost2010PropOp33
 70
     1
102
RTVSPost2010Prop34
280
     0
102
RTVSPost2010PropOp34
 70
     1
102
RTVSPost2010Prop35
280
     0
102
RTVSPost2010PropOp35
 70
     1
102
RTVSPost2010Prop36
280
     0
102
RTVSPost2010PropOp36
 70
     1
102
RTVSPost2010Prop37
 90
       50
102
RTVSPost2010PropOp37
 70
     0
102
RTVSPost2010Prop38
140
0.0
102
RTVSPost2010PropOp38
 70
     0
102
RTVSPost2010Prop39
140
1.0
102
RTVSPost2010PropOp39
 70
     0
102
RTVSPost2010Prop40
 90
        0
102
RTVSPost2010PropOp40
 70
     0
102
RTVSPost2010Prop41ColorIndex
 90
       18
102
RTVSPost2010Prop41ColorRGB
 90
        0
102
RTVSPost2010PropOp41
 70
     0
102
RTVSPost2010Prop42
 90
       50
102
RTVSPost2010PropOp42
 70
     0
102
RTVSPost2010Prop43
 90
        3
102
RTVSPost2010PropOp43
 70
     0
102
RTVSPost2010Prop44ColorIndex
 90
        5
102
RTVSPost2010Prop44ColorRGB
 90
      255
102
RTVSPost2010PropOp44
 70
     0
102
RTVSPost2010Prop45
280
     0
102
RTVSPost2010PropOp45
 70
     1
102
RTVSPost2010Prop46
 90
       50
102
RTVSPost2010PropOp46
 70
     0
102
RTVSPost2010Prop47
 90
       50
102
RTVSPost2010PropOp47
 70
     0
102
RTVSPost2010Prop48
 90
       50
102
RTVSPost2010PropOp48
 70
     0
102
RTVSPost2010Prop49
280
     0
102
RTVSPost2010PropOp49
 70
     1
102
RTVSPost2010Prop50
 90
       50
102
RTVSPost2010PropOp50
 70
     0
102
RTVSPost2010Prop51ColorIndex
 90
      256
102
RTVSPost2010Prop51ColorRGB
 90
-16777216
102
RTVSPost2010PropOp51
 70
     0
102
RTVSPost2010Prop52
140
1.0
102
RTVSPost2010PropOp52
 70
     0
102
RTVSPost2010Prop53
 90
        2
102
RTVSPost2010PropOp53
 70
     0
102
RTVSPost2010Prop54
  1
strokes_ogs.tif
102
RTVSPost2010PropOp54
 70
     0
102
RTVSPost2010Prop55
280
     0
102
RTVSPost2010PropOp55
 70
     1
102
RTVSPost2010Prop56
140
1.0
102
RTVSPost2010PropOp56
 70
     0
102
RTVSPost2010Prop57
140
1.0
102
RTVSPost2010PropOp57
 70
     0
102
RTVSPropertyOp0
 70
     0
102
RTVSPropertyOp1
 70
     0
102
RTVSPropertyOp2
 70
     0
102
RTVSPropertyOp3
 70
     0
102
RTVSPropertyOp4
 70
     0
102
RTVSPropertyOp5
 70
     0
102
RTVSPropertyOp6
 70
     0
102
RTVSPropertyOp7
 70
     0
102
RTVSPropertyOp8
 70
     0
102
RTVSPropertyOp9
 70
     0
102
RTVSPropertyOp10
 70
     0
102
RTVSPropertyOp11
 70
     0
102
RTVSPropertyOp12
 70
     0
102
RTVSPropertyOp13
 70
     0
102
RTVSPropertyOp14
 70
     2
102
RTVSPropertyOp15
 70
     0
102
RTVSPropertyOp16
 70
     0
102
RTVSPropertyOp17
 70
     0
102
RTVSPropertyOp18
 70
     0
102
RTVSPropertyOp19
 70
     0
102
RTVSPropertyOp20
 70
     0
102
RTVSPropertyOp21
 70
     0
102
RTVSPropertyOp22
 70
     0
102
RTVSPropertyOp23
 70
     0
102
RTVSPropertyOp24
 70
     0
102
RTVSPropertyOp25
 70
     0
102
RTVSPropertyOp26
 70
     0
102
RTVSPropertyOp27
 70
     0
102
RTVSPropertyOp28
 70
     1
102
RTVSPropertyOp29
 70
     1
102
RTVSPropertyOp30
 70
     1
102
RTVSPropertyOp31
 70
     1
102
RTVSPropertyOp32
 70
     1
102
RTVSPropertyOp33
 70
     1
102
RTVSPropertyOp34
 70
     1
102
RTVSPropertyOp35
 70
     1
102
RTVSPropertyOp36
 70
     1
102
RTVSPropertyOp37
 70
     0
102
RTVSPropertyOp38
 70
     0
102
RTVSPropertyOp39
 70
     0
102
RTVSPropertyOp40
 70
     0
102
RTVSPropertyOp41
 70
     0
102
RTVSPropertyOp42
 70
     0
102
RTVSPropertyOp43
 70
     0
102
RTVSPropertyOp44
 70
     0
102
RTVSPropertyOp45
 70
     1
102
RTVSPropertyOp46
 70
     0
102
RTVSPropertyOp47
 70
     0
102
RTVSPropertyOp48
 70
     0
102
RTVSPropertyOp49
 70
     1
102
RTVSPropertyOp50
 70
     0
102
RTVSPropertyOp51
 70
     0
102
RTVSPropertyOp52
 70
     0
102
RTVSPropertyOp53
 70
     0
102
RTVSPropertyOp54
 70
     0
102
RTVSPropertyOp55
 70
     1
102
RTVSPropertyOp56
 70
     0
102
RTVSPropertyOp57
 70
     0
102
RTVSPropertyOp58
 70
     0
102
RTVSPropertyOp59
 70
     0
102
RTVSPropertyOp60
 70
     0
102
RTVSPropertyOp61
 70
     0
102
RTVSPropertyOp62
 70
     0
  0
XRECORD
  5
2A6
102
{ACAD_REACTORS
330
2A5
102
}
330
2A5
100
AcDbXrecord
280
     1
102
RTVSPost2010Prop28
280
     0
102
RTVSPost2010PropOp28
 70
     1
102
RTVSPost2010Prop29
280
     1
102
RTVSPost2010PropOp29
 70
     1
102
RTVSPost2010Prop30
280
     1
102
RTVSPost2010PropOp30
 70
     1
102
RTVSPost2010Prop31
280
     0
102
RTVSPost2010PropOp31
 70
     1
102
RTVSPost2010Prop32
280
     0
102
RTVSPost2010PropOp32
 70
     1
102
RTVSPost2010Prop33
280
     0
102
RTVSPost2010PropOp33
 70
     1
102
RTVSPost2010Prop34
280
     0
102
RTVSPost2010PropOp34
 70
     1
102
RTVSPost2010Prop35
280
     0
102
RTVSPost2010PropOp35
 70
     1
102
RTVSPost2010Prop36
280
     0
102
RTVSPost2010PropOp36
 70
     1
102
RTVSPost2010Prop37
 90
       50
102
RTVSPost2010PropOp37
 70
     1
102
RTVSPost2010Prop38
140
0.0
102
RTVSPost2010PropOp38
 70
     1
102
RTVSPost2010Prop39
140
1.0
102
RTVSPost2010PropOp39
 70
     1
102
RTVSPost2010Prop40
 90
        0
102
RTVSPost2010PropOp40
 70
     1
102
RTVSPost2010Prop41ColorIndex
 90
       18
102
RTVSPost2010Prop41ColorRGB
 90
        0
102
RTVSPost2010PropOp41
 70
     1
102
RTVSPost2010Prop42
 90
       50
102
RTVSPost2010PropOp42
 70
     1
102
RTVSPost2010Prop43
 90
        3
102
RTVSPost2010PropOp43
 70
     1
102
RTVSPost2010Prop44ColorIndex
 90
        5
102
RTVSPost2010Prop44ColorRGB
 90
      255
102
RTVSPost2010PropOp44
 70
     1
102
RTVSPost2010Prop45
280
     0
102
RTVSPost2010PropOp45
 70
     1
102
RTVSPost2010Prop46
 90
       50
102
RTVSPost2010PropOp46
 70
     1
102
RTVSPost2010Prop47
 90
       50
102
RTVSPost2010PropOp47
 70
     1
102
RTVSPost2010Prop48
 90
       50
102
RTVSPost2010PropOp48
 70
     1
102
RTVSPost2010Prop49
280
     0
102
RTVSPost2010PropOp49
 70
     1
102
RTVSPost2010Prop50
 90
       50
102
RTVSPost2010PropOp50
 70
     1
102
RTVSPost2010Prop51ColorIndex
 90
      256
102
RTVSPost2010Prop51ColorRGB
 90
-16777216
102
RTVSPost2010PropOp51
 70
     0
102
RTVSPost2010Prop52
140
1.0
102
RTVSPost2010PropOp52
 70
     0
102
RTVSPost2010Prop53
 90
        2
102
RTVSPost2010PropOp53
 70
     1
102
RTVSPost2010Prop54
  1
strokes_ogs.tif
102
RTVSPost2010PropOp54
 70
     1
102
RTVSPost2010Prop55
280
     0
102
RTVSPost2010PropOp55
 70
     1
102
RTVSPost2010Prop56
140
1.0
102
RTVSPost2010PropOp56
 70
     1
102
RTVSPost2010Prop57
140
1.0
102
RTVSPost2010PropOp57
 70
     1
102
RTVSPropertyOp0
 70
     1
102
RTVSPropertyOp1
 70
     1
102
RTVSPropertyOp2
 70
     1
102
RTVSPropertyOp3
 70
     1
102
RTVSPropertyOp4
 70
     1
102
RTVSPropertyOp5
 70
     1
102
RTVSPropertyOp6
 70
     1
102
RTVSPropertyOp7
 70
     1
102
RTVSPropertyOp8
 70
     1
102
RTVSPropertyOp9
 70
     1
102
RTVSPropertyOp10
 70
     1
102
RTVSPropertyOp11
 70
     1
102
RTVSPropertyOp12
 70
     1
102
RTVSPropertyOp13
 70
     1
102
RTVSPropertyOp14
 70
     1
102
RTVSPropertyOp15
 70
     1
102
RTVSPropertyOp16
 70
     1
102
RTVSPropertyOp17
 70
     1
102
RTVSPropertyOp18
 70
     1
102
RTVSPropertyOp19
 70
     1
102
RTVSPropertyOp20
 70
     1
102
RTVSPropertyOp21
 70
     1
102
RTVSPropertyOp22
 70
     1
102
RTVSPropertyOp23
 70
     1
102
RTVSPropertyOp24
 70
     1
102
RTVSPropertyOp25
 70
     1
102
RTVSPropertyOp26
 70
     1
102
RTVSPropertyOp27
 70
     1
102
RTVSPropertyOp28
 70
     1
102
RTVSPropertyOp29
 70
     1
102
RTVSPropertyOp30
 70
     1
102
RTVSPropertyOp31
 70
     1
102
RTVSPropertyOp32
 70
     1
102
RTVSPropertyOp33
 70
     1
102
RTVSPropertyOp34
 70
     1
102
RTVSPropertyOp35
 70
     1
102
RTVSPropertyOp36
 70
     1
102
RTVSPropertyOp37
 70
     1
102
RTVSPropertyOp38
 70
     1
102
RTVSPropertyOp39
 70
     1
102
RTVSPropertyOp40
 70
     1
102
RTVSPropertyOp41
 70
     1
102
RTVSPropertyOp42
 70
     1
102
RTVSPropertyOp43
 70
     1
102
RTVSPropertyOp44
 70
     1
102
RTVSPropertyOp45
 70
     1
102
RTVSPropertyOp46
 70
     1
102
RTVSPropertyOp47
 70
     1
102
RTVSPropertyOp48
 70
     1
102
RTVSPropertyOp49
 70
     1
102
RTVSPropertyOp50
 70
     1
102
RTVSPropertyOp51
 70
     0
102
RTVSPropertyOp52
 70
     0
102
RTVSPropertyOp53
 70
     1
102
RTVSPropertyOp54
 70
     1
102
RTVSPropertyOp55
 70
     1
102
RTVSPropertyOp56
 70
     1
102
RTVSPropertyOp57
 70
     1
102
RTVSPropertyOp58
 70
     1
102
RTVSPropertyOp59
 70
     1
102
RTVSPropertyOp60
 70
     1
102
RTVSPropertyOp61
 70
     1
102
RTVSPropertyOp62
 70
     1
  0
XRECORD
  5
28A
102
{ACAD_REACTORS
330
289
102
}
330
289
100
AcDbXrecord
280
     1
102
RTVSPost2010Prop28
280
     0
102
RTVSPost2010PropOp28
 70
     1
102
RTVSPost2010Prop29
280
     1
102
RTVSPost2010PropOp29
 70
     1
102
RTVSPost2010Prop30
280
     1
102
RTVSPost2010PropOp30
 70
     1
102
RTVSPost2010Prop31
280
     0
102
RTVSPost2010PropOp31
 70
     1
102
RTVSPost2010Prop32
280
     0
102
RTVSPost2010PropOp32
 70
     1
102
RTVSPost2010Prop33
280
     0
102
RTVSPost2010PropOp33
 70
     1
102
RTVSPost2010Prop34
280
     0
102
RTVSPost2010PropOp34
 70
     1
102
RTVSPost2010Prop35
280
     0
102
RTVSPost2010PropOp35
 70
     1
102
RTVSPost2010Prop36
280
     0
102
RTVSPost2010PropOp36
 70
     1
102
RTVSPost2010Prop37
 90
       50
102
RTVSPost2010PropOp37
 70
     1
102
RTVSPost2010Prop38
140
0.0
102
RTVSPost2010PropOp38
 70
     1
102
RTVSPost2010Prop39
140
1.0
102
RTVSPost2010PropOp39
 70
     1
102
RTVSPost2010Prop40
 90
        0
102
RTVSPost2010PropOp40
 70
     1
102
RTVSPost2010Prop41ColorIndex
 90
       18
102
RTVSPost2010Prop41ColorRGB
 90
        0
102
RTVSPost2010PropOp41
 70
     1
102
RTVSPost2010Prop42
 90
       50
102
RTVSPost2010PropOp42
 70
     1
102
RTVSPost2010Prop43
 90
        3
102
RTVSPost2010PropOp43
 70
     1
102
RTVSPost2010Prop44ColorIndex
 90
        5
102
RTVSPost2010Prop44ColorRGB
 90
      255
102
RTVSPost2010PropOp44
 70
     1
102
RTVSPost2010Prop45
280
     0
102
RTVSPost2010PropOp45
 70
     1
102
RTVSPost2010Prop46
 90
       50
102
RTVSPost2010PropOp46
 70
     1
102
RTVSPost2010Prop47
 90
       50
102
RTVSPost2010PropOp47
 70
     1
102
RTVSPost2010Prop48
 90
       50
102
RTVSPost2010PropOp48
 70
     1
102
RTVSPost2010Prop49
280
     0
102
RTVSPost2010PropOp49
 70
     1
102
RTVSPost2010Prop50
 90
       50
102
RTVSPost2010PropOp50
 70
     1
102
RTVSPost2010Prop51ColorIndex
 90
      256
102
RTVSPost2010Prop51ColorRGB
 90
-16777216
102
RTVSPost2010PropOp51
 70
     0
102
RTVSPost2010Prop52
140
1.0
102
RTVSPost2010PropOp52
 70
     0
102
RTVSPost2010Prop53
 90
        2
102
RTVSPost2010PropOp53
 70
     1
102
RTVSPost2010Prop54
  1
strokes_ogs.tif
102
RTVSPost2010PropOp54
 70
     1
102
RTVSPost2010Prop55
280
     0
102
RTVSPost2010PropOp55
 70
     1
102
RTVSPost2010Prop56
140
1.0
102
RTVSPost2010PropOp56
 70
     1
102
RTVSPost2010Prop57
140
1.0
102
RTVSPost2010PropOp57
 70
     1
102
RTVSPropertyOp0
 70
     1
102
RTVSPropertyOp1
 70
     1
102
RTVSPropertyOp2
 70
     1
102
RTVSPropertyOp3
 70
     1
102
RTVSPropertyOp4
 70
     1
102
RTVSPropertyOp5
 70
     1
102
RTVSPropertyOp6
 70
     1
102
RTVSPropertyOp7
 70
     1
102
RTVSPropertyOp8
 70
     1
102
RTVSPropertyOp9
 70
     1
102
RTVSPropertyOp10
 70
     1
102
RTVSPropertyOp11
 70
     1
102
RTVSPropertyOp12
 70
     1
102
RTVSPropertyOp13
 70
     1
102
RTVSPropertyOp14
 70
     1
102
RTVSPropertyOp15
 70
     1
102
RTVSPropertyOp16
 70
     1
102
RTVSPropertyOp17
 70
     1
102
RTVSPropertyOp18
 70
     1
102
RTVSPropertyOp19
 70
     1
102
RTVSPropertyOp20
 70
     1
102
RTVSPropertyOp21
 70
     1
102
RTVSPropertyOp22
 70
     1
102
RTVSPropertyOp23
 70
     1
102
RTVSPropertyOp24
 70
     1
102
RTVSPropertyOp25
 70
     1
102
RTVSPropertyOp26
 70
     1
102
RTVSPropertyOp27
 70
     1
102
RTVSPropertyOp28
 70
     1
102
RTVSPropertyOp29
 70
     1
102
RTVSPropertyOp30
 70
     1
102
RTVSPropertyOp31
 70
     1
102
RTVSPropertyOp32
 70
     1
102
RTVSPropertyOp33
 70
     1
102
RTVSPropertyOp34
 70
     1
102
RTVSPropertyOp35
 70
     1
102
RTVSPropertyOp36
 70
     1
102
RTVSPropertyOp37
 70
     1
102
RTVSPropertyOp38
 70
     1
102
RTVSPropertyOp39
 70
     1
102
RTVSPropertyOp40
 70
     1
102
RTVSPropertyOp41
 70
     1
102
RTVSPropertyOp42
 70
     1
102
RTVSPropertyOp43
 70
     1
102
RTVSPropertyOp44
 70
     1
102
RTVSPropertyOp45
 70
     1
102
RTVSPropertyOp46
 70
     1
102
RTVSPropertyOp47
 70
     1
102
RTVSPropertyOp48
 70
     1
102
RTVSPropertyOp49
 70
     1
102
RTVSPropertyOp50
 70
     1
102
RTVSPropertyOp51
 70
     0
102
RTVSPropertyOp52
 70
     0
102
RTVSPropertyOp53
 70
     1
102
RTVSPropertyOp54
 70
     1
102
RTVSPropertyOp55
 70
     1
102
RTVSPropertyOp56
 70
     1
102
RTVSPropertyOp57
 70
     1
102
RTVSPropertyOp58
 70
     1
102
RTVSPropertyOp59
 70
     1
102
RTVSPropertyOp60
 70
     1
102
RTVSPropertyOp61
 70
     1
102
RTVSPropertyOp62
 70
     1
  0
XRECORD
  5
28C
102
{ACAD_REACTORS
330
28B
102
}
330
28B
100
AcDbXrecord
280
     1
102
RTVSPost2010Prop28
280
     0
102
RTVSPost2010PropOp28
 70
     1
102
RTVSPost2010Prop29
280
     1
102
RTVSPost2010PropOp29
 70
     1
102
RTVSPost2010Prop30
280
     1
102
RTVSPost2010PropOp30
 70
     1
102
RTVSPost2010Prop31
280
     0
102
RTVSPost2010PropOp31
 70
     1
102
RTVSPost2010Prop32
280
     0
102
RTVSPost2010PropOp32
 70
     1
102
RTVSPost2010Prop33
280
     0
102
RTVSPost2010PropOp33
 70
     1
102
RTVSPost2010Prop34
280
     0
102
RTVSPost2010PropOp34
 70
     1
102
RTVSPost2010Prop35
280
     0
102
RTVSPost2010PropOp35
 70
     1
102
RTVSPost2010Prop36
280
     0
102
RTVSPost2010PropOp36
 70
     1
102
RTVSPost2010Prop37
 90
       50
102
RTVSPost2010PropOp37
 70
     1
102
RTVSPost2010Prop38
140
0.0
102
RTVSPost2010PropOp38
 70
     1
102
RTVSPost2010Prop39
140
1.0
102
RTVSPost2010PropOp39
 70
     1
102
RTVSPost2010Prop40
 90
        0
102
RTVSPost2010PropOp40
 70
     1
102
RTVSPost2010Prop41ColorIndex
 90
       18
102
RTVSPost2010Prop41ColorRGB
 90
        0
102
RTVSPost2010PropOp41
 70
     1
102
RTVSPost2010Prop42
 90
       50
102
RTVSPost2010PropOp42
 70
     1
102
RTVSPost2010Prop43
 90
        3
102
RTVSPost2010PropOp43
 70
     1
102
RTVSPost2010Prop44ColorIndex
 90
        5
102
RTVSPost2010Prop44ColorRGB
 90
      255
102
RTVSPost2010PropOp44
 70
     1
102
RTVSPost2010Prop45
280
     0
102
RTVSPost2010PropOp45
 70
     1
102
RTVSPost2010Prop46
 90
       50
102
RTVSPost2010PropOp46
 70
     1
102
RTVSPost2010Prop47
 90
       50
102
RTVSPost2010PropOp47
 70
     1
102
RTVSPost2010Prop48
 90
       50
102
RTVSPost2010PropOp48
 70
     1
102
RTVSPost2010Prop49
280
     0
102
RTVSPost2010PropOp49
 70
     1
102
RTVSPost2010Prop50
 90
       50
102
RTVSPost2010PropOp50
 70
     1
102
RTVSPost2010Prop51ColorIndex
 90
      256
102
RTVSPost2010Prop51ColorRGB
 90
-16777216
102
RTVSPost2010PropOp51
 70
     0
102
RTVSPost2010Prop52
140
1.0
102
RTVSPost2010PropOp52
 70
     0
102
RTVSPost2010Prop53
 90
        2
102
RTVSPost2010PropOp53
 70
     1
102
RTVSPost2010Prop54
  1
strokes_ogs.tif
102
RTVSPost2010PropOp54
 70
     1
102
RTVSPost2010Prop55
280
     0
102
RTVSPost2010PropOp55
 70
     1
102
RTVSPost2010Prop56
140
1.0
102
RTVSPost2010PropOp56
 70
     1
102
RTVSPost2010Prop57
140
1.0
102
RTVSPost2010PropOp57
 70
     1
102
RTVSPropertyOp0
 70
     1
102
RTVSPropertyOp1
 70
     1
102
RTVSPropertyOp2
 70
     1
102
RTVSPropertyOp3
 70
     1
102
RTVSPropertyOp4
 70
     1
102
RTVSPropertyOp5
 70
     1
102
RTVSPropertyOp6
 70
     1
102
RTVSPropertyOp7
 70
     1
102
RTVSPropertyOp8
 70
     1
102
RTVSPropertyOp9
 70
     1
102
RTVSPropertyOp10
 70
     1
102
RTVSPropertyOp11
 70
     1
102
RTVSPropertyOp12
 70
     1
102
RTVSPropertyOp13
 70
     1
102
RTVSPropertyOp14
 70
     1
102
RTVSPropertyOp15
 70
     1
102
RTVSPropertyOp16
 70
     1
102
RTVSPropertyOp17
 70
     1
102
RTVSPropertyOp18
 70
     1
102
RTVSPropertyOp19
 70
     1
102
RTVSPropertyOp20
 70
     1
102
RTVSPropertyOp21
 70
     1
102
RTVSPropertyOp22
 70
     1
102
RTVSPropertyOp23
 70
     1
102
RTVSPropertyOp24
 70
     1
102
RTVSPropertyOp25
 70
     1
102
RTVSPropertyOp26
 70
     1
102
RTVSPropertyOp27
 70
     1
102
RTVSPropertyOp28
 70
     1
102
RTVSPropertyOp29
 70
     1
102
RTVSPropertyOp30
 70
     1
102
RTVSPropertyOp31
 70
     1
102
RTVSPropertyOp32
 70
     1
102
RTVSPropertyOp33
 70
     1
102
RTVSPropertyOp34
 70
     1
102
RTVSPropertyOp35
 70
     1
102
RTVSPropertyOp36
 70
     1
102
RTVSPropertyOp37
 70
     1
102
RTVSPropertyOp38
 70
     1
102
RTVSPropertyOp39
 70
     1
102
RTVSPropertyOp40
 70
     1
102
RTVSPropertyOp41
 70
     1
102
RTVSPropertyOp42
 70
     1
102
RTVSPropertyOp43
 70
     1
102
RTVSPropertyOp44
 70
     1
102
RTVSPropertyOp45
 70
     1
102
RTVSPropertyOp46
 70
     1
102
RTVSPropertyOp47
 70
     1
102
RTVSPropertyOp48
 70
     1
102
RTVSPropertyOp49
 70
     1
102
RTVSPropertyOp50
 70
     1
102
RTVSPropertyOp51
 70
     0
102
RTVSPropertyOp52
 70
     0
102
RTVSPropertyOp53
 70
     1
102
RTVSPropertyOp54
 70
     1
102
RTVSPropertyOp55
 70
     1
102
RTVSPropertyOp56
 70
     1
102
RTVSPropertyOp57
 70
     1
102
RTVSPropertyOp58
 70
     1
102
RTVSPropertyOp59
 70
     1
102
RTVSPropertyOp60
 70
     1
102
RTVSPropertyOp61
 70
     1
102
RTVSPropertyOp62
 70
     1
  0
XRECORD
  5
28E
102
{ACAD_REACTORS
330
28D
102
}
330
28D
100
AcDbXrecord
280
     1
102
RTVSPost2010Prop28
280
     0
102
RTVSPost2010PropOp28
 70
     1
102
RTVSPost2010Prop29
280
     1
102
RTVSPost2010PropOp29
 70
     1
102
RTVSPost2010Prop30
280
     1
102
RTVSPost2010PropOp30
 70
     1
102
RTVSPost2010Prop31
280
     0
102
RTVSPost2010PropOp31
 70
     1
102
RTVSPost2010Prop32
280
     0
102
RTVSPost2010PropOp32
 70
     1
102
RTVSPost2010Prop33
280
     0
102
RTVSPost2010PropOp33
 70
     1
102
RTVSPost2010Prop34
280
     0
102
RTVSPost2010PropOp34
 70
     1
102
RTVSPost2010Prop35
280
     0
102
RTVSPost2010PropOp35
 70
     1
102
RTVSPost2010Prop36
280
     0
102
RTVSPost2010PropOp36
 70
     1
102
RTVSPost2010Prop37
 90
       50
102
RTVSPost2010PropOp37
 70
     1
102
RTVSPost2010Prop38
140
0.0
102
RTVSPost2010PropOp38
 70
     1
102
RTVSPost2010Prop39
140
1.0
102
RTVSPost2010PropOp39
 70
     1
102
RTVSPost2010Prop40
 90
        0
102
RTVSPost2010PropOp40
 70
     1
102
RTVSPost2010Prop41ColorIndex
 90
       18
102
RTVSPost2010Prop41ColorRGB
 90
        0
102
RTVSPost2010PropOp41
 70
     1
102
RTVSPost2010Prop42
 90
       50
102
RTVSPost2010PropOp42
 70
     1
102
RTVSPost2010Prop43
 90
        3
102
RTVSPost2010PropOp43
 70
     1
102
RTVSPost2010Prop44ColorIndex
 90
        5
102
RTVSPost2010Prop44ColorRGB
 90
      255
102
RTVSPost2010PropOp44
 70
     1
102
RTVSPost2010Prop45
280
     0
102
RTVSPost2010PropOp45
 70
     1
102
RTVSPost2010Prop46
 90
       50
102
RTVSPost2010PropOp46
 70
     1
102
RTVSPost2010Prop47
 90
       50
102
RTVSPost2010PropOp47
 70
     1
102
RTVSPost2010Prop48
 90
       50
102
RTVSPost2010PropOp48
 70
     1
102
RTVSPost2010Prop49
280
     0
102
RTVSPost2010PropOp49
 70
     1
102
RTVSPost2010Prop50
 90
       50
102
RTVSPost2010PropOp50
 70
     1
102
RTVSPost2010Prop51ColorIndex
 90
      256
102
RTVSPost2010Prop51ColorRGB
 90
-16777216
102
RTVSPost2010PropOp51
 70
     0
102
RTVSPost2010Prop52
140
1.0
102
RTVSPost2010PropOp52
 70
     0
102
RTVSPost2010Prop53
 90
        2
102
RTVSPost2010PropOp53
 70
     1
102
RTVSPost2010Prop54
  1
strokes_ogs.tif
102
RTVSPost2010PropOp54
 70
     1
102
RTVSPost2010Prop55
280
     0
102
RTVSPost2010PropOp55
 70
     1
102
RTVSPost2010Prop56
140
1.0
102
RTVSPost2010PropOp56
 70
     1
102
RTVSPost2010Prop57
140
1.0
102
RTVSPost2010PropOp57
 70
     1
102
RTVSPropertyOp0
 70
     1
102
RTVSPropertyOp1
 70
     1
102
RTVSPropertyOp2
 70
     1
102
RTVSPropertyOp3
 70
     1
102
RTVSPropertyOp4
 70
     1
102
RTVSPropertyOp5
 70
     1
102
RTVSPropertyOp6
 70
     1
102
RTVSPropertyOp7
 70
     1
102
RTVSPropertyOp8
 70
     1
102
RTVSPropertyOp9
 70
     1
102
RTVSPropertyOp10
 70
     1
102
RTVSPropertyOp11
 70
     1
102
RTVSPropertyOp12
 70
     1
102
RTVSPropertyOp13
 70
     1
102
RTVSPropertyOp14
 70
     1
102
RTVSPropertyOp15
 70
     1
102
RTVSPropertyOp16
 70
     1
102
RTVSPropertyOp17
 70
     1
102
RTVSPropertyOp18
 70
     1
102
RTVSPropertyOp19
 70
     1
102
RTVSPropertyOp20
 70
     1
102
RTVSPropertyOp21
 70
     1
102
RTVSPropertyOp22
 70
     1
102
RTVSPropertyOp23
 70
     1
102
RTVSPropertyOp24
 70
     1
102
RTVSPropertyOp25
 70
     1
102
RTVSPropertyOp26
 70
     1
102
RTVSPropertyOp27
 70
     1
102
RTVSPropertyOp28
 70
     1
102
RTVSPropertyOp29
 70
     1
102
RTVSPropertyOp30
 70
     1
102
RTVSPropertyOp31
 70
     1
102
RTVSPropertyOp32
 70
     1
102
RTVSPropertyOp33
 70
     1
102
RTVSPropertyOp34
 70
     1
102
RTVSPropertyOp35
 70
     1
102
RTVSPropertyOp36
 70
     1
102
RTVSPropertyOp37
 70
     1
102
RTVSPropertyOp38
 70
     1
102
RTVSPropertyOp39
 70
     1
102
RTVSPropertyOp40
 70
     1
102
RTVSPropertyOp41
 70
     1
102
RTVSPropertyOp42
 70
     1
102
RTVSPropertyOp43
 70
     1
102
RTVSPropertyOp44
 70
     1
102
RTVSPropertyOp45
 70
     1
102
RTVSPropertyOp46
 70
     1
102
RTVSPropertyOp47
 70
     1
102
RTVSPropertyOp48
 70
     1
102
RTVSPropertyOp49
 70
     1
102
RTVSPropertyOp50
 70
     1
102
RTVSPropertyOp51
 70
     0
102
RTVSPropertyOp52
 70
     0
102
RTVSPropertyOp53
 70
     1
102
RTVSPropertyOp54
 70
     1
102
RTVSPropertyOp55
 70
     1
102
RTVSPropertyOp56
 70
     1
102
RTVSPropertyOp57
 70
     1
102
RTVSPropertyOp58
 70
     1
102
RTVSPropertyOp59
 70
     1
102
RTVSPropertyOp60
 70
     1
102
RTVSPropertyOp61
 70
     1
102
RTVSPropertyOp62
 70
     1
  0
XRECORD
  5
290
102
{ACAD_REACTORS
330
28F
102
}
330
28F
100
AcDbXrecord
280
     1
102
RTVSPost2010Prop28
280
     0
102
RTVSPost2010PropOp28
 70
     1
102
RTVSPost2010Prop29
280
     1
102
RTVSPost2010PropOp29
 70
     1
102
RTVSPost2010Prop30
280
     1
102
RTVSPost2010PropOp30
 70
     1
102
RTVSPost2010Prop31
280
     0
102
RTVSPost2010PropOp31
 70
     1
102
RTVSPost2010Prop32
280
     0
102
RTVSPost2010PropOp32
 70
     1
102
RTVSPost2010Prop33
280
     0
102
RTVSPost2010PropOp33
 70
     1
102
RTVSPost2010Prop34
280
     0
102
RTVSPost2010PropOp34
 70
     1
102
RTVSPost2010Prop35
280
     0
102
RTVSPost2010PropOp35
 70
     1
102
RTVSPost2010Prop36
280
     0
102
RTVSPost2010PropOp36
 70
     1
102
RTVSPost2010Prop37
 90
       50
102
RTVSPost2010PropOp37
 70
     1
102
RTVSPost2010Prop38
140
0.0
102
RTVSPost2010PropOp38
 70
     1
102
RTVSPost2010Prop39
140
1.0
102
RTVSPost2010PropOp39
 70
     1
102
RTVSPost2010Prop40
 90
        0
102
RTVSPost2010PropOp40
 70
     1
102
RTVSPost2010Prop41ColorIndex
 90
       18
102
RTVSPost2010Prop41ColorRGB
 90
        0
102
RTVSPost2010PropOp41
 70
     1
102
RTVSPost2010Prop42
 90
       50
102
RTVSPost2010PropOp42
 70
     1
102
RTVSPost2010Prop43
 90
        3
102
RTVSPost2010PropOp43
 70
     1
102
RTVSPost2010Prop44ColorIndex
 90
        5
102
RTVSPost2010Prop44ColorRGB
 90
      255
102
RTVSPost2010PropOp44
 70
     1
102
RTVSPost2010Prop45
280
     0
102
RTVSPost2010PropOp45
 70
     1
102
RTVSPost2010Prop46
 90
       50
102
RTVSPost2010PropOp46
 70
     1
102
RTVSPost2010Prop47
 90
       50
102
RTVSPost2010PropOp47
 70
     1
102
RTVSPost2010Prop48
 90
       50
102
RTVSPost2010PropOp48
 70
     1
102
RTVSPost2010Prop49
280
     0
102
RTVSPost2010PropOp49
 70
     1
102
RTVSPost2010Prop50
 90
       50
102
RTVSPost2010PropOp50
 70
     1
102
RTVSPost2010Prop51ColorIndex
 90
      256
102
RTVSPost2010Prop51ColorRGB
 90
-16777216
102
RTVSPost2010PropOp51
 70
     0
102
RTVSPost2010Prop52
140
1.0
102
RTVSPost2010PropOp52
 70
     0
102
RTVSPost2010Prop53
 90
        2
102
RTVSPost2010PropOp53
 70
     1
102
RTVSPost2010Prop54
  1
strokes_ogs.tif
102
RTVSPost2010PropOp54
 70
     1
102
RTVSPost2010Prop55
280
     0
102
RTVSPost2010PropOp55
 70
     1
102
RTVSPost2010Prop56
140
1.0
102
RTVSPost2010PropOp56
 70
     1
102
RTVSPost2010Prop57
140
1.0
102
RTVSPost2010PropOp57
 70
     1
102
RTVSPropertyOp0
 70
     1
102
RTVSPropertyOp1
 70
     1
102
RTVSPropertyOp2
 70
     1
102
RTVSPropertyOp3
 70
     1
102
RTVSPropertyOp4
 70
     1
102
RTVSPropertyOp5
 70
     1
102
RTVSPropertyOp6
 70
     1
102
RTVSPropertyOp7
 70
     1
102
RTVSPropertyOp8
 70
     1
102
RTVSPropertyOp9
 70
     1
102
RTVSPropertyOp10
 70
     1
102
RTVSPropertyOp11
 70
     1
102
RTVSPropertyOp12
 70
     1
102
RTVSPropertyOp13
 70
     1
102
RTVSPropertyOp14
 70
     1
102
RTVSPropertyOp15
 70
     1
102
RTVSPropertyOp16
 70
     1
102
RTVSPropertyOp17
 70
     1
102
RTVSPropertyOp18
 70
     1
102
RTVSPropertyOp19
 70
     1
102
RTVSPropertyOp20
 70
     1
102
RTVSPropertyOp21
 70
     1
102
RTVSPropertyOp22
 70
     1
102
RTVSPropertyOp23
 70
     1
102
RTVSPropertyOp24
 70
     1
102
RTVSPropertyOp25
 70
     1
102
RTVSPropertyOp26
 70
     1
102
RTVSPropertyOp27
 70
     1
102
RTVSPropertyOp28
 70
     1
102
RTVSPropertyOp29
 70
     1
102
RTVSPropertyOp30
 70
     1
102
RTVSPropertyOp31
 70
     1
102
RTVSPropertyOp32
 70
     1
102
RTVSPropertyOp33
 70
     1
102
RTVSPropertyOp34
 70
     1
102
RTVSPropertyOp35
 70
     1
102
RTVSPropertyOp36
 70
     1
102
RTVSPropertyOp37
 70
     1
102
RTVSPropertyOp38
 70
     1
102
RTVSPropertyOp39
 70
     1
102
RTVSPropertyOp40
 70
     1
102
RTVSPropertyOp41
 70
     1
102
RTVSPropertyOp42
 70
     1
102
RTVSPropertyOp43
 70
     1
102
RTVSPropertyOp44
 70
     1
102
RTVSPropertyOp45
 70
     1
102
RTVSPropertyOp46
 70
     1
102
RTVSPropertyOp47
 70
     1
102
RTVSPropertyOp48
 70
     1
102
RTVSPropertyOp49
 70
     1
102
RTVSPropertyOp50
 70
     1
102
RTVSPropertyOp51
 70
     0
102
RTVSPropertyOp52
 70
     0
102
RTVSPropertyOp53
 70
     1
102
RTVSPropertyOp54
 70
     1
102
RTVSPropertyOp55
 70
     1
102
RTVSPropertyOp56
 70
     1
102
RTVSPropertyOp57
 70
     1
102
RTVSPropertyOp58
 70
     1
102
RTVSPropertyOp59
 70
     1
102
RTVSPropertyOp60
 70
     1
102
RTVSPropertyOp61
 70
     1
102
RTVSPropertyOp62
 70
     1
  0
XRECORD
  5
298
102
{ACAD_REACTORS
330
297
102
}
330
297
100
AcDbXrecord
280
     1
102
RTVSPost2010Prop28
280
     0
102
RTVSPost2010PropOp28
 70
     1
102
RTVSPost2010Prop29
280
     1
102
RTVSPost2010PropOp29
 70
     1
102
RTVSPost2010Prop30
280
     1
102
RTVSPost2010PropOp30
 70
     1
102
RTVSPost2010Prop31
280
     0
102
RTVSPost2010PropOp31
 70
     1
102
RTVSPost2010Prop32
280
     0
102
RTVSPost2010PropOp32
 70
     1
102
RTVSPost2010Prop33
280
     0
102
RTVSPost2010PropOp33
 70
     1
102
RTVSPost2010Prop34
280
     0
102
RTVSPost2010PropOp34
 70
     1
102
RTVSPost2010Prop35
280
     0
102
RTVSPost2010PropOp35
 70
     1
102
RTVSPost2010Prop36
280
     0
102
RTVSPost2010PropOp36
 70
     1
102
RTVSPost2010Prop37
 90
       50
102
RTVSPost2010PropOp37
 70
     1
102
RTVSPost2010Prop38
140
0.0
102
RTVSPost2010PropOp38
 70
     1
102
RTVSPost2010Prop39
140
1.0
102
RTVSPost2010PropOp39
 70
     1
102
RTVSPost2010Prop40
 90
        0
102
RTVSPost2010PropOp40
 70
     1
102
RTVSPost2010Prop41ColorIndex
 90
       18
102
RTVSPost2010Prop41ColorRGB
 90
        0
102
RTVSPost2010PropOp41
 70
     1
102
RTVSPost2010Prop42
 90
       50
102
RTVSPost2010PropOp42
 70
     1
102
RTVSPost2010Prop43
 90
        3
102
RTVSPost2010PropOp43
 70
     1
102
RTVSPost2010Prop44ColorIndex
 90
        5
102
RTVSPost2010Prop44ColorRGB
 90
      255
102
RTVSPost2010PropOp44
 70
     1
102
RTVSPost2010Prop45
280
     0
102
RTVSPost2010PropOp45
 70
     1
102
RTVSPost2010Prop46
 90
       50
102
RTVSPost2010PropOp46
 70
     1
102
RTVSPost2010Prop47
 90
       50
102
RTVSPost2010PropOp47
 70
     1
102
RTVSPost2010Prop48
 90
       50
102
RTVSPost2010PropOp48
 70
     1
102
RTVSPost2010Prop49
280
     0
102
RTVSPost2010PropOp49
 70
     1
102
RTVSPost2010Prop50
 90
       50
102
RTVSPost2010PropOp50
 70
     1
102
RTVSPost2010Prop51ColorIndex
 90
      256
102
RTVSPost2010Prop51ColorRGB
 90
-16777216
102
RTVSPost2010PropOp51
 70
     0
102
RTVSPost2010Prop52
140
1.0
102
RTVSPost2010PropOp52
 70
     0
102
RTVSPost2010Prop53
 90
        2
102
RTVSPost2010PropOp53
 70
     1
102
RTVSPost2010Prop54
  1
strokes_ogs.tif
102
RTVSPost2010PropOp54
 70
     1
102
RTVSPost2010Prop55
280
     0
102
RTVSPost2010PropOp55
 70
     1
102
RTVSPost2010Prop56
140
1.0
102
RTVSPost2010PropOp56
 70
     1
102
RTVSPost2010Prop57
140
1.0
102
RTVSPost2010PropOp57
 70
     1
102
RTVSPropertyOp0
 70
     1
102
RTVSPropertyOp1
 70
     1
102
RTVSPropertyOp2
 70
     1
102
RTVSPropertyOp3
 70
     1
102
RTVSPropertyOp4
 70
     1
102
RTVSPropertyOp5
 70
     1
102
RTVSPropertyOp6
 70
     1
102
RTVSPropertyOp7
 70
     1
102
RTVSPropertyOp8
 70
     1
102
RTVSPropertyOp9
 70
     1
102
RTVSPropertyOp10
 70
     1
102
RTVSPropertyOp11
 70
     1
102
RTVSPropertyOp12
 70
     1
102
RTVSPropertyOp13
 70
     1
102
RTVSPropertyOp14
 70
     1
102
RTVSPropertyOp15
 70
     1
102
RTVSPropertyOp16
 70
     1
102
RTVSPropertyOp17
 70
     1
102
RTVSPropertyOp18
 70
     1
102
RTVSPropertyOp19
 70
     1
102
RTVSPropertyOp20
 70
     1
102
RTVSPropertyOp21
 70
     1
102
RTVSPropertyOp22
 70
     1
102
RTVSPropertyOp23
 70
     1
102
RTVSPropertyOp24
 70
     1
102
RTVSPropertyOp25
 70
     1
102
RTVSPropertyOp26
 70
     1
102
RTVSPropertyOp27
 70
     1
102
RTVSPropertyOp28
 70
     1
102
RTVSPropertyOp29
 70
     1
102
RTVSPropertyOp30
 70
     1
102
RTVSPropertyOp31
 70
     1
102
RTVSPropertyOp32
 70
     1
102
RTVSPropertyOp33
 70
     1
102
RTVSPropertyOp34
 70
     1
102
RTVSPropertyOp35
 70
     1
102
RTVSPropertyOp36
 70
     1
102
RTVSPropertyOp37
 70
     1
102
RTVSPropertyOp38
 70
     1
102
RTVSPropertyOp39
 70
     1
102
RTVSPropertyOp40
 70
     1
102
RTVSPropertyOp41
 70
     1
102
RTVSPropertyOp42
 70
     1
102
RTVSPropertyOp43
 70
     1
102
RTVSPropertyOp44
 70
     1
102
RTVSPropertyOp45
 70
     1
102
RTVSPropertyOp46
 70
     1
102
RTVSPropertyOp47
 70
     1
102
RTVSPropertyOp48
 70
     1
102
RTVSPropertyOp49
 70
     1
102
RTVSPropertyOp50
 70
     1
102
RTVSPropertyOp51
 70
     0
102
RTVSPropertyOp52
 70
     0
102
RTVSPropertyOp53
 70
     1
102
RTVSPropertyOp54
 70
     1
102
RTVSPropertyOp55
 70
     1
102
RTVSPropertyOp56
 70
     1
102
RTVSPropertyOp57
 70
     1
102
RTVSPropertyOp58
 70
     1
102
RTVSPropertyOp59
 70
     1
102
RTVSPropertyOp60
 70
     1
102
RTVSPropertyOp61
 70
     1
102
RTVSPropertyOp62
 70
     1
  0
XRECORD
  5
2B4
102
{ACAD_REACTORS
330
2B3
102
}
330
2B3
100
AcDbXrecord
280
     1
102
RTVSPost2010Prop28
280
     0
102
RTVSPost2010PropOp28
 70
     1
102
RTVSPost2010Prop29
280
     1
102
RTVSPost2010PropOp29
 70
     1
102
RTVSPost2010Prop30
280
     1
102
RTVSPost2010PropOp30
 70
     1
102
RTVSPost2010Prop31
280
     0
102
RTVSPost2010PropOp31
 70
     1
102
RTVSPost2010Prop32
280
     0
102
RTVSPost2010PropOp32
 70
     1
102
RTVSPost2010Prop33
280
     0
102
RTVSPost2010PropOp33
 70
     1
102
RTVSPost2010Prop34
280
     0
102
RTVSPost2010PropOp34
 70
     1
102
RTVSPost2010Prop35
280
     0
102
RTVSPost2010PropOp35
 70
     1
102
RTVSPost2010Prop36
280
     0
102
RTVSPost2010PropOp36
 70
     1
102
RTVSPost2010Prop37
 90
       50
102
RTVSPost2010PropOp37
 70
     0
102
RTVSPost2010Prop38
140
0.0
102
RTVSPost2010PropOp38
 70
     0
102
RTVSPost2010Prop39
140
1.0
102
RTVSPost2010PropOp39
 70
     0
102
RTVSPost2010Prop40
 90
        0
102
RTVSPost2010PropOp40
 70
     0
102
RTVSPost2010Prop41ColorIndex
 90
       18
102
RTVSPost2010Prop41ColorRGB
 90
        0
102
RTVSPost2010PropOp41
 70
     0
102
RTVSPost2010Prop42
 90
       50
102
RTVSPost2010PropOp42
 70
     0
102
RTVSPost2010Prop43
 90
        3
102
RTVSPost2010PropOp43
 70
     0
102
RTVSPost2010Prop44ColorIndex
 90
        5
102
RTVSPost2010Prop44ColorRGB
 90
      255
102
RTVSPost2010PropOp44
 70
     0
102
RTVSPost2010Prop45
280
     0
102
RTVSPost2010PropOp45
 70
     1
102
RTVSPost2010Prop46
 90
       50
102
RTVSPost2010PropOp46
 70
     0
102
RTVSPost2010Prop47
 90
       50
102
RTVSPost2010PropOp47
 70
     0
102
RTVSPost2010Prop48
 90
       50
102
RTVSPost2010PropOp48
 70
     0
102
RTVSPost2010Prop49
280
     0
102
RTVSPost2010PropOp49
 70
     1
102
RTVSPost2010Prop50
 90
       50
102
RTVSPost2010PropOp50
 70
     0
102
RTVSPost2010Prop51ColorIndex
 90
      256
102
RTVSPost2010Prop51ColorRGB
 90
-16777216
102
RTVSPost2010PropOp51
 70
     0
102
RTVSPost2010Prop52
140
1.0
102
RTVSPost2010PropOp52
 70
     0
102
RTVSPost2010Prop53
 90
        2
102
RTVSPost2010PropOp53
 70
     0
102
RTVSPost2010Prop54
  1
strokes_ogs.tif
102
RTVSPost2010PropOp54
 70
     0
102
RTVSPost2010Prop55
280
     0
102
RTVSPost2010PropOp55
 70
     1
102
RTVSPost2010Prop56
140
1.0
102
RTVSPost2010PropOp56
 70
     0
102
RTVSPost2010Prop57
140
1.0
102
RTVSPost2010PropOp57
 70
     0
102
RTVSPropertyOp0
 70
     0
102
RTVSPropertyOp1
 70
     0
102
RTVSPropertyOp2
 70
     0
102
RTVSPropertyOp3
 70
     0
102
RTVSPropertyOp4
 70
     0
102
RTVSPropertyOp5
 70
     0
102
RTVSPropertyOp6
 70
     0
102
RTVSPropertyOp7
 70
     0
102
RTVSPropertyOp8
 70
     0
102
RTVSPropertyOp9
 70
     0
102
RTVSPropertyOp10
 70
     0
102
RTVSPropertyOp11
 70
     0
102
RTVSPropertyOp12
 70
     0
102
RTVSPropertyOp13
 70
     0
102
RTVSPropertyOp14
 70
     2
102
RTVSPropertyOp15
 70
     0
102
RTVSPropertyOp16
 70
     0
102
RTVSPropertyOp17
 70
     0
102
RTVSPropertyOp18
 70
     0
102
RTVSPropertyOp19
 70
     0
102
RTVSPropertyOp20
 70
     0
102
RTVSPropertyOp21
 70
     0
102
RTVSPropertyOp22
 70
     0
102
RTVSPropertyOp23
 70
     0
102
RTVSPropertyOp24
 70
     0
102
RTVSPropertyOp25
 70
     0
102
RTVSPropertyOp26
 70
     0
102
RTVSPropertyOp27
 70
     0
102
RTVSPropertyOp28
 70
     1
102
RTVSPropertyOp29
 70
     1
102
RTVSPropertyOp30
 70
     1
102
RTVSPropertyOp31
 70
     1
102
RTVSPropertyOp32
 70
     1
102
RTVSPropertyOp33
 70
     1
102
RTVSPropertyOp34
 70
     1
102
RTVSPropertyOp35
 70
     1
102
RTVSPropertyOp36
 70
     1
102
RTVSPropertyOp37
 70
     0
102
RTVSPropertyOp38
 70
     0
102
RTVSPropertyOp39
 70
     0
102
RTVSPropertyOp40
 70
     0
102
RTVSPropertyOp41
 70
     0
102
RTVSPropertyOp42
 70
     0
102
RTVSPropertyOp43
 70
     0
102
RTVSPropertyOp44
 70
     0
102
RTVSPropertyOp45
 70
     1
102
RTVSPropertyOp46
 70
     0
102
RTVSPropertyOp47
 70
     0
102
RTVSPropertyOp48
 70
     0
102
RTVSPropertyOp49
 70
     1
102
RTVSPropertyOp50
 70
     0
102
RTVSPropertyOp51
 70
     0
102
RTVSPropertyOp52
 70
     0
102
RTVSPropertyOp53
 70
     0
102
RTVSPropertyOp54
 70
     0
102
RTVSPropertyOp55
 70
     1
102
RTVSPropertyOp56
 70
     0
102
RTVSPropertyOp57
 70
     0
102
RTVSPropertyOp58
 70
     0
102
RTVSPropertyOp59
 70
     0
102
RTVSPropertyOp60
 70
     0
102
RTVSPropertyOp61
 70
     0
102
RTVSPropertyOp62
 70
     0
  0
XRECORD
  5
2A4
102
{ACAD_REACTORS
330
2A3
102
}
330
2A3
100
AcDbXrecord
280
     1
102
RTVSPost2010Prop28
280
     0
102
RTVSPost2010PropOp28
 70
     1
102
RTVSPost2010Prop29
280
     1
102
RTVSPost2010PropOp29
 70
     1
102
RTVSPost2010Prop30
280
     1
102
RTVSPost2010PropOp30
 70
     1
102
RTVSPost2010Prop31
280
     0
102
RTVSPost2010PropOp31
 70
     1
102
RTVSPost2010Prop32
280
     0
102
RTVSPost2010PropOp32
 70
     1
102
RTVSPost2010Prop33
280
     0
102
RTVSPost2010PropOp33
 70
     1
102
RTVSPost2010Prop34
280
     0
102
RTVSPost2010PropOp34
 70
     1
102
RTVSPost2010Prop35
280
     0
102
RTVSPost2010PropOp35
 70
     1
102
RTVSPost2010Prop36
280
     0
102
RTVSPost2010PropOp36
 70
     1
102
RTVSPost2010Prop37
 90
       50
102
RTVSPost2010PropOp37
 70
     1
102
RTVSPost2010Prop38
140
0.0
102
RTVSPost2010PropOp38
 70
     1
102
RTVSPost2010Prop39
140
1.0
102
RTVSPost2010PropOp39
 70
     1
102
RTVSPost2010Prop40
 90
        0
102
RTVSPost2010PropOp40
 70
     1
102
RTVSPost2010Prop41ColorIndex
 90
       18
102
RTVSPost2010Prop41ColorRGB
 90
        0
102
RTVSPost2010PropOp41
 70
     1
102
RTVSPost2010Prop42
 90
       50
102
RTVSPost2010PropOp42
 70
     1
102
RTVSPost2010Prop43
 90
        3
102
RTVSPost2010PropOp43
 70
     1
102
RTVSPost2010Prop44ColorIndex
 90
        5
102
RTVSPost2010Prop44ColorRGB
 90
      255
102
RTVSPost2010PropOp44
 70
     1
102
RTVSPost2010Prop45
280
     0
102
RTVSPost2010PropOp45
 70
     1
102
RTVSPost2010Prop46
 90
       50
102
RTVSPost2010PropOp46
 70
     1
102
RTVSPost2010Prop47
 90
       50
102
RTVSPost2010PropOp47
 70
     1
102
RTVSPost2010Prop48
 90
       50
102
RTVSPost2010PropOp48
 70
     1
102
RTVSPost2010Prop49
280
     0
102
RTVSPost2010PropOp49
 70
     1
102
RTVSPost2010Prop50
 90
       50
102
RTVSPost2010PropOp50
 70
     1
102
RTVSPost2010Prop51ColorIndex
 90
      256
102
RTVSPost2010Prop51ColorRGB
 90
-16777216
102
RTVSPost2010PropOp51
 70
     0
102
RTVSPost2010Prop52
140
1.0
102
RTVSPost2010PropOp52
 70
     0
102
RTVSPost2010Prop53
 90
        2
102
RTVSPost2010PropOp53
 70
     1
102
RTVSPost2010Prop54
  1
strokes_ogs.tif
102
RTVSPost2010PropOp54
 70
     1
102
RTVSPost2010Prop55
280
     0
102
RTVSPost2010PropOp55
 70
     1
102
RTVSPost2010Prop56
140
1.0
102
RTVSPost2010PropOp56
 70
     1
102
RTVSPost2010Prop57
140
1.0
102
RTVSPost2010PropOp57
 70
     1
102
RTVSPropertyOp0
 70
     1
102
RTVSPropertyOp1
 70
     1
102
RTVSPropertyOp2
 70
     1
102
RTVSPropertyOp3
 70
     1
102
RTVSPropertyOp4
 70
     1
102
RTVSPropertyOp5
 70
     1
102
RTVSPropertyOp6
 70
     1
102
RTVSPropertyOp7
 70
     1
102
RTVSPropertyOp8
 70
     1
102
RTVSPropertyOp9
 70
     1
102
RTVSPropertyOp10
 70
     1
102
RTVSPropertyOp11
 70
     1
102
RTVSPropertyOp12
 70
     1
102
RTVSPropertyOp13
 70
     1
102
RTVSPropertyOp14
 70
     1
102
RTVSPropertyOp15
 70
     1
102
RTVSPropertyOp16
 70
     1
102
RTVSPropertyOp17
 70
     1
102
RTVSPropertyOp18
 70
     1
102
RTVSPropertyOp19
 70
     1
102
RTVSPropertyOp20
 70
     1
102
RTVSPropertyOp21
 70
     1
102
RTVSPropertyOp22
 70
     1
102
RTVSPropertyOp23
 70
     1
102
RTVSPropertyOp24
 70
     1
102
RTVSPropertyOp25
 70
     1
102
RTVSPropertyOp26
 70
     1
102
RTVSPropertyOp27
 70
     1
102
RTVSPropertyOp28
 70
     1
102
RTVSPropertyOp29
 70
     1
102
RTVSPropertyOp30
 70
     1
102
RTVSPropertyOp31
 70
     1
102
RTVSPropertyOp32
 70
     1
102
RTVSPropertyOp33
 70
     1
102
RTVSPropertyOp34
 70
     1
102
RTVSPropertyOp35
 70
     1
102
RTVSPropertyOp36
 70
     1
102
RTVSPropertyOp37
 70
     1
102
RTVSPropertyOp38
 70
     1
102
RTVSPropertyOp39
 70
     1
102
RTVSPropertyOp40
 70
     1
102
RTVSPropertyOp41
 70
     1
102
RTVSPropertyOp42
 70
     1
102
RTVSPropertyOp43
 70
     1
102
RTVSPropertyOp44
 70
     1
102
RTVSPropertyOp45
 70
     1
102
RTVSPropertyOp46
 70
     1
102
RTVSPropertyOp47
 70
     1
102
RTVSPropertyOp48
 70
     1
102
RTVSPropertyOp49
 70
     1
102
RTVSPropertyOp50
 70
     1
102
RTVSPropertyOp51
 70
     0
102
RTVSPropertyOp52
 70
     0
102
RTVSPropertyOp53
 70
     1
102
RTVSPropertyOp54
 70
     1
102
RTVSPropertyOp55
 70
     1
102
RTVSPropertyOp56
 70
     1
102
RTVSPropertyOp57
 70
     1
102
RTVSPropertyOp58
 70
     1
102
RTVSPropertyOp59
 70
     1
102
RTVSPropertyOp60
 70
     1
102
RTVSPropertyOp61
 70
     1
102
RTVSPropertyOp62
 70
     1
  0
XRECORD
  5
2B6
102
{ACAD_REACTORS
330
2B5
102
}
330
2B5
100
AcDbXrecord
280
     1
102
RTVSPost2010Prop28
280
     0
102
RTVSPost2010PropOp28
 70
     1
102
RTVSPost2010Prop29
280
     1
102
RTVSPost2010PropOp29
 70
     1
102
RTVSPost2010Prop30
280
     1
102
RTVSPost2010PropOp30
 70
     1
102
RTVSPost2010Prop31
280
     0
102
RTVSPost2010PropOp31
 70
     1
102
RTVSPost2010Prop32
280
     0
102
RTVSPost2010PropOp32
 70
     1
102
RTVSPost2010Prop33
280
     0
102
RTVSPost2010PropOp33
 70
     1
102
RTVSPost2010Prop34
280
     0
102
RTVSPost2010PropOp34
 70
     1
102
RTVSPost2010Prop35
280
     0
102
RTVSPost2010PropOp35
 70
     1
102
RTVSPost2010Prop36
280
     0
102
RTVSPost2010PropOp36
 70
     1
102
RTVSPost2010Prop37
 90
       50
102
RTVSPost2010PropOp37
 70
     0
102
RTVSPost2010Prop38
140
0.0
102
RTVSPost2010PropOp38
 70
     0
102
RTVSPost2010Prop39
140
1.0
102
RTVSPost2010PropOp39
 70
     0
102
RTVSPost2010Prop40
 90
        0
102
RTVSPost2010PropOp40
 70
     0
102
RTVSPost2010Prop41ColorIndex
 90
       18
102
RTVSPost2010Prop41ColorRGB
 90
        0
102
RTVSPost2010PropOp41
 70
     0
102
RTVSPost2010Prop42
 90
       50
102
RTVSPost2010PropOp42
 70
     0
102
RTVSPost2010Prop43
 90
        3
102
RTVSPost2010PropOp43
 70
     0
102
RTVSPost2010Prop44ColorIndex
 90
        5
102
RTVSPost2010Prop44ColorRGB
 90
      255
102
RTVSPost2010PropOp44
 70
     0
102
RTVSPost2010Prop45
280
     0
102
RTVSPost2010PropOp45
 70
     1
102
RTVSPost2010Prop46
 90
       50
102
RTVSPost2010PropOp46
 70
     0
102
RTVSPost2010Prop47
 90
       50
102
RTVSPost2010PropOp47
 70
     0
102
RTVSPost2010Prop48
 90
       50
102
RTVSPost2010PropOp48
 70
     0
102
RTVSPost2010Prop49
280
     0
102
RTVSPost2010PropOp49
 70
     1
102
RTVSPost2010Prop50
 90
       50
102
RTVSPost2010PropOp50
 70
     0
102
RTVSPost2010Prop51ColorIndex
 90
      256
102
RTVSPost2010Prop51ColorRGB
 90
-16777216
102
RTVSPost2010PropOp51
 70
     0
102
RTVSPost2010Prop52
140
1.0
102
RTVSPost2010PropOp52
 70
     0
102
RTVSPost2010Prop53
 90
        2
102
RTVSPost2010PropOp53
 70
     0
102
RTVSPost2010Prop54
  1
strokes_ogs.tif
102
RTVSPost2010PropOp54
 70
     0
102
RTVSPost2010Prop55
280
     0
102
RTVSPost2010PropOp55
 70
     1
102
RTVSPost2010Prop56
140
1.0
102
RTVSPost2010PropOp56
 70
     0
102
RTVSPost2010Prop57
140
1.0
102
RTVSPost2010PropOp57
 70
     0
102
RTVSPropertyOp0
 70
     0
102
RTVSPropertyOp1
 70
     0
102
RTVSPropertyOp2
 70
     0
102
RTVSPropertyOp3
 70
     0
102
RTVSPropertyOp4
 70
     0
102
RTVSPropertyOp5
 70
     0
102
RTVSPropertyOp6
 70
     0
102
RTVSPropertyOp7
 70
     0
102
RTVSPropertyOp8
 70
     0
102
RTVSPropertyOp9
 70
     0
102
RTVSPropertyOp10
 70
     0
102
RTVSPropertyOp11
 70
     0
102
RTVSPropertyOp12
 70
     0
102
RTVSPropertyOp13
 70
     0
102
RTVSPropertyOp14
 70
     2
102
RTVSPropertyOp15
 70
     0
102
RTVSPropertyOp16
 70
     0
102
RTVSPropertyOp17
 70
     0
102
RTVSPropertyOp18
 70
     0
102
RTVSPropertyOp19
 70
     0
102
RTVSPropertyOp20
 70
     0
102
RTVSPropertyOp21
 70
     0
102
RTVSPropertyOp22
 70
     0
102
RTVSPropertyOp23
 70
     0
102
RTVSPropertyOp24
 70
     0
102
RTVSPropertyOp25
 70
     0
102
RTVSPropertyOp26
 70
     0
102
RTVSPropertyOp27
 70
     0
102
RTVSPropertyOp28
 70
     1
102
RTVSPropertyOp29
 70
     1
102
RTVSPropertyOp30
 70
     1
102
RTVSPropertyOp31
 70
     1
102
RTVSPropertyOp32
 70
     1
102
RTVSPropertyOp33
 70
     1
102
RTVSPropertyOp34
 70
     1
102
RTVSPropertyOp35
 70
     1
102
RTVSPropertyOp36
 70
     1
102
RTVSPropertyOp37
 70
     0
102
RTVSPropertyOp38
 70
     0
102
RTVSPropertyOp39
 70
     0
102
RTVSPropertyOp40
 70
     0
102
RTVSPropertyOp41
 70
     0
102
RTVSPropertyOp42
 70
     0
102
RTVSPropertyOp43
 70
     0
102
RTVSPropertyOp44
 70
     0
102
RTVSPropertyOp45
 70
     1
102
RTVSPropertyOp46
 70
     0
102
RTVSPropertyOp47
 70
     0
102
RTVSPropertyOp48
 70
     0
102
RTVSPropertyOp49
 70
     1
102
RTVSPropertyOp50
 70
     0
102
RTVSPropertyOp51
 70
     0
102
RTVSPropertyOp52
 70
     0
102
RTVSPropertyOp53
 70
     0
102
RTVSPropertyOp54
 70
     0
102
RTVSPropertyOp55
 70
     1
102
RTVSPropertyOp56
 70
     0
102
RTVSPropertyOp57
 70
     0
102
RTVSPropertyOp58
 70
     0
102
RTVSPropertyOp59
 70
     0
102
RTVSPropertyOp60
 70
     0
102
RTVSPropertyOp61
 70
     0
102
RTVSPropertyOp62
 70
     0
  0
XRECORD
  5
29C
102
{ACAD_REACTORS
330
29B
102
}
330
29B
100
AcDbXrecord
280
     1
102
RTVSPost2010Prop28
280
     0
102
RTVSPost2010PropOp28
 70
     1
102
RTVSPost2010Prop29
280
     1
102
RTVSPost2010PropOp29
 70
     1
102
RTVSPost2010Prop30
280
     1
102
RTVSPost2010PropOp30
 70
     1
102
RTVSPost2010Prop31
280
     0
102
RTVSPost2010PropOp31
 70
     1
102
RTVSPost2010Prop32
280
     0
102
RTVSPost2010PropOp32
 70
     1
102
RTVSPost2010Prop33
280
     0
102
RTVSPost2010PropOp33
 70
     1
102
RTVSPost2010Prop34
280
     0
102
RTVSPost2010PropOp34
 70
     1
102
RTVSPost2010Prop35
280
     0
102
RTVSPost2010PropOp35
 70
     1
102
RTVSPost2010Prop36
280
     0
102
RTVSPost2010PropOp36
 70
     1
102
RTVSPost2010Prop37
 90
       50
102
RTVSPost2010PropOp37
 70
     1
102
RTVSPost2010Prop38
140
0.0
102
RTVSPost2010PropOp38
 70
     1
102
RTVSPost2010Prop39
140
1.0
102
RTVSPost2010PropOp39
 70
     1
102
RTVSPost2010Prop40
 90
        0
102
RTVSPost2010PropOp40
 70
     1
102
RTVSPost2010Prop41ColorIndex
 90
       18
102
RTVSPost2010Prop41ColorRGB
 90
        0
102
RTVSPost2010PropOp41
 70
     1
102
RTVSPost2010Prop42
 90
       50
102
RTVSPost2010PropOp42
 70
     1
102
RTVSPost2010Prop43
 90
        3
102
RTVSPost2010PropOp43
 70
     1
102
RTVSPost2010Prop44ColorIndex
 90
        5
102
RTVSPost2010Prop44ColorRGB
 90
      255
102
RTVSPost2010PropOp44
 70
     1
102
RTVSPost2010Prop45
280
     0
102
RTVSPost2010PropOp45
 70
     1
102
RTVSPost2010Prop46
 90
       50
102
RTVSPost2010PropOp46
 70
     1
102
RTVSPost2010Prop47
 90
       50
102
RTVSPost2010PropOp47
 70
     1
102
RTVSPost2010Prop48
 90
       50
102
RTVSPost2010PropOp48
 70
     1
102
RTVSPost2010Prop49
280
     0
102
RTVSPost2010PropOp49
 70
     1
102
RTVSPost2010Prop50
 90
       50
102
RTVSPost2010PropOp50
 70
     1
102
RTVSPost2010Prop51ColorIndex
 90
      256
102
RTVSPost2010Prop51ColorRGB
 90
-16777216
102
RTVSPost2010PropOp51
 70
     0
102
RTVSPost2010Prop52
140
1.0
102
RTVSPost2010PropOp52
 70
     0
102
RTVSPost2010Prop53
 90
        2
102
RTVSPost2010PropOp53
 70
     1
102
RTVSPost2010Prop54
  1
strokes_ogs.tif
102
RTVSPost2010PropOp54
 70
     1
102
RTVSPost2010Prop55
280
     0
102
RTVSPost2010PropOp55
 70
     1
102
RTVSPost2010Prop56
140
1.0
102
RTVSPost2010PropOp56
 70
     1
102
RTVSPost2010Prop57
140
1.0
102
RTVSPost2010PropOp57
 70
     1
102
RTVSPropertyOp0
 70
     1
102
RTVSPropertyOp1
 70
     1
102
RTVSPropertyOp2
 70
     1
102
RTVSPropertyOp3
 70
     1
102
RTVSPropertyOp4
 70
     1
102
RTVSPropertyOp5
 70
     1
102
RTVSPropertyOp6
 70
     1
102
RTVSPropertyOp7
 70
     1
102
RTVSPropertyOp8
 70
     1
102
RTVSPropertyOp9
 70
     1
102
RTVSPropertyOp10
 70
     1
102
RTVSPropertyOp11
 70
     1
102
RTVSPropertyOp12
 70
     1
102
RTVSPropertyOp13
 70
     1
102
RTVSPropertyOp14
 70
     1
102
RTVSPropertyOp15
 70
     1
102
RTVSPropertyOp16
 70
     1
102
RTVSPropertyOp17
 70
     1
102
RTVSPropertyOp18
 70
     1
102
RTVSPropertyOp19
 70
     1
102
RTVSPropertyOp20
 70
     1
102
RTVSPropertyOp21
 70
     1
102
RTVSPropertyOp22
 70
     1
102
RTVSPropertyOp23
 70
     1
102
RTVSPropertyOp24
 70
     1
102
RTVSPropertyOp25
 70
     1
102
RTVSPropertyOp26
 70
     1
102
RTVSPropertyOp27
 70
     1
102
RTVSPropertyOp28
 70
     1
102
RTVSPropertyOp29
 70
     1
102
RTVSPropertyOp30
 70
     1
102
RTVSPropertyOp31
 70
     1
102
RTVSPropertyOp32
 70
     1
102
RTVSPropertyOp33
 70
     1
102
RTVSPropertyOp34
 70
     1
102
RTVSPropertyOp35
 70
     1
102
RTVSPropertyOp36
 70
     1
102
RTVSPropertyOp37
 70
     1
102
RTVSPropertyOp38
 70
     1
102
RTVSPropertyOp39
 70
     1
102
RTVSPropertyOp40
 70
     1
102
RTVSPropertyOp41
 70
     1
102
RTVSPropertyOp42
 70
     1
102
RTVSPropertyOp43
 70
     1
102
RTVSPropertyOp44
 70
     1
102
RTVSPropertyOp45
 70
     1
102
RTVSPropertyOp46
 70
     1
102
RTVSPropertyOp47
 70
     1
102
RTVSPropertyOp48
 70
     1
102
RTVSPropertyOp49
 70
     1
102
RTVSPropertyOp50
 70
     1
102
RTVSPropertyOp51
 70
     0
102
RTVSPropertyOp52
 70
     0
102
RTVSPropertyOp53
 70
     1
102
RTVSPropertyOp54
 70
     1
102
RTVSPropertyOp55
 70
     1
102
RTVSPropertyOp56
 70
     1
102
RTVSPropertyOp57
 70
     1
102
RTVSPropertyOp58
 70
     1
102
RTVSPropertyOp59
 70
     1
102
RTVSPropertyOp60
 70
     1
102
RTVSPropertyOp61
 70
     1
102
RTVSPropertyOp62
 70
     1
  0
XRECORD
  5
2B2
102
{ACAD_REACTORS
330
2B1
102
}
330
2B1
100
AcDbXrecord
280
     1
102
RTVSPost2010Prop28
280
     0
102
RTVSPost2010PropOp28
 70
     1
102
RTVSPost2010Prop29
280
     1
102
RTVSPost2010PropOp29
 70
     1
102
RTVSPost2010Prop30
280
     1
102
RTVSPost2010PropOp30
 70
     1
102
RTVSPost2010Prop31
280
     0
102
RTVSPost2010PropOp31
 70
     1
102
RTVSPost2010Prop32
280
     0
102
RTVSPost2010PropOp32
 70
     1
102
RTVSPost2010Prop33
280
     0
102
RTVSPost2010PropOp33
 70
     1
102
RTVSPost2010Prop34
280
     0
102
RTVSPost2010PropOp34
 70
     1
102
RTVSPost2010Prop35
280
     0
102
RTVSPost2010PropOp35
 70
     1
102
RTVSPost2010Prop36
280
     0
102
RTVSPost2010PropOp36
 70
     1
102
RTVSPost2010Prop37
 90
       50
102
RTVSPost2010PropOp37
 70
     1
102
RTVSPost2010Prop38
140
0.0
102
RTVSPost2010PropOp38
 70
     1
102
RTVSPost2010Prop39
140
1.0
102
RTVSPost2010PropOp39
 70
     1
102
RTVSPost2010Prop40
 90
        0
102
RTVSPost2010PropOp40
 70
     1
102
RTVSPost2010Prop41ColorIndex
 90
       18
102
RTVSPost2010Prop41ColorRGB
 90
        0
102
RTVSPost2010PropOp41
 70
     1
102
RTVSPost2010Prop42
 90
       50
102
RTVSPost2010PropOp42
 70
     1
102
RTVSPost2010Prop43
 90
        3
102
RTVSPost2010PropOp43
 70
     1
102
RTVSPost2010Prop44ColorIndex
 90
        5
102
RTVSPost2010Prop44ColorRGB
 90
      255
102
RTVSPost2010PropOp44
 70
     1
102
RTVSPost2010Prop45
280
     0
102
RTVSPost2010PropOp45
 70
     1
102
RTVSPost2010Prop46
 90
       50
102
RTVSPost2010PropOp46
 70
     1
102
RTVSPost2010Prop47
 90
       50
102
RTVSPost2010PropOp47
 70
     1
102
RTVSPost2010Prop48
 90
       50
102
RTVSPost2010PropOp48
 70
     1
102
RTVSPost2010Prop49
280
     0
102
RTVSPost2010PropOp49
 70
     1
102
RTVSPost2010Prop50
 90
       50
102
RTVSPost2010PropOp50
 70
     1
102
RTVSPost2010Prop51ColorIndex
 90
      256
102
RTVSPost2010Prop51ColorRGB
 90
-16777216
102
RTVSPost2010PropOp51
 70
     0
102
RTVSPost2010Prop52
140
1.0
102
RTVSPost2010PropOp52
 70
     0
102
RTVSPost2010Prop53
 90
        2
102
RTVSPost2010PropOp53
 70
     1
102
RTVSPost2010Prop54
  1
strokes_ogs.tif
102
RTVSPost2010PropOp54
 70
     1
102
RTVSPost2010Prop55
280
     0
102
RTVSPost2010PropOp55
 70
     1
102
RTVSPost2010Prop56
140
1.0
102
RTVSPost2010PropOp56
 70
     1
102
RTVSPost2010Prop57
140
1.0
102
RTVSPost2010PropOp57
 70
     1
102
RTVSPropertyOp0
 70
     1
102
RTVSPropertyOp1
 70
     1
102
RTVSPropertyOp2
 70
     1
102
RTVSPropertyOp3
 70
     1
102
RTVSPropertyOp4
 70
     1
102
RTVSPropertyOp5
 70
     1
102
RTVSPropertyOp6
 70
     1
102
RTVSPropertyOp7
 70
     1
102
RTVSPropertyOp8
 70
     1
102
RTVSPropertyOp9
 70
     1
102
RTVSPropertyOp10
 70
     1
102
RTVSPropertyOp11
 70
     1
102
RTVSPropertyOp12
 70
     1
102
RTVSPropertyOp13
 70
     1
102
RTVSPropertyOp14
 70
     1
102
RTVSPropertyOp15
 70
     1
102
RTVSPropertyOp16
 70
     1
102
RTVSPropertyOp17
 70
     1
102
RTVSPropertyOp18
 70
     1
102
RTVSPropertyOp19
 70
     1
102
RTVSPropertyOp20
 70
     1
102
RTVSPropertyOp21
 70
     1
102
RTVSPropertyOp22
 70
     1
102
RTVSPropertyOp23
 70
     1
102
RTVSPropertyOp24
 70
     1
102
RTVSPropertyOp25
 70
     1
102
RTVSPropertyOp26
 70
     1
102
RTVSPropertyOp27
 70
     1
102
RTVSPropertyOp28
 70
     1
102
RTVSPropertyOp29
 70
     1
102
RTVSPropertyOp30
 70
     1
102
RTVSPropertyOp31
 70
     1
102
RTVSPropertyOp32
 70
     1
102
RTVSPropertyOp33
 70
     1
102
RTVSPropertyOp34
 70
     1
102
RTVSPropertyOp35
 70
     1
102
RTVSPropertyOp36
 70
     1
102
RTVSPropertyOp37
 70
     1
102
RTVSPropertyOp38
 70
     1
102
RTVSPropertyOp39
 70
     1
102
RTVSPropertyOp40
 70
     1
102
RTVSPropertyOp41
 70
     1
102
RTVSPropertyOp42
 70
     1
102
RTVSPropertyOp43
 70
     1
102
RTVSPropertyOp44
 70
     1
102
RTVSPropertyOp45
 70
     1
102
RTVSPropertyOp46
 70
     1
102
RTVSPropertyOp47
 70
     1
102
RTVSPropertyOp48
 70
     1
102
RTVSPropertyOp49
 70
     1
102
RTVSPropertyOp50
 70
     1
102
RTVSPropertyOp51
 70
     0
102
RTVSPropertyOp52
 70
     0
102
RTVSPropertyOp53
 70
     1
102
RTVSPropertyOp54
 70
     1
102
RTVSPropertyOp55
 70
     1
102
RTVSPropertyOp56
 70
     1
102
RTVSPropertyOp57
 70
     1
102
RTVSPropertyOp58
 70
     1
102
RTVSPropertyOp59
 70
     1
102
RTVSPropertyOp60
 70
     1
102
RTVSPropertyOp61
 70
     1
102
RTVSPropertyOp62
 70
     1
  0
XRECORD
  5
2B0
102
{ACAD_REACTORS
330
2AF
102
}
330
2AF
100
AcDbXrecord
280
     1
102
RTVSPost2010Prop28
280
     0
102
RTVSPost2010PropOp28
 70
     1
102
RTVSPost2010Prop29
280
     1
102
RTVSPost2010PropOp29
 70
     1
102
RTVSPost2010Prop30
280
     1
102
RTVSPost2010PropOp30
 70
     1
102
RTVSPost2010Prop31
280
     0
102
RTVSPost2010PropOp31
 70
     1
102
RTVSPost2010Prop32
280
     0
102
RTVSPost2010PropOp32
 70
     1
102
RTVSPost2010Prop33
280
     0
102
RTVSPost2010PropOp33
 70
     1
102
RTVSPost2010Prop34
280
     0
102
RTVSPost2010PropOp34
 70
     1
102
RTVSPost2010Prop35
280
     0
102
RTVSPost2010PropOp35
 70
     1
102
RTVSPost2010Prop36
280
     0
102
RTVSPost2010PropOp36
 70
     1
102
RTVSPost2010Prop37
 90
       50
102
RTVSPost2010PropOp37
 70
     1
102
RTVSPost2010Prop38
140
0.0
102
RTVSPost2010PropOp38
 70
     1
102
RTVSPost2010Prop39
140
1.0
102
RTVSPost2010PropOp39
 70
     1
102
RTVSPost2010Prop40
 90
        0
102
RTVSPost2010PropOp40
 70
     1
102
RTVSPost2010Prop41ColorIndex
 90
       18
102
RTVSPost2010Prop41ColorRGB
 90
        0
102
RTVSPost2010PropOp41
 70
     1
102
RTVSPost2010Prop42
 90
       50
102
RTVSPost2010PropOp42
 70
     1
102
RTVSPost2010Prop43
 90
        3
102
RTVSPost2010PropOp43
 70
     1
102
RTVSPost2010Prop44ColorIndex
 90
        5
102
RTVSPost2010Prop44ColorRGB
 90
      255
102
RTVSPost2010PropOp44
 70
     1
102
RTVSPost2010Prop45
280
     0
102
RTVSPost2010PropOp45
 70
     1
102
RTVSPost2010Prop46
 90
       50
102
RTVSPost2010PropOp46
 70
     1
102
RTVSPost2010Prop47
 90
       50
102
RTVSPost2010PropOp47
 70
     1
102
RTVSPost2010Prop48
 90
       50
102
RTVSPost2010PropOp48
 70
     1
102
RTVSPost2010Prop49
280
     0
102
RTVSPost2010PropOp49
 70
     1
102
RTVSPost2010Prop50
 90
       50
102
RTVSPost2010PropOp50
 70
     1
102
RTVSPost2010Prop51ColorIndex
 90
      256
102
RTVSPost2010Prop51ColorRGB
 90
-16777216
102
RTVSPost2010PropOp51
 70
     0
102
RTVSPost2010Prop52
140
1.0
102
RTVSPost2010PropOp52
 70
     0
102
RTVSPost2010Prop53
 90
        2
102
RTVSPost2010PropOp53
 70
     1
102
RTVSPost2010Prop54
  1
strokes_ogs.tif
102
RTVSPost2010PropOp54
 70
     1
102
RTVSPost2010Prop55
280
     0
102
RTVSPost2010PropOp55
 70
     1
102
RTVSPost2010Prop56
140
1.0
102
RTVSPost2010PropOp56
 70
     1
102
RTVSPost2010Prop57
140
1.0
102
RTVSPost2010PropOp57
 70
     1
102
RTVSPropertyOp0
 70
     1
102
RTVSPropertyOp1
 70
     1
102
RTVSPropertyOp2
 70
     1
102
RTVSPropertyOp3
 70
     1
102
RTVSPropertyOp4
 70
     1
102
RTVSPropertyOp5
 70
     1
102
RTVSPropertyOp6
 70
     1
102
RTVSPropertyOp7
 70
     1
102
RTVSPropertyOp8
 70
     1
102
RTVSPropertyOp9
 70
     1
102
RTVSPropertyOp10
 70
     1
102
RTVSPropertyOp11
 70
     1
102
RTVSPropertyOp12
 70
     1
102
RTVSPropertyOp13
 70
     1
102
RTVSPropertyOp14
 70
     1
102
RTVSPropertyOp15
 70
     1
102
RTVSPropertyOp16
 70
     1
102
RTVSPropertyOp17
 70
     1
102
RTVSPropertyOp18
 70
     1
102
RTVSPropertyOp19
 70
     1
102
RTVSPropertyOp20
 70
     1
102
RTVSPropertyOp21
 70
     1
102
RTVSPropertyOp22
 70
     1
102
RTVSPropertyOp23
 70
     1
102
RTVSPropertyOp24
 70
     1
102
RTVSPropertyOp25
 70
     1
102
RTVSPropertyOp26
 70
     1
102
RTVSPropertyOp27
 70
     1
102
RTVSPropertyOp28
 70
     1
102
RTVSPropertyOp29
 70
     1
102
RTVSPropertyOp30
 70
     1
102
RTVSPropertyOp31
 70
     1
102
RTVSPropertyOp32
 70
     1
102
RTVSPropertyOp33
 70
     1
102
RTVSPropertyOp34
 70
     1
102
RTVSPropertyOp35
 70
     1
102
RTVSPropertyOp36
 70
     1
102
RTVSPropertyOp37
 70
     1
102
RTVSPropertyOp38
 70
     1
102
RTVSPropertyOp39
 70
     1
102
RTVSPropertyOp40
 70
     1
102
RTVSPropertyOp41
 70
     1
102
RTVSPropertyOp42
 70
     1
102
RTVSPropertyOp43
 70
     1
102
RTVSPropertyOp44
 70
     1
102
RTVSPropertyOp45
 70
     1
102
RTVSPropertyOp46
 70
     1
102
RTVSPropertyOp47
 70
     1
102
RTVSPropertyOp48
 70
     1
102
RTVSPropertyOp49
 70
     1
102
RTVSPropertyOp50
 70
     1
102
RTVSPropertyOp51
 70
     0
102
RTVSPropertyOp52
 70
     0
102
RTVSPropertyOp53
 70
     1
102
RTVSPropertyOp54
 70
     1
102
RTVSPropertyOp55
 70
     1
102
RTVSPropertyOp56
 70
     1
102
RTVSPropertyOp57
 70
     1
102
RTVSPropertyOp58
 70
     1
102
RTVSPropertyOp59
 70
     1
102
RTVSPropertyOp60
 70
     1
102
RTVSPropertyOp61
 70
     1
102
RTVSPropertyOp62
 70
     1
  0
XRECORD
  5
2AA
102
{ACAD_REACTORS
330
2A9
102
}
330
2A9
100
AcDbXrecord
280
     1
102
RTVSPost2010Prop28
280
     0
102
RTVSPost2010PropOp28
 70
     1
102
RTVSPost2010Prop29
280
     1
102
RTVSPost2010PropOp29
 70
     1
102
RTVSPost2010Prop30
280
     1
102
RTVSPost2010PropOp30
 70
     1
102
RTVSPost2010Prop31
280
     0
102
RTVSPost2010PropOp31
 70
     1
102
RTVSPost2010Prop32
280
     0
102
RTVSPost2010PropOp32
 70
     1
102
RTVSPost2010Prop33
280
     0
102
RTVSPost2010PropOp33
 70
     1
102
RTVSPost2010Prop34
280
     0
102
RTVSPost2010PropOp34
 70
     1
102
RTVSPost2010Prop35
280
     0
102
RTVSPost2010PropOp35
 70
     1
102
RTVSPost2010Prop36
280
     0
102
RTVSPost2010PropOp36
 70
     1
102
RTVSPost2010Prop37
 90
       50
102
RTVSPost2010PropOp37
 70
     1
102
RTVSPost2010Prop38
140
0.0
102
RTVSPost2010PropOp38
 70
     1
102
RTVSPost2010Prop39
140
1.0
102
RTVSPost2010PropOp39
 70
     1
102
RTVSPost2010Prop40
 90
        0
102
RTVSPost2010PropOp40
 70
     1
102
RTVSPost2010Prop41ColorIndex
 90
       18
102
RTVSPost2010Prop41ColorRGB
 90
        0
102
RTVSPost2010PropOp41
 70
     1
102
RTVSPost2010Prop42
 90
       50
102
RTVSPost2010PropOp42
 70
     1
102
RTVSPost2010Prop43
 90
        3
102
RTVSPost2010PropOp43
 70
     1
102
RTVSPost2010Prop44ColorIndex
 90
        5
102
RTVSPost2010Prop44ColorRGB
 90
      255
102
RTVSPost2010PropOp44
 70
     1
102
RTVSPost2010Prop45
280
     0
102
RTVSPost2010PropOp45
 70
     1
102
RTVSPost2010Prop46
 90
       50
102
RTVSPost2010PropOp46
 70
     1
102
RTVSPost2010Prop47
 90
       50
102
RTVSPost2010PropOp47
 70
     1
102
RTVSPost2010Prop48
 90
       50
102
RTVSPost2010PropOp48
 70
     1
102
RTVSPost2010Prop49
280
     0
102
RTVSPost2010PropOp49
 70
     1
102
RTVSPost2010Prop50
 90
       50
102
RTVSPost2010PropOp50
 70
     1
102
RTVSPost2010Prop51ColorIndex
 90
      256
102
RTVSPost2010Prop51ColorRGB
 90
-16777216
102
RTVSPost2010PropOp51
 70
     0
102
RTVSPost2010Prop52
140
1.0
102
RTVSPost2010PropOp52
 70
     0
102
RTVSPost2010Prop53
 90
        2
102
RTVSPost2010PropOp53
 70
     1
102
RTVSPost2010Prop54
  1
strokes_ogs.tif
102
RTVSPost2010PropOp54
 70
     1
102
RTVSPost2010Prop55
280
     0
102
RTVSPost2010PropOp55
 70
     1
102
RTVSPost2010Prop56
140
1.0
102
RTVSPost2010PropOp56
 70
     1
102
RTVSPost2010Prop57
140
1.0
102
RTVSPost2010PropOp57
 70
     1
102
RTVSPropertyOp0
 70
     1
102
RTVSPropertyOp1
 70
     1
102
RTVSPropertyOp2
 70
     1
102
RTVSPropertyOp3
 70
     1
102
RTVSPropertyOp4
 70
     1
102
RTVSPropertyOp5
 70
     1
102
RTVSPropertyOp6
 70
     1
102
RTVSPropertyOp7
 70
     1
102
RTVSPropertyOp8
 70
     1
102
RTVSPropertyOp9
 70
     1
102
RTVSPropertyOp10
 70
     1
102
RTVSPropertyOp11
 70
     1
102
RTVSPropertyOp12
 70
     1
102
RTVSPropertyOp13
 70
     1
102
RTVSPropertyOp14
 70
     1
102
RTVSPropertyOp15
 70
     1
102
RTVSPropertyOp16
 70
     1
102
RTVSPropertyOp17
 70
     1
102
RTVSPropertyOp18
 70
     1
102
RTVSPropertyOp19
 70
     1
102
RTVSPropertyOp20
 70
     1
102
RTVSPropertyOp21
 70
     1
102
RTVSPropertyOp22
 70
     1
102
RTVSPropertyOp23
 70
     1
102
RTVSPropertyOp24
 70
     1
102
RTVSPropertyOp25
 70
     1
102
RTVSPropertyOp26
 70
     1
102
RTVSPropertyOp27
 70
     1
102
RTVSPropertyOp28
 70
     1
102
RTVSPropertyOp29
 70
     1
102
RTVSPropertyOp30
 70
     1
102
RTVSPropertyOp31
 70
     1
102
RTVSPropertyOp32
 70
     1
102
RTVSPropertyOp33
 70
     1
102
RTVSPropertyOp34
 70
     1
102
RTVSPropertyOp35
 70
     1
102
RTVSPropertyOp36
 70
     1
102
RTVSPropertyOp37
 70
     1
102
RTVSPropertyOp38
 70
     1
102
RTVSPropertyOp39
 70
     1
102
RTVSPropertyOp40
 70
     1
102
RTVSPropertyOp41
 70
     1
102
RTVSPropertyOp42
 70
     1
102
RTVSPropertyOp43
 70
     1
102
RTVSPropertyOp44
 70
     1
102
RTVSPropertyOp45
 70
     1
102
RTVSPropertyOp46
 70
     1
102
RTVSPropertyOp47
 70
     1
102
RTVSPropertyOp48
 70
     1
102
RTVSPropertyOp49
 70
     1
102
RTVSPropertyOp50
 70
     1
102
RTVSPropertyOp51
 70
     0
102
RTVSPropertyOp52
 70
     0
102
RTVSPropertyOp53
 70
     1
102
RTVSPropertyOp54
 70
     1
102
RTVSPropertyOp55
 70
     1
102
RTVSPropertyOp56
 70
     1
102
RTVSPropertyOp57
 70
     1
102
RTVSPropertyOp58
 70
     1
102
RTVSPropertyOp59
 70
     1
102
RTVSPropertyOp60
 70
     1
102
RTVSPropertyOp61
 70
     1
102
RTVSPropertyOp62
 70
     1
  0
XRECORD
  5
2AC
102
{ACAD_REACTORS
330
2AB
102
}
330
2AB
100
AcDbXrecord
280
     1
102
RTVSPost2010Prop28
280
     0
102
RTVSPost2010PropOp28
 70
     1
102
RTVSPost2010Prop29
280
     1
102
RTVSPost2010PropOp29
 70
     1
102
RTVSPost2010Prop30
280
     1
102
RTVSPost2010PropOp30
 70
     1
102
RTVSPost2010Prop31
280
     0
102
RTVSPost2010PropOp31
 70
     1
102
RTVSPost2010Prop32
280
     0
102
RTVSPost2010PropOp32
 70
     1
102
RTVSPost2010Prop33
280
     0
102
RTVSPost2010PropOp33
 70
     1
102
RTVSPost2010Prop34
280
     0
102
RTVSPost2010PropOp34
 70
     1
102
RTVSPost2010Prop35
280
     0
102
RTVSPost2010PropOp35
 70
     1
102
RTVSPost2010Prop36
280
     0
102
RTVSPost2010PropOp36
 70
     1
102
RTVSPost2010Prop37
 90
       50
102
RTVSPost2010PropOp37
 70
     1
102
RTVSPost2010Prop38
140
0.0
102
RTVSPost2010PropOp38
 70
     1
102
RTVSPost2010Prop39
140
1.0
102
RTVSPost2010PropOp39
 70
     1
102
RTVSPost2010Prop40
 90
        0
102
RTVSPost2010PropOp40
 70
     1
102
RTVSPost2010Prop41ColorIndex
 90
       18
102
RTVSPost2010Prop41ColorRGB
 90
        0
102
RTVSPost2010PropOp41
 70
     1
102
RTVSPost2010Prop42
 90
       50
102
RTVSPost2010PropOp42
 70
     1
102
RTVSPost2010Prop43
 90
        3
102
RTVSPost2010PropOp43
 70
     1
102
RTVSPost2010Prop44ColorIndex
 90
        5
102
RTVSPost2010Prop44ColorRGB
 90
      255
102
RTVSPost2010PropOp44
 70
     1
102
RTVSPost2010Prop45
280
     0
102
RTVSPost2010PropOp45
 70
     1
102
RTVSPost2010Prop46
 90
       50
102
RTVSPost2010PropOp46
 70
     1
102
RTVSPost2010Prop47
 90
       50
102
RTVSPost2010PropOp47
 70
     1
102
RTVSPost2010Prop48
 90
       50
102
RTVSPost2010PropOp48
 70
     1
102
RTVSPost2010Prop49
280
     0
102
RTVSPost2010PropOp49
 70
     1
102
RTVSPost2010Prop50
 90
       50
102
RTVSPost2010PropOp50
 70
     1
102
RTVSPost2010Prop51ColorIndex
 90
      256
102
RTVSPost2010Prop51ColorRGB
 90
-16777216
102
RTVSPost2010PropOp51
 70
     0
102
RTVSPost2010Prop52
140
1.0
102
RTVSPost2010PropOp52
 70
     0
102
RTVSPost2010Prop53
 90
        2
102
RTVSPost2010PropOp53
 70
     1
102
RTVSPost2010Prop54
  1
strokes_ogs.tif
102
RTVSPost2010PropOp54
 70
     1
102
RTVSPost2010Prop55
280
     0
102
RTVSPost2010PropOp55
 70
     1
102
RTVSPost2010Prop56
140
1.0
102
RTVSPost2010PropOp56
 70
     1
102
RTVSPost2010Prop57
140
1.0
102
RTVSPost2010PropOp57
 70
     1
102
RTVSPropertyOp0
 70
     1
102
RTVSPropertyOp1
 70
     1
102
RTVSPropertyOp2
 70
     1
102
RTVSPropertyOp3
 70
     1
102
RTVSPropertyOp4
 70
     1
102
RTVSPropertyOp5
 70
     1
102
RTVSPropertyOp6
 70
     1
102
RTVSPropertyOp7
 70
     1
102
RTVSPropertyOp8
 70
     1
102
RTVSPropertyOp9
 70
     1
102
RTVSPropertyOp10
 70
     1
102
RTVSPropertyOp11
 70
     1
102
RTVSPropertyOp12
 70
     1
102
RTVSPropertyOp13
 70
     1
102
RTVSPropertyOp14
 70
     1
102
RTVSPropertyOp15
 70
     1
102
RTVSPropertyOp16
 70
     1
102
RTVSPropertyOp17
 70
     1
102
RTVSPropertyOp18
 70
     1
102
RTVSPropertyOp19
 70
     1
102
RTVSPropertyOp20
 70
     1
102
RTVSPropertyOp21
 70
     1
102
RTVSPropertyOp22
 70
     1
102
RTVSPropertyOp23
 70
     1
102
RTVSPropertyOp24
 70
     1
102
RTVSPropertyOp25
 70
     1
102
RTVSPropertyOp26
 70
     1
102
RTVSPropertyOp27
 70
     1
102
RTVSPropertyOp28
 70
     1
102
RTVSPropertyOp29
 70
     1
102
RTVSPropertyOp30
 70
     1
102
RTVSPropertyOp31
 70
     1
102
RTVSPropertyOp32
 70
     1
102
RTVSPropertyOp33
 70
     1
102
RTVSPropertyOp34
 70
     1
102
RTVSPropertyOp35
 70
     1
102
RTVSPropertyOp36
 70
     1
102
RTVSPropertyOp37
 70
     1
102
RTVSPropertyOp38
 70
     1
102
RTVSPropertyOp39
 70
     1
102
RTVSPropertyOp40
 70
     1
102
RTVSPropertyOp41
 70
     1
102
RTVSPropertyOp42
 70
     1
102
RTVSPropertyOp43
 70
     1
102
RTVSPropertyOp44
 70
     1
102
RTVSPropertyOp45
 70
     1
102
RTVSPropertyOp46
 70
     1
102
RTVSPropertyOp47
 70
     1
102
RTVSPropertyOp48
 70
     1
102
RTVSPropertyOp49
 70
     1
102
RTVSPropertyOp50
 70
     1
102
RTVSPropertyOp51
 70
     0
102
RTVSPropertyOp52
 70
     0
102
RTVSPropertyOp53
 70
     1
102
RTVSPropertyOp54
 70
     1
102
RTVSPropertyOp55
 70
     1
102
RTVSPropertyOp56
 70
     1
102
RTVSPropertyOp57
 70
     1
102
RTVSPropertyOp58
 70
     1
102
RTVSPropertyOp59
 70
     1
102
RTVSPropertyOp60
 70
     1
102
RTVSPropertyOp61
 70
     1
102
RTVSPropertyOp62
 70
     1
  0
XRECORD
  5
2A2
102
{ACAD_REACTORS
330
2A1
102
}
330
2A1
100
AcDbXrecord
280
     1
102
RTVSPost2010Prop28
280
     0
102
RTVSPost2010PropOp28
 70
     1
102
RTVSPost2010Prop29
280
     1
102
RTVSPost2010PropOp29
 70
     1
102
RTVSPost2010Prop30
280
     1
102
RTVSPost2010PropOp30
 70
     1
102
RTVSPost2010Prop31
280
     0
102
RTVSPost2010PropOp31
 70
     1
102
RTVSPost2010Prop32
280
     0
102
RTVSPost2010PropOp32
 70
     1
102
RTVSPost2010Prop33
280
     0
102
RTVSPost2010PropOp33
 70
     1
102
RTVSPost2010Prop34
280
     0
102
RTVSPost2010PropOp34
 70
     1
102
RTVSPost2010Prop35
280
     0
102
RTVSPost2010PropOp35
 70
     1
102
RTVSPost2010Prop36
280
     0
102
RTVSPost2010PropOp36
 70
     1
102
RTVSPost2010Prop37
 90
       50
102
RTVSPost2010PropOp37
 70
     1
102
RTVSPost2010Prop38
140
0.0
102
RTVSPost2010PropOp38
 70
     1
102
RTVSPost2010Prop39
140
1.0
102
RTVSPost2010PropOp39
 70
     1
102
RTVSPost2010Prop40
 90
        0
102
RTVSPost2010PropOp40
 70
     1
102
RTVSPost2010Prop41ColorIndex
 90
       18
102
RTVSPost2010Prop41ColorRGB
 90
        0
102
RTVSPost2010PropOp41
 70
     1
102
RTVSPost2010Prop42
 90
       50
102
RTVSPost2010PropOp42
 70
     1
102
RTVSPost2010Prop43
 90
        3
102
RTVSPost2010PropOp43
 70
     1
102
RTVSPost2010Prop44ColorIndex
 90
        5
102
RTVSPost2010Prop44ColorRGB
 90
      255
102
RTVSPost2010PropOp44
 70
     1
102
RTVSPost2010Prop45
280
     0
102
RTVSPost2010PropOp45
 70
     1
102
RTVSPost2010Prop46
 90
       50
102
RTVSPost2010PropOp46
 70
     1
102
RTVSPost2010Prop47
 90
       50
102
RTVSPost2010PropOp47
 70
     1
102
RTVSPost2010Prop48
 90
       50
102
RTVSPost2010PropOp48
 70
     1
102
RTVSPost2010Prop49
280
     0
102
RTVSPost2010PropOp49
 70
     1
102
RTVSPost2010Prop50
 90
       50
102
RTVSPost2010PropOp50
 70
     1
102
RTVSPost2010Prop51ColorIndex
 90
      256
102
RTVSPost2010Prop51ColorRGB
 90
-16777216
102
RTVSPost2010PropOp51
 70
     0
102
RTVSPost2010Prop52
140
1.0
102
RTVSPost2010PropOp52
 70
     0
102
RTVSPost2010Prop53
 90
        2
102
RTVSPost2010PropOp53
 70
     1
102
RTVSPost2010Prop54
  1
strokes_ogs.tif
102
RTVSPost2010PropOp54
 70
     1
102
RTVSPost2010Prop55
280
     0
102
RTVSPost2010PropOp55
 70
     1
102
RTVSPost2010Prop56
140
1.0
102
RTVSPost2010PropOp56
 70
     1
102
RTVSPost2010Prop57
140
1.0
102
RTVSPost2010PropOp57
 70
     1
102
RTVSPropertyOp0
 70
     1
102
RTVSPropertyOp1
 70
     1
102
RTVSPropertyOp2
 70
     1
102
RTVSPropertyOp3
 70
     1
102
RTVSPropertyOp4
 70
     1
102
RTVSPropertyOp5
 70
     1
102
RTVSPropertyOp6
 70
     1
102
RTVSPropertyOp7
 70
     1
102
RTVSPropertyOp8
 70
     1
102
RTVSPropertyOp9
 70
     1
102
RTVSPropertyOp10
 70
     1
102
RTVSPropertyOp11
 70
     1
102
RTVSPropertyOp12
 70
     1
102
RTVSPropertyOp13
 70
     1
102
RTVSPropertyOp14
 70
     1
102
RTVSPropertyOp15
 70
     1
102
RTVSPropertyOp16
 70
     1
102
RTVSPropertyOp17
 70
     1
102
RTVSPropertyOp18
 70
     1
102
RTVSPropertyOp19
 70
     1
102
RTVSPropertyOp20
 70
     1
102
RTVSPropertyOp21
 70
     1
102
RTVSPropertyOp22
 70
     1
102
RTVSPropertyOp23
 70
     1
102
RTVSPropertyOp24
 70
     1
102
RTVSPropertyOp25
 70
     1
102
RTVSPropertyOp26
 70
     1
102
RTVSPropertyOp27
 70
     1
102
RTVSPropertyOp28
 70
     1
102
RTVSPropertyOp29
 70
     1
102
RTVSPropertyOp30
 70
     1
102
RTVSPropertyOp31
 70
     1
102
RTVSPropertyOp32
 70
     1
102
RTVSPropertyOp33
 70
     1
102
RTVSPropertyOp34
 70
     1
102
RTVSPropertyOp35
 70
     1
102
RTVSPropertyOp36
 70
     1
102
RTVSPropertyOp37
 70
     1
102
RTVSPropertyOp38
 70
     1
102
RTVSPropertyOp39
 70
     1
102
RTVSPropertyOp40
 70
     1
102
RTVSPropertyOp41
 70
     1
102
RTVSPropertyOp42
 70
     1
102
RTVSPropertyOp43
 70
     1
102
RTVSPropertyOp44
 70
     1
102
RTVSPropertyOp45
 70
     1
102
RTVSPropertyOp46
 70
     1
102
RTVSPropertyOp47
 70
     1
102
RTVSPropertyOp48
 70
     1
102
RTVSPropertyOp49
 70
     1
102
RTVSPropertyOp50
 70
     1
102
RTVSPropertyOp51
 70
     0
102
RTVSPropertyOp52
 70
     0
102
RTVSPropertyOp53
 70
     1
102
RTVSPropertyOp54
 70
     1
102
RTVSPropertyOp55
 70
     1
102
RTVSPropertyOp56
 70
     1
102
RTVSPropertyOp57
 70
     1
102
RTVSPropertyOp58
 70
     1
102
RTVSPropertyOp59
 70
     1
102
RTVSPropertyOp60
 70
     1
102
RTVSPropertyOp61
 70
     1
102
RTVSPropertyOp62
 70
     1
  0
XRECORD
  5
296
102
{ACAD_REACTORS
330
295
102
}
330
295
100
AcDbXrecord
280
     1
102
RTVSPost2010Prop28
280
     0
102
RTVSPost2010PropOp28
 70
     1
102
RTVSPost2010Prop29
280
     1
102
RTVSPost2010PropOp29
 70
     1
102
RTVSPost2010Prop30
280
     1
102
RTVSPost2010PropOp30
 70
     1
102
RTVSPost2010Prop31
280
     0
102
RTVSPost2010PropOp31
 70
     1
102
RTVSPost2010Prop32
280
     0
102
RTVSPost2010PropOp32
 70
     1
102
RTVSPost2010Prop33
280
     0
102
RTVSPost2010PropOp33
 70
     1
102
RTVSPost2010Prop34
280
     0
102
RTVSPost2010PropOp34
 70
     1
102
RTVSPost2010Prop35
280
     0
102
RTVSPost2010PropOp35
 70
     1
102
RTVSPost2010Prop36
280
     0
102
RTVSPost2010PropOp36
 70
     1
102
RTVSPost2010Prop37
 90
       50
102
RTVSPost2010PropOp37
 70
     1
102
RTVSPost2010Prop38
140
0.0
102
RTVSPost2010PropOp38
 70
     1
102
RTVSPost2010Prop39
140
1.0
102
RTVSPost2010PropOp39
 70
     1
102
RTVSPost2010Prop40
 90
        0
102
RTVSPost2010PropOp40
 70
     1
102
RTVSPost2010Prop41ColorIndex
 90
       18
102
RTVSPost2010Prop41ColorRGB
 90
        0
102
RTVSPost2010PropOp41
 70
     1
102
RTVSPost2010Prop42
 90
       50
102
RTVSPost2010PropOp42
 70
     1
102
RTVSPost2010Prop43
 90
        3
102
RTVSPost2010PropOp43
 70
     1
102
RTVSPost2010Prop44ColorIndex
 90
        5
102
RTVSPost2010Prop44ColorRGB
 90
      255
102
RTVSPost2010PropOp44
 70
     1
102
RTVSPost2010Prop45
280
     0
102
RTVSPost2010PropOp45
 70
     1
102
RTVSPost2010Prop46
 90
       50
102
RTVSPost2010PropOp46
 70
     1
102
RTVSPost2010Prop47
 90
       50
102
RTVSPost2010PropOp47
 70
     1
102
RTVSPost2010Prop48
 90
       50
102
RTVSPost2010PropOp48
 70
     1
102
RTVSPost2010Prop49
280
     0
102
RTVSPost2010PropOp49
 70
     1
102
RTVSPost2010Prop50
 90
       50
102
RTVSPost2010PropOp50
 70
     1
102
RTVSPost2010Prop51ColorIndex
 90
      256
102
RTVSPost2010Prop51ColorRGB
 90
-16777216
102
RTVSPost2010PropOp51
 70
     0
102
RTVSPost2010Prop52
140
1.0
102
RTVSPost2010PropOp52
 70
     0
102
RTVSPost2010Prop53
 90
        2
102
RTVSPost2010PropOp53
 70
     1
102
RTVSPost2010Prop54
  1
strokes_ogs.tif
102
RTVSPost2010PropOp54
 70
     1
102
RTVSPost2010Prop55
280
     0
102
RTVSPost2010PropOp55
 70
     1
102
RTVSPost2010Prop56
140
1.0
102
RTVSPost2010PropOp56
 70
     1
102
RTVSPost2010Prop57
140
1.0
102
RTVSPost2010PropOp57
 70
     1
102
RTVSPropertyOp0
 70
     1
102
RTVSPropertyOp1
 70
     1
102
RTVSPropertyOp2
 70
     1
102
RTVSPropertyOp3
 70
     1
102
RTVSPropertyOp4
 70
     1
102
RTVSPropertyOp5
 70
     1
102
RTVSPropertyOp6
 70
     1
102
RTVSPropertyOp7
 70
     1
102
RTVSPropertyOp8
 70
     1
102
RTVSPropertyOp9
 70
     1
102
RTVSPropertyOp10
 70
     1
102
RTVSPropertyOp11
 70
     1
102
RTVSPropertyOp12
 70
     1
102
RTVSPropertyOp13
 70
     1
102
RTVSPropertyOp14
 70
     1
102
RTVSPropertyOp15
 70
     1
102
RTVSPropertyOp16
 70
     1
102
RTVSPropertyOp17
 70
     1
102
RTVSPropertyOp18
 70
     1
102
RTVSPropertyOp19
 70
     1
102
RTVSPropertyOp20
 70
     1
102
RTVSPropertyOp21
 70
     1
102
RTVSPropertyOp22
 70
     1
102
RTVSPropertyOp23
 70
     1
102
RTVSPropertyOp24
 70
     1
102
RTVSPropertyOp25
 70
     1
102
RTVSPropertyOp26
 70
     1
102
RTVSPropertyOp27
 70
     1
102
RTVSPropertyOp28
 70
     1
102
RTVSPropertyOp29
 70
     1
102
RTVSPropertyOp30
 70
     1
102
RTVSPropertyOp31
 70
     1
102
RTVSPropertyOp32
 70
     1
102
RTVSPropertyOp33
 70
     1
102
RTVSPropertyOp34
 70
     1
102
RTVSPropertyOp35
 70
     1
102
RTVSPropertyOp36
 70
     1
102
RTVSPropertyOp37
 70
     1
102
RTVSPropertyOp38
 70
     1
102
RTVSPropertyOp39
 70
     1
102
RTVSPropertyOp40
 70
     1
102
RTVSPropertyOp41
 70
     1
102
RTVSPropertyOp42
 70
     1
102
RTVSPropertyOp43
 70
     1
102
RTVSPropertyOp44
 70
     1
102
RTVSPropertyOp45
 70
     1
102
RTVSPropertyOp46
 70
     1
102
RTVSPropertyOp47
 70
     1
102
RTVSPropertyOp48
 70
     1
102
RTVSPropertyOp49
 70
     1
102
RTVSPropertyOp50
 70
     1
102
RTVSPropertyOp51
 70
     0
102
RTVSPropertyOp52
 70
     0
102
RTVSPropertyOp53
 70
     1
102
RTVSPropertyOp54
 70
     1
102
RTVSPropertyOp55
 70
     1
102
RTVSPropertyOp56
 70
     1
102
RTVSPropertyOp57
 70
     1
102
RTVSPropertyOp58
 70
     1
102
RTVSPropertyOp59
 70
     1
102
RTVSPropertyOp60
 70
     1
102
RTVSPropertyOp61
 70
     1
102
RTVSPropertyOp62
 70
     1
  0
XRECORD
  5
2AE
102
{ACAD_REACTORS
330
2AD
102
}
330
2AD
100
AcDbXrecord
280
     1
102
RTVSPost2010Prop28
280
     0
102
RTVSPost2010PropOp28
 70
     1
102
RTVSPost2010Prop29
280
     1
102
RTVSPost2010PropOp29
 70
     1
102
RTVSPost2010Prop30
280
     1
102
RTVSPost2010PropOp30
 70
     1
102
RTVSPost2010Prop31
280
     0
102
RTVSPost2010PropOp31
 70
     1
102
RTVSPost2010Prop32
280
     0
102
RTVSPost2010PropOp32
 70
     1
102
RTVSPost2010Prop33
280
     0
102
RTVSPost2010PropOp33
 70
     1
102
RTVSPost2010Prop34
280
     0
102
RTVSPost2010PropOp34
 70
     1
102
RTVSPost2010Prop35
280
     0
102
RTVSPost2010PropOp35
 70
     1
102
RTVSPost2010Prop36
280
     0
102
RTVSPost2010PropOp36
 70
     1
102
RTVSPost2010Prop37
 90
       50
102
RTVSPost2010PropOp37
 70
     1
102
RTVSPost2010Prop38
140
0.0
102
RTVSPost2010PropOp38
 70
     1
102
RTVSPost2010Prop39
140
1.0
102
RTVSPost2010PropOp39
 70
     1
102
RTVSPost2010Prop40
 90
        0
102
RTVSPost2010PropOp40
 70
     1
102
RTVSPost2010Prop41ColorIndex
 90
       18
102
RTVSPost2010Prop41ColorRGB
 90
        0
102
RTVSPost2010PropOp41
 70
     1
102
RTVSPost2010Prop42
 90
       50
102
RTVSPost2010PropOp42
 70
     1
102
RTVSPost2010Prop43
 90
        3
102
RTVSPost2010PropOp43
 70
     1
102
RTVSPost2010Prop44ColorIndex
 90
        5
102
RTVSPost2010Prop44ColorRGB
 90
      255
102
RTVSPost2010PropOp44
 70
     1
102
RTVSPost2010Prop45
280
     0
102
RTVSPost2010PropOp45
 70
     1
102
RTVSPost2010Prop46
 90
       50
102
RTVSPost2010PropOp46
 70
     1
102
RTVSPost2010Prop47
 90
       50
102
RTVSPost2010PropOp47
 70
     1
102
RTVSPost2010Prop48
 90
       50
102
RTVSPost2010PropOp48
 70
     1
102
RTVSPost2010Prop49
280
     0
102
RTVSPost2010PropOp49
 70
     1
102
RTVSPost2010Prop50
 90
       50
102
RTVSPost2010PropOp50
 70
     1
102
RTVSPost2010Prop51ColorIndex
 90
      256
102
RTVSPost2010Prop51ColorRGB
 90
-16777216
102
RTVSPost2010PropOp51
 70
     0
102
RTVSPost2010Prop52
140
1.0
102
RTVSPost2010PropOp52
 70
     0
102
RTVSPost2010Prop53
 90
        2
102
RTVSPost2010PropOp53
 70
     1
102
RTVSPost2010Prop54
  1
strokes_ogs.tif
102
RTVSPost2010PropOp54
 70
     1
102
RTVSPost2010Prop55
280
     0
102
RTVSPost2010PropOp55
 70
     1
102
RTVSPost2010Prop56
140
1.0
102
RTVSPost2010PropOp56
 70
     1
102
RTVSPost2010Prop57
140
1.0
102
RTVSPost2010PropOp57
 70
     1
102
RTVSPropertyOp0
 70
     1
102
RTVSPropertyOp1
 70
     1
102
RTVSPropertyOp2
 70
     1
102
RTVSPropertyOp3
 70
     1
102
RTVSPropertyOp4
 70
     1
102
RTVSPropertyOp5
 70
     1
102
RTVSPropertyOp6
 70
     1
102
RTVSPropertyOp7
 70
     1
102
RTVSPropertyOp8
 70
     1
102
RTVSPropertyOp9
 70
     1
102
RTVSPropertyOp10
 70
     1
102
RTVSPropertyOp11
 70
     1
102
RTVSPropertyOp12
 70
     1
102
RTVSPropertyOp13
 70
     1
102
RTVSPropertyOp14
 70
     1
102
RTVSPropertyOp15
 70
     1
102
RTVSPropertyOp16
 70
     1
102
RTVSPropertyOp17
 70
     1
102
RTVSPropertyOp18
 70
     1
102
RTVSPropertyOp19
 70
     1
102
RTVSPropertyOp20
 70
     1
102
RTVSPropertyOp21
 70
     1
102
RTVSPropertyOp22
 70
     1
102
RTVSPropertyOp23
 70
     1
102
RTVSPropertyOp24
 70
     1
102
RTVSPropertyOp25
 70
     1
102
RTVSPropertyOp26
 70
     1
102
RTVSPropertyOp27
 70
     1
102
RTVSPropertyOp28
 70
     1
102
RTVSPropertyOp29
 70
     1
102
RTVSPropertyOp30
 70
     1
102
RTVSPropertyOp31
 70
     1
102
RTVSPropertyOp32
 70
     1
102
RTVSPropertyOp33
 70
     1
102
RTVSPropertyOp34
 70
     1
102
RTVSPropertyOp35
 70
     1
102
RTVSPropertyOp36
 70
     1
102
RTVSPropertyOp37
 70
     1
102
RTVSPropertyOp38
 70
     1
102
RTVSPropertyOp39
 70
     1
102
RTVSPropertyOp40
 70
     1
102
RTVSPropertyOp41
 70
     1
102
RTVSPropertyOp42
 70
     1
102
RTVSPropertyOp43
 70
     1
102
RTVSPropertyOp44
 70
     1
102
RTVSPropertyOp45
 70
     1
102
RTVSPropertyOp46
 70
     1
102
RTVSPropertyOp47
 70
     1
102
RTVSPropertyOp48
 70
     1
102
RTVSPropertyOp49
 70
     1
102
RTVSPropertyOp50
 70
     1
102
RTVSPropertyOp51
 70
     0
102
RTVSPropertyOp52
 70
     0
102
RTVSPropertyOp53
 70
     1
102
RTVSPropertyOp54
 70
     1
102
RTVSPropertyOp55
 70
     1
102
RTVSPropertyOp56
 70
     1
102
RTVSPropertyOp57
 70
     1
102
RTVSPropertyOp58
 70
     1
102
RTVSPropertyOp59
 70
     1
102
RTVSPropertyOp60
 70
     1
102
RTVSPropertyOp61
 70
     1
102
RTVSPropertyOp62
 70
     1
  0
ENDSEC
  0
EOF
